  0
SECTION
  2
HEADER
  9
$ACADVER
  1
AC1015
  9
$ACADMAINTVER
 70
    20
  9
$DWGCODEPAGE
  3
ANSI_932
  9
$INSBASE
 10
0.0
 20
120.4992141396419
 30
0.0
  9
$EXTMIN
 10
1.985236180732044
 20
5.495072439799514
 30
-0.0015258207003583
  9
$EXTMAX
 10
127.0064747906481
 20
118.5095801767689
 30
0.0000000349246037
  9
$LIMMIN
 10
-139.8287979831839
 20
-0.3363807147279658
  9
$LIMMAX
 10
398.8557467307846
 20
394.4673933017348
  9
$ORTHOMODE
 70
     1
  9
$REGENMODE
 70
     1
  9
$FILLMODE
 70
     1
  9
$QTEXTMODE
 70
     0
  9
$MIRRTEXT
 70
     1
  9
$LTSCALE
 40
1.0
  9
$ATTMODE
 70
     1
  9
$TEXTSIZE
 40
3.0
  9
$TRACEWID
 40
0.5
  9
$TEXTSTYLE
  7
STANDARD
  9
$CLAYER
  8
0
  9
$CELTYPE
  6
BYLAYER
  9
$CECOLOR
 62
   256
  9
$CELTSCALE
 40
1.0
  9
$DISPSILH
 70
     0
  9
$DIMSCALE
 40
1.0
  9
$DIMASZ
 40
2.0
  9
$DIMEXO
 40
2.0
  9
$DIMDLI
 40
8.0
  9
$DIMRND
 40
0.0
  9
$DIMDLE
 40
0.0
  9
$DIMEXE
 40
2.0
  9
$DIMTP
 40
0.0
  9
$DIMTM
 40
0.0
  9
$DIMTXT
 40
2.5
  9
$DIMCEN
 40
0.0
  9
$DIMTSZ
 40
0.0
  9
$DIMTOL
 70
     0
  9
$DIMLIM
 70
     0
  9
$DIMTIH
 70
     0
  9
$DIMTOH
 70
     0
  9
$DIMSE1
 70
     0
  9
$DIMSE2
 70
     0
  9
$DIMTAD
 70
     3
  9
$DIMZIN
 70
     0
  9
$DIMBLK
  1

  9
$DIMASO
 70
     1
  9
$DIMSHO
 70
     1
  9
$DIMPOST
  1

  9
$DIMAPOST
  1

  9
$DIMALT
 70
     0
  9
$DIMALTD
 70
     2
  9
$DIMALTF
 40
25.4
  9
$DIMLFAC
 40
1.0
  9
$DIMTOFL
 70
     1
  9
$DIMTVP
 40
0.0
  9
$DIMTIX
 70
     0
  9
$DIMSOXD
 70
     0
  9
$DIMSAH
 70
     1
  9
$DIMBLK1
  1
OPEN30
  9
$DIMBLK2
  1
OPEN30
  9
$DIMSTYLE
  2
STANDARD
  9
$DIMCLRD
 70
     0
  9
$DIMCLRE
 70
     0
  9
$DIMCLRT
 70
     0
  9
$DIMTFAC
 40
1.0
  9
$DIMGAP
 40
0.5
  9
$DIMJUST
 70
     0
  9
$DIMSD1
 70
     0
  9
$DIMSD2
 70
     0
  9
$DIMTOLJ
 70
     1
  9
$DIMTZIN
 70
     0
  9
$DIMALTZ
 70
     0
  9
$DIMALTTZ
 70
     0
  9
$DIMUPT
 70
     0
  9
$DIMDEC
 70
     4
  9
$DIMTDEC
 70
     4
  9
$DIMALTU
 70
     2
  9
$DIMALTTD
 70
     2
  9
$DIMTXSTY
  7
STANDARD
  9
$DIMAUNIT
 70
     0
  9
$DIMADEC
 70
     0
  9
$DIMALTRND
 40
0.0
  9
$DIMAZIN
 70
     0
  9
$DIMDSEP
 70
    46
  9
$DIMATFIT
 70
     3
  9
$DIMFRAC
 70
     0
  9
$DIMLDRBLK
  1
OPEN30
  9
$DIMLUNIT
 70
     2
  9
$DIMLWD
 70
    -2
  9
$DIMLWE
 70
    -2
  9
$DIMTMOVE
 70
     0
  9
$LUNITS
 70
     2
  9
$LUPREC
 70
     4
  9
$SKETCHINC
 40
0.1
  9
$FILLETRAD
 40
0.0
  9
$AUNITS
 70
     0
  9
$AUPREC
 70
     0
  9
$MENU
  1
ACAD
  9
$ELEVATION
 40
0.0
  9
$PELEVATION
 40
0.0
  9
$THICKNESS
 40
0.0
  9
$LIMCHECK
 70
     0
  9
$CHAMFERA
 40
0.0
  9
$CHAMFERB
 40
0.0
  9
$CHAMFERC
 40
0.0
  9
$CHAMFERD
 40
0.0
  9
$SKPOLY
 70
     0
  9
$TDCREATE
 40
2451815.565532581
  9
$TDUCREATE
 40
2451815.190532581
  9
$TDUPDATE
 40
2453731.604648970
  9
$TDUUPDATE
 40
2453731.229648970
  9
$TDINDWG
 40
0.7272879514
  9
$TDUSRTIMER
 40
0.7272879514
  9
$USRTIMER
 70
     1
  9
$ANGBASE
 50
0.0
  9
$ANGDIR
 70
     0
  9
$PDMODE
 70
     0
  9
$PDSIZE
 40
0.0
  9
$PLINEWID
 40
0.0
  9
$SPLFRAME
 70
     0
  9
$SPLINETYPE
 70
     6
  9
$SPLINESEGS
 70
     8
  9
$HANDSEED
  5
38E
  9
$SURFTAB1
 70
     6
  9
$SURFTAB2
 70
     6
  9
$SURFTYPE
 70
     6
  9
$SURFU
 70
     6
  9
$SURFV
 70
     6
  9
$UCSBASE
  2

  9
$UCSNAME
  2

  9
$UCSORG
 10
0.0
 20
0.0
 30
0.0
  9
$UCSXDIR
 10
1.0
 20
0.0
 30
0.0
  9
$UCSYDIR
 10
0.0
 20
1.0
 30
0.0
  9
$UCSORTHOREF
  2

  9
$UCSORTHOVIEW
 70
     0
  9
$UCSORGTOP
 10
0.0
 20
0.0
 30
0.0
  9
$UCSORGBOTTOM
 10
0.0
 20
0.0
 30
0.0
  9
$UCSORGLEFT
 10
0.0
 20
0.0
 30
0.0
  9
$UCSORGRIGHT
 10
0.0
 20
0.0
 30
0.0
  9
$UCSORGFRONT
 10
0.0
 20
0.0
 30
0.0
  9
$UCSORGBACK
 10
0.0
 20
0.0
 30
0.0
  9
$PUCSBASE
  2

  9
$PUCSNAME
  2

  9
$PUCSORG
 10
0.0
 20
0.0
 30
0.0
  9
$PUCSXDIR
 10
1.0
 20
0.0
 30
0.0
  9
$PUCSYDIR
 10
0.0
 20
1.0
 30
0.0
  9
$PUCSORTHOREF
  2

  9
$PUCSORTHOVIEW
 70
     0
  9
$PUCSORGTOP
 10
0.0
 20
0.0
 30
0.0
  9
$PUCSORGBOTTOM
 10
0.0
 20
0.0
 30
0.0
  9
$PUCSORGLEFT
 10
0.0
 20
0.0
 30
0.0
  9
$PUCSORGRIGHT
 10
0.0
 20
0.0
 30
0.0
  9
$PUCSORGFRONT
 10
0.0
 20
0.0
 30
0.0
  9
$PUCSORGBACK
 10
0.0
 20
0.0
 30
0.0
  9
$USERI1
 70
     0
  9
$USERI2
 70
     0
  9
$USERI3
 70
     0
  9
$USERI4
 70
     0
  9
$USERI5
 70
     0
  9
$USERR1
 40
0.0
  9
$USERR2
 40
0.0
  9
$USERR3
 40
0.0
  9
$USERR4
 40
0.0
  9
$USERR5
 40
0.0
  9
$WORLDVIEW
 70
     1
  9
$SHADEDGE
 70
     3
  9
$SHADEDIF
 70
    70
  9
$TILEMODE
 70
     1
  9
$MAXACTVP
 70
    48
  9
$PINSBASE
 10
0.0
 20
0.0
 30
0.0
  9
$PLIMCHECK
 70
     0
  9
$PEXTMIN
 10
1.000000000000000E+20
 20
1.000000000000000E+20
 30
1.000000000000000E+20
  9
$PEXTMAX
 10
-1.000000000000000E+20
 20
-1.000000000000000E+20
 30
-1.000000000000000E+20
  9
$PLIMMIN
 10
0.0
 20
0.0
  9
$PLIMMAX
 10
12.0
 20
9.0
  9
$UNITMODE
 70
     0
  9
$VISRETAIN
 70
     1
  9
$PLINEGEN
 70
     0
  9
$PSLTSCALE
 70
     1
  9
$TREEDEPTH
 70
  3020
  9
$CMLSTYLE
  2
STANDARD
  9
$CMLJUST
 70
     0
  9
$CMLSCALE
 40
1.0
  9
$PROXYGRAPHICS
 70
     1
  9
$MEASUREMENT
 70
     0
  9
$CELWEIGHT
370
     0
  9
$ENDCAPS
280
     0
  9
$JOINSTYLE
280
     0
  9
$LWDISPLAY
290
     0
  9
$INSUNITS
 70
     1
  9
$HYPERLINKBASE
  1

  9
$STYLESHEET
  1

  9
$XEDIT
290
     1
  9
$CEPSNTYPE
380
     0
  9
$PSTYLEMODE
290
     0
  9
$FINGERPRINTGUID
  2
{FAEB1C30-E019-11D5-929B-00C0DF256EC4}
  9
$VERSIONGUID
  2
{5272C67C-EA4B-48B6-B419-FEDBE852310F}
  9
$EXTNAMES
290
     1
  9
$PSVPSCALE
 40
0.0
  9
$OLESTARTUP
290
     0
  0
ENDSEC
  0
SECTION
  2
CLASSES
  0
CLASS
  1
ACDBDICTIONARYWDFLT
  2
AcDbDictionaryWithDefault
  3
ObjectDBX Classes
 90
        0
280
     0
281
     0
  0
CLASS
  1
ACDBPLACEHOLDER
  2
AcDbPlaceHolder
  3
ObjectDBX Classes
 90
        0
280
     0
281
     0
  0
CLASS
  1
LAYOUT
  2
AcDbLayout
  3
ObjectDBX Classes
 90
        0
280
     0
281
     0
  0
CLASS
  1
DICTIONARYVAR
  2
AcDbDictionaryVar
  3
ObjectDBX Classes
 90
        0
280
     0
281
     0
  0
ENDSEC
  0
SECTION
  2
TABLES
  0
TABLE
  2
VPORT
  5
19
330
0
100
AcDbSymbolTable
 70
     2
  0
VPORT
  5
386
330
19
100
AcDbSymbolTableRecord
100
AcDbViewportTableRecord
  2
*Active
 70
     0
 10
0.0
 20
0.0
 11
1.0
 21
1.0
 12
64.49585548569007
 22
62.00232630828423
 13
0.0
 23
0.0
 14
1.0
 24
1.0
 15
0.0
 25
0.0
 16
0.0
 26
0.0
 36
1.0
 17
0.0
 27
0.0
 37
0.0
 40
113.983203517572
 41
1.589413447782546
 42
50.0
 43
0.0
 44
0.0
 50
0.0
 51
0.0
 71
     0
 72
  1000
 73
     1
 74
     0
 75
     0
 76
     0
 77
     0
 78
     0
281
     0
 65
     1
110
0.0
120
0.0
130
0.0
111
1.0
121
0.0
131
0.0
112
0.0
122
1.0
132
0.0
 79
     0
146
0.0
  0
ENDTAB
  0
TABLE
  2
LTYPE
  5
14
330
0
100
AcDbSymbolTable
 70
     2
  0
LTYPE
  5
15
330
14
100
AcDbSymbolTableRecord
100
AcDbLinetypeTableRecord
  2
BYBLOCK
 70
     0
  3

 72
    65
 73
     0
 40
0.0
  0
LTYPE
  5
16
330
14
100
AcDbSymbolTableRecord
100
AcDbLinetypeTableRecord
  2
BYLAYER
 70
     0
  3

 72
    65
 73
     0
 40
0.0
  0
LTYPE
  5
7
330
14
100
AcDbSymbolTableRecord
100
AcDbLinetypeTableRecord
  2
CONTINUOUS
 70
     0
  3
Solid line
 72
    65
 73
     0
 40
0.0
  0
LTYPE
  5
A6
330
14
100
AcDbSymbolTableRecord
100
AcDbLinetypeTableRecord
  2
HIDDEN2
 70
     0
  3
Hidden (.5x) _ _ _ _ _ _ _ _ _ _ _ _ _ _ _ _ _
 72
    65
 73
     2
 40
1.399999999999999
 49
0.7
 74
     0
 49
-0.7
 74
     0
  0
ENDTAB
  0
TABLE
  2
LAYER
  5
E
102
{ACAD_XDICTIONARY
360
F
102
}
330
0
100
AcDbSymbolTable
 70
     7
  0
LAYER
  5
6
330
E
100
AcDbSymbolTableRecord
100
AcDbLayerTableRecord
  2
0
 70
     0
 62
     7
  6
CONTINUOUS
370
    -3
390
316
  0
LAYER
  5
3C
330
E
100
AcDbSymbolTableRecord
100
AcDbLayerTableRecord
  2
DEFPOINTS
 70
     0
 62
     7
  6
CONTINUOUS
290
     0
370
    -3
390
316
  0
LAYER
  5
2F0
330
E
100
AcDbSymbolTableRecord
100
AcDbLayerTableRecord
  2
WAKU
 70
     0
 62
     4
  6
CONTINUOUS
370
    -3
390
316
  0
LAYER
  5
2A
330
E
100
AcDbSymbolTableRecord
100
AcDbLayerTableRecord
  2
MOJI1
 70
     0
 62
     2
  6
CONTINUOUS
370
    -3
390
316
  0
LAYER
  5
44
330
E
100
AcDbSymbolTableRecord
100
AcDbLayerTableRecord
  2
GAIKEI
 70
     0
 62
     7
  6
CONTINUOUS
370
    -3
390
316
  0
LAYER
  5
24
330
E
100
AcDbSymbolTableRecord
100
AcDbLayerTableRecord
  2
SUNPO
 70
     0
 62
     3
  6
CONTINUOUS
370
    -3
390
316
  0
LAYER
  5
2C
330
E
100
AcDbSymbolTableRecord
100
AcDbLayerTableRecord
  2
TOUROKU
 70
     0
 62
     1
  6
CONTINUOUS
370
    -3
390
316
  0
ENDTAB
  0
TABLE
  2
STYLE
  5
12
330
0
100
AcDbSymbolTable
 70
     2
  0
STYLE
  5
13
330
12
100
AcDbSymbolTableRecord
100
AcDbTextStyleTableRecord
  2
STANDARD
 70
     0
 40
0.0
 41
1.0
 50
0.0
 71
     0
 42
3.0
  3
MONOTXT.shx
  4
BIGFONT.shx
  0
STYLE
  5
82
330
12
100
AcDbSymbolTableRecord
100
AcDbTextStyleTableRecord
  2
FX_FONT
 70
     0
 40
1.0
 41
1.0
 50
0.0
 71
     0
 42
1.0
  3
monotxt
  4
bigfont
  0
ENDTAB
  0
TABLE
  2
VIEW
  5
17
330
0
100
AcDbSymbolTable
 70
     0
  0
ENDTAB
  0
TABLE
  2
UCS
  5
18
330
0
100
AcDbSymbolTable
 70
     0
  0
ENDTAB
  0
TABLE
  2
APPID
  5
1B
330
0
100
AcDbSymbolTable
 70
     2
  0
APPID
  5
1C
330
1B
100
AcDbSymbolTableRecord
100
AcDbRegAppTableRecord
  2
ACAD
 70
     0
  0
APPID
  5
A4
330
1B
100
AcDbSymbolTableRecord
100
AcDbRegAppTableRecord
  2
CONTENTBLOCKICON
 70
     0
  0
ENDTAB
  0
TABLE
  2
DIMSTYLE
  5
1D
330
0
100
AcDbSymbolTable
 70
     1
100
AcDbDimStyleTable
 71
     1
340
26
  0
DIMSTYLE
105
26
102
{ACAD_REACTORS
330
2A3
330
1C8
330
B6
330
52
330
2D
102
}
330
1D
100
AcDbSymbolTableRecord
100
AcDbDimStyleTableRecord
  2
STANDARD
 70
     0
 40
0.0
 41
2.0
 42
2.0
 43
8.0
 44
2.0
 73
     0
 74
     0
 77
     3
140
3.0
141
0.0
173
     1
288
     1
340
13
341
33
343
33
344
33
  0
ENDTAB
  0
TABLE
  2
BLOCK_RECORD
  5
1
330
0
100
AcDbSymbolTable
 70
    12
  0
BLOCK_RECORD
  5
2
102
{ACAD_XDICTIONARY
360
3
102
}
330
1
100
AcDbSymbolTableRecord
100
AcDbBlockTableRecord
  2
*MODEL_SPACE
340
33B
  0
BLOCK_RECORD
  5
9
102
{ACAD_XDICTIONARY
360
A
102
}
330
1
100
AcDbSymbolTableRecord
100
AcDbBlockTableRecord
  2
*PAPER_SPACE
340
33C
  0
BLOCK_RECORD
  5
33
330
1
100
AcDbSymbolTableRecord
100
AcDbBlockTableRecord
  2
_OPEN30
340
0
102
{BLKREFS
331
1CD
331
1CE
331
32
331
39
331
57
331
58
331
2AA
331
2AB
331
BB
331
BC
331
34B
331
34C
331
357
331
358
331
363
331
364
331
36F
331
370
331
37B
331
37C
102
}
  0
BLOCK_RECORD
  5
60
330
1
100
AcDbSymbolTableRecord
100
AcDbBlockTableRecord
  2
KANAGU
340
0
310
2800000020000000200000000100080000000000000400000000000000000000000000000000000000000000000080000080000000808000800000008000800080800000C0C0C000C0DCC000F0CAA6000020400000206000002080000020A0000020C0000020E00000400000004020000040400000406000004080000040A0
310
000040C0000040E00000600000006020000060400000606000006080000060A0000060C0000060E00000800000008020000080400000806000008080000080A0000080C0000080E00000A0000000A0200000A0400000A0600000A0800000A0A00000A0C00000A0E00000C0000000C0200000C0400000C0600000C0800000C0
310
A00000C0C00000C0E00000E0000000E0200000E0400000E0600000E0800000E0A00000E0C00000E0E00040000000400020004000400040006000400080004000A0004000C0004000E00040200000402020004020400040206000402080004020A0004020C0004020E000404000004040200040404000404060004040800040
310
40A0004040C0004040E00040600000406020004060400040606000406080004060A0004060C0004060E00040800000408020004080400040806000408080004080A0004080C0004080E00040A0000040A0200040A0400040A0600040A0800040A0A00040A0C00040A0E00040C0000040C0200040C0400040C0600040C08000
310
40C0A00040C0C00040C0E00040E0000040E0200040E0400040E0600040E0800040E0A00040E0C00040E0E00080000000800020008000400080006000800080008000A0008000C0008000E00080200000802020008020400080206000802080008020A0008020C0008020E00080400000804020008040400080406000804080
310
008040A0008040C0008040E00080600000806020008060400080606000806080008060A0008060C0008060E00080800000808020008080400080806000808080008080A0008080C0008080E00080A0000080A0200080A0400080A0600080A0800080A0A00080A0C00080A0E00080C0000080C0200080C0400080C0600080C0
310
800080C0A00080C0C00080C0E00080E0000080E0200080E0400080E0600080E0800080E0A00080E0C00080E0E000C0000000C0002000C0004000C0006000C0008000C000A000C000C000C000E000C0200000C0202000C0204000C0206000C0208000C020A000C020C000C020E000C0400000C0402000C0404000C0406000C0
310
408000C040A000C040C000C040E000C0600000C0602000C0604000C0606000C0608000C060A000C060C000C060E000C0800000C0802000C0804000C0806000C0808000C080A000C080C000C080E000C0A00000C0A02000C0A04000C0A06000C0A08000C0A0A000C0A0C000C0A0E000C0C00000C0C02000C0C04000C0C06000
310
C0C08000C0C0A000F0FBFF00A4A0A000808080000000FF0000FF000000FFFF00FF000000FF00FF00FFFF0000FFFFFF00000000000000000000000000000000000000000000000000000000000000000000000000000000000000000000000000F9000000000000000000000000000000000000000000000000000000000000
310
00F900000000000000000000000000000000000000000000000000000000000000F9000000000000000000000000000000000000000000000000000000000000F9F9000000000000000000000000000000000000000000000000000000000000F9F90000000000000000000000000000000000000000000000000000000000
310
00F9F9000000000000000000000000000000000000000000000000000000000000F9F9000000000000000000000000000000000000000000000000000000000000F9F9000000000000000000000000000000000000000000000000000000000000F9F900000000000000000000000000000000000000000000000000000000
310
0000F9F9000000000000000000000000000000000000000000000000000000000000F9F9000000000000000000000000000000000000000000000000000000000000F9F9000000000000000000000000000000000000000000000000000000000000F9F9000000000000000000000000000000000000000000000000000000
310
000000F9F9000000000000000000000000000000000000000000000000000000000000F9F9000000000000000000000000000000000000000000000000000000000000F9F9000000000000000000000000000000000000000000000000000000000000F9F90000000000000000000000000000000000000000000000000000
310
00000000F9F9000000000000000000000000000000000000000000000000000000000000F9F9000000000000000000000000000000000000000000000000000000000000F9F9000000000000000000000000000000000000000000000000000000000000F9F900000000000000000000000000000000000000000000000000
310
0000000000F9F9000000000000000000000000000000000000000000000000000000000000F9F9000000000000000000000000000000000000000000000000000000000000F9F9000000000000000000000000000000000000000000000000000000000000F9F9000000000000000000000000000000000000000000000000
310
000000000000F9F9000000000000000000000000000000000000000000000000000000000000F9F900000000000000000000000000000000000000000000000000000000000000F900000000000000000000000000000000000000000000000000000000000000F90000000000000000000000000000000000000000000000
310
0000000000000000F90000000000000000000000000000000000000000000000000000000000000000000000000000000000000000000000
102
{BLKREFS
331
5F
102
}
  0
BLOCK_RECORD
  5
345
330
1
100
AcDbSymbolTableRecord
100
AcDbBlockTableRecord
  2
*D7
340
0
  0
BLOCK_RECORD
  5
353
330
1
100
AcDbSymbolTableRecord
100
AcDbBlockTableRecord
  2
*D8
340
0
  0
BLOCK_RECORD
  5
35F
330
1
100
AcDbSymbolTableRecord
100
AcDbBlockTableRecord
  2
*D9
340
0
  0
BLOCK_RECORD
  5
36B
330
1
100
AcDbSymbolTableRecord
100
AcDbBlockTableRecord
  2
*D10
340
0
  0
BLOCK_RECORD
  5
377
330
1
100
AcDbSymbolTableRecord
100
AcDbBlockTableRecord
  2
*D11
340
0
  0
ENDTAB
  0
ENDSEC
  0
SECTION
  2
BLOCKS
  0
BLOCK
  5
5
330
2
100
AcDbEntity
  8
0
100
AcDbBlockBegin
  2
*MODEL_SPACE
 70
     0
 10
0.0
 20
0.0
 30
0.0
  3
*MODEL_SPACE
  1

  0
ENDBLK
  5
8
330
2
100
AcDbEntity
  8
0
100
AcDbBlockEnd
  0
BLOCK
  5
C
330
9
100
AcDbEntity
 67
     1
  8
0
100
AcDbBlockBegin
  2
*PAPER_SPACE
 70
     0
 10
0.0
 20
0.0
 30
0.0
  3
*PAPER_SPACE
  1

  0
ENDBLK
  5
D
330
9
100
AcDbEntity
 67
     1
  8
0
100
AcDbBlockEnd
  0
BLOCK
  5
37
330
33
100
AcDbEntity
  8
0
100
AcDbBlockBegin
  2
_OPEN30
 70
     0
 10
0.0
 20
0.0
 30
0.0
  3
_OPEN30
  1

  0
LINE
  5
34
330
33
100
AcDbEntity
  8
0
  6
ByBlock
 62
     0
100
AcDbLine
 10
-1.0
 20
0.26794919
 30
0.0
 11
0.0
 21
0.0
 31
0.0
  0
LINE
  5
35
330
33
100
AcDbEntity
  8
0
  6
ByBlock
 62
     0
100
AcDbLine
 10
0.0
 20
0.0
 30
0.0
 11
-1.0
 21
-0.26794919
 31
0.0
  0
LINE
  5
36
330
33
100
AcDbEntity
  8
0
  6
ByBlock
 62
     0
100
AcDbLine
 10
0.0
 20
0.0
 30
0.0
 11
-1.0
 21
0.0
 31
0.0
  0
ENDBLK
  5
38
330
33
100
AcDbEntity
  8
0
100
AcDbBlockEnd
  0
BLOCK
  5
A2
330
60
100
AcDbEntity
  8
0
100
AcDbBlockBegin
  2
KANAGU
 70
     0
 10
0.0
 20
0.0
 30
0.0
  3
KANAGU
  1

  0
LINE
  5
61
330
60
100
AcDbEntity
  8
GAIKEI
  6
Continuous
 62
     1
100
AcDbLine
 10
249.2521667112969
 20
213.5892475411011
 30
0.0
 11
249.2521667112969
 21
193.5392475411012
 31
0.0
  0
LINE
  5
62
330
60
100
AcDbEntity
  8
GAIKEI
  6
Continuous
 62
     1
100
AcDbLine
 10
248.277166711297
 20
213.5892475411011
 30
0.0
 11
248.277166711297
 21
193.5392475411012
 31
0.0
  0
LINE
  5
63
330
60
100
AcDbEntity
  8
GAIKEI
  6
Continuous
 62
     1
100
AcDbLine
 10
249.077166711297
 20
190.7642475411012
 30
0.0
 11
249.077166711297
 21
193.3142475411012
 31
0.0
  0
LINE
  5
64
330
60
100
AcDbEntity
  8
GAIKEI
  6
Continuous
 62
     1
100
AcDbLine
 10
249.177166711297
 20
190.7642475411012
 30
0.0
 11
249.177166711297
 21
193.3142475411012
 31
0.0
  0
LINE
  5
65
330
60
100
AcDbEntity
  8
GAIKEI
  6
Continuous
 62
     1
100
AcDbLine
 10
249.277166711297
 20
190.7642475411012
 30
0.0
 11
249.277166711297
 21
193.4392475411012
 31
0.0
  0
LINE
  5
66
330
60
100
AcDbEntity
  8
GAIKEI
  6
Continuous
 62
     1
100
AcDbLine
 10
248.777166711297
 20
190.7642475411012
 30
0.0
 11
249.177166711297
 21
190.7642475411012
 31
0.0
  0
LINE
  5
67
330
60
100
AcDbEntity
  8
GAIKEI
  6
Continuous
 62
     1
100
AcDbLine
 10
248.777166711297
 20
190.6642475411011
 30
0.0
 11
249.177166711297
 21
190.6642475411011
 31
0.0
  0
LINE
  5
68
330
60
100
AcDbEntity
  8
GAIKEI
  6
Continuous
 62
     1
100
AcDbLine
 10
248.777166711297
 20
190.7642475411012
 30
0.0
 11
248.777166711297
 21
190.6642475411011
 31
0.0
  0
LINE
  5
69
330
60
100
AcDbEntity
  8
GAIKEI
  6
Continuous
 62
     1
100
AcDbLine
 10
249.177166711297
 20
191.0642475411012
 30
0.0
 11
249.102631211297
 21
191.1475810411012
 31
0.0
  0
ARC
  5
6A
330
60
100
AcDbEntity
  8
GAIKEI
  6
Continuous
 62
     1
100
AcDbCircle
 10
249.177166711297
 20
191.2142475411011
 30
0.0
 40
0.1
100
AcDbArc
 50
180.0
 51
221.8103149999996
  0
ARC
  5
6B
330
60
100
AcDbEntity
  8
GAIKEI
  6
Continuous
 62
     1
100
AcDbCircle
 10
249.177166711297
 20
190.7642475411012
 30
0.0
 40
0.1
100
AcDbArc
 50
270.0
 51
0.0
  0
LINE
  5
6C
330
60
100
AcDbEntity
  8
GAIKEI
  6
Continuous
 62
     1
100
AcDbLine
 10
248.777166711297
 20
193.4142475411012
 30
0.0
 11
249.177166711297
 21
193.4142475411012
 31
0.0
  0
LINE
  5
6D
330
60
100
AcDbEntity
  8
GAIKEI
  6
Continuous
 62
     1
100
AcDbLine
 10
248.3771667112969
 20
193.4392475411012
 30
0.0
 11
249.152166711297
 21
193.4392475411012
 31
0.0
  0
LINE
  5
6E
330
60
100
AcDbEntity
  8
GAIKEI
  6
Continuous
 62
     1
100
AcDbLine
 10
248.777166711297
 20
193.3142475411012
 30
0.0
 11
249.177166711297
 21
193.3142475411012
 31
0.0
  0
ARC
  5
6F
330
60
100
AcDbEntity
  8
GAIKEI
  6
Continuous
 62
     1
100
AcDbCircle
 10
248.577166711297
 20
193.5392475411012
 30
0.0
 40
0.1
100
AcDbArc
 50
180.0
 51
270.0
  0
ARC
  5
70
330
60
100
AcDbEntity
  8
GAIKEI
  6
Continuous
 62
     1
100
AcDbCircle
 10
248.3771667112969
 20
193.5392475411012
 30
0.0
 40
0.1
100
AcDbArc
 50
0.0
 51
90.0
  0
LINE
  5
71
330
60
100
AcDbEntity
  8
GAIKEI
  6
Continuous
 62
     1
100
AcDbLine
 10
248.3771667112969
 20
193.5392475411012
 30
0.0
 11
248.477166711297
 21
193.5392475411012
 31
0.0
  0
LINE
  5
72
330
60
100
AcDbEntity
  8
GAIKEI
  6
Continuous
 62
     1
100
AcDbLine
 10
248.3771667112969
 20
193.6392475411011
 30
0.0
 11
248.3771667112969
 21
193.5411762911012
 31
0.0
  0
LINE
  5
73
330
60
100
AcDbEntity
  8
GAIKEI
  6
Continuous
 62
     1
100
AcDbLine
 10
248.277166711297
 20
193.6392475411011
 30
0.0
 11
248.3771667112969
 21
193.6392475411011
 31
0.0
  0
ARC
  5
74
330
60
100
AcDbEntity
  8
GAIKEI
  6
Continuous
 62
     1
100
AcDbCircle
 10
248.3771667112969
 20
193.5392475411012
 30
0.0
 40
0.1
100
AcDbArc
 50
180.0
 51
270.0
  0
LINE
  5
75
330
60
100
AcDbEntity
  8
GAIKEI
  6
Continuous
 62
     1
100
AcDbLine
 10
248.777166711297
 20
193.3142475411012
 30
0.0
 11
248.777166711297
 21
193.4142475411012
 31
0.0
  0
LINE
  5
76
330
60
100
AcDbEntity
  8
GAIKEI
  6
Continuous
 62
     1
100
AcDbLine
 10
248.927166711297
 20
192.5392475411012
 30
0.0
 11
248.927166711297
 21
192.4392475411012
 31
0.0
  0
LINE
  5
77
330
60
100
AcDbEntity
  8
GAIKEI
  6
Continuous
 62
     1
100
AcDbLine
 10
249.077166711297
 20
192.5392475411012
 30
0.0
 11
248.927166711297
 21
192.5392475411012
 31
0.0
  0
LINE
  5
78
330
60
100
AcDbEntity
  8
GAIKEI
  6
Continuous
 62
     1
100
AcDbLine
 10
249.077166711297
 20
192.4392475411012
 30
0.0
 11
248.927166711297
 21
192.4392475411012
 31
0.0
  0
LINE
  5
79
330
60
100
AcDbEntity
  8
GAIKEI
  6
Continuous
 62
     1
100
AcDbLine
 10
249.177166711297
 20
192.0642475411012
 30
0.0
 11
249.102631211297
 21
191.9809142911011
 31
0.0
  0
ARC
  5
7A
330
60
100
AcDbEntity
  8
GAIKEI
  6
Continuous
 62
     1
100
AcDbCircle
 10
249.177166711297
 20
191.9142475411012
 30
0.0
 40
0.1
100
AcDbArc
 50
138.1896850000004
 51
180.0
  0
LINE
  5
7B
330
60
100
AcDbEntity
  8
GAIKEI
  6
Continuous
 62
     1
100
AcDbLine
 10
249.177166711297
 20
193.4142475411012
 30
0.0
 11
249.177166711297
 21
193.4392475411012
 31
0.0
  0
ARC
  5
7C
330
60
100
AcDbEntity
  8
GAIKEI
  6
Continuous
 62
     1
100
AcDbCircle
 10
249.177166711297
 20
193.4392475411012
 30
0.0
 40
0.1
100
AcDbArc
 50
0.0
 51
45.05964999999998
  0
ARC
  5
7D
330
60
100
AcDbEntity
  8
GAIKEI
  6
Continuous
 62
     1
100
AcDbCircle
 10
249.152166711297
 20
193.5392475411012
 30
0.0
 40
0.1
100
AcDbArc
 50
270.0
 51
0.0
  0
ARC
  5
7E
330
60
100
AcDbEntity
  8
GAIKEI
  6
Continuous
 62
     1
100
AcDbCircle
 10
249.177166711297
 20
193.3142475411012
 30
0.0
 40
0.1
100
AcDbArc
 50
0.0
 51
90.0
  0
CIRCLE
  5
7F
330
60
100
AcDbEntity
  8
GAIKEI
  6
Continuous
 62
     1
100
AcDbCircle
 10
248.677166711297
 20
196.9142475411011
 30
0.0
 40
0.125
  0
CIRCLE
  5
80
330
60
100
AcDbEntity
  8
GAIKEI
  6
Continuous
 62
     1
100
AcDbCircle
 10
248.677166711297
 20
196.9142475411011
 30
0.0
 40
0.1025
  0
TEXT
  5
81
330
60
100
AcDbEntity
  8
GAIKEI
 62
     1
100
AcDbText
 10
248.552527461297
 20
203.0480920411011
 30
0.0
 40
0.7
  1
Ｖ
 41
0.8653846153844842
  7
FX_FONT
 72
     5
 11
249.0775274612969
 21
203.0480920411011
 31
0.0
100
AcDbText
  0
LINE
  5
83
330
60
100
AcDbEntity
  8
GAIKEI
  6
Continuous
 62
     1
100
AcDbLine
 10
248.3771667112969
 20
202.9392475411012
 30
0.0
 11
249.2521667112969
 21
202.9392475411012
 31
0.0
  0
TEXT
  5
84
330
60
100
AcDbEntity
  8
GAIKEI
 62
     1
100
AcDbText
 10
248.552527461297
 20
204.2980920411011
 30
0.0
 40
0.7
  1
Ｈ
 41
0.9374999999998578
  7
FX_FONT
 72
     5
 11
249.0775274612969
 21
204.2980920411011
 31
0.0
100
AcDbText
  0
LINE
  5
85
330
60
100
AcDbEntity
  8
GAIKEI
  6
Continuous
 62
     1
100
AcDbLine
 10
248.3771667112969
 20
204.1892475411012
 30
0.0
 11
249.2521667112969
 21
204.1892475411012
 31
0.0
  0
LINE
  5
86
330
60
100
AcDbEntity
  8
GAIKEI
  6
Continuous
 62
     1
100
AcDbLine
 10
249.277166711297
 20
216.3642475411012
 30
0.0
 11
249.277166711297
 21
213.6892475411012
 31
0.0
  0
LINE
  5
87
330
60
100
AcDbEntity
  8
GAIKEI
  6
Continuous
 62
     1
100
AcDbLine
 10
249.077166711297
 20
216.3642475411012
 30
0.0
 11
249.077166711297
 21
213.8142475411012
 31
0.0
  0
LINE
  5
88
330
60
100
AcDbEntity
  8
GAIKEI
  6
Continuous
 62
     1
100
AcDbLine
 10
249.177166711297
 20
216.3642475411012
 30
0.0
 11
249.177166711297
 21
213.8142475411012
 31
0.0
  0
LINE
  5
89
330
60
100
AcDbEntity
  8
GAIKEI
  6
Continuous
 62
     1
100
AcDbLine
 10
248.777166711297
 20
213.7142475411011
 30
0.0
 11
249.177166711297
 21
213.7142475411011
 31
0.0
  0
LINE
  5
8A
330
60
100
AcDbEntity
  8
GAIKEI
  6
Continuous
 62
     1
100
AcDbLine
 10
248.3771667112969
 20
213.6892475411012
 30
0.0
 11
249.152166711297
 21
213.6892475411012
 31
0.0
  0
LINE
  5
8B
330
60
100
AcDbEntity
  8
GAIKEI
  6
Continuous
 62
     1
100
AcDbLine
 10
248.777166711297
 20
213.8142475411012
 30
0.0
 11
249.177166711297
 21
213.8142475411012
 31
0.0
  0
ARC
  5
8C
330
60
100
AcDbEntity
  8
GAIKEI
  6
Continuous
 62
     1
100
AcDbCircle
 10
248.3771667112969
 20
213.5892475411011
 30
0.0
 40
0.1
100
AcDbArc
 50
270.0
 51
0.0
  0
LINE
  5
8D
330
60
100
AcDbEntity
  8
GAIKEI
  6
Continuous
 62
     1
100
AcDbLine
 10
248.3771667112969
 20
213.5892475411011
 30
0.0
 11
248.3771667112969
 21
213.4892475411012
 31
0.0
  0
LINE
  5
8E
330
60
100
AcDbEntity
  8
GAIKEI
  6
Continuous
 62
     1
100
AcDbLine
 10
248.277166711297
 20
213.4892475411012
 30
0.0
 11
248.3771667112969
 21
213.4892475411012
 31
0.0
  0
ARC
  5
8F
330
60
100
AcDbEntity
  8
GAIKEI
  6
Continuous
 62
     1
100
AcDbCircle
 10
248.577166711297
 20
213.5892475411011
 30
0.0
 40
0.1
100
AcDbArc
 50
90.0
 51
180.0
  0
LINE
  5
90
330
60
100
AcDbEntity
  8
GAIKEI
  6
Continuous
 62
     1
100
AcDbLine
 10
248.3771667112969
 20
213.5892475411011
 30
0.0
 11
248.477166711297
 21
213.5892475411011
 31
0.0
  0
ARC
  5
91
330
60
100
AcDbEntity
  8
GAIKEI
  6
Continuous
 62
     1
100
AcDbCircle
 10
248.3771667112969
 20
213.5892475411011
 30
0.0
 40
0.1
100
AcDbArc
 50
90.0
 51
180.0
  0
LINE
  5
92
330
60
100
AcDbEntity
  8
GAIKEI
  6
Continuous
 62
     1
100
AcDbLine
 10
248.777166711297
 20
213.8142475411012
 30
0.0
 11
248.777166711297
 21
213.7142475411011
 31
0.0
  0
LINE
  5
93
330
60
100
AcDbEntity
  8
GAIKEI
  6
Continuous
 62
     1
100
AcDbLine
 10
248.927166711297
 20
214.5892475411011
 30
0.0
 11
248.927166711297
 21
214.6892475411012
 31
0.0
  0
LINE
  5
94
330
60
100
AcDbEntity
  8
GAIKEI
  6
Continuous
 62
     1
100
AcDbLine
 10
249.077166711297
 20
214.5892475411011
 30
0.0
 11
248.927166711297
 21
214.5892475411011
 31
0.0
  0
LINE
  5
95
330
60
100
AcDbEntity
  8
GAIKEI
  6
Continuous
 62
     1
100
AcDbLine
 10
249.077166711297
 20
214.6892475411012
 30
0.0
 11
248.927166711297
 21
214.6892475411012
 31
0.0
  0
LINE
  5
96
330
60
100
AcDbEntity
  8
GAIKEI
  6
Continuous
 62
     1
100
AcDbLine
 10
249.177166711297
 20
213.7142475411011
 30
0.0
 11
249.177166711297
 21
213.6892475411012
 31
0.0
  0
ARC
  5
97
330
60
100
AcDbEntity
  8
GAIKEI
  6
Continuous
 62
     1
100
AcDbCircle
 10
249.177166711297
 20
213.6892475411012
 30
0.0
 40
0.1
100
AcDbArc
 50
314.94035
 51
0.0
  0
ARC
  5
98
330
60
100
AcDbEntity
  8
GAIKEI
  6
Continuous
 62
     1
100
AcDbCircle
 10
249.152166711297
 20
213.5892475411011
 30
0.0
 40
0.1
100
AcDbArc
 50
0.0
 51
90.0
  0
ARC
  5
99
330
60
100
AcDbEntity
  8
GAIKEI
  6
Continuous
 62
     1
100
AcDbCircle
 10
249.177166711297
 20
213.8142475411012
 30
0.0
 40
0.1
100
AcDbArc
 50
270.0
 51
0.0
  0
LINE
  5
9A
330
60
100
AcDbEntity
  8
GAIKEI
  6
Continuous
 62
     1
100
AcDbLine
 10
248.777166711297
 20
216.3642475411012
 30
0.0
 11
249.177166711297
 21
216.3642475411012
 31
0.0
  0
LINE
  5
9B
330
60
100
AcDbEntity
  8
GAIKEI
  6
Continuous
 62
     1
100
AcDbLine
 10
248.777166711297
 20
216.4642475411011
 30
0.0
 11
249.177166711297
 21
216.4642475411011
 31
0.0
  0
LINE
  5
9C
330
60
100
AcDbEntity
  8
GAIKEI
  6
Continuous
 62
     1
100
AcDbLine
 10
248.777166711297
 20
216.3642475411012
 30
0.0
 11
248.777166711297
 21
216.4642475411011
 31
0.0
  0
ARC
  5
9D
330
60
100
AcDbEntity
  8
GAIKEI
  6
Continuous
 62
     1
100
AcDbCircle
 10
249.177166711297
 20
216.3642475411012
 30
0.0
 40
0.1
100
AcDbArc
 50
0.0
 51
90.0
  0
LINE
  5
9E
330
60
100
AcDbEntity
  8
GAIKEI
  6
Continuous
 62
     1
100
AcDbLine
 10
249.177166711297
 20
215.0642475411012
 30
0.0
 11
249.102631211297
 21
215.1475810411012
 31
0.0
  0
ARC
  5
9F
330
60
100
AcDbEntity
  8
GAIKEI
  6
Continuous
 62
     1
100
AcDbCircle
 10
249.177166711297
 20
215.2142475411011
 30
0.0
 40
0.1
100
AcDbArc
 50
180.0
 51
221.8103149999996
  0
LINE
  5
A0
330
60
100
AcDbEntity
  8
GAIKEI
  6
Continuous
 62
     1
100
AcDbLine
 10
249.177166711297
 20
216.0642475411012
 30
0.0
 11
249.102631211297
 21
215.9809142911012
 31
0.0
  0
ARC
  5
A1
330
60
100
AcDbEntity
  8
GAIKEI
  6
Continuous
 62
     1
100
AcDbCircle
 10
249.177166711297
 20
215.9142475411012
 30
0.0
 40
0.1
100
AcDbArc
 50
138.1896850000004
 51
180.0
  0
ENDBLK
  5
A3
330
60
100
AcDbEntity
  8
0
100
AcDbBlockEnd
  0
BLOCK
  5
351
330
345
100
AcDbEntity
  8
0
370
     0
100
AcDbBlockBegin
  2
*D7
 70
     1
 10
0.0
 20
0.0
 30
0.0
  3
*D7
  1

  0
LINE
  5
346
330
345
100
AcDbEntity
  8
SUNPO
 62
     0
370
    -2
100
AcDbLine
 10
107.385483291144
 20
90.85412900739479
 30
0.0
 11
107.385483291144
 21
98.85412900739479
 31
0.0
  0
LINE
  5
347
330
345
100
AcDbEntity
  8
SUNPO
 62
     0
370
    -2
100
AcDbLine
 10
108.385483291144
 20
90.85412900739479
 30
0.0
 11
108.385483291144
 21
98.85412900739479
 31
0.0
  0
LINE
  5
348
330
345
100
AcDbEntity
  8
SUNPO
 62
     0
370
    -2
100
AcDbLine
 10
105.385483291144
 20
96.85412900739478
 30
0.0
 11
103.385483291144
 21
96.85412900739478
 31
0.0
  0
LINE
  5
349
330
345
100
AcDbEntity
  8
SUNPO
 62
     0
370
    -2
100
AcDbLine
 10
110.385483291144
 20
96.85412900739478
 30
0.0
 11
117.5521499578107
 21
96.85412900739478
 31
0.0
  0
LINE
  5
34A
330
345
100
AcDbEntity
  8
SUNPO
 62
     0
370
    -2
100
AcDbLine
 10
107.385483291144
 20
96.85412900739478
 30
0.0
 11
108.385483291144
 21
96.85412900739478
 31
0.0
  0
INSERT
  5
34B
330
345
100
AcDbEntity
  8
SUNPO
 62
     0
370
    -2
100
AcDbBlockReference
  2
_OPEN30
 10
107.385483291144
 20
96.85412900739478
 30
0.0
 41
2.0
 42
2.0
 43
2.0
  0
INSERT
  5
34C
330
345
100
AcDbEntity
  8
SUNPO
 62
     0
370
    -2
100
AcDbBlockReference
  2
_OPEN30
 10
108.385483291144
 20
96.85412900739478
 30
0.0
 41
2.0
 42
2.0
 43
2.0
 50
180.0
  0
MTEXT
  5
34D
330
345
100
AcDbEntity
  8
SUNPO
 62
     0
100
AcDbMText
 10
114.9688166244773
 20
98.60412900739479
 30
0.0
 40
2.5
 41
0.0
 71
     5
 72
     1
  1
\A1;20
 73
     1
 44
1.0
1001
ACAD
1000
MTEXTBEGIN
1070
    73
1070
     1
1070
    44
1040
1.0
1070
    74
1070
     0
1000
MTEXTEND
  0
POINT
  5
34E
330
345
100
AcDbEntity
  8
DEFPOINTS
 62
     0
370
     0
100
AcDbPoint
 10
107.385483291144
 20
88.85412900739479
 30
0.0
  0
POINT
  5
34F
330
345
100
AcDbEntity
  8
DEFPOINTS
 62
     0
370
     0
100
AcDbPoint
 10
108.385483291144
 20
88.85412900739479
 30
0.0
  0
POINT
  5
350
330
345
100
AcDbEntity
  8
DEFPOINTS
 62
     0
370
     0
100
AcDbPoint
 10
108.385483291144
 20
96.85412900739478
 30
0.0
  0
ENDBLK
  5
352
330
345
100
AcDbEntity
  8
0
370
     0
100
AcDbBlockEnd
  0
BLOCK
  5
35D
330
353
100
AcDbEntity
  8
0
370
     0
100
AcDbBlockBegin
  2
*D8
 70
     1
 10
0.0
 20
0.0
 30
0.0
  3
*D8
  1

  0
LINE
  5
354
330
353
100
AcDbEntity
  8
SUNPO
 62
     0
370
    -2
100
AcDbLine
 10
28.72770751166013
 20
90.85412900739479
 30
0.0
 11
28.72770751166013
 21
98.85412900739479
 31
0.0
  0
LINE
  5
355
330
353
100
AcDbEntity
  8
SUNPO
 62
     0
370
    -2
100
AcDbLine
 10
78.82770751166015
 20
90.85412900739479
 30
0.0
 11
78.82770751166015
 21
98.85412900739479
 31
0.0
  0
LINE
  5
356
330
353
100
AcDbEntity
  8
SUNPO
 62
     0
370
    -2
100
AcDbLine
 10
30.72770751166013
 20
96.85412900739478
 30
0.0
 11
76.82770751166015
 21
96.85412900739478
 31
0.0
  0
INSERT
  5
357
330
353
100
AcDbEntity
  8
SUNPO
 62
     0
370
    -2
100
AcDbBlockReference
  2
_OPEN30
 10
28.72770751166013
 20
96.85412900739478
 30
0.0
 41
2.0
 42
2.0
 43
2.0
 50
180.0
  0
INSERT
  5
358
330
353
100
AcDbEntity
  8
SUNPO
 62
     0
370
    -2
100
AcDbBlockReference
  2
_OPEN30
 10
78.82770751166015
 20
96.85412900739478
 30
0.0
 41
2.0
 42
2.0
 43
2.0
  0
MTEXT
  5
359
330
353
100
AcDbEntity
  8
SUNPO
 62
     0
100
AcDbMText
 10
53.77770751166014
 20
98.60412900739479
 30
0.0
 40
2.5
 41
0.0
 71
     5
 72
     1
  1
\A1;1020
 73
     1
 44
1.0
1001
ACAD
1000
MTEXTBEGIN
1070
    73
1070
     1
1070
    44
1040
1.0
1070
    74
1070
     0
1000
MTEXTEND
  0
POINT
  5
35A
330
353
100
AcDbEntity
  8
DEFPOINTS
 62
     0
370
     0
100
AcDbPoint
 10
28.72770751166013
 20
88.85412900739479
 30
0.0
  0
POINT
  5
35B
330
353
100
AcDbEntity
  8
DEFPOINTS
 62
     0
370
     0
100
AcDbPoint
 10
78.82770751166015
 20
88.85412900739479
 30
0.0
  0
POINT
  5
35C
330
353
100
AcDbEntity
  8
DEFPOINTS
 62
     0
370
     0
100
AcDbPoint
 10
78.82770751166015
 20
96.85412900739478
 30
0.0
  0
ENDBLK
  5
35E
330
353
100
AcDbEntity
  8
0
370
     0
100
AcDbBlockEnd
  0
BLOCK
  5
369
330
35F
100
AcDbEntity
  8
0
370
     0
100
AcDbBlockBegin
  2
*D9
 70
     1
 10
0.0
 20
0.0
 30
0.0
  3
*D9
  1

  0
LINE
  5
360
330
35F
100
AcDbEntity
  8
SUNPO
 62
     0
370
    -2
100
AcDbLine
 10
34.40270751166008
 20
57.92596662945947
 30
0.0
 11
34.40270751166008
 21
49.92596662945947
 31
0.0
  0
LINE
  5
361
330
35F
100
AcDbEntity
  8
SUNPO
 62
     0
370
    -2
100
AcDbLine
 10
73.15270751166014
 20
57.92596662945947
 30
0.0
 11
73.15270751166014
 21
49.92596662945947
 31
0.0
  0
LINE
  5
362
330
35F
100
AcDbEntity
  8
SUNPO
 62
     0
370
    -2
100
AcDbLine
 10
36.40270751166009
 20
51.92596662945947
 30
0.0
 11
71.15270751166014
 21
51.92596662945947
 31
0.0
  0
INSERT
  5
363
330
35F
100
AcDbEntity
  8
SUNPO
 62
     0
370
    -2
100
AcDbBlockReference
  2
_OPEN30
 10
34.40270751166008
 20
51.92596662945947
 30
0.0
 41
2.0
 42
2.0
 43
2.0
 50
180.0
  0
INSERT
  5
364
330
35F
100
AcDbEntity
  8
SUNPO
 62
     0
370
    -2
100
AcDbBlockReference
  2
_OPEN30
 10
73.15270751166014
 20
51.92596662945947
 30
0.0
 41
2.0
 42
2.0
 43
2.0
  0
MTEXT
  5
365
330
35F
100
AcDbEntity
  8
SUNPO
 62
     0
100
AcDbMText
 10
53.77770751166011
 20
53.67596662945947
 30
0.0
 40
2.5
 41
0.0
 71
     5
 72
     1
  1
\A1;775
 73
     1
 44
1.0
1001
ACAD
1000
MTEXTBEGIN
1070
    73
1070
     1
1070
    44
1040
1.0
1070
    74
1070
     0
1000
MTEXTEND
  0
POINT
  5
366
330
35F
100
AcDbEntity
  8
DEFPOINTS
 62
     0
370
     0
100
AcDbPoint
 10
34.40270751166008
 20
59.92596662945947
 30
0.0
  0
POINT
  5
367
330
35F
100
AcDbEntity
  8
DEFPOINTS
 62
     0
370
     0
100
AcDbPoint
 10
73.15270751166014
 20
59.92596662945947
 30
0.0
  0
POINT
  5
368
330
35F
100
AcDbEntity
  8
DEFPOINTS
 62
     0
370
     0
100
AcDbPoint
 10
73.15270751166014
 20
51.92596662945947
 30
0.0
  0
ENDBLK
  5
36A
330
35F
100
AcDbEntity
  8
0
370
     0
100
AcDbBlockEnd
  0
BLOCK
  5
375
330
36B
100
AcDbEntity
  8
0
370
     0
100
AcDbBlockBegin
  2
*D10
 70
     1
 10
0.0
 20
0.0
 30
0.0
  3
*D10
  1

  0
LINE
  5
36C
330
36B
100
AcDbEntity
  8
SUNPO
 62
     0
370
    -2
100
AcDbLine
 10
26.71953498251941
 20
60.07941545174612
 30
0.0
 11
18.7195349825194
 21
60.07941545174612
 31
0.0
  0
LINE
  5
36D
330
36B
100
AcDbEntity
  8
SUNPO
 62
     0
370
    -2
100
AcDbLine
 10
26.71953498251941
 20
85.8794154517461
 30
0.0
 11
18.71953498251941
 21
85.8794154517461
 31
0.0
  0
LINE
  5
36E
330
36B
100
AcDbEntity
  8
SUNPO
 62
     0
370
    -2
100
AcDbLine
 10
20.71953498251941
 20
62.07941545174612
 30
0.0
 11
20.71953498251941
 21
83.8794154517461
 31
0.0
  0
INSERT
  5
36F
330
36B
100
AcDbEntity
  8
SUNPO
 62
     0
370
    -2
100
AcDbBlockReference
  2
_OPEN30
 10
20.71953498251941
 20
60.07941545174612
 30
0.0
 41
2.0
 42
2.0
 43
2.0
 50
270.0
  0
INSERT
  5
370
330
36B
100
AcDbEntity
  8
SUNPO
 62
     0
370
    -2
100
AcDbBlockReference
  2
_OPEN30
 10
20.71953498251941
 20
85.8794154517461
 30
0.0
 41
2.0
 42
2.0
 43
2.0
 50
90.0
  0
MTEXT
  5
371
330
36B
100
AcDbEntity
  8
SUNPO
 62
     0
100
AcDbMText
 10
18.96953498251939
 20
72.97941545174612
 30
0.0
 40
2.5
 41
0.0
 71
     5
 72
     1
  1
\A1;516
 11
0.0000000000000001
 21
1.0
 31
0.0
 73
     1
 44
1.0
1001
ACAD
1000
MTEXTBEGIN
1070
    73
1070
     1
1070
    44
1040
1.0
1070
    74
1070
     0
1000
MTEXTEND
  0
POINT
  5
372
330
36B
100
AcDbEntity
  8
DEFPOINTS
 62
     0
370
     0
100
AcDbPoint
 10
28.71953498251941
 20
60.07941545174612
 30
0.0
  0
POINT
  5
373
330
36B
100
AcDbEntity
  8
DEFPOINTS
 62
     0
370
     0
100
AcDbPoint
 10
28.71953498251941
 20
85.8794154517461
 30
0.0
  0
POINT
  5
374
330
36B
100
AcDbEntity
  8
DEFPOINTS
 62
     0
370
     0
100
AcDbPoint
 10
20.71953498251941
 20
85.8794154517461
 30
0.0
  0
ENDBLK
  5
376
330
36B
100
AcDbEntity
  8
0
370
     0
100
AcDbBlockEnd
  0
BLOCK
  5
381
330
377
100
AcDbEntity
  8
0
370
     0
100
AcDbBlockBegin
  2
*D11
 70
     1
 10
0.0
 20
0.0
 30
0.0
  3
*D11
  1

  0
LINE
  5
378
330
377
100
AcDbEntity
  8
SUNPO
 62
     0
370
    -2
100
AcDbLine
 10
80.83803691367018
 20
58.35441545174611
 30
0.0
 11
88.83803691367019
 21
58.35441545174611
 31
0.0
  0
LINE
  5
379
330
377
100
AcDbEntity
  8
SUNPO
 62
     0
370
    -2
100
AcDbLine
 10
80.83803691367018
 20
88.85441545174613
 30
0.0
 11
88.83803691367019
 21
88.85441545174613
 31
0.0
  0
LINE
  5
37A
330
377
100
AcDbEntity
  8
SUNPO
 62
     0
370
    -2
100
AcDbLine
 10
86.83803691367019
 20
60.35441545174611
 30
0.0
 11
86.83803691367019
 21
86.85441545174612
 31
0.0
  0
INSERT
  5
37B
330
377
100
AcDbEntity
  8
SUNPO
 62
     0
370
    -2
100
AcDbBlockReference
  2
_OPEN30
 10
86.83803691367019
 20
58.35441545174611
 30
0.0
 41
2.0
 42
2.0
 43
2.0
 50
270.0
  0
INSERT
  5
37C
330
377
100
AcDbEntity
  8
SUNPO
 62
     0
370
    -2
100
AcDbBlockReference
  2
_OPEN30
 10
86.83803691367019
 20
88.85441545174613
 30
0.0
 41
2.0
 42
2.0
 43
2.0
 50
90.0
  0
MTEXT
  5
37D
330
377
100
AcDbEntity
  8
SUNPO
 62
     0
100
AcDbMText
 10
85.08803691367019
 20
73.60441545174613
 30
0.0
 40
2.5
 41
0.0
 71
     5
 72
     1
  1
\A1;610
 11
0.0000000000000001
 21
1.0
 31
0.0
 73
     1
 44
1.0
1001
ACAD
1000
MTEXTBEGIN
1070
    73
1070
     1
1070
    44
1040
1.0
1070
    74
1070
     0
1000
MTEXTEND
  0
POINT
  5
37E
330
377
100
AcDbEntity
  8
DEFPOINTS
 62
     0
370
     0
100
AcDbPoint
 10
78.83803691367018
 20
58.35441545174612
 30
0.0
  0
POINT
  5
37F
330
377
100
AcDbEntity
  8
DEFPOINTS
 62
     0
370
     0
100
AcDbPoint
 10
78.83803691367018
 20
88.85441545174613
 30
0.0
  0
POINT
  5
380
330
377
100
AcDbEntity
  8
DEFPOINTS
 62
     0
370
     0
100
AcDbPoint
 10
86.83803691367019
 20
88.85441545174613
 30
0.0
  0
ENDBLK
  5
382
330
377
100
AcDbEntity
  8
0
370
     0
100
AcDbBlockEnd
  0
ENDSEC
  0
SECTION
  2
ENTITIES
  0
TEXT
  5
29
330
2
100
AcDbEntity
  8
MOJI1
100
AcDbText
 10
28.99999999999989
 20
114.4992141396421
 30
0.0
 40
4.0
  1
ハイビジョンプラズマディスプレイ壁掛け金具付
 41
0.9
100
AcDbText
  0
TEXT
  5
2B
330
2
100
AcDbEntity
  8
TOUROKU
100
AcDbText
 10
84.59995003292741
 20
108.4992141396419
 30
0.0
 40
2.0
  1
ＴＨ４２ＰＨＤ７＋ＴＹＷＫ４２ＰＶ７
 72
     2
 11
126.9999500329274
 21
108.4992141396419
 31
0.0
100
AcDbText
  0
DIMENSION
  5
2D
330
2
100
AcDbEntity
  8
SUNPO
100
AcDbDimension
  2
*D11
 10
86.83803691367019
 20
88.85441545174613
 30
0.0
 11
85.08803691367019
 21
73.60441545174613
 31
0.0
 70
    33
  1
610
 71
     5
 42
30.5
  3
STANDARD
100
AcDbAlignedDimension
 13
78.83803691367018
 23
58.35441545174612
 33
0.0
 14
78.83803691367018
 24
88.85441545174613
 34
0.0
1001
ACAD
1000
DSTYLE
1002
{
1070
    40
1040
1.0
1070
   140
1040
2.5
1070
   147
1040
0.5
1070
   172
1070
     1
1070
   288
1070
     0
1002
}
  0
LINE
  5
43
330
2
100
AcDbEntity
  8
GAIKEI
100
AcDbLine
 10
28.72770751166013
 20
58.5544154517462
 30
0.0
 11
28.72770751166013
 21
88.6544154517461
 31
0.0
  0
LINE
  5
45
330
2
100
AcDbEntity
  8
GAIKEI
 62
     1
100
AcDbLine
 10
28.84300501165967
 20
58.66971257674629
 30
0.0
 11
28.84300501165967
 21
88.53911835174619
 31
0.0
  0
LINE
  5
46
330
2
100
AcDbEntity
  8
GAIKEI
  6
Continuous
 62
     1
100
AcDbLine
 10
31.22770751166013
 20
60.65441545174611
 30
0.0
 11
31.22770751166013
 21
86.55441545174619
 31
0.0
  0
LINE
  5
47
330
2
100
AcDbEntity
  8
GAIKEI
 62
     1
100
AcDbLine
 10
30.11722751165985
 20
59.99393390174612
 30
0.0
 11
30.11722751165985
 21
87.21489702674636
 31
0.0
  0
LINE
  5
48
330
2
100
AcDbEntity
  8
GAIKEI
 62
     1
100
AcDbLine
 10
30.22246751166063
 20
59.99917467674629
 30
0.0
 11
30.22246751166063
 21
87.20965622674624
 31
0.0
  0
LINE
  5
49
330
2
100
AcDbEntity
  8
GAIKEI
 62
     1
100
AcDbLine
 10
106.9856878728574
 20
63.19430088269291
 30
0.0
 11
106.9856878728574
 21
81.24470045652619
 31
0.0
  0
LINE
  5
4A
330
2
100
AcDbEntity
  8
GAIKEI
100
AcDbLine
 10
102.935483291144
 20
58.51941671789609
 30
0.0
 11
102.935483291144
 21
88.6939262868799
 31
0.0
  0
LINE
  5
4B
330
2
100
AcDbEntity
  8
GAIKEI
100
AcDbLine
 10
105.1354832902639
 20
58.35667171796125
 30
0.0
 11
105.1354832902639
 21
88.85667170348131
 31
0.0
  0
LINE
  5
4C
330
2
100
AcDbEntity
  8
GAIKEI
100
AcDbLine
 10
107.3854832911441
 20
63.38072843202156
 30
0.0
 11
107.385483291144
 21
84.46339225260738
 31
0.0
  0
LINE
  5
4D
330
2
100
AcDbEntity
  8
GAIKEI
 62
     1
100
AcDbLine
 10
78.71241001166061
 20
58.66971257674629
 30
0.0
 11
78.71241001166061
 21
88.53911835174619
 31
0.0
  0
LINE
  5
4E
330
2
100
AcDbEntity
  8
GAIKEI
100
AcDbLine
 10
78.82770751166015
 20
58.5544154517462
 30
0.0
 11
78.82770751166015
 21
88.6544154517461
 31
0.0
  0
LINE
  5
4F
330
2
100
AcDbEntity
  8
GAIKEI
  6
Continuous
 62
     1
100
AcDbLine
 10
76.32770751166015
 20
60.65441545174611
 30
0.0
 11
76.32770751166015
 21
86.55441545174619
 31
0.0
  0
LINE
  5
50
330
2
100
AcDbEntity
  8
GAIKEI
 62
     1
100
AcDbLine
 10
77.43819001166038
 20
59.99393390174612
 30
0.0
 11
77.43819001166038
 21
87.21489702674636
 31
0.0
  0
LINE
  5
51
330
2
100
AcDbEntity
  8
GAIKEI
 62
     1
100
AcDbLine
 10
77.3329500116605
 20
59.99917467674629
 30
0.0
 11
77.3329500116605
 21
87.20965622674624
 31
0.0
  0
DIMENSION
  5
52
330
2
100
AcDbEntity
  8
SUNPO
100
AcDbDimension
  2
*D10
 10
20.71953498251941
 20
85.8794154517461
 30
0.0
 11
18.96953498251939
 21
72.97941545174612
 31
0.0
 70
    33
  1
516
 71
     5
 42
25.79999999999997
  3
STANDARD
100
AcDbAlignedDimension
 13
28.71953498251941
 23
60.07941545174612
 33
0.0
 14
28.71953498251941
 24
85.8794154517461
 34
0.0
1001
ACAD
1000
DSTYLE
1002
{
1070
    40
1040
1.0
1070
   140
1040
2.5
1070
   147
1040
0.5
1070
   172
1070
     1
1070
   288
1070
     0
1002
}
  0
INSERT
  5
5F
330
2
100
AcDbEntity
  8
SUNPO
100
AcDbBlockReference
  2
KANAGU
 10
-140.891683420153
 20
-130.584832089355
 30
0.0
  0
LINE
  5
A5
330
2
100
AcDbEntity
  8
GAIKEI
  6
HIDDEN2
 62
     1
100
AcDbLine
 10
68.65270751166008
 20
83.10441545174617
 30
0.0
 11
68.65270751166008
 21
62.85441545174615
 31
0.0
  0
LINE
  5
A7
330
2
100
AcDbEntity
  8
GAIKEI
  6
HIDDEN2
 62
     1
100
AcDbLine
 10
71.90270751166008
 20
83.10441545174617
 30
0.0
 11
71.90270751166008
 21
62.85441545174615
 31
0.0
  0
LINE
  5
A8
330
2
100
AcDbEntity
  8
GAIKEI
  6
HIDDEN2
 62
     1
100
AcDbLine
 10
35.65270751166008
 20
83.10441545174617
 30
0.0
 11
35.65270751166008
 21
62.85441545174615
 31
0.0
  0
LINE
  5
A9
330
2
100
AcDbEntity
  8
GAIKEI
  6
HIDDEN2
 62
     1
100
AcDbLine
 10
38.90270751166008
 20
83.10441545174617
 30
0.0
 11
38.90270751166008
 21
62.85441545174615
 31
0.0
  0
LINE
  5
AA
330
2
100
AcDbEntity
  8
GAIKEI
  6
HIDDEN2
 62
     1
100
AcDbLine
 10
41.27770751166008
 20
61.1544154517461
 30
0.0
 11
46.27770751166008
 21
61.1544154517461
 31
0.0
  0
LINE
  5
AB
330
2
100
AcDbEntity
  8
GAIKEI
  6
HIDDEN2
 62
     1
100
AcDbLine
 10
41.27770751166008
 20
60.80441545174614
 30
0.0
 11
46.27770751166008
 21
60.80441545174614
 31
0.0
  0
LINE
  5
AC
330
2
100
AcDbEntity
  8
GAIKEI
 62
     1
100
AcDbLine
 10
77.18819001166038
 20
59.74393390174611
 30
0.0
 11
30.36722751165986
 21
59.74393390174611
 31
0.0
  0
LINE
  5
AD
330
2
100
AcDbEntity
  8
GAIKEI
 62
     1
100
AcDbLine
 10
77.18295001165995
 20
59.84917467674621
 30
0.0
 11
30.37246751166026
 21
59.84917467674621
 31
0.0
  0
LINE
  5
AE
330
2
100
AcDbEntity
  8
GAIKEI
 62
     1
100
AcDbLine
 10
78.51241001165988
 20
58.46971257674625
 30
0.0
 11
30.41421501165974
 21
58.46971257674625
 31
0.0
  0
LINE
  5
AF
330
2
100
AcDbEntity
  8
GAIKEI
100
AcDbLine
 10
28.92770751165995
 20
58.35441545174615
 30
0.0
 11
78.62770751166033
 21
58.35441545174615
 31
0.0
  0
LINE
  5
B0
330
2
100
AcDbEntity
  8
GAIKEI
  6
Continuous
 62
     1
100
AcDbLine
 10
76.32770751166015
 20
60.65441545174611
 30
0.0
 11
31.22770751166013
 21
60.65441545174611
 31
0.0
  0
LINE
  5
B1
330
2
100
AcDbEntity
  8
GAIKEI
  6
HIDDEN2
 62
     1
100
AcDbLine
 10
73.15270751166008
 20
60.17941545174614
 30
0.0
 11
34.40270751166008
 21
60.17941545174614
 31
0.0
  0
LINE
  5
B2
330
2
100
AcDbEntity
  8
GAIKEI
  6
HIDDEN2
 62
     1
100
AcDbLine
 10
34.40270751166008
 20
62.82941545174612
 30
0.0
 11
73.15270751166008
 21
62.82941545174612
 31
0.0
  0
LINE
  5
B3
330
2
100
AcDbEntity
  8
GAIKEI
  6
HIDDEN2
 62
     1
100
AcDbLine
 10
72.40270751166008
 20
60.47941545174615
 30
0.0
 11
35.15270751166009
 21
60.47941545174615
 31
0.0
  0
LINE
  5
B4
330
2
100
AcDbEntity
  8
GAIKEI
  6
HIDDEN2
 62
     1
100
AcDbLine
 10
69.27770751166008
 20
62.72941545174615
 30
0.0
 11
38.27770751166008
 21
62.72941545174615
 31
0.0
  0
LINE
  5
B5
330
2
100
AcDbEntity
  8
GAIKEI
  6
HIDDEN2
 62
     1
100
AcDbLine
 10
73.15270751166008
 20
60.07941545174612
 30
0.0
 11
34.40270751166008
 21
60.07941545174612
 31
0.0
  0
DIMENSION
  5
B6
330
2
100
AcDbEntity
  8
SUNPO
100
AcDbDimension
  2
*D9
 10
73.15270751166014
 20
51.92596662945947
 30
0.0
 11
53.77770751166011
 21
53.67596662945947
 31
0.0
 70
    33
  1
775
 71
     5
 42
38.75000000000006
  3
STANDARD
100
AcDbAlignedDimension
 13
34.40270751166008
 23
59.92596662945947
 33
0.0
 14
73.15270751166014
 24
59.92596662945947
 34
0.0
1001
ACAD
1000
DSTYLE
1002
{
1070
    40
1040
1.0
1070
   140
1040
2.5
1070
   147
1040
0.5
1070
   172
1070
     1
1070
   288
1070
     0
1002
}
  0
LINE
  5
C3
330
2
100
AcDbEntity
  8
GAIKEI
  6
HIDDEN2
 62
     1
100
AcDbLine
 10
52.77770751166008
 20
61.47941545174615
 30
0.0
 11
39.44020751166011
 21
61.47941545174615
 31
0.0
  0
LINE
  5
C4
330
2
100
AcDbEntity
  8
GAIKEI
  6
HIDDEN2
 62
     1
100
AcDbLine
 10
36.27770751166008
 20
62.72941545174615
 30
0.0
 11
34.40270751166008
 21
62.72941545174615
 31
0.0
  0
ARC
  5
C5
330
2
100
AcDbEntity
  8
GAIKEI
  6
HIDDEN2
 62
     1
100
AcDbCircle
 10
35.15270751166009
 20
60.97941545174615
 30
0.0
 40
0.5
100
AcDbArc
 50
90.0
 51
270.0
  0
LINE
  5
C6
330
2
100
AcDbEntity
  8
GAIKEI
 62
     1
100
AcDbLine
 10
29.16040751166042
 20
58.43564752674627
 30
0.0
 11
30.39501001166013
 21
58.43564752674627
 31
0.0
  0
LINE
  5
C7
330
2
100
AcDbEntity
  8
GAIKEI
 62
     1
100
AcDbLine
 10
29.18540751166006
 20
58.53578475174629
 30
0.0
 11
30.37001001165959
 21
58.53578475174629
 31
0.0
  0
LINE
  5
C8
330
2
100
AcDbEntity
  8
GAIKEI
 62
     1
100
AcDbLine
 10
29.24620001166045
 20
59.20441545174629
 30
0.0
 11
30.30921501166017
 21
59.20441545174629
 31
0.0
  0
ARC
  5
C9
330
2
100
AcDbEntity
  8
GAIKEI
100
AcDbCircle
 10
28.92770751165995
 20
58.5544154517462
 30
0.0
 40
0.2
100
AcDbArc
 50
180.0
 51
270.0
  0
ARC
  5
CA
330
2
100
AcDbEntity
  8
GAIKEI
 62
     1
100
AcDbCircle
 10
29.0430050116604
 20
58.66971257674629
 30
0.0
 40
0.2
100
AcDbArc
 50
180.0
 51
270.0
  0
ARC
  5
CB
330
2
100
AcDbEntity
  8
GAIKEI
 62
     1
100
AcDbCircle
 10
29.16040751166042
 20
58.46064752674613
 30
0.0
 40
0.025
100
AcDbArc
 50
270.0
 51
0.0
  0
LINE
  5
CC
330
2
100
AcDbEntity
  8
GAIKEI
 62
     1
100
AcDbLine
 10
29.16620001166052
 20
58.49471257674633
 30
0.0
 11
29.16620001166052
 21
59.12441545174636
 31
0.0
  0
LINE
  5
CD
330
2
100
AcDbEntity
  8
GAIKEI
 62
     1
100
AcDbLine
 10
29.18540751166006
 20
58.53578475174629
 30
0.0
 11
29.16620001166052
 21
58.5646090267461
 31
0.0
  0
LINE
  5
CE
330
2
100
AcDbEntity
  8
GAIKEI
 62
     1
100
AcDbLine
 10
29.18540751166006
 20
58.46064752674613
 30
0.0
 11
29.18540751166006
 21
58.53578475174629
 31
0.0
  0
ARC
  5
CF
330
2
100
AcDbEntity
  8
GAIKEI
 62
     1
100
AcDbCircle
 10
29.24620001166045
 20
59.12441545174636
 30
0.0
 40
0.08
100
AcDbArc
 50
90.00000019999895
 51
180.0
  0
LINE
  5
D0
330
2
100
AcDbEntity
  8
GAIKEI
 62
     1
100
AcDbLine
 10
29.14120001165998
 20
58.46971257674625
 30
0.0
 11
29.0430050116604
 21
58.46971257674625
 31
0.0
  0
ARC
  5
D1
330
2
100
AcDbEntity
  8
GAIKEI
 62
     1
100
AcDbCircle
 10
29.14120001165998
 20
58.49471257674633
 30
0.0
 40
0.025
100
AcDbArc
 50
270.0
 51
0.0
  0
LINE
  5
D2
330
2
100
AcDbEntity
  8
GAIKEI
 62
     1
100
AcDbLine
 10
34.46992878309004
 20
59.1694154517462
 30
0.0
 11
34.76992878309011
 21
59.1694154517462
 31
0.0
  0
LINE
  5
D3
330
2
100
AcDbEntity
  8
GAIKEI
 62
     1
100
AcDbLine
 10
34.76992878309011
 20
59.1694154517462
 30
0.0
 11
34.76992878309011
 21
58.86941545174614
 31
0.0
  0
LINE
  5
D4
330
2
100
AcDbEntity
  8
GAIKEI
 62
     1
100
AcDbLine
 10
34.76992878309011
 20
58.86941545174614
 30
0.0
 11
34.46992878309004
 21
58.86941545174614
 31
0.0
  0
LINE
  5
D5
330
2
100
AcDbEntity
  8
GAIKEI
 62
     1
100
AcDbLine
 10
34.46992878309004
 20
58.86941545174614
 30
0.0
 11
34.46992878309004
 21
59.1694154517462
 31
0.0
  0
LINE
  5
D6
330
2
100
AcDbEntity
  8
GAIKEI
 62
     1
100
AcDbLine
 10
33.2752075116598
 20
59.25691545174629
 30
0.0
 11
32.48020751165974
 21
59.25691545174629
 31
0.0
  0
LINE
  5
D7
330
2
100
AcDbEntity
  8
GAIKEI
 62
     1
100
AcDbLine
 10
33.2752075116598
 20
58.78191545174615
 30
0.0
 11
32.48020751165974
 21
58.78191545174615
 31
0.0
  0
ARC
  5
D8
330
2
100
AcDbEntity
  8
GAIKEI
 62
     1
100
AcDbCircle
 10
32.48020751165974
 20
59.23191545174621
 30
0.0
 40
0.025
100
AcDbArc
 50
90.00000019999895
 51
180.0
  0
LINE
  5
D9
330
2
100
AcDbEntity
  8
GAIKEI
 62
     1
100
AcDbLine
 10
32.45520751166009
 20
58.80691545174626
 30
0.0
 11
32.45520751166009
 21
59.23191545174621
 31
0.0
  0
ARC
  5
DA
330
2
100
AcDbEntity
  8
GAIKEI
 62
     1
100
AcDbCircle
 10
32.48020751165974
 20
58.80691545174626
 30
0.0
 40
0.025
100
AcDbArc
 50
180.0
 51
270.0
  0
ARC
  5
DB
330
2
100
AcDbEntity
  8
GAIKEI
 62
     1
100
AcDbCircle
 10
33.2752075116598
 20
58.80691545174626
 30
0.0
 40
0.025
100
AcDbArc
 50
270.0
 51
0.0
  0
LINE
  5
DC
330
2
100
AcDbEntity
  8
GAIKEI
 62
     1
100
AcDbLine
 10
33.30020751166035
 20
58.80691545174626
 30
0.0
 11
33.30020751166035
 21
59.23191545174621
 31
0.0
  0
ARC
  5
DD
330
2
100
AcDbEntity
  8
GAIKEI
 62
     1
100
AcDbCircle
 10
33.2752075116598
 20
59.23191545174621
 30
0.0
 40
0.025
100
AcDbArc
 50
0.0
 51
90.00000019999895
  0
LINE
  5
DE
330
2
100
AcDbEntity
  8
GAIKEI
 62
     1
100
AcDbLine
 10
33.46914557621938
 20
58.93541545174617
 30
0.0
 11
33.46914557621938
 21
59.10341545174617
 31
0.0
  0
LINE
  5
DF
330
2
100
AcDbEntity
  8
GAIKEI
 62
     1
100
AcDbLine
 10
33.63714557621938
 20
58.93541545174617
 30
0.0
 11
33.46914557621938
 21
58.93541545174617
 31
0.0
  0
LINE
  5
E0
330
2
100
AcDbEntity
  8
GAIKEI
 62
     1
100
AcDbLine
 10
33.63714557621938
 20
59.10341545174617
 30
0.0
 11
33.63714557621938
 21
58.93541545174617
 31
0.0
  0
LINE
  5
E1
330
2
100
AcDbEntity
  8
GAIKEI
 62
     1
100
AcDbLine
 10
33.46914557621938
 20
59.10341545174617
 30
0.0
 11
33.63714557621938
 21
59.10341545174617
 31
0.0
  0
LINE
  5
E2
330
2
100
AcDbEntity
  8
GAIKEI
  6
HIDDEN2
 62
     1
100
AcDbLine
 10
34.40270751166008
 20
62.82941545174612
 30
0.0
 11
34.40270751166008
 21
60.07941545174612
 31
0.0
  0
CIRCLE
  5
E3
330
2
100
AcDbEntity
  8
GAIKEI
 62
     1
100
AcDbCircle
 10
31.25270751166067
 20
59.0444154517462
 30
0.0
 40
0.074999998
  0
ARC
  5
E4
330
2
100
AcDbEntity
  8
GAIKEI
 62
     1
100
AcDbCircle
 10
30.39501001166013
 20
58.46064752674613
 30
0.0
 40
0.025
100
AcDbArc
 50
180.0
 51
270.0
  0
LINE
  5
E5
330
2
100
AcDbEntity
  8
GAIKEI
 62
     1
100
AcDbLine
 10
30.3892150116601
 20
58.49471257674633
 30
0.0
 11
30.3892150116601
 21
59.12441545174636
 31
0.0
  0
LINE
  5
E6
330
2
100
AcDbEntity
  8
GAIKEI
 62
     1
100
AcDbLine
 10
30.37001001165959
 20
58.53578475174629
 30
0.0
 11
30.3892150116601
 21
58.5646090267461
 31
0.0
  0
LINE
  5
E7
330
2
100
AcDbEntity
  8
GAIKEI
 62
     1
100
AcDbLine
 10
30.37001001165959
 20
58.46064752674613
 30
0.0
 11
30.37001001165959
 21
58.53578475174629
 31
0.0
  0
ARC
  5
E8
330
2
100
AcDbEntity
  8
GAIKEI
 62
     1
100
AcDbCircle
 10
30.30921501166017
 20
59.12441545174636
 30
0.0
 40
0.08
100
AcDbArc
 50
0.0
 51
90.00000019999895
  0
ARC
  5
E9
330
2
100
AcDbEntity
  8
GAIKEI
 62
     1
100
AcDbCircle
 10
30.41421501165974
 20
58.49471257674633
 30
0.0
 40
0.025
100
AcDbArc
 50
180.0
 51
270.0
  0
ARC
  5
EA
330
2
100
AcDbEntity
  8
GAIKEI
 62
     1
100
AcDbCircle
 10
30.37246751166026
 20
59.99917467674629
 30
0.0
 40
0.15
100
AcDbArc
 50
180.0
 51
270.0
  0
ARC
  5
EB
330
2
100
AcDbEntity
  8
GAIKEI
 62
     1
100
AcDbCircle
 10
30.36722751165986
 20
59.99393390174612
 30
0.0
 40
0.25
100
AcDbArc
 50
180.0
 51
270.0
  0
ARC
  5
EC
330
2
100
AcDbEntity
  8
GAIKEI
  6
HIDDEN2
 62
     1
100
AcDbCircle
 10
37.8902075116601
 20
65.82097420174614
 30
0.0
 40
0.25
100
AcDbArc
 50
124.7340099999985
 51
180.0
  0
ARC
  5
ED
330
2
100
AcDbEntity
  8
GAIKEI
  6
HIDDEN2
 62
     1
100
AcDbCircle
 10
36.66520751166007
 20
65.82097420174614
 30
0.0
 40
0.25
100
AcDbArc
 50
0.0
 51
55.26599000000138
  0
ARC
  5
EE
330
2
100
AcDbEntity
  8
GAIKEI
  6
HIDDEN2
 62
     1
100
AcDbCircle
 10
37.80270751166012
 20
64.39191545174612
 30
0.0
 40
0.325
100
AcDbArc
 50
0.0
 51
90.0
  0
LINE
  5
EF
330
2
100
AcDbEntity
  8
GAIKEI
  6
HIDDEN2
 62
     1
100
AcDbLine
 10
38.80270751166012
 20
62.85441545174615
 30
0.0
 11
38.80270751166012
 21
63.05441545174608
 31
0.0
  0
LINE
  5
F0
330
2
100
AcDbEntity
  8
GAIKEI
  6
HIDDEN2
 62
     1
100
AcDbLine
 10
38.90270751166008
 20
63.05441545174608
 30
0.0
 11
38.77770751166008
 21
63.05441545174608
 31
0.0
  0
LINE
  5
F1
330
2
100
AcDbEntity
  8
GAIKEI
  6
HIDDEN2
 62
     1
100
AcDbLine
 10
38.80270751166012
 20
62.85441545174615
 30
0.0
 11
38.90270751166008
 21
62.85441545174615
 31
0.0
  0
ARC
  5
F2
330
2
100
AcDbEntity
  8
GAIKEI
  6
HIDDEN2
 62
     1
100
AcDbCircle
 10
38.77770751166008
 20
62.95441545174612
 30
0.0
 40
0.1
100
AcDbArc
 50
90.0
 51
180.0
  0
LINE
  5
F3
330
2
100
AcDbEntity
  8
GAIKEI
  6
HIDDEN2
 62
     1
100
AcDbLine
 10
38.67770751166012
 20
62.95441545174612
 30
0.0
 11
38.67770751166012
 21
62.85441545174615
 31
0.0
  0
LINE
  5
F4
330
2
100
AcDbEntity
  8
GAIKEI
  6
HIDDEN2
 62
     1
100
AcDbLine
 10
38.67770751166012
 20
62.95441545174612
 30
0.0
 11
38.77770751166008
 21
62.95441545174612
 31
0.0
  0
LINE
  5
F5
330
2
100
AcDbEntity
  8
GAIKEI
  6
HIDDEN2
 62
     1
100
AcDbLine
 10
38.77770751166008
 20
62.82941545174612
 30
0.0
 11
38.77770751166008
 21
62.95441545174612
 31
0.0
  0
LINE
  5
F6
330
2
100
AcDbEntity
  8
GAIKEI
  6
HIDDEN2
 62
     1
100
AcDbLine
 10
38.78270751166008
 20
61.81441545174613
 30
0.0
 11
38.78270751166008
 21
61.96441545174611
 31
0.0
  0
LINE
  5
F7
330
2
100
AcDbEntity
  8
GAIKEI
  6
HIDDEN2
 62
     1
100
AcDbLine
 10
38.77770751166008
 20
61.85441545174615
 30
0.0
 11
38.77770751166008
 21
61.96441545174611
 31
0.0
  0
ARC
  5
F8
330
2
100
AcDbEntity
  8
GAIKEI
  6
HIDDEN2
 62
     1
100
AcDbCircle
 10
39.44020751166011
 20
61.97941545174614
 30
0.0
 40
0.5
100
AcDbArc
 50
180.0
 51
270.0
  0
LINE
  5
F9
330
2
100
AcDbEntity
  8
GAIKEI
  6
HIDDEN2
 62
     1
100
AcDbLine
 10
38.9402075116601
 20
62.72941545174615
 30
0.0
 11
38.9402075116601
 21
61.97941545174614
 31
0.0
  0
LINE
  5
FA
330
2
100
AcDbEntity
  8
GAIKEI
  6
HIDDEN2
 62
     1
100
AcDbLine
 10
38.27770751166008
 20
62.82941545174612
 30
0.0
 11
38.27770751166008
 21
62.72941545174615
 31
0.0
  0
LINE
  5
FB
330
2
100
AcDbEntity
  8
GAIKEI
  6
HIDDEN2
 62
     1
100
AcDbLine
 10
38.02270751166009
 20
61.81441545174613
 30
0.0
 11
38.02270751166009
 21
61.96441545174611
 31
0.0
  0
LINE
  5
FC
330
2
100
AcDbEntity
  8
GAIKEI
  6
HIDDEN2
 62
     1
100
AcDbLine
 10
38.02770751166008
 20
61.85441545174615
 30
0.0
 11
38.02770751166008
 21
61.96441545174611
 31
0.0
  0
LINE
  5
FD
330
2
100
AcDbEntity
  8
GAIKEI
  6
HIDDEN2
 62
     1
100
AcDbLine
 10
38.78270751166008
 20
61.81441545174613
 30
0.0
 11
38.02270751166009
 21
61.81441545174613
 31
0.0
  0
LINE
  5
FE
330
2
100
AcDbEntity
  8
GAIKEI
  6
HIDDEN2
 62
     1
100
AcDbLine
 10
38.78270751166008
 20
61.96441545174611
 30
0.0
 11
38.02270751166009
 21
61.96441545174611
 31
0.0
  0
LINE
  5
FF
330
2
100
AcDbEntity
  8
GAIKEI
  6
HIDDEN2
 62
     1
100
AcDbLine
 10
38.77770751166008
 20
61.85441545174615
 30
0.0
 11
38.02770751166008
 21
61.85441545174615
 31
0.0
  0
LINE
  5
100
330
2
100
AcDbEntity
  8
GAIKEI
  6
HIDDEN2
 62
     1
100
AcDbLine
 10
38.77770751166008
 20
61.95441545174612
 30
0.0
 11
38.02770751166008
 21
61.95441545174612
 31
0.0
  0
ARC
  5
101
330
2
100
AcDbEntity
  8
GAIKEI
  6
HIDDEN2
 62
     1
100
AcDbCircle
 10
37.27770751166008
 20
60.97941545174615
 30
0.0
 40
0.175
100
AcDbArc
 50
270.0
 51
90.0
  0
ARC
  5
102
330
2
100
AcDbEntity
  8
GAIKEI
  6
HIDDEN2
 62
     1
100
AcDbCircle
 10
37.80270751166012
 20
64.31691545174612
 30
0.0
 40
0.325
100
AcDbArc
 50
270.0
 51
0.0
  0
LINE
  5
103
330
2
100
AcDbEntity
  8
GAIKEI
  6
HIDDEN2
 62
     1
100
AcDbLine
 10
38.12770751166011
 20
64.31691545174612
 30
0.0
 11
38.12770751166011
 21
64.39191545174612
 31
0.0
  0
ARC
  5
104
330
2
100
AcDbEntity
  8
GAIKEI
  6
HIDDEN2
 62
     1
100
AcDbCircle
 10
37.24020751166012
 20
65.60441545174615
 30
0.0
 40
0.325
100
AcDbArc
 50
180.0
 51
270.0
  0
LINE
  5
105
330
2
100
AcDbEntity
  8
GAIKEI
  6
HIDDEN2
 62
     1
100
AcDbLine
 10
36.91520751166007
 20
65.60441545174615
 30
0.0
 11
36.91520751166007
 21
65.82097420174614
 31
0.0
  0
LINE
  5
106
330
2
100
AcDbEntity
  8
GAIKEI
  6
HIDDEN2
 62
     1
100
AcDbLine
 10
37.6402075116601
 20
65.60441545174615
 30
0.0
 11
37.6402075116601
 21
65.82097420174614
 31
0.0
  0
LINE
  5
107
330
2
100
AcDbEntity
  8
GAIKEI
  6
HIDDEN2
 62
     1
100
AcDbLine
 10
37.31520751166011
 20
65.2794154517461
 30
0.0
 11
37.24020751166012
 21
65.2794154517461
 31
0.0
  0
ARC
  5
108
330
2
100
AcDbEntity
  8
GAIKEI
  6
HIDDEN2
 62
     1
100
AcDbCircle
 10
37.31520751166011
 20
65.60441545174615
 30
0.0
 40
0.325
100
AcDbArc
 50
270.0
 51
0.0
  0
LINE
  5
109
330
2
100
AcDbEntity
  8
GAIKEI
 62
     1
100
AcDbLine
 10
35.82158688732909
 20
59.1694154517462
 30
0.0
 11
36.12158688732915
 21
59.1694154517462
 31
0.0
  0
LINE
  5
10A
330
2
100
AcDbEntity
  8
GAIKEI
 62
     1
100
AcDbLine
 10
36.12158688732915
 20
59.1694154517462
 30
0.0
 11
36.12158688732915
 21
58.86941545174614
 31
0.0
  0
LINE
  5
10B
330
2
100
AcDbEntity
  8
GAIKEI
 62
     1
100
AcDbLine
 10
36.12158688732915
 20
58.86941545174614
 30
0.0
 11
35.82158688732909
 21
58.86941545174614
 31
0.0
  0
LINE
  5
10C
330
2
100
AcDbEntity
  8
GAIKEI
 62
     1
100
AcDbLine
 10
35.82158688732909
 20
58.86941545174614
 30
0.0
 11
35.82158688732909
 21
59.1694154517462
 31
0.0
  0
LINE
  5
10D
330
2
100
AcDbEntity
  8
GAIKEI
 62
     1
100
AcDbLine
 10
36.27213958874211
 20
58.86941545174614
 30
0.0
 11
36.27213958874211
 21
59.1694154517462
 31
0.0
  0
LINE
  5
10E
330
2
100
AcDbEntity
  8
GAIKEI
 62
     1
100
AcDbLine
 10
36.57213958874218
 20
58.86941545174614
 30
0.0
 11
36.27213958874211
 21
58.86941545174614
 31
0.0
  0
LINE
  5
10F
330
2
100
AcDbEntity
  8
GAIKEI
 62
     1
100
AcDbLine
 10
36.57213958874218
 20
59.1694154517462
 30
0.0
 11
36.57213958874218
 21
58.86941545174614
 31
0.0
  0
LINE
  5
110
330
2
100
AcDbEntity
  8
GAIKEI
 62
     1
100
AcDbLine
 10
36.27213958874211
 20
59.1694154517462
 30
0.0
 11
36.57213958874218
 21
59.1694154517462
 31
0.0
  0
LINE
  5
111
330
2
100
AcDbEntity
  8
GAIKEI
 62
     1
100
AcDbLine
 10
35.37103418591608
 20
59.1694154517462
 30
0.0
 11
35.67103418591614
 21
59.1694154517462
 31
0.0
  0
LINE
  5
112
330
2
100
AcDbEntity
  8
GAIKEI
 62
     1
100
AcDbLine
 10
35.67103418591614
 20
59.1694154517462
 30
0.0
 11
35.67103418591614
 21
58.86941545174614
 31
0.0
  0
LINE
  5
113
330
2
100
AcDbEntity
  8
GAIKEI
 62
     1
100
AcDbLine
 10
35.67103418591614
 20
58.86941545174614
 30
0.0
 11
35.37103418591608
 21
58.86941545174614
 31
0.0
  0
LINE
  5
114
330
2
100
AcDbEntity
  8
GAIKEI
 62
     1
100
AcDbLine
 10
35.37103418591608
 20
58.86941545174614
 30
0.0
 11
35.37103418591608
 21
59.1694154517462
 31
0.0
  0
LINE
  5
115
330
2
100
AcDbEntity
  8
GAIKEI
 62
     1
100
AcDbLine
 10
35.22048148450313
 20
59.1694154517462
 30
0.0
 11
35.22048148450313
 21
58.86941545174614
 31
0.0
  0
LINE
  5
116
330
2
100
AcDbEntity
  8
GAIKEI
 62
     1
100
AcDbLine
 10
34.92048148450306
 20
58.86941545174614
 30
0.0
 11
34.92048148450306
 21
59.1694154517462
 31
0.0
  0
LINE
  5
117
330
2
100
AcDbEntity
  8
GAIKEI
 62
     1
100
AcDbLine
 10
35.22048148450313
 20
58.86941545174614
 30
0.0
 11
34.92048148450306
 21
58.86941545174614
 31
0.0
  0
LINE
  5
118
330
2
100
AcDbEntity
  8
GAIKEI
 62
     1
100
AcDbLine
 10
34.92048148450306
 20
59.1694154517462
 30
0.0
 11
35.22048148450313
 21
59.1694154517462
 31
0.0
  0
LINE
  5
119
330
2
100
AcDbEntity
  8
GAIKEI
  6
HIDDEN2
 62
     1
100
AcDbLine
 10
35.75270751166011
 20
65.17941545174608
 30
0.0
 11
35.75270751166011
 21
63.5294154517461
 31
0.0
  0
POINT
  5
11A
330
2
100
AcDbEntity
  8
GAIKEI
  6
HIDDEN2
 62
     1
100
AcDbPoint
 10
36.45270751166009
 20
63.99191545174608
 30
0.0
  0
LINE
  5
11B
330
2
100
AcDbEntity
  8
GAIKEI
  6
HIDDEN2
 62
     1
100
AcDbLine
 10
36.53270751166008
 20
61.81441545174613
 30
0.0
 11
36.53270751166008
 21
61.96441545174611
 31
0.0
  0
LINE
  5
11C
330
2
100
AcDbEntity
  8
GAIKEI
  6
HIDDEN2
 62
     1
100
AcDbLine
 10
36.52770751166008
 20
61.85441545174615
 30
0.0
 11
36.52770751166008
 21
61.96441545174611
 31
0.0
  0
LINE
  5
11D
330
2
100
AcDbEntity
  8
GAIKEI
  6
HIDDEN2
 62
     1
100
AcDbLine
 10
35.75270751166011
 20
62.85441545174615
 30
0.0
 11
35.75270751166011
 21
63.05441545174608
 31
0.0
  0
LINE
  5
11E
330
2
100
AcDbEntity
  8
GAIKEI
  6
HIDDEN2
 62
     1
100
AcDbLine
 10
35.65270751166008
 20
63.05441545174608
 30
0.0
 11
35.77770751166009
 21
63.05441545174608
 31
0.0
  0
LINE
  5
11F
330
2
100
AcDbEntity
  8
GAIKEI
  6
HIDDEN2
 62
     1
100
AcDbLine
 10
35.75270751166011
 20
62.85441545174615
 30
0.0
 11
35.65270751166008
 21
62.85441545174615
 31
0.0
  0
ARC
  5
120
330
2
100
AcDbEntity
  8
GAIKEI
  6
HIDDEN2
 62
     1
100
AcDbCircle
 10
35.77770751166009
 20
62.95441545174612
 30
0.0
 40
0.1
100
AcDbArc
 50
0.0
 51
90.0
  0
LINE
  5
121
330
2
100
AcDbEntity
  8
GAIKEI
  6
HIDDEN2
 62
     1
100
AcDbLine
 10
35.87770751166011
 20
62.95441545174612
 30
0.0
 11
35.87770751166011
 21
62.85441545174615
 31
0.0
  0
LINE
  5
122
330
2
100
AcDbEntity
  8
GAIKEI
  6
HIDDEN2
 62
     1
100
AcDbLine
 10
35.87770751166011
 20
62.95441545174612
 30
0.0
 11
35.77770751166009
 21
62.95441545174612
 31
0.0
  0
LINE
  5
123
330
2
100
AcDbEntity
  8
GAIKEI
  6
HIDDEN2
 62
     1
100
AcDbLine
 10
35.65270751166008
 20
63.5294154517461
 30
0.0
 11
35.93839451166008
 21
63.5294154517461
 31
0.0
  0
LINE
  5
124
330
2
100
AcDbEntity
  8
GAIKEI
  6
HIDDEN2
 62
     1
100
AcDbLine
 10
36.30315151166009
 20
63.81899145174612
 30
0.0
 11
36.12748526166007
 21
63.6158774517461
 31
0.0
  0
POINT
  5
125
330
2
100
AcDbEntity
  8
GAIKEI
  6
HIDDEN2
 62
     1
100
AcDbPoint
 10
36.05270751166012
 20
63.5294154517461
 30
0.0
  0
ARC
  5
126
330
2
100
AcDbEntity
  8
GAIKEI
  6
HIDDEN2
 62
     1
100
AcDbCircle
 10
35.93839451166008
 20
63.77941545174611
 30
0.0
 40
0.25
100
AcDbArc
 50
270.0
 51
319.1446239999992
  0
LINE
  5
127
330
2
100
AcDbEntity
  8
GAIKEI
  6
HIDDEN2
 62
     1
100
AcDbLine
 10
36.27770751166008
 20
62.82941545174612
 30
0.0
 11
36.27770751166008
 21
62.72941545174615
 31
0.0
  0
LINE
  5
128
330
2
100
AcDbEntity
  8
GAIKEI
  6
HIDDEN2
 62
     1
100
AcDbLine
 10
35.77770751166009
 20
62.82941545174612
 30
0.0
 11
35.77770751166009
 21
62.95441545174612
 31
0.0
  0
LINE
  5
129
330
2
100
AcDbEntity
  8
GAIKEI
  6
HIDDEN2
 62
     1
100
AcDbLine
 10
35.7727075116601
 20
61.81441545174613
 30
0.0
 11
35.7727075116601
 21
61.96441545174611
 31
0.0
  0
LINE
  5
12A
330
2
100
AcDbEntity
  8
GAIKEI
  6
HIDDEN2
 62
     1
100
AcDbLine
 10
35.77770751166009
 20
61.85441545174615
 30
0.0
 11
35.77770751166009
 21
61.96441545174611
 31
0.0
  0
ARC
  5
12B
330
2
100
AcDbEntity
  8
GAIKEI
  6
HIDDEN2
 62
     1
100
AcDbCircle
 10
35.11520751166012
 20
61.97833295174614
 30
0.0
 40
0.5
100
AcDbArc
 50
274.3012219999994
 51
0.0
  0
LINE
  5
12C
330
2
100
AcDbEntity
  8
GAIKEI
  6
HIDDEN2
 62
     1
100
AcDbLine
 10
35.61520751166012
 20
62.72941545174615
 30
0.0
 11
35.61520751166012
 21
61.97833295174614
 31
0.0
  0
ARC
  5
12D
330
2
100
AcDbEntity
  8
GAIKEI
  6
HIDDEN2
 62
     1
100
AcDbCircle
 10
35.15270751166009
 20
60.97941545174615
 30
0.0
 40
0.175
100
AcDbArc
 50
90.0
 51
270.0
  0
LINE
  5
12E
330
2
100
AcDbEntity
  8
GAIKEI
  6
HIDDEN2
 62
     1
100
AcDbLine
 10
35.7727075116601
 20
61.81441545174613
 30
0.0
 11
36.53270751166008
 21
61.81441545174613
 31
0.0
  0
LINE
  5
12F
330
2
100
AcDbEntity
  8
GAIKEI
  6
HIDDEN2
 62
     1
100
AcDbLine
 10
35.7727075116601
 20
61.96441545174611
 30
0.0
 11
36.53270751166008
 21
61.96441545174611
 31
0.0
  0
LINE
  5
130
330
2
100
AcDbEntity
  8
GAIKEI
  6
HIDDEN2
 62
     1
100
AcDbLine
 10
36.52770751166008
 20
61.85441545174615
 30
0.0
 11
35.77770751166009
 21
61.85441545174615
 31
0.0
  0
LINE
  5
131
330
2
100
AcDbEntity
  8
GAIKEI
  6
HIDDEN2
 62
     1
100
AcDbLine
 10
36.52770751166008
 20
61.95441545174612
 30
0.0
 11
35.77770751166009
 21
61.95441545174612
 31
0.0
  0
ARC
  5
132
330
2
100
AcDbEntity
  8
GAIKEI
  6
HIDDEN2
 62
     1
100
AcDbCircle
 10
36.68133301166012
 20
63.49191545174608
 30
0.0
 40
0.5
100
AcDbArc
 50
90.0
 51
139.1446239999993
  0
POINT
  5
133
330
2
100
AcDbEntity
  8
GAIKEI
  6
HIDDEN2
 62
     1
100
AcDbPoint
 10
36.45270751166009
 20
64.71691545174611
 30
0.0
  0
LINE
  5
134
330
2
100
AcDbEntity
  8
GAIKEI
  6
HIDDEN2
 62
     1
100
AcDbLine
 10
35.65270751166008
 20
65.17941545174608
 30
0.0
 11
35.93839451166008
 21
65.17941545174608
 31
0.0
  0
LINE
  5
135
330
2
100
AcDbEntity
  8
GAIKEI
  6
HIDDEN2
 62
     1
100
AcDbLine
 10
36.30315151166009
 20
64.88983945174607
 30
0.0
 11
36.12748526166007
 21
65.0929534517461
 31
0.0
  0
POINT
  5
136
330
2
100
AcDbEntity
  8
GAIKEI
  6
HIDDEN2
 62
     1
100
AcDbPoint
 10
36.05270751166012
 20
65.17941545174608
 30
0.0
  0
ARC
  5
137
330
2
100
AcDbEntity
  8
GAIKEI
  6
HIDDEN2
 62
     1
100
AcDbCircle
 10
35.93839451166008
 20
64.92941545174608
 30
0.0
 40
0.25
100
AcDbArc
 50
40.85537600000072
 51
90.0
  0
ARC
  5
138
330
2
100
AcDbEntity
  8
GAIKEI
  6
HIDDEN2
 62
     1
100
AcDbCircle
 10
36.68133301166012
 20
65.2169154517461
 30
0.0
 40
0.5
100
AcDbArc
 50
220.8553760000007
 51
270.0
  0
LINE
  5
139
330
2
100
AcDbEntity
  8
GAIKEI
  6
HIDDEN2
 62
     1
100
AcDbLine
 10
37.80270751166012
 20
63.99191545174608
 30
0.0
 11
36.68133301166012
 21
63.99191545174608
 31
0.0
  0
LINE
  5
13A
330
2
100
AcDbEntity
  8
GAIKEI
  6
HIDDEN2
 62
     1
100
AcDbLine
 10
35.15270751166009
 20
61.1544154517461
 30
0.0
 11
37.27770751166008
 21
61.1544154517461
 31
0.0
  0
LINE
  5
13B
330
2
100
AcDbEntity
  8
GAIKEI
  6
HIDDEN2
 62
     1
100
AcDbLine
 10
35.15270751166009
 20
60.80441545174614
 30
0.0
 11
37.27770751166008
 21
60.80441545174614
 31
0.0
  0
LINE
  5
13C
330
2
100
AcDbEntity
  8
GAIKEI
  6
HIDDEN2
 62
     1
100
AcDbLine
 10
35.77770751166009
 20
62.85441545174615
 30
0.0
 11
38.77770751166008
 21
62.85441545174615
 31
0.0
  0
LINE
  5
13D
330
2
100
AcDbEntity
  8
GAIKEI
  6
HIDDEN2
 62
     1
100
AcDbLine
 10
37.80270751166012
 20
64.71691545174611
 30
0.0
 11
36.68133301166012
 21
64.71691545174611
 31
0.0
  0
ARC
  5
13E
330
2
100
AcDbEntity
  8
GAIKEI
  6
HIDDEN2
 62
     1
100
AcDbCircle
 10
41.27770751166008
 20
60.97941545174615
 30
0.0
 40
0.175
100
AcDbArc
 50
90.0
 51
270.0
  0
ARC
  5
13F
330
2
100
AcDbEntity
  8
GAIKEI
  6
HIDDEN2
 62
     1
100
AcDbCircle
 10
37.27770751166008
 20
66.70441545174611
 30
0.0
 40
0.825
100
AcDbArc
 50
304.7340099999987
 51
0.0
  0
LINE
  5
140
330
2
100
AcDbEntity
  8
GAIKEI
  6
HIDDEN2
 62
     1
100
AcDbLine
 10
38.10270751166007
 20
66.70441545174611
 30
0.0
 11
38.10270751166007
 21
66.95415770174611
 31
0.0
  0
ARC
  5
141
330
2
100
AcDbEntity
  8
GAIKEI
  6
HIDDEN2
 62
     1
100
AcDbCircle
 10
38.10244926166007
 20
67.05441545174608
 30
0.0
 40
0.10025825
100
AcDbArc
 50
270.1475399999991
 51
93.33963399999895
  0
ARC
  5
142
330
2
100
AcDbEntity
  8
GAIKEI
  6
HIDDEN2
 62
     1
100
AcDbCircle
 10
37.27770751166008
 20
66.70441545174611
 30
0.0
 40
0.825
100
AcDbArc
 50
180.0
 51
235.2659900000014
  0
LINE
  5
143
330
2
100
AcDbEntity
  8
GAIKEI
  6
HIDDEN2
 62
     1
100
AcDbLine
 10
36.45270751166009
 20
66.70441545174611
 30
0.0
 11
36.45270751166009
 21
66.95432745174611
 31
0.0
  0
ARC
  5
144
330
2
100
AcDbEntity
  8
GAIKEI
  6
HIDDEN2
 62
     1
100
AcDbCircle
 10
36.45296551166013
 20
67.05441545174608
 30
0.0
 40
0.10025825
100
AcDbArc
 50
86.66036600000101
 51
269.8524600000009
  0
ARC
  5
145
330
2
100
AcDbEntity
  8
GAIKEI
  6
HIDDEN2
 62
     1
100
AcDbCircle
 10
37.27770751166008
 20
67.05441545174608
 30
0.0
 40
0.825
100
AcDbArc
 50
6.931045000000387
 51
173.0264240000005
  0
ARC
  5
146
330
2
100
AcDbEntity
  8
GAIKEI
  6
HIDDEN2
 62
     1
100
AcDbCircle
 10
66.27770751166008
 20
60.97941545174615
 30
0.0
 40
0.175
100
AcDbArc
 50
270.0
 51
90.0
  0
LINE
  5
147
330
2
100
AcDbEntity
  8
GAIKEI
  6
HIDDEN2
 62
     1
100
AcDbLine
 10
54.77770751166008
 20
61.47941545174615
 30
0.0
 11
68.11520751166011
 21
61.47941545174615
 31
0.0
  0
LINE
  5
148
330
2
100
AcDbEntity
  8
GAIKEI
  6
HIDDEN2
 62
     1
100
AcDbLine
 10
54.52770751166008
 20
61.1544154517461
 30
0.0
 11
56.27770751166008
 21
61.1544154517461
 31
0.0
  0
LINE
  5
149
330
2
100
AcDbEntity
  8
GAIKEI
  6
HIDDEN2
 62
     1
100
AcDbLine
 10
54.52770751166008
 20
60.80441545174614
 30
0.0
 11
56.27770751166008
 21
60.80441545174614
 31
0.0
  0
ARC
  5
14A
330
2
100
AcDbEntity
  8
GAIKEI
  6
HIDDEN2
 62
     1
100
AcDbCircle
 10
46.27770751166008
 20
60.97941545174615
 30
0.0
 40
0.175
100
AcDbArc
 50
270.0
 51
90.0
  0
LINE
  5
14B
330
2
100
AcDbEntity
  8
GAIKEI
  6
HIDDEN2
 62
     1
100
AcDbLine
 10
53.95270751166009
 20
61.97941545174614
 30
0.0
 11
53.95270751166009
 21
61.79182545174615
 31
0.0
  0
ARC
  5
14C
330
2
100
AcDbEntity
  8
GAIKEI
  6
HIDDEN2
 62
     1
100
AcDbCircle
 10
54.77770751166008
 20
61.97941545174614
 30
0.0
 40
0.5
100
AcDbArc
 50
180.0
 51
270.0
  0
ARC
  5
14D
330
2
100
AcDbEntity
  8
GAIKEI
  6
HIDDEN2
 62
     1
100
AcDbCircle
 10
53.77770751166008
 20
61.47941545174615
 30
0.0
 40
0.335
100
AcDbArc
 50
305.7617140000009
 51
54.23828599999911
  0
ARC
  5
14E
330
2
100
AcDbEntity
  8
GAIKEI
  6
HIDDEN2
 62
     1
100
AcDbCircle
 10
54.00270751166011
 20
61.79182545174615
 30
0.0
 40
0.05
100
AcDbArc
 50
180.0
 51
234.238285999999
  0
LINE
  5
14F
330
2
100
AcDbEntity
  8
GAIKEI
  6
HIDDEN2
 62
     1
100
AcDbLine
 10
53.60270751166007
 20
61.97941545174614
 30
0.0
 11
53.60270751166007
 21
61.79182545174615
 31
0.0
  0
ARC
  5
150
330
2
100
AcDbEntity
  8
GAIKEI
  6
HIDDEN2
 62
     1
100
AcDbCircle
 10
52.77770751166008
 20
61.97941545174614
 30
0.0
 40
0.5
100
AcDbArc
 50
270.0
 51
0.0
  0
ARC
  5
151
330
2
100
AcDbEntity
  8
GAIKEI
  6
HIDDEN2
 62
     1
100
AcDbCircle
 10
53.77770751166008
 20
61.47941545174615
 30
0.0
 40
0.335
100
AcDbArc
 50
125.7617140000009
 51
234.238285999999
  0
ARC
  5
152
330
2
100
AcDbEntity
  8
GAIKEI
  6
HIDDEN2
 62
     1
100
AcDbCircle
 10
53.55270751166012
 20
61.79182545174615
 30
0.0
 40
0.05
100
AcDbArc
 50
305.7617140000009
 51
0.0
  0
ARC
  5
153
330
2
100
AcDbEntity
  8
GAIKEI
  6
HIDDEN2
 62
     1
100
AcDbCircle
 10
53.77770751166008
 20
61.97941545174614
 30
0.0
 40
0.5
100
AcDbArc
 50
0.0
 51
180.0
  0
ARC
  5
154
330
2
100
AcDbEntity
  8
GAIKEI
  6
HIDDEN2
 62
     1
100
AcDbCircle
 10
53.77770751166008
 20
61.97941545174614
 30
0.0
 40
0.175
100
AcDbArc
 50
0.0
 51
180.0
  0
ARC
  5
155
330
2
100
AcDbEntity
  8
GAIKEI
  6
HIDDEN2
 62
     1
100
AcDbCircle
 10
54.52770751166008
 20
60.97941545174615
 30
0.0
 40
0.175
100
AcDbArc
 50
90.0
 51
270.0
  0
LINE
  5
156
330
2
100
AcDbEntity
  8
GAIKEI
  6
HIDDEN2
 62
     1
100
AcDbLine
 10
53.95270751166009
 20
61.16700545174615
 30
0.0
 11
53.95270751166009
 21
60.97941545174615
 31
0.0
  0
ARC
  5
157
330
2
100
AcDbEntity
  8
GAIKEI
  6
HIDDEN2
 62
     1
100
AcDbCircle
 10
53.02770751166008
 20
60.97941545174615
 30
0.0
 40
0.175
100
AcDbArc
 50
270.0
 51
90.0
  0
LINE
  5
158
330
2
100
AcDbEntity
  8
GAIKEI
  6
HIDDEN2
 62
     1
100
AcDbLine
 10
53.60270751166007
 20
61.16700545174615
 30
0.0
 11
53.60270751166007
 21
60.97941545174615
 31
0.0
  0
ARC
  5
159
330
2
100
AcDbEntity
  8
GAIKEI
  6
HIDDEN2
 62
     1
100
AcDbCircle
 10
53.77770751166008
 20
60.97941545174615
 30
0.0
 40
0.175
100
AcDbArc
 50
180.0
 51
0.0
  0
ARC
  5
15A
330
2
100
AcDbEntity
  8
GAIKEI
  6
HIDDEN2
 62
     1
100
AcDbCircle
 10
53.55270751166012
 20
61.16700545174615
 30
0.0
 40
0.05
100
AcDbArc
 50
0.0
 51
54.23828599999911
  0
ARC
  5
15B
330
2
100
AcDbEntity
  8
GAIKEI
  6
HIDDEN2
 62
     1
100
AcDbCircle
 10
54.00270751166011
 20
61.16700545174615
 30
0.0
 40
0.05
100
AcDbArc
 50
125.7617140000009
 51
180.0
  0
ARC
  5
15C
330
2
100
AcDbEntity
  8
GAIKEI
  6
HIDDEN2
 62
     1
100
AcDbCircle
 10
51.27770751166008
 20
60.97941545174615
 30
0.0
 40
0.175
100
AcDbArc
 50
90.0
 51
270.0
  0
LINE
  5
15D
330
2
100
AcDbEntity
  8
GAIKEI
  6
HIDDEN2
 62
     1
100
AcDbLine
 10
53.02770751166008
 20
61.1544154517461
 30
0.0
 11
51.27770751166008
 21
61.1544154517461
 31
0.0
  0
LINE
  5
15E
330
2
100
AcDbEntity
  8
GAIKEI
  6
HIDDEN2
 62
     1
100
AcDbLine
 10
53.02770751166008
 20
60.80441545174614
 30
0.0
 11
51.27770751166008
 21
60.80441545174614
 31
0.0
  0
ARC
  5
15F
330
2
100
AcDbEntity
  8
GAIKEI
  6
HIDDEN2
 62
     1
100
AcDbCircle
 10
61.27770751166008
 20
60.97941545174615
 30
0.0
 40
0.175
100
AcDbArc
 50
90.0
 51
270.0
  0
ARC
  5
160
330
2
100
AcDbEntity
  8
GAIKEI
  6
HIDDEN2
 62
     1
100
AcDbCircle
 10
56.27770751166008
 20
60.97941545174615
 30
0.0
 40
0.175
100
AcDbArc
 50
270.0
 51
90.0
  0
LINE
  5
161
330
2
100
AcDbEntity
  8
GAIKEI
  6
HIDDEN2
 62
     1
100
AcDbLine
 10
66.27770751166008
 20
61.1544154517461
 30
0.0
 11
61.27770751166008
 21
61.1544154517461
 31
0.0
  0
LINE
  5
162
330
2
100
AcDbEntity
  8
GAIKEI
  6
HIDDEN2
 62
     1
100
AcDbLine
 10
66.27770751166008
 20
60.80441545174614
 30
0.0
 11
61.27770751166008
 21
60.80441545174614
 31
0.0
  0
ARC
  5
163
330
2
100
AcDbEntity
  8
GAIKEI
  6
HIDDEN2
 62
     1
100
AcDbCircle
 10
70.89020751166009
 20
65.82097420174614
 30
0.0
 40
0.25
100
AcDbArc
 50
124.7340099999985
 51
180.0
  0
ARC
  5
164
330
2
100
AcDbEntity
  8
GAIKEI
  6
HIDDEN2
 62
     1
100
AcDbCircle
 10
69.66520751166007
 20
65.82097420174614
 30
0.0
 40
0.25
100
AcDbArc
 50
0.0
 51
55.26599000000138
  0
LINE
  5
165
330
2
100
AcDbEntity
  8
GAIKEI
  6
HIDDEN2
 62
     1
100
AcDbLine
 10
71.27770751166008
 20
62.72941545174615
 30
0.0
 11
73.15270751166008
 21
62.72941545174615
 31
0.0
  0
LINE
  5
166
330
2
100
AcDbEntity
  8
GAIKEI
  6
HIDDEN2
 62
     1
100
AcDbLine
 10
71.77770751166008
 20
62.85441545174615
 30
0.0
 11
68.77770751166008
 21
62.85441545174615
 31
0.0
  0
LINE
  5
167
330
2
100
AcDbEntity
  8
GAIKEI
  6
HIDDEN2
 62
     1
100
AcDbLine
 10
71.78270751166007
 20
61.81441545174613
 30
0.0
 11
71.02270751166009
 21
61.81441545174613
 31
0.0
  0
LINE
  5
168
330
2
100
AcDbEntity
  8
GAIKEI
  6
HIDDEN2
 62
     1
100
AcDbLine
 10
71.78270751166007
 20
61.96441545174611
 30
0.0
 11
71.02270751166009
 21
61.96441545174611
 31
0.0
  0
LINE
  5
169
330
2
100
AcDbEntity
  8
GAIKEI
  6
HIDDEN2
 62
     1
100
AcDbLine
 10
71.02770751166008
 20
61.85441545174615
 30
0.0
 11
71.77770751166008
 21
61.85441545174615
 31
0.0
  0
LINE
  5
16A
330
2
100
AcDbEntity
  8
GAIKEI
  6
HIDDEN2
 62
     1
100
AcDbLine
 10
71.02770751166008
 20
61.95441545174612
 30
0.0
 11
71.77770751166008
 21
61.95441545174612
 31
0.0
  0
LINE
  5
16B
330
2
100
AcDbEntity
  8
GAIKEI
  6
HIDDEN2
 62
     1
100
AcDbLine
 10
72.40270751166008
 20
61.1544154517461
 30
0.0
 11
70.27770751166008
 21
61.1544154517461
 31
0.0
  0
LINE
  5
16C
330
2
100
AcDbEntity
  8
GAIKEI
  6
HIDDEN2
 62
     1
100
AcDbLine
 10
72.40270751166008
 20
60.80441545174614
 30
0.0
 11
70.27770751166008
 21
60.80441545174614
 31
0.0
  0
ARC
  5
16D
330
2
100
AcDbEntity
  8
GAIKEI
  6
HIDDEN2
 62
     1
100
AcDbCircle
 10
70.80270751166013
 20
64.37941545174613
 30
0.0
 40
0.325
100
AcDbArc
 50
2.202597999999914
 51
90.0
  0
ARC
  5
16E
330
2
100
AcDbEntity
  8
GAIKEI
  6
HIDDEN2
 62
     1
100
AcDbCircle
 10
69.02417126166011
 20
64.60905120174607
 30
0.0
 40
0.10025825
100
AcDbArc
 50
65.6119860000001
 51
253.2485960000008
  0
ARC
  5
16F
330
2
100
AcDbEntity
  8
GAIKEI
  6
HIDDEN2
 62
     1
100
AcDbCircle
 10
69.02417126166011
 20
64.09977995174608
 30
0.0
 40
0.10025825
100
AcDbArc
 50
106.7514039999991
 51
294.6823879999998
  0
LINE
  5
170
330
2
100
AcDbEntity
  8
GAIKEI
  6
HIDDEN2
 62
     1
100
AcDbLine
 10
68.77270751166008
 20
61.81441545174613
 30
0.0
 11
69.53270751166008
 21
61.81441545174613
 31
0.0
  0
LINE
  5
171
330
2
100
AcDbEntity
  8
GAIKEI
  6
HIDDEN2
 62
     1
100
AcDbLine
 10
68.77270751166008
 20
61.96441545174611
 30
0.0
 11
69.53270751166008
 21
61.96441545174611
 31
0.0
  0
LINE
  5
172
330
2
100
AcDbEntity
  8
GAIKEI
  6
HIDDEN2
 62
     1
100
AcDbLine
 10
68.77770751166008
 20
61.85441545174615
 30
0.0
 11
69.52770751166008
 21
61.85441545174615
 31
0.0
  0
LINE
  5
173
330
2
100
AcDbEntity
  8
GAIKEI
  6
HIDDEN2
 62
     1
100
AcDbLine
 10
68.77770751166008
 20
61.95441545174612
 30
0.0
 11
69.52770751166008
 21
61.95441545174612
 31
0.0
  0
ARC
  5
174
330
2
100
AcDbEntity
  8
GAIKEI
  6
HIDDEN2
 62
     1
100
AcDbCircle
 10
69.70270751166009
 20
64.35441545174615
 30
0.0
 40
0.725
100
AcDbArc
 50
208.5035100000003
 51
262.0661989999985
  0
LINE
  5
175
330
2
100
AcDbEntity
  8
GAIKEI
  6
HIDDEN2
 62
     1
100
AcDbLine
 10
71.12770751166005
 20
64.31691545174612
 30
0.0
 11
71.12770751166005
 21
64.39191545174612
 31
0.0
  0
LINE
  5
176
330
2
100
AcDbEntity
  8
GAIKEI
  6
HIDDEN2
 62
     1
100
AcDbLine
 10
71.27770751166008
 20
62.82941545174612
 30
0.0
 11
71.27770751166008
 21
62.72941545174615
 31
0.0
  0
LINE
  5
177
330
2
100
AcDbEntity
  8
GAIKEI
  6
HIDDEN2
 62
     1
100
AcDbLine
 10
70.80270751166013
 20
64.00441545174612
 30
0.0
 11
70.47122876166008
 21
64.00441545174612
 31
0.0
  0
ARC
  5
178
330
2
100
AcDbEntity
  8
GAIKEI
  6
HIDDEN2
 62
     1
100
AcDbCircle
 10
70.47122876166008
 20
63.75441545174613
 30
0.0
 40
0.25
100
AcDbArc
 50
90.0
 51
142.0201280000003
  0
LINE
  5
179
330
2
100
AcDbEntity
  8
GAIKEI
  6
HIDDEN2
 62
     1
100
AcDbLine
 10
69.27770751166008
 20
62.82941545174612
 30
0.0
 11
69.27770751166008
 21
62.72941545174615
 31
0.0
  0
POINT
  5
17A
330
2
100
AcDbEntity
  8
GAIKEI
  6
HIDDEN2
 62
     1
100
AcDbPoint
 10
69.55270751166011
 20
63.99191545174608
 30
0.0
  0
ARC
  5
17B
330
2
100
AcDbEntity
  8
GAIKEI
  6
HIDDEN2
 62
     1
100
AcDbCircle
 10
69.70270751166009
 20
63.62967370174613
 30
0.0
 40
0.10025825
100
AcDbArc
 50
175.8873210000002
 51
4.112678999999832
  0
ARC
  5
17C
330
2
100
AcDbEntity
  8
GAIKEI
  6
HIDDEN2
 62
     1
100
AcDbCircle
 10
69.70270751166009
 20
64.35441545174615
 30
0.0
 40
0.725
100
AcDbArc
 50
277.9309839999996
 51
322.0201280000003
  0
LINE
  5
17D
330
2
100
AcDbEntity
  8
GAIKEI
  6
HIDDEN2
 62
     1
100
AcDbLine
 10
71.02270751166009
 20
61.81441545174613
 30
0.0
 11
71.02270751166009
 21
61.96441545174611
 31
0.0
  0
LINE
  5
17E
330
2
100
AcDbEntity
  8
GAIKEI
  6
HIDDEN2
 62
     1
100
AcDbLine
 10
71.02770751166008
 20
61.85441545174615
 30
0.0
 11
71.02770751166008
 21
61.96441545174611
 31
0.0
  0
LINE
  5
17F
330
2
100
AcDbEntity
  8
GAIKEI
  6
HIDDEN2
 62
     1
100
AcDbLine
 10
69.53270751166008
 20
61.81441545174613
 30
0.0
 11
69.53270751166008
 21
61.96441545174611
 31
0.0
  0
LINE
  5
180
330
2
100
AcDbEntity
  8
GAIKEI
  6
HIDDEN2
 62
     1
100
AcDbLine
 10
69.52770751166008
 20
61.85441545174615
 30
0.0
 11
69.52770751166008
 21
61.96441545174611
 31
0.0
  0
ARC
  5
181
330
2
100
AcDbEntity
  8
GAIKEI
  6
HIDDEN2
 62
     1
100
AcDbCircle
 10
70.27770751166008
 20
60.97941545174615
 30
0.0
 40
0.175
100
AcDbArc
 50
90.0
 51
270.0
  0
ARC
  5
182
330
2
100
AcDbEntity
  8
GAIKEI
  6
HIDDEN2
 62
     1
100
AcDbCircle
 10
70.80270751166013
 20
64.32941545174611
 30
0.0
 40
0.325
100
AcDbArc
 50
270.0
 51
357.7974020000001
  0
ARC
  5
183
330
2
100
AcDbEntity
  8
GAIKEI
  6
HIDDEN2
 62
     1
100
AcDbCircle
 10
69.70270751166009
 20
64.35441545174615
 30
0.0
 40
0.725
100
AcDbArc
 50
167.3612749999995
 51
192.6387249999989
  0
LINE
  5
184
330
2
100
AcDbEntity
  8
GAIKEI
  6
HIDDEN2
 62
     1
100
AcDbLine
 10
68.7527075116601
 20
62.85441545174615
 30
0.0
 11
68.7527075116601
 21
63.05441545174608
 31
0.0
  0
LINE
  5
185
330
2
100
AcDbEntity
  8
GAIKEI
  6
HIDDEN2
 62
     1
100
AcDbLine
 10
68.65270751166008
 20
63.05441545174608
 30
0.0
 11
68.77770751166008
 21
63.05441545174608
 31
0.0
  0
LINE
  5
186
330
2
100
AcDbEntity
  8
GAIKEI
  6
HIDDEN2
 62
     1
100
AcDbLine
 10
68.7527075116601
 20
62.85441545174615
 30
0.0
 11
68.65270751166008
 21
62.85441545174615
 31
0.0
  0
ARC
  5
187
330
2
100
AcDbEntity
  8
GAIKEI
  6
HIDDEN2
 62
     1
100
AcDbCircle
 10
68.77770751166008
 20
62.95441545174612
 30
0.0
 40
0.1
100
AcDbArc
 50
0.0
 51
90.0
  0
LINE
  5
188
330
2
100
AcDbEntity
  8
GAIKEI
  6
HIDDEN2
 62
     1
100
AcDbLine
 10
68.8777075116601
 20
62.95441545174612
 30
0.0
 11
68.8777075116601
 21
62.85441545174615
 31
0.0
  0
LINE
  5
189
330
2
100
AcDbEntity
  8
GAIKEI
  6
HIDDEN2
 62
     1
100
AcDbLine
 10
68.8777075116601
 20
62.95441545174612
 30
0.0
 11
68.77770751166008
 21
62.95441545174612
 31
0.0
  0
LINE
  5
18A
330
2
100
AcDbEntity
  8
GAIKEI
  6
HIDDEN2
 62
     1
100
AcDbLine
 10
68.77770751166008
 20
62.82941545174612
 30
0.0
 11
68.77770751166008
 21
62.95441545174612
 31
0.0
  0
LINE
  5
18B
330
2
100
AcDbEntity
  8
GAIKEI
  6
HIDDEN2
 62
     1
100
AcDbLine
 10
68.77270751166008
 20
61.81441545174613
 30
0.0
 11
68.77270751166008
 21
61.96441545174611
 31
0.0
  0
LINE
  5
18C
330
2
100
AcDbEntity
  8
GAIKEI
  6
HIDDEN2
 62
     1
100
AcDbLine
 10
68.77770751166008
 20
61.85441545174615
 30
0.0
 11
68.77770751166008
 21
61.96441545174611
 31
0.0
  0
LINE
  5
18D
330
2
100
AcDbEntity
  8
GAIKEI
  6
HIDDEN2
 62
     1
100
AcDbLine
 10
68.61520751166011
 20
62.72941545174615
 30
0.0
 11
68.61520751166011
 21
61.97941545174614
 31
0.0
  0
ARC
  5
18E
330
2
100
AcDbEntity
  8
GAIKEI
  6
HIDDEN2
 62
     1
100
AcDbCircle
 10
69.70270751166009
 20
64.35441545174615
 30
0.0
 40
0.725
100
AcDbArc
 50
97.93380099999822
 51
151.4993069999999
  0
LINE
  5
18F
330
2
100
AcDbEntity
  8
GAIKEI
  6
HIDDEN2
 62
     1
100
AcDbLine
 10
70.64020751166009
 20
65.60441545174615
 30
0.0
 11
70.64020751166009
 21
65.82097420174614
 31
0.0
  0
LINE
  5
190
330
2
100
AcDbEntity
  8
GAIKEI
  6
HIDDEN2
 62
     1
100
AcDbLine
 10
69.91520751166007
 20
65.60441545174615
 30
0.0
 11
69.91520751166007
 21
65.82097420174614
 31
0.0
  0
LINE
  5
191
330
2
100
AcDbEntity
  8
GAIKEI
  6
HIDDEN2
 62
     1
100
AcDbLine
 10
70.24020751166012
 20
65.2794154517461
 30
0.0
 11
70.31520751166005
 21
65.2794154517461
 31
0.0
  0
LINE
  5
192
330
2
100
AcDbEntity
  8
GAIKEI
  6
HIDDEN2
 62
     1
100
AcDbLine
 10
70.80270751166013
 20
64.70441545174612
 30
0.0
 11
70.47122876166008
 21
64.70441545174612
 31
0.0
  0
ARC
  5
193
330
2
100
AcDbEntity
  8
GAIKEI
  6
HIDDEN2
 62
     1
100
AcDbCircle
 10
70.47122876166008
 20
64.95441545174611
 30
0.0
 40
0.25
100
AcDbArc
 50
217.9798719999997
 51
270.0
  0
ARC
  5
194
330
2
100
AcDbEntity
  8
GAIKEI
  6
HIDDEN2
 62
     1
100
AcDbCircle
 10
69.70270751166009
 20
65.07915745174614
 30
0.0
 40
0.10025825
100
AcDbArc
 50
355.8873210000002
 51
184.1126789999998
  0
ARC
  5
195
330
2
100
AcDbEntity
  8
GAIKEI
  6
HIDDEN2
 62
     1
100
AcDbCircle
 10
69.70270751166009
 20
64.35441545174615
 30
0.0
 40
0.725
100
AcDbArc
 50
37.97987199999973
 51
82.06901600000037
  0
ARC
  5
196
330
2
100
AcDbEntity
  8
GAIKEI
  6
HIDDEN2
 62
     1
100
AcDbCircle
 10
70.24020751166012
 20
65.60441545174615
 30
0.0
 40
0.325
100
AcDbArc
 50
180.0
 51
270.0
  0
ARC
  5
197
330
2
100
AcDbEntity
  8
GAIKEI
  6
HIDDEN2
 62
     1
100
AcDbCircle
 10
70.31520751166005
 20
65.60441545174615
 30
0.0
 40
0.325
100
AcDbArc
 50
270.0
 51
0.0
  0
ARC
  5
198
330
2
100
AcDbEntity
  8
GAIKEI
  6
HIDDEN2
 62
     1
100
AcDbCircle
 10
68.11520751166011
 20
61.97941545174614
 30
0.0
 40
0.5
100
AcDbArc
 50
270.0
 51
0.0
  0
ARC
  5
199
330
2
100
AcDbEntity
  8
GAIKEI
  6
HIDDEN2
 62
     1
100
AcDbCircle
 10
72.40270751166008
 20
60.97941545174615
 30
0.0
 40
0.5
100
AcDbArc
 50
270.0
 51
90.0
  0
LINE
  5
19A
330
2
100
AcDbEntity
  8
GAIKEI
  6
HIDDEN2
 62
     1
100
AcDbLine
 10
71.80270751166013
 20
62.85441545174615
 30
0.0
 11
71.80270751166013
 21
63.05441545174608
 31
0.0
  0
LINE
  5
19B
330
2
100
AcDbEntity
  8
GAIKEI
  6
HIDDEN2
 62
     1
100
AcDbLine
 10
71.90270751166008
 20
63.05441545174608
 30
0.0
 11
71.77770751166008
 21
63.05441545174608
 31
0.0
  0
LINE
  5
19C
330
2
100
AcDbEntity
  8
GAIKEI
  6
HIDDEN2
 62
     1
100
AcDbLine
 10
71.80270751166013
 20
62.85441545174615
 30
0.0
 11
71.90270751166008
 21
62.85441545174615
 31
0.0
  0
ARC
  5
19D
330
2
100
AcDbEntity
  8
GAIKEI
  6
HIDDEN2
 62
     1
100
AcDbCircle
 10
71.77770751166008
 20
62.95441545174612
 30
0.0
 40
0.1
100
AcDbArc
 50
90.0
 51
180.0
  0
LINE
  5
19E
330
2
100
AcDbEntity
  8
GAIKEI
  6
HIDDEN2
 62
     1
100
AcDbLine
 10
71.67770751166013
 20
62.95441545174612
 30
0.0
 11
71.67770751166013
 21
62.85441545174615
 31
0.0
  0
LINE
  5
19F
330
2
100
AcDbEntity
  8
GAIKEI
  6
HIDDEN2
 62
     1
100
AcDbLine
 10
71.67770751166013
 20
62.95441545174612
 30
0.0
 11
71.77770751166008
 21
62.95441545174612
 31
0.0
  0
LINE
  5
1A0
330
2
100
AcDbEntity
  8
GAIKEI
  6
HIDDEN2
 62
     1
100
AcDbLine
 10
71.77770751166008
 20
62.82941545174612
 30
0.0
 11
71.77770751166008
 21
62.95441545174612
 31
0.0
  0
LINE
  5
1A1
330
2
100
AcDbEntity
  8
GAIKEI
  6
HIDDEN2
 62
     1
100
AcDbLine
 10
71.78270751166007
 20
61.81441545174613
 30
0.0
 11
71.78270751166007
 21
61.96441545174611
 31
0.0
  0
LINE
  5
1A2
330
2
100
AcDbEntity
  8
GAIKEI
  6
HIDDEN2
 62
     1
100
AcDbLine
 10
71.77770751166008
 20
61.85441545174615
 30
0.0
 11
71.77770751166008
 21
61.96441545174611
 31
0.0
  0
ARC
  5
1A3
330
2
100
AcDbEntity
  8
GAIKEI
  6
HIDDEN2
 62
     1
100
AcDbCircle
 10
72.44020751166004
 20
61.97833295174614
 30
0.0
 40
0.5
100
AcDbArc
 50
180.0
 51
265.6987780000006
  0
LINE
  5
1A4
330
2
100
AcDbEntity
  8
GAIKEI
  6
HIDDEN2
 62
     1
100
AcDbLine
 10
71.94020751166005
 20
62.72941545174615
 30
0.0
 11
71.94020751166005
 21
61.97833295174614
 31
0.0
  0
ARC
  5
1A5
330
2
100
AcDbEntity
  8
GAIKEI
  6
HIDDEN2
 62
     1
100
AcDbCircle
 10
72.40270751166008
 20
60.97941545174615
 30
0.0
 40
0.175
100
AcDbArc
 50
270.0
 51
90.0
  0
LINE
  5
1A6
330
2
100
AcDbEntity
  8
GAIKEI
  6
HIDDEN2
 62
     1
100
AcDbLine
 10
73.15270751166008
 20
62.82941545174612
 30
0.0
 11
73.15270751166008
 21
60.07941545174612
 31
0.0
  0
ARC
  5
1A7
330
2
100
AcDbEntity
  8
GAIKEI
  6
HIDDEN2
 62
     1
100
AcDbCircle
 10
70.27770751166008
 20
67.05441545174608
 30
0.0
 40
0.825
100
AcDbArc
 50
6.973575999999504
 51
173.0689549999996
  0
ARC
  5
1A8
330
2
100
AcDbEntity
  8
GAIKEI
  6
HIDDEN2
 62
     1
100
AcDbCircle
 10
70.27770751166008
 20
66.70441545174611
 30
0.0
 40
0.825
100
AcDbArc
 50
304.7340099999987
 51
0.0
  0
LINE
  5
1A9
330
2
100
AcDbEntity
  8
GAIKEI
  6
HIDDEN2
 62
     1
100
AcDbLine
 10
71.10270751166005
 20
66.70441545174611
 30
0.0
 11
71.10270751166005
 21
66.95432745174611
 31
0.0
  0
ARC
  5
1AA
330
2
100
AcDbEntity
  8
GAIKEI
  6
HIDDEN2
 62
     1
100
AcDbCircle
 10
70.27770751166008
 20
66.70441545174611
 30
0.0
 40
0.825
100
AcDbArc
 50
180.0
 51
235.2659900000014
  0
LINE
  5
1AB
330
2
100
AcDbEntity
  8
GAIKEI
  6
HIDDEN2
 62
     1
100
AcDbLine
 10
69.4527075116601
 20
66.70441545174611
 30
0.0
 11
69.4527075116601
 21
66.95415770174611
 31
0.0
  0
ARC
  5
1AC
330
2
100
AcDbEntity
  8
GAIKEI
  6
HIDDEN2
 62
     1
100
AcDbCircle
 10
71.10244926166005
 20
67.05441545174608
 30
0.0
 40
0.10025825
100
AcDbArc
 50
270.1475399999991
 51
93.33963399999895
  0
ARC
  5
1AD
330
2
100
AcDbEntity
  8
GAIKEI
  6
HIDDEN2
 62
     1
100
AcDbCircle
 10
69.45296551166014
 20
67.05441545174608
 30
0.0
 40
0.10025825
100
AcDbArc
 50
86.66036600000101
 51
269.8524600000009
  0
ARC
  5
1AE
330
2
100
AcDbEntity
  8
GAIKEI
 62
     1
100
AcDbCircle
 10
78.51241001165988
 20
58.66971257674629
 30
0.0
 40
0.2
100
AcDbArc
 50
270.0
 51
0.0
  0
ARC
  5
1AF
330
2
100
AcDbEntity
  8
GAIKEI
100
AcDbCircle
 10
78.62770751166033
 20
58.5544154517462
 30
0.0
 40
0.2
100
AcDbArc
 50
270.0
 51
0.0
  0
ARC
  5
1B0
330
2
100
AcDbEntity
  8
GAIKEI
 62
     1
100
AcDbCircle
 10
77.18819001166038
 20
59.99393390174612
 30
0.0
 40
0.25
100
AcDbArc
 50
270.0
 51
0.0
  0
ARC
  5
1B1
330
2
100
AcDbEntity
  8
GAIKEI
 62
     1
100
AcDbCircle
 10
77.18295001165995
 20
59.99917467674629
 30
0.0
 40
0.15
100
AcDbArc
 50
270.0
 51
0.0
  0
LINE
  5
1B2
330
2
100
AcDbEntity
  8
GAIKEI
100
AcDbLine
 10
105.1354832902639
 20
58.35667171796125
 30
0.0
 11
102.9828666244585
 21
58.46948546791622
 31
0.0
  0
LINE
  5
1B3
330
2
100
AcDbEntity
  8
GAIKEI
100
AcDbLine
 10
102.9501799578048
 20
58.48401005124379
 30
0.0
 11
102.9325282911453
 21
58.46630630125083
 31
0.0
  0
ARC
  5
1B4
330
2
100
AcDbEntity
  8
GAIKEI
100
AcDbCircle
 10
102.985483291124
 20
58.51941671789609
 30
0.0
 40
0.04999999998
100
AcDbArc
 50
180.0
 51
266.9999999999944
  0
LINE
  5
1B5
330
2
100
AcDbEntity
  8
GAIKEI
100
AcDbLine
 10
107.2411378712889
 20
63.15415149212163
 30
0.0
 11
106.649174122992
 21
62.87811421615288
 31
0.0
  0
LINE
  5
1B6
330
2
100
AcDbEntity
  8
GAIKEI
100
AcDbLine
 10
107.2310741423354
 20
59.9052824878056
 30
0.0
 11
107.2280365171902
 21
63.14804222933765
 31
0.0
  0
ARC
  5
1B7
330
2
100
AcDbEntity
  8
GAIKEI
 62
     1
100
AcDbCircle
 10
106.7356878729572
 20
63.19430088269291
 30
0.0
 40
0.2499999999
100
AcDbArc
 50
294.9999999999942
 51
0.0
  0
ARC
  5
1B8
330
2
100
AcDbEntity
  8
GAIKEI
100
AcDbCircle
 10
106.860483289574
 20
62.42496046633414
 30
0.0
 40
0.4999999998
100
AcDbArc
 50
114.9999999999942
 51
180.0
  0
ARC
  5
1B9
330
2
100
AcDbEntity
  8
GAIKEI
 62
     1
100
AcDbCircle
 10
106.7060680091766
 20
59.89741796734506
 30
0.0
 40
0.2499999999
100
AcDbArc
 50
273.0000000000056
 51
0.0
  0
LINE
  5
1BA
330
2
100
AcDbEntity
  8
GAIKEI
 62
     1
100
AcDbLine
 10
107.0310680090468
 20
60.39296463381334
 30
0.0
 11
107.0310680090468
 21
59.90265880067635
 31
0.0
  0
ARC
  5
1BB
330
2
100
AcDbEntity
  8
GAIKEI
 62
     1
100
AcDbCircle
 10
107.1310680090067
 20
60.39296463381334
 30
0.0
 40
0.09999999996
100
AcDbArc
 50
114.9999980000099
 51
180.0
  0
LINE
  5
1BC
330
2
100
AcDbEntity
  8
GAIKEI
 62
     1
100
AcDbLine
 10
107.088806342357
 20
60.48359546711049
 30
0.0
 11
107.1733300923231
 21
60.5230092170948
 31
0.0
  0
ARC
  5
1BD
330
2
100
AcDbEntity
  8
GAIKEI
 62
     1
100
AcDbCircle
 10
106.7810680091468
 20
59.90134880067671
 30
0.0
 40
0.2499999999
100
AcDbArc
 50
273.0000010000031
 51
0.0
  0
ARC
  5
1BE
330
2
100
AcDbEntity
  8
GAIKEI
 62
     1
100
AcDbCircle
 10
107.1310680090067
 20
60.61364005039195
 30
0.0
 40
0.09999999996
100
AcDbArc
 50
294.9999990000019
 51
0.0
  0
LINE
  5
1BF
330
2
100
AcDbEntity
  8
GAIKEI
 62
     1
100
AcDbLine
 10
106.9560680090767
 20
63.01796463276332
 30
0.0
 11
106.9560680090767
 21
59.89741796734506
 31
0.0
  0
LINE
  5
1C0
330
2
100
AcDbEntity
  8
GAIKEI
100
AcDbLine
 10
106.3604832897741
 20
59.85931963402709
 30
0.0
 11
106.3604832897741
 21
62.42496046633414
 31
0.0
  0
ARC
  5
1C1
330
2
100
AcDbEntity
  8
GAIKEI
100
AcDbCircle
 10
106.1104832898741
 20
59.85931963402709
 30
0.0
 40
0.2499999999
100
AcDbArc
 50
272.9999990000082
 51
0.0
  0
LINE
  5
1C2
330
2
100
AcDbEntity
  8
GAIKEI
100
AcDbLine
 10
106.9941582388182
 20
59.65539091891719
 30
0.0
 11
105.3473995401792
 21
59.56908796747644
 31
0.0
  0
ARC
  5
1C3
330
2
100
AcDbEntity
  8
GAIKEI
100
AcDbCircle
 10
106.9810742520208
 20
59.90504830272447
 30
0.0
 40
0.25
100
AcDbArc
 50
272.9999994805756
 51
0.0536712749414966
  0
ARC
  5
1C4
330
2
100
AcDbEntity
  8
GAIKEI
100
AcDbCircle
 10
107.1354832911441
 20
63.38072843202156
 30
0.0
 40
0.25
100
AcDbArc
 50
295.0000037197305
 51
0.0
  0
ARC
  5
1C5
330
2
100
AcDbEntity
  8
GAIKEI
100
AcDbCircle
 10
105.360483290174
 20
59.31943046757624
 30
0.0
 40
0.2499999999
100
AcDbArc
 50
92.99999979999306
 51
154.1580710000062
  0
LINE
  5
1C6
330
2
100
AcDbEntity
  8
GAIKEI
  6
HIDDEN2
 62
     1
100
AcDbLine
 10
41.27770751166008
 20
84.80441545174608
 30
0.0
 11
46.27770751166008
 21
84.80441545174608
 31
0.0
  0
LINE
  5
1C7
330
2
100
AcDbEntity
  8
GAIKEI
  6
HIDDEN2
 62
     1
100
AcDbLine
 10
41.27770751166008
 20
85.15441545174608
 30
0.0
 11
46.27770751166008
 21
85.15441545174608
 31
0.0
  0
DIMENSION
  5
1C8
330
2
100
AcDbEntity
  8
SUNPO
100
AcDbDimension
  2
*D8
 10
78.82770751166015
 20
96.85412900739478
 30
0.0
 11
53.77770751166014
 21
98.60412900739479
 31
0.0
 70
    33
  1
1020
 71
     5
 42
50.10000000000002
  3
STANDARD
100
AcDbAlignedDimension
 13
28.72770751166013
 23
88.85412900739479
 33
0.0
 14
78.82770751166015
 24
88.85412900739479
 34
0.0
1001
ACAD
1000
DSTYLE
1002
{
1070
    40
1040
1.0
1070
   140
1040
2.5
1070
   147
1040
0.5
1070
   172
1070
     1
1070
   288
1070
     0
1002
}
  0
LINE
  5
1D5
330
2
100
AcDbEntity
  8
GAIKEI
  6
Continuous
 62
     1
100
AcDbLine
 10
76.32770751166015
 20
86.55441545174619
 30
0.0
 11
31.22770751166013
 21
86.55441545174619
 31
0.0
  0
LINE
  5
1D6
330
2
100
AcDbEntity
  8
GAIKEI
100
AcDbLine
 10
28.92770751165995
 20
88.85441545174616
 30
0.0
 11
78.62770751166033
 21
88.85441545174616
 31
0.0
  0
LINE
  5
1D7
330
2
100
AcDbEntity
  8
GAIKEI
 62
     1
100
AcDbLine
 10
78.51241001165988
 20
88.73911835174622
 30
0.0
 11
29.0430050116604
 21
88.73911835174622
 31
0.0
  0
LINE
  5
1D8
330
2
100
AcDbEntity
  8
GAIKEI
 62
     1
100
AcDbLine
 10
77.18295001165995
 20
87.35965622674632
 30
0.0
 11
30.37246751166026
 21
87.35965622674632
 31
0.0
  0
LINE
  5
1D9
330
2
100
AcDbEntity
  8
GAIKEI
 62
     1
100
AcDbLine
 10
77.18819001166038
 20
87.46489702674637
 30
0.0
 11
30.36722751165986
 21
87.46489702674637
 31
0.0
  0
LINE
  5
1DA
330
2
100
AcDbEntity
  8
GAIKEI
  6
HIDDEN2
 62
     1
100
AcDbLine
 10
73.15270751166008
 20
85.87941545174613
 30
0.0
 11
34.40270751166008
 21
85.87941545174613
 31
0.0
  0
LINE
  5
1DB
330
2
100
AcDbEntity
  8
GAIKEI
  6
HIDDEN2
 62
     1
100
AcDbLine
 10
73.15270751166008
 20
85.77941545174608
 30
0.0
 11
34.40270751166008
 21
85.77941545174608
 31
0.0
  0
LINE
  5
1DC
330
2
100
AcDbEntity
  8
GAIKEI
  6
HIDDEN2
 62
     1
100
AcDbLine
 10
34.40270751166008
 20
83.12941545174613
 30
0.0
 11
73.15270751166008
 21
83.12941545174613
 31
0.0
  0
LINE
  5
1DD
330
2
100
AcDbEntity
  8
GAIKEI
  6
HIDDEN2
 62
     1
100
AcDbLine
 10
72.40270751166008
 20
85.47941545174616
 30
0.0
 11
35.15270751166009
 21
85.47941545174616
 31
0.0
  0
LINE
  5
1DE
330
2
100
AcDbEntity
  8
GAIKEI
  6
HIDDEN2
 62
     1
100
AcDbLine
 10
69.27770751166008
 20
83.22941545174616
 30
0.0
 11
38.27770751166008
 21
83.22941545174616
 31
0.0
  0
LINE
  5
1DF
330
2
100
AcDbEntity
  8
GAIKEI
  6
HIDDEN2
 62
     1
100
AcDbLine
 10
52.77770751166008
 20
84.47941545174616
 30
0.0
 11
39.44020751166011
 21
84.47941545174616
 31
0.0
  0
ARC
  5
1E0
330
2
100
AcDbEntity
  8
GAIKEI
  6
HIDDEN2
 62
     1
100
AcDbCircle
 10
35.15270751166009
 20
84.97941545174617
 30
0.0
 40
0.5
100
AcDbArc
 50
90.0
 51
270.0
  0
LINE
  5
1E1
330
2
100
AcDbEntity
  8
GAIKEI
  6
HIDDEN2
 62
     1
100
AcDbLine
 10
36.27770751166008
 20
83.22941545174616
 30
0.0
 11
34.40270751166008
 21
83.22941545174616
 31
0.0
  0
ARC
  5
1E2
330
2
100
AcDbEntity
  8
GAIKEI
 62
     1
100
AcDbCircle
 10
29.0430050116604
 20
88.53911835174619
 30
0.0
 40
0.2
100
AcDbArc
 50
90.00000019999895
 51
180.0
  0
ARC
  5
1E3
330
2
100
AcDbEntity
  8
GAIKEI
100
AcDbCircle
 10
28.92770751165995
 20
88.6544154517461
 30
0.0
 40
0.2
100
AcDbArc
 50
90.00000019999895
 51
180.0
  0
LINE
  5
1E4
330
2
100
AcDbEntity
  8
GAIKEI
  6
HIDDEN2
 62
     1
100
AcDbLine
 10
34.40270751166008
 20
83.12941545174613
 30
0.0
 11
34.40270751166008
 21
85.87941545174613
 31
0.0
  0
ARC
  5
1E5
330
2
100
AcDbEntity
  8
GAIKEI
 62
     1
100
AcDbCircle
 10
30.36722751165986
 20
87.21489702674636
 30
0.0
 40
0.25
100
AcDbArc
 50
90.00000019999895
 51
180.0
  0
ARC
  5
1E6
330
2
100
AcDbEntity
  8
GAIKEI
 62
     1
100
AcDbCircle
 10
30.37246751166026
 20
87.20965622674624
 30
0.0
 40
0.15
100
AcDbArc
 50
90.00000019999895
 51
180.0
  0
ARC
  5
1E7
330
2
100
AcDbEntity
  8
GAIKEI
  6
HIDDEN2
 62
     1
100
AcDbCircle
 10
37.24020751166012
 20
81.60441545174617
 30
0.0
 40
0.325
100
AcDbArc
 50
180.0
 51
270.0
  0
ARC
  5
1E8
330
2
100
AcDbEntity
  8
GAIKEI
  6
HIDDEN2
 62
     1
100
AcDbCircle
 10
37.31520751166011
 20
81.60441545174617
 30
0.0
 40
0.325
100
AcDbArc
 50
270.0
 51
0.0
  0
LINE
  5
1E9
330
2
100
AcDbEntity
  8
GAIKEI
  6
HIDDEN2
 62
     1
100
AcDbLine
 10
38.12770751166011
 20
80.31691545174613
 30
0.0
 11
38.12770751166011
 21
80.39191545174611
 31
0.0
  0
ARC
  5
1EA
330
2
100
AcDbEntity
  8
GAIKEI
  6
HIDDEN2
 62
     1
100
AcDbCircle
 10
37.80270751166012
 20
80.39191545174611
 30
0.0
 40
0.325
100
AcDbArc
 50
0.0
 51
90.0
  0
LINE
  5
1EB
330
2
100
AcDbEntity
  8
GAIKEI
  6
HIDDEN2
 62
     1
100
AcDbLine
 10
37.31520751166011
 20
81.27941545174609
 30
0.0
 11
37.24020751166012
 21
81.27941545174609
 31
0.0
  0
ARC
  5
1EC
330
2
100
AcDbEntity
  8
GAIKEI
  6
HIDDEN2
 62
     1
100
AcDbCircle
 10
37.80270751166012
 20
80.31691545174613
 30
0.0
 40
0.325
100
AcDbArc
 50
270.0
 51
0.0
  0
POINT
  5
1ED
330
2
100
AcDbEntity
  8
GAIKEI
  6
HIDDEN2
 62
     1
100
AcDbPoint
 10
36.45270751166009
 20
80.71691545174608
 30
0.0
  0
POINT
  5
1EE
330
2
100
AcDbEntity
  8
GAIKEI
  6
HIDDEN2
 62
     1
100
AcDbPoint
 10
36.45270751166009
 20
79.99191545174608
 30
0.0
  0
LINE
  5
1EF
330
2
100
AcDbEntity
  8
GAIKEI
  6
HIDDEN2
 62
     1
100
AcDbLine
 10
35.65270751166008
 20
81.17941545174607
 30
0.0
 11
35.93839451166008
 21
81.17941545174607
 31
0.0
  0
LINE
  5
1F0
330
2
100
AcDbEntity
  8
GAIKEI
  6
HIDDEN2
 62
     1
100
AcDbLine
 10
36.30315151166009
 20
80.88983945174607
 30
0.0
 11
36.12748526166007
 21
81.0929534517461
 31
0.0
  0
ARC
  5
1F1
330
2
100
AcDbEntity
  8
GAIKEI
  6
HIDDEN2
 62
     1
100
AcDbCircle
 10
35.93839451166008
 20
80.92941545174609
 30
0.0
 40
0.25
100
AcDbArc
 50
40.85537600000072
 51
90.0
  0
LINE
  5
1F2
330
2
100
AcDbEntity
  8
GAIKEI
  6
HIDDEN2
 62
     1
100
AcDbLine
 10
35.65270751166008
 20
79.52941545174609
 30
0.0
 11
35.93839451166008
 21
79.52941545174609
 31
0.0
  0
LINE
  5
1F3
330
2
100
AcDbEntity
  8
GAIKEI
  6
HIDDEN2
 62
     1
100
AcDbLine
 10
36.30315151166009
 20
79.81899145174612
 30
0.0
 11
36.12748526166007
 21
79.61587745174608
 31
0.0
  0
POINT
  5
1F4
330
2
100
AcDbEntity
  8
GAIKEI
  6
HIDDEN2
 62
     1
100
AcDbPoint
 10
36.05270751166012
 20
79.52941545174609
 30
0.0
  0
ARC
  5
1F5
330
2
100
AcDbEntity
  8
GAIKEI
  6
HIDDEN2
 62
     1
100
AcDbCircle
 10
35.93839451166008
 20
79.77941545174608
 30
0.0
 40
0.25
100
AcDbArc
 50
270.0
 51
319.1446239999992
  0
LINE
  5
1F6
330
2
100
AcDbEntity
  8
GAIKEI
  6
HIDDEN2
 62
     1
100
AcDbLine
 10
35.75270751166011
 20
81.17941545174607
 30
0.0
 11
35.75270751166011
 21
79.52941545174609
 31
0.0
  0
ARC
  5
1F7
330
2
100
AcDbEntity
  8
GAIKEI
  6
HIDDEN2
 62
     1
100
AcDbCircle
 10
36.68133301166012
 20
79.49191545174608
 30
0.0
 40
0.5
100
AcDbArc
 50
90.0
 51
139.1446239999993
  0
ARC
  5
1F8
330
2
100
AcDbEntity
  8
GAIKEI
  6
HIDDEN2
 62
     1
100
AcDbCircle
 10
36.68133301166012
 20
81.21691545174609
 30
0.0
 40
0.5
100
AcDbArc
 50
220.8553760000007
 51
270.0
  0
LINE
  5
1F9
330
2
100
AcDbEntity
  8
GAIKEI
  6
HIDDEN2
 62
     1
100
AcDbLine
 10
37.80270751166012
 20
80.71691545174608
 30
0.0
 11
36.68133301166012
 21
80.71691545174608
 31
0.0
  0
LINE
  5
1FA
330
2
100
AcDbEntity
  8
GAIKEI
  6
HIDDEN2
 62
     1
100
AcDbLine
 10
37.80270751166012
 20
79.99191545174608
 30
0.0
 11
36.68133301166012
 21
79.99191545174608
 31
0.0
  0
LINE
  5
1FB
330
2
100
AcDbEntity
  8
GAIKEI
  6
HIDDEN2
 62
     1
100
AcDbLine
 10
36.91520751166007
 20
81.60441545174617
 30
0.0
 11
36.91520751166007
 21
82.24944795174611
 31
0.0
  0
POINT
  5
1FC
330
2
100
AcDbEntity
  8
GAIKEI
  6
HIDDEN2
 62
     1
100
AcDbPoint
 10
36.91520751166007
 20
82.47941545174617
 30
0.0
  0
ARC
  5
1FD
330
2
100
AcDbEntity
  8
GAIKEI
  6
HIDDEN2
 62
     1
100
AcDbCircle
 10
37.27770751166008
 20
84.97941545174617
 30
0.0
 40
0.175
100
AcDbArc
 50
270.0
 51
90.0
  0
LINE
  5
1FE
330
2
100
AcDbEntity
  8
GAIKEI
  6
HIDDEN2
 62
     1
100
AcDbLine
 10
38.9402075116601
 20
83.22941545174616
 30
0.0
 11
38.9402075116601
 21
83.97941545174615
 31
0.0
  0
LINE
  5
1FF
330
2
100
AcDbEntity
  8
GAIKEI
  6
HIDDEN2
 62
     1
100
AcDbLine
 10
38.78270751166008
 20
84.14441545174611
 30
0.0
 11
38.78270751166008
 21
83.99441545174614
 31
0.0
  0
LINE
  5
200
330
2
100
AcDbEntity
  8
GAIKEI
  6
HIDDEN2
 62
     1
100
AcDbLine
 10
38.77770751166008
 20
84.10441545174617
 30
0.0
 11
38.77770751166008
 21
83.99441545174614
 31
0.0
  0
LINE
  5
201
330
2
100
AcDbEntity
  8
GAIKEI
  6
HIDDEN2
 62
     1
100
AcDbLine
 10
38.80270751166012
 20
83.10441545174617
 30
0.0
 11
38.90270751166008
 21
83.10441545174617
 31
0.0
  0
LINE
  5
202
330
2
100
AcDbEntity
  8
GAIKEI
  6
HIDDEN2
 62
     1
100
AcDbLine
 10
38.67770751166012
 20
83.00441545174612
 30
0.0
 11
38.67770751166012
 21
83.10441545174617
 31
0.0
  0
LINE
  5
203
330
2
100
AcDbEntity
  8
GAIKEI
  6
HIDDEN2
 62
     1
100
AcDbLine
 10
38.67770751166012
 20
83.00441545174612
 30
0.0
 11
38.77770751166008
 21
83.00441545174612
 31
0.0
  0
LINE
  5
204
330
2
100
AcDbEntity
  8
GAIKEI
  6
HIDDEN2
 62
     1
100
AcDbLine
 10
38.77770751166008
 20
83.12941545174613
 30
0.0
 11
38.77770751166008
 21
83.00441545174612
 31
0.0
  0
LINE
  5
205
330
2
100
AcDbEntity
  8
GAIKEI
  6
HIDDEN2
 62
     1
100
AcDbLine
 10
38.90270751166008
 20
82.90441545174608
 30
0.0
 11
38.77770751166008
 21
82.90441545174608
 31
0.0
  0
LINE
  5
206
330
2
100
AcDbEntity
  8
GAIKEI
  6
HIDDEN2
 62
     1
100
AcDbLine
 10
38.80270751166012
 20
83.10441545174617
 30
0.0
 11
38.80270751166012
 21
82.90441545174608
 31
0.0
  0
ARC
  5
207
330
2
100
AcDbEntity
  8
GAIKEI
  6
HIDDEN2
 62
     1
100
AcDbCircle
 10
38.77770751166008
 20
83.00441545174612
 30
0.0
 40
0.1
100
AcDbArc
 50
180.0
 51
270.0
  0
LINE
  5
208
330
2
100
AcDbEntity
  8
GAIKEI
  6
HIDDEN2
 62
     1
100
AcDbLine
 10
38.02270751166009
 20
84.14441545174611
 30
0.0
 11
38.02270751166009
 21
83.99441545174614
 31
0.0
  0
LINE
  5
209
330
2
100
AcDbEntity
  8
GAIKEI
  6
HIDDEN2
 62
     1
100
AcDbLine
 10
38.02770751166008
 20
84.10441545174617
 30
0.0
 11
38.02770751166008
 21
83.99441545174614
 31
0.0
  0
LINE
  5
20A
330
2
100
AcDbEntity
  8
GAIKEI
  6
HIDDEN2
 62
     1
100
AcDbLine
 10
38.25270751166011
 20
83.10441545174617
 30
0.0
 11
38.25270751166011
 21
83.05040895174613
 31
0.0
  0
POINT
  5
20B
330
2
100
AcDbEntity
  8
GAIKEI
  6
HIDDEN2
 62
     1
100
AcDbPoint
 10
38.25270751166011
 20
83.00441545174612
 30
0.0
  0
ARC
  5
20C
330
2
100
AcDbEntity
  8
GAIKEI
  6
HIDDEN2
 62
     1
100
AcDbCircle
 10
38.15270751166008
 20
83.05040895174613
 30
0.0
 40
0.1
100
AcDbArc
 50
310.6012950000001
 51
0.0
  0
LINE
  5
20D
330
2
100
AcDbEntity
  8
GAIKEI
  6
HIDDEN2
 62
     1
100
AcDbLine
 10
38.27770751166008
 20
83.12941545174613
 30
0.0
 11
38.27770751166008
 21
83.22941545174616
 31
0.0
  0
LINE
  5
20E
330
2
100
AcDbEntity
  8
GAIKEI
  6
HIDDEN2
 62
     1
100
AcDbLine
 10
37.6402075116601
 20
81.60441545174617
 30
0.0
 11
37.6402075116601
 21
82.24944795174611
 31
0.0
  0
POINT
  5
20F
330
2
100
AcDbEntity
  8
GAIKEI
  6
HIDDEN2
 62
     1
100
AcDbPoint
 10
37.6402075116601
 20
82.47941545174617
 30
0.0
  0
ARC
  5
210
330
2
100
AcDbEntity
  8
GAIKEI
  6
HIDDEN2
 62
     1
100
AcDbCircle
 10
38.1402075116601
 20
82.24944795174611
 30
0.0
 40
0.5
100
AcDbArc
 50
130.6012950000002
 51
180.0
  0
LINE
  5
211
330
2
100
AcDbEntity
  8
GAIKEI
  6
HIDDEN2
 62
     1
100
AcDbLine
 10
38.21778651166011
 20
82.97448345174609
 30
0.0
 11
37.81481176166011
 21
82.62907645174605
 31
0.0
  0
LINE
  5
212
330
2
100
AcDbEntity
  8
GAIKEI
  6
HIDDEN2
 62
     1
100
AcDbLine
 10
38.78270751166008
 20
84.14441545174611
 30
0.0
 11
38.02270751166009
 21
84.14441545174611
 31
0.0
  0
LINE
  5
213
330
2
100
AcDbEntity
  8
GAIKEI
  6
HIDDEN2
 62
     1
100
AcDbLine
 10
38.78270751166008
 20
83.99441545174614
 30
0.0
 11
38.02270751166009
 21
83.99441545174614
 31
0.0
  0
LINE
  5
214
330
2
100
AcDbEntity
  8
GAIKEI
  6
HIDDEN2
 62
     1
100
AcDbLine
 10
38.02770751166008
 20
84.10441545174617
 30
0.0
 11
38.77770751166008
 21
84.10441545174617
 31
0.0
  0
LINE
  5
215
330
2
100
AcDbEntity
  8
GAIKEI
  6
HIDDEN2
 62
     1
100
AcDbLine
 10
38.02770751166008
 20
84.00441545174613
 30
0.0
 11
38.77770751166008
 21
84.00441545174613
 31
0.0
  0
ARC
  5
216
330
2
100
AcDbEntity
  8
GAIKEI
  6
HIDDEN2
 62
     1
100
AcDbCircle
 10
39.44020751166011
 20
83.97941545174615
 30
0.0
 40
0.5
100
AcDbArc
 50
90.0
 51
180.0
  0
LINE
  5
217
330
2
100
AcDbEntity
  8
GAIKEI
  6
HIDDEN2
 62
     1
100
AcDbLine
 10
36.53270751166008
 20
84.14441545174611
 30
0.0
 11
36.53270751166008
 21
83.99441545174614
 31
0.0
  0
LINE
  5
218
330
2
100
AcDbEntity
  8
GAIKEI
  6
HIDDEN2
 62
     1
100
AcDbLine
 10
36.52770751166008
 20
84.10441545174617
 30
0.0
 11
36.52770751166008
 21
83.99441545174614
 31
0.0
  0
LINE
  5
219
330
2
100
AcDbEntity
  8
GAIKEI
  6
HIDDEN2
 62
     1
100
AcDbLine
 10
36.33762826166009
 20
82.97448345174609
 30
0.0
 11
36.74060301166009
 21
82.62907645174605
 31
0.0
  0
ARC
  5
21A
330
2
100
AcDbEntity
  8
GAIKEI
  6
HIDDEN2
 62
     1
100
AcDbCircle
 10
35.15270751166009
 20
84.97941545174617
 30
0.0
 40
0.175
100
AcDbArc
 50
90.0
 51
270.0
  0
LINE
  5
21B
330
2
100
AcDbEntity
  8
GAIKEI
  6
HIDDEN2
 62
     1
100
AcDbLine
 10
35.61520751166012
 20
83.22941545174616
 30
0.0
 11
35.61520751166012
 21
83.98049820174611
 31
0.0
  0
LINE
  5
21C
330
2
100
AcDbEntity
  8
GAIKEI
  6
HIDDEN2
 62
     1
100
AcDbLine
 10
35.7727075116601
 20
84.14441545174611
 30
0.0
 11
35.7727075116601
 21
83.99441545174614
 31
0.0
  0
LINE
  5
21D
330
2
100
AcDbEntity
  8
GAIKEI
  6
HIDDEN2
 62
     1
100
AcDbLine
 10
35.77770751166009
 20
84.10441545174617
 30
0.0
 11
35.77770751166009
 21
83.99441545174614
 31
0.0
  0
LINE
  5
21E
330
2
100
AcDbEntity
  8
GAIKEI
  6
HIDDEN2
 62
     1
100
AcDbLine
 10
35.75270751166011
 20
83.10441545174617
 30
0.0
 11
35.65270751166008
 21
83.10441545174617
 31
0.0
  0
LINE
  5
21F
330
2
100
AcDbEntity
  8
GAIKEI
  6
HIDDEN2
 62
     1
100
AcDbLine
 10
35.87770751166011
 20
83.00441545174612
 30
0.0
 11
35.87770751166011
 21
83.10441545174617
 31
0.0
  0
LINE
  5
220
330
2
100
AcDbEntity
  8
GAIKEI
  6
HIDDEN2
 62
     1
100
AcDbLine
 10
35.87770751166011
 20
83.00441545174612
 30
0.0
 11
35.77770751166009
 21
83.00441545174612
 31
0.0
  0
POINT
  5
221
330
2
100
AcDbEntity
  8
GAIKEI
  6
HIDDEN2
 62
     1
100
AcDbPoint
 10
36.30270751166012
 20
83.00441545174612
 30
0.0
  0
LINE
  5
222
330
2
100
AcDbEntity
  8
GAIKEI
  6
HIDDEN2
 62
     1
100
AcDbLine
 10
36.30270751166012
 20
83.10441545174617
 30
0.0
 11
36.30270751166012
 21
83.05040895174613
 31
0.0
  0
LINE
  5
223
330
2
100
AcDbEntity
  8
GAIKEI
  6
HIDDEN2
 62
     1
100
AcDbLine
 10
36.27770751166008
 20
83.12941545174613
 30
0.0
 11
36.27770751166008
 21
83.22941545174616
 31
0.0
  0
LINE
  5
224
330
2
100
AcDbEntity
  8
GAIKEI
  6
HIDDEN2
 62
     1
100
AcDbLine
 10
35.77770751166009
 20
83.12941545174613
 30
0.0
 11
35.77770751166009
 21
83.00441545174612
 31
0.0
  0
LINE
  5
225
330
2
100
AcDbEntity
  8
GAIKEI
  6
HIDDEN2
 62
     1
100
AcDbLine
 10
35.65270751166008
 20
82.90441545174608
 30
0.0
 11
35.77770751166009
 21
82.90441545174608
 31
0.0
  0
LINE
  5
226
330
2
100
AcDbEntity
  8
GAIKEI
  6
HIDDEN2
 62
     1
100
AcDbLine
 10
35.75270751166011
 20
83.10441545174617
 30
0.0
 11
35.75270751166011
 21
82.90441545174608
 31
0.0
  0
ARC
  5
227
330
2
100
AcDbEntity
  8
GAIKEI
  6
HIDDEN2
 62
     1
100
AcDbCircle
 10
35.77770751166009
 20
83.00441545174612
 30
0.0
 40
0.1
100
AcDbArc
 50
270.0
 51
0.0
  0
ARC
  5
228
330
2
100
AcDbEntity
  8
GAIKEI
  6
HIDDEN2
 62
     1
100
AcDbCircle
 10
35.11520751166012
 20
83.98049820174611
 30
0.0
 40
0.5
100
AcDbArc
 50
0.0
 51
85.69877800000062
  0
LINE
  5
229
330
2
100
AcDbEntity
  8
GAIKEI
  6
HIDDEN2
 62
     1
100
AcDbLine
 10
35.7727075116601
 20
84.14441545174611
 30
0.0
 11
36.53270751166008
 21
84.14441545174611
 31
0.0
  0
LINE
  5
22A
330
2
100
AcDbEntity
  8
GAIKEI
  6
HIDDEN2
 62
     1
100
AcDbLine
 10
35.7727075116601
 20
83.99441545174614
 30
0.0
 11
36.53270751166008
 21
83.99441545174614
 31
0.0
  0
LINE
  5
22B
330
2
100
AcDbEntity
  8
GAIKEI
  6
HIDDEN2
 62
     1
100
AcDbLine
 10
35.77770751166009
 20
84.10441545174617
 30
0.0
 11
36.52770751166008
 21
84.10441545174617
 31
0.0
  0
LINE
  5
22C
330
2
100
AcDbEntity
  8
GAIKEI
  6
HIDDEN2
 62
     1
100
AcDbLine
 10
35.77770751166009
 20
84.00441545174613
 30
0.0
 11
36.52770751166008
 21
84.00441545174613
 31
0.0
  0
ARC
  5
22D
330
2
100
AcDbEntity
  8
GAIKEI
  6
HIDDEN2
 62
     1
100
AcDbCircle
 10
36.40270751166009
 20
83.05040895174613
 30
0.0
 40
0.1
100
AcDbArc
 50
180.0
 51
229.3987049999998
  0
LINE
  5
22E
330
2
100
AcDbEntity
  8
GAIKEI
  6
HIDDEN2
 62
     1
100
AcDbLine
 10
35.15270751166009
 20
84.80441545174608
 30
0.0
 11
37.27770751166008
 21
84.80441545174608
 31
0.0
  0
LINE
  5
22F
330
2
100
AcDbEntity
  8
GAIKEI
  6
HIDDEN2
 62
     1
100
AcDbLine
 10
35.15270751166009
 20
85.15441545174608
 30
0.0
 11
37.27770751166008
 21
85.15441545174608
 31
0.0
  0
LINE
  5
230
330
2
100
AcDbEntity
  8
GAIKEI
  6
HIDDEN2
 62
     1
100
AcDbLine
 10
35.77770751166009
 20
83.10441545174617
 30
0.0
 11
38.77770751166008
 21
83.10441545174617
 31
0.0
  0
LINE
  5
231
330
2
100
AcDbEntity
  8
GAIKEI
  6
HIDDEN2
 62
     1
100
AcDbLine
 10
36.31391226166011
 20
83.00441545174612
 30
0.0
 11
38.24150276166012
 21
83.00441545174612
 31
0.0
  0
ARC
  5
232
330
2
100
AcDbEntity
  8
GAIKEI
  6
HIDDEN2
 62
     1
100
AcDbCircle
 10
36.41520751166007
 20
82.24944795174611
 30
0.0
 40
0.5
100
AcDbArc
 50
0.0
 51
49.39870499999982
  0
ARC
  5
233
330
2
100
AcDbEntity
  8
GAIKEI
  6
HIDDEN2
 62
     1
100
AcDbCircle
 10
41.27770751166008
 20
84.97941545174617
 30
0.0
 40
0.175
100
AcDbArc
 50
90.0
 51
270.0
  0
ARC
  5
234
330
2
100
AcDbEntity
  8
GAIKEI
  6
HIDDEN2
 62
     1
100
AcDbCircle
 10
66.27770751166008
 20
84.97941545174617
 30
0.0
 40
0.175
100
AcDbArc
 50
270.0
 51
90.0
  0
LINE
  5
235
330
2
100
AcDbEntity
  8
GAIKEI
  6
HIDDEN2
 62
     1
100
AcDbLine
 10
54.77770751166008
 20
84.47941545174616
 30
0.0
 11
68.11520751166011
 21
84.47941545174616
 31
0.0
  0
LINE
  5
236
330
2
100
AcDbEntity
  8
GAIKEI
  6
HIDDEN2
 62
     1
100
AcDbLine
 10
54.52770751166008
 20
84.80441545174608
 30
0.0
 11
56.27770751166008
 21
84.80441545174608
 31
0.0
  0
LINE
  5
237
330
2
100
AcDbEntity
  8
GAIKEI
  6
HIDDEN2
 62
     1
100
AcDbLine
 10
54.52770751166008
 20
85.15441545174608
 30
0.0
 11
56.27770751166008
 21
85.15441545174608
 31
0.0
  0
ARC
  5
238
330
2
100
AcDbEntity
  8
GAIKEI
  6
HIDDEN2
 62
     1
100
AcDbCircle
 10
46.27770751166008
 20
84.97941545174617
 30
0.0
 40
0.175
100
AcDbArc
 50
270.0
 51
90.0
  0
ARC
  5
239
330
2
100
AcDbEntity
  8
GAIKEI
  6
HIDDEN2
 62
     1
100
AcDbCircle
 10
54.52770751166008
 20
84.97941545174617
 30
0.0
 40
0.175
100
AcDbArc
 50
90.0
 51
270.0
  0
LINE
  5
23A
330
2
100
AcDbEntity
  8
GAIKEI
  6
HIDDEN2
 62
     1
100
AcDbLine
 10
53.95270751166009
 20
84.79182545174616
 30
0.0
 11
53.95270751166009
 21
84.97941545174617
 31
0.0
  0
ARC
  5
23B
330
2
100
AcDbEntity
  8
GAIKEI
  6
HIDDEN2
 62
     1
100
AcDbCircle
 10
54.00270751166011
 20
84.79182545174616
 30
0.0
 40
0.05
100
AcDbArc
 50
180.0
 51
234.238285999999
  0
ARC
  5
23C
330
2
100
AcDbEntity
  8
GAIKEI
  6
HIDDEN2
 62
     1
100
AcDbCircle
 10
53.02770751166008
 20
84.97941545174617
 30
0.0
 40
0.175
100
AcDbArc
 50
270.0
 51
90.0
  0
LINE
  5
23D
330
2
100
AcDbEntity
  8
GAIKEI
  6
HIDDEN2
 62
     1
100
AcDbLine
 10
53.60270751166007
 20
84.79182545174616
 30
0.0
 11
53.60270751166007
 21
84.97941545174617
 31
0.0
  0
ARC
  5
23E
330
2
100
AcDbEntity
  8
GAIKEI
  6
HIDDEN2
 62
     1
100
AcDbCircle
 10
53.55270751166012
 20
84.79182545174616
 30
0.0
 40
0.05
100
AcDbArc
 50
305.7617140000009
 51
0.0
  0
ARC
  5
23F
330
2
100
AcDbEntity
  8
GAIKEI
  6
HIDDEN2
 62
     1
100
AcDbCircle
 10
53.77770751166008
 20
84.97941545174617
 30
0.0
 40
0.175
100
AcDbArc
 50
0.0
 51
180.0
  0
LINE
  5
240
330
2
100
AcDbEntity
  8
GAIKEI
  6
HIDDEN2
 62
     1
100
AcDbLine
 10
53.95270751166009
 20
83.97941545174615
 30
0.0
 11
53.95270751166009
 21
84.16700545174617
 31
0.0
  0
ARC
  5
241
330
2
100
AcDbEntity
  8
GAIKEI
  6
HIDDEN2
 62
     1
100
AcDbCircle
 10
54.00270751166011
 20
84.16700545174617
 30
0.0
 40
0.05
100
AcDbArc
 50
125.7617140000009
 51
180.0
  0
LINE
  5
242
330
2
100
AcDbEntity
  8
GAIKEI
  6
HIDDEN2
 62
     1
100
AcDbLine
 10
53.60270751166007
 20
83.97941545174615
 30
0.0
 11
53.60270751166007
 21
84.16700545174617
 31
0.0
  0
ARC
  5
243
330
2
100
AcDbEntity
  8
GAIKEI
  6
HIDDEN2
 62
     1
100
AcDbCircle
 10
53.55270751166012
 20
84.16700545174617
 30
0.0
 40
0.05
100
AcDbArc
 50
0.0
 51
54.23828599999911
  0
ARC
  5
244
330
2
100
AcDbEntity
  8
GAIKEI
  6
HIDDEN2
 62
     1
100
AcDbCircle
 10
53.77770751166008
 20
83.97941545174615
 30
0.0
 40
0.5
100
AcDbArc
 50
180.0
 51
0.0
  0
ARC
  5
245
330
2
100
AcDbEntity
  8
GAIKEI
  6
HIDDEN2
 62
     1
100
AcDbCircle
 10
53.77770751166008
 20
83.97941545174615
 30
0.0
 40
0.175
100
AcDbArc
 50
180.0
 51
0.0
  0
ARC
  5
246
330
2
100
AcDbEntity
  8
GAIKEI
  6
HIDDEN2
 62
     1
100
AcDbCircle
 10
52.77770751166008
 20
83.97941545174615
 30
0.0
 40
0.5
100
AcDbArc
 50
0.0
 51
90.0
  0
ARC
  5
247
330
2
100
AcDbEntity
  8
GAIKEI
  6
HIDDEN2
 62
     1
100
AcDbCircle
 10
54.77770751166008
 20
83.97941545174615
 30
0.0
 40
0.5
100
AcDbArc
 50
90.0
 51
180.0
  0
ARC
  5
248
330
2
100
AcDbEntity
  8
GAIKEI
  6
HIDDEN2
 62
     1
100
AcDbCircle
 10
53.77770751166008
 20
84.47941545174616
 30
0.0
 40
0.335
100
AcDbArc
 50
125.7617140000009
 51
234.238285999999
  0
ARC
  5
249
330
2
100
AcDbEntity
  8
GAIKEI
  6
HIDDEN2
 62
     1
100
AcDbCircle
 10
53.77770751166008
 20
84.47941545174616
 30
0.0
 40
0.335
100
AcDbArc
 50
305.7617140000009
 51
54.23828599999911
  0
ARC
  5
24A
330
2
100
AcDbEntity
  8
GAIKEI
  6
HIDDEN2
 62
     1
100
AcDbCircle
 10
51.27770751166008
 20
84.97941545174617
 30
0.0
 40
0.175
100
AcDbArc
 50
90.0
 51
270.0
  0
LINE
  5
24B
330
2
100
AcDbEntity
  8
GAIKEI
  6
HIDDEN2
 62
     1
100
AcDbLine
 10
53.02770751166008
 20
84.80441545174608
 30
0.0
 11
51.27770751166008
 21
84.80441545174608
 31
0.0
  0
LINE
  5
24C
330
2
100
AcDbEntity
  8
GAIKEI
  6
HIDDEN2
 62
     1
100
AcDbLine
 10
53.02770751166008
 20
85.15441545174608
 30
0.0
 11
51.27770751166008
 21
85.15441545174608
 31
0.0
  0
ARC
  5
24D
330
2
100
AcDbEntity
  8
GAIKEI
  6
HIDDEN2
 62
     1
100
AcDbCircle
 10
61.27770751166008
 20
84.97941545174617
 30
0.0
 40
0.175
100
AcDbArc
 50
90.0
 51
270.0
  0
ARC
  5
24E
330
2
100
AcDbEntity
  8
GAIKEI
  6
HIDDEN2
 62
     1
100
AcDbCircle
 10
56.27770751166008
 20
84.97941545174617
 30
0.0
 40
0.175
100
AcDbArc
 50
270.0
 51
90.0
  0
LINE
  5
24F
330
2
100
AcDbEntity
  8
GAIKEI
  6
HIDDEN2
 62
     1
100
AcDbLine
 10
66.27770751166008
 20
84.80441545174608
 30
0.0
 11
61.27770751166008
 21
84.80441545174608
 31
0.0
  0
LINE
  5
250
330
2
100
AcDbEntity
  8
GAIKEI
  6
HIDDEN2
 62
     1
100
AcDbLine
 10
66.27770751166008
 20
85.15441545174608
 30
0.0
 11
61.27770751166008
 21
85.15441545174608
 31
0.0
  0
ARC
  5
251
330
2
100
AcDbEntity
  8
GAIKEI
  6
HIDDEN2
 62
     1
100
AcDbCircle
 10
70.31520751166005
 20
81.60441545174617
 30
0.0
 40
0.325
100
AcDbArc
 50
270.0
 51
0.0
  0
ARC
  5
252
330
2
100
AcDbEntity
  8
GAIKEI
  6
HIDDEN2
 62
     1
100
AcDbCircle
 10
70.24020751166012
 20
81.60441545174617
 30
0.0
 40
0.325
100
AcDbArc
 50
180.0
 51
270.0
  0
ARC
  5
253
330
2
100
AcDbEntity
  8
GAIKEI
  6
HIDDEN2
 62
     1
100
AcDbCircle
 10
69.70270751166009
 20
80.35441545174617
 30
0.0
 40
0.725
100
AcDbArc
 50
97.93380099999822
 51
151.4993069999999
  0
ARC
  5
254
330
2
100
AcDbEntity
  8
GAIKEI
  6
HIDDEN2
 62
     1
100
AcDbCircle
 10
69.70270751166009
 20
80.35441545174617
 30
0.0
 40
0.725
100
AcDbArc
 50
208.5035100000003
 51
262.0661989999985
  0
LINE
  5
255
330
2
100
AcDbEntity
  8
GAIKEI
  6
HIDDEN2
 62
     1
100
AcDbLine
 10
71.12770751166005
 20
80.31691545174613
 30
0.0
 11
71.12770751166005
 21
80.39191545174611
 31
0.0
  0
LINE
  5
256
330
2
100
AcDbEntity
  8
GAIKEI
  6
HIDDEN2
 62
     1
100
AcDbLine
 10
70.80270751166013
 20
80.70441545174611
 30
0.0
 11
70.47122876166008
 21
80.70441545174611
 31
0.0
  0
ARC
  5
257
330
2
100
AcDbEntity
  8
GAIKEI
  6
HIDDEN2
 62
     1
100
AcDbCircle
 10
70.47122876166008
 20
80.95441545174612
 30
0.0
 40
0.25
100
AcDbArc
 50
217.9798719999997
 51
270.0
  0
LINE
  5
258
330
2
100
AcDbEntity
  8
GAIKEI
  6
HIDDEN2
 62
     1
100
AcDbLine
 10
70.31520751166005
 20
81.27941545174609
 30
0.0
 11
70.24020751166012
 21
81.27941545174609
 31
0.0
  0
ARC
  5
259
330
2
100
AcDbEntity
  8
GAIKEI
  6
HIDDEN2
 62
     1
100
AcDbCircle
 10
69.70270751166009
 20
81.07915745174613
 30
0.0
 40
0.10025825
100
AcDbArc
 50
355.8873210000002
 51
183.8197659999996
  0
ARC
  5
25A
330
2
100
AcDbEntity
  8
GAIKEI
  6
HIDDEN2
 62
     1
100
AcDbCircle
 10
69.70270751166009
 20
80.35441545174617
 30
0.0
 40
0.725
100
AcDbArc
 50
37.97987199999973
 51
82.06901600000037
  0
LINE
  5
25B
330
2
100
AcDbEntity
  8
GAIKEI
  6
HIDDEN2
 62
     1
100
AcDbLine
 10
70.80270751166013
 20
80.00441545174613
 30
0.0
 11
70.47122876166008
 21
80.00441545174613
 31
0.0
  0
ARC
  5
25C
330
2
100
AcDbEntity
  8
GAIKEI
  6
HIDDEN2
 62
     1
100
AcDbCircle
 10
70.47122876166008
 20
79.75441545174613
 30
0.0
 40
0.25
100
AcDbArc
 50
90.0
 51
142.0201280000003
  0
ARC
  5
25D
330
2
100
AcDbEntity
  8
GAIKEI
  6
HIDDEN2
 62
     1
100
AcDbCircle
 10
69.70270751166009
 20
79.62967370174611
 30
0.0
 40
0.10025825
100
AcDbArc
 50
176.1802340000004
 51
4.112678999999832
  0
ARC
  5
25E
330
2
100
AcDbEntity
  8
GAIKEI
  6
HIDDEN2
 62
     1
100
AcDbCircle
 10
69.70270751166009
 20
80.35441545174617
 30
0.0
 40
0.725
100
AcDbArc
 50
277.9309839999996
 51
322.0201280000003
  0
ARC
  5
25F
330
2
100
AcDbEntity
  8
GAIKEI
  6
HIDDEN2
 62
     1
100
AcDbCircle
 10
70.80270751166013
 20
80.32941545174612
 30
0.0
 40
0.325
100
AcDbArc
 50
270.0
 51
0.0
  0
ARC
  5
260
330
2
100
AcDbEntity
  8
GAIKEI
  6
HIDDEN2
 62
     1
100
AcDbCircle
 10
70.80270751166013
 20
80.37941545174613
 30
0.0
 40
0.325
100
AcDbArc
 50
0.0
 51
90.0
  0
ARC
  5
261
330
2
100
AcDbEntity
  8
GAIKEI
  6
HIDDEN2
 62
     1
100
AcDbCircle
 10
69.02417126166011
 20
80.60905120174608
 30
0.0
 40
0.10025825
100
AcDbArc
 50
65.6119860000001
 51
253.2485960000008
  0
ARC
  5
262
330
2
100
AcDbEntity
  8
GAIKEI
  6
HIDDEN2
 62
     1
100
AcDbCircle
 10
69.70270751166009
 20
80.35441545174617
 30
0.0
 40
0.725
100
AcDbArc
 50
167.3612749999995
 51
192.6387249999989
  0
ARC
  5
263
330
2
100
AcDbEntity
  8
GAIKEI
  6
HIDDEN2
 62
     1
100
AcDbCircle
 10
69.02417126166011
 20
80.09977995174608
 30
0.0
 40
0.10025825
100
AcDbArc
 50
106.7514039999991
 51
294.6823879999998
  0
LINE
  5
264
330
2
100
AcDbEntity
  8
GAIKEI
  6
HIDDEN2
 62
     1
100
AcDbLine
 10
71.27770751166008
 20
83.22941545174616
 30
0.0
 11
73.15270751166008
 21
83.22941545174616
 31
0.0
  0
LINE
  5
265
330
2
100
AcDbEntity
  8
GAIKEI
  6
HIDDEN2
 62
     1
100
AcDbLine
 10
71.77770751166008
 20
83.10441545174617
 30
0.0
 11
68.77770751166008
 21
83.10441545174617
 31
0.0
  0
LINE
  5
266
330
2
100
AcDbEntity
  8
GAIKEI
  6
HIDDEN2
 62
     1
100
AcDbLine
 10
72.40270751166008
 20
84.80441545174608
 30
0.0
 11
70.27770751166008
 21
84.80441545174608
 31
0.0
  0
LINE
  5
267
330
2
100
AcDbEntity
  8
GAIKEI
  6
HIDDEN2
 62
     1
100
AcDbLine
 10
72.40270751166008
 20
85.15441545174608
 30
0.0
 11
70.27770751166008
 21
85.15441545174608
 31
0.0
  0
LINE
  5
268
330
2
100
AcDbEntity
  8
GAIKEI
  6
HIDDEN2
 62
     1
100
AcDbLine
 10
71.78270751166007
 20
84.14441545174611
 30
0.0
 11
71.02270751166009
 21
84.14441545174611
 31
0.0
  0
LINE
  5
269
330
2
100
AcDbEntity
  8
GAIKEI
  6
HIDDEN2
 62
     1
100
AcDbLine
 10
71.78270751166007
 20
83.99441545174614
 30
0.0
 11
71.02270751166009
 21
83.99441545174614
 31
0.0
  0
LINE
  5
26A
330
2
100
AcDbEntity
  8
GAIKEI
  6
HIDDEN2
 62
     1
100
AcDbLine
 10
71.77770751166008
 20
84.10441545174617
 30
0.0
 11
71.02770751166008
 21
84.10441545174617
 31
0.0
  0
LINE
  5
26B
330
2
100
AcDbEntity
  8
GAIKEI
  6
HIDDEN2
 62
     1
100
AcDbLine
 10
71.77770751166008
 20
84.00441545174613
 30
0.0
 11
71.02770751166008
 21
84.00441545174613
 31
0.0
  0
LINE
  5
26C
330
2
100
AcDbEntity
  8
GAIKEI
  6
HIDDEN2
 62
     1
100
AcDbLine
 10
68.77270751166008
 20
84.14441545174611
 30
0.0
 11
69.53270751166008
 21
84.14441545174611
 31
0.0
  0
LINE
  5
26D
330
2
100
AcDbEntity
  8
GAIKEI
  6
HIDDEN2
 62
     1
100
AcDbLine
 10
68.77270751166008
 20
83.99441545174614
 30
0.0
 11
69.53270751166008
 21
83.99441545174614
 31
0.0
  0
LINE
  5
26E
330
2
100
AcDbEntity
  8
GAIKEI
  6
HIDDEN2
 62
     1
100
AcDbLine
 10
69.52770751166008
 20
84.10441545174617
 30
0.0
 11
68.77770751166008
 21
84.10441545174617
 31
0.0
  0
LINE
  5
26F
330
2
100
AcDbEntity
  8
GAIKEI
  6
HIDDEN2
 62
     1
100
AcDbLine
 10
69.52770751166008
 20
84.00441545174613
 30
0.0
 11
68.77770751166008
 21
84.00441545174613
 31
0.0
  0
ARC
  5
270
330
2
100
AcDbEntity
  8
GAIKEI
  6
HIDDEN2
 62
     1
100
AcDbCircle
 10
70.27770751166008
 20
84.97941545174617
 30
0.0
 40
0.175
100
AcDbArc
 50
90.0
 51
270.0
  0
POINT
  5
271
330
2
100
AcDbEntity
  8
GAIKEI
  6
HIDDEN2
 62
     1
100
AcDbPoint
 10
71.25270751166005
 20
83.00441545174612
 30
0.0
  0
ARC
  5
272
330
2
100
AcDbEntity
  8
GAIKEI
  6
HIDDEN2
 62
     1
100
AcDbCircle
 10
71.15270751166008
 20
83.05040895174613
 30
0.0
 40
0.1
100
AcDbArc
 50
310.6012950000001
 51
0.0
  0
LINE
  5
273
330
2
100
AcDbEntity
  8
GAIKEI
  6
HIDDEN2
 62
     1
100
AcDbLine
 10
71.25270751166005
 20
83.10441545174617
 30
0.0
 11
71.25270751166005
 21
83.05040895174613
 31
0.0
  0
LINE
  5
274
330
2
100
AcDbEntity
  8
GAIKEI
  6
HIDDEN2
 62
     1
100
AcDbLine
 10
71.27770751166008
 20
83.12941545174613
 30
0.0
 11
71.27770751166008
 21
83.22941545174616
 31
0.0
  0
LINE
  5
275
330
2
100
AcDbEntity
  8
GAIKEI
  6
HIDDEN2
 62
     1
100
AcDbLine
 10
71.02270751166009
 20
84.14441545174611
 30
0.0
 11
71.02270751166009
 21
83.99441545174614
 31
0.0
  0
LINE
  5
276
330
2
100
AcDbEntity
  8
GAIKEI
  6
HIDDEN2
 62
     1
100
AcDbLine
 10
71.02770751166008
 20
84.10441545174617
 30
0.0
 11
71.02770751166008
 21
83.99441545174614
 31
0.0
  0
LINE
  5
277
330
2
100
AcDbEntity
  8
GAIKEI
  6
HIDDEN2
 62
     1
100
AcDbLine
 10
69.53270751166008
 20
84.14441545174611
 30
0.0
 11
69.53270751166008
 21
83.99441545174614
 31
0.0
  0
LINE
  5
278
330
2
100
AcDbEntity
  8
GAIKEI
  6
HIDDEN2
 62
     1
100
AcDbLine
 10
69.52770751166008
 20
84.10441545174617
 30
0.0
 11
69.52770751166008
 21
83.99441545174614
 31
0.0
  0
LINE
  5
279
330
2
100
AcDbEntity
  8
GAIKEI
  6
HIDDEN2
 62
     1
100
AcDbLine
 10
69.30270751166012
 20
83.10441545174617
 30
0.0
 11
69.30270751166012
 21
83.05040895174613
 31
0.0
  0
POINT
  5
27A
330
2
100
AcDbEntity
  8
GAIKEI
  6
HIDDEN2
 62
     1
100
AcDbPoint
 10
69.30270751166012
 20
83.00441545174612
 30
0.0
  0
ARC
  5
27B
330
2
100
AcDbEntity
  8
GAIKEI
  6
HIDDEN2
 62
     1
100
AcDbCircle
 10
69.40270751166008
 20
83.05040895174613
 30
0.0
 40
0.1
100
AcDbArc
 50
180.0
 51
229.3987049999998
  0
LINE
  5
27C
330
2
100
AcDbEntity
  8
GAIKEI
  6
HIDDEN2
 62
     1
100
AcDbLine
 10
69.27770751166008
 20
83.12941545174613
 30
0.0
 11
69.27770751166008
 21
83.22941545174616
 31
0.0
  0
LINE
  5
27D
330
2
100
AcDbEntity
  8
GAIKEI
  6
HIDDEN2
 62
     1
100
AcDbLine
 10
70.64020751166009
 20
81.60441545174617
 30
0.0
 11
70.64020751166009
 21
82.24944795174611
 31
0.0
  0
POINT
  5
27E
330
2
100
AcDbEntity
  8
GAIKEI
  6
HIDDEN2
 62
     1
100
AcDbPoint
 10
70.64020751166009
 20
82.47941545174617
 30
0.0
  0
ARC
  5
27F
330
2
100
AcDbEntity
  8
GAIKEI
  6
HIDDEN2
 62
     1
100
AcDbCircle
 10
71.14020751166009
 20
82.24944795174611
 30
0.0
 40
0.5
100
AcDbArc
 50
130.6012950000002
 51
180.0
  0
LINE
  5
280
330
2
100
AcDbEntity
  8
GAIKEI
  6
HIDDEN2
 62
     1
100
AcDbLine
 10
69.91520751166007
 20
81.60441545174617
 30
0.0
 11
69.91520751166007
 21
82.24944795174611
 31
0.0
  0
POINT
  5
281
330
2
100
AcDbEntity
  8
GAIKEI
  6
HIDDEN2
 62
     1
100
AcDbPoint
 10
69.91520751166007
 20
82.47941545174617
 30
0.0
  0
ARC
  5
282
330
2
100
AcDbEntity
  8
GAIKEI
  6
HIDDEN2
 62
     1
100
AcDbCircle
 10
69.41520751166007
 20
82.24944795174611
 30
0.0
 40
0.5
100
AcDbArc
 50
0.0
 51
49.39870499999982
  0
LINE
  5
283
330
2
100
AcDbEntity
  8
GAIKEI
  6
HIDDEN2
 62
     1
100
AcDbLine
 10
69.33762826166009
 20
82.97448345174609
 30
0.0
 11
69.74060301166009
 21
82.62907645174605
 31
0.0
  0
LINE
  5
284
330
2
100
AcDbEntity
  8
GAIKEI
  6
HIDDEN2
 62
     1
100
AcDbLine
 10
71.24150276166012
 20
83.00441545174612
 30
0.0
 11
69.31391226166005
 21
83.00441545174612
 31
0.0
  0
LINE
  5
285
330
2
100
AcDbEntity
  8
GAIKEI
  6
HIDDEN2
 62
     1
100
AcDbLine
 10
71.2177865116601
 20
82.97448345174609
 30
0.0
 11
70.81481176166011
 21
82.62907645174605
 31
0.0
  0
LINE
  5
286
330
2
100
AcDbEntity
  8
GAIKEI
  6
HIDDEN2
 62
     1
100
AcDbLine
 10
68.61520751166011
 20
83.22941545174616
 30
0.0
 11
68.61520751166011
 21
83.97941545174615
 31
0.0
  0
LINE
  5
287
330
2
100
AcDbEntity
  8
GAIKEI
  6
HIDDEN2
 62
     1
100
AcDbLine
 10
68.77270751166008
 20
84.14441545174611
 30
0.0
 11
68.77270751166008
 21
83.99441545174614
 31
0.0
  0
LINE
  5
288
330
2
100
AcDbEntity
  8
GAIKEI
  6
HIDDEN2
 62
     1
100
AcDbLine
 10
68.77770751166008
 20
84.10441545174617
 30
0.0
 11
68.77770751166008
 21
83.99441545174614
 31
0.0
  0
LINE
  5
289
330
2
100
AcDbEntity
  8
GAIKEI
  6
HIDDEN2
 62
     1
100
AcDbLine
 10
68.7527075116601
 20
83.10441545174617
 30
0.0
 11
68.65270751166008
 21
83.10441545174617
 31
0.0
  0
LINE
  5
28A
330
2
100
AcDbEntity
  8
GAIKEI
  6
HIDDEN2
 62
     1
100
AcDbLine
 10
68.8777075116601
 20
83.00441545174612
 30
0.0
 11
68.8777075116601
 21
83.10441545174617
 31
0.0
  0
LINE
  5
28B
330
2
100
AcDbEntity
  8
GAIKEI
  6
HIDDEN2
 62
     1
100
AcDbLine
 10
68.8777075116601
 20
83.00441545174612
 30
0.0
 11
68.77770751166008
 21
83.00441545174612
 31
0.0
  0
LINE
  5
28C
330
2
100
AcDbEntity
  8
GAIKEI
  6
HIDDEN2
 62
     1
100
AcDbLine
 10
68.77770751166008
 20
83.12941545174613
 30
0.0
 11
68.77770751166008
 21
83.00441545174612
 31
0.0
  0
LINE
  5
28D
330
2
100
AcDbEntity
  8
GAIKEI
  6
HIDDEN2
 62
     1
100
AcDbLine
 10
68.65270751166008
 20
82.90441545174608
 30
0.0
 11
68.77770751166008
 21
82.90441545174608
 31
0.0
  0
LINE
  5
28E
330
2
100
AcDbEntity
  8
GAIKEI
  6
HIDDEN2
 62
     1
100
AcDbLine
 10
68.7527075116601
 20
83.10441545174617
 30
0.0
 11
68.7527075116601
 21
82.90441545174608
 31
0.0
  0
ARC
  5
28F
330
2
100
AcDbEntity
  8
GAIKEI
  6
HIDDEN2
 62
     1
100
AcDbCircle
 10
68.77770751166008
 20
83.00441545174612
 30
0.0
 40
0.1
100
AcDbArc
 50
270.0
 51
0.0
  0
ARC
  5
290
330
2
100
AcDbEntity
  8
GAIKEI
  6
HIDDEN2
 62
     1
100
AcDbCircle
 10
68.11520751166011
 20
83.97941545174615
 30
0.0
 40
0.5
100
AcDbArc
 50
0.0
 51
90.0
  0
ARC
  5
291
330
2
100
AcDbEntity
  8
GAIKEI
  6
HIDDEN2
 62
     1
100
AcDbCircle
 10
72.40270751166008
 20
84.97941545174617
 30
0.0
 40
0.5
100
AcDbArc
 50
270.0
 51
90.0
  0
ARC
  5
292
330
2
100
AcDbEntity
  8
GAIKEI
  6
HIDDEN2
 62
     1
100
AcDbCircle
 10
72.40270751166008
 20
84.97941545174617
 30
0.0
 40
0.175
100
AcDbArc
 50
270.0
 51
90.0
  0
LINE
  5
293
330
2
100
AcDbEntity
  8
GAIKEI
  6
HIDDEN2
 62
     1
100
AcDbLine
 10
71.94020751166005
 20
83.22941545174616
 30
0.0
 11
71.94020751166005
 21
83.98049820174611
 31
0.0
  0
LINE
  5
294
330
2
100
AcDbEntity
  8
GAIKEI
  6
HIDDEN2
 62
     1
100
AcDbLine
 10
71.78270751166007
 20
84.14441545174611
 30
0.0
 11
71.78270751166007
 21
83.99441545174614
 31
0.0
  0
LINE
  5
295
330
2
100
AcDbEntity
  8
GAIKEI
  6
HIDDEN2
 62
     1
100
AcDbLine
 10
71.77770751166008
 20
84.10441545174617
 30
0.0
 11
71.77770751166008
 21
83.99441545174614
 31
0.0
  0
LINE
  5
296
330
2
100
AcDbEntity
  8
GAIKEI
  6
HIDDEN2
 62
     1
100
AcDbLine
 10
71.80270751166013
 20
83.10441545174617
 30
0.0
 11
71.90270751166008
 21
83.10441545174617
 31
0.0
  0
LINE
  5
297
330
2
100
AcDbEntity
  8
GAIKEI
  6
HIDDEN2
 62
     1
100
AcDbLine
 10
71.67770751166013
 20
83.00441545174612
 30
0.0
 11
71.67770751166013
 21
83.10441545174617
 31
0.0
  0
LINE
  5
298
330
2
100
AcDbEntity
  8
GAIKEI
  6
HIDDEN2
 62
     1
100
AcDbLine
 10
71.67770751166013
 20
83.00441545174612
 30
0.0
 11
71.77770751166008
 21
83.00441545174612
 31
0.0
  0
LINE
  5
299
330
2
100
AcDbEntity
  8
GAIKEI
  6
HIDDEN2
 62
     1
100
AcDbLine
 10
71.77770751166008
 20
83.12941545174613
 30
0.0
 11
71.77770751166008
 21
83.00441545174612
 31
0.0
  0
LINE
  5
29A
330
2
100
AcDbEntity
  8
GAIKEI
  6
HIDDEN2
 62
     1
100
AcDbLine
 10
71.90270751166008
 20
82.90441545174608
 30
0.0
 11
71.77770751166008
 21
82.90441545174608
 31
0.0
  0
LINE
  5
29B
330
2
100
AcDbEntity
  8
GAIKEI
  6
HIDDEN2
 62
     1
100
AcDbLine
 10
71.80270751166013
 20
83.10441545174617
 30
0.0
 11
71.80270751166013
 21
82.90441545174608
 31
0.0
  0
ARC
  5
29C
330
2
100
AcDbEntity
  8
GAIKEI
  6
HIDDEN2
 62
     1
100
AcDbCircle
 10
71.77770751166008
 20
83.00441545174612
 30
0.0
 40
0.1
100
AcDbArc
 50
180.0
 51
270.0
  0
ARC
  5
29D
330
2
100
AcDbEntity
  8
GAIKEI
  6
HIDDEN2
 62
     1
100
AcDbCircle
 10
72.44020751166004
 20
83.98049820174611
 30
0.0
 40
0.5
100
AcDbArc
 50
94.3012219999994
 51
180.0
  0
LINE
  5
29E
330
2
100
AcDbEntity
  8
GAIKEI
  6
HIDDEN2
 62
     1
100
AcDbLine
 10
73.15270751166008
 20
83.12941545174613
 30
0.0
 11
73.15270751166008
 21
85.87941545174613
 31
0.0
  0
ARC
  5
29F
330
2
100
AcDbEntity
  8
GAIKEI
100
AcDbCircle
 10
78.62770751166033
 20
88.6544154517461
 30
0.0
 40
0.2
100
AcDbArc
 50
0.0
 51
90.00000019999895
  0
ARC
  5
2A0
330
2
100
AcDbEntity
  8
GAIKEI
 62
     1
100
AcDbCircle
 10
78.51241001165988
 20
88.53911835174619
 30
0.0
 40
0.2
100
AcDbArc
 50
0.0
 51
90.00000019999895
  0
ARC
  5
2A1
330
2
100
AcDbEntity
  8
GAIKEI
 62
     1
100
AcDbCircle
 10
77.18295001165995
 20
87.20965622674624
 30
0.0
 40
0.15
100
AcDbArc
 50
0.0
 51
90.00000019999895
  0
ARC
  5
2A2
330
2
100
AcDbEntity
  8
GAIKEI
 62
     1
100
AcDbCircle
 10
77.18819001166038
 20
87.21489702674636
 30
0.0
 40
0.25
100
AcDbArc
 50
0.0
 51
90.00000019999895
  0
DIMENSION
  5
2A3
330
2
100
AcDbEntity
  8
SUNPO
100
AcDbDimension
  2
*D7
 10
108.385483291144
 20
96.85412900739478
 30
0.0
 11
114.9688166244773
 21
98.60412900739479
 31
0.0
 70
    33
  1
20
 71
     5
  3
STANDARD
100
AcDbAlignedDimension
 13
107.385483291144
 23
88.85412900739479
 33
0.0
 14
108.385483291144
 24
88.85412900739479
 34
0.0
1001
ACAD
1000
DSTYLE
1002
{
1070
    40
1040
1.0
1070
   140
1040
2.5
1070
   147
1040
0.5
1070
   172
1070
     1
1070
   288
1070
     0
1002
}
  0
LINE
  5
2B2
330
2
100
AcDbEntity
  8
GAIKEI
 62
     1
100
AcDbLine
 10
107.1769520394473
 20
81.49427378975962
 30
0.0
 11
106.9856878728574
 21
81.24470045652619
 31
0.0
  0
ARC
  5
2B3
330
2
100
AcDbEntity
  8
GAIKEI
 62
     1
100
AcDbCircle
 10
106.4856878730573
 20
81.24470045652619
 30
0.0
 40
0.4999999998
100
AcDbArc
 50
0.0
 51
59.99999989999838
  0
LINE
  5
2B4
330
2
100
AcDbEntity
  8
GAIKEI
 62
     1
100
AcDbLine
 10
106.7705178729434
 20
81.50025045642394
 30
0.0
 11
105.2604832902139
 21
81.17667170655328
 31
0.0
  0
LINE
  5
2B5
330
2
100
AcDbEntity
  8
GAIKEI
 62
     1
100
AcDbLine
 10
105.1354832902639
 20
81.17667170655328
 30
0.0
 11
105.2604832902139
 21
81.17667170655328
 31
0.0
  0
LINE
  5
2B6
330
2
100
AcDbEntity
  8
GAIKEI
100
AcDbLine
 10
105.1354832902639
 20
88.85667170348131
 30
0.0
 11
102.9828666244585
 21
88.74385753685999
 31
0.0
  0
ARC
  5
2B7
330
2
100
AcDbEntity
  8
GAIKEI
100
AcDbCircle
 10
102.985483291124
 20
88.6939262868799
 30
0.0
 40
0.04999999998
100
AcDbArc
 50
92.99999979999306
 51
180.0
  0
LINE
  5
2B8
330
2
100
AcDbEntity
  8
GAIKEI
100
AcDbLine
 10
107.385483291144
 20
84.46339225260738
 30
0.0
 11
107.0100503728475
 21
87.13473628750341
 31
0.0
  0
ARC
  5
2B9
330
2
100
AcDbEntity
  8
GAIKEI
100
AcDbCircle
 10
106.7624837062799
 20
87.09994295418402
 30
0.0
 40
0.2499999999
100
AcDbArc
 50
7.99999999000254
 51
78.00000020000254
  0
LINE
  5
2BA
330
2
100
AcDbEntity
  8
GAIKEI
 62
     1
100
AcDbLine
 10
107.346496622713
 20
83.9949683720928
 30
0.0
 11
107.2334045394248
 21
83.17262712242166
 31
0.0
  0
ARC
  5
2BB
330
2
100
AcDbEntity
  8
GAIKEI
 62
     1
100
AcDbCircle
 10
105.8604832899742
 20
84.1993317053442
 30
0.0
 40
1.499999999399999
100
AcDbArc
 50
352.1695419999988
 51
0.0
  0
LINE
  5
2BC
330
2
100
AcDbEntity
  8
GAIKEI
 62
     1
100
AcDbLine
 10
106.9049832895562
 20
84.42667170525341
 30
0.0
 11
106.9049832895562
 21
84.1993317053442
 31
0.0
  0
LINE
  5
2BD
330
2
100
AcDbEntity
  8
GAIKEI
 62
     1
100
AcDbLine
 10
106.852983289577
 20
84.42667170525341
 30
0.0
 11
106.852983289577
 21
84.1993317053442
 31
0.0
  0
ARC
  5
2BE
330
2
100
AcDbEntity
  8
GAIKEI
 62
     1
100
AcDbCircle
 10
105.8604832899742
 20
84.1993317053442
 30
0.0
 40
0.9924999996029999
100
AcDbArc
 50
352.1695419999988
 51
0.0
  0
ARC
  5
2BF
330
2
100
AcDbEntity
  8
GAIKEI
 62
     1
100
AcDbCircle
 10
105.8604832899742
 20
84.1993317053442
 30
0.0
 40
1.044499999582199
100
AcDbArc
 50
352.1695419999988
 51
0.0
  0
LINE
  5
2C0
330
2
100
AcDbEntity
  8
GAIKEI
 62
     1
100
AcDbLine
 10
107.3604832893739
 20
84.42667170525341
 30
0.0
 11
107.3604832893739
 21
84.1993317053442
 31
0.0
  0
LINE
  5
2C1
330
2
100
AcDbEntity
  8
GAIKEI
 62
     1
100
AcDbLine
 10
106.8952441228935
 20
84.79631628843881
 30
0.0
 11
106.6121345396735
 21
86.85492628761551
 31
0.0
  0
ARC
  5
2C2
330
2
100
AcDbEntity
  8
GAIKEI
 62
     1
100
AcDbCircle
 10
106.4635332897329
 20
86.8344900376236
 30
0.0
 40
0.14999999994
100
AcDbArc
 50
7.830457309996954
 51
87.99999990000108
  0
LINE
  5
2C3
330
2
100
AcDbEntity
  8
GAIKEI
 62
     1
100
AcDbLine
 10
106.8437291229141
 20
84.78923170510835
 30
0.0
 11
106.5669812063582
 21
86.80158170430344
 31
0.0
  0
LINE
  5
2C4
330
2
100
AcDbEntity
  8
GAIKEI
 62
     1
100
AcDbLine
 10
106.9049832895562
 20
84.42667170525341
 30
0.0
 11
106.9049832895562
 21
84.65401128849578
 31
0.0
  0
LINE
  5
2C5
330
2
100
AcDbEntity
  8
GAIKEI
 62
     1
100
AcDbLine
 10
106.852983289577
 20
84.42667170525341
 30
0.0
 11
106.852983289577
 21
84.65401128849578
 31
0.0
  0
ARC
  5
2C6
330
2
100
AcDbEntity
  8
GAIKEI
 62
     1
100
AcDbCircle
 10
105.8604832899742
 20
84.65401128849578
 30
0.0
 40
0.9924999996029999
100
AcDbArc
 50
0.0
 51
7.830457309996954
  0
ARC
  5
2C7
330
2
100
AcDbEntity
  8
GAIKEI
 62
     1
100
AcDbCircle
 10
105.8604832899742
 20
84.65401128849578
 30
0.0
 40
1.044499999582199
100
AcDbArc
 50
0.0
 51
7.830457309996954
  0
LINE
  5
2C8
330
2
100
AcDbEntity
  8
GAIKEI
 62
     1
100
AcDbLine
 10
107.3604832893739
 20
84.42667170525341
 30
0.0
 11
107.3604832893739
 21
84.65401128849578
 31
0.0
  0
ARC
  5
2C9
330
2
100
AcDbEntity
  8
GAIKEI
 62
     1
100
AcDbCircle
 10
106.4183799564176
 20
86.78114545431153
 30
0.0
 40
0.14999999994
100
AcDbArc
 50
7.830457309996954
 51
87.99999990000108
  0
ARC
  5
2CA
330
2
100
AcDbEntity
  8
GAIKEI
 62
     1
100
AcDbCircle
 10
106.6769520396474
 20
81.49427378975962
 30
0.0
 40
0.4999999998
100
AcDbArc
 50
0.0
 51
59.99999989999838
  0
ARC
  5
2CB
330
2
100
AcDbEntity
  8
GAIKEI
 62
     1
100
AcDbCircle
 10
106.6971824563061
 20
81.84248128962043
 30
0.0
 40
0.34999999986
100
AcDbArc
 50
282.0947570000068
 51
352.1695419999988
  0
LINE
  5
2CC
330
2
100
AcDbEntity
  8
GAIKEI
 62
     1
100
AcDbLine
 10
107.0567057894955
 20
81.88777503960238
 30
0.0
 11
107.0439191228338
 21
81.79479628963951
 31
0.0
  0
ARC
  5
2CD
330
2
100
AcDbEntity
  8
GAIKEI
 62
     1
100
AcDbCircle
 10
106.4635332897329
 20
82.01885295621639
 30
0.0
 40
0.14999999994
100
AcDbArc
 50
272.0000000000036
 51
352.1695419999988
  0
ARC
  5
2CE
330
2
100
AcDbEntity
  8
GAIKEI
 62
     1
100
AcDbCircle
 10
106.4183799564176
 20
82.07219753952847
 30
0.0
 40
0.14999999994
100
AcDbArc
 50
272.0000000000036
 51
352.1695419999988
  0
LINE
  5
2CF
330
2
100
AcDbEntity
  8
GAIKEI
 62
     1
100
AcDbLine
 10
107.1769520394473
 20
81.49427378975962
 30
0.0
 11
107.1769520394473
 21
85.94716878797852
 31
0.0
  0
LINE
  5
2D0
330
2
100
AcDbEntity
  8
GAIKEI
 62
     1
100
AcDbLine
 10
106.8952441228935
 20
84.0570267054012
 30
0.0
 11
106.6121345396735
 21
81.9984167062247
 31
0.0
  0
LINE
  5
2D1
330
2
100
AcDbEntity
  8
GAIKEI
 62
     1
100
AcDbLine
 10
107.2334045394248
 20
83.17262712242166
 30
0.0
 11
107.0567057894955
 21
81.88777503960238
 31
0.0
  0
LINE
  5
2D2
330
2
100
AcDbEntity
  8
GAIKEI
 62
     1
100
AcDbLine
 10
106.8437291229141
 20
84.06411128873184
 30
0.0
 11
106.5669812063582
 21
82.05176128953679
 31
0.0
  0
ARC
  5
2D3
330
2
100
AcDbEntity
  8
GAIKEI
 62
     1
100
AcDbCircle
 10
105.2904832902021
 20
87.15724087082787
 30
0.0
 40
0.4999999998
100
AcDbArc
 50
0.0
 51
78.00000360000007
  0
LINE
  5
2D4
330
2
100
AcDbEntity
  8
GAIKEI
 62
     1
100
AcDbLine
 10
105.305483290196
 20
84.42667170525341
 30
0.0
 11
105.305483290196
 21
86.93007378758544
 31
0.0
  0
LINE
  5
2D5
330
2
100
AcDbEntity
  8
GAIKEI
 62
     1
100
AcDbLine
 10
105.6104832900742
 20
84.42667170525341
 30
0.0
 11
105.6104832900742
 21
86.81586962096444
 31
0.0
  0
LINE
  5
2D6
330
2
100
AcDbEntity
  8
GAIKEI
 62
     1
100
AcDbLine
 10
105.2604832902139
 20
84.42667170525341
 30
0.0
 11
105.2604832902139
 21
86.87134212094212
 31
0.0
  0
LINE
  5
2D7
330
2
100
AcDbEntity
  8
GAIKEI
 62
     1
100
AcDbLine
 10
105.3572282901753
 20
86.9800429542321
 30
0.0
 11
105.7149741233657
 21
86.9675504542371
 31
0.0
  0
ARC
  5
2D8
330
2
100
AcDbEntity
  8
GAIKEI
 62
     1
100
AcDbCircle
 10
105.760483290014
 20
86.81586962096444
 30
0.0
 40
0.14999999994
100
AcDbArc
 50
107.7854969999998
 51
180.0
  0
LINE
  5
2D9
330
2
100
AcDbEntity
  8
GAIKEI
 62
     1
100
AcDbLine
 10
105.7149741233657
 20
86.9675504542371
 30
0.0
 11
105.7146653733658
 21
86.95870087090714
 31
0.0
  0
ARC
  5
2DA
330
2
100
AcDbEntity
  8
GAIKEI
 62
     1
100
AcDbCircle
 10
105.355483290176
 20
86.93007378758544
 30
0.0
 40
0.04999999998
100
AcDbArc
 50
87.99999990000108
 51
180.0
  0
ARC
  5
2DB
330
2
100
AcDbEntity
  8
GAIKEI
 62
     1
100
AcDbCircle
 10
106.0404832899021
 20
82.36776462274372
 30
0.0
 40
0.2499999999
100
AcDbArc
 50
180.0
 51
240.0000000000015
  0
LINE
  5
2DC
330
2
100
AcDbEntity
  8
GAIKEI
 62
     1
100
AcDbLine
 10
105.3572282901753
 20
81.87330003960813
 30
0.0
 11
105.7149741233657
 21
81.88579253960313
 31
0.0
  0
ARC
  5
2DD
330
2
100
AcDbEntity
  8
GAIKEI
 62
     1
100
AcDbCircle
 10
105.760483290014
 20
82.03747337287575
 30
0.0
 40
0.14999999994
100
AcDbArc
 50
180.0
 51
252.2145040000033
  0
LINE
  5
2DE
330
2
100
AcDbEntity
  8
GAIKEI
 62
     1
100
AcDbLine
 10
105.7149741233657
 20
81.88579253960313
 30
0.0
 11
105.7146653733658
 21
81.89464253959966
 31
0.0
  0
ARC
  5
2DF
330
2
100
AcDbEntity
  8
GAIKEI
 62
     1
100
AcDbCircle
 10
105.355483290176
 20
81.92326962292133
 30
0.0
 40
0.04999999998
100
AcDbArc
 50
180.0
 51
272.0000000000036
  0
LINE
  5
2E0
330
2
100
AcDbEntity
  8
GAIKEI
 62
     1
100
AcDbLine
 10
105.7904832900022
 20
82.36776462274372
 30
0.0
 11
105.7904832900022
 21
87.15724087082787
 31
0.0
  0
ARC
  5
2E1
330
2
100
AcDbEntity
  8
GAIKEI
 62
     1
100
AcDbCircle
 10
106.0404832899021
 20
82.72776462259969
 30
0.0
 40
0.2499999999
100
AcDbArc
 50
180.0
 51
240.0000000000015
  0
LINE
  5
2E2
330
2
100
AcDbEntity
  8
GAIKEI
 62
     1
100
AcDbLine
 10
105.305483290196
 20
84.42667170525341
 30
0.0
 11
105.305483290196
 21
81.92326962292133
 31
0.0
  0
LINE
  5
2E3
330
2
100
AcDbEntity
  8
GAIKEI
 62
     1
100
AcDbLine
 10
105.6104832900742
 20
84.42667170525341
 30
0.0
 11
105.6104832900742
 21
82.03747337287575
 31
0.0
  0
LINE
  5
2E4
330
2
100
AcDbEntity
  8
GAIKEI
 62
     1
100
AcDbLine
 10
105.2604832902139
 20
84.42667170525341
 30
0.0
 11
105.2604832902139
 21
81.98200128956466
 31
0.0
  0
LINE
  5
2E5
330
2
100
AcDbEntity
  8
GAIKEI
100
AcDbLine
 10
106.8144616229256
 20
87.34448003741965
 30
0.0
 11
105.3085053735281
 21
87.66458087062495
 31
0.0
  0
LINE
  5
2E6
330
2
100
AcDbEntity
  8
GAIKEI
 62
     1
100
AcDbLine
 10
105.415718290152
 20
87.02125045421544
 30
0.0
 11
106.4687707897306
 21
86.98447712089693
 31
0.0
  0
LINE
  5
2E7
330
2
100
AcDbEntity
  8
GAIKEI
 62
     1
100
AcDbLine
 10
105.707163706702
 20
86.95607295424169
 30
0.0
 11
106.4236149564154
 21
86.9310542042516
 31
0.0
  0
LINE
  5
2E8
330
2
100
AcDbEntity
  8
GAIKEI
 62
     1
100
AcDbLine
 10
105.9154832899522
 20
82.51125837268626
 30
0.0
 11
106.9269520395474
 21
81.92728670625308
 31
0.0
  0
LINE
  5
2E9
330
2
100
AcDbEntity
  8
GAIKEI
 62
     1
100
AcDbLine
 10
105.9154832899522
 20
82.15125837283027
 30
0.0
 11
106.7356878729572
 21
81.67771295635281
 31
0.0
  0
LINE
  5
2EA
330
2
100
AcDbEntity
  8
GAIKEI
 62
     1
100
AcDbLine
 10
105.415718290152
 20
81.83209253962457
 30
0.0
 11
106.4687707897306
 21
81.86886587294328
 31
0.0
  0
LINE
  5
2EB
330
2
100
AcDbEntity
  8
GAIKEI
 62
     1
100
AcDbLine
 10
105.707163706702
 20
81.89727003959855
 30
0.0
 11
106.4236149564154
 21
81.92228920625518
 31
0.0
  0
ARC
  5
2EC
330
2
100
AcDbEntity
  8
GAIKEI
 62
     1
100
AcDbCircle
 10
105.410483290154
 20
86.87134212094212
 30
0.0
 40
0.14999999994
100
AcDbArc
 50
87.99999990000108
 51
180.0
  0
ARC
  5
2ED
330
2
100
AcDbEntity
  8
GAIKEI
100
AcDbCircle
 10
105.360483290174
 20
87.90911753719376
 30
0.0
 40
0.2499999999
100
AcDbArc
 50
205.8419330000041
 51
257.999999999997
  0
ARC
  5
2EE
330
2
100
AcDbEntity
  8
GAIKEI
 62
     1
100
AcDbCircle
 10
105.410483290154
 20
81.98200128956466
 30
0.0
 40
0.14999999994
100
AcDbArc
 50
180.0
 51
272.0000000000036
  0
LINE
  5
2EF
330
2
100
AcDbEntity
  8
WAKU
 62
     4
100
AcDbLine
 10
126.9999999999997
 20
5.499214139642276
 30
0.0
 11
2.0
 21
5.499214139642276
 31
0.0
  0
LINE
  5
2F1
330
2
100
AcDbEntity
  8
WAKU
 62
     1
100
AcDbLine
 10
2.0
 20
10.49921413964228
 30
0.0
 11
126.9999999999997
 21
10.49921413964228
 31
0.0
  0
LINE
  5
2F2
330
2
100
AcDbEntity
  8
WAKU
 62
     1
100
AcDbLine
 10
2.0
 20
15.49921413964228
 30
0.0
 11
126.9999999999997
 21
15.49921413964228
 31
0.0
  0
LINE
  5
2F3
330
2
100
AcDbEntity
  8
WAKU
 62
     1
100
AcDbLine
 10
2.0
 20
25.49921413964228
 30
0.0
 11
126.9999999999997
 21
25.49921413964228
 31
0.0
  0
LINE
  5
2F4
330
2
100
AcDbEntity
  8
WAKU
 62
     1
100
AcDbLine
 10
2.0
 20
35.49921413964229
 30
0.0
 11
126.9999999999997
 21
35.49921413964229
 31
0.0
  0
LINE
  5
2F5
330
2
100
AcDbEntity
  8
WAKU
 62
     4
100
AcDbLine
 10
2.0
 20
40.49921413964228
 30
0.0
 11
126.9999999999997
 21
40.49921413964228
 31
0.0
  0
LINE
  5
2F6
330
2
100
AcDbEntity
  8
WAKU
 62
     1
100
AcDbLine
 10
2.0
 20
20.49921413964228
 30
0.0
 11
126.9999999999997
 21
20.49921413964228
 31
0.0
  0
LINE
  5
2F7
330
2
100
AcDbEntity
  8
WAKU
 62
     1
100
AcDbLine
 10
2.0
 20
30.49921413964228
 30
0.0
 11
126.9999999999997
 21
30.49921413964228
 31
0.0
  0
LINE
  5
2FF
330
2
100
AcDbEntity
  8
WAKU
 62
     4
100
AcDbLine
 10
41.99999999999977
 20
40.49921413964228
 30
0.0
 11
41.99999999999977
 21
5.499214139642276
 31
0.0
  0
LINE
  5
300
330
2
100
AcDbEntity
  8
WAKU
 62
     4
100
AcDbLine
 10
1.999999999999773
 20
40.49921413964228
 30
0.0
 11
2.0
 21
5.499214139642276
 31
0.0
  0
TEXT
  5
301
330
2
100
AcDbEntity
  8
MOJI1
100
AcDbText
 10
4.5
 20
11.49921413964228
 30
0.0
 40
3.0
  1
接続端子
100
AcDbText
  0
TEXT
  5
302
330
2
100
AcDbEntity
  8
MOJI1
100
AcDbText
 10
4.5
 20
16.49921413964228
 30
0.0
 40
3.0
  1
音声最大出力
100
AcDbText
  0
TEXT
  5
303
330
2
100
AcDbEntity
  8
MOJI1
100
AcDbText
 10
4.5
 20
26.49921413964228
 30
0.0
 40
3.0
  1
パネルサイズ
100
AcDbText
  0
TEXT
  5
304
330
2
100
AcDbEntity
  8
MOJI1
100
AcDbText
 10
4.5
 20
21.49921413964228
 30
0.0
 40
3.0
  1
画素数
100
AcDbText
  0
TEXT
  5
305
330
2
100
AcDbEntity
  8
MOJI1
100
AcDbText
 10
4.5
 20
31.49921413964228
 30
0.0
 40
3.0
  1
消費電力
100
AcDbText
  0
TEXT
  5
306
330
2
100
AcDbEntity
  8
MOJI1
100
AcDbText
 10
4.5
 20
36.49921413964229
 30
0.0
 40
3.0
  1
電  源
100
AcDbText
  0
LINE
  5
307
330
2
100
AcDbEntity
  8
WAKU
 62
     4
100
AcDbLine
 10
126.9999999999997
 20
40.49921413964228
 30
0.0
 11
126.9999999999997
 21
5.499214139642276
 31
0.0
  0
TEXT
  5
33E
330
2
100
AcDbEntity
  8
MOJI1
370
     0
100
AcDbText
 10
44.49999999999977
 20
6.499214139642277
 30
0.0
 40
3.0
  1
コンポーネントビデオ、シリアル
100
AcDbText
  0
TEXT
  5
33F
330
2
100
AcDbEntity
  8
MOJI1
370
     0
100
AcDbText
 10
44.49999999999977
 20
11.49921413964228
 30
0.0
 40
3.0
  1
ビデオ／Ｓビデオ／ＰＣ／外部スピーカ
100
AcDbText
  0
TEXT
  5
340
330
2
100
AcDbEntity
  8
MOJI1
370
     0
100
AcDbText
 10
44.49999999999977
 20
16.49921413964228
 30
0.0
 40
3.0
  1
１６Ｗ（８Ｗ＋８Ｗ）
100
AcDbText
  0
TEXT
  5
341
330
2
100
AcDbEntity
  8
MOJI1
370
     0
100
AcDbText
 10
44.49999999999977
 20
21.49921413964228
 30
0.0
 40
3.0
  1
７８６４３２画素（水平１０２４×垂直７６８）
100
AcDbText
  0
TEXT
  5
342
330
2
100
AcDbEntity
  8
MOJI1
370
     0
100
AcDbText
 10
44.49999999999977
 20
26.49921413964228
 30
0.0
 40
3.0
  1
４２Ｖ型（１６：９）
100
AcDbText
  0
TEXT
  5
343
330
2
100
AcDbEntity
  8
MOJI1
370
     0
100
AcDbText
 10
44.49999999999977
 20
31.49921413964229
 30
0.0
 40
3.0
  1
３１５Ｗ
100
AcDbText
  0
TEXT
  5
344
330
2
100
AcDbEntity
  8
MOJI1
370
     0
100
AcDbText
 10
44.49999999999977
 20
36.49921413964229
 30
0.0
 40
3.0
  1
ＡＣ１００Ｖ　５０Ｈｚ／６０Ｈｚ
100
AcDbText
  0
ENDSEC
  0
SECTION
  2
OBJECTS
  0
DICTIONARY
  5
21
330
0
100
AcDbDictionary
281
     1
  3
ACAD_COLOR
350
331
  3
ACAD_GROUP
350
1F
  3
ACAD_LAYOUT
350
308
  3
ACAD_MATERIAL
350
333
  3
ACAD_MLINESTYLE
350
20
  3
ACAD_PLOTSETTINGS
350
313
  3
ACAD_PLOTSTYLENAME
350
315
  3
ACDBHEADERROUNDTRIPXREC
350
387
  3
AcDbVariableDictionary
350
383
  0
DICTIONARY
  5
F
330
E
100
AcDbDictionary
280
     1
281
     1
  3
ACAD_LAYERFILTERS
360
10
  0
DICTIONARY
  5
3
330
2
100
AcDbDictionary
280
     1
281
     1
  3
ACAD_LAYOUTSELFREF
360
4
  0
DICTIONARY
  5
A
330
9
100
AcDbDictionary
280
     1
281
     1
  3
ACAD_LAYOUTSELFREF
360
B
  0
DICTIONARY
  5
331
102
{ACAD_REACTORS
330
21
102
}
330
21
100
AcDbDictionary
281
     1
  0
DICTIONARY
  5
1F
102
{ACAD_REACTORS
330
21
102
}
330
21
100
AcDbDictionary
281
     1
  0
DICTIONARY
  5
308
102
{ACAD_REACTORS
330
21
102
}
330
21
100
AcDbDictionary
281
     1
  3
Model
350
33B
  3
レイアウト1
350
33C
  0
DICTIONARY
  5
333
102
{ACAD_REACTORS
330
21
102
}
330
21
100
AcDbDictionary
281
     1
  0
DICTIONARY
  5
20
102
{ACAD_REACTORS
330
21
102
}
330
21
100
AcDbDictionary
281
     1
  3
STANDARD
350
25
  0
DICTIONARY
  5
313
102
{ACAD_REACTORS
330
21
102
}
330
21
100
AcDbDictionary
281
     1
  0
ACDBDICTIONARYWDFLT
  5
315
102
{ACAD_REACTORS
330
21
102
}
330
21
100
AcDbDictionary
281
     1
  3
NORMAL
350
316
100
AcDbDictionaryWithDefault
340
316
  0
DICTIONARY
  5
387
102
{ACAD_REACTORS
330
21
102
}
330
21
100
AcDbDictionary
281
     1
  3
COLORDICT
350
389
  3
MATERIALDICT
350
388
  0
DICTIONARY
  5
383
102
{ACAD_REACTORS
330
21
102
}
330
21
100
AcDbDictionary
281
     1
  3
DIMASSOC
350
384
  3
PROJECTNAME
350
385
  0
DICTIONARY
  5
10
102
{ACAD_REACTORS
330
F
102
}
330
F
100
AcDbDictionary
280
     1
281
     1
  3
ロック画層
360
11
  0
XRECORD
  5
4
102
{ACAD_REACTORS
330
3
102
}
330
3
100
AcDbXrecord
280
     1
340
2
  0
XRECORD
  5
B
102
{ACAD_REACTORS
330
A
102
}
330
A
100
AcDbXrecord
280
     1
340
9
  0
LAYOUT
  5
33B
102
{ACAD_XDICTIONARY
360
38A
102
}
102
{ACAD_REACTORS
330
308
102
}
330
308
100
AcDbPlotSettings
  1

  2
\\Uranus\BFACN02M
  4

  6

 40
0.0
 41
0.0
 42
0.0
 43
0.0
 44
0.0
 45
0.0
 46
0.0
 47
0.0
 48
0.0
 49
0.0
140
0.0
141
0.0
142
1.0
143
1.0
 70
  1712
 72
     0
 73
     0
 74
     0
  7
SSC.ctb
 75
     0
147
1.0
148
0.0
149
0.0
100
AcDbLayout
  1
Model
 70
     1
 71
     0
 10
0.0
 20
0.0
 11
12.0
 21
9.0
 12
0.0
 22
0.0
 32
0.0
 14
0.0
 24
0.0
 34
0.0
 15
0.0
 25
0.0
 35
0.0
146
0.0
 13
0.0
 23
0.0
 33
0.0
 16
1.0
 26
0.0
 36
0.0
 17
0.0
 27
1.0
 37
0.0
 76
     0
330
2
  0
LAYOUT
  5
33C
102
{ACAD_XDICTIONARY
360
38C
102
}
102
{ACAD_REACTORS
330
308
102
}
330
308
100
AcDbPlotSettings
  1

  2
\\Uranus\BFACN02M
  4

  6

 40
0.0
 41
0.0
 42
0.0
 43
0.0
 44
0.0
 45
0.0
 46
0.0
 47
0.0
 48
0.0
 49
0.0
140
0.0
141
0.0
142
1.0
143
1.0
 70
   688
 72
     0
 73
     0
 74
     5
  7
SSC.ctb
 75
    16
147
1.0
148
0.0
149
0.0
100
AcDbLayout
  1
レイアウト1
 70
     1
 71
     1
 10
0.0
 20
0.0
 11
12.0
 21
9.0
 12
0.0
 22
0.0
 32
0.0
 14
1.000000000000000E+20
 24
1.000000000000000E+20
 34
1.000000000000000E+20
 15
-1.000000000000000E+20
 25
-1.000000000000000E+20
 35
-1.000000000000000E+20
146
0.0
 13
0.0
 23
0.0
 33
0.0
 16
1.0
 26
0.0
 36
0.0
 17
0.0
 27
1.0
 37
0.0
 76
     0
330
9
  0
MLINESTYLE
  5
25
102
{ACAD_REACTORS
330
20
102
}
330
20
100
AcDbMlineStyle
  2
STANDARD
 70
     0
  3

 62
   256
 51
90.0
 52
90.0
 71
     2
 49
0.5
 62
   256
  6
BYLAYER
 49
-0.5
 62
   256
  6
BYLAYER
  0
ACDBPLACEHOLDER
  5
316
102
{ACAD_REACTORS
330
315
102
}
330
315
  0
XRECORD
  5
389
102
{ACAD_REACTORS
330
387
102
}
330
387
100
AcDbXrecord
280
     1
340
331
  0
XRECORD
  5
388
102
{ACAD_REACTORS
330
387
102
}
330
387
100
AcDbXrecord
280
     1
340
333
  0
DICTIONARYVAR
  5
384
102
{ACAD_REACTORS
330
383
102
}
330
383
100
DictionaryVariables
280
     0
  1
1
  0
DICTIONARYVAR
  5
385
102
{ACAD_REACTORS
330
383
102
}
330
383
100
DictionaryVariables
280
     0
  1

  0
XRECORD
  5
11
102
{ACAD_REACTORS
330
10
102
}
330
10
100
AcDbXrecord
280
     1
  1
ロック画層
  1
*
  1
*
  1
*
 70
   256
  1
*
  1
*
  0
DICTIONARY
  5
38A
330
33B
100
AcDbDictionary
280
     1
281
     1
  3
ACAD_XREC_ROUNDTRIP
360
38B
  0
DICTIONARY
  5
38C
330
33C
100
AcDbDictionary
280
     1
281
     1
  3
ACAD_XREC_ROUNDTRIP
360
38D
  0
XRECORD
  5
38B
102
{ACAD_REACTORS
330
38A
102
}
330
38A
100
AcDbXrecord
280
     1
102
SHADEPLOT
 70
     0
102
SHADEPLOTRESLEVEL
 70
     2
102
SHADEPLOTCUSTOMDPI
 70
   300
  0
XRECORD
  5
38D
102
{ACAD_REACTORS
330
38C
102
}
330
38C
100
AcDbXrecord
280
     1
102
SHADEPLOT
 70
     0
102
SHADEPLOTRESLEVEL
 70
     2
102
SHADEPLOTCUSTOMDPI
 70
   300
  0
ENDSEC
  0
EOF
