  0
SECTION
  2
HEADER
  9
$ACADVER
  1
AC1015
  9
$ACADMAINTVER
 70
    20
  9
$DWGCODEPAGE
  3
ANSI_932
  9
$INSBASE
 10
0.0
 20
120.4992141396419
 30
0.0
  9
$EXTMIN
 10
-54.75522336040285
 20
-59.76844596356841
 30
-0.0000000349181948
  9
$EXTMAX
 10
70.35956265212417
 20
53.32715412182006
 30
0.0000000814935747
  9
$LIMMIN
 10
-1101.784450318844
 20
-1579.160531687244
  9
$LIMMAX
 10
-508.2420711400536
 20
-1161.440814074914
  9
$ORTHOMODE
 70
     1
  9
$REGENMODE
 70
     1
  9
$FILLMODE
 70
     1
  9
$QTEXTMODE
 70
     0
  9
$MIRRTEXT
 70
     1
  9
$LTSCALE
 40
1.0
  9
$ATTMODE
 70
     1
  9
$TEXTSIZE
 40
3.0
  9
$TRACEWID
 40
0.5
  9
$TEXTSTYLE
  7
STANDARD
  9
$CLAYER
  8
0
  9
$CELTYPE
  6
BYLAYER
  9
$CECOLOR
 62
   256
  9
$CELTSCALE
 40
1.0
  9
$DISPSILH
 70
     0
  9
$DIMSCALE
 40
1.0
  9
$DIMASZ
 40
2.0
  9
$DIMEXO
 40
2.0
  9
$DIMDLI
 40
8.0
  9
$DIMRND
 40
0.0
  9
$DIMDLE
 40
0.0
  9
$DIMEXE
 40
2.0
  9
$DIMTP
 40
0.0
  9
$DIMTM
 40
0.0
  9
$DIMTXT
 40
2.5
  9
$DIMCEN
 40
0.0
  9
$DIMTSZ
 40
0.0
  9
$DIMTOL
 70
     0
  9
$DIMLIM
 70
     0
  9
$DIMTIH
 70
     0
  9
$DIMTOH
 70
     0
  9
$DIMSE1
 70
     0
  9
$DIMSE2
 70
     0
  9
$DIMTAD
 70
     3
  9
$DIMZIN
 70
     0
  9
$DIMBLK
  1

  9
$DIMASO
 70
     1
  9
$DIMSHO
 70
     1
  9
$DIMPOST
  1

  9
$DIMAPOST
  1

  9
$DIMALT
 70
     0
  9
$DIMALTD
 70
     2
  9
$DIMALTF
 40
25.4
  9
$DIMLFAC
 40
1.0
  9
$DIMTOFL
 70
     1
  9
$DIMTVP
 40
0.0
  9
$DIMTIX
 70
     0
  9
$DIMSOXD
 70
     0
  9
$DIMSAH
 70
     1
  9
$DIMBLK1
  1
OPEN30
  9
$DIMBLK2
  1
OPEN30
  9
$DIMSTYLE
  2
STANDARD
  9
$DIMCLRD
 70
     0
  9
$DIMCLRE
 70
     0
  9
$DIMCLRT
 70
     0
  9
$DIMTFAC
 40
1.0
  9
$DIMGAP
 40
0.5
  9
$DIMJUST
 70
     0
  9
$DIMSD1
 70
     0
  9
$DIMSD2
 70
     0
  9
$DIMTOLJ
 70
     1
  9
$DIMTZIN
 70
     0
  9
$DIMALTZ
 70
     0
  9
$DIMALTTZ
 70
     0
  9
$DIMUPT
 70
     0
  9
$DIMDEC
 70
     4
  9
$DIMTDEC
 70
     4
  9
$DIMALTU
 70
     2
  9
$DIMALTTD
 70
     2
  9
$DIMTXSTY
  7
STANDARD
  9
$DIMAUNIT
 70
     0
  9
$DIMADEC
 70
     0
  9
$DIMALTRND
 40
0.0
  9
$DIMAZIN
 70
     0
  9
$DIMDSEP
 70
    46
  9
$DIMATFIT
 70
     3
  9
$DIMFRAC
 70
     0
  9
$DIMLDRBLK
  1
OPEN30
  9
$DIMLUNIT
 70
     2
  9
$DIMLWD
 70
    -2
  9
$DIMLWE
 70
    -2
  9
$DIMTMOVE
 70
     0
  9
$LUNITS
 70
     2
  9
$LUPREC
 70
     4
  9
$SKETCHINC
 40
0.1
  9
$FILLETRAD
 40
0.0
  9
$AUNITS
 70
     0
  9
$AUPREC
 70
     0
  9
$MENU
  1
ACAD
  9
$ELEVATION
 40
0.0
  9
$PELEVATION
 40
0.0
  9
$THICKNESS
 40
0.0
  9
$LIMCHECK
 70
     0
  9
$CHAMFERA
 40
0.0
  9
$CHAMFERB
 40
0.0
  9
$CHAMFERC
 40
0.0
  9
$CHAMFERD
 40
0.0
  9
$SKPOLY
 70
     0
  9
$TDCREATE
 40
2451815.565532581
  9
$TDUCREATE
 40
2451815.190532581
  9
$TDUPDATE
 40
2453731.740368924
  9
$TDUUPDATE
 40
2453731.365368924
  9
$TDINDWG
 40
0.7017593750
  9
$TDUSRTIMER
 40
0.7017593750
  9
$USRTIMER
 70
     1
  9
$ANGBASE
 50
0.0
  9
$ANGDIR
 70
     0
  9
$PDMODE
 70
     0
  9
$PDSIZE
 40
0.0
  9
$PLINEWID
 40
0.0
  9
$SPLFRAME
 70
     0
  9
$SPLINETYPE
 70
     6
  9
$SPLINESEGS
 70
     8
  9
$HANDSEED
  5
263
  9
$SURFTAB1
 70
     6
  9
$SURFTAB2
 70
     6
  9
$SURFTYPE
 70
     6
  9
$SURFU
 70
     6
  9
$SURFV
 70
     6
  9
$UCSBASE
  2

  9
$UCSNAME
  2

  9
$UCSORG
 10
0.0
 20
0.0
 30
0.0
  9
$UCSXDIR
 10
1.0
 20
0.0
 30
0.0
  9
$UCSYDIR
 10
0.0
 20
1.0
 30
0.0
  9
$UCSORTHOREF
  2

  9
$UCSORTHOVIEW
 70
     0
  9
$UCSORGTOP
 10
0.0
 20
0.0
 30
0.0
  9
$UCSORGBOTTOM
 10
0.0
 20
0.0
 30
0.0
  9
$UCSORGLEFT
 10
0.0
 20
0.0
 30
0.0
  9
$UCSORGRIGHT
 10
0.0
 20
0.0
 30
0.0
  9
$UCSORGFRONT
 10
0.0
 20
0.0
 30
0.0
  9
$UCSORGBACK
 10
0.0
 20
0.0
 30
0.0
  9
$PUCSBASE
  2

  9
$PUCSNAME
  2

  9
$PUCSORG
 10
0.0
 20
0.0
 30
0.0
  9
$PUCSXDIR
 10
1.0
 20
0.0
 30
0.0
  9
$PUCSYDIR
 10
0.0
 20
1.0
 30
0.0
  9
$PUCSORTHOREF
  2

  9
$PUCSORTHOVIEW
 70
     0
  9
$PUCSORGTOP
 10
0.0
 20
0.0
 30
0.0
  9
$PUCSORGBOTTOM
 10
0.0
 20
0.0
 30
0.0
  9
$PUCSORGLEFT
 10
0.0
 20
0.0
 30
0.0
  9
$PUCSORGRIGHT
 10
0.0
 20
0.0
 30
0.0
  9
$PUCSORGFRONT
 10
0.0
 20
0.0
 30
0.0
  9
$PUCSORGBACK
 10
0.0
 20
0.0
 30
0.0
  9
$USERI1
 70
     0
  9
$USERI2
 70
     0
  9
$USERI3
 70
     0
  9
$USERI4
 70
     0
  9
$USERI5
 70
     0
  9
$USERR1
 40
0.0
  9
$USERR2
 40
0.0
  9
$USERR3
 40
0.0
  9
$USERR4
 40
0.0
  9
$USERR5
 40
0.0
  9
$WORLDVIEW
 70
     1
  9
$SHADEDGE
 70
     3
  9
$SHADEDIF
 70
    70
  9
$TILEMODE
 70
     1
  9
$MAXACTVP
 70
    48
  9
$PINSBASE
 10
0.0
 20
0.0
 30
0.0
  9
$PLIMCHECK
 70
     0
  9
$PEXTMIN
 10
1.000000000000000E+20
 20
1.000000000000000E+20
 30
1.000000000000000E+20
  9
$PEXTMAX
 10
-1.000000000000000E+20
 20
-1.000000000000000E+20
 30
-1.000000000000000E+20
  9
$PLIMMIN
 10
0.0
 20
0.0
  9
$PLIMMAX
 10
12.0
 20
9.0
  9
$UNITMODE
 70
     0
  9
$VISRETAIN
 70
     1
  9
$PLINEGEN
 70
     0
  9
$PSLTSCALE
 70
     1
  9
$TREEDEPTH
 70
  3020
  9
$CMLSTYLE
  2
STANDARD
  9
$CMLJUST
 70
     0
  9
$CMLSCALE
 40
1.0
  9
$PROXYGRAPHICS
 70
     1
  9
$MEASUREMENT
 70
     0
  9
$CELWEIGHT
370
    -1
  9
$ENDCAPS
280
     0
  9
$JOINSTYLE
280
     0
  9
$LWDISPLAY
290
     0
  9
$INSUNITS
 70
     0
  9
$HYPERLINKBASE
  1

  9
$STYLESHEET
  1

  9
$XEDIT
290
     1
  9
$CEPSNTYPE
380
     0
  9
$PSTYLEMODE
290
     1
  9
$FINGERPRINTGUID
  2
{1754B7AB-9B3C-11D4-AD9E-00104B1004F2}
  9
$VERSIONGUID
  2
{8D66A2BA-B983-4C1E-9131-EEB7875882A3}
  9
$EXTNAMES
290
     1
  9
$PSVPSCALE
 40
0.0
  9
$OLESTARTUP
290
     0
  0
ENDSEC
  0
SECTION
  2
CLASSES
  0
CLASS
  1
ACDBDICTIONARYWDFLT
  2
AcDbDictionaryWithDefault
  3
ObjectDBX Classes
 90
        0
280
     0
281
     0
  0
CLASS
  1
ACDBPLACEHOLDER
  2
AcDbPlaceHolder
  3
ObjectDBX Classes
 90
        0
280
     0
281
     0
  0
CLASS
  1
LAYOUT
  2
AcDbLayout
  3
ObjectDBX Classes
 90
        0
280
     0
281
     0
  0
CLASS
  1
DICTIONARYVAR
  2
AcDbDictionaryVar
  3
ObjectDBX Classes
 90
        0
280
     0
281
     0
  0
ENDSEC
  0
SECTION
  2
TABLES
  0
TABLE
  2
VPORT
  5
1F
330
0
100
AcDbSymbolTable
 70
     2
  0
VPORT
  5
25B
330
1F
100
AcDbSymbolTableRecord
100
AcDbViewportTableRecord
  2
*Active
 70
     0
 10
0.0
 20
0.0
 11
1.0
 21
1.0
 12
7.802169645860665
 22
-3.220645920874176
 13
0.0
 23
0.0
 14
1.0
 24
1.0
 15
0.0
 25
0.0
 16
0.0
 26
0.0
 36
1.0
 17
0.0
 27
0.0
 37
0.0
 40
114.0649909432632
 41
1.589413447782546
 42
50.0
 43
0.0
 44
0.0
 50
0.0
 51
0.0
 71
     0
 72
 10000
 73
     1
 74
     0
 75
     0
 76
     1
 77
     0
 78
     0
281
     0
 65
     1
110
0.0
120
0.0
130
0.0
111
1.0
121
0.0
131
0.0
112
0.0
122
1.0
132
0.0
 79
     0
146
0.0
  0
ENDTAB
  0
TABLE
  2
LTYPE
  5
1A
330
0
100
AcDbSymbolTable
 70
     1
  0
LTYPE
  5
1B
330
1A
100
AcDbSymbolTableRecord
100
AcDbLinetypeTableRecord
  2
BYBLOCK
 70
     0
  3

 72
    65
 73
     0
 40
0.0
  0
LTYPE
  5
1C
330
1A
100
AcDbSymbolTableRecord
100
AcDbLinetypeTableRecord
  2
BYLAYER
 70
     0
  3

 72
    65
 73
     0
 40
0.0
  0
LTYPE
  5
A
330
1A
100
AcDbSymbolTableRecord
100
AcDbLinetypeTableRecord
  2
CONTINUOUS
 70
     0
  3
Solid line
 72
    65
 73
     0
 40
0.0
  0
ENDTAB
  0
TABLE
  2
LAYER
  5
14
102
{ACAD_XDICTIONARY
360
15
102
}
330
0
100
AcDbSymbolTable
 70
     7
  0
LAYER
  5
6
330
14
100
AcDbSymbolTableRecord
100
AcDbLayerTableRecord
  2
0
 70
     0
 62
     7
  6
CONTINUOUS
370
    -3
390
7
  0
LAYER
  5
41
330
14
100
AcDbSymbolTableRecord
100
AcDbLayerTableRecord
  2
DEFPOINTS
 70
     0
 62
     7
  6
CONTINUOUS
290
     0
370
    -3
390
7
  0
LAYER
  5
1AD
330
14
100
AcDbSymbolTableRecord
100
AcDbLayerTableRecord
  2
WAKU
 70
     0
 62
     4
  6
CONTINUOUS
370
    -3
390
7
  0
LAYER
  5
2A
330
14
100
AcDbSymbolTableRecord
100
AcDbLayerTableRecord
  2
MOJI1
 70
     0
 62
     2
  6
CONTINUOUS
370
    -3
390
7
  0
LAYER
  5
62
330
14
100
AcDbSymbolTableRecord
100
AcDbLayerTableRecord
  2
GAIKEI
 70
     0
 62
     7
  6
CONTINUOUS
370
    -3
390
7
  0
LAYER
  5
35
330
14
100
AcDbSymbolTableRecord
100
AcDbLayerTableRecord
  2
TOUROKU
 70
     0
 62
     1
  6
CONTINUOUS
370
    -3
390
7
  0
LAYER
  5
37
330
14
100
AcDbSymbolTableRecord
100
AcDbLayerTableRecord
  2
SUNPO
 70
     0
 62
     3
  6
CONTINUOUS
370
    -3
390
7
  0
ENDTAB
  0
TABLE
  2
STYLE
  5
17
330
0
100
AcDbSymbolTable
 70
     1
  0
STYLE
  5
18
330
17
100
AcDbSymbolTableRecord
100
AcDbTextStyleTableRecord
  2
STANDARD
 70
     0
 40
0.0
 41
1.0
 50
0.0
 71
     0
 42
3.0
  3
MONOTXT.shx
  4
BIGFONT.shx
  0
ENDTAB
  0
TABLE
  2
VIEW
  5
1D
330
0
100
AcDbSymbolTable
 70
     0
  0
ENDTAB
  0
TABLE
  2
UCS
  5
1E
330
0
100
AcDbSymbolTable
 70
     0
  0
ENDTAB
  0
TABLE
  2
APPID
  5
21
330
0
100
AcDbSymbolTable
 70
     1
  0
APPID
  5
22
330
21
100
AcDbSymbolTableRecord
100
AcDbRegAppTableRecord
  2
ACAD
 70
     0
  0
ENDTAB
  0
TABLE
  2
DIMSTYLE
  5
23
330
0
100
AcDbSymbolTable
 70
     1
100
AcDbDimStyleTable
 71
     1
340
32
  0
DIMSTYLE
105
32
102
{ACAD_REACTORS
330
19E
330
CB
330
52
330
45
330
36
102
}
330
23
100
AcDbSymbolTableRecord
100
AcDbDimStyleTableRecord
  2
STANDARD
 70
     0
 40
0.0
 41
2.0
 42
2.0
 43
8.0
 44
2.0
 73
     0
 74
     0
 77
     3
140
3.0
141
0.0
173
     1
279
     2
288
     1
340
18
341
2B
343
2B
344
2B
  0
ENDTAB
  0
TABLE
  2
BLOCK_RECORD
  5
1
330
0
100
AcDbSymbolTable
 70
    11
  0
BLOCK_RECORD
  5
2
102
{ACAD_XDICTIONARY
360
3
102
}
330
1
100
AcDbSymbolTableRecord
100
AcDbBlockTableRecord
  2
*MODEL_SPACE
340
C
  0
BLOCK_RECORD
  5
E
102
{ACAD_XDICTIONARY
360
F
102
}
330
1
100
AcDbSymbolTableRecord
100
AcDbBlockTableRecord
  2
*PAPER_SPACE
340
13
  0
BLOCK_RECORD
  5
2B
330
1
100
AcDbSymbolTableRecord
100
AcDbBlockTableRecord
  2
_OPEN30
340
0
102
{BLKREFS
331
3D
331
3E
331
4B
331
4C
331
5A
331
5B
331
D2
331
D3
331
1A5
331
1A6
331
22E
331
22F
331
238
331
239
331
243
331
244
331
24C
331
24D
331
255
331
256
102
}
  0
BLOCK_RECORD
  5
1D2
330
1
100
AcDbSymbolTableRecord
100
AcDbBlockTableRecord
  2
*D6
340
0
  0
BLOCK_RECORD
  5
1DF
330
1
100
AcDbSymbolTableRecord
100
AcDbBlockTableRecord
  2
*D7
340
0
  0
BLOCK_RECORD
  5
1EC
330
1
100
AcDbSymbolTableRecord
100
AcDbBlockTableRecord
  2
*D8
340
0
  0
BLOCK_RECORD
  5
1FA
330
1
100
AcDbSymbolTableRecord
100
AcDbBlockTableRecord
  2
*D9
340
0
  0
BLOCK_RECORD
  5
206
330
1
100
AcDbSymbolTableRecord
100
AcDbBlockTableRecord
  2
*D10
340
0
  0
ENDTAB
  0
ENDSEC
  0
SECTION
  2
BLOCKS
  0
BLOCK
  5
5
330
2
100
AcDbEntity
  8
0
100
AcDbBlockBegin
  2
*MODEL_SPACE
 70
     0
 10
0.0
 20
0.0
 30
0.0
  3
*MODEL_SPACE
  1

  0
ENDBLK
  5
B
330
2
100
AcDbEntity
  8
0
100
AcDbBlockEnd
  0
BLOCK
  5
11
330
E
100
AcDbEntity
 67
     1
  8
0
100
AcDbBlockBegin
  2
*PAPER_SPACE
 70
     0
 10
0.0
 20
0.0
 30
0.0
  3
*PAPER_SPACE
  1

  0
ENDBLK
  5
12
330
E
100
AcDbEntity
 67
     1
  8
0
100
AcDbBlockEnd
  0
BLOCK
  5
2C
330
2B
100
AcDbEntity
  8
0
100
AcDbBlockBegin
  2
_OPEN30
 70
     0
 10
0.0
 20
0.0
 30
0.0
  3
_OPEN30
  1

  0
LINE
  5
2D
330
2B
100
AcDbEntity
  8
0
  6
ByBlock
 62
     0
100
AcDbLine
 10
-1.0
 20
0.26794919
 30
0.0
 11
0.0
 21
0.0
 31
0.0
  0
LINE
  5
2E
330
2B
100
AcDbEntity
  8
0
  6
ByBlock
 62
     0
100
AcDbLine
 10
0.0
 20
0.0
 30
0.0
 11
-1.0
 21
-0.26794919
 31
0.0
  0
LINE
  5
2F
330
2B
100
AcDbEntity
  8
0
  6
ByBlock
 62
     0
100
AcDbLine
 10
0.0
 20
0.0
 30
0.0
 11
-1.0
 21
0.0
 31
0.0
  0
ENDBLK
  5
30
330
2B
100
AcDbEntity
  8
0
100
AcDbBlockEnd
  0
BLOCK
  5
1DD
330
1D2
100
AcDbEntity
  8
0
100
AcDbBlockBegin
  2
*D6
 70
     1
 10
0.0
 20
0.0
 30
0.0
  3
*D6
  1

  0
LINE
  5
22A
330
1D2
100
AcDbEntity
  8
SUNPO
 62
     0
370
    -2
100
AcDbLine
 10
-28.68889184324801
 20
23.95102589680855
 30
0.0
 11
-28.68889184324801
 21
31.95102589680854
 31
0.0
  0
LINE
  5
22B
330
1D2
100
AcDbEntity
  8
SUNPO
 62
     0
370
    -2
100
AcDbLine
 10
-34.04062434324781
 20
23.95102589680855
 30
0.0
 11
-34.04062434324781
 21
31.95102589680854
 31
0.0
  0
LINE
  5
22C
330
1D2
100
AcDbEntity
  8
SUNPO
 62
     0
370
    -2
100
AcDbLine
 10
-30.68889184324801
 20
29.95102589680854
 30
0.0
 11
-32.04062434324781
 21
29.95102589680854
 31
0.0
  0
LINE
  5
22D
330
1D2
100
AcDbEntity
  8
SUNPO
 62
     0
370
    -2
100
AcDbLine
 10
-34.04062434324781
 20
29.95102589680854
 30
0.0
 11
-43.70729100991447
 21
29.95102589680854
 31
0.0
  0
INSERT
  5
22E
330
1D2
100
AcDbEntity
  8
SUNPO
 62
     0
370
    -2
100
AcDbBlockReference
  2
_OPEN30
 10
-28.68889184324801
 20
29.95102589680854
 30
0.0
 41
2.0
 42
2.0
 43
2.0
  0
INSERT
  5
22F
330
1D2
100
AcDbEntity
  8
SUNPO
 62
     0
370
    -2
100
AcDbBlockReference
  2
_OPEN30
 10
-34.04062434324781
 20
29.95102589680854
 30
0.0
 41
2.0
 42
2.0
 43
2.0
 50
180.0
  0
MTEXT
  5
230
330
1D2
100
AcDbEntity
  8
SUNPO
 62
     0
100
AcDbMText
 10
-39.87395767658114
 20
31.70102589680854
 30
0.0
 40
2.5
 41
0.0
 71
     5
 72
     1
  1
\A1;107
 73
     1
 44
1.0
1001
ACAD
1000
MTEXTBEGIN
1070
    73
1070
     1
1070
    44
1040
1.0
1070
    74
1070
     0
1000
MTEXTEND
  0
POINT
  5
231
330
1D2
100
AcDbEntity
  8
DEFPOINTS
 62
     0
100
AcDbPoint
 10
-28.68889184324801
 20
21.95102589680855
 30
0.0
  0
POINT
  5
232
330
1D2
100
AcDbEntity
  8
DEFPOINTS
 62
     0
100
AcDbPoint
 10
-34.04062434324781
 20
21.95102589680855
 30
0.0
  0
POINT
  5
233
330
1D2
100
AcDbEntity
  8
DEFPOINTS
 62
     0
100
AcDbPoint
 10
-34.04062434324781
 20
29.95102589680854
 30
0.0
  0
ENDBLK
  5
1DE
330
1D2
100
AcDbEntity
  8
0
100
AcDbBlockEnd
  0
BLOCK
  5
1EA
330
1DF
100
AcDbEntity
  8
0
100
AcDbBlockBegin
  2
*D7
 70
     1
 10
0.0
 20
0.0
 30
0.0
  3
*D7
  1

  0
LINE
  5
234
330
1DF
100
AcDbEntity
  8
SUNPO
 62
     0
370
    -2
100
AcDbLine
 10
21.40550265675205
 20
23.95102589680855
 30
0.0
 11
21.40550265675205
 21
31.95102589680854
 31
0.0
  0
LINE
  5
235
330
1DF
100
AcDbEntity
  8
SUNPO
 62
     0
370
    -2
100
AcDbLine
 10
26.75723515675185
 20
23.95102589680855
 30
0.0
 11
26.75723515675185
 21
31.95102589680854
 31
0.0
  0
LINE
  5
236
330
1DF
100
AcDbEntity
  8
SUNPO
 62
     0
370
    -2
100
AcDbLine
 10
23.40550265675205
 20
29.95102589680854
 30
0.0
 11
24.75723515675185
 21
29.95102589680854
 31
0.0
  0
LINE
  5
237
330
1DF
100
AcDbEntity
  8
SUNPO
 62
     0
370
    -2
100
AcDbLine
 10
26.75723515675185
 20
29.95102589680854
 30
0.0
 11
36.42390182341852
 21
29.95102589680854
 31
0.0
  0
INSERT
  5
238
330
1DF
100
AcDbEntity
  8
SUNPO
 62
     0
370
    -2
100
AcDbBlockReference
  2
_OPEN30
 10
21.40550265675205
 20
29.95102589680854
 30
0.0
 41
2.0
 42
2.0
 43
2.0
 50
180.0
  0
INSERT
  5
239
330
1DF
100
AcDbEntity
  8
SUNPO
 62
     0
370
    -2
100
AcDbBlockReference
  2
_OPEN30
 10
26.75723515675185
 20
29.95102589680854
 30
0.0
 41
2.0
 42
2.0
 43
2.0
  0
MTEXT
  5
23A
330
1DF
100
AcDbEntity
  8
SUNPO
 62
     0
100
AcDbMText
 10
32.59056849008518
 20
31.70102589680854
 30
0.0
 40
2.5
 41
0.0
 71
     5
 72
     1
  1
\A1;107
 73
     1
 44
1.0
1001
ACAD
1000
MTEXTBEGIN
1070
    73
1070
     1
1070
    44
1040
1.0
1070
    74
1070
     0
1000
MTEXTEND
  0
POINT
  5
23B
330
1DF
100
AcDbEntity
  8
DEFPOINTS
 62
     0
100
AcDbPoint
 10
21.40550265675205
 20
21.95102589680855
 30
0.0
  0
POINT
  5
23C
330
1DF
100
AcDbEntity
  8
DEFPOINTS
 62
     0
100
AcDbPoint
 10
26.75723515675185
 20
21.95102589680855
 30
0.0
  0
POINT
  5
23D
330
1DF
100
AcDbEntity
  8
DEFPOINTS
 62
     0
100
AcDbPoint
 10
26.75723515675185
 20
29.95102589680854
 30
0.0
  0
ENDBLK
  5
1EB
330
1DF
100
AcDbEntity
  8
0
100
AcDbBlockEnd
  0
BLOCK
  5
1F8
330
1EC
100
AcDbEntity
  8
0
100
AcDbBlockBegin
  2
*D8
 70
     1
 10
0.0
 20
0.0
 30
0.0
  3
*D8
  1

  0
LINE
  5
23E
330
1EC
100
AcDbEntity
  8
SUNPO
 62
     0
370
    -2
100
AcDbLine
 10
47.26313552542193
 20
23.95102589680855
 30
0.0
 11
47.26313552542193
 21
31.95102589680854
 31
0.0
  0
LINE
  5
23F
330
1EC
100
AcDbEntity
  8
SUNPO
 62
     0
370
    -2
100
AcDbLine
 10
51.71313552542193
 20
23.95102589680855
 30
0.0
 11
51.71313552542193
 21
31.95102589680854
 31
0.0
  0
LINE
  5
240
330
1EC
100
AcDbEntity
  8
SUNPO
 62
     0
370
    -2
100
AcDbLine
 10
45.26313552542194
 20
29.95102589680854
 30
0.0
 11
43.26313552542194
 21
29.95102589680854
 31
0.0
  0
LINE
  5
241
330
1EC
100
AcDbEntity
  8
SUNPO
 62
     0
370
    -2
100
AcDbLine
 10
53.71313552542194
 20
29.95102589680854
 30
0.0
 11
60.87980219208859
 21
29.95102589680854
 31
0.0
  0
LINE
  5
242
330
1EC
100
AcDbEntity
  8
SUNPO
 62
     0
370
    -2
100
AcDbLine
 10
47.26313552542193
 20
29.95102589680854
 30
0.0
 11
51.71313552542193
 21
29.95102589680854
 31
0.0
  0
INSERT
  5
243
330
1EC
100
AcDbEntity
  8
SUNPO
 62
     0
370
    -2
100
AcDbBlockReference
  2
_OPEN30
 10
47.26313552542193
 20
29.95102589680854
 30
0.0
 41
2.0
 42
2.0
 43
2.0
  0
INSERT
  5
244
330
1EC
100
AcDbEntity
  8
SUNPO
 62
     0
370
    -2
100
AcDbBlockReference
  2
_OPEN30
 10
51.71313552542193
 20
29.95102589680854
 30
0.0
 41
2.0
 42
2.0
 43
2.0
 50
180.0
  0
MTEXT
  5
245
330
1EC
100
AcDbEntity
  8
SUNPO
 62
     0
100
AcDbMText
 10
58.29646885875527
 20
31.70102589680854
 30
0.0
 40
2.5
 41
0.0
 71
     5
 72
     1
  1
\A1;89
 73
     1
 44
1.0
1001
ACAD
1000
MTEXTBEGIN
1070
    73
1070
     1
1070
    44
1040
1.0
1070
    74
1070
     0
1000
MTEXTEND
  0
POINT
  5
246
330
1EC
100
AcDbEntity
  8
DEFPOINTS
 62
     0
100
AcDbPoint
 10
47.26313552542193
 20
21.95102589680855
 30
0.0
  0
POINT
  5
247
330
1EC
100
AcDbEntity
  8
DEFPOINTS
 62
     0
100
AcDbPoint
 10
51.71313552542193
 20
21.95102589680855
 30
0.0
  0
POINT
  5
248
330
1EC
100
AcDbEntity
  8
DEFPOINTS
 62
     0
100
AcDbPoint
 10
51.71313552542193
 20
29.95102589680854
 30
0.0
  0
ENDBLK
  5
1F9
330
1EC
100
AcDbEntity
  8
0
100
AcDbBlockEnd
  0
BLOCK
  5
204
330
1FA
100
AcDbEntity
  8
0
100
AcDbBlockBegin
  2
*D9
 70
     1
 10
0.0
 20
0.0
 30
0.0
  3
*D9
  1

  0
LINE
  5
249
330
1FA
100
AcDbEntity
  8
SUNPO
 62
     0
370
    -2
100
AcDbLine
 10
-28.69449459324799
 20
23.95102589680849
 30
0.0
 11
-28.69449459324799
 21
31.95102589680848
 31
0.0
  0
LINE
  5
24A
330
1FA
100
AcDbEntity
  8
SUNPO
 62
     0
370
    -2
100
AcDbLine
 10
21.41110540675203
 20
23.95102589680849
 30
0.0
 11
21.41110540675203
 21
31.95102589680848
 31
0.0
  0
LINE
  5
24B
330
1FA
100
AcDbEntity
  8
SUNPO
 62
     0
370
    -2
100
AcDbLine
 10
-26.69449459324799
 20
29.95102589680849
 30
0.0
 11
19.41110540675203
 21
29.95102589680849
 31
0.0
  0
INSERT
  5
24C
330
1FA
100
AcDbEntity
  8
SUNPO
 62
     0
370
    -2
100
AcDbBlockReference
  2
_OPEN30
 10
-28.69449459324799
 20
29.95102589680849
 30
0.0
 41
2.0
 42
2.0
 43
2.0
 50
180.0
  0
INSERT
  5
24D
330
1FA
100
AcDbEntity
  8
SUNPO
 62
     0
370
    -2
100
AcDbBlockReference
  2
_OPEN30
 10
21.41110540675203
 20
29.95102589680849
 30
0.0
 41
2.0
 42
2.0
 43
2.0
  0
MTEXT
  5
24E
330
1FA
100
AcDbEntity
  8
SUNPO
 62
     0
100
AcDbMText
 10
-3.641694593247979
 20
31.70102589680849
 30
0.0
 40
2.5
 41
0.0
 71
     5
 72
     1
  1
\A1;1020
 73
     1
 44
1.0
1001
ACAD
1000
MTEXTBEGIN
1070
    73
1070
     1
1070
    44
1040
1.0
1070
    74
1070
     0
1000
MTEXTEND
  0
POINT
  5
24F
330
1FA
100
AcDbEntity
  8
DEFPOINTS
 62
     0
100
AcDbPoint
 10
-28.69449459324799
 20
21.95102589680848
 30
0.0
  0
POINT
  5
250
330
1FA
100
AcDbEntity
  8
DEFPOINTS
 62
     0
100
AcDbPoint
 10
21.41110540675203
 20
21.95102589680848
 30
0.0
  0
POINT
  5
251
330
1FA
100
AcDbEntity
  8
DEFPOINTS
 62
     0
100
AcDbPoint
 10
21.41110540675203
 20
29.95102589680849
 30
0.0
  0
ENDBLK
  5
205
330
1FA
100
AcDbEntity
  8
0
100
AcDbBlockEnd
  0
BLOCK
  5
210
330
206
100
AcDbEntity
  8
0
100
AcDbBlockBegin
  2
*D10
 70
     1
 10
0.0
 20
0.0
 30
0.0
  3
*D10
  1

  0
LINE
  5
252
330
206
100
AcDbEntity
  8
SUNPO
 62
     0
370
    -2
100
AcDbLine
 10
28.72926765388889
 20
-8.548687658840124
 30
0.0
 11
36.72926765388887
 21
-8.548687658840126
 31
0.0
  0
LINE
  5
253
330
206
100
AcDbEntity
  8
SUNPO
 62
     0
370
    -2
100
AcDbLine
 10
28.72926765388889
 20
21.95131234115988
 30
0.0
 11
36.72926765388888
 21
21.95131234115988
 31
0.0
  0
LINE
  5
254
330
206
100
AcDbEntity
  8
SUNPO
 62
     0
370
    -2
100
AcDbLine
 10
34.72926765388887
 20
-6.548687658840125
 30
0.0
 11
34.72926765388888
 21
19.95131234115987
 31
0.0
  0
INSERT
  5
255
330
206
100
AcDbEntity
  8
SUNPO
 62
     0
370
    -2
100
AcDbBlockReference
  2
_OPEN30
 10
34.72926765388887
 20
-8.548687658840124
 30
0.0
 41
2.0
 42
2.0
 43
2.0
 50
270.0
  0
INSERT
  5
256
330
206
100
AcDbEntity
  8
SUNPO
 62
     0
370
    -2
100
AcDbBlockReference
  2
_OPEN30
 10
34.72926765388888
 20
21.95131234115988
 30
0.0
 41
2.0
 42
2.0
 43
2.0
 50
90.0
  0
MTEXT
  5
257
330
206
100
AcDbEntity
  8
SUNPO
 62
     0
100
AcDbMText
 10
32.97926765388887
 20
6.701312341159881
 30
0.0
 40
2.5
 41
0.0
 71
     5
 72
     1
  1
\A1;610
 11
0.0000000000000001
 21
1.0
 31
0.0
 73
     1
 44
1.0
1001
ACAD
1000
MTEXTBEGIN
1070
    73
1070
     1
1070
    44
1040
1.0
1070
    74
1070
     0
1000
MTEXTEND
  0
POINT
  5
258
330
206
100
AcDbEntity
  8
DEFPOINTS
 62
     0
100
AcDbPoint
 10
26.72926765388889
 20
-8.548687658840123
 30
0.0
  0
POINT
  5
259
330
206
100
AcDbEntity
  8
DEFPOINTS
 62
     0
100
AcDbPoint
 10
26.72926765388889
 20
21.95131234115988
 30
0.0
  0
POINT
  5
25A
330
206
100
AcDbEntity
  8
DEFPOINTS
 62
     0
100
AcDbPoint
 10
34.72926765388888
 20
21.95131234115988
 30
0.0
  0
ENDBLK
  5
211
330
206
100
AcDbEntity
  8
0
100
AcDbBlockEnd
  0
ENDSEC
  0
SECTION
  2
ENTITIES
  0
TEXT
  5
33
330
2
100
AcDbEntity
  8
MOJI1
100
AcDbText
 10
-27.67536380847591
 20
49.31291625727729
 30
0.0
 40
4.0
  1
ハイビジョンプラズマディスプレイ（ＳＰ付）
100
AcDbText
  0
TEXT
  5
34
330
2
100
AcDbEntity
  8
TOUROKU
100
AcDbText
 10
25.52458622445165
 20
43.31291625727707
 30
0.0
 40
2.0
  1
ＴＨ４２ＰＨＤ８Ｋ＋ＴＹＳＰ４２Ｐ８Ｋ
 72
     2
 11
70.32458622445163
 21
43.31291625727707
 31
0.0
100
AcDbText
  0
DIMENSION
  5
36
330
2
100
AcDbEntity
  8
SUNPO
100
AcDbDimension
  2
*D10
 10
34.72926765388888
 20
21.95131234115988
 30
0.0
 11
32.97926765388887
 21
6.701312341159881
 31
0.0
 70
    33
  1
610
 71
     5
 42
30.5
  3
STANDARD
100
AcDbAlignedDimension
 13
26.72926765388889
 23
-8.548687658840123
 33
0.0
 14
26.72926765388889
 24
21.95131234115988
 34
0.0
1001
ACAD
1000
DSTYLE
1002
{
1070
    40
1040
1.0
1070
   140
1040
2.5
1070
   147
1040
0.5
1070
   172
1070
     1
1070
   279
1070
     0
1070
   288
1070
     0
1002
}
  0
DIMENSION
  5
45
330
2
100
AcDbEntity
  8
SUNPO
100
AcDbDimension
  2
*D9
 10
21.41110540675203
 20
29.95102589680849
 30
0.0
 11
-3.641694593247979
 21
31.70102589680849
 31
0.0
 70
    33
  1
1020
 71
     5
 42
50.10560000000002
  3
STANDARD
100
AcDbAlignedDimension
 13
-28.69449459324799
 23
21.95102589680848
 33
0.0
 14
21.41110540675203
 24
21.95102589680848
 34
0.0
1001
ACAD
1000
DSTYLE
1002
{
1070
    40
1040
1.0
1070
   140
1040
2.5
1070
   147
1040
0.5
1070
   172
1070
     1
1070
   279
1070
     0
1070
   288
1070
     0
1002
}
  0
DIMENSION
  5
52
330
2
100
AcDbEntity
  8
SUNPO
100
AcDbDimension
  2
*D8
 10
51.71313552542193
 20
29.95102589680854
 30
0.0
 11
58.29646885875527
 21
31.70102589680854
 31
0.0
 70
    33
  1
89
 71
     5
 42
4.449999999999995
  3
STANDARD
100
AcDbAlignedDimension
 13
47.26313552542193
 23
21.95102589680855
 33
0.0
 14
51.71313552542193
 24
21.95102589680855
 34
0.0
1001
ACAD
1000
DSTYLE
1002
{
1070
    40
1040
1.0
1070
   140
1040
2.5
1070
   147
1040
0.5
1070
   172
1070
     1
1070
   279
1070
     0
1070
   288
1070
     0
1002
}
  0
LINE
  5
61
330
2
100
AcDbEntity
  8
GAIKEI
  6
Continuous
 62
     1
100
AcDbLine
 10
-26.19449459324798
 20
-6.248687658840167
 30
0.0
 11
18.91110540675203
 21
-6.248687658840167
 31
0.0
  0
LINE
  5
63
330
2
100
AcDbEntity
  8
GAIKEI
  6
Continuous
 62
     1
100
AcDbLine
 10
-26.19449459324798
 20
19.65131234115981
 30
0.0
 11
18.91110540675203
 21
19.65131234115981
 31
0.0
  0
LINE
  5
64
330
2
100
AcDbEntity
  8
GAIKEI
  6
Continuous
 62
     1
100
AcDbLine
 10
-26.19449459324798
 20
-6.248687658840167
 30
0.0
 11
-26.19449459324798
 21
19.65131234115981
 31
0.0
  0
LINE
  5
65
330
2
100
AcDbEntity
  8
GAIKEI
  6
Continuous
 62
     1
100
AcDbLine
 10
18.91110540675203
 20
-6.248687658840167
 30
0.0
 11
18.91110540675203
 21
19.65131234115981
 31
0.0
  0
ARC
  5
66
330
2
100
AcDbEntity
  8
GAIKEI
  6
Continuous
100
AcDbCircle
 10
-28.49449459324794
 20
-8.348687658840191
 30
0.0
 40
0.2
100
AcDbArc
 50
180.0
 51
270.0
  0
LINE
  5
67
330
2
100
AcDbEntity
  8
GAIKEI
  6
Continuous
 62
     1
100
AcDbLine
 10
-25.75449459324804
 20
-8.023687658840144
 30
0.0
 11
-25.75449459324804
 21
-7.723687658840191
 31
0.0
  0
LINE
  5
68
330
2
100
AcDbEntity
  8
GAIKEI
  6
Continuous
 62
     1
100
AcDbLine
 10
-25.77949459324802
 20
-8.048687658840123
 30
0.0
 11
-26.07949459324797
 21
-8.048687658840123
 31
0.0
  0
LINE
  5
69
330
2
100
AcDbEntity
  8
GAIKEI
  6
Continuous
 62
     1
100
AcDbLine
 10
-27.60449459324795
 20
-7.833687658840204
 30
0.0
 11
-27.68449459324799
 21
-7.833687658840204
 31
0.0
  0
LINE
  5
6A
330
2
100
AcDbEntity
  8
GAIKEI
  6
Continuous
 62
     1
100
AcDbLine
 10
-27.60449459324795
 20
-7.913687658840133
 30
0.0
 11
-27.68449459324799
 21
-7.913687658840133
 31
0.0
  0
LINE
  5
6B
330
2
100
AcDbEntity
  8
GAIKEI
  6
Continuous
 62
     1
100
AcDbLine
 10
-27.60449459324795
 20
-7.913687658840133
 30
0.0
 11
-27.60449459324795
 21
-7.833687658840204
 31
0.0
  0
LINE
  5
6C
330
2
100
AcDbEntity
  8
GAIKEI
  6
Continuous
 62
     1
100
AcDbLine
 10
-27.68449459324799
 20
-7.913687658840133
 30
0.0
 11
-27.68449459324799
 21
-7.833687658840204
 31
0.0
  0
LINE
  5
6D
330
2
100
AcDbEntity
  8
GAIKEI
  6
Continuous
 62
     1
100
AcDbLine
 10
-25.77949459324802
 20
-7.698687658840157
 30
0.0
 11
-26.07949459324797
 21
-7.698687658840157
 31
0.0
  0
LINE
  5
6E
330
2
100
AcDbEntity
  8
GAIKEI
  6
Continuous
 62
     1
100
AcDbLine
 10
-26.10449459324795
 20
-8.023687658840144
 30
0.0
 11
-26.10449459324795
 21
-7.723687658840191
 31
0.0
  0
ARC
  5
6F
330
2
100
AcDbEntity
  8
GAIKEI
  6
Continuous
 62
     1
100
AcDbCircle
 10
-26.07949459324797
 20
-7.723687658840191
 30
0.0
 40
0.025
100
AcDbArc
 50
90.0
 51
180.0
  0
ARC
  5
70
330
2
100
AcDbEntity
  8
GAIKEI
  6
Continuous
 62
     1
100
AcDbCircle
 10
-25.77949459324802
 20
-7.723687658840191
 30
0.0
 40
0.025
100
AcDbArc
 50
0.0
 51
90.0
  0
ARC
  5
71
330
2
100
AcDbEntity
  8
GAIKEI
  6
Continuous
 62
     1
100
AcDbCircle
 10
-26.07949459324797
 20
-8.023687658840144
 30
0.0
 40
0.025
100
AcDbArc
 50
180.0
 51
270.0
  0
ARC
  5
72
330
2
100
AcDbEntity
  8
GAIKEI
  6
Continuous
 62
     1
100
AcDbCircle
 10
-25.77949459324802
 20
-8.023687658840144
 30
0.0
 40
0.025
100
AcDbArc
 50
270.0
 51
0.0
  0
ARC
  5
73
330
2
100
AcDbEntity
  8
GAIKEI
  6
Continuous
 62
     1
100
AcDbCircle
 10
-28.10949459324795
 20
-7.963687658840199
 30
0.0
 40
0.2
100
AcDbArc
 50
180.0
 51
270.0
  0
ARC
  5
74
330
2
100
AcDbEntity
  8
GAIKEI
  6
Continuous
100
AcDbCircle
 10
-28.49449459324794
 20
-8.348687658840191
 30
0.0
 40
0.2
100
AcDbArc
 50
180.0
 51
270.0
  0
ARC
  5
75
330
2
100
AcDbEntity
  8
GAIKEI
  6
Continuous
 62
     1
100
AcDbCircle
 10
-27.19449459324798
 20
-7.048687658840122
 30
0.0
 40
0.1
100
AcDbArc
 50
180.0
 51
270.0
  0
ARC
  5
76
330
2
100
AcDbEntity
  8
GAIKEI
  6
Continuous
 62
     1
100
AcDbCircle
 10
-27.19449459324798
 20
-7.048687658840122
 30
0.0
 40
0.18
100
AcDbArc
 50
180.0
 51
270.0
  0
ARC
  5
77
330
2
100
AcDbEntity
  8
GAIKEI
  6
Continuous
 62
     1
100
AcDbCircle
 10
-28.388368843248
 20
-8.242561908840142
 30
0.0
 40
0.2
100
AcDbArc
 50
180.0
 51
270.0
  0
ARC
  5
78
330
2
100
AcDbEntity
  8
GAIKEI
  6
Continuous
 62
     1
100
AcDbCircle
 10
-27.19449459324798
 20
-7.048687658840122
 30
0.0
 40
0.10628895
100
AcDbArc
 50
180.0
 51
270.0
  0
LINE
  5
79
330
2
100
AcDbEntity
  8
GAIKEI
  6
Continuous
 62
     1
100
AcDbLine
 10
-27.19449459324798
 20
-7.228687658840186
 30
0.0
 11
19.91110540675203
 21
-7.228687658840186
 31
0.0
  0
LINE
  5
7A
330
2
100
AcDbEntity
  8
GAIKEI
  6
Continuous
 62
     1
100
AcDbLine
 10
-28.388368843248
 20
-8.44256190884019
 30
0.0
 11
21.10497965675205
 21
-8.44256190884019
 31
0.0
  0
LINE
  5
7B
330
2
100
AcDbEntity
  8
GAIKEI
  6
Continuous
 62
     1
100
AcDbLine
 10
-27.19449459324798
 20
-7.154976608840144
 30
0.0
 11
19.91110540675203
 21
-7.1549766088402
 31
0.0
  0
LINE
  5
7C
330
2
100
AcDbEntity
  8
GAIKEI
  6
Continuous
 62
     1
100
AcDbLine
 10
-28.10949459324795
 20
-8.163687658840132
 30
0.0
 11
20.82610540675199
 21
-8.163687658840187
 31
0.0
  0
ARC
  5
7D
330
2
100
AcDbEntity
  8
GAIKEI
  6
Continuous
100
AcDbCircle
 10
21.21110540675198
 20
-8.348687658840191
 30
0.0
 40
0.2
100
AcDbArc
 50
270.0
 51
0.0
  0
ARC
  5
7E
330
2
100
AcDbEntity
  8
GAIKEI
  6
Continuous
 62
     1
100
AcDbCircle
 10
19.91110540675203
 20
-7.048687658840178
 30
0.0
 40
0.10628895
100
AcDbArc
 50
270.0
 51
0.0
  0
ARC
  5
7F
330
2
100
AcDbEntity
  8
GAIKEI
  6
Continuous
 62
     1
100
AcDbCircle
 10
19.91110540675203
 20
-7.048687658840178
 30
0.0
 40
0.18
100
AcDbArc
 50
270.0
 51
0.0
  0
ARC
  5
80
330
2
100
AcDbEntity
  8
GAIKEI
  6
Continuous
 62
     1
100
AcDbCircle
 10
19.91110540675203
 20
-7.048687658840178
 30
0.0
 40
0.1
100
AcDbArc
 50
270.0
 51
0.0
  0
ARC
  5
81
330
2
100
AcDbEntity
  8
GAIKEI
  6
Continuous
100
AcDbCircle
 10
21.21110540675198
 20
-8.348687658840191
 30
0.0
 40
0.2
100
AcDbArc
 50
270.0
 51
0.0
  0
ARC
  5
82
330
2
100
AcDbEntity
  8
GAIKEI
  6
Continuous
 62
     1
100
AcDbCircle
 10
20.82610540675199
 20
-7.963687658840199
 30
0.0
 40
0.2
100
AcDbArc
 50
270.0
 51
0.0
  0
ARC
  5
83
330
2
100
AcDbEntity
  8
GAIKEI
  6
Continuous
 62
     1
100
AcDbCircle
 10
21.10497965675205
 20
-8.242561908840201
 30
0.0
 40
0.2
100
AcDbArc
 50
270.0
 51
0.0
  0
LINE
  5
84
330
2
100
AcDbEntity
  8
GAIKEI
  6
Continuous
100
AcDbLine
 10
-28.49449459324794
 20
-8.548687658840178
 30
0.0
 11
21.21110540675198
 21
-8.548687658840178
 31
0.0
  0
LINE
  5
85
330
2
100
AcDbEntity
  8
GAIKEI
  6
Continuous
 62
     1
100
AcDbLine
 10
19.91110540675203
 20
-7.148687658840201
 30
0.0
 11
-27.19449459324798
 21
-7.148687658840144
 31
0.0
  0
ARC
  5
86
330
2
100
AcDbEntity
  8
GAIKEI
  6
Continuous
100
AcDbCircle
 10
21.21110540675198
 20
21.75131234115983
 30
0.0
 40
0.2
100
AcDbArc
 50
0.0
 51
90.0
  0
ARC
  5
87
330
2
100
AcDbEntity
  8
GAIKEI
  6
Continuous
 62
     1
100
AcDbCircle
 10
19.91110540675203
 20
20.45131234115982
 30
0.0
 40
0.10628895
100
AcDbArc
 50
0.0
 51
90.0
  0
ARC
  5
88
330
2
100
AcDbEntity
  8
GAIKEI
  6
Continuous
 62
     1
100
AcDbCircle
 10
19.91110540675203
 20
20.45131234115982
 30
0.0
 40
0.18
100
AcDbArc
 50
0.0
 51
90.0
  0
ARC
  5
89
330
2
100
AcDbEntity
  8
GAIKEI
  6
Continuous
 62
     1
100
AcDbCircle
 10
19.91110540675203
 20
20.45131234115982
 30
0.0
 40
0.1
100
AcDbArc
 50
0.0
 51
90.0
  0
ARC
  5
8A
330
2
100
AcDbEntity
  8
GAIKEI
  6
Continuous
100
AcDbCircle
 10
21.21110540675198
 20
21.75131234115983
 30
0.0
 40
0.2
100
AcDbArc
 50
0.0
 51
90.0
  0
ARC
  5
8B
330
2
100
AcDbEntity
  8
GAIKEI
  6
Continuous
 62
     1
100
AcDbCircle
 10
20.82610540675199
 20
21.36631234115984
 30
0.0
 40
0.2
100
AcDbArc
 50
0.0
 51
90.0
  0
ARC
  5
8C
330
2
100
AcDbEntity
  8
GAIKEI
  6
Continuous
 62
     1
100
AcDbCircle
 10
21.10497965675205
 20
21.64518659115978
 30
0.0
 40
0.2
100
AcDbArc
 50
0.0
 51
90.0
  0
LINE
  5
8D
330
2
100
AcDbEntity
  8
GAIKEI
  6
Continuous
 62
     1
100
AcDbLine
 10
20.82610540675199
 20
21.56631234115983
 30
0.0
 11
-28.10949459324795
 21
21.56631234115989
 31
0.0
  0
LINE
  5
8E
330
2
100
AcDbEntity
  8
GAIKEI
  6
Continuous
100
AcDbLine
 10
-28.49449459324794
 20
21.95131234115988
 30
0.0
 11
21.21110540675198
 21
21.95131234115982
 31
0.0
  0
LINE
  5
8F
330
2
100
AcDbEntity
  8
GAIKEI
  6
Continuous
 62
     1
100
AcDbLine
 10
19.91110540675203
 20
20.55131234115979
 30
0.0
 11
-27.19449459324798
 21
20.55131234115984
 31
0.0
  0
LINE
  5
90
330
2
100
AcDbEntity
  8
GAIKEI
  6
Continuous
 62
     1
100
AcDbLine
 10
19.91110540675203
 20
20.63131234115983
 30
0.0
 11
-27.19449459324798
 21
20.63131234115983
 31
0.0
  0
LINE
  5
91
330
2
100
AcDbEntity
  8
GAIKEI
  6
Continuous
 62
     1
100
AcDbLine
 10
19.91110540675203
 20
20.55760129115979
 30
0.0
 11
-27.19449459324798
 21
20.55760129115984
 31
0.0
  0
LINE
  5
92
330
2
100
AcDbEntity
  8
GAIKEI
  6
Continuous
 62
     1
100
AcDbLine
 10
21.02610540675204
 20
21.36631234115984
 30
0.0
 11
21.02610540675204
 21
-7.963687658840199
 31
0.0
  0
LINE
  5
93
330
2
100
AcDbEntity
  8
GAIKEI
  6
Continuous
100
AcDbLine
 10
21.41110540675203
 20
21.75131234115983
 30
0.0
 11
21.41110540675203
 21
-8.348687658840191
 31
0.0
  0
LINE
  5
94
330
2
100
AcDbEntity
  8
GAIKEI
  6
Continuous
 62
     1
100
AcDbLine
 10
20.01110540675205
 20
20.45131234115982
 30
0.0
 11
20.01110540675205
 21
-7.048687658840178
 31
0.0
  0
LINE
  5
95
330
2
100
AcDbEntity
  8
GAIKEI
  6
Continuous
 62
     1
100
AcDbLine
 10
20.09110540675198
 20
20.45131234115982
 30
0.0
 11
20.09110540675198
 21
-7.048687658840178
 31
0.0
  0
LINE
  5
96
330
2
100
AcDbEntity
  8
GAIKEI
  6
Continuous
 62
     1
100
AcDbLine
 10
21.30497965675198
 20
21.64518659115978
 30
0.0
 11
21.30497965675198
 21
-8.242561908840201
 31
0.0
  0
LINE
  5
97
330
2
100
AcDbEntity
  8
GAIKEI
  6
Continuous
 62
     1
100
AcDbLine
 10
20.01739435675205
 20
20.45131234115982
 30
0.0
 11
20.01739435675205
 21
-7.048687658840178
 31
0.0
  0
ARC
  5
98
330
2
100
AcDbEntity
  8
GAIKEI
  6
Continuous
100
AcDbCircle
 10
-28.49449459324794
 20
21.75131234115983
 30
0.0
 40
0.2
100
AcDbArc
 50
90.0
 51
180.0
  0
ARC
  5
99
330
2
100
AcDbEntity
  8
GAIKEI
  6
Continuous
 62
     1
100
AcDbCircle
 10
-27.19449459324798
 20
20.45131234115988
 30
0.0
 40
0.10628895
100
AcDbArc
 50
90.0
 51
180.0
  0
ARC
  5
9A
330
2
100
AcDbEntity
  8
GAIKEI
  6
Continuous
 62
     1
100
AcDbCircle
 10
-27.19449459324798
 20
20.45131234115988
 30
0.0
 40
0.18
100
AcDbArc
 50
90.0
 51
180.0
  0
ARC
  5
9B
330
2
100
AcDbEntity
  8
GAIKEI
  6
Continuous
 62
     1
100
AcDbCircle
 10
-27.19449459324798
 20
20.45131234115988
 30
0.0
 40
0.1
100
AcDbArc
 50
90.0
 51
180.0
  0
ARC
  5
9C
330
2
100
AcDbEntity
  8
GAIKEI
  6
Continuous
100
AcDbCircle
 10
-28.49449459324794
 20
21.75131234115983
 30
0.0
 40
0.2
100
AcDbArc
 50
90.0
 51
180.0
  0
ARC
  5
9D
330
2
100
AcDbEntity
  8
GAIKEI
  6
Continuous
 62
     1
100
AcDbCircle
 10
-28.10949459324795
 20
21.36631234115984
 30
0.0
 40
0.2
100
AcDbArc
 50
90.0
 51
180.0
  0
ARC
  5
9E
330
2
100
AcDbEntity
  8
GAIKEI
  6
Continuous
 62
     1
100
AcDbCircle
 10
-28.388368843248
 20
21.64518659115984
 30
0.0
 40
0.2
100
AcDbArc
 50
90.0
 51
180.0
  0
LINE
  5
9F
330
2
100
AcDbEntity
  8
GAIKEI
  6
Continuous
 62
     1
100
AcDbLine
 10
-28.58836884324793
 20
21.64518659115984
 30
0.0
 11
-28.58836884324793
 21
-8.242561908840142
 31
0.0
  0
LINE
  5
A0
330
2
100
AcDbEntity
  8
GAIKEI
  6
Continuous
100
AcDbLine
 10
-28.69449459324798
 20
-8.348687658840191
 30
0.0
 11
-28.69449459324798
 21
21.75131234115983
 31
0.0
  0
LINE
  5
A1
330
2
100
AcDbEntity
  8
GAIKEI
  6
Continuous
 62
     1
100
AcDbLine
 10
-28.388368843248
 20
21.84518659115983
 30
0.0
 11
21.10497965675205
 21
21.84518659115983
 31
0.0
  0
LINE
  5
A2
330
2
100
AcDbEntity
  8
GAIKEI
  6
Continuous
 62
     1
100
AcDbLine
 10
-28.30949459324799
 20
21.36631234115984
 30
0.0
 11
-28.30949459324799
 21
-7.963687658840199
 31
0.0
  0
LINE
  5
A3
330
2
100
AcDbEntity
  8
GAIKEI
  6
Continuous
 62
     1
100
AcDbLine
 10
-27.29449459324801
 20
20.45131234115988
 30
0.0
 11
-27.29449459324801
 21
-7.048687658840122
 31
0.0
  0
LINE
  5
A4
330
2
100
AcDbEntity
  8
GAIKEI
  6
Continuous
 62
     1
100
AcDbLine
 10
-27.37449459324793
 20
20.45131234115988
 30
0.0
 11
-27.37449459324793
 21
-7.048687658840122
 31
0.0
  0
LINE
  5
A5
330
2
100
AcDbEntity
  8
GAIKEI
  6
Continuous
 62
     1
100
AcDbLine
 10
-27.300783543248
 20
20.45131234115988
 30
0.0
 11
-27.300783543248
 21
-7.048687658840122
 31
0.0
  0
LINE
  5
A6
330
2
100
AcDbEntity
  8
GAIKEI
  6
Continuous
 62
     1
100
AcDbLine
 10
21.45669465675195
 20
21.65059385924789
 30
0.0
 11
21.44423990675199
 21
21.22282085924789
 31
0.0
  0
LINE
  5
A7
330
2
100
AcDbEntity
  8
GAIKEI
  6
Continuous
 62
     1
100
AcDbLine
 10
22.006039406752
 20
21.22281535924796
 30
0.0
 11
21.44423515675197
 21
21.22281535924796
 31
0.0
  0
LINE
  5
A8
330
2
100
AcDbEntity
  8
GAIKEI
  6
Continuous
100
AcDbLine
 10
21.42421665675187
 20
21.68059185924798
 30
0.0
 11
21.41111465675198
 21
21.23058735924789
 31
0.0
  0
LINE
  5
A9
330
2
100
AcDbEntity
  8
GAIKEI
  6
Continuous
 62
     1
100
AcDbLine
 10
21.99358840675194
 20
21.65058635924797
 30
0.0
 11
21.45668640675211
 21
21.65058635924797
 31
0.0
  0
LINE
  5
AA
330
2
100
AcDbEntity
  8
GAIKEI
  6
Continuous
100
AcDbLine
 10
21.47410590675185
 20
21.68059110924795
 30
0.0
 11
22.01343690675202
 21
21.68059110924795
 31
0.0
  0
LINE
  5
AB
330
2
100
AcDbEntity
  8
GAIKEI
  6
Continuous
100
AcDbLine
 10
21.45577090675187
 20
21.68059110924795
 30
0.0
 11
21.47410590675185
 21
21.68059110924795
 31
0.0
  0
LINE
  5
AC
330
2
100
AcDbEntity
  8
GAIKEI
  6
Continuous
100
AcDbLine
 10
21.45577090675187
 20
21.68059110924795
 30
0.0
 11
21.42422790675204
 21
21.68059110924795
 31
0.0
  0
SPLINE
  5
AD
330
2
100
AcDbEntity
  8
GAIKEI
  6
Continuous
 62
     1
100
AcDbSpline
210
0.0
220
0.0
230
1.0
 70
     8
 71
     3
 72
     9
 73
     5
 74
     3
 42
0.0000000001
 43
0.0000000001
 44
0.000001
 12
0.4555710774664803
 22
0.8901994121409149
 32
0.0
 13
0.4548274176199876
 23
0.8905795978918074
 33
0.0
 40
0.0
 40
0.0
 40
0.0
 40
0.0
 40
0.051779388816938
 40
0.1036079629296343
 40
0.1036079629296343
 40
0.1036079629296343
 40
0.1036079629296343
 10
26.71006779786348
 20
21.65373574774125
 30
0.0
 10
26.71793086184811
 20
21.66910040823653
 30
0.0
 10
26.73366089027174
 20
21.69984615076218
 30
0.0
 10
26.74937808110599
 20
21.73059845933333
 30
0.0
 10
26.75723576661352
 20
21.74598428289753
 30
0.0
 11
26.71006779786348
 21
21.65373574774125
 31
0.0
 11
26.73365021836179
 21
21.6998331932293
 31
0.0
 11
26.75723576661352
 21
21.74598428289753
 31
0.0
  0
LINE
  5
AE
330
2
100
AcDbEntity
  8
GAIKEI
  6
Continuous
100
AcDbLine
 10
21.97616890675198
 20
21.68059110924795
 30
0.0
 11
21.97616890675198
 21
21.65058635924797
 31
0.0
  0
SPLINE
  5
AF
330
2
100
AcDbEntity
  8
GAIKEI
  6
Continuous
100
AcDbSpline
210
0.0
220
0.0
230
1.0
 70
     8
 71
     3
 72
     9
 73
     5
 74
     3
 42
0.0000000001
 43
0.0000000001
 44
0.000001
 12
-0.9999883567442765
 22
-0.0048255959094992
 32
0.0
 13
-0.9289662195941573
 23
-0.3701645078244804
 33
0.0
 40
0.0
 40
0.0
 40
0.0
 40
0.0
 40
0.0006886604951602
 40
0.0013897972775131
 40
0.0013897972775131
 40
0.0013897972775131
 40
0.0013897972775131
 10
26.55624699708227
 20
21.95008584539753
 30
0.0
 10
26.55601744625664
 20
21.95008473766511
 30
0.0
 10
26.55555359383518
 20
21.95003025086411
 30
0.0
 10
26.55510912740871
 20
21.94989159566279
 30
0.0
 10
26.55489201661334
 20
21.9498050836788
 30
0.0
 11
26.55624699708227
 21
21.95008584539753
 31
0.0
 11
26.55556168024594
 21
21.95001025287294
 31
0.0
 11
26.55489201661334
 21
21.9498050836788
 31
0.0
  0
LINE
  5
B0
330
2
100
AcDbEntity
  8
GAIKEI
  6
Continuous
 62
     1
100
AcDbLine
 10
22.04847140675196
 20
21.61669735924792
 30
0.0
 11
22.28216265675195
 21
21.38277635924791
 31
0.0
  0
LINE
  5
B1
330
2
100
AcDbEntity
  8
GAIKEI
  6
Continuous
 62
     1
100
AcDbLine
 10
22.24823540675192
 20
21.81646560924796
 30
0.0
 11
22.48215640675192
 21
21.58277435924796
 31
0.0
  0
LINE
  5
B2
330
2
100
AcDbEntity
  8
GAIKEI
  6
Continuous
 62
     1
100
AcDbLine
 10
26.21463315675196
 20
21.55620160924796
 30
0.0
 11
22.50890815675206
 21
21.55620160924796
 31
0.0
  0
LINE
  5
B3
330
2
100
AcDbEntity
  8
GAIKEI
  6
Continuous
 62
     1
100
AcDbLine
 10
26.67482665675215
 20
21.6174263592479
 30
0.0
 11
26.44120840675185
 21
21.38282910924792
 31
0.0
  0
LINE
  5
B4
330
2
100
AcDbEntity
  8
GAIKEI
  6
Continuous
 62
     1
100
AcDbLine
 10
26.24124440675195
 20
21.58276760924795
 30
0.0
 11
26.47753465675208
 21
21.81838785924796
 31
0.0
  0
SPLINE
  5
B5
330
2
100
AcDbEntity
  8
GAIKEI
  6
Continuous
 62
     1
100
AcDbSpline
210
0.0
220
0.0
230
1.0
 70
     8
 71
     3
 72
     9
 73
     5
 74
     3
 42
0.0000000001
 43
0.0000000001
 44
0.000001
 12
-0.4193310596052151
 22
-0.9078333891471318
 32
0.0
 13
-0.4173617955917634
 23
-0.9087404093471464
 33
0.0
 40
0.0
 40
0.0
 40
0.0
 40
0.0
 40
0.0530945544881247
 40
0.106131274287737
 40
0.106131274287737
 40
0.106131274287737
 40
0.106131274287737
 10
26.55489201661334
 20
21.9498050836788
 30
0.0
 10
26.54747061801575
 20
21.9337380805634
 30
0.0
 10
26.53265466443389
 20
21.90161290776615
 30
0.0
 10
26.51787354416003
 20
21.86947169471791
 30
0.0
 10
26.51049504395741
 20
21.85340615789753
 30
0.0
 11
26.55489201661334
 21
21.9498050836788
 31
0.0
 11
26.53265530657171
 21
21.90159138719886
 31
0.0
 11
26.51049504395741
 21
21.85340615789753
 31
0.0
  0
LINE
  5
B6
330
2
100
AcDbEntity
  8
GAIKEI
  6
Continuous
 62
     1
100
AcDbLine
 10
21.9935909067521
 20
21.65058685924791
 30
0.0
 11
22.00604565675206
 21
21.22281385924791
 31
0.0
  0
LINE
  5
B7
330
2
100
AcDbEntity
  8
GAIKEI
  6
Continuous
100
AcDbLine
 10
21.91210640675189
 20
21.7528932021182
 30
0.0
 11
21.91210640675189
 21
21.68059110924795
 31
0.0
  0
LINE
  5
B8
330
2
100
AcDbEntity
  8
GAIKEI
  6
Continuous
100
AcDbLine
 10
21.91210640675189
 20
21.75311310924801
 30
0.0
 11
21.91204540675216
 21
21.75311310924801
 31
0.0
  0
LINE
  5
B9
330
2
100
AcDbEntity
  8
GAIKEI
  6
Continuous
100
AcDbLine
 10
21.91204590675187
 20
21.75311035924787
 30
0.0
 11
21.91203365675182
 21
21.75311035924787
 31
0.0
  0
LINE
  5
BA
330
2
100
AcDbEntity
  8
GAIKEI
  6
Continuous
100
AcDbLine
 10
26.75723565675202
 20
21.7459843592479
 30
0.0
 11
26.75729690675183
 21
21.7459843592479
 31
0.0
  0
LINE
  5
BB
330
2
100
AcDbEntity
  8
GAIKEI
100
AcDbLine
 10
22.11224542610961
 20
21.95289315380225
 30
0.0
 11
26.55737467610976
 21
21.94980335798974
 31
0.0
  0
LINE
  5
BC
330
2
100
AcDbEntity
  8
GAIKEI
 62
     1
100
AcDbLine
 10
22.24838025517755
 20
21.81646567508264
 30
0.0
 11
26.4748085051777
 21
21.81838662019041
 31
0.0
  0
ARC
  5
BD
330
2
100
AcDbEntity
  8
GAIKEI
  6
Continuous
 62
     1
100
AcDbCircle
 10
22.50890815675206
 20
21.35620160924791
 30
0.0
 40
0.2
100
AcDbArc
 50
90.0
 51
180.0
  0
ARC
  5
BE
330
2
100
AcDbEntity
  8
GAIKEI
 62
     1
100
AcDbCircle
 10
22.24847115675192
 20
21.6164656957404
 30
0.0
 40
0.2
100
AcDbArc
 50
90.02604138370831
 51
179.9999999999999
  0
ARC
  5
BF
330
2
100
AcDbEntity
  8
GAIKEI
100
AcDbCircle
 10
22.11210640675194
 20
21.7528932021182
 30
0.0
 40
0.2
100
AcDbArc
 50
89.96017388445935
 51
180.0
  0
ARC
  5
C0
330
2
100
AcDbEntity
  8
GAIKEI
 62
     1
100
AcDbCircle
 10
26.47489940675206
 20
21.61838664084811
 30
0.0
 40
0.2
100
AcDbArc
 50
0.0
 51
90.02604138370831
  0
ARC
  5
C1
330
2
100
AcDbEntity
  8
GAIKEI
100
AcDbCircle
 10
26.55723565675208
 20
21.74980340630569
 30
0.0
 40
0.2
100
AcDbArc
 50
0.0
 51
89.96017388445935
  0
ARC
  5
C2
330
2
100
AcDbEntity
  8
GAIKEI
  6
Continuous
 62
     1
100
AcDbCircle
 10
26.21463315675196
 20
21.35620160924791
 30
0.0
 40
0.2
100
AcDbArc
 50
0.0
 51
90.0
  0
ARC
  5
C3
330
2
100
AcDbEntity
  8
GAIKEI
  6
Continuous
 62
     1
100
AcDbCircle
 10
26.21463315675196
 20
-7.953642828867856
 30
0.0
 40
0.2
100
AcDbArc
 50
270.0
 51
0.0
  0
ARC
  5
C4
330
2
100
AcDbEntity
  8
GAIKEI
100
AcDbCircle
 10
26.55723565675208
 20
-8.347244625925581
 30
0.0
 40
0.2
100
AcDbArc
 50
270.0398261155407
 51
0.0
  0
ARC
  5
C5
330
2
100
AcDbEntity
  8
GAIKEI
 62
     1
100
AcDbCircle
 10
26.47489940675206
 20
-8.215827860468067
 30
0.0
 40
0.2
100
AcDbArc
 50
269.9739586162916
 51
0.0
  0
ARC
  5
C6
330
2
100
AcDbEntity
  8
GAIKEI
100
AcDbCircle
 10
22.11210640675194
 20
-8.350334421738152
 30
0.0
 40
0.2
100
AcDbArc
 50
180.0
 51
270.0398261155407
  0
ARC
  5
C7
330
2
100
AcDbEntity
  8
GAIKEI
 62
     1
100
AcDbCircle
 10
22.24847115675192
 20
-8.213906915360297
 30
0.0
 40
0.2
100
AcDbArc
 50
180.0
 51
269.9739586162916
  0
ARC
  5
C8
330
2
100
AcDbEntity
  8
GAIKEI
  6
Continuous
 62
     1
100
AcDbCircle
 10
22.50890815675206
 20
-7.953642828867856
 30
0.0
 40
0.2
100
AcDbArc
 50
180.0
 51
270.0
  0
LINE
  5
C9
330
2
100
AcDbEntity
  8
GAIKEI
 62
     1
100
AcDbLine
 10
22.24838025517755
 20
-8.41390689470259
 30
0.0
 11
26.4748085051777
 21
-8.415827839810305
 31
0.0
  0
LINE
  5
CA
330
2
100
AcDbEntity
  8
GAIKEI
100
AcDbLine
 10
22.11224542610961
 20
-8.550334373422201
 30
0.0
 11
26.55737467610976
 21
-8.547244577609633
 31
0.0
  0
DIMENSION
  5
CB
330
2
100
AcDbEntity
  8
SUNPO
100
AcDbDimension
  2
*D7
 10
26.75723515675185
 20
29.95102589680854
 30
0.0
 11
32.59056849008518
 21
31.70102589680854
 31
0.0
 70
    33
  1
107
 71
     5
 42
5.351732499999801
  3
STANDARD
100
AcDbAlignedDimension
 13
21.40550265675205
 23
21.95102589680855
 33
0.0
 14
26.75723515675185
 24
21.95102589680855
 34
0.0
1001
ACAD
1000
DSTYLE
1002
{
1070
    40
1040
1.0
1070
   140
1040
2.5
1070
   147
1040
0.5
1070
   172
1070
     1
1070
   279
1070
     0
1070
   288
1070
     0
1002
}
  0
LINE
  5
D9
330
2
100
AcDbEntity
  8
GAIKEI
  6
Continuous
100
AcDbLine
 10
22.01343690675202
 20
21.68059110924795
 30
0.0
 11
22.01343690675202
 21
-8.214067578867881
 31
0.0
  0
LINE
  5
DA
330
2
100
AcDbEntity
  8
GAIKEI
  6
Continuous
 62
     1
100
AcDbLine
 10
22.04847115675187
 20
21.6164656957404
 30
0.0
 11
22.04847115675187
 21
-8.213906915360297
 31
0.0
  0
LINE
  5
DB
330
2
100
AcDbEntity
  8
GAIKEI
  6
Continuous
 62
     1
100
AcDbLine
 10
26.67489940675199
 20
21.61838664084811
 30
0.0
 11
26.67489940675199
 21
-8.215827860468067
 31
0.0
  0
LINE
  5
DC
330
2
100
AcDbEntity
  8
GAIKEI
  6
Continuous
 62
     1
100
AcDbLine
 10
26.41463315675191
 20
21.35620160924791
 30
0.0
 11
26.41463315675191
 21
-7.953642828867856
 31
0.0
  0
LINE
  5
DD
330
2
100
AcDbEntity
  8
GAIKEI
  6
Continuous
100
AcDbLine
 10
26.75723565675202
 20
-8.343425578867851
 30
0.0
 11
26.75729690675183
 21
-8.343425578867851
 31
0.0
  0
LINE
  5
DE
330
2
100
AcDbEntity
  8
GAIKEI
  6
Continuous
100
AcDbLine
 10
26.75723565675202
 20
-8.347244625925581
 30
0.0
 11
26.75723565675202
 21
21.7459843592479
 31
0.0
  0
LINE
  5
DF
330
2
100
AcDbEntity
  8
GAIKEI
  6
Continuous
 62
     1
100
AcDbLine
 10
22.30890815675201
 20
-7.953642828867856
 30
0.0
 11
22.30890815675201
 21
21.35620160924791
 31
0.0
  0
LINE
  5
E0
330
2
100
AcDbEntity
  8
GAIKEI
  6
Continuous
100
AcDbLine
 10
21.91204590675187
 20
-8.350551578867822
 30
0.0
 11
21.91203365675182
 21
-8.350551578867822
 31
0.0
  0
LINE
  5
E1
330
2
100
AcDbEntity
  8
GAIKEI
  6
Continuous
100
AcDbLine
 10
21.91210640675189
 20
-8.3505543288679
 30
0.0
 11
21.91204540675216
 21
-8.3505543288679
 31
0.0
  0
LINE
  5
E2
330
2
100
AcDbEntity
  8
GAIKEI
  6
Continuous
100
AcDbLine
 10
21.91210640675189
 20
-8.350334421738152
 30
0.0
 11
21.91210640675189
 21
-8.278032328867851
 31
0.0
  0
LINE
  5
E3
330
2
100
AcDbEntity
  8
GAIKEI
  6
Continuous
 62
     1
100
AcDbLine
 10
21.9935909067521
 20
-8.248028078867861
 30
0.0
 11
22.00604565675206
 21
-7.820255078867858
 31
0.0
  0
SPLINE
  5
E4
330
2
100
AcDbEntity
  8
GAIKEI
  6
Continuous
 62
     1
100
AcDbSpline
210
0.0
220
0.0
230
1.0
 70
     8
 71
     3
 72
     9
 73
     5
 74
     3
 42
0.0000000001
 43
0.0000000001
 44
0.000001
 12
-0.4193310596052152
 22
0.9078333891471318
 32
0.0
 13
-0.4173617955917634
 23
0.9087404093471464
 33
0.0
 40
0.0
 40
0.0
 40
0.0
 40
0.0
 40
0.0530945544880686
 40
0.1061312742876886
 40
0.1061312742876886
 40
0.1061312742876886
 40
0.1061312742876886
 10
26.55489201661334
 20
-8.547246303298692
 30
0.0
 10
26.54747061801576
 20
-8.531179300183305
 30
0.0
 10
26.53265466443389
 20
-8.499054127386077
 30
0.0
 10
26.51787354416003
 20
-8.466912914337855
 30
0.0
 10
26.51049504395741
 20
-8.450847377517476
 30
0.0
 11
26.55489201661334
 21
-8.547246303298692
 31
0.0
 11
26.53265530657171
 21
-8.499032606818815
 31
0.0
 11
26.51049504395741
 21
-8.450847377517476
 31
0.0
  0
LINE
  5
E5
330
2
100
AcDbEntity
  8
GAIKEI
  6
Continuous
 62
     1
100
AcDbLine
 10
26.24124440675195
 20
-8.180208828867847
 30
0.0
 11
26.47753465675208
 21
-8.415829078867856
 31
0.0
  0
LINE
  5
E6
330
2
100
AcDbEntity
  8
GAIKEI
  6
Continuous
 62
     1
100
AcDbLine
 10
26.67482665675215
 20
-8.214867578867853
 30
0.0
 11
26.44120840675185
 21
-7.980270328867874
 31
0.0
  0
LINE
  5
E7
330
2
100
AcDbEntity
  8
GAIKEI
  6
Continuous
 62
     1
100
AcDbLine
 10
26.21463315675196
 20
-8.153642828867845
 30
0.0
 11
22.50890815675206
 21
-8.153642828867845
 31
0.0
  0
LINE
  5
E8
330
2
100
AcDbEntity
  8
GAIKEI
  6
Continuous
 62
     1
100
AcDbLine
 10
22.24823540675192
 20
-8.413906828867851
 30
0.0
 11
22.48215640675192
 21
-8.180215578867857
 31
0.0
  0
LINE
  5
E9
330
2
100
AcDbEntity
  8
GAIKEI
  6
Continuous
 62
     1
100
AcDbLine
 10
22.04847140675196
 20
-8.214138578867874
 30
0.0
 11
22.28216265675195
 21
-7.980217578867866
 31
0.0
  0
SPLINE
  5
EA
330
2
100
AcDbEntity
  8
GAIKEI
  6
Continuous
100
AcDbSpline
210
0.0
220
0.0
230
1.0
 70
     8
 71
     3
 72
     9
 73
     5
 74
     3
 42
0.0000000001
 43
0.0000000001
 44
0.000001
 12
-0.9999883567442765
 22
0.0048255959094992
 32
0.0
 13
-0.9289662195941573
 23
0.3701645078244804
 33
0.0
 40
0.0
 40
0.0
 40
0.0
 40
0.0
 40
0.0006886604951559
 40
0.0013897972775239
 40
0.0013897972775239
 40
0.0013897972775239
 40
0.0013897972775239
 10
26.55624699708227
 20
-8.547527065017476
 30
0.0
 10
26.55601744625664
 20
-8.547525957285053
 30
0.0
 10
26.55555359383517
 20
-8.547471470484026
 30
0.0
 10
26.55510912740872
 20
-8.547332815282679
 30
0.0
 10
26.55489201661334
 20
-8.547246303298692
 30
0.0
 11
26.55624699708227
 21
-8.547527065017476
 31
0.0
 11
26.55556168024594
 21
-8.547451472492895
 31
0.0
 11
26.55489201661334
 21
-8.547246303298692
 31
0.0
  0
LINE
  5
EB
330
2
100
AcDbEntity
  8
GAIKEI
  6
Continuous
100
AcDbLine
 10
21.97616890675198
 20
-8.278032328867851
 30
0.0
 11
21.97616890675198
 21
-8.248027578867862
 31
0.0
  0
SPLINE
  5
EC
330
2
100
AcDbEntity
  8
GAIKEI
  6
Continuous
 62
     1
100
AcDbSpline
210
0.0
220
0.0
230
1.0
 70
     8
 71
     3
 72
     9
 73
     5
 74
     3
 42
0.0000000001
 43
0.0000000001
 44
0.000001
 12
0.4555710774664803
 22
-0.8901994121409149
 32
0.0
 13
0.4548274176199876
 23
-0.8905795978918074
 33
0.0
 40
0.0
 40
0.0
 40
0.0
 40
0.0
 40
0.0517793888168824
 40
0.1036079629296296
 40
0.1036079629296296
 40
0.1036079629296296
 40
0.1036079629296296
 10
26.71006779786348
 20
-8.251176967361201
 30
0.0
 10
26.7179308618481
 20
-8.266541627856469
 30
0.0
 10
26.73366089027173
 20
-8.297287370382106
 30
0.0
 10
26.74937808110598
 20
-8.328039678953263
 30
0.0
 10
26.75723576661352
 20
-8.343425502517476
 30
0.0
 11
26.71006779786348
 21
-8.251176967361201
 31
0.0
 11
26.73365021836179
 21
-8.297274412849191
 31
0.0
 11
26.75723576661352
 21
-8.343425502517476
 31
0.0
  0
LINE
  5
ED
330
2
100
AcDbEntity
  8
GAIKEI
  6
Continuous
 62
     1
100
AcDbLine
 10
22.006039406752
 20
21.22279085924785
 30
0.0
 11
22.006039406752
 21
-7.820256578867854
 31
0.0
  0
LINE
  5
EE
330
2
100
AcDbEntity
  8
GAIKEI
  6
Continuous
100
AcDbLine
 10
21.45577090675187
 20
-8.278032328867851
 30
0.0
 11
21.42422790675204
 21
-8.278032328867851
 31
0.0
  0
LINE
  5
EF
330
2
100
AcDbEntity
  8
GAIKEI
  6
Continuous
100
AcDbLine
 10
21.45577090675187
 20
-8.278032328867851
 30
0.0
 11
21.47410590675185
 21
-8.278032328867851
 31
0.0
  0
LINE
  5
F0
330
2
100
AcDbEntity
  8
GAIKEI
  6
Continuous
100
AcDbLine
 10
21.47410590675185
 20
-8.278032328867851
 30
0.0
 11
21.97616890675198
 21
-8.278032328867851
 31
0.0
  0
LINE
  5
F1
330
2
100
AcDbEntity
  8
GAIKEI
  6
Continuous
 62
     1
100
AcDbLine
 10
21.99358840675194
 20
-8.248027578867862
 30
0.0
 11
21.45668640675211
 21
-8.248027578867862
 31
0.0
  0
LINE
  5
F2
330
2
100
AcDbEntity
  8
GAIKEI
  6
Continuous
100
AcDbLine
 10
21.41110540675203
 20
21.23056685924789
 30
0.0
 11
21.41110540675203
 21
-7.828032328867862
 31
0.0
  0
LINE
  5
F3
330
2
100
AcDbEntity
  8
GAIKEI
  6
Continuous
100
AcDbLine
 10
21.42421665675187
 20
-8.278033078867878
 30
0.0
 11
21.41111465675198
 21
-7.828028578867844
 31
0.0
  0
LINE
  5
F4
330
2
100
AcDbEntity
  8
GAIKEI
  6
Continuous
 62
     1
100
AcDbLine
 10
22.006039406752
 20
-7.820256578867854
 30
0.0
 11
21.44423515675197
 21
-7.820256578867854
 31
0.0
  0
LINE
  5
F5
330
2
100
AcDbEntity
  8
GAIKEI
  6
Continuous
 62
     1
100
AcDbLine
 10
21.45669465675195
 20
-8.248035078867843
 30
0.0
 11
21.44423990675199
 21
-7.82026207886784
 31
0.0
  0
LINE
  5
F6
330
2
100
AcDbEntity
  8
GAIKEI
  6
Continuous
 62
     1
100
AcDbLine
 10
47.26313552542193
 20
21.31877664604164
 30
0.0
 11
47.41743002542189
 21
21.56465514680869
 31
0.0
  0
LINE
  5
F7
330
2
100
AcDbEntity
  8
GAIKEI
  6
Continuous
 62
     1
100
AcDbLine
 10
47.41742402542189
 20
-8.206814158839987
 30
0.0
 11
47.27077652542192
 21
-7.973121658839913
 31
0.0
  0
LINE
  5
F8
330
2
100
AcDbEntity
  8
GAIKEI
  6
Continuous
 62
     1
100
AcDbLine
 10
49.41051552542194
 20
21.70102214680875
 30
0.0
 11
47.47934352542193
 21
21.59981364680877
 31
0.0
  0
LINE
  5
F9
330
2
100
AcDbEntity
  8
GAIKEI
  6
Continuous
 62
     1
100
AcDbLine
 10
47.47934452542193
 20
-8.241972658839955
 30
0.0
 11
49.41051702542189
 21
-8.343181158839938
 31
0.0
  0
LINE
  5
FA
330
2
100
AcDbEntity
  8
GAIKEI
  6
Continuous
 62
     1
100
AcDbLine
 10
49.41051252542188
 20
21.7010206468087
 30
0.0
 11
49.46313252542188
 21
21.7010206468087
 31
0.0
  0
SPLINE
  5
FB
330
2
100
AcDbEntity
  8
GAIKEI
  6
Continuous
 62
     1
100
AcDbSpline
210
0.0
220
0.0
230
1.0
 70
     8
 71
     3
 72
     9
 73
     5
 74
     3
 42
0.0000000001
 43
0.0000000001
 44
0.000001
 12
-0.9986940660429823
 22
0.0510897489770252
 32
0.0
 13
0.0131185329912131
 23
0.9999139483436355
 33
0.0
 40
0.0
 40
0.0
 40
0.0
 40
0.0
 40
0.0591989648589289
 40
0.2000102042156893
 40
0.2000102042156893
 40
0.2000102042156893
 40
0.2000102042156893
 10
49.4105200134761
 20
-8.543180676400112
 30
0.0
 10
49.39081279516926
 20
-8.542172522981998
 30
0.0
 10
49.43156513393344
 20
-8.434528538304533
 30
0.0
 10
49.40990426784642
 20
-8.390116768930051
 30
0.0
 10
49.4105200134761
 20
-8.343183728157924
 30
0.0
 11
49.4105200134761
 21
-8.543180676400112
 31
0.0
 11
49.40946959523318
 21
-8.483990344412774
 31
0.0
 11
49.4105200134761
 21
-8.343183728157924
 31
0.0
  0
LINE
  5
FC
330
2
100
AcDbEntity
  8
GAIKEI
  6
Continuous
 62
     1
100
AcDbLine
 10
49.41051252542188
 20
-8.343176158839952
 30
0.0
 11
49.46313252542188
 21
-8.343176158839952
 31
0.0
  0
SPLINE
  5
FD
330
2
100
AcDbEntity
  8
GAIKEI
  6
Continuous
 62
     1
100
AcDbSpline
210
0.0
220
0.0
230
1.0
 70
     8
 71
     3
 72
     9
 73
     5
 74
     3
 42
0.0000000001
 43
0.0000000001
 44
0.000001
 12
0.4779496510331568
 22
0.8783872329885515
 32
0.0
 13
-0.0589188432824472
 23
0.9982627759794803
 33
0.0
 40
0.0
 40
0.0
 40
0.0
 40
0.0
 40
0.0492615344403881
 40
0.1516766916409004
 40
0.1516766916409004
 40
0.1516766916409004
 40
0.1516766916409004
 10
47.41687529912048
 20
-8.401121350228237
 30
0.0
 10
47.42472347685219
 20
-8.386697782584949
 30
0.0
 10
47.41522997087915
 20
-8.332264439480615
 30
0.0
 10
47.41888669331942
 20
-8.283665395758335
 30
0.0
 10
47.41687529912048
 20
-8.249586316048549
 30
0.0
 11
47.41687529912048
 21
-8.401121350228237
 31
0.0
 11
47.41994303703154
 21
-8.351955184703141
 31
0.0
 11
47.41687529912048
 21
-8.249586316048549
 31
0.0
  0
SPLINE
  5
FE
330
2
100
AcDbEntity
  8
GAIKEI
  6
Continuous
 62
     1
100
AcDbSpline
210
0.0
220
0.0
230
1.0
 70
     8
 71
     3
 72
     9
 73
     5
 74
     3
 42
0.0000000001
 43
0.0000000001
 44
0.000001
 12
0.054120045401226
 22
-0.9985344364045584
 32
0.0
 13
-0.9986449691918764
 23
0.0520406140217073
 33
0.0
 40
0.0
 40
0.0
 40
0.0
 40
0.0
 40
0.1409808087219253
 40
0.2001695318905985
 40
0.2001695318905985
 40
0.2001695318905985
 40
0.2001695318905985
 10
47.47934478154252
 20
-8.241972180306362
 30
0.0
 10
47.48188807746543
 20
-8.28889691110003
 30
0.0
 10
47.4644495434329
 20
-8.331066918739434
 30
0.0
 10
47.49904762175095
 20
-8.442995867714168
 30
0.0
 10
47.47934478154252
 20
-8.441969128548549
 30
0.0
 11
47.47934478154252
 21
-8.241972180306362
 31
0.0
 11
47.4831359431226
 21
-8.382901226102291
 31
0.0
 11
47.47934478154252
 21
-8.441969128548549
 31
0.0
  0
SPLINE
  5
FF
330
2
100
AcDbEntity
  8
GAIKEI
  6
Continuous
 62
     1
100
AcDbSpline
210
0.0
220
0.0
230
1.0
 70
     8
 71
     3
 72
     9
 73
     5
 74
     3
 42
0.0000000001
 43
0.0000000001
 44
0.000001
 12
-0.0588032101926859
 22
0.9982695940831989
 32
0.0
 13
0.1041615589846991
 23
0.9945603901372088
 33
0.0
 40
0.0
 40
0.0
 40
0.0
 40
0.0
 40
0.0207440243980641
 40
0.0428112243212048
 40
0.0428112243212048
 40
0.0428112243212048
 40
0.0428112243212048
 10
47.41687529912048
 20
-8.249586316048549
 30
0.0
 10
47.41646869404483
 20
-8.24268360644338
 30
0.0
 10
47.41594482113482
 20
-8.228413150151885
 30
0.0
 10
47.41666606027243
 20
-8.214131651294627
 30
0.0
 10
47.41743224492124
 20
-8.206815930306362
 30
0.0
 11
47.41687529912048
 21
-8.249586316048549
 31
0.0
 11
47.41625240078024
 21
-8.228851942568468
 31
0.0
 11
47.41743224492124
 21
-8.206815930306362
 31
0.0
  0
SPLINE
  5
100
330
2
100
AcDbEntity
  8
GAIKEI
  6
Continuous
 62
     1
100
AcDbSpline
210
0.0
220
0.0
230
1.0
 70
     8
 71
     3
 72
     9
 73
     5
 74
     3
 42
0.0000000001
 43
0.0000000001
 44
0.000001
 12
-0.0002686405243752
 22
-0.9999999639161337
 32
0.0
 13
0.1172432147065857
 23
-0.9931032315954196
 33
0.0
 40
0.0
 40
0.0
 40
0.0
 40
0.0
 40
0.017619625379838
 40
0.0352474424880975
 40
0.0352474424880975
 40
0.0352474424880975
 40
0.0352474424880975
 10
47.47703307499953
 20
-8.206815930306362
 30
0.0
 10
47.47703149721774
 20
-8.212689138554379
 30
0.0
 10
47.47749880038766
 20
-8.224440500646236
 30
0.0
 10
47.47865586756051
 20
-8.236136766260967
 30
0.0
 10
47.47934478154252
 20
-8.241972180306362
 30
0.0
 11
47.47703307499953
 21
-8.206815930306362
 31
0.0
 11
47.47767108564828
 21
-8.224425001292871
 31
0.0
 11
47.47934478154252
 21
-8.241972180306362
 31
0.0
  0
SPLINE
  5
101
330
2
100
AcDbEntity
  8
GAIKEI
  6
Continuous
 62
     1
100
AcDbSpline
210
0.0
220
0.0
230
1.0
 70
     8
 71
     3
 72
     9
 73
     5
 74
     3
 42
0.0000000001
 43
0.0000000001
 44
0.000001
 12
-0.9930967486082368
 22
-0.1172981155166132
 32
0.0
 13
-0.991630435699232
 23
-0.1291087874428041
 33
0.0
 40
0.0
 40
0.0
 40
0.0
 40
0.0
 40
0.0368861725404672
 40
0.0629319564268703
 40
0.0629319564268703
 40
0.0629319564268703
 40
0.0629319564268703
 10
47.47934478154252
 20
-8.241972180306362
 30
0.0
 10
47.46713426886968
 20
-8.243414406482234
 30
0.0
 10
47.44630743835521
 20
-8.245921839023468
 30
0.0
 10
47.42548456312827
 20
-8.248465402856693
 30
0.0
 10
47.41687529912048
 20
-8.249586316048549
 30
0.0
 11
47.47934478154252
 21
-8.241972180306362
 31
0.0
 11
47.4427213855631
 21
-8.24636716301498
 31
0.0
 11
47.41687529912048
 21
-8.249586316048549
 31
0.0
  0
LINE
  5
102
330
2
100
AcDbEntity
  8
GAIKEI
  6
Continuous
 62
     1
100
AcDbLine
 10
47.41743202542193
 20
21.56466114680867
 30
0.0
 11
47.41743202542193
 21
-8.206816158839984
 31
0.0
  0
LINE
  5
103
330
2
100
AcDbEntity
  8
GAIKEI
  6
Continuous
 62
     1
100
AcDbLine
 10
47.4770330254219
 20
21.56466114680867
 30
0.0
 11
47.4770330254219
 21
-8.206816158839984
 31
0.0
  0
LINE
  5
104
330
2
100
AcDbEntity
  8
GAIKEI
  6
Continuous
 62
     1
100
AcDbLine
 10
47.4770330254219
 20
-8.206816158839984
 30
0.0
 11
47.41743202542193
 21
-8.206816158839984
 31
0.0
  0
SPLINE
  5
105
330
2
100
AcDbEntity
  8
GAIKEI
  6
Continuous
 62
     1
100
AcDbSpline
210
0.0
220
0.0
230
1.0
 70
     8
 71
     3
 72
     9
 73
     5
 74
     3
 42
0.0000000001
 43
0.0000000001
 44
0.000001
 12
-0.0588032101926859
 22
-0.9982695940831989
 32
0.0
 13
0.1041615589846991
 23
-0.9945603901372088
 33
0.0
 40
0.0
 40
0.0
 40
0.0
 40
0.0
 40
0.0207478393861266
 40
0.0428188466135652
 40
0.0428188466135652
 40
0.0428188466135652
 40
0.0428188466135652
 10
47.41687529912048
 20
21.60743134604544
 30
0.0
 10
47.41646861926699
 20
21.60052736697808
 30
0.0
 10
47.41594492076687
 20
21.58625436980266
 30
0.0
 10
47.41666592808085
 20
21.571970314095
 30
0.0
 10
47.41743224492124
 20
21.56465333090872
 30
0.0
 11
47.41687529912048
 21
21.60743134604544
 31
0.0
 11
47.41625240078024
 21
21.5866931578681
 31
0.0
 11
47.41743224492124
 21
21.56465333090872
 31
0.0
  0
SPLINE
  5
106
330
2
100
AcDbEntity
  8
GAIKEI
  6
Continuous
 62
     1
100
AcDbSpline
210
0.0
220
0.0
230
1.0
 70
     8
 71
     3
 72
     9
 73
     5
 74
     3
 42
0.0000000001
 43
0.0000000001
 44
0.000001
 12
-0.117243214706586
 22
-0.9931032315954196
 32
0.0
 13
0.0002686405243751
 23
-0.9999999639161337
 33
0.0
 40
0.0
 40
0.0
 40
0.0
 40
0.0
 40
0.0176316160067231
 40
0.0352550539544103
 40
0.0352550539544103
 40
0.0352550539544103
 40
0.0352550539544103
 10
47.47934478154252
 20
21.59981721030327
 30
0.0
 10
47.47865571909549
 20
21.59398053869176
 30
0.0
 10
47.47749881284192
 20
21.58228170317684
 30
0.0
 10
47.47703149687633
 20
21.57052781001264
 30
0.0
 10
47.47703307499953
 20
21.56465333090872
 30
0.0
 11
47.47934478154252
 21
21.59981721030327
 31
0.0
 11
47.47767108564828
 21
21.5822662165925
 31
0.0
 11
47.47703307499953
 21
21.56465333090872
 31
0.0
  0
LINE
  5
107
330
2
100
AcDbEntity
  8
GAIKEI
  6
Continuous
 62
     1
100
AcDbLine
 10
47.4770330254219
 20
21.56466114680867
 30
0.0
 11
47.41743202542193
 21
21.56466114680867
 31
0.0
  0
SPLINE
  5
108
330
2
100
AcDbEntity
  8
GAIKEI
  6
Continuous
 62
     1
100
AcDbSpline
210
0.0
220
0.0
230
1.0
 70
     8
 71
     3
 72
     9
 73
     5
 74
     3
 42
0.0000000001
 43
0.0000000001
 44
0.000001
 12
0.4779823182660964
 22
-0.8783694572473295
 32
0.0
 13
-0.058916846215057
 23
-0.9982628938471426
 33
0.0
 40
0.0
 40
0.0
 40
0.0
 40
0.0
 40
0.0492145710714879
 40
0.1516690372111212
 40
0.1516690372111212
 40
0.1516690372111212
 40
0.1516690372111212
 10
47.41687529912048
 20
21.7589587508306
 30
0.0
 10
47.42471653071155
 20
21.74454922547036
 30
0.0
 10
47.41522760248006
 20
21.69011914133447
 30
0.0
 10
47.41888739712901
 20
21.64152350999748
 30
0.0
 10
47.41687529912048
 20
21.60743134604544
 30
0.0
 11
47.41687529912048
 21
21.7589587508306
 31
0.0
 11
47.41994196740761
 21
21.70983957332337
 31
0.0
 11
47.41687529912048
 21
21.60743134604544
 31
0.0
  0
SPLINE
  5
109
330
2
100
AcDbEntity
  8
GAIKEI
  6
Continuous
 62
     1
100
AcDbSpline
210
0.0
220
0.0
230
1.0
 70
     8
 71
     3
 72
     9
 73
     5
 74
     3
 42
0.0000000001
 43
0.0000000001
 44
0.000001
 12
0.0541245663902453
 22
0.9985341913590479
 32
0.0
 13
-0.998645573378363
 23
-0.0520290185550401
 33
0.0
 40
0.0
 40
0.0
 40
0.0
 40
0.0
 40
0.1410371238712435
 40
0.2001696693490905
 40
0.2001696693490905
 40
0.2001696693490905
 40
0.2001696693490905
 10
47.47934478154252
 20
21.59981721030327
 30
0.0
 10
47.48188930593401
 20
21.64676067378206
 30
0.0
 10
47.46444675005331
 20
21.68892154614918
 30
0.0
 10
47.4990289331372
 20
21.80083969464741
 30
0.0
 10
47.47934478154252
 20
21.79981415854545
 30
0.0
 11
47.47934478154252
 21
21.59981721030327
 31
0.0
 11
47.48313640482558
 21
21.74080257918522
 31
0.0
 11
47.47934478154252
 21
21.79981415854545
 31
0.0
  0
SPLINE
  5
10A
330
2
100
AcDbEntity
  8
GAIKEI
  6
Continuous
 62
     1
100
AcDbSpline
210
0.0
220
0.0
230
1.0
 70
     8
 71
     3
 72
     9
 73
     5
 74
     3
 42
0.0000000001
 43
0.0000000001
 44
0.000001
 12
-0.9930967486082368
 22
0.1172981155166132
 32
0.0
 13
-0.9916304356992322
 23
0.1291087874428037
 33
0.0
 40
0.0
 40
0.0
 40
0.0
 40
0.0
 40
0.0368861725404667
 40
0.062931956426869
 40
0.062931956426869
 40
0.062931956426869
 40
0.062931956426869
 10
47.47934478154252
 20
21.59981721030327
 30
0.0
 10
47.46713426886968
 20
21.60125943647914
 30
0.0
 10
47.44630743835521
 20
21.60376686902037
 30
0.0
 10
47.42548456312827
 20
21.60631043285358
 30
0.0
 10
47.41687529912048
 20
21.60743134604544
 30
0.0
 11
47.47934478154252
 21
21.59981721030327
 31
0.0
 11
47.4427213855631
 21
21.60421219301188
 31
0.0
 11
47.41687529912048
 21
21.60743134604544
 31
0.0
  0
SPLINE
  5
10B
330
2
100
AcDbEntity
  8
GAIKEI
  6
Continuous
100
AcDbSpline
210
0.0
220
0.0
230
1.0
 70
     8
 71
     3
 72
     9
 73
     5
 74
     3
 42
0.0000000001
 43
0.0000000001
 44
0.000001
 12
-0.5313504305953538
 22
-0.8471521232376934
 32
0.0
 13
0.47609226227362
 23
-0.879395336468864
 33
0.0
 40
0.0
 40
0.0
 40
0.0
 40
0.0
 40
0.0034653098034086
 40
0.0059912507594023
 40
0.0059912507594023
 40
0.0059912507594023
 40
0.0059912507594023
 10
47.41743224492124
 20
21.76466553793998
 30
0.0
 10
47.41681848030252
 20
21.7636869897541
 30
0.0
 10
47.41589571675717
 20
21.76174734258601
 30
0.0
 10
47.41647443880577
 20
21.75969918439623
 30
0.0
 10
47.41687529912048
 20
21.7589587508306
 30
0.0
 11
47.41743224492124
 21
21.76466553793998
 31
0.0
 11
47.41625240566985
 21
21.7614072672628
 31
0.0
 11
47.41687529912048
 21
21.7589587508306
 31
0.0
  0
SPLINE
  5
10C
330
2
100
AcDbEntity
  8
GAIKEI
  6
Continuous
100
AcDbSpline
210
0.0
220
0.0
230
1.0
 70
     8
 71
     3
 72
     9
 73
     5
 74
     3
 42
0.0000000001
 43
0.0000000001
 44
0.000001
 12
-0.9986290886555543
 22
-0.0523444676253086
 32
0.0
 13
-0.4509901328110991
 23
-0.892528935165145
 33
0.0
 40
0.0
 40
0.0
 40
0.0
 40
0.0
 40
0.0385154614698915
 40
0.0771463181325075
 40
0.0771463181325075
 40
0.0771463181325075
 40
0.0771463181325075
 10
47.47934478154252
 20
21.79981415854545
 30
0.0
 10
47.46652389481358
 20
21.79914213477012
 30
0.0
 10
47.44098200454948
 20
21.79031165385202
 30
0.0
 10
47.42268267751277
 20
21.77045180328447
 30
0.0
 10
47.41687529912048
 20
21.7589587508306
 30
0.0
 11
47.47934478154252
 21
21.79981415854545
 31
0.0
 11
47.44282474746768
 21
21.78757648585142
 31
0.0
 11
47.41687529912048
 21
21.7589587508306
 31
0.0
  0
SPLINE
  5
10D
330
2
100
AcDbEntity
  8
GAIKEI
  6
Continuous
 62
     1
100
AcDbSpline
210
0.0
220
0.0
230
1.0
 70
     8
 71
     3
 72
     9
 73
     5
 74
     3
 42
0.0000000001
 43
0.0000000001
 44
0.000001
 12
-0.5217951880808808
 22
0.8530707952424807
 32
0.0
 13
0.4760922622736198
 23
0.8793953364688642
 33
0.0
 40
0.0
 40
0.0
 40
0.0
 40
0.0
 40
0.003434631101987
 40
0.0059566485229316
 40
0.0059566485229316
 40
0.0059566485229316
 40
0.0059566485229316
 10
47.41737883915965
 20
-8.406805249154018
 30
0.0
 10
47.41678144783237
 20
-8.405828587992173
 30
0.0
 10
47.41589081901206
 20
-8.40389093196352
 30
0.0
 10
47.41647506146066
 20
-8.40186063368106
 30
0.0
 10
47.41687529912048
 20
-8.401121350228237
 30
0.0
 11
47.41737883915965
 21
-8.406805249154018
 31
0.0
 11
47.41624377440508
 21
-8.40356358605382
 31
0.0
 11
47.41687529912048
 21
-8.401121350228237
 31
0.0
  0
SPLINE
  5
10E
330
2
100
AcDbEntity
  8
GAIKEI
  6
Continuous
 62
     1
100
AcDbSpline
210
0.0
220
0.0
230
1.0
 70
     8
 71
     3
 72
     9
 73
     5
 74
     3
 42
0.0000000001
 43
0.0000000001
 44
0.000001
 12
0.4509901328110987
 22
-0.8925289351651452
 32
0.0
 13
0.9986290886555543
 23
-0.0523444676253087
 33
0.0
 40
0.0
 40
0.0
 40
0.0
 40
0.0
 40
0.0386280192690915
 40
0.0771422793579297
 40
0.0771422793579297
 40
0.0771422793579297
 40
0.0771422793579297
 10
47.41687529912048
 20
-8.401121350228237
 30
0.0
 10
47.42268225096728
 20
-8.412613558530164
 30
0.0
 10
47.44098292626291
 20
-8.432471449983943
 30
0.0
 10
47.46652429472493
 20
-8.441297125735106
 30
0.0
 10
47.47934478154252
 20
-8.441969128548549
 30
0.0
 11
47.41687529912048
 21
-8.401121350228237
 31
0.0
 11
47.44282474746768
 21
-8.429735270551788
 31
0.0
 11
47.47934478154252
 21
-8.441969128548549
 31
0.0
  0
LINE
  5
10F
330
2
100
AcDbEntity
  8
GAIKEI
  6
Continuous
100
AcDbLine
 10
47.26313552542193
 20
21.33096514680878
 30
0.0
 11
47.26313552542193
 21
21.50438864680868
 31
0.0
  0
LINE
  5
110
330
2
100
AcDbEntity
  8
GAIKEI
  6
Continuous
100
AcDbLine
 10
47.26313552542193
 20
-7.973127658840012
 30
0.0
 11
47.26313552542193
 21
21.33096514680878
 31
0.0
  0
LINE
  5
111
330
2
100
AcDbEntity
  8
GAIKEI
  6
Continuous
100
AcDbLine
 10
47.26313552542193
 20
-8.146551158839912
 30
0.0
 11
47.26313552542193
 21
-7.973127658840012
 31
0.0
  0
LINE
  5
112
330
2
100
AcDbEntity
  8
GAIKEI
  6
Continuous
100
AcDbLine
 10
47.47934502542193
 20
-8.441969158839951
 30
0.0
 11
49.41050952542195
 21
-8.543177158839995
 31
0.0
  0
LINE
  5
113
330
2
100
AcDbEntity
  8
GAIKEI
  6
Continuous
100
AcDbLine
 10
47.4769895254219
 20
-8.441846158839922
 30
0.0
 11
47.47934352542193
 21
-8.44197015883995
 31
0.0
  0
LINE
  5
114
330
2
100
AcDbEntity
  8
GAIKEI
  6
Continuous
100
AcDbLine
 10
47.27078002542184
 20
-8.173114658839978
 30
0.0
 11
47.41741102542192
 21
-8.406781158840004
 31
0.0
  0
LINE
  5
115
330
2
100
AcDbEntity
  8
GAIKEI
  6
Continuous
100
AcDbLine
 10
47.41743102542193
 20
21.76465864680867
 30
0.0
 11
47.27078352542189
 21
21.53096614680871
 31
0.0
  0
LINE
  5
116
330
2
100
AcDbEntity
  8
GAIKEI
  6
Continuous
100
AcDbLine
 10
47.47934402542194
 20
21.79981014680877
 30
0.0
 11
49.41051602542188
 21
21.90101864680875
 31
0.0
  0
LINE
  5
117
330
2
100
AcDbEntity
  8
GAIKEI
  6
Continuous
100
AcDbLine
 10
47.47703252542192
 20
21.79969564680877
 30
0.0
 11
47.47934852542193
 21
21.79981714680875
 31
0.0
  0
LINE
  5
118
330
2
100
AcDbEntity
  8
GAIKEI
  6
Continuous
100
AcDbLine
 10
48.67311752542185
 20
-8.504528158839917
 30
0.0
 11
48.67313202542192
 21
-8.504532658839963
 31
0.0
  0
ARC
  5
119
330
2
100
AcDbEntity
  8
GAIKEI
  6
Continuous
100
AcDbCircle
 10
49.41312902542189
 20
21.85109114680867
 30
0.0
 40
0.05
100
AcDbArc
 50
0.0
 51
92.99996499999727
  0
ARC
  5
11A
330
2
100
AcDbEntity
  8
GAIKEI
  6
Continuous
100
AcDbCircle
 10
49.41312902542189
 20
-8.49324615883998
 30
0.0
 40
0.05
100
AcDbArc
 50
266.999963000003
 51
359.9999830000006
  0
ARC
  5
11B
330
2
100
AcDbEntity
  8
GAIKEI
  6
Continuous
100
AcDbCircle
 10
47.31313102542197
 20
21.50438864680868
 30
0.0
 40
0.05
100
AcDbArc
 50
147.8907530000006
 51
179.9999639999999
  0
ARC
  5
11C
330
2
100
AcDbEntity
  8
GAIKEI
  6
Continuous
100
AcDbCircle
 10
47.31313102542197
 20
-8.146513158840008
 30
0.0
 40
0.05
100
AcDbArc
 50
179.9999639999999
 51
212.0989570000021
  0
ARC
  5
11D
330
2
100
AcDbEntity
  8
GAIKEI
  6
Continuous
100
AcDbCircle
 10
47.48095452542189
 20
21.72479414680876
 30
0.0
 40
0.075
100
AcDbArc
 50
92.99996499999727
 51
147.8907530000006
  0
ARC
  5
11E
330
2
100
AcDbEntity
  8
GAIKEI
  6
Continuous
 62
     7
100
AcDbCircle
 10
47.48091652542188
 20
-8.366949158839956
 30
0.0
 40
0.075
100
AcDbArc
 50
212.0989570000021
 51
266.999963000003
  0
LINE
  5
11F
330
2
100
AcDbEntity
  8
GAIKEI
  6
Continuous
100
AcDbLine
 10
49.46313252542188
 20
-8.343176158839952
 30
0.0
 11
49.46313252542188
 21
-8.49324615883998
 31
0.0
  0
LINE
  5
120
330
2
100
AcDbEntity
  8
GAIKEI
  6
Continuous
100
AcDbLine
 10
49.46313252542188
 20
21.70102114680876
 30
0.0
 11
49.46313252542188
 21
20.93538755496044
 31
0.0
  0
LINE
  5
121
330
2
100
AcDbEntity
  8
GAIKEI
  6
Continuous
100
AcDbLine
 10
49.46313252542188
 20
21.85109114680867
 30
0.0
 11
49.46313252542188
 21
21.70102114680876
 31
0.0
  0
LINE
  5
122
330
2
100
AcDbEntity
  8
GAIKEI
  6
Continuous
100
AcDbLine
 10
51.65313252542189
 20
17.22642564680868
 30
0.0
 11
51.65313252542189
 21
-3.581603658840009
 31
0.0
  0
LINE
  5
123
330
2
100
AcDbEntity
  8
GAIKEI
  6
Continuous
100
AcDbLine
 10
51.37813252542191
 20
-5.111669414146745
 30
0.0
 11
51.37813252542191
 21
-6.814245658839952
 31
0.0
  0
LINE
  5
124
330
2
100
AcDbEntity
  8
GAIKEI
  6
Continuous
100
AcDbLine
 10
51.37813252542191
 20
-6.814245658839952
 30
0.0
 11
51.37813252542191
 21
-7.052697658840003
 31
0.0
  0
LINE
  5
125
330
2
100
AcDbEntity
  8
GAIKEI
  6
Continuous
100
AcDbLine
 10
51.11752602542196
 20
-7.327319158839968
 30
0.0
 11
50.64909402542189
 21
-7.351868658840004
 31
0.0
  0
LINE
  5
126
330
2
100
AcDbEntity
  8
GAIKEI
  6
Continuous
100
AcDbLine
 10
50.64909352542196
 20
-7.351854158839984
 30
0.0
 11
50.39252602542195
 21
-7.365300158839913
 31
0.0
  0
LINE
  5
127
330
2
100
AcDbEntity
  8
GAIKEI
  6
Continuous
100
AcDbLine
 10
50.39252602542195
 20
-7.365314658839935
 30
0.0
 11
49.61635752542189
 21
-7.40599215883995
 31
0.0
  0
ARC
  5
128
330
2
100
AcDbEntity
  8
GAIKEI
  6
Continuous
100
AcDbCircle
 10
51.10313252542193
 20
-7.052697658840003
 30
0.0
 40
0.275
100
AcDbArc
 50
316.1660690000017
 51
317.7622019999981
  0
ARC
  5
129
330
2
100
AcDbEntity
  8
GAIKEI
  6
Continuous
100
AcDbCircle
 10
51.10313252542193
 20
-7.052697658840003
 30
0.0
 40
0.275
100
AcDbArc
 50
281.9388440000014
 51
284.2289240000028
  0
LINE
  5
12A
330
2
100
AcDbEntity
  8
GAIKEI
  6
Continuous
100
AcDbLine
 10
50.64909402542189
 20
-7.351868658840004
 30
0.0
 11
50.64909252542185
 21
-7.351868658840004
 31
0.0
  0
SPLINE
  5
12B
330
2
100
AcDbEntity
  8
GAIKEI
  6
Continuous
100
AcDbSpline
210
0.0
220
0.0
230
1.0
 70
     8
 71
     3
 72
     9
 73
     5
 74
     3
 42
0.0000000001
 43
0.0000000001
 44
0.000001
 12
0.000292441292299
 22
-0.9999999572390445
 32
0.0
 13
-0.0134279012734896
 23
-0.9999098416694325
 33
0.0
 40
0.0
 40
0.0
 40
0.0
 40
0.0
 40
0.0019716753008474
 40
0.0039551967672422
 40
0.0039551967672422
 40
0.0039551967672422
 40
0.0039551967672422
 10
51.37813231816352
 20
-7.052697583138325
 30
0.0
 10
51.37813251036327
 20
-7.053354808210504
 30
0.0
 10
51.37812764485676
 20
-7.054673212315645
 30
0.0
 10
51.37811373051989
 20
-7.055991547051567
 30
0.0
 10
51.37810485234308
 20
-7.05665266126337
 30
0.0
 11
51.37813231816352
 21
-7.052697583138325
 31
0.0
 11
51.37812540870497
 21
-7.054669248861642
 31
0.0
 11
51.37810485234308
 21
-7.05665266126337
 31
0.0
  0
SPLINE
  5
12C
330
2
100
AcDbEntity
  8
GAIKEI
  6
Continuous
100
AcDbSpline
210
0.0
220
0.0
230
1.0
 70
     8
 71
     3
 72
    11
 73
     7
 74
     5
 42
0.0000000001
 43
0.0000000001
 44
0.000001
 12
-0.0149572399466855
 22
-0.9998881342296133
 32
0.0
 13
-0.9986281369103121
 23
-0.0523626218885118
 33
0.0
 40
0.0
 40
0.0
 40
0.0
 40
0.0
 40
0.0840092266952531
 40
0.1832760806508031
 40
0.3087930186101838
 40
0.4109809135887586
 40
0.4109809135887586
 40
0.4109809135887586
 40
0.4109809135887586
 10
51.37810485234308
 20
-7.05665266126337
 30
0.0
 10
51.37768600362261
 20
-7.084652604242833
 30
0.0
 10
51.36732120103371
 20
-7.145973053007391
 30
0.0
 10
51.31679671981203
 20
-7.238155215234866
 30
0.0
 10
51.22721509778266
 20
-7.307102475398704
 30
0.0
 10
51.15153878452071
 20
-7.325523349436277
 30
0.0
 10
51.1175228821283
 20
-7.327306958138392
 30
0.0
 11
51.37810485234308
 21
-7.05665266126337
 31
0.0
 11
51.36406195938422
 21
-7.139480372368693
 31
0.0
 11
51.31625487675727
 21
-7.226476880013392
 31
0.0
 11
51.2167857438095
 21
-7.303030200565017
 31
0.0
 11
51.1175228821283
 21
-7.327306958138392
 31
0.0
  0
SPLINE
  5
12D
330
2
100
AcDbEntity
  8
GAIKEI
  6
Continuous
100
AcDbSpline
210
0.0
220
0.0
230
1.0
 70
     8
 71
     3
 72
     9
 73
     5
 74
     0
 42
0.0000000001
 43
0.0000000001
 40
0.0
 40
0.0
 40
0.0
 40
0.0
 40
0.0817662733904568
 40
0.1541939903358289
 40
0.1541939903358289
 40
0.1541939903358289
 40
0.1541939903358289
 10
49.61635711064399
 20
-7.405993481575848
 30
0.0
 10
49.58913903928129
 20
-7.407419929605254
 30
0.0
 10
49.53805091186702
 20
-7.420073313186009
 30
0.0
 10
49.49388949243076
 20
-7.44861455333492
 30
0.0
 10
49.4759878052395
 20
-7.464913045009467
 30
0.0
  0
SPLINE
  5
12E
330
2
100
AcDbEntity
  8
GAIKEI
  6
Continuous
100
AcDbSpline
210
0.0
220
0.0
230
1.0
 70
     8
 71
     3
 72
     9
 73
     5
 74
     3
 42
0.0000000001
 43
0.0000000001
 44
0.000001
 12
0.9964149559530449
 22
0.0846004465300951
 32
0.0
 13
0.8863949201347114
 23
0.4629298495013889
 33
0.0
 40
0.0
 40
0.0
 40
0.0
 40
0.0
 40
0.0549383756856072
 40
0.1104511970150127
 40
0.1104511970150127
 40
0.1104511970150127
 40
0.1104511970150127
 10
51.12560088505808
 20
-7.326769848763348
 30
0.0
 10
51.14384802478771
 20
-7.3252205783918
 30
0.0
 10
51.18030070040044
 20
-7.318405122237821
 30
0.0
 10
51.21473467945367
 20
-7.304623138812865
 30
0.0
 10
51.23113677372992
 20
-7.296056958138392
 30
0.0
 11
51.12560088505808
 21
-7.326769848763348
 31
0.0
 11
51.17961202805685
 21
-7.316716830282786
 31
0.0
 11
51.23113677372992
 21
-7.296056958138392
 31
0.0
  0
SPLINE
  5
12F
330
2
100
AcDbEntity
  8
GAIKEI
  6
Continuous
100
AcDbSpline
210
0.0
220
0.0
230
1.0
 70
     8
 71
     3
 72
     9
 73
     5
 74
     3
 42
0.0000000001
 43
0.0000000001
 44
0.000001
 12
0.3547102003781057
 22
0.9349762958213027
 32
0.0
 13
0.0160765725421326
 23
0.9998707635566196
 33
0.0
 40
0.0
 40
0.0
 40
0.0
 40
0.0
 40
0.0481786276402069
 40
0.0959362969183985
 40
0.0959362969183985
 40
0.0959362969183985
 40
0.0959362969183985
 10
51.36013305058526
 20
-7.15052473157587
 30
0.0
 10
51.36582953413999
 20
-7.135509439972939
 30
0.0
 10
51.37457327191214
 20
-7.104558839983137
 30
0.0
 10
51.37784892579822
 20
-7.072569827012327
 30
0.0
 10
51.37810485234308
 20
-7.05665266126337
 30
0.0
 11
51.36013305058526
 21
-7.15052473157587
 31
0.0
 11
51.37323358861568
 21
-7.104161254166937
 31
0.0
 11
51.37810485234308
 21
-7.05665266126337
 31
0.0
  0
SPLINE
  5
130
330
2
100
AcDbEntity
  8
GAIKEI
  6
Continuous
100
AcDbSpline
210
0.0
220
0.0
230
1.0
 70
     8
 71
     3
 72
     9
 73
     5
 74
     3
 42
0.0000000001
 43
0.0000000001
 44
0.000001
 12
0.4735930250987969
 22
0.8807438030311486
 32
0.0
 13
0.0259809635691539
 23
0.999662437791887
 33
0.0
 40
0.0
 40
0.0
 40
0.0
 40
0.0
 40
0.0001031924152963
 40
0.0002079496049682
 40
0.0002079496049682
 40
0.0002079496049682
 40
0.0002079496049682
 10
51.3487560974604
 20
-7.176354809700825
 30
0.0
 10
51.34877238786311
 20
-7.176324514340728
 30
0.0
 10
51.34880477932743
 20
-7.176263244269142
 30
0.0
 10
51.34882232890134
 20
-7.176194404476738
 30
0.0
 10
51.34882323613226
 20
-7.17615949720087
 30
0.0
 11
51.3487560974604
 21
-7.176354809700825
 31
0.0
 11
51.34880132455872
 21
-7.176262737375765
 31
0.0
 11
51.34882323613226
 21
-7.17615949720087
 31
0.0
  0
LINE
  5
131
330
2
100
AcDbEntity
  8
GAIKEI
  6
Continuous
100
AcDbLine
 10
51.30224052542189
 20
20.23287114680872
 30
0.0
 11
51.30965252542193
 21
20.18013414680874
 31
0.0
  0
LINE
  5
132
330
2
100
AcDbEntity
  8
GAIKEI
  6
Continuous
 62
     7
100
AcDbLine
 10
49.58134752542196
 20
20.78364114680878
 30
0.0
 11
49.6672820254219
 21
20.76537564680868
 31
0.0
  0
LINE
  5
133
330
2
100
AcDbEntity
  8
GAIKEI
  6
Continuous
 62
     7
100
AcDbLine
 10
49.66728352542189
 20
20.76539164680875
 30
0.0
 11
49.6675275254219
 21
20.76533764680878
 31
0.0
  0
LINE
  5
134
330
2
100
AcDbEntity
  8
GAIKEI
  6
Continuous
100
AcDbLine
 10
49.66752302542193
 20
20.76532214680876
 30
0.0
 11
50.39728202542193
 21
20.61020914680873
 31
0.0
  0
LINE
  5
135
330
2
100
AcDbEntity
  8
GAIKEI
  6
Continuous
100
AcDbLine
 10
50.39728202542193
 20
20.61020914680873
 30
0.0
 11
51.08709902542194
 21
20.46358414680875
 31
0.0
  0
ARC
  5
136
330
2
100
AcDbEntity
  8
GAIKEI
  6
Continuous
100
AcDbCircle
 10
51.0299285254219
 20
20.19460014680871
 30
0.0
 40
0.275
100
AcDbArc
 50
7.99999900000078
 51
77.99999500000324
  0
SPLINE
  5
137
330
2
100
AcDbEntity
  8
GAIKEI
  6
Continuous
100
AcDbSpline
210
0.0
220
0.0
230
1.0
 70
     8
 71
     3
 72
     9
 73
     5
 74
     0
 42
0.0000000001
 43
0.0000000001
 40
0.0125680641019867
 40
0.0125680641019867
 40
0.0125680641019867
 40
0.0125680641019867
 40
0.0706421812361975
 40
0.1375054895056824
 40
0.1375054895056824
 40
0.1375054895056824
 40
0.1375054895056824
 10
49.47196846930506
 20
20.84181980952743
 30
0.0
 10
49.48598063032136
 20
20.82841357886829
 30
0.0
 10
49.52002639607321
 20
20.80340781327547
 30
0.0
 10
49.55955119283153
 20
20.78827219638342
 30
0.0
 10
49.58135192265564
 20
20.78363831626027
 30
0.0
  0
SPLINE
  5
138
330
2
100
AcDbEntity
  8
GAIKEI
  6
Continuous
100
AcDbSpline
210
0.0
220
0.0
230
1.0
 70
     8
 71
     3
 72
     9
 73
     5
 74
     3
 42
0.0000000001
 43
0.0000000001
 44
0.000001
 12
-0.9327901679541716
 22
0.3604198975750763
 32
0.0
 13
-0.9791656917511913
 23
0.2030629165983071
 33
0.0
 40
0.0
 40
0.0
 40
0.0
 40
0.0
 40
0.0266594388138208
 40
0.0533318606693892
 40
0.0533318606693892
 40
0.0533318606693892
 40
0.0533318606693892
 10
49.71893432011672
 20
20.75128968344777
 30
0.0
 10
49.71064509931382
 20
20.75449254751667
 30
0.0
 10
49.69359943164342
 20
20.75970260026208
 30
0.0
 10
49.67623455910953
 20
20.76352237612702
 30
0.0
 10
49.6675289856439
 20
20.76532776938527
 30
0.0
 11
49.71893432011672
 21
20.75128968344777
 31
0.0
 11
49.69352282455026
 21
20.75935382531733
 31
0.0
 11
49.6675289856439
 21
20.76532776938527
 31
0.0
  0
SPLINE
  5
139
330
2
100
AcDbEntity
  8
GAIKEI
  6
Continuous
100
AcDbSpline
210
0.0
220
0.0
230
1.0
 70
     8
 71
     3
 72
     9
 73
     5
 74
     3
 42
0.0000000001
 43
0.0000000001
 44
0.000001
 12
-0.1194642256909221
 22
0.9928385058910984
 32
0.0
 13
-0.2730182884720905
 23
0.9620088430777393
 33
0.0
 40
0.0
 40
0.0
 40
0.0
 40
0.0
 40
0.0108672981235909
 40
0.0206554707943031
 40
0.0206554707943031
 40
0.0206554707943031
 40
0.0206554707943031
 10
51.2998318420893
 20
20.24460023032279
 30
0.0
 10
51.29939909097074
 20
20.24819672100016
 30
0.0
 10
51.29824338737129
 20
20.25499569274463
 30
0.0
 10
51.29655697605845
 20
20.26167630451726
 30
0.0
 10
51.29566619267517
 20
20.26481507407286
 30
0.0
 11
51.2998318420893
 21
20.24460023032279
 31
0.0
 11
51.29803680192514
 21
20.25531885461666
 31
0.0
 11
51.29566619267517
 21
20.26481507407286
 31
0.0
  0
SPLINE
  5
13A
330
2
100
AcDbEntity
  8
GAIKEI
  6
Continuous
 62
     7
100
AcDbSpline
210
0.0
220
0.0
230
1.0
 70
     8
 71
     3
 72
     9
 73
     5
 74
     3
 42
0.0000000001
 43
0.0000000001
 44
0.000001
 12
0.9476067522711588
 22
-0.3194392634760274
 32
0.0
 13
0.9781595216317647
 23
-0.207855599494258
 33
0.0
 40
0.0
 40
0.0
 40
0.0
 40
0.0
 40
0.0000303572917036
 40
0.000061058487714
 40
0.000061058487714
 40
0.000061058487714
 40
0.000061058487714
 10
49.66399649115226
 20
20.76602403134231
 30
0.0
 10
49.66400608007713
 20
20.76602079890534
 30
0.0
 10
49.66402710873829
 20
20.76602292653682
 30
0.0
 10
49.66404751608985
 20
20.76602615848081
 30
0.0
 10
49.66405752631225
 20
20.76602403134231
 30
0.0
 11
49.66399649115226
 21
20.76602403134231
 31
0.0
 11
49.66402706888846
 21
20.76602306618369
 31
0.0
 11
49.66405752631225
 21
20.76602403134231
 31
0.0
  0
ARC
  5
13B
330
2
100
AcDbEntity
  8
GAIKEI
  6
Continuous
100
AcDbCircle
 10
50.98983152542196
 20
20.03795564680874
 30
0.0
 40
0.35
100
AcDbArc
 50
7.830456999999732
 51
77.90524299999812
  0
LINE
  5
13C
330
2
100
AcDbEntity
  8
GAIKEI
  6
Continuous
100
AcDbLine
 10
51.06316652542187
 20
20.38018664680871
 30
0.0
 11
49.55313252542191
 21
20.70376514680877
 31
0.0
  0
LINE
  5
13D
330
2
100
AcDbEntity
  8
GAIKEI
  6
Continuous
100
AcDbLine
 10
49.52002034847361
 20
20.70376514680877
 30
0.0
 11
49.55313252542191
 21
20.70376514680877
 31
0.0
  0
LINE
  5
13E
330
2
100
AcDbEntity
  8
GAIKEI
  6
Continuous
100
AcDbLine
 10
51.34935502542186
 20
19.99266164680873
 30
0.0
 11
51.33656802542198
 21
20.08564064680874
 31
0.0
  0
LINE
  5
13F
330
2
100
AcDbEntity
  8
GAIKEI
  6
Continuous
100
AcDbLine
 10
51.04427850793417
 20
18.86769259527986
 30
0.0
 11
50.90478352542185
 21
19.88202014680868
 31
0.0
  0
ARC
  5
140
330
2
100
AcDbEntity
  8
GAIKEI
  6
Continuous
100
AcDbCircle
 10
50.75618202542194
 20
19.86158364680871
 30
0.0
 40
0.15
100
AcDbArc
 50
7.830456999999732
 51
88.00000000000286
  0
LINE
  5
141
330
2
100
AcDbEntity
  8
GAIKEI
  6
Continuous
100
AcDbLine
 10
51.52605352542189
 20
18.70780964680873
 30
0.0
 11
51.34935502542186
 21
19.99266164680873
 31
0.0
  0
LINE
  5
142
330
2
100
AcDbEntity
  8
GAIKEI
  6
Continuous
 62
     1
100
AcDbLine
 10
50.98149011702862
 20
18.94257993419396
 30
0.0
 11
50.8596300254219
 21
19.82867564680869
 31
0.0
  0
LINE
  5
143
330
2
100
AcDbEntity
  8
GAIKEI
  6
Continuous
100
AcDbLine
 10
51.63914552542189
 20
17.88546814680873
 30
0.0
 11
51.52605352542189
 21
18.70780964680873
 31
0.0
  0
ARC
  5
144
330
2
100
AcDbEntity
  8
GAIKEI
  6
Continuous
100
AcDbCircle
 10
50.15313252542188
 20
17.68110514680867
 30
0.0
 40
1.5
100
AcDbArc
 50
0.0
 51
7.830456999999732
  0
LINE
  5
145
330
2
100
AcDbEntity
  8
GAIKEI
  6
Continuous
100
AcDbLine
 10
51.65313252542189
 20
17.22642564680868
 30
0.0
 11
51.65313252542189
 21
17.68110514680867
 31
0.0
  0
LINE
  5
146
330
2
100
AcDbEntity
  8
GAIKEI
  6
Continuous
100
AcDbLine
 10
50.06481156313171
 20
20.03589697179925
 30
0.0
 11
50.7614200254219
 21
20.01157114680868
 31
0.0
  0
LINE
  5
147
330
2
100
AcDbEntity
  8
GAIKEI
  6
Continuous
 62
     1
100
AcDbLine
 10
50.11231666401538
 20
19.97923792163541
 30
0.0
 11
50.71626402542193
 21
19.95814764680867
 31
0.0
  0
ARC
  5
148
330
2
100
AcDbEntity
  8
GAIKEI
  6
Continuous
 62
     1
100
AcDbCircle
 10
50.7110290254219
 20
19.80823914680874
 30
0.0
 40
0.15
100
AcDbArc
 50
7.830456999999732
 51
88.00000000000286
  0
LINE
  5
149
330
2
100
AcDbEntity
  8
GAIKEI
  6
Continuous
100
AcDbLine
 10
51.6531377754219
 20
8.153770021808753
 30
0.0
 11
51.6531377754219
 21
-4.60179712888569
 31
0.0
  0
LINE
  5
14A
330
2
100
AcDbEntity
  8
GAIKEI
  6
Continuous
100
AcDbLine
 10
51.6531377754219
 20
-4.445175783839914
 30
0.0
 11
51.6531377754219
 21
-4.50839603384
 31
0.0
  0
SPLINE
  5
14B
330
2
100
AcDbEntity
  8
GAIKEI
  6
Continuous
100
AcDbSpline
210
0.0
220
0.0
230
1.0
 70
     8
 71
     3
 72
     9
 73
     5
 74
     3
 42
0.0000000001
 43
0.0000000001
 44
0.000001
 12
0.6535156864074855
 22
0.7569129722889898
 32
0.0
 13
0.6415607664383718
 23
0.7670722149621957
 33
0.0
 40
0.0
 40
0.0
 40
0.0
 40
0.0
 40
0.0011430106086554
 40
0.0022866783577448
 40
0.0022866783577448
 40
0.0022866783577448
 40
0.0022866783577448
 10
51.47497622315392
 20
-4.996164514130242
 30
0.0
 10
51.47522521494142
 20
-4.99587612761119
 30
0.0
 10
51.47571924658346
 20
-4.995295652610705
 30
0.0
 10
51.47620869648258
 20
-4.99471133391256
 30
0.0
 10
51.47645327393513
 20
-4.994418908661401
 30
0.0
 11
51.47497622315392
 21
-4.996164514130242
 31
0.0
 11
51.47571796386603
 21
-4.995294850022816
 31
0.0
 11
51.47645327393513
 21
-4.994418908661401
 31
0.0
  0
LINE
  5
14C
330
2
100
AcDbEntity
  8
GAIKEI
  6
Continuous
 62
     1
100
AcDbLine
 10
51.03337477542197
 20
-4.787692783839958
 30
0.0
 11
51.03337477542197
 21
18.14553028385987
 31
0.0
  0
LINE
  5
14D
330
2
100
AcDbEntity
  8
GAIKEI
100
AcDbLine
 10
51.53628479285908
 20
-4.923042149125676
 30
0.0
 11
49.57998850798481
 21
-7.256305046751804
 31
0.0
  0
ARC
  5
14E
330
2
100
AcDbEntity
  8
GAIKEI
100
AcDbCircle
 10
51.1531377754219
 20
-4.60179712888569
 30
0.0
 40
0.5
100
AcDbArc
 50
320.0222528634252
 51
0.0
  0
LINE
  5
14F
330
2
100
AcDbEntity
  8
GAIKEI
100
AcDbLine
 10
51.39052798096634
 20
-4.667722131317673
 30
0.0
 11
51.03337466065397
 21
-4.787692834442651
 31
0.0
  0
ARC
  5
150
330
2
100
AcDbEntity
  8
GAIKEI
100
AcDbCircle
 10
51.32263238542157
 20
-4.321387726760832
 30
0.0
 40
0.3529268078144859
100
AcDbArc
 50
281.0916342477189
 51
339.4669884400832
  0
LINE
  5
151
330
2
100
AcDbEntity
  8
GAIKEI
100
AcDbLine
 10
51.03337466065397
 20
-4.787692834442651
 30
0.0
 11
48.43050602542199
 21
-7.176631253789793
 31
0.0
  0
ARC
  5
152
330
2
100
AcDbEntity
  8
GAIKEI
100
AcDbCircle
 10
49.96313552542199
 20
-7.577550066991675
 30
0.0
 40
0.5
100
AcDbArc
 50
140.0222528634251
 51
180.0
  0
LINE
  5
153
330
2
100
AcDbEntity
  8
GAIKEI
  6
Continuous
 62
     1
100
AcDbLine
 10
48.43050602542199
 20
21.84965846652184
 30
0.0
 11
48.43050602542199
 21
-8.540468982695898
 31
0.0
  0
ARC
  5
154
330
2
100
AcDbEntity
  8
GAIKEI
100
AcDbCircle
 10
51.32263238542157
 20
17.6792252147296
 30
0.0
 40
0.3529268078144859
100
AcDbArc
 50
23.28941395879059
 51
78.90836575228108
  0
LINE
  5
155
330
2
100
AcDbEntity
  8
GAIKEI
100
AcDbLine
 10
51.39052798096634
 20
18.02555961928644
 30
0.0
 11
51.03337466065397
 21
18.14553032241142
 31
0.0
  0
ARC
  5
156
330
2
100
AcDbEntity
  8
GAIKEI
100
AcDbCircle
 10
51.1531377754219
 20
17.95963461685446
 30
0.0
 40
0.5
100
AcDbArc
 50
27.31304412189146
 51
39.97774713657485
  0
SPLINE
  5
157
330
2
100
AcDbEntity
  8
GAIKEI
  6
Continuous
100
AcDbSpline
210
0.0
220
0.0
230
1.0
 70
     8
 71
     3
 72
     9
 73
     5
 74
     3
 42
0.0000000001
 43
0.0000000001
 44
0.000001
 12
0.6535156864074856
 22
-0.7569129722889898
 32
0.0
 13
0.641560766438372
 23
-0.7670722149621957
 33
0.0
 40
0.0
 40
0.0
 40
0.0
 40
0.0
 40
0.0011430106086615
 40
0.0022866783577448
 40
0.0022866783577448
 40
0.0022866783577448
 40
0.0022866783577448
 10
51.47497622315392
 20
18.35400200209901
 30
0.0
 10
51.47522521494142
 20
18.35371361557996
 30
0.0
 10
51.47571924658344
 20
18.35313314057946
 30
0.0
 10
51.47620869648259
 20
18.35254882188133
 30
0.0
 10
51.47645327393513
 20
18.35225639663017
 30
0.0
 11
51.47497622315392
 21
18.35400200209901
 31
0.0
 11
51.47571796386603
 21
18.35313233799158
 31
0.0
 11
51.47645327393513
 21
18.35225639663017
 31
0.0
  0
LINE
  5
158
330
2
100
AcDbEntity
  8
GAIKEI
100
AcDbLine
 10
51.03337466065397
 20
18.14553032241142
 30
0.0
 11
48.43050602542199
 21
20.53446874175856
 31
0.0
  0
LINE
  5
159
330
2
100
AcDbEntity
  8
GAIKEI
100
AcDbLine
 10
51.53628479285908
 20
18.28087963709444
 30
0.0
 11
49.57998850798481
 21
20.61414253472057
 31
0.0
  0
ARC
  5
15A
330
2
100
AcDbEntity
  8
GAIKEI
100
AcDbCircle
 10
49.96313552542199
 20
20.93538755496044
 30
0.0
 40
0.5
100
AcDbArc
 50
180.0
 51
219.9777471365749
  0
LINE
  5
15B
330
2
100
AcDbEntity
  8
GAIKEI
  6
Continuous
100
AcDbLine
 10
49.46313252542188
 20
-7.577550066991675
 30
0.0
 11
49.46313252542188
 21
-8.343176158839952
 31
0.0
  0
LINE
  5
15C
330
2
100
AcDbEntity
  8
GAIKEI
  6
Continuous
 62
     1
100
AcDbLine
 10
-28.7400838432479
 20
-8.248035078867843
 30
0.0
 11
-28.72762909324794
 21
-7.82026207886784
 31
0.0
  0
LINE
  5
15D
330
2
100
AcDbEntity
  8
GAIKEI
  6
Continuous
 62
     1
100
AcDbLine
 10
-29.28942859324795
 20
-7.820256578867854
 30
0.0
 11
-28.72762434324793
 21
-7.820256578867854
 31
0.0
  0
LINE
  5
15E
330
2
100
AcDbEntity
  8
GAIKEI
  6
Continuous
100
AcDbLine
 10
-28.70760584324782
 20
-8.278033078867878
 30
0.0
 11
-28.69450384324793
 21
-7.828028578867844
 31
0.0
  0
LINE
  5
15F
330
2
100
AcDbEntity
  8
GAIKEI
  6
Continuous
100
AcDbLine
 10
-28.69449459324798
 20
21.23056685924789
 30
0.0
 11
-28.69449459324798
 21
-7.828032328867862
 31
0.0
  0
LINE
  5
160
330
2
100
AcDbEntity
  8
GAIKEI
  6
Continuous
 62
     1
100
AcDbLine
 10
-29.27697759324789
 20
-8.248027578867862
 30
0.0
 11
-28.74007559324807
 21
-8.248027578867862
 31
0.0
  0
LINE
  5
161
330
2
100
AcDbEntity
  8
GAIKEI
  6
Continuous
100
AcDbLine
 10
-28.7574950932478
 20
-8.278032328867851
 30
0.0
 11
-29.25955809324793
 21
-8.278032328867851
 31
0.0
  0
LINE
  5
162
330
2
100
AcDbEntity
  8
GAIKEI
  6
Continuous
100
AcDbLine
 10
-28.73916009324782
 20
-8.278032328867851
 30
0.0
 11
-28.7574950932478
 21
-8.278032328867851
 31
0.0
  0
LINE
  5
163
330
2
100
AcDbEntity
  8
GAIKEI
  6
Continuous
100
AcDbLine
 10
-28.73916009324782
 20
-8.278032328867851
 30
0.0
 11
-28.70761709324799
 21
-8.278032328867851
 31
0.0
  0
LINE
  5
164
330
2
100
AcDbEntity
  8
GAIKEI
  6
Continuous
 62
     1
100
AcDbLine
 10
-29.28942859324795
 20
21.22279085924785
 30
0.0
 11
-29.28942859324795
 21
-7.820256578867854
 31
0.0
  0
SPLINE
  5
165
330
2
100
AcDbEntity
  8
GAIKEI
  6
Continuous
 62
     1
100
AcDbSpline
210
0.0
220
0.0
230
1.0
 70
     8
 71
     3
 72
     9
 73
     5
 74
     3
 42
0.0000000001
 43
0.0000000001
 44
0.000001
 12
-0.4555710774664803
 22
-0.8901994121409149
 32
0.0
 13
-0.4548274176199876
 23
-0.8905795978918074
 33
0.0
 40
0.0
 40
0.0
 40
0.0
 40
0.0
 40
0.0517793888168824
 40
0.1036079629296263
 40
0.1036079629296263
 40
0.1036079629296263
 40
0.1036079629296263
 10
-33.99345698435944
 20
-8.251176967361201
 30
0.0
 10
-34.00132004834406
 20
-8.266541627856469
 30
0.0
 10
-34.0170500767677
 20
-8.297287370382102
 30
0.0
 10
-34.03276726760194
 20
-8.328039678953265
 30
0.0
 10
-34.04062495310948
 20
-8.343425502517476
 30
0.0
 11
-33.99345698435944
 21
-8.251176967361201
 31
0.0
 11
-34.01703940485775
 21
-8.297274412849191
 31
0.0
 11
-34.04062495310948
 21
-8.343425502517476
 31
0.0
  0
LINE
  5
166
330
2
100
AcDbEntity
  8
GAIKEI
  6
Continuous
100
AcDbLine
 10
-29.25955809324793
 20
-8.278032328867851
 30
0.0
 11
-29.25955809324793
 21
-8.248027578867862
 31
0.0
  0
SPLINE
  5
167
330
2
100
AcDbEntity
  8
GAIKEI
  6
Continuous
100
AcDbSpline
210
0.0
220
0.0
230
1.0
 70
     8
 71
     3
 72
     9
 73
     5
 74
     3
 42
0.0000000001
 43
0.0000000001
 44
0.000001
 12
0.9999883567442765
 22
0.0048255959094992
 32
0.0
 13
0.9289662195941573
 23
0.3701645078244804
 33
0.0
 40
0.0
 40
0.0
 40
0.0
 40
0.0
 40
0.0006886604951559
 40
0.0013897972775171
 40
0.0013897972775171
 40
0.0013897972775171
 40
0.0013897972775171
 10
-33.83963618357823
 20
-8.547527065017476
 30
0.0
 10
-33.83940663275259
 20
-8.547525957285053
 30
0.0
 10
-33.83894278033114
 20
-8.54747147048403
 30
0.0
 10
-33.83849831390468
 20
-8.547332815282679
 30
0.0
 10
-33.8382812031093
 20
-8.547246303298692
 30
0.0
 11
-33.83963618357823
 21
-8.547527065017476
 31
0.0
 11
-33.8389508667419
 21
-8.547451472492895
 31
0.0
 11
-33.8382812031093
 21
-8.547246303298692
 31
0.0
  0
LINE
  5
168
330
2
100
AcDbEntity
  8
GAIKEI
  6
Continuous
 62
     1
100
AcDbLine
 10
-29.33186059324791
 20
-8.214138578867874
 30
0.0
 11
-29.5655518432479
 21
-7.980217578867866
 31
0.0
  0
LINE
  5
169
330
2
100
AcDbEntity
  8
GAIKEI
  6
Continuous
 62
     1
100
AcDbLine
 10
-29.53162459324787
 20
-8.413906828867851
 30
0.0
 11
-29.76554559324788
 21
-8.180215578867857
 31
0.0
  0
LINE
  5
16A
330
2
100
AcDbEntity
  8
GAIKEI
  6
Continuous
 62
     1
100
AcDbLine
 10
-33.49802234324793
 20
-8.153642828867845
 30
0.0
 11
-29.79229734324801
 21
-8.153642828867845
 31
0.0
  0
LINE
  5
16B
330
2
100
AcDbEntity
  8
GAIKEI
  6
Continuous
 62
     1
100
AcDbLine
 10
-33.9582158432481
 20
-8.214867578867853
 30
0.0
 11
-33.72459759324781
 21
-7.980270328867874
 31
0.0
  0
LINE
  5
16C
330
2
100
AcDbEntity
  8
GAIKEI
  6
Continuous
 62
     1
100
AcDbLine
 10
-33.5246335932479
 20
-8.180208828867847
 30
0.0
 11
-33.76092384324804
 21
-8.415829078867856
 31
0.0
  0
SPLINE
  5
16D
330
2
100
AcDbEntity
  8
GAIKEI
  6
Continuous
 62
     1
100
AcDbSpline
210
0.0
220
0.0
230
1.0
 70
     8
 71
     3
 72
     9
 73
     5
 74
     3
 42
0.0000000001
 43
0.0000000001
 44
0.000001
 12
0.4193310596052152
 22
0.9078333891471318
 32
0.0
 13
0.4173617955917634
 23
0.9087404093471464
 33
0.0
 40
0.0
 40
0.0
 40
0.0
 40
0.0
 40
0.0530945544880733
 40
0.1061312742876886
 40
0.1061312742876886
 40
0.1061312742876886
 40
0.1061312742876886
 10
-33.8382812031093
 20
-8.547246303298692
 30
0.0
 10
-33.83085980451172
 20
-8.531179300183303
 30
0.0
 10
-33.81604385092984
 20
-8.499054127386077
 30
0.0
 10
-33.80126273065599
 20
-8.466912914337854
 30
0.0
 10
-33.79388423045337
 20
-8.450847377517476
 30
0.0
 11
-33.8382812031093
 21
-8.547246303298692
 31
0.0
 11
-33.81604449306767
 21
-8.499032606818815
 31
0.0
 11
-33.79388423045337
 21
-8.450847377517476
 31
0.0
  0
LINE
  5
16E
330
2
100
AcDbEntity
  8
GAIKEI
  6
Continuous
 62
     1
100
AcDbLine
 10
-29.27698009324806
 20
-8.248028078867861
 30
0.0
 11
-29.28943484324802
 21
-7.820255078867858
 31
0.0
  0
LINE
  5
16F
330
2
100
AcDbEntity
  8
GAIKEI
  6
Continuous
100
AcDbLine
 10
-29.19549559324784
 20
-8.350334421738152
 30
0.0
 11
-29.19549559324784
 21
-8.278032328867851
 31
0.0
  0
LINE
  5
170
330
2
100
AcDbEntity
  8
GAIKEI
  6
Continuous
100
AcDbLine
 10
-29.19549559324784
 20
-8.3505543288679
 30
0.0
 11
-29.19543459324811
 21
-8.3505543288679
 31
0.0
  0
LINE
  5
171
330
2
100
AcDbEntity
  8
GAIKEI
  6
Continuous
100
AcDbLine
 10
-29.19543509324782
 20
-8.350551578867822
 30
0.0
 11
-29.19542284324777
 21
-8.350551578867822
 31
0.0
  0
LINE
  5
172
330
2
100
AcDbEntity
  8
GAIKEI
  6
Continuous
 62
     1
100
AcDbLine
 10
-29.59229734324797
 20
-7.953642828867856
 30
0.0
 11
-29.59229734324797
 21
21.35620160924791
 31
0.0
  0
LINE
  5
173
330
2
100
AcDbEntity
  8
GAIKEI
  6
Continuous
100
AcDbLine
 10
-34.04062484324797
 20
-8.347244625925581
 30
0.0
 11
-34.04062484324797
 21
21.7459843592479
 31
0.0
  0
LINE
  5
174
330
2
100
AcDbEntity
  8
GAIKEI
  6
Continuous
100
AcDbLine
 10
-34.04062484324797
 20
-8.343425578867851
 30
0.0
 11
-34.0406860932478
 21
-8.343425578867851
 31
0.0
  0
LINE
  5
175
330
2
100
AcDbEntity
  8
GAIKEI
  6
Continuous
 62
     1
100
AcDbLine
 10
-33.69802234324786
 20
21.35620160924791
 30
0.0
 11
-33.69802234324786
 21
-7.953642828867856
 31
0.0
  0
LINE
  5
176
330
2
100
AcDbEntity
  8
GAIKEI
  6
Continuous
 62
     1
100
AcDbLine
 10
-33.95828859324794
 20
21.61838664084811
 30
0.0
 11
-33.95828859324794
 21
-8.215827860468067
 31
0.0
  0
LINE
  5
177
330
2
100
AcDbEntity
  8
GAIKEI
  6
Continuous
 62
     1
100
AcDbLine
 10
-29.33186034324783
 20
21.6164656957404
 30
0.0
 11
-29.33186034324783
 21
-8.213906915360297
 31
0.0
  0
LINE
  5
178
330
2
100
AcDbEntity
  8
GAIKEI
  6
Continuous
100
AcDbLine
 10
-29.29682609324796
 20
21.68059110924795
 30
0.0
 11
-29.29682609324796
 21
-8.214067578867881
 31
0.0
  0
LINE
  5
179
330
2
100
AcDbEntity
  8
GAIKEI
100
AcDbLine
 10
-29.39563461260556
 20
-8.550334373422201
 30
0.0
 11
-33.84076386260571
 21
-8.547244577609633
 31
0.0
  0
LINE
  5
17A
330
2
100
AcDbEntity
  8
GAIKEI
 62
     1
100
AcDbLine
 10
-29.53176944167351
 20
-8.41390689470259
 30
0.0
 11
-33.75819769167364
 21
-8.415827839810305
 31
0.0
  0
ARC
  5
17B
330
2
100
AcDbEntity
  8
GAIKEI
  6
Continuous
 62
     1
100
AcDbCircle
 10
-29.79229734324801
 20
-7.953642828867856
 30
0.0
 40
0.2
100
AcDbArc
 50
270.0
 51
0.000000000000007
  0
ARC
  5
17C
330
2
100
AcDbEntity
  8
GAIKEI
 62
     1
100
AcDbCircle
 10
-29.53186034324787
 20
-8.213906915360297
 30
0.0
 40
0.2
100
AcDbArc
 50
270.0260413837083
 51
360.0
  0
ARC
  5
17D
330
2
100
AcDbEntity
  8
GAIKEI
100
AcDbCircle
 10
-29.39549559324789
 20
-8.350334421738152
 30
0.0
 40
0.2
100
AcDbArc
 50
269.9601738844593
 51
0.000000000000007
  0
ARC
  5
17E
330
2
100
AcDbEntity
  8
GAIKEI
 62
     1
100
AcDbCircle
 10
-33.75828859324801
 20
-8.215827860468067
 30
0.0
 40
0.2
100
AcDbArc
 50
180.0
 51
270.0260413837083
  0
ARC
  5
17F
330
2
100
AcDbEntity
  8
GAIKEI
100
AcDbCircle
 10
-33.84062484324804
 20
-8.347244625925581
 30
0.0
 40
0.2
100
AcDbArc
 50
180.0
 51
269.9601738844593
  0
ARC
  5
180
330
2
100
AcDbEntity
  8
GAIKEI
  6
Continuous
 62
     1
100
AcDbCircle
 10
-33.49802234324793
 20
-7.953642828867856
 30
0.0
 40
0.2
100
AcDbArc
 50
180.0
 51
270.0
  0
ARC
  5
181
330
2
100
AcDbEntity
  8
GAIKEI
  6
Continuous
 62
     1
100
AcDbCircle
 10
-33.49802234324793
 20
21.35620160924791
 30
0.0
 40
0.2
100
AcDbArc
 50
90.0
 51
180.0
  0
ARC
  5
182
330
2
100
AcDbEntity
  8
GAIKEI
100
AcDbCircle
 10
-33.84062484324804
 20
21.74980340630569
 30
0.0
 40
0.2
100
AcDbArc
 50
90.03982611554064
 51
180.0
  0
ARC
  5
183
330
2
100
AcDbEntity
  8
GAIKEI
 62
     1
100
AcDbCircle
 10
-33.75828859324801
 20
21.61838664084811
 30
0.0
 40
0.2
100
AcDbArc
 50
89.9739586162917
 51
180.0
  0
ARC
  5
184
330
2
100
AcDbEntity
  8
GAIKEI
100
AcDbCircle
 10
-29.39549559324789
 20
21.7528932021182
 30
0.0
 40
0.2
100
AcDbArc
 50
0.000000000000007
 51
90.03982611554064
  0
ARC
  5
185
330
2
100
AcDbEntity
  8
GAIKEI
 62
     1
100
AcDbCircle
 10
-29.53186034324787
 20
21.6164656957404
 30
0.0
 40
0.2
100
AcDbArc
 50
0.0000000000000579
 51
89.9739586162917
  0
ARC
  5
186
330
2
100
AcDbEntity
  8
GAIKEI
  6
Continuous
 62
     1
100
AcDbCircle
 10
-29.79229734324801
 20
21.35620160924791
 30
0.0
 40
0.2
100
AcDbArc
 50
0.000000000000007
 51
90.0
  0
LINE
  5
187
330
2
100
AcDbEntity
  8
GAIKEI
 62
     1
100
AcDbLine
 10
-29.53176944167351
 20
21.81646567508264
 30
0.0
 11
-33.75819769167364
 21
21.81838662019041
 31
0.0
  0
LINE
  5
188
330
2
100
AcDbEntity
  8
GAIKEI
100
AcDbLine
 10
-29.39563461260556
 20
21.95289315380225
 30
0.0
 11
-33.84076386260571
 21
21.94980335798974
 31
0.0
  0
LINE
  5
189
330
2
100
AcDbEntity
  8
GAIKEI
  6
Continuous
100
AcDbLine
 10
-34.04062484324797
 20
21.7459843592479
 30
0.0
 11
-34.0406860932478
 21
21.7459843592479
 31
0.0
  0
LINE
  5
18A
330
2
100
AcDbEntity
  8
GAIKEI
  6
Continuous
100
AcDbLine
 10
-29.19543509324782
 20
21.75311035924787
 30
0.0
 11
-29.19542284324777
 21
21.75311035924787
 31
0.0
  0
LINE
  5
18B
330
2
100
AcDbEntity
  8
GAIKEI
  6
Continuous
100
AcDbLine
 10
-29.19549559324784
 20
21.75311310924801
 30
0.0
 11
-29.19543459324811
 21
21.75311310924801
 31
0.0
  0
LINE
  5
18C
330
2
100
AcDbEntity
  8
GAIKEI
  6
Continuous
100
AcDbLine
 10
-29.19549559324784
 20
21.7528932021182
 30
0.0
 11
-29.19549559324784
 21
21.68059110924795
 31
0.0
  0
LINE
  5
18D
330
2
100
AcDbEntity
  8
GAIKEI
  6
Continuous
 62
     1
100
AcDbLine
 10
-29.27698009324806
 20
21.65058685924791
 30
0.0
 11
-29.28943484324802
 21
21.22281385924791
 31
0.0
  0
SPLINE
  5
18E
330
2
100
AcDbEntity
  8
GAIKEI
  6
Continuous
 62
     1
100
AcDbSpline
210
0.0
220
0.0
230
1.0
 70
     8
 71
     3
 72
     9
 73
     5
 74
     3
 42
0.0000000001
 43
0.0000000001
 44
0.000001
 12
0.4193310596052151
 22
-0.9078333891471318
 32
0.0
 13
0.4173617955917634
 23
-0.9087404093471464
 33
0.0
 40
0.0
 40
0.0
 40
0.0
 40
0.0
 40
0.0530945544881247
 40
0.106131274287737
 40
0.106131274287737
 40
0.106131274287737
 40
0.106131274287737
 10
-33.8382812031093
 20
21.9498050836788
 30
0.0
 10
-33.83085980451171
 20
21.9337380805634
 30
0.0
 10
-33.81604385092985
 20
21.90161290776615
 30
0.0
 10
-33.80126273065599
 20
21.86947169471791
 30
0.0
 10
-33.79388423045337
 20
21.85340615789753
 30
0.0
 11
-33.8382812031093
 21
21.9498050836788
 31
0.0
 11
-33.81604449306767
 21
21.90159138719886
 31
0.0
 11
-33.79388423045337
 21
21.85340615789753
 31
0.0
  0
LINE
  5
18F
330
2
100
AcDbEntity
  8
GAIKEI
  6
Continuous
 62
     1
100
AcDbLine
 10
-33.5246335932479
 20
21.58276760924795
 30
0.0
 11
-33.76092384324804
 21
21.81838785924796
 31
0.0
  0
LINE
  5
190
330
2
100
AcDbEntity
  8
GAIKEI
  6
Continuous
 62
     1
100
AcDbLine
 10
-33.9582158432481
 20
21.6174263592479
 30
0.0
 11
-33.72459759324781
 21
21.38282910924792
 31
0.0
  0
LINE
  5
191
330
2
100
AcDbEntity
  8
GAIKEI
  6
Continuous
 62
     1
100
AcDbLine
 10
-33.49802234324793
 20
21.55620160924796
 30
0.0
 11
-29.79229734324801
 21
21.55620160924796
 31
0.0
  0
LINE
  5
192
330
2
100
AcDbEntity
  8
GAIKEI
  6
Continuous
 62
     1
100
AcDbLine
 10
-29.53162459324787
 20
21.81646560924796
 30
0.0
 11
-29.76554559324788
 21
21.58277435924796
 31
0.0
  0
LINE
  5
193
330
2
100
AcDbEntity
  8
GAIKEI
  6
Continuous
 62
     1
100
AcDbLine
 10
-29.33186059324791
 20
21.61669735924792
 30
0.0
 11
-29.5655518432479
 21
21.38277635924791
 31
0.0
  0
SPLINE
  5
194
330
2
100
AcDbEntity
  8
GAIKEI
  6
Continuous
100
AcDbSpline
210
0.0
220
0.0
230
1.0
 70
     8
 71
     3
 72
     9
 73
     5
 74
     3
 42
0.0000000001
 43
0.0000000001
 44
0.000001
 12
0.9999883567442765
 22
-0.0048255959094992
 32
0.0
 13
0.9289662195941573
 23
-0.3701645078244804
 33
0.0
 40
0.0
 40
0.0
 40
0.0
 40
0.0
 40
0.0006886604951602
 40
0.0013897972775063
 40
0.0013897972775063
 40
0.0013897972775063
 40
0.0013897972775063
 10
-33.83963618357823
 20
21.95008584539753
 30
0.0
 10
-33.83940663275259
 20
21.95008473766511
 30
0.0
 10
-33.83894278033113
 20
21.95003025086412
 30
0.0
 10
-33.83849831390467
 20
21.94989159566278
 30
0.0
 10
-33.8382812031093
 20
21.9498050836788
 30
0.0
 11
-33.83963618357823
 21
21.95008584539753
 31
0.0
 11
-33.8389508667419
 21
21.95001025287294
 31
0.0
 11
-33.8382812031093
 21
21.9498050836788
 31
0.0
  0
LINE
  5
195
330
2
100
AcDbEntity
  8
GAIKEI
  6
Continuous
100
AcDbLine
 10
-29.25955809324793
 20
21.68059110924795
 30
0.0
 11
-29.25955809324793
 21
21.65058635924797
 31
0.0
  0
SPLINE
  5
196
330
2
100
AcDbEntity
  8
GAIKEI
  6
Continuous
 62
     1
100
AcDbSpline
210
0.0
220
0.0
230
1.0
 70
     8
 71
     3
 72
     9
 73
     5
 74
     3
 42
0.0000000001
 43
0.0000000001
 44
0.000001
 12
-0.4555710774664803
 22
0.8901994121409149
 32
0.0
 13
-0.4548274176199876
 23
0.8905795978918074
 33
0.0
 40
0.0
 40
0.0
 40
0.0
 40
0.0
 40
0.0517793888169364
 40
0.1036079629296311
 40
0.1036079629296311
 40
0.1036079629296311
 40
0.1036079629296311
 10
-33.99345698435944
 20
21.65373574774125
 30
0.0
 10
-34.00132004834407
 20
21.66910040823653
 30
0.0
 10
-34.01705007676771
 20
21.69984615076218
 30
0.0
 10
-34.03276726760195
 20
21.73059845933334
 30
0.0
 10
-34.04062495310948
 20
21.74598428289753
 30
0.0
 11
-33.99345698435944
 21
21.65373574774125
 31
0.0
 11
-34.01703940485775
 21
21.6998331932293
 31
0.0
 11
-34.04062495310948
 21
21.74598428289753
 31
0.0
  0
LINE
  5
197
330
2
100
AcDbEntity
  8
GAIKEI
  6
Continuous
100
AcDbLine
 10
-28.73916009324782
 20
21.68059110924795
 30
0.0
 11
-28.70761709324799
 21
21.68059110924795
 31
0.0
  0
LINE
  5
198
330
2
100
AcDbEntity
  8
GAIKEI
  6
Continuous
100
AcDbLine
 10
-28.73916009324782
 20
21.68059110924795
 30
0.0
 11
-28.7574950932478
 21
21.68059110924795
 31
0.0
  0
LINE
  5
199
330
2
100
AcDbEntity
  8
GAIKEI
  6
Continuous
100
AcDbLine
 10
-28.7574950932478
 20
21.68059110924795
 30
0.0
 11
-29.29682609324796
 21
21.68059110924795
 31
0.0
  0
LINE
  5
19A
330
2
100
AcDbEntity
  8
GAIKEI
  6
Continuous
 62
     1
100
AcDbLine
 10
-29.27697759324789
 20
21.65058635924797
 30
0.0
 11
-28.74007559324807
 21
21.65058635924797
 31
0.0
  0
LINE
  5
19B
330
2
100
AcDbEntity
  8
GAIKEI
  6
Continuous
100
AcDbLine
 10
-28.70760584324782
 20
21.68059185924798
 30
0.0
 11
-28.69450384324793
 21
21.23058735924789
 31
0.0
  0
LINE
  5
19C
330
2
100
AcDbEntity
  8
GAIKEI
  6
Continuous
 62
     1
100
AcDbLine
 10
-29.28942859324795
 20
21.22281535924796
 30
0.0
 11
-28.72762434324793
 21
21.22281535924796
 31
0.0
  0
LINE
  5
19D
330
2
100
AcDbEntity
  8
GAIKEI
  6
Continuous
 62
     1
100
AcDbLine
 10
-28.7400838432479
 20
21.65059385924789
 30
0.0
 11
-28.72762909324794
 21
21.22282085924789
 31
0.0
  0
DIMENSION
  5
19E
330
2
100
AcDbEntity
  8
SUNPO
100
AcDbDimension
  2
*D6
 10
-34.04062434324781
 20
29.95102589680854
 30
0.0
 11
-39.87395767658114
 21
31.70102589680854
 31
0.0
 70
    33
  1
107
 71
     5
 42
5.351732499999798
  3
STANDARD
100
AcDbAlignedDimension
 13
-28.68889184324801
 23
21.95102589680855
 33
0.0
 14
-34.04062434324781
 24
21.95102589680855
 34
0.0
1001
ACAD
1000
DSTYLE
1002
{
1070
    40
1040
1.0
1070
   140
1040
2.5
1070
   147
1040
0.5
1070
   172
1070
     1
1070
   279
1070
     0
1070
   288
1070
     0
1002
}
  0
LINE
  5
1AC
330
2
100
AcDbEntity
  8
WAKU
 62
     4
100
AcDbLine
 10
70.32463619152409
 20
-24.68708374272271
 30
0.0
 11
70.32463619152409
 21
-59.68708374272271
 31
0.0
  0
TEXT
  5
1AE
330
2
100
AcDbEntity
  8
MOJI1
100
AcDbText
 10
-52.17536380847567
 20
-28.68708374272272
 30
0.0
 40
3.0
  1
電  源
100
AcDbText
  0
TEXT
  5
1AF
330
2
100
AcDbEntity
  8
MOJI1
100
AcDbText
 10
-52.17536380847567
 20
-43.68708374272269
 30
0.0
 40
3.0
  1
画素数
100
AcDbText
  0
TEXT
  5
1B0
330
2
100
AcDbEntity
  8
MOJI1
100
AcDbText
 10
-52.17536380847567
 20
-38.68708374272272
 30
0.0
 40
3.0
  1
パネルサイズ
100
AcDbText
  0
TEXT
  5
1B1
330
2
100
AcDbEntity
  8
MOJI1
100
AcDbText
 10
-52.17536380847567
 20
-33.68708374272272
 30
0.0
 40
3.0
  1
消費電力
100
AcDbText
  0
TEXT
  5
1B2
330
2
100
AcDbEntity
  8
MOJI1
100
AcDbText
 10
-52.17536380847567
 20
-48.68708374272269
 30
0.0
 40
3.0
  1
音声最大出力
100
AcDbText
  0
TEXT
  5
1B3
330
2
100
AcDbEntity
  8
MOJI1
100
AcDbText
 10
-52.17536380847567
 20
-53.68708374272269
 30
0.0
 40
3.0
  1
接続端子
100
AcDbText
  0
LINE
  5
1B4
330
2
100
AcDbEntity
  8
WAKU
 62
     4
100
AcDbLine
 10
-54.67536380847589
 20
-24.68708374272271
 30
0.0
 11
-54.67536380847567
 21
-59.68708374272271
 31
0.0
  0
LINE
  5
1B5
330
2
100
AcDbEntity
  8
WAKU
 62
     4
100
AcDbLine
 10
-14.6753638084759
 20
-24.68708374272271
 30
0.0
 11
-14.6753638084759
 21
-59.68708374272271
 31
0.0
  0
LINE
  5
1BA
330
2
100
AcDbEntity
  8
WAKU
 62
     1
100
AcDbLine
 10
-54.67536380847567
 20
-34.68708374272271
 30
0.0
 11
70.32463619152409
 21
-34.68708374272271
 31
0.0
  0
LINE
  5
1BB
330
2
100
AcDbEntity
  8
WAKU
 62
     1
100
AcDbLine
 10
-54.67536380847567
 20
-44.6870837427227
 30
0.0
 11
70.32463619152409
 21
-44.6870837427227
 31
0.0
  0
LINE
  5
1BC
330
2
100
AcDbEntity
  8
WAKU
 62
     4
100
AcDbLine
 10
-54.67536380847567
 20
-24.68708374272271
 30
0.0
 11
70.32463619152409
 21
-24.68708374272271
 31
0.0
  0
LINE
  5
1BD
330
2
100
AcDbEntity
  8
WAKU
 62
     1
100
AcDbLine
 10
-54.67536380847567
 20
-29.68708374272271
 30
0.0
 11
70.32463619152409
 21
-29.68708374272271
 31
0.0
  0
LINE
  5
1BE
330
2
100
AcDbEntity
  8
WAKU
 62
     1
100
AcDbLine
 10
-54.67536380847567
 20
-39.68708374272271
 30
0.0
 11
70.32463619152409
 21
-39.68708374272271
 31
0.0
  0
LINE
  5
1BF
330
2
100
AcDbEntity
  8
WAKU
 62
     1
100
AcDbLine
 10
-54.67536380847567
 20
-49.68708374272271
 30
0.0
 11
70.32463619152409
 21
-49.68708374272271
 31
0.0
  0
LINE
  5
1C0
330
2
100
AcDbEntity
  8
WAKU
 62
     1
100
AcDbLine
 10
-54.67536380847567
 20
-54.68708374272271
 30
0.0
 11
70.32463619152409
 21
-54.68708374272271
 31
0.0
  0
LINE
  5
1C1
330
2
100
AcDbEntity
  8
WAKU
 62
     4
100
AcDbLine
 10
70.32463619152409
 20
-59.68708374272271
 30
0.0
 11
-54.67536380847567
 21
-59.68708374272271
 31
0.0
  0
TEXT
  5
223
330
2
100
AcDbEntity
  8
MOJI1
100
AcDbText
 10
-12.1753638084759
 20
-58.68708374272269
 30
0.0
 40
3.0
  1
コンポーネントビデオ、シリアル
100
AcDbText
  0
TEXT
  5
224
330
2
100
AcDbEntity
  8
MOJI1
100
AcDbText
 10
-12.1753638084759
 20
-53.68708374272269
 30
0.0
 40
3.0
  1
ビデオ／Ｓビデオ／ＰＣ／外部スピーカ
100
AcDbText
  0
TEXT
  5
225
330
2
100
AcDbEntity
  8
MOJI1
100
AcDbText
 10
-12.1753638084759
 20
-48.68708374272269
 30
0.0
 40
3.0
  1
１６Ｗ（８Ｗ＋８Ｗ）
100
AcDbText
  0
TEXT
  5
226
330
2
100
AcDbEntity
  8
MOJI1
100
AcDbText
 10
-12.1753638084759
 20
-43.68708374272269
 30
0.0
 40
3.0
  1
７８６４３２画素（水平１０２４×垂直７６８）
100
AcDbText
  0
TEXT
  5
227
330
2
100
AcDbEntity
  8
MOJI1
100
AcDbText
 10
-12.1753638084759
 20
-38.68708374272271
 30
0.0
 40
3.0
  1
４２Ｖ型（１６：９）
100
AcDbText
  0
TEXT
  5
228
330
2
100
AcDbEntity
  8
MOJI1
100
AcDbText
 10
-12.1753638084759
 20
-33.68708374272272
 30
0.0
 40
3.0
  1
２９５Ｗ
100
AcDbText
  0
TEXT
  5
229
330
2
100
AcDbEntity
  8
MOJI1
100
AcDbText
 10
-12.1753638084759
 20
-28.68708374272271
 30
0.0
 40
3.0
  1
ＡＣ１００Ｖ　５０Ｈｚ／６０Ｈｚ
100
AcDbText
  0
ENDSEC
  0
SECTION
  2
OBJECTS
  0
DICTIONARY
  5
9
330
0
100
AcDbDictionary
281
     1
  3
ACAD_COLOR
350
29
  3
ACAD_GROUP
350
25
  3
ACAD_LAYOUT
350
D
  3
ACAD_MATERIAL
350
28
  3
ACAD_MLINESTYLE
350
26
  3
ACAD_PLOTSETTINGS
350
27
  3
ACAD_PLOTSTYLENAME
350
8
  3
ACDBHEADERROUNDTRIPXREC
350
25C
  3
AcDbVariableDictionary
350
212
  0
DICTIONARY
  5
15
330
14
100
AcDbDictionary
280
     1
281
     1
  3
ACAD_LAYERFILTERS
360
16
  0
DICTIONARY
  5
3
330
2
100
AcDbDictionary
280
     1
281
     1
  3
ACAD_LAYOUTSELFREF
360
4
  0
DICTIONARY
  5
F
330
E
100
AcDbDictionary
280
     1
281
     1
  3
ACAD_LAYOUTSELFREF
360
10
  0
DICTIONARY
  5
29
102
{ACAD_REACTORS
330
9
102
}
330
9
100
AcDbDictionary
281
     1
  0
DICTIONARY
  5
25
102
{ACAD_REACTORS
330
9
102
}
330
9
100
AcDbDictionary
281
     1
  0
DICTIONARY
  5
D
102
{ACAD_REACTORS
330
9
102
}
330
9
100
AcDbDictionary
281
     1
  3
Model
350
C
  3
ﾚｲｱｳﾄ1
350
13
  0
DICTIONARY
  5
28
102
{ACAD_REACTORS
330
9
102
}
330
9
100
AcDbDictionary
281
     1
  0
DICTIONARY
  5
26
102
{ACAD_REACTORS
330
9
102
}
330
9
100
AcDbDictionary
281
     1
  3
STANDARD
350
31
  0
DICTIONARY
  5
27
102
{ACAD_REACTORS
330
9
102
}
330
9
100
AcDbDictionary
281
     1
  0
ACDBDICTIONARYWDFLT
  5
8
102
{ACAD_REACTORS
330
9
102
}
330
9
100
AcDbDictionary
281
     1
  3
Normal
350
7
100
AcDbDictionaryWithDefault
340
7
  0
DICTIONARY
  5
25C
102
{ACAD_REACTORS
330
9
102
}
330
9
100
AcDbDictionary
281
     1
  3
COLORDICT
350
25E
  3
MATERIALDICT
350
25D
  0
DICTIONARY
  5
212
102
{ACAD_REACTORS
330
9
102
}
330
9
100
AcDbDictionary
281
     1
  3
DIMASSOC
350
214
  3
HIDETEXT
350
213
  3
PROJECTNAME
350
215
  0
DICTIONARY
  5
16
102
{ACAD_REACTORS
330
15
102
}
330
15
100
AcDbDictionary
280
     1
281
     1
  0
XRECORD
  5
4
102
{ACAD_REACTORS
330
3
102
}
330
3
100
AcDbXrecord
280
     1
340
2
  0
XRECORD
  5
10
102
{ACAD_REACTORS
330
F
102
}
330
F
100
AcDbXrecord
280
     1
340
E
  0
LAYOUT
  5
C
102
{ACAD_XDICTIONARY
360
25F
102
}
102
{ACAD_REACTORS
330
D
102
}
330
D
100
AcDbPlotSettings
  1

  2
\\Uranus\5FCNM08
  4
A4
  6

 40
5.873749732971191
 41
5.873747825622557
 42
5.873748779296875
 43
5.873748779296875
 44
209.9733276367186
 45
296.9259948730469
 46
5.4
 47
0.0
 48
0.0
 49
0.0
140
0.0
141
0.0
142
1.0
143
1.382669210069356
 70
 11956
 72
     1
 73
     0
 74
     1
  7
tmsacad.ctb
 75
     0
147
0.7232387853272862
148
0.6008072166987404
149
0.0333900090327006
100
AcDbLayout
  1
Model
 70
     1
 71
     0
 10
0.0
 20
0.0
 11
12.0
 21
9.0
 12
0.0
 22
0.0
 32
0.0
 14
0.0
 24
0.0
 34
0.0
 15
0.0
 25
0.0
 35
0.0
146
0.0
 13
0.0
 23
0.0
 33
0.0
 16
1.0
 26
0.0
 36
0.0
 17
0.0
 27
1.0
 37
0.0
 76
     0
330
2
  0
LAYOUT
  5
13
102
{ACAD_XDICTIONARY
360
261
102
}
102
{ACAD_REACTORS
330
D
102
}
330
D
100
AcDbPlotSettings
  1

  2
C:\Program Files\ACAD2000\plotters\DWF ePlot.pc3
  4

  6

 40
0.0
 41
0.0
 42
0.0
 43
0.0
 44
0.0
 45
0.0
 46
0.0
 47
0.0
 48
0.0
 49
0.0
140
0.0
141
0.0
142
1.0
143
1.0
 70
   688
 72
     0
 73
     0
 74
     5
  7
tmsacad.ctb
 75
    16
147
1.0
148
0.0
149
0.0
100
AcDbLayout
  1
ﾚｲｱｳﾄ1
 70
     1
 71
     1
 10
0.0
 20
0.0
 11
12.0
 21
9.0
 12
0.0
 22
0.0
 32
0.0
 14
1.000000000000000E+20
 24
1.000000000000000E+20
 34
1.000000000000000E+20
 15
-1.000000000000000E+20
 25
-1.000000000000000E+20
 35
-1.000000000000000E+20
146
0.0
 13
0.0
 23
0.0
 33
0.0
 16
1.0
 26
0.0
 36
0.0
 17
0.0
 27
1.0
 37
0.0
 76
     0
330
E
  0
MLINESTYLE
  5
31
102
{ACAD_REACTORS
330
26
102
}
330
26
100
AcDbMlineStyle
  2
STANDARD
 70
     0
  3

 62
   256
 51
90.0
 52
90.0
 71
     2
 49
0.5
 62
   256
  6
BYLAYER
 49
-0.5
 62
   256
  6
BYLAYER
  0
ACDBPLACEHOLDER
  5
7
102
{ACAD_REACTORS
330
8
102
}
330
8
  0
XRECORD
  5
25E
102
{ACAD_REACTORS
330
25C
102
}
330
25C
100
AcDbXrecord
280
     1
340
29
  0
XRECORD
  5
25D
102
{ACAD_REACTORS
330
25C
102
}
330
25C
100
AcDbXrecord
280
     1
340
28
  0
DICTIONARYVAR
  5
214
102
{ACAD_REACTORS
330
212
102
}
330
212
100
DictionaryVariables
280
     0
  1
1
  0
DICTIONARYVAR
  5
213
102
{ACAD_REACTORS
330
212
102
}
330
212
100
DictionaryVariables
280
     0
  1
1
  0
DICTIONARYVAR
  5
215
102
{ACAD_REACTORS
330
212
102
}
330
212
100
DictionaryVariables
280
     0
  1

  0
DICTIONARY
  5
25F
330
C
100
AcDbDictionary
280
     1
281
     1
  3
ACAD_XREC_ROUNDTRIP
360
260
  0
DICTIONARY
  5
261
330
13
100
AcDbDictionary
280
     1
281
     1
  3
ACAD_XREC_ROUNDTRIP
360
262
  0
XRECORD
  5
260
102
{ACAD_REACTORS
330
25F
102
}
330
25F
100
AcDbXrecord
280
     1
102
SHADEPLOT
 70
     0
102
SHADEPLOTRESLEVEL
 70
     2
102
SHADEPLOTCUSTOMDPI
 70
   300
  0
XRECORD
  5
262
102
{ACAD_REACTORS
330
261
102
}
330
261
100
AcDbXrecord
280
     1
102
SHADEPLOT
 70
     0
102
SHADEPLOTRESLEVEL
 70
     2
102
SHADEPLOTCUSTOMDPI
 70
   300
  0
ENDSEC
  0
EOF
