  0
SECTION
  2
HEADER
  9
$ACADVER
  1
AC1015
  9
$ACADMAINTVER
 70
    20
  9
$DWGCODEPAGE
  3
ANSI_932
  9
$INSBASE
 10
0.0
 20
120.4992141396419
 30
0.0
  9
$EXTMIN
 10
-53.99582878412184
 20
-58.43836586218458
 30
-0.0000000349181948
  9
$EXTMAX
 10
71.10951883213011
 20
54.74695987887571
 30
0.0000000814935747
  9
$LIMMIN
 10
-1101.784450318844
 20
-1579.160531687244
  9
$LIMMAX
 10
-508.2420711400536
 20
-1161.440814074914
  9
$ORTHOMODE
 70
     1
  9
$REGENMODE
 70
     1
  9
$FILLMODE
 70
     1
  9
$QTEXTMODE
 70
     0
  9
$MIRRTEXT
 70
     1
  9
$LTSCALE
 40
1.0
  9
$ATTMODE
 70
     1
  9
$TEXTSIZE
 40
3.0
  9
$TRACEWID
 40
0.5
  9
$TEXTSTYLE
  7
STANDARD
  9
$CLAYER
  8
0
  9
$CELTYPE
  6
BYLAYER
  9
$CECOLOR
 62
   256
  9
$CELTSCALE
 40
1.0
  9
$DISPSILH
 70
     0
  9
$DIMSCALE
 40
1.0
  9
$DIMASZ
 40
2.0
  9
$DIMEXO
 40
2.0
  9
$DIMDLI
 40
8.0
  9
$DIMRND
 40
0.0
  9
$DIMDLE
 40
0.0
  9
$DIMEXE
 40
2.0
  9
$DIMTP
 40
0.0
  9
$DIMTM
 40
0.0
  9
$DIMTXT
 40
2.5
  9
$DIMCEN
 40
0.0
  9
$DIMTSZ
 40
0.0
  9
$DIMTOL
 70
     0
  9
$DIMLIM
 70
     0
  9
$DIMTIH
 70
     0
  9
$DIMTOH
 70
     0
  9
$DIMSE1
 70
     0
  9
$DIMSE2
 70
     0
  9
$DIMTAD
 70
     3
  9
$DIMZIN
 70
     0
  9
$DIMBLK
  1

  9
$DIMASO
 70
     1
  9
$DIMSHO
 70
     1
  9
$DIMPOST
  1

  9
$DIMAPOST
  1

  9
$DIMALT
 70
     0
  9
$DIMALTD
 70
     2
  9
$DIMALTF
 40
25.4
  9
$DIMLFAC
 40
1.0
  9
$DIMTOFL
 70
     1
  9
$DIMTVP
 40
0.0
  9
$DIMTIX
 70
     0
  9
$DIMSOXD
 70
     0
  9
$DIMSAH
 70
     1
  9
$DIMBLK1
  1
OPEN30
  9
$DIMBLK2
  1
OPEN30
  9
$DIMSTYLE
  2
STANDARD
  9
$DIMCLRD
 70
     0
  9
$DIMCLRE
 70
     0
  9
$DIMCLRT
 70
     0
  9
$DIMTFAC
 40
1.0
  9
$DIMGAP
 40
0.5
  9
$DIMJUST
 70
     0
  9
$DIMSD1
 70
     0
  9
$DIMSD2
 70
     0
  9
$DIMTOLJ
 70
     1
  9
$DIMTZIN
 70
     0
  9
$DIMALTZ
 70
     0
  9
$DIMALTTZ
 70
     0
  9
$DIMUPT
 70
     0
  9
$DIMDEC
 70
     4
  9
$DIMTDEC
 70
     4
  9
$DIMALTU
 70
     2
  9
$DIMALTTD
 70
     2
  9
$DIMTXSTY
  7
STANDARD
  9
$DIMAUNIT
 70
     0
  9
$DIMADEC
 70
     0
  9
$DIMALTRND
 40
0.0
  9
$DIMAZIN
 70
     0
  9
$DIMDSEP
 70
    46
  9
$DIMATFIT
 70
     3
  9
$DIMFRAC
 70
     0
  9
$DIMLDRBLK
  1
OPEN30
  9
$DIMLUNIT
 70
     2
  9
$DIMLWD
 70
    -2
  9
$DIMLWE
 70
    -2
  9
$DIMTMOVE
 70
     0
  9
$LUNITS
 70
     2
  9
$LUPREC
 70
     4
  9
$SKETCHINC
 40
0.1
  9
$FILLETRAD
 40
0.0
  9
$AUNITS
 70
     0
  9
$AUPREC
 70
     0
  9
$MENU
  1
ACAD
  9
$ELEVATION
 40
0.0
  9
$PELEVATION
 40
0.0
  9
$THICKNESS
 40
0.0
  9
$LIMCHECK
 70
     0
  9
$CHAMFERA
 40
0.0
  9
$CHAMFERB
 40
0.0
  9
$CHAMFERC
 40
0.0
  9
$CHAMFERD
 40
0.0
  9
$SKPOLY
 70
     0
  9
$TDCREATE
 40
2451815.565532581
  9
$TDUCREATE
 40
2451815.190532581
  9
$TDUPDATE
 40
2453732.388887975
  9
$TDUUPDATE
 40
2453732.013887975
  9
$TDINDWG
 40
0.6123158218
  9
$TDUSRTIMER
 40
0.6123138310
  9
$USRTIMER
 70
     1
  9
$ANGBASE
 50
0.0
  9
$ANGDIR
 70
     0
  9
$PDMODE
 70
     0
  9
$PDSIZE
 40
0.0
  9
$PLINEWID
 40
0.0
  9
$SPLFRAME
 70
     0
  9
$SPLINETYPE
 70
     6
  9
$SPLINESEGS
 70
     8
  9
$HANDSEED
  5
35F
  9
$SURFTAB1
 70
     6
  9
$SURFTAB2
 70
     6
  9
$SURFTYPE
 70
     6
  9
$SURFU
 70
     6
  9
$SURFV
 70
     6
  9
$UCSBASE
  2

  9
$UCSNAME
  2

  9
$UCSORG
 10
0.0
 20
0.0
 30
0.0
  9
$UCSXDIR
 10
1.0
 20
0.0
 30
0.0
  9
$UCSYDIR
 10
0.0
 20
1.0
 30
0.0
  9
$UCSORTHOREF
  2

  9
$UCSORTHOVIEW
 70
     0
  9
$UCSORGTOP
 10
0.0
 20
0.0
 30
0.0
  9
$UCSORGBOTTOM
 10
0.0
 20
0.0
 30
0.0
  9
$UCSORGLEFT
 10
0.0
 20
0.0
 30
0.0
  9
$UCSORGRIGHT
 10
0.0
 20
0.0
 30
0.0
  9
$UCSORGFRONT
 10
0.0
 20
0.0
 30
0.0
  9
$UCSORGBACK
 10
0.0
 20
0.0
 30
0.0
  9
$PUCSBASE
  2

  9
$PUCSNAME
  2

  9
$PUCSORG
 10
0.0
 20
0.0
 30
0.0
  9
$PUCSXDIR
 10
1.0
 20
0.0
 30
0.0
  9
$PUCSYDIR
 10
0.0
 20
1.0
 30
0.0
  9
$PUCSORTHOREF
  2

  9
$PUCSORTHOVIEW
 70
     0
  9
$PUCSORGTOP
 10
0.0
 20
0.0
 30
0.0
  9
$PUCSORGBOTTOM
 10
0.0
 20
0.0
 30
0.0
  9
$PUCSORGLEFT
 10
0.0
 20
0.0
 30
0.0
  9
$PUCSORGRIGHT
 10
0.0
 20
0.0
 30
0.0
  9
$PUCSORGFRONT
 10
0.0
 20
0.0
 30
0.0
  9
$PUCSORGBACK
 10
0.0
 20
0.0
 30
0.0
  9
$USERI1
 70
     0
  9
$USERI2
 70
     0
  9
$USERI3
 70
     0
  9
$USERI4
 70
     0
  9
$USERI5
 70
     0
  9
$USERR1
 40
0.0
  9
$USERR2
 40
0.0
  9
$USERR3
 40
0.0
  9
$USERR4
 40
0.0
  9
$USERR5
 40
0.0
  9
$WORLDVIEW
 70
     1
  9
$SHADEDGE
 70
     3
  9
$SHADEDIF
 70
    70
  9
$TILEMODE
 70
     1
  9
$MAXACTVP
 70
    48
  9
$PINSBASE
 10
0.0
 20
0.0
 30
0.0
  9
$PLIMCHECK
 70
     0
  9
$PEXTMIN
 10
1.000000000000000E+20
 20
1.000000000000000E+20
 30
1.000000000000000E+20
  9
$PEXTMAX
 10
-1.000000000000000E+20
 20
-1.000000000000000E+20
 30
-1.000000000000000E+20
  9
$PLIMMIN
 10
0.0
 20
0.0
  9
$PLIMMAX
 10
12.0
 20
9.0
  9
$UNITMODE
 70
     0
  9
$VISRETAIN
 70
     1
  9
$PLINEGEN
 70
     0
  9
$PSLTSCALE
 70
     1
  9
$TREEDEPTH
 70
  3020
  9
$CMLSTYLE
  2
STANDARD
  9
$CMLJUST
 70
     0
  9
$CMLSCALE
 40
1.0
  9
$PROXYGRAPHICS
 70
     1
  9
$MEASUREMENT
 70
     0
  9
$CELWEIGHT
370
    -1
  9
$ENDCAPS
280
     0
  9
$JOINSTYLE
280
     0
  9
$LWDISPLAY
290
     0
  9
$INSUNITS
 70
     0
  9
$HYPERLINKBASE
  1

  9
$STYLESHEET
  1

  9
$XEDIT
290
     1
  9
$CEPSNTYPE
380
     0
  9
$PSTYLEMODE
290
     1
  9
$FINGERPRINTGUID
  2
{1754B7AB-9B3C-11D4-AD9E-00104B1004F2}
  9
$VERSIONGUID
  2
{DC21258B-06AE-43F6-83B5-803A44DE4319}
  9
$EXTNAMES
290
     1
  9
$PSVPSCALE
 40
0.0
  9
$OLESTARTUP
290
     0
  0
ENDSEC
  0
SECTION
  2
CLASSES
  0
CLASS
  1
ACDBDICTIONARYWDFLT
  2
AcDbDictionaryWithDefault
  3
ObjectDBX Classes
 90
        0
280
     0
281
     0
  0
CLASS
  1
ACDBPLACEHOLDER
  2
AcDbPlaceHolder
  3
ObjectDBX Classes
 90
        0
280
     0
281
     0
  0
CLASS
  1
LAYOUT
  2
AcDbLayout
  3
ObjectDBX Classes
 90
        0
280
     0
281
     0
  0
CLASS
  1
DICTIONARYVAR
  2
AcDbDictionaryVar
  3
ObjectDBX Classes
 90
        0
280
     0
281
     0
  0
ENDSEC
  0
SECTION
  2
TABLES
  0
TABLE
  2
VPORT
  5
1F
330
0
100
AcDbSymbolTable
 70
     2
  0
VPORT
  5
357
330
1F
100
AcDbSymbolTableRecord
100
AcDbViewportTableRecord
  2
*Active
 70
     0
 10
0.0
 20
0.0
 11
1.0
 21
1.0
 12
8.556845024004129
 22
-1.845702991654434
 13
0.0
 23
0.0
 14
1.0
 24
1.0
 15
0.0
 25
0.0
 16
0.0
 26
0.0
 36
1.0
 17
0.0
 27
0.0
 37
0.0
 40
114.1554856759837
 41
1.589413447782546
 42
50.0
 43
0.0
 44
0.0
 50
0.0
 51
0.0
 71
     0
 72
 10000
 73
     1
 74
     0
 75
     0
 76
     1
 77
     0
 78
     0
281
     0
 65
     1
110
0.0
120
0.0
130
0.0
111
1.0
121
0.0
131
0.0
112
0.0
122
1.0
132
0.0
 79
     0
146
0.0
  0
ENDTAB
  0
TABLE
  2
LTYPE
  5
1A
330
0
100
AcDbSymbolTable
 70
     2
  0
LTYPE
  5
1B
330
1A
100
AcDbSymbolTableRecord
100
AcDbLinetypeTableRecord
  2
BYBLOCK
 70
     0
  3

 72
    65
 73
     0
 40
0.0
  0
LTYPE
  5
1C
330
1A
100
AcDbSymbolTableRecord
100
AcDbLinetypeTableRecord
  2
BYLAYER
 70
     0
  3

 72
    65
 73
     0
 40
0.0
  0
LTYPE
  5
A
330
1A
100
AcDbSymbolTableRecord
100
AcDbLinetypeTableRecord
  2
CONTINUOUS
 70
     0
  3
Solid line
 72
    65
 73
     0
 40
0.0
  0
LTYPE
  5
1B2
330
1A
100
AcDbSymbolTableRecord
100
AcDbLinetypeTableRecord
  2
HIDDEN2
 70
     0
  3
Hidden (.5x) _ _ _ _ _ _ _ _ _ _ _ _ _ _ _ _ _
 72
    65
 73
     2
 40
1.399999999999999
 49
0.7
 74
     0
 49
-0.7
 74
     0
  0
ENDTAB
  0
TABLE
  2
LAYER
  5
14
102
{ACAD_XDICTIONARY
360
15
102
}
330
0
100
AcDbSymbolTable
 70
     7
  0
LAYER
  5
6
330
14
100
AcDbSymbolTableRecord
100
AcDbLayerTableRecord
  2
0
 70
     0
 62
     7
  6
CONTINUOUS
370
    -3
390
7
  0
LAYER
  5
42
330
14
100
AcDbSymbolTableRecord
100
AcDbLayerTableRecord
  2
DEFPOINTS
 70
     0
 62
     7
  6
CONTINUOUS
290
     0
370
    -3
390
7
  0
LAYER
  5
282
330
14
100
AcDbSymbolTableRecord
100
AcDbLayerTableRecord
  2
WAKU
 70
     0
 62
     4
  6
CONTINUOUS
370
    -3
390
7
  0
LAYER
  5
34
330
14
100
AcDbSymbolTableRecord
100
AcDbLayerTableRecord
  2
MOJI1
 70
     0
 62
     2
  6
CONTINUOUS
370
    -3
390
7
  0
LAYER
  5
2A
330
14
100
AcDbSymbolTableRecord
100
AcDbLayerTableRecord
  2
GAIKEI
 70
     0
 62
     7
  6
CONTINUOUS
370
    -3
390
7
  0
LAYER
  5
36
330
14
100
AcDbSymbolTableRecord
100
AcDbLayerTableRecord
  2
TOUROKU
 70
     0
 62
     1
  6
CONTINUOUS
370
    -3
390
7
  0
LAYER
  5
38
330
14
100
AcDbSymbolTableRecord
100
AcDbLayerTableRecord
  2
SUNPO
 70
     0
 62
     3
  6
CONTINUOUS
370
    -3
390
7
  0
ENDTAB
  0
TABLE
  2
STYLE
  5
17
330
0
100
AcDbSymbolTable
 70
     1
  0
STYLE
  5
18
330
17
100
AcDbSymbolTableRecord
100
AcDbTextStyleTableRecord
  2
STANDARD
 70
     0
 40
0.0
 41
1.0
 50
0.0
 71
     0
 42
3.0
  3
MONOTXT.shx
  4
BIGFONT.shx
  0
ENDTAB
  0
TABLE
  2
VIEW
  5
1D
330
0
100
AcDbSymbolTable
 70
     0
  0
ENDTAB
  0
TABLE
  2
UCS
  5
1E
330
0
100
AcDbSymbolTable
 70
     0
  0
ENDTAB
  0
TABLE
  2
APPID
  5
21
330
0
100
AcDbSymbolTable
 70
     1
  0
APPID
  5
22
330
21
100
AcDbSymbolTableRecord
100
AcDbRegAppTableRecord
  2
ACAD
 70
     0
  0
ENDTAB
  0
TABLE
  2
DIMSTYLE
  5
23
330
0
100
AcDbSymbolTable
 70
     1
100
AcDbDimStyleTable
 71
     1
340
32
  0
DIMSTYLE
105
32
102
{ACAD_REACTORS
330
21C
330
1CD
330
19E
330
CB
330
53
330
46
330
37
102
}
330
23
100
AcDbSymbolTableRecord
100
AcDbDimStyleTableRecord
  2
STANDARD
 70
     0
 40
0.0
 41
2.0
 42
2.0
 43
8.0
 44
2.0
 73
     0
 74
     0
 77
     3
140
3.0
141
0.0
173
     1
279
     2
288
     1
340
18
341
2B
343
2B
344
2B
  0
ENDTAB
  0
TABLE
  2
BLOCK_RECORD
  5
1
330
0
100
AcDbSymbolTable
 70
    15
  0
BLOCK_RECORD
  5
2
102
{ACAD_XDICTIONARY
360
3
102
}
330
1
100
AcDbSymbolTableRecord
100
AcDbBlockTableRecord
  2
*MODEL_SPACE
340
C
  0
BLOCK_RECORD
  5
E
102
{ACAD_XDICTIONARY
360
F
102
}
330
1
100
AcDbSymbolTableRecord
100
AcDbBlockTableRecord
  2
*PAPER_SPACE
340
13
  0
BLOCK_RECORD
  5
2B
330
1
100
AcDbSymbolTableRecord
100
AcDbBlockTableRecord
  2
_OPEN30
340
0
102
{BLKREFS
331
1D3
331
1D4
331
222
331
223
331
3E
331
3F
331
4C
331
4D
331
5B
331
5C
331
D2
331
D3
331
1A5
331
1A6
331
317
331
318
331
320
331
321
331
32A
331
32B
331
334
331
335
331
33F
331
340
331
348
331
349
331
351
331
352
102
}
  0
BLOCK_RECORD
  5
2A4
330
1
100
AcDbSymbolTableRecord
100
AcDbBlockTableRecord
  2
*D8
340
0
  0
BLOCK_RECORD
  5
2B0
330
1
100
AcDbSymbolTableRecord
100
AcDbBlockTableRecord
  2
*D9
340
0
  0
BLOCK_RECORD
  5
2BC
330
1
100
AcDbSymbolTableRecord
100
AcDbBlockTableRecord
  2
*D10
340
0
  0
BLOCK_RECORD
  5
2C9
330
1
100
AcDbSymbolTableRecord
100
AcDbBlockTableRecord
  2
*D11
340
0
  0
BLOCK_RECORD
  5
2D6
330
1
100
AcDbSymbolTableRecord
100
AcDbBlockTableRecord
  2
*D12
340
0
  0
BLOCK_RECORD
  5
2E4
330
1
100
AcDbSymbolTableRecord
100
AcDbBlockTableRecord
  2
*D13
340
0
  0
BLOCK_RECORD
  5
2F0
330
1
100
AcDbSymbolTableRecord
100
AcDbBlockTableRecord
  2
*D14
340
0
  0
ENDTAB
  0
ENDSEC
  0
SECTION
  2
BLOCKS
  0
BLOCK
  5
5
330
2
100
AcDbEntity
  8
0
100
AcDbBlockBegin
  2
*MODEL_SPACE
 70
     0
 10
0.0
 20
0.0
 30
0.0
  3
*MODEL_SPACE
  1

  0
ENDBLK
  5
B
330
2
100
AcDbEntity
  8
0
100
AcDbBlockEnd
  0
BLOCK
  5
11
330
E
100
AcDbEntity
 67
     1
  8
0
100
AcDbBlockBegin
  2
*PAPER_SPACE
 70
     0
 10
0.0
 20
0.0
 30
0.0
  3
*PAPER_SPACE
  1

  0
ENDBLK
  5
12
330
E
100
AcDbEntity
 67
     1
  8
0
100
AcDbBlockEnd
  0
BLOCK
  5
2C
330
2B
100
AcDbEntity
  8
0
100
AcDbBlockBegin
  2
_OPEN30
 70
     0
 10
0.0
 20
0.0
 30
0.0
  3
_OPEN30
  1

  0
LINE
  5
2D
330
2B
100
AcDbEntity
  8
0
  6
ByBlock
 62
     0
100
AcDbLine
 10
-1.0
 20
0.26794919
 30
0.0
 11
0.0
 21
0.0
 31
0.0
  0
LINE
  5
2E
330
2B
100
AcDbEntity
  8
0
  6
ByBlock
 62
     0
100
AcDbLine
 10
0.0
 20
0.0
 30
0.0
 11
-1.0
 21
-0.26794919
 31
0.0
  0
LINE
  5
2F
330
2B
100
AcDbEntity
  8
0
  6
ByBlock
 62
     0
100
AcDbLine
 10
0.0
 20
0.0
 30
0.0
 11
-1.0
 21
0.0
 31
0.0
  0
ENDBLK
  5
30
330
2B
100
AcDbEntity
  8
0
100
AcDbBlockEnd
  0
BLOCK
  5
2AE
330
2A4
100
AcDbEntity
  8
0
100
AcDbBlockBegin
  2
*D8
 70
     1
 10
0.0
 20
0.0
 30
0.0
  3
*D8
  1

  0
LINE
  5
314
330
2A4
100
AcDbEntity
  8
SUNPO
 62
     0
370
    -2
100
AcDbLine
 10
39.6201925353145
 20
-9.49405385031406
 30
0.0
 11
39.6201925353145
 21
-17.49405385031406
 31
0.0
  0
LINE
  5
315
330
2A4
100
AcDbEntity
  8
SUNPO
 62
     0
370
    -2
100
AcDbLine
 10
55.96495953531448
 20
-9.49405385031406
 30
0.0
 11
55.96495953531448
 21
-17.49405385031406
 31
0.0
  0
LINE
  5
316
330
2A4
100
AcDbEntity
  8
SUNPO
 62
     0
370
    -2
100
AcDbLine
 10
41.62019253531449
 20
-15.49405385031406
 30
0.0
 11
53.96495953531448
 21
-15.49405385031406
 31
0.0
  0
INSERT
  5
317
330
2A4
100
AcDbEntity
  8
SUNPO
 62
     0
370
    -2
100
AcDbBlockReference
  2
_OPEN30
 10
39.6201925353145
 20
-15.49405385031406
 30
0.0
 41
2.0
 42
2.0
 43
2.0
 50
180.0
  0
INSERT
  5
318
330
2A4
100
AcDbEntity
  8
SUNPO
 62
     0
370
    -2
100
AcDbBlockReference
  2
_OPEN30
 10
55.96495953531448
 20
-15.49405385031406
 30
0.0
 41
2.0
 42
2.0
 43
2.0
  0
MTEXT
  5
319
330
2A4
100
AcDbEntity
  8
SUNPO
 62
     0
100
AcDbMText
 10
47.79257603531448
 20
-13.74405385031406
 30
0.0
 40
2.5
 41
0.0
 71
     5
 72
     1
  1
\A1;327
 73
     1
 44
1.0
1001
ACAD
1000
MTEXTBEGIN
1070
    73
1070
     1
1070
    44
1040
1.0
1070
    74
1070
     0
1000
MTEXTEND
  0
POINT
  5
31A
330
2A4
100
AcDbEntity
  8
DEFPOINTS
 62
     0
100
AcDbPoint
 10
39.6201925353145
 20
-7.494053850314059
 30
0.0
  0
POINT
  5
31B
330
2A4
100
AcDbEntity
  8
DEFPOINTS
 62
     0
100
AcDbPoint
 10
55.96495953531448
 20
-7.494053850314059
 30
0.0
  0
POINT
  5
31C
330
2A4
100
AcDbEntity
  8
DEFPOINTS
 62
     0
100
AcDbPoint
 10
55.96495953531448
 20
-15.49405385031406
 30
0.0
  0
ENDBLK
  5
2AF
330
2A4
100
AcDbEntity
  8
0
100
AcDbBlockEnd
  0
BLOCK
  5
2BA
330
2B0
100
AcDbEntity
  8
0
100
AcDbBlockBegin
  2
*D9
 70
     1
 10
0.0
 20
0.0
 30
0.0
  3
*D9
  1

  0
LINE
  5
31D
330
2B0
100
AcDbEntity
  8
SUNPO
 62
     0
370
    -2
100
AcDbLine
 10
-22.93220787588202
 20
-9.49405385031406
 30
0.0
 11
-22.93220787588202
 21
-17.49405385031406
 31
0.0
  0
LINE
  5
31E
330
2B0
100
AcDbEntity
  8
SUNPO
 62
     0
370
    -2
100
AcDbLine
 10
12.2677921241178
 20
-9.49405385031406
 30
0.0
 11
12.2677921241178
 21
-17.49405385031406
 31
0.0
  0
LINE
  5
31F
330
2B0
100
AcDbEntity
  8
SUNPO
 62
     0
370
    -2
100
AcDbLine
 10
-20.93220787588202
 20
-15.49405385031406
 30
0.0
 11
10.2677921241178
 21
-15.49405385031406
 31
0.0
  0
INSERT
  5
320
330
2B0
100
AcDbEntity
  8
SUNPO
 62
     0
370
    -2
100
AcDbBlockReference
  2
_OPEN30
 10
-22.93220787588202
 20
-15.49405385031406
 30
0.0
 41
2.0
 42
2.0
 43
2.0
 50
180.0
  0
INSERT
  5
321
330
2B0
100
AcDbEntity
  8
SUNPO
 62
     0
370
    -2
100
AcDbBlockReference
  2
_OPEN30
 10
12.2677921241178
 20
-15.49405385031406
 30
0.0
 41
2.0
 42
2.0
 43
2.0
  0
MTEXT
  5
322
330
2B0
100
AcDbEntity
  8
SUNPO
 62
     0
100
AcDbMText
 10
-5.33220787588211
 20
-13.74405385031406
 30
0.0
 40
2.5
 41
0.0
 71
     5
 72
     1
  1
\A1;704
 73
     1
 44
1.0
1001
ACAD
1000
MTEXTBEGIN
1070
    73
1070
     1
1070
    44
1040
1.0
1070
    74
1070
     0
1000
MTEXTEND
  0
POINT
  5
323
330
2B0
100
AcDbEntity
  8
DEFPOINTS
 62
     0
100
AcDbPoint
 10
-22.93220787588202
 20
-7.494053850314059
 30
0.0
  0
POINT
  5
324
330
2B0
100
AcDbEntity
  8
DEFPOINTS
 62
     0
100
AcDbPoint
 10
12.2677921241178
 20
-7.494053850314059
 30
0.0
  0
POINT
  5
325
330
2B0
100
AcDbEntity
  8
DEFPOINTS
 62
     0
100
AcDbPoint
 10
12.2677921241178
 20
-15.49405385031406
 30
0.0
  0
ENDBLK
  5
2BB
330
2B0
100
AcDbEntity
  8
0
100
AcDbBlockEnd
  0
BLOCK
  5
2C7
330
2BC
100
AcDbEntity
  8
0
100
AcDbBlockBegin
  2
*D10
 70
     1
 10
0.0
 20
0.0
 30
0.0
  3
*D10
  1

  0
LINE
  5
326
330
2BC
100
AcDbEntity
  8
SUNPO
 62
     0
370
    -2
100
AcDbLine
 10
-30.37660512588213
 20
28.13198370247898
 30
0.0
 11
-30.37660512588213
 21
36.13198370247899
 31
0.0
  0
LINE
  5
327
330
2BC
100
AcDbEntity
  8
SUNPO
 62
     0
370
    -2
100
AcDbLine
 10
-35.72833762588192
 20
28.13198370247898
 30
0.0
 11
-35.72833762588192
 21
36.13198370247899
 31
0.0
  0
LINE
  5
328
330
2BC
100
AcDbEntity
  8
SUNPO
 62
     0
370
    -2
100
AcDbLine
 10
-32.37660512588213
 20
34.13198370247898
 30
0.0
 11
-33.72833762588192
 21
34.13198370247898
 31
0.0
  0
LINE
  5
329
330
2BC
100
AcDbEntity
  8
SUNPO
 62
     0
370
    -2
100
AcDbLine
 10
-35.72833762588192
 20
34.13198370247898
 30
0.0
 11
-45.39500429254858
 21
34.13198370247898
 31
0.0
  0
INSERT
  5
32A
330
2BC
100
AcDbEntity
  8
SUNPO
 62
     0
370
    -2
100
AcDbBlockReference
  2
_OPEN30
 10
-30.37660512588213
 20
34.13198370247898
 30
0.0
 41
2.0
 42
2.0
 43
2.0
  0
INSERT
  5
32B
330
2BC
100
AcDbEntity
  8
SUNPO
 62
     0
370
    -2
100
AcDbBlockReference
  2
_OPEN30
 10
-35.72833762588192
 20
34.13198370247898
 30
0.0
 41
2.0
 42
2.0
 43
2.0
 50
180.0
  0
MTEXT
  5
32C
330
2BC
100
AcDbEntity
  8
SUNPO
 62
     0
100
AcDbMText
 10
-41.56167095921525
 20
35.88198370247898
 30
0.0
 40
2.5
 41
0.0
 71
     5
 72
     1
  1
\A1;107
 73
     1
 44
1.0
1001
ACAD
1000
MTEXTBEGIN
1070
    73
1070
     1
1070
    44
1040
1.0
1070
    74
1070
     0
1000
MTEXTEND
  0
POINT
  5
32D
330
2BC
100
AcDbEntity
  8
DEFPOINTS
 62
     0
100
AcDbPoint
 10
-30.37660512588213
 20
26.13198370247898
 30
0.0
  0
POINT
  5
32E
330
2BC
100
AcDbEntity
  8
DEFPOINTS
 62
     0
100
AcDbPoint
 10
-35.72833762588192
 20
26.13198370247898
 30
0.0
  0
POINT
  5
32F
330
2BC
100
AcDbEntity
  8
DEFPOINTS
 62
     0
100
AcDbPoint
 10
-35.72833762588192
 20
34.13198370247898
 30
0.0
  0
ENDBLK
  5
2C8
330
2BC
100
AcDbEntity
  8
0
100
AcDbBlockEnd
  0
BLOCK
  5
2D4
330
2C9
100
AcDbEntity
  8
0
100
AcDbBlockBegin
  2
*D11
 70
     1
 10
0.0
 20
0.0
 30
0.0
  3
*D11
  1

  0
LINE
  5
330
330
2C9
100
AcDbEntity
  8
SUNPO
 62
     0
370
    -2
100
AcDbLine
 10
19.71218937411794
 20
28.13198370247898
 30
0.0
 11
19.71218937411794
 21
36.13198370247899
 31
0.0
  0
LINE
  5
331
330
2C9
100
AcDbEntity
  8
SUNPO
 62
     0
370
    -2
100
AcDbLine
 10
25.06392187411774
 20
28.13198370247898
 30
0.0
 11
25.06392187411774
 21
36.13198370247899
 31
0.0
  0
LINE
  5
332
330
2C9
100
AcDbEntity
  8
SUNPO
 62
     0
370
    -2
100
AcDbLine
 10
21.71218937411794
 20
34.13198370247898
 30
0.0
 11
23.06392187411773
 21
34.13198370247898
 31
0.0
  0
LINE
  5
333
330
2C9
100
AcDbEntity
  8
SUNPO
 62
     0
370
    -2
100
AcDbLine
 10
25.06392187411774
 20
34.13198370247898
 30
0.0
 11
34.7305885407844
 21
34.13198370247898
 31
0.0
  0
INSERT
  5
334
330
2C9
100
AcDbEntity
  8
SUNPO
 62
     0
370
    -2
100
AcDbBlockReference
  2
_OPEN30
 10
19.71218937411794
 20
34.13198370247898
 30
0.0
 41
2.0
 42
2.0
 43
2.0
 50
180.0
  0
INSERT
  5
335
330
2C9
100
AcDbEntity
  8
SUNPO
 62
     0
370
    -2
100
AcDbBlockReference
  2
_OPEN30
 10
25.06392187411774
 20
34.13198370247898
 30
0.0
 41
2.0
 42
2.0
 43
2.0
  0
MTEXT
  5
336
330
2C9
100
AcDbEntity
  8
SUNPO
 62
     0
100
AcDbMText
 10
30.89725520745107
 20
35.88198370247898
 30
0.0
 40
2.5
 41
0.0
 71
     5
 72
     1
  1
\A1;107
 73
     1
 44
1.0
1001
ACAD
1000
MTEXTBEGIN
1070
    73
1070
     1
1070
    44
1040
1.0
1070
    74
1070
     0
1000
MTEXTEND
  0
POINT
  5
337
330
2C9
100
AcDbEntity
  8
DEFPOINTS
 62
     0
100
AcDbPoint
 10
19.71218937411794
 20
26.13198370247898
 30
0.0
  0
POINT
  5
338
330
2C9
100
AcDbEntity
  8
DEFPOINTS
 62
     0
100
AcDbPoint
 10
25.06392187411774
 20
26.13198370247898
 30
0.0
  0
POINT
  5
339
330
2C9
100
AcDbEntity
  8
DEFPOINTS
 62
     0
100
AcDbPoint
 10
25.06392187411774
 20
34.13198370247898
 30
0.0
  0
ENDBLK
  5
2D5
330
2C9
100
AcDbEntity
  8
0
100
AcDbBlockEnd
  0
BLOCK
  5
2E2
330
2D6
100
AcDbEntity
  8
0
100
AcDbBlockBegin
  2
*D12
 70
     1
 10
0.0
 20
0.0
 30
0.0
  3
*D12
  1

  0
LINE
  5
33A
330
2D6
100
AcDbEntity
  8
SUNPO
 62
     0
370
    -2
100
AcDbLine
 10
46.5975679853149
 20
28.13198370247898
 30
0.0
 11
46.5975679853149
 21
36.13198370247899
 31
0.0
  0
LINE
  5
33B
330
2D6
100
AcDbEntity
  8
SUNPO
 62
     0
370
    -2
100
AcDbLine
 10
51.04756798531489
 20
28.13198370247898
 30
0.0
 11
51.04756798531489
 21
36.13198370247899
 31
0.0
  0
LINE
  5
33C
330
2D6
100
AcDbEntity
  8
SUNPO
 62
     0
370
    -2
100
AcDbLine
 10
44.5975679853149
 20
34.13198370247898
 30
0.0
 11
42.5975679853149
 21
34.13198370247898
 31
0.0
  0
LINE
  5
33D
330
2D6
100
AcDbEntity
  8
SUNPO
 62
     0
370
    -2
100
AcDbLine
 10
53.04756798531489
 20
34.13198370247898
 30
0.0
 11
60.21423465198155
 21
34.13198370247898
 31
0.0
  0
LINE
  5
33E
330
2D6
100
AcDbEntity
  8
SUNPO
 62
     0
370
    -2
100
AcDbLine
 10
46.5975679853149
 20
34.13198370247898
 30
0.0
 11
51.04756798531489
 21
34.13198370247898
 31
0.0
  0
INSERT
  5
33F
330
2D6
100
AcDbEntity
  8
SUNPO
 62
     0
370
    -2
100
AcDbBlockReference
  2
_OPEN30
 10
46.5975679853149
 20
34.13198370247898
 30
0.0
 41
2.0
 42
2.0
 43
2.0
  0
INSERT
  5
340
330
2D6
100
AcDbEntity
  8
SUNPO
 62
     0
370
    -2
100
AcDbBlockReference
  2
_OPEN30
 10
51.04756798531489
 20
34.13198370247898
 30
0.0
 41
2.0
 42
2.0
 43
2.0
 50
180.0
  0
MTEXT
  5
341
330
2D6
100
AcDbEntity
  8
SUNPO
 62
     0
100
AcDbMText
 10
57.63090131864823
 20
35.88198370247898
 30
0.0
 40
2.5
 41
0.0
 71
     5
 72
     1
  1
\A1;89
 73
     1
 44
1.0
1001
ACAD
1000
MTEXTBEGIN
1070
    73
1070
     1
1070
    44
1040
1.0
1070
    74
1070
     0
1000
MTEXTEND
  0
POINT
  5
342
330
2D6
100
AcDbEntity
  8
DEFPOINTS
 62
     0
100
AcDbPoint
 10
46.5975679853149
 20
26.13198370247898
 30
0.0
  0
POINT
  5
343
330
2D6
100
AcDbEntity
  8
DEFPOINTS
 62
     0
100
AcDbPoint
 10
51.04756798531489
 20
26.13198370247898
 30
0.0
  0
POINT
  5
344
330
2D6
100
AcDbEntity
  8
DEFPOINTS
 62
     0
100
AcDbPoint
 10
51.04756798531489
 20
34.13198370247898
 30
0.0
  0
ENDBLK
  5
2E3
330
2D6
100
AcDbEntity
  8
0
100
AcDbBlockEnd
  0
BLOCK
  5
2EE
330
2E4
100
AcDbEntity
  8
0
100
AcDbBlockBegin
  2
*D13
 70
     1
 10
0.0
 20
0.0
 30
0.0
  3
*D13
  1

  0
LINE
  5
345
330
2E4
100
AcDbEntity
  8
SUNPO
 62
     0
370
    -2
100
AcDbLine
 10
-30.38220787588211
 20
28.13198370247893
 30
0.0
 11
-30.38220787588211
 21
36.13198370247893
 31
0.0
  0
LINE
  5
346
330
2E4
100
AcDbEntity
  8
SUNPO
 62
     0
370
    -2
100
AcDbLine
 10
19.71779212411792
 20
28.13198370247893
 30
0.0
 11
19.71779212411792
 21
36.13198370247893
 31
0.0
  0
LINE
  5
347
330
2E4
100
AcDbEntity
  8
SUNPO
 62
     0
370
    -2
100
AcDbLine
 10
-28.38220787588211
 20
34.13198370247893
 30
0.0
 11
17.71779212411792
 21
34.13198370247893
 31
0.0
  0
INSERT
  5
348
330
2E4
100
AcDbEntity
  8
SUNPO
 62
     0
370
    -2
100
AcDbBlockReference
  2
_OPEN30
 10
-30.38220787588211
 20
34.13198370247893
 30
0.0
 41
2.0
 42
2.0
 43
2.0
 50
180.0
  0
INSERT
  5
349
330
2E4
100
AcDbEntity
  8
SUNPO
 62
     0
370
    -2
100
AcDbBlockReference
  2
_OPEN30
 10
19.71779212411792
 20
34.13198370247893
 30
0.0
 41
2.0
 42
2.0
 43
2.0
  0
MTEXT
  5
34A
330
2E4
100
AcDbEntity
  8
SUNPO
 62
     0
100
AcDbMText
 10
-5.332207875882092
 20
35.88198370247893
 30
0.0
 40
2.5
 41
0.0
 71
     5
 72
     1
  1
\A1;1020
 73
     1
 44
1.0
1001
ACAD
1000
MTEXTBEGIN
1070
    73
1070
     1
1070
    44
1040
1.0
1070
    74
1070
     0
1000
MTEXTEND
  0
POINT
  5
34B
330
2E4
100
AcDbEntity
  8
DEFPOINTS
 62
     0
100
AcDbPoint
 10
-30.38220787588211
 20
26.13198370247892
 30
0.0
  0
POINT
  5
34C
330
2E4
100
AcDbEntity
  8
DEFPOINTS
 62
     0
100
AcDbPoint
 10
19.71779212411792
 20
26.13198370247892
 30
0.0
  0
POINT
  5
34D
330
2E4
100
AcDbEntity
  8
DEFPOINTS
 62
     0
100
AcDbPoint
 10
19.71779212411792
 20
34.13198370247893
 30
0.0
  0
ENDBLK
  5
2EF
330
2E4
100
AcDbEntity
  8
0
100
AcDbBlockEnd
  0
BLOCK
  5
2FA
330
2F0
100
AcDbEntity
  8
0
100
AcDbBlockBegin
  2
*D14
 70
     1
 10
0.0
 20
0.0
 30
0.0
  3
*D14
  1

  0
LINE
  5
34E
330
2F0
100
AcDbEntity
  8
SUNPO
 62
     0
370
    -2
100
AcDbLine
 10
27.03595437125478
 20
-4.367729853169692
 30
0.0
 11
35.03595437125478
 21
-4.367729853169695
 31
0.0
  0
LINE
  5
34F
330
2F0
100
AcDbEntity
  8
SUNPO
 62
     0
370
    -2
100
AcDbLine
 10
27.03595437125478
 20
26.13227014683031
 30
0.0
 11
35.03595437125478
 21
26.13227014683031
 31
0.0
  0
LINE
  5
350
330
2F0
100
AcDbEntity
  8
SUNPO
 62
     0
370
    -2
100
AcDbLine
 10
33.03595437125478
 20
-2.367729853169695
 30
0.0
 11
33.03595437125478
 21
24.13227014683031
 31
0.0
  0
INSERT
  5
351
330
2F0
100
AcDbEntity
  8
SUNPO
 62
     0
370
    -2
100
AcDbBlockReference
  2
_OPEN30
 10
33.03595437125478
 20
-4.367729853169694
 30
0.0
 41
2.0
 42
2.0
 43
2.0
 50
270.0
  0
INSERT
  5
352
330
2F0
100
AcDbEntity
  8
SUNPO
 62
     0
370
    -2
100
AcDbBlockReference
  2
_OPEN30
 10
33.03595437125478
 20
26.13227014683031
 30
0.0
 41
2.0
 42
2.0
 43
2.0
 50
90.0
  0
MTEXT
  5
353
330
2F0
100
AcDbEntity
  8
SUNPO
 62
     0
100
AcDbMText
 10
31.28595437125478
 20
10.88227014683031
 30
0.0
 40
2.5
 41
0.0
 71
     5
 72
     1
  1
\A1;610
 11
0.0000000000000001
 21
1.0
 31
0.0
 73
     1
 44
1.0
1001
ACAD
1000
MTEXTBEGIN
1070
    73
1070
     1
1070
    44
1040
1.0
1070
    74
1070
     0
1000
MTEXTEND
  0
POINT
  5
354
330
2F0
100
AcDbEntity
  8
DEFPOINTS
 62
     0
100
AcDbPoint
 10
25.03595437125478
 20
-4.367729853169691
 30
0.0
  0
POINT
  5
355
330
2F0
100
AcDbEntity
  8
DEFPOINTS
 62
     0
100
AcDbPoint
 10
25.03595437125478
 20
26.13227014683031
 30
0.0
  0
POINT
  5
356
330
2F0
100
AcDbEntity
  8
DEFPOINTS
 62
     0
100
AcDbPoint
 10
33.03595437125478
 20
26.13227014683031
 30
0.0
  0
ENDBLK
  5
2FB
330
2F0
100
AcDbEntity
  8
0
100
AcDbBlockEnd
  0
ENDSEC
  0
SECTION
  2
ENTITIES
  0
TEXT
  5
33
330
2
100
AcDbEntity
  8
MOJI1
100
AcDbText
 10
-26.91262512051066
 20
50.65968209901961
 30
0.0
 40
4.0
  1
ハイビジョンプラズマディスプレイ・据置きスタンド・ＳＰ付
 41
0.73
100
AcDbText
  0
TEXT
  5
35
330
2
100
AcDbEntity
  8
TOUROKU
100
AcDbText
 10
7.087324912416875
 20
44.65968209901942
 30
0.0
 40
2.0
  1
ＴＨ４２ＰＨＤ８Ｓ＋ＴＹＳＴ０８Ｓ＋ＴＹＳＰ４２Ｐ８Ｓ
 72
     2
 11
71.08732491241688
 21
44.65968209901942
 31
0.0
100
AcDbText
  0
DIMENSION
  5
37
330
2
100
AcDbEntity
  8
SUNPO
100
AcDbDimension
  2
*D14
 10
33.03595437125478
 20
26.13227014683031
 30
0.0
 11
31.28595437125478
 21
10.88227014683031
 31
0.0
 70
    33
  1
610
 71
     5
 42
30.50000000000001
  3
STANDARD
100
AcDbAlignedDimension
 13
25.03595437125478
 23
-4.367729853169691
 33
0.0
 14
25.03595437125478
 24
26.13227014683031
 34
0.0
1001
ACAD
1000
DSTYLE
1002
{
1070
    40
1040
1.0
1070
   140
1040
2.5
1070
   147
1040
0.5
1070
   172
1070
     1
1070
   279
1070
     0
1070
   288
1070
     0
1002
}
  0
DIMENSION
  5
46
330
2
100
AcDbEntity
  8
SUNPO
100
AcDbDimension
  2
*D13
 10
19.71779212411792
 20
34.13198370247893
 30
0.0
 11
-5.332207875882092
 21
35.88198370247893
 31
0.0
 70
    33
  1
1020
 71
     5
 42
50.10000000000004
  3
STANDARD
100
AcDbAlignedDimension
 13
-30.38220787588211
 23
26.13198370247892
 33
0.0
 14
19.71779212411792
 24
26.13198370247892
 34
0.0
1001
ACAD
1000
DSTYLE
1002
{
1070
    40
1040
1.0
1070
   140
1040
2.5
1070
   147
1040
0.5
1070
   172
1070
     1
1070
   279
1070
     0
1070
   288
1070
     0
1002
}
  0
DIMENSION
  5
53
330
2
100
AcDbEntity
  8
SUNPO
100
AcDbDimension
  2
*D12
 10
51.04756798531489
 20
34.13198370247898
 30
0.0
 11
57.63090131864823
 21
35.88198370247898
 31
0.0
 70
    33
  1
89
 71
     5
 42
4.449999999999988
  3
STANDARD
100
AcDbAlignedDimension
 13
46.5975679853149
 23
26.13198370247898
 33
0.0
 14
51.04756798531489
 24
26.13198370247898
 34
0.0
1001
ACAD
1000
DSTYLE
1002
{
1070
    40
1040
1.0
1070
   140
1040
2.5
1070
   147
1040
0.5
1070
   172
1070
     1
1070
   279
1070
     0
1070
   288
1070
     0
1002
}
  0
LINE
  5
62
330
2
100
AcDbEntity
  8
GAIKEI
  6
Continuous
 62
     1
100
AcDbLine
 10
-27.88220787588211
 20
-2.067729853169737
 30
0.0
 11
17.21779212411792
 21
-2.067729853169737
 31
0.0
  0
LINE
  5
63
330
2
100
AcDbEntity
  8
GAIKEI
  6
Continuous
 62
     1
100
AcDbLine
 10
-27.88220787588211
 20
23.83227014683024
 30
0.0
 11
17.21779212411792
 21
23.83227014683024
 31
0.0
  0
LINE
  5
64
330
2
100
AcDbEntity
  8
GAIKEI
  6
Continuous
 62
     1
100
AcDbLine
 10
-27.88220787588211
 20
-2.067729853169737
 30
0.0
 11
-27.88220787588211
 21
23.83227014683024
 31
0.0
  0
LINE
  5
65
330
2
100
AcDbEntity
  8
GAIKEI
  6
Continuous
 62
     1
100
AcDbLine
 10
17.21779212411792
 20
-2.067729853169737
 30
0.0
 11
17.21779212411792
 21
23.83227014683024
 31
0.0
  0
ARC
  5
66
330
2
100
AcDbEntity
  8
GAIKEI
  6
Continuous
100
AcDbCircle
 10
-30.18220787588206
 20
-4.167729853169759
 30
0.0
 40
0.2
100
AcDbArc
 50
180.0
 51
270.0
  0
LINE
  5
67
330
2
100
AcDbEntity
  8
GAIKEI
  6
Continuous
 62
     1
100
AcDbLine
 10
-27.44220787588216
 20
-3.842729853169713
 30
0.0
 11
-27.44220787588216
 21
-3.542729853169759
 31
0.0
  0
LINE
  5
68
330
2
100
AcDbEntity
  8
GAIKEI
  6
Continuous
 62
     1
100
AcDbLine
 10
-27.46720787588214
 20
-3.867729853169691
 30
0.0
 11
-27.76720787588209
 21
-3.867729853169691
 31
0.0
  0
LINE
  5
69
330
2
100
AcDbEntity
  8
GAIKEI
  6
Continuous
 62
     1
100
AcDbLine
 10
-29.29220787588207
 20
-3.652729853169773
 30
0.0
 11
-29.37220787588211
 21
-3.652729853169773
 31
0.0
  0
LINE
  5
6A
330
2
100
AcDbEntity
  8
GAIKEI
  6
Continuous
 62
     1
100
AcDbLine
 10
-29.29220787588207
 20
-3.732729853169701
 30
0.0
 11
-29.37220787588211
 21
-3.732729853169701
 31
0.0
  0
LINE
  5
6B
330
2
100
AcDbEntity
  8
GAIKEI
  6
Continuous
 62
     1
100
AcDbLine
 10
-29.29220787588207
 20
-3.732729853169701
 30
0.0
 11
-29.29220787588207
 21
-3.652729853169773
 31
0.0
  0
LINE
  5
6C
330
2
100
AcDbEntity
  8
GAIKEI
  6
Continuous
 62
     1
100
AcDbLine
 10
-29.37220787588211
 20
-3.732729853169701
 30
0.0
 11
-29.37220787588211
 21
-3.652729853169773
 31
0.0
  0
LINE
  5
6D
330
2
100
AcDbEntity
  8
GAIKEI
  6
Continuous
 62
     1
100
AcDbLine
 10
-27.46720787588214
 20
-3.517729853169726
 30
0.0
 11
-27.76720787588209
 21
-3.517729853169726
 31
0.0
  0
LINE
  5
6E
330
2
100
AcDbEntity
  8
GAIKEI
  6
Continuous
 62
     1
100
AcDbLine
 10
-27.79220787588208
 20
-3.842729853169713
 30
0.0
 11
-27.79220787588208
 21
-3.542729853169759
 31
0.0
  0
ARC
  5
6F
330
2
100
AcDbEntity
  8
GAIKEI
  6
Continuous
 62
     1
100
AcDbCircle
 10
-27.76720787588209
 20
-3.542729853169759
 30
0.0
 40
0.025
100
AcDbArc
 50
90.0
 51
180.0
  0
ARC
  5
70
330
2
100
AcDbEntity
  8
GAIKEI
  6
Continuous
 62
     1
100
AcDbCircle
 10
-27.46720787588214
 20
-3.542729853169759
 30
0.0
 40
0.025
100
AcDbArc
 50
0.0
 51
90.0
  0
ARC
  5
71
330
2
100
AcDbEntity
  8
GAIKEI
  6
Continuous
 62
     1
100
AcDbCircle
 10
-27.76720787588209
 20
-3.842729853169713
 30
0.0
 40
0.025
100
AcDbArc
 50
180.0
 51
270.0
  0
ARC
  5
72
330
2
100
AcDbEntity
  8
GAIKEI
  6
Continuous
 62
     1
100
AcDbCircle
 10
-27.46720787588214
 20
-3.842729853169713
 30
0.0
 40
0.025
100
AcDbArc
 50
270.0
 51
0.0
  0
ARC
  5
73
330
2
100
AcDbEntity
  8
GAIKEI
  6
Continuous
 62
     1
100
AcDbCircle
 10
-29.79720787588206
 20
-3.782729853169768
 30
0.0
 40
0.2
100
AcDbArc
 50
180.0
 51
270.0
  0
ARC
  5
74
330
2
100
AcDbEntity
  8
GAIKEI
  6
Continuous
100
AcDbCircle
 10
-30.18220787588206
 20
-4.167729853169759
 30
0.0
 40
0.2
100
AcDbArc
 50
180.0
 51
270.0
  0
ARC
  5
75
330
2
100
AcDbEntity
  8
GAIKEI
  6
Continuous
 62
     1
100
AcDbCircle
 10
-28.8822078758821
 20
-2.867729853169691
 30
0.0
 40
0.1
100
AcDbArc
 50
180.0
 51
270.0
  0
ARC
  5
76
330
2
100
AcDbEntity
  8
GAIKEI
  6
Continuous
 62
     1
100
AcDbCircle
 10
-28.8822078758821
 20
-2.867729853169691
 30
0.0
 40
0.18
100
AcDbArc
 50
180.0
 51
270.0
  0
ARC
  5
77
330
2
100
AcDbEntity
  8
GAIKEI
  6
Continuous
 62
     1
100
AcDbCircle
 10
-30.07608212588213
 20
-4.061604103169712
 30
0.0
 40
0.2
100
AcDbArc
 50
180.0
 51
270.0
  0
ARC
  5
78
330
2
100
AcDbEntity
  8
GAIKEI
  6
Continuous
 62
     1
100
AcDbCircle
 10
-28.8822078758821
 20
-2.867729853169691
 30
0.0
 40
0.10628895
100
AcDbArc
 50
180.0
 51
270.0
  0
LINE
  5
79
330
2
100
AcDbEntity
  8
GAIKEI
  6
Continuous
 62
     1
100
AcDbLine
 10
-28.8822078758821
 20
-3.047729853169754
 30
0.0
 11
18.21779212411792
 21
-3.047729853169754
 31
0.0
  0
LINE
  5
7A
330
2
100
AcDbEntity
  8
GAIKEI
  6
Continuous
 62
     1
100
AcDbLine
 10
-30.07608212588213
 20
-4.261604103169759
 30
0.0
 11
19.41166637411794
 21
-4.261604103169759
 31
0.0
  0
LINE
  5
7B
330
2
100
AcDbEntity
  8
GAIKEI
  6
Continuous
 62
     1
100
AcDbLine
 10
-28.8822078758821
 20
-2.974018803169713
 30
0.0
 11
18.21779212411792
 21
-2.974018803169768
 31
0.0
  0
LINE
  5
7C
330
2
100
AcDbEntity
  8
GAIKEI
  6
Continuous
 62
     1
100
AcDbLine
 10
-29.79720787588206
 20
-3.982729853169701
 30
0.0
 11
19.13279212411788
 21
-3.982729853169757
 31
0.0
  0
ARC
  5
7D
330
2
100
AcDbEntity
  8
GAIKEI
  6
Continuous
100
AcDbCircle
 10
19.51779212411787
 20
-4.167729853169759
 30
0.0
 40
0.2
100
AcDbArc
 50
270.0
 51
0.0
  0
ARC
  5
7E
330
2
100
AcDbEntity
  8
GAIKEI
  6
Continuous
 62
     1
100
AcDbCircle
 10
18.21779212411792
 20
-2.867729853169748
 30
0.0
 40
0.10628895
100
AcDbArc
 50
270.0
 51
0.0
  0
ARC
  5
7F
330
2
100
AcDbEntity
  8
GAIKEI
  6
Continuous
 62
     1
100
AcDbCircle
 10
18.21779212411792
 20
-2.867729853169748
 30
0.0
 40
0.18
100
AcDbArc
 50
270.0
 51
0.0
  0
ARC
  5
80
330
2
100
AcDbEntity
  8
GAIKEI
  6
Continuous
 62
     1
100
AcDbCircle
 10
18.21779212411792
 20
-2.867729853169748
 30
0.0
 40
0.1
100
AcDbArc
 50
270.0
 51
0.0
  0
ARC
  5
81
330
2
100
AcDbEntity
  8
GAIKEI
  6
Continuous
100
AcDbCircle
 10
19.51779212411787
 20
-4.167729853169759
 30
0.0
 40
0.2
100
AcDbArc
 50
270.0
 51
0.0
  0
ARC
  5
82
330
2
100
AcDbEntity
  8
GAIKEI
  6
Continuous
 62
     1
100
AcDbCircle
 10
19.13279212411788
 20
-3.782729853169768
 30
0.0
 40
0.2
100
AcDbArc
 50
270.0
 51
0.0
  0
ARC
  5
83
330
2
100
AcDbEntity
  8
GAIKEI
  6
Continuous
 62
     1
100
AcDbCircle
 10
19.41166637411794
 20
-4.06160410316977
 30
0.0
 40
0.2
100
AcDbArc
 50
270.0
 51
0.0
  0
LINE
  5
84
330
2
100
AcDbEntity
  8
GAIKEI
  6
Continuous
100
AcDbLine
 10
-30.18220787588206
 20
-4.367729853169747
 30
0.0
 11
19.51779212411787
 21
-4.367729853169747
 31
0.0
  0
LINE
  5
85
330
2
100
AcDbEntity
  8
GAIKEI
  6
Continuous
 62
     1
100
AcDbLine
 10
18.21779212411792
 20
-2.967729853169771
 30
0.0
 11
-28.8822078758821
 21
-2.967729853169713
 31
0.0
  0
ARC
  5
86
330
2
100
AcDbEntity
  8
GAIKEI
  6
Continuous
100
AcDbCircle
 10
19.51779212411787
 20
25.93227014683026
 30
0.0
 40
0.2
100
AcDbArc
 50
0.0
 51
90.0
  0
ARC
  5
87
330
2
100
AcDbEntity
  8
GAIKEI
  6
Continuous
 62
     1
100
AcDbCircle
 10
18.21779212411792
 20
24.63227014683025
 30
0.0
 40
0.10628895
100
AcDbArc
 50
0.0
 51
90.0
  0
ARC
  5
88
330
2
100
AcDbEntity
  8
GAIKEI
  6
Continuous
 62
     1
100
AcDbCircle
 10
18.21779212411792
 20
24.63227014683025
 30
0.0
 40
0.18
100
AcDbArc
 50
0.0
 51
90.0
  0
ARC
  5
89
330
2
100
AcDbEntity
  8
GAIKEI
  6
Continuous
 62
     1
100
AcDbCircle
 10
18.21779212411792
 20
24.63227014683025
 30
0.0
 40
0.1
100
AcDbArc
 50
0.0
 51
90.0
  0
ARC
  5
8A
330
2
100
AcDbEntity
  8
GAIKEI
  6
Continuous
100
AcDbCircle
 10
19.51779212411787
 20
25.93227014683026
 30
0.0
 40
0.2
100
AcDbArc
 50
0.0
 51
90.0
  0
ARC
  5
8B
330
2
100
AcDbEntity
  8
GAIKEI
  6
Continuous
 62
     1
100
AcDbCircle
 10
19.13279212411788
 20
25.54727014683027
 30
0.0
 40
0.2
100
AcDbArc
 50
0.0
 51
90.0
  0
ARC
  5
8C
330
2
100
AcDbEntity
  8
GAIKEI
  6
Continuous
 62
     1
100
AcDbCircle
 10
19.41166637411794
 20
25.82614439683022
 30
0.0
 40
0.2
100
AcDbArc
 50
0.0
 51
90.0
  0
LINE
  5
8D
330
2
100
AcDbEntity
  8
GAIKEI
  6
Continuous
 62
     1
100
AcDbLine
 10
19.13279212411788
 20
25.74727014683027
 30
0.0
 11
-29.79720787588206
 21
25.74727014683032
 31
0.0
  0
LINE
  5
8E
330
2
100
AcDbEntity
  8
GAIKEI
  6
Continuous
100
AcDbLine
 10
-30.18220787588206
 20
26.13227014683031
 30
0.0
 11
19.51779212411787
 21
26.13227014683025
 31
0.0
  0
LINE
  5
8F
330
2
100
AcDbEntity
  8
GAIKEI
  6
Continuous
 62
     1
100
AcDbLine
 10
18.21779212411792
 20
24.73227014683022
 30
0.0
 11
-28.8822078758821
 21
24.73227014683028
 31
0.0
  0
LINE
  5
90
330
2
100
AcDbEntity
  8
GAIKEI
  6
Continuous
 62
     1
100
AcDbLine
 10
18.21779212411792
 20
24.81227014683026
 30
0.0
 11
-28.8822078758821
 21
24.81227014683026
 31
0.0
  0
LINE
  5
91
330
2
100
AcDbEntity
  8
GAIKEI
  6
Continuous
 62
     1
100
AcDbLine
 10
18.21779212411792
 20
24.73855909683022
 30
0.0
 11
-28.8822078758821
 21
24.73855909683027
 31
0.0
  0
LINE
  5
92
330
2
100
AcDbEntity
  8
GAIKEI
  6
Continuous
 62
     1
100
AcDbLine
 10
19.33279212411793
 20
25.54727014683027
 30
0.0
 11
19.33279212411793
 21
-3.782729853169768
 31
0.0
  0
LINE
  5
93
330
2
100
AcDbEntity
  8
GAIKEI
  6
Continuous
100
AcDbLine
 10
19.71779212411792
 20
25.93227014683026
 30
0.0
 11
19.71779212411792
 21
-4.167729853169759
 31
0.0
  0
LINE
  5
94
330
2
100
AcDbEntity
  8
GAIKEI
  6
Continuous
 62
     1
100
AcDbLine
 10
18.31779212411794
 20
24.63227014683025
 30
0.0
 11
18.31779212411794
 21
-2.867729853169748
 31
0.0
  0
LINE
  5
95
330
2
100
AcDbEntity
  8
GAIKEI
  6
Continuous
 62
     1
100
AcDbLine
 10
18.39779212411787
 20
24.63227014683025
 30
0.0
 11
18.39779212411787
 21
-2.867729853169748
 31
0.0
  0
LINE
  5
96
330
2
100
AcDbEntity
  8
GAIKEI
  6
Continuous
 62
     1
100
AcDbLine
 10
19.61166637411787
 20
25.82614439683022
 30
0.0
 11
19.61166637411787
 21
-4.06160410316977
 31
0.0
  0
LINE
  5
97
330
2
100
AcDbEntity
  8
GAIKEI
  6
Continuous
 62
     1
100
AcDbLine
 10
18.32408107411794
 20
24.63227014683025
 30
0.0
 11
18.32408107411794
 21
-2.867729853169748
 31
0.0
  0
ARC
  5
98
330
2
100
AcDbEntity
  8
GAIKEI
  6
Continuous
100
AcDbCircle
 10
-30.18220787588206
 20
25.93227014683026
 30
0.0
 40
0.2
100
AcDbArc
 50
90.0
 51
180.0
  0
ARC
  5
99
330
2
100
AcDbEntity
  8
GAIKEI
  6
Continuous
 62
     1
100
AcDbCircle
 10
-28.8822078758821
 20
24.63227014683031
 30
0.0
 40
0.10628895
100
AcDbArc
 50
90.0
 51
180.0
  0
ARC
  5
9A
330
2
100
AcDbEntity
  8
GAIKEI
  6
Continuous
 62
     1
100
AcDbCircle
 10
-28.8822078758821
 20
24.63227014683031
 30
0.0
 40
0.18
100
AcDbArc
 50
90.0
 51
180.0
  0
ARC
  5
9B
330
2
100
AcDbEntity
  8
GAIKEI
  6
Continuous
 62
     1
100
AcDbCircle
 10
-28.8822078758821
 20
24.63227014683031
 30
0.0
 40
0.1
100
AcDbArc
 50
90.0
 51
180.0
  0
ARC
  5
9C
330
2
100
AcDbEntity
  8
GAIKEI
  6
Continuous
100
AcDbCircle
 10
-30.18220787588206
 20
25.93227014683026
 30
0.0
 40
0.2
100
AcDbArc
 50
90.0
 51
180.0
  0
ARC
  5
9D
330
2
100
AcDbEntity
  8
GAIKEI
  6
Continuous
 62
     1
100
AcDbCircle
 10
-29.79720787588206
 20
25.54727014683027
 30
0.0
 40
0.2
100
AcDbArc
 50
90.0
 51
180.0
  0
ARC
  5
9E
330
2
100
AcDbEntity
  8
GAIKEI
  6
Continuous
 62
     1
100
AcDbCircle
 10
-30.07608212588213
 20
25.82614439683027
 30
0.0
 40
0.2
100
AcDbArc
 50
90.0
 51
180.0
  0
LINE
  5
9F
330
2
100
AcDbEntity
  8
GAIKEI
  6
Continuous
 62
     1
100
AcDbLine
 10
-30.27608212588206
 20
25.82614439683027
 30
0.0
 11
-30.27608212588206
 21
-4.061604103169712
 31
0.0
  0
LINE
  5
A0
330
2
100
AcDbEntity
  8
GAIKEI
  6
Continuous
100
AcDbLine
 10
-30.38220787588211
 20
-4.167729853169759
 30
0.0
 11
-30.38220787588211
 21
25.93227014683026
 31
0.0
  0
LINE
  5
A1
330
2
100
AcDbEntity
  8
GAIKEI
  6
Continuous
 62
     1
100
AcDbLine
 10
-30.07608212588213
 20
26.02614439683026
 30
0.0
 11
19.41166637411794
 21
26.02614439683026
 31
0.0
  0
LINE
  5
A2
330
2
100
AcDbEntity
  8
GAIKEI
  6
Continuous
 62
     1
100
AcDbLine
 10
-29.99720787588211
 20
25.54727014683027
 30
0.0
 11
-29.99720787588211
 21
-3.782729853169768
 31
0.0
  0
LINE
  5
A3
330
2
100
AcDbEntity
  8
GAIKEI
  6
Continuous
 62
     1
100
AcDbLine
 10
-28.98220787588213
 20
24.63227014683031
 30
0.0
 11
-28.98220787588213
 21
-2.867729853169691
 31
0.0
  0
LINE
  5
A4
330
2
100
AcDbEntity
  8
GAIKEI
  6
Continuous
 62
     1
100
AcDbLine
 10
-29.06220787588205
 20
24.63227014683031
 30
0.0
 11
-29.06220787588205
 21
-2.867729853169691
 31
0.0
  0
LINE
  5
A5
330
2
100
AcDbEntity
  8
GAIKEI
  6
Continuous
 62
     1
100
AcDbLine
 10
-28.98849682588212
 20
24.63227014683031
 30
0.0
 11
-28.98849682588212
 21
-2.867729853169691
 31
0.0
  0
LINE
  5
A6
330
2
100
AcDbEntity
  8
GAIKEI
  6
Continuous
 62
     1
100
AcDbLine
 10
19.76338137411784
 20
25.83155166491832
 30
0.0
 11
19.75092662411788
 21
25.40377866491832
 31
0.0
  0
LINE
  5
A7
330
2
100
AcDbEntity
  8
GAIKEI
  6
Continuous
 62
     1
100
AcDbLine
 10
20.31272612411789
 20
25.40377316491839
 30
0.0
 11
19.75092187411785
 21
25.40377316491839
 31
0.0
  0
LINE
  5
A8
330
2
100
AcDbEntity
  8
GAIKEI
  6
Continuous
100
AcDbLine
 10
19.73090337411776
 20
25.86154966491843
 30
0.0
 11
19.71780137411787
 21
25.41154516491832
 31
0.0
  0
LINE
  5
A9
330
2
100
AcDbEntity
  8
GAIKEI
  6
Continuous
 62
     1
100
AcDbLine
 10
20.30027512411783
 20
25.8315441649184
 30
0.0
 11
19.763373124118
 21
25.8315441649184
 31
0.0
  0
LINE
  5
AA
330
2
100
AcDbEntity
  8
GAIKEI
  6
Continuous
100
AcDbLine
 10
19.78079262411774
 20
25.86154891491839
 30
0.0
 11
20.32012362411791
 21
25.86154891491839
 31
0.0
  0
LINE
  5
AB
330
2
100
AcDbEntity
  8
GAIKEI
  6
Continuous
100
AcDbLine
 10
19.76245762411776
 20
25.86154891491839
 30
0.0
 11
19.78079262411774
 21
25.86154891491839
 31
0.0
  0
LINE
  5
AC
330
2
100
AcDbEntity
  8
GAIKEI
  6
Continuous
100
AcDbLine
 10
19.76245762411776
 20
25.86154891491839
 30
0.0
 11
19.73091462411793
 21
25.86154891491839
 31
0.0
  0
SPLINE
  5
AD
330
2
100
AcDbEntity
  8
GAIKEI
  6
Continuous
 62
     1
100
AcDbSpline
210
0.0
220
0.0
230
1.0
 70
     8
 71
     3
 72
     9
 73
     5
 74
     3
 42
0.0000000001
 43
0.0000000001
 44
0.000001
 12
0.4555710774664803
 22
0.8901994121409149
 32
0.0
 13
0.4548274176199876
 23
0.8905795978918074
 33
0.0
 40
0.0
 40
0.0
 40
0.0
 40
0.0
 40
0.0517793888169411
 40
0.1036079629296343
 40
0.1036079629296343
 40
0.1036079629296343
 40
0.1036079629296343
 10
25.01675451522937
 20
25.83469355341168
 30
0.0
 10
25.02461757921401
 20
25.85005821390697
 30
0.0
 10
25.04034760763764
 20
25.8808039564326
 30
0.0
 10
25.05606479847188
 20
25.91155626500377
 30
0.0
 10
25.06392248397941
 20
25.92694208856797
 30
0.0
 11
25.01675451522937
 21
25.83469355341168
 31
0.0
 11
25.04033693572768
 21
25.88079099889973
 31
0.0
 11
25.06392248397941
 21
25.92694208856797
 31
0.0
  0
LINE
  5
AE
330
2
100
AcDbEntity
  8
GAIKEI
  6
Continuous
100
AcDbLine
 10
20.28285562411787
 20
25.86154891491839
 30
0.0
 11
20.28285562411787
 21
25.8315441649184
 31
0.0
  0
SPLINE
  5
AF
330
2
100
AcDbEntity
  8
GAIKEI
  6
Continuous
100
AcDbSpline
210
0.0
220
0.0
230
1.0
 70
     8
 71
     3
 72
     9
 73
     5
 74
     3
 42
0.0000000001
 43
0.0000000001
 44
0.000001
 12
-0.9999883567442765
 22
-0.0048255959094992
 32
0.0
 13
-0.9289662195941573
 23
-0.3701645078244804
 33
0.0
 40
0.0
 40
0.0
 40
0.0
 40
0.0
 40
0.0006886604951497
 40
0.0013897972775127
 40
0.0013897972775127
 40
0.0013897972775127
 40
0.0013897972775127
 10
24.86293371444816
 20
26.13104365106796
 30
0.0
 10
24.86270416362253
 20
26.13104254333554
 30
0.0
 10
24.86224031120106
 20
26.13098805653454
 30
0.0
 10
24.86179584477461
 20
26.13084940133322
 30
0.0
 10
24.86157873397923
 20
26.13076288934923
 30
0.0
 11
24.86293371444816
 21
26.13104365106796
 31
0.0
 11
24.86224839761185
 21
26.13096805854338
 31
0.0
 11
24.86157873397923
 21
26.13076288934923
 31
0.0
  0
LINE
  5
B0
330
2
100
AcDbEntity
  8
GAIKEI
  6
Continuous
 62
     1
100
AcDbLine
 10
20.35515812411785
 20
25.79765516491836
 30
0.0
 11
20.58884937411784
 21
25.56373416491835
 31
0.0
  0
LINE
  5
B1
330
2
100
AcDbEntity
  8
GAIKEI
  6
Continuous
 62
     1
100
AcDbLine
 10
20.55492212411781
 20
25.99742341491839
 30
0.0
 11
20.78884312411782
 21
25.7637321649184
 31
0.0
  0
LINE
  5
B2
330
2
100
AcDbEntity
  8
GAIKEI
  6
Continuous
 62
     1
100
AcDbLine
 10
24.52131987411787
 20
25.73715941491838
 30
0.0
 11
20.81559487411795
 21
25.73715941491838
 31
0.0
  0
LINE
  5
B3
330
2
100
AcDbEntity
  8
GAIKEI
  6
Continuous
 62
     1
100
AcDbLine
 10
24.98151337411804
 20
25.79838416491833
 30
0.0
 11
24.74789512411775
 21
25.56378691491835
 31
0.0
  0
LINE
  5
B4
330
2
100
AcDbEntity
  8
GAIKEI
  6
Continuous
 62
     1
100
AcDbLine
 10
24.54793112411784
 20
25.76372541491839
 30
0.0
 11
24.78422137411798
 21
25.99934566491839
 31
0.0
  0
SPLINE
  5
B5
330
2
100
AcDbEntity
  8
GAIKEI
  6
Continuous
 62
     1
100
AcDbSpline
210
0.0
220
0.0
230
1.0
 70
     8
 71
     3
 72
     9
 73
     5
 74
     3
 42
0.0000000001
 43
0.0000000001
 44
0.000001
 12
-0.4193310596052151
 22
-0.9078333891471318
 32
0.0
 13
-0.4173617955917634
 23
-0.9087404093471464
 33
0.0
 40
0.0
 40
0.0
 40
0.0
 40
0.0
 40
0.05309455448812
 40
0.1061312742877356
 40
0.1061312742877356
 40
0.1061312742877356
 40
0.1061312742877356
 10
24.86157873397923
 20
26.13076288934923
 30
0.0
 10
24.85415733538164
 20
26.11469588623383
 30
0.0
 10
24.83934138179978
 20
26.08257071343659
 30
0.0
 10
24.82456026152592
 20
26.05042950038834
 30
0.0
 10
24.8171817613233
 20
26.03436396356797
 30
0.0
 11
24.86157873397923
 21
26.13076288934923
 31
0.0
 11
24.8393420239376
 21
26.0825491928693
 31
0.0
 11
24.8171817613233
 21
26.03436396356797
 31
0.0
  0
LINE
  5
B6
330
2
100
AcDbEntity
  8
GAIKEI
  6
Continuous
 62
     1
100
AcDbLine
 10
20.30027762411799
 20
25.83154466491834
 30
0.0
 11
20.31273237411796
 21
25.40377166491834
 31
0.0
  0
LINE
  5
B7
330
2
100
AcDbEntity
  8
GAIKEI
  6
Continuous
100
AcDbLine
 10
20.21879312411778
 20
25.93385100778863
 30
0.0
 11
20.21879312411778
 21
25.86154891491839
 31
0.0
  0
LINE
  5
B8
330
2
100
AcDbEntity
  8
GAIKEI
  6
Continuous
100
AcDbLine
 10
20.21879312411778
 20
25.93407091491844
 30
0.0
 11
20.21873212411805
 21
25.93407091491844
 31
0.0
  0
LINE
  5
B9
330
2
100
AcDbEntity
  8
GAIKEI
  6
Continuous
100
AcDbLine
 10
20.21873262411777
 20
25.9340681649183
 30
0.0
 11
20.21872037411771
 21
25.9340681649183
 31
0.0
  0
LINE
  5
BA
330
2
100
AcDbEntity
  8
GAIKEI
  6
Continuous
100
AcDbLine
 10
25.06392237411791
 20
25.92694216491833
 30
0.0
 11
25.06398362411772
 21
25.92694216491833
 31
0.0
  0
LINE
  5
BB
330
2
100
AcDbEntity
  8
GAIKEI
100
AcDbLine
 10
20.4189321434755
 20
26.13385095947268
 30
0.0
 11
24.86406139347565
 21
26.13076116366018
 31
0.0
  0
LINE
  5
BC
330
2
100
AcDbEntity
  8
GAIKEI
 62
     1
100
AcDbLine
 10
20.55506697254344
 20
25.99742348075307
 30
0.0
 11
24.78149522254359
 21
25.99934442586084
 31
0.0
  0
ARC
  5
BD
330
2
100
AcDbEntity
  8
GAIKEI
  6
Continuous
 62
     1
100
AcDbCircle
 10
20.81559487411795
 20
25.53715941491834
 30
0.0
 40
0.2
100
AcDbArc
 50
90.0
 51
180.0
  0
ARC
  5
BE
330
2
100
AcDbEntity
  8
GAIKEI
 62
     1
100
AcDbCircle
 10
20.55515787411781
 20
25.79742350141084
 30
0.0
 40
0.2
100
AcDbArc
 50
90.02604138370831
 51
179.9999999999999
  0
ARC
  5
BF
330
2
100
AcDbEntity
  8
GAIKEI
100
AcDbCircle
 10
20.41879312411783
 20
25.93385100778863
 30
0.0
 40
0.2
100
AcDbArc
 50
89.96017388445935
 51
180.0
  0
ARC
  5
C0
330
2
100
AcDbEntity
  8
GAIKEI
 62
     1
100
AcDbCircle
 10
24.78158612411795
 20
25.79934444651855
 30
0.0
 40
0.2
100
AcDbArc
 50
0.0
 51
90.02604138370831
  0
ARC
  5
C1
330
2
100
AcDbEntity
  8
GAIKEI
100
AcDbCircle
 10
24.86392237411798
 20
25.93076121197612
 30
0.0
 40
0.2
100
AcDbArc
 50
0.0
 51
89.96017388445935
  0
ARC
  5
C2
330
2
100
AcDbEntity
  8
GAIKEI
  6
Continuous
 62
     1
100
AcDbCircle
 10
24.52131987411787
 20
25.53715941491834
 30
0.0
 40
0.2
100
AcDbArc
 50
0.0
 51
90.0
  0
ARC
  5
C3
330
2
100
AcDbEntity
  8
GAIKEI
  6
Continuous
 62
     1
100
AcDbCircle
 10
24.52131987411787
 20
-3.772685023197424
 30
0.0
 40
0.2
100
AcDbArc
 50
270.0
 51
0.0
  0
ARC
  5
C4
330
2
100
AcDbEntity
  8
GAIKEI
100
AcDbCircle
 10
24.86392237411798
 20
-4.166286820255152
 30
0.0
 40
0.2
100
AcDbArc
 50
270.0398261155407
 51
0.0
  0
ARC
  5
C5
330
2
100
AcDbEntity
  8
GAIKEI
 62
     1
100
AcDbCircle
 10
24.78158612411795
 20
-4.034870054797636
 30
0.0
 40
0.2
100
AcDbArc
 50
269.9739586162916
 51
0.0
  0
ARC
  5
C6
330
2
100
AcDbEntity
  8
GAIKEI
100
AcDbCircle
 10
20.41879312411783
 20
-4.169376616067721
 30
0.0
 40
0.2
100
AcDbArc
 50
180.0
 51
270.0398261155407
  0
ARC
  5
C7
330
2
100
AcDbEntity
  8
GAIKEI
 62
     1
100
AcDbCircle
 10
20.55515787411781
 20
-4.032949109689866
 30
0.0
 40
0.2
100
AcDbArc
 50
180.0
 51
269.9739586162916
  0
ARC
  5
C8
330
2
100
AcDbEntity
  8
GAIKEI
  6
Continuous
 62
     1
100
AcDbCircle
 10
20.81559487411795
 20
-3.772685023197424
 30
0.0
 40
0.2
100
AcDbArc
 50
180.0
 51
270.0
  0
LINE
  5
C9
330
2
100
AcDbEntity
  8
GAIKEI
 62
     1
100
AcDbLine
 10
20.55506697254344
 20
-4.232949089032159
 30
0.0
 11
24.78149522254359
 21
-4.234870034139873
 31
0.0
  0
LINE
  5
CA
330
2
100
AcDbEntity
  8
GAIKEI
100
AcDbLine
 10
20.4189321434755
 20
-4.36937656775177
 30
0.0
 11
24.86406139347565
 21
-4.366286771939201
 31
0.0
  0
DIMENSION
  5
CB
330
2
100
AcDbEntity
  8
SUNPO
100
AcDbDimension
  2
*D11
 10
25.06392187411774
 20
34.13198370247898
 30
0.0
 11
30.89725520745107
 21
35.88198370247898
 31
0.0
 70
    33
  1
107
 71
     5
 42
5.351732499999794
  3
STANDARD
100
AcDbAlignedDimension
 13
19.71218937411794
 23
26.13198370247898
 33
0.0
 14
25.06392187411774
 24
26.13198370247898
 34
0.0
1001
ACAD
1000
DSTYLE
1002
{
1070
    40
1040
1.0
1070
   140
1040
2.5
1070
   147
1040
0.5
1070
   172
1070
     1
1070
   279
1070
     0
1070
   288
1070
     0
1002
}
  0
LINE
  5
D9
330
2
100
AcDbEntity
  8
GAIKEI
  6
Continuous
100
AcDbLine
 10
20.32012362411791
 20
25.86154891491839
 30
0.0
 11
20.32012362411791
 21
-4.033109773197451
 31
0.0
  0
LINE
  5
DA
330
2
100
AcDbEntity
  8
GAIKEI
  6
Continuous
 62
     1
100
AcDbLine
 10
20.35515787411776
 20
25.79742350141084
 30
0.0
 11
20.35515787411776
 21
-4.032949109689866
 31
0.0
  0
LINE
  5
DB
330
2
100
AcDbEntity
  8
GAIKEI
  6
Continuous
 62
     1
100
AcDbLine
 10
24.98158612411788
 20
25.79934444651855
 30
0.0
 11
24.98158612411788
 21
-4.034870054797636
 31
0.0
  0
LINE
  5
DC
330
2
100
AcDbEntity
  8
GAIKEI
  6
Continuous
 62
     1
100
AcDbLine
 10
24.7213198741178
 20
25.53715941491834
 30
0.0
 11
24.7213198741178
 21
-3.772685023197424
 31
0.0
  0
LINE
  5
DD
330
2
100
AcDbEntity
  8
GAIKEI
  6
Continuous
100
AcDbLine
 10
25.06392237411791
 20
-4.162467773197419
 30
0.0
 11
25.06398362411772
 21
-4.162467773197419
 31
0.0
  0
LINE
  5
DE
330
2
100
AcDbEntity
  8
GAIKEI
  6
Continuous
100
AcDbLine
 10
25.06392237411791
 20
-4.166286820255152
 30
0.0
 11
25.06392237411791
 21
25.92694216491833
 31
0.0
  0
LINE
  5
DF
330
2
100
AcDbEntity
  8
GAIKEI
  6
Continuous
 62
     1
100
AcDbLine
 10
20.6155948741179
 20
-3.772685023197424
 30
0.0
 11
20.6155948741179
 21
25.53715941491834
 31
0.0
  0
LINE
  5
E0
330
2
100
AcDbEntity
  8
GAIKEI
  6
Continuous
100
AcDbLine
 10
20.21873262411777
 20
-4.169593773197391
 30
0.0
 11
20.21872037411771
 21
-4.169593773197391
 31
0.0
  0
LINE
  5
E1
330
2
100
AcDbEntity
  8
GAIKEI
  6
Continuous
100
AcDbLine
 10
20.21879312411778
 20
-4.169596523197468
 30
0.0
 11
20.21873212411805
 21
-4.169596523197468
 31
0.0
  0
LINE
  5
E2
330
2
100
AcDbEntity
  8
GAIKEI
  6
Continuous
100
AcDbLine
 10
20.21879312411778
 20
-4.169376616067721
 30
0.0
 11
20.21879312411778
 21
-4.097074523197419
 31
0.0
  0
LINE
  5
E3
330
2
100
AcDbEntity
  8
GAIKEI
  6
Continuous
 62
     1
100
AcDbLine
 10
20.30027762411799
 20
-4.06707027319743
 30
0.0
 11
20.31273237411796
 21
-3.639297273197427
 31
0.0
  0
SPLINE
  5
E4
330
2
100
AcDbEntity
  8
GAIKEI
  6
Continuous
 62
     1
100
AcDbSpline
210
0.0
220
0.0
230
1.0
 70
     8
 71
     3
 72
     9
 73
     5
 74
     3
 42
0.0000000001
 43
0.0000000001
 44
0.000001
 12
-0.4193310596052152
 22
0.9078333891471318
 32
0.0
 13
-0.4173617955917634
 23
0.9087404093471464
 33
0.0
 40
0.0
 40
0.0
 40
0.0
 40
0.0
 40
0.0530945544880696
 40
0.106131274287688
 40
0.106131274287688
 40
0.106131274287688
 40
0.106131274287688
 10
24.86157873397923
 20
-4.366288497628261
 30
0.0
 10
24.85415733538165
 20
-4.350221494512874
 30
0.0
 10
24.83934138179978
 20
-4.318096321715645
 30
0.0
 10
24.82456026152592
 20
-4.285955108667423
 30
0.0
 10
24.8171817613233
 20
-4.269889571847044
 30
0.0
 11
24.86157873397923
 21
-4.366288497628261
 31
0.0
 11
24.8393420239376
 21
-4.318074801148383
 31
0.0
 11
24.8171817613233
 21
-4.269889571847044
 31
0.0
  0
LINE
  5
E5
330
2
100
AcDbEntity
  8
GAIKEI
  6
Continuous
 62
     1
100
AcDbLine
 10
24.54793112411784
 20
-3.999251023197416
 30
0.0
 11
24.78422137411798
 21
-4.234871273197426
 31
0.0
  0
LINE
  5
E6
330
2
100
AcDbEntity
  8
GAIKEI
  6
Continuous
 62
     1
100
AcDbLine
 10
24.98151337411804
 20
-4.033909773197422
 30
0.0
 11
24.74789512411775
 21
-3.799312523197443
 31
0.0
  0
LINE
  5
E7
330
2
100
AcDbEntity
  8
GAIKEI
  6
Continuous
 62
     1
100
AcDbLine
 10
24.52131987411787
 20
-3.972685023197413
 30
0.0
 11
20.81559487411795
 21
-3.972685023197413
 31
0.0
  0
LINE
  5
E8
330
2
100
AcDbEntity
  8
GAIKEI
  6
Continuous
 62
     1
100
AcDbLine
 10
20.55492212411781
 20
-4.232949023197419
 30
0.0
 11
20.78884312411782
 21
-3.999257773197426
 31
0.0
  0
LINE
  5
E9
330
2
100
AcDbEntity
  8
GAIKEI
  6
Continuous
 62
     1
100
AcDbLine
 10
20.35515812411785
 20
-4.033180773197443
 30
0.0
 11
20.58884937411784
 21
-3.799259773197433
 31
0.0
  0
SPLINE
  5
EA
330
2
100
AcDbEntity
  8
GAIKEI
  6
Continuous
100
AcDbSpline
210
0.0
220
0.0
230
1.0
 70
     8
 71
     3
 72
     9
 73
     5
 74
     3
 42
0.0000000001
 43
0.0000000001
 44
0.000001
 12
-0.9999883567442765
 22
0.0048255959094992
 32
0.0
 13
-0.9289662195941573
 23
0.3701645078244804
 33
0.0
 40
0.0
 40
0.0
 40
0.0
 40
0.0
 40
0.000688660495145
 40
0.0013897972775237
 40
0.0013897972775237
 40
0.0013897972775237
 40
0.0013897972775237
 10
24.86293371444816
 20
-4.366569259347044
 30
0.0
 10
24.86270416362253
 20
-4.366568151614621
 30
0.0
 10
24.86224031120106
 20
-4.366513664813598
 30
0.0
 10
24.86179584477461
 20
-4.36637500961225
 30
0.0
 10
24.86157873397923
 20
-4.366288497628261
 30
0.0
 11
24.86293371444816
 21
-4.366569259347044
 31
0.0
 11
24.86224839761185
 21
-4.366493666822464
 31
0.0
 11
24.86157873397923
 21
-4.366288497628261
 31
0.0
  0
LINE
  5
EB
330
2
100
AcDbEntity
  8
GAIKEI
  6
Continuous
100
AcDbLine
 10
20.28285562411787
 20
-4.097074523197419
 30
0.0
 11
20.28285562411787
 21
-4.06706977319743
 31
0.0
  0
SPLINE
  5
EC
330
2
100
AcDbEntity
  8
GAIKEI
  6
Continuous
 62
     1
100
AcDbSpline
210
0.0
220
0.0
230
1.0
 70
     8
 71
     3
 72
     9
 73
     5
 74
     3
 42
0.0000000001
 43
0.0000000001
 44
0.000001
 12
0.4555710774664803
 22
-0.8901994121409149
 32
0.0
 13
0.4548274176199876
 23
-0.8905795978918074
 33
0.0
 40
0.0
 40
0.0
 40
0.0
 40
0.0
 40
0.0517793888168792
 40
0.1036079629296239
 40
0.1036079629296239
 40
0.1036079629296239
 40
0.1036079629296239
 10
25.01675451522937
 20
-4.070219161690772
 30
0.0
 10
25.02461757921399
 20
-4.085583822186039
 30
0.0
 10
25.04034760763762
 20
-4.116329564711669
 30
0.0
 10
25.05606479847187
 20
-4.147081873282832
 30
0.0
 10
25.06392248397941
 20
-4.162467696847044
 30
0.0
 11
25.01675451522937
 21
-4.070219161690772
 31
0.0
 11
25.04033693572768
 21
-4.116316607178759
 31
0.0
 11
25.06392248397941
 21
-4.162467696847044
 31
0.0
  0
LINE
  5
ED
330
2
100
AcDbEntity
  8
GAIKEI
  6
Continuous
 62
     1
100
AcDbLine
 10
20.31272612411789
 20
25.40374866491828
 30
0.0
 11
20.31272612411789
 21
-3.639298773197424
 31
0.0
  0
LINE
  5
EE
330
2
100
AcDbEntity
  8
GAIKEI
  6
Continuous
100
AcDbLine
 10
19.76245762411776
 20
-4.097074523197419
 30
0.0
 11
19.73091462411793
 21
-4.097074523197419
 31
0.0
  0
LINE
  5
EF
330
2
100
AcDbEntity
  8
GAIKEI
  6
Continuous
100
AcDbLine
 10
19.76245762411776
 20
-4.097074523197419
 30
0.0
 11
19.78079262411774
 21
-4.097074523197419
 31
0.0
  0
LINE
  5
F0
330
2
100
AcDbEntity
  8
GAIKEI
  6
Continuous
100
AcDbLine
 10
19.78079262411774
 20
-4.097074523197419
 30
0.0
 11
20.28285562411787
 21
-4.097074523197419
 31
0.0
  0
LINE
  5
F1
330
2
100
AcDbEntity
  8
GAIKEI
  6
Continuous
 62
     1
100
AcDbLine
 10
20.30027512411783
 20
-4.06706977319743
 30
0.0
 11
19.763373124118
 21
-4.06706977319743
 31
0.0
  0
LINE
  5
F2
330
2
100
AcDbEntity
  8
GAIKEI
  6
Continuous
100
AcDbLine
 10
19.71779212411792
 20
25.41152466491832
 30
0.0
 11
19.71779212411792
 21
-3.647074523197431
 31
0.0
  0
LINE
  5
F3
330
2
100
AcDbEntity
  8
GAIKEI
  6
Continuous
100
AcDbLine
 10
19.73090337411776
 20
-4.097075273197447
 30
0.0
 11
19.71780137411787
 21
-3.647070773197413
 31
0.0
  0
LINE
  5
F4
330
2
100
AcDbEntity
  8
GAIKEI
  6
Continuous
 62
     1
100
AcDbLine
 10
20.31272612411789
 20
-3.639298773197424
 30
0.0
 11
19.75092187411785
 21
-3.639298773197424
 31
0.0
  0
LINE
  5
F5
330
2
100
AcDbEntity
  8
GAIKEI
  6
Continuous
 62
     1
100
AcDbLine
 10
19.76338137411784
 20
-4.067077273197411
 30
0.0
 11
19.75092662411788
 21
-3.63930427319741
 31
0.0
  0
LINE
  5
F6
330
2
100
AcDbEntity
  8
GAIKEI
  6
Continuous
 62
     1
100
AcDbLine
 10
46.5975679853149
 20
25.49973445171207
 30
0.0
 11
46.75186248531484
 21
25.74561295247912
 31
0.0
  0
LINE
  5
F7
330
2
100
AcDbEntity
  8
GAIKEI
  6
Continuous
 62
     1
100
AcDbLine
 10
46.75185648531485
 20
-4.025856353169557
 30
0.0
 11
46.6052089853149
 21
-3.792163853169483
 31
0.0
  0
LINE
  5
F8
330
2
100
AcDbEntity
  8
GAIKEI
  6
Continuous
 62
     1
100
AcDbLine
 10
48.7449479853149
 20
25.88197995247919
 30
0.0
 11
46.81377598531489
 21
25.7807714524792
 31
0.0
  0
LINE
  5
F9
330
2
100
AcDbEntity
  8
GAIKEI
  6
Continuous
 62
     1
100
AcDbLine
 10
46.81377698531489
 20
-4.061014853169524
 30
0.0
 11
48.74494948531484
 21
-4.162223353169508
 31
0.0
  0
LINE
  5
FA
330
2
100
AcDbEntity
  8
GAIKEI
  6
Continuous
 62
     1
100
AcDbLine
 10
48.74494498531485
 20
25.88197845247913
 30
0.0
 11
48.79756498531484
 21
25.88197845247913
 31
0.0
  0
SPLINE
  5
FB
330
2
100
AcDbEntity
  8
GAIKEI
  6
Continuous
 62
     1
100
AcDbSpline
210
0.0
220
0.0
230
1.0
 70
     8
 71
     3
 72
     9
 73
     5
 74
     3
 42
0.0000000001
 43
0.0000000001
 44
0.000001
 12
-0.9986940660429823
 22
0.0510897489770252
 32
0.0
 13
0.0131185329912131
 23
0.9999139483436355
 33
0.0
 40
0.0
 40
0.0
 40
0.0
 40
0.0
 40
0.059198964858929
 40
0.2000102042156904
 40
0.2000102042156904
 40
0.2000102042156904
 40
0.2000102042156904
 10
48.74495247336907
 20
-4.362222870729681
 30
0.0
 10
48.72524525506224
 20
-4.361214717311566
 30
0.0
 10
48.7659975938264
 20
-4.253570732634102
 30
0.0
 10
48.74433672773939
 20
-4.209158963259619
 30
0.0
 10
48.74495247336907
 20
-4.162225922487492
 30
0.0
 11
48.74495247336907
 21
-4.362222870729681
 31
0.0
 11
48.74390205512614
 21
-4.303032538742343
 31
0.0
 11
48.74495247336907
 21
-4.162225922487492
 31
0.0
  0
LINE
  5
FC
330
2
100
AcDbEntity
  8
GAIKEI
  6
Continuous
 62
     1
100
AcDbLine
 10
48.74494498531485
 20
-4.162218353169521
 30
0.0
 11
48.79756498531484
 21
-4.162218353169521
 31
0.0
  0
SPLINE
  5
FD
330
2
100
AcDbEntity
  8
GAIKEI
  6
Continuous
 62
     1
100
AcDbSpline
210
0.0
220
0.0
230
1.0
 70
     8
 71
     3
 72
     9
 73
     5
 74
     3
 42
0.0000000001
 43
0.0000000001
 44
0.000001
 12
0.4779496510331568
 22
0.8783872329885515
 32
0.0
 13
-0.0589188432824472
 23
0.9982627759794803
 33
0.0
 40
0.0
 40
0.0
 40
0.0
 40
0.0
 40
0.0492615344403877
 40
0.1516766916409019
 40
0.1516766916409019
 40
0.1516766916409019
 40
0.1516766916409019
 10
46.75130775901343
 20
-4.220163544557806
 30
0.0
 10
46.75915593674515
 20
-4.205739976914518
 30
0.0
 10
46.74966243077213
 20
-4.151306633810185
 30
0.0
 10
46.75331915321238
 20
-4.102707590087904
 30
0.0
 10
46.75130775901343
 20
-4.068628510378117
 30
0.0
 11
46.75130775901343
 21
-4.220163544557806
 31
0.0
 11
46.7543754969245
 21
-4.170997379032711
 31
0.0
 11
46.75130775901343
 21
-4.068628510378117
 31
0.0
  0
SPLINE
  5
FE
330
2
100
AcDbEntity
  8
GAIKEI
  6
Continuous
 62
     1
100
AcDbSpline
210
0.0
220
0.0
230
1.0
 70
     8
 71
     3
 72
     9
 73
     5
 74
     3
 42
0.0000000001
 43
0.0000000001
 44
0.000001
 12
0.054120045401226
 22
-0.9985344364045584
 32
0.0
 13
-0.9986449691918764
 23
0.0520406140217073
 33
0.0
 40
0.0
 40
0.0
 40
0.0
 40
0.0
 40
0.1409808087219249
 40
0.2001695318905963
 40
0.2001695318905963
 40
0.2001695318905963
 40
0.2001695318905963
 10
46.81377724143549
 20
-4.061014374635931
 30
0.0
 10
46.8163205373584
 20
-4.1079391054296
 30
0.0
 10
46.79888200332582
 20
-4.150109113069001
 30
0.0
 10
46.83348008164392
 20
-4.262038062043737
 30
0.0
 10
46.81377724143549
 20
-4.261011322878117
 30
0.0
 11
46.81377724143549
 21
-4.061014374635931
 31
0.0
 11
46.81756840301555
 21
-4.201943420431859
 31
0.0
 11
46.81377724143549
 21
-4.261011322878117
 31
0.0
  0
SPLINE
  5
FF
330
2
100
AcDbEntity
  8
GAIKEI
  6
Continuous
 62
     1
100
AcDbSpline
210
0.0
220
0.0
230
1.0
 70
     8
 71
     3
 72
     9
 73
     5
 74
     3
 42
0.0000000001
 43
0.0000000001
 44
0.000001
 12
-0.0588032101926859
 22
0.9982695940831989
 32
0.0
 13
0.1041615589846991
 23
0.9945603901372088
 33
0.0
 40
0.0
 40
0.0
 40
0.0
 40
0.0
 40
0.0207440243980628
 40
0.0428112243212035
 40
0.0428112243212035
 40
0.0428112243212035
 40
0.0428112243212035
 10
46.75130775901343
 20
-4.068628510378117
 30
0.0
 10
46.75090115393779
 20
-4.061725800772949
 30
0.0
 10
46.75037728102779
 20
-4.047455344481455
 30
0.0
 10
46.7510985201654
 20
-4.033173845624196
 30
0.0
 10
46.75186470481421
 20
-4.025858124635931
 30
0.0
 11
46.75130775901343
 21
-4.068628510378117
 31
0.0
 11
46.75068486067321
 21
-4.047894136898037
 31
0.0
 11
46.75186470481421
 21
-4.025858124635931
 31
0.0
  0
SPLINE
  5
100
330
2
100
AcDbEntity
  8
GAIKEI
  6
Continuous
 62
     1
100
AcDbSpline
210
0.0
220
0.0
230
1.0
 70
     8
 71
     3
 72
     9
 73
     5
 74
     3
 42
0.0000000001
 43
0.0000000001
 44
0.000001
 12
-0.0002686405243752
 22
-0.9999999639161337
 32
0.0
 13
0.1172432147065857
 23
-0.9931032315954196
 33
0.0
 40
0.0
 40
0.0
 40
0.0
 40
0.0
 40
0.017619625379836
 40
0.0352474424880972
 40
0.0352474424880972
 40
0.0352474424880972
 40
0.0352474424880972
 10
46.81146553489251
 20
-4.025858124635931
 30
0.0
 10
46.81146395711071
 20
-4.031731332883948
 30
0.0
 10
46.81193126028062
 20
-4.043482694975806
 30
0.0
 10
46.81308832745347
 20
-4.055178960590535
 30
0.0
 10
46.81377724143549
 20
-4.061014374635931
 30
0.0
 11
46.81146553489251
 21
-4.025858124635931
 31
0.0
 11
46.81210354554125
 21
-4.043467195622439
 31
0.0
 11
46.81377724143549
 21
-4.061014374635931
 31
0.0
  0
SPLINE
  5
101
330
2
100
AcDbEntity
  8
GAIKEI
  6
Continuous
 62
     1
100
AcDbSpline
210
0.0
220
0.0
230
1.0
 70
     8
 71
     3
 72
     9
 73
     5
 74
     3
 42
0.0000000001
 43
0.0000000001
 44
0.000001
 12
-0.9930967486082368
 22
-0.1172981155166132
 32
0.0
 13
-0.991630435699232
 23
-0.1291087874428041
 33
0.0
 40
0.0
 40
0.0
 40
0.0
 40
0.0
 40
0.0368861725404601
 40
0.0629319564268772
 40
0.0629319564268772
 40
0.0629319564268772
 40
0.0629319564268772
 10
46.81377724143549
 20
-4.061014374635931
 30
0.0
 10
46.80156672876264
 20
-4.062456600811803
 30
0.0
 10
46.78073989824817
 20
-4.064964033353041
 30
0.0
 10
46.75991702302123
 20
-4.06750759718626
 30
0.0
 10
46.75130775901343
 20
-4.068628510378117
 30
0.0
 11
46.81377724143549
 21
-4.061014374635931
 31
0.0
 11
46.77715384545607
 21
-4.065409357344548
 31
0.0
 11
46.75130775901343
 21
-4.068628510378117
 31
0.0
  0
LINE
  5
102
330
2
100
AcDbEntity
  8
GAIKEI
  6
Continuous
 62
     1
100
AcDbLine
 10
46.7518644853149
 20
25.74561895247911
 30
0.0
 11
46.7518644853149
 21
-4.025858353169553
 31
0.0
  0
LINE
  5
103
330
2
100
AcDbEntity
  8
GAIKEI
  6
Continuous
 62
     1
100
AcDbLine
 10
46.81146548531488
 20
25.74561895247911
 30
0.0
 11
46.81146548531488
 21
-4.025858353169553
 31
0.0
  0
LINE
  5
104
330
2
100
AcDbEntity
  8
GAIKEI
  6
Continuous
 62
     1
100
AcDbLine
 10
46.81146548531488
 20
-4.025858353169553
 30
0.0
 11
46.7518644853149
 21
-4.025858353169553
 31
0.0
  0
SPLINE
  5
105
330
2
100
AcDbEntity
  8
GAIKEI
  6
Continuous
 62
     1
100
AcDbSpline
210
0.0
220
0.0
230
1.0
 70
     8
 71
     3
 72
     9
 73
     5
 74
     3
 42
0.0000000001
 43
0.0000000001
 44
0.000001
 12
-0.0588032101926859
 22
-0.9982695940831989
 32
0.0
 13
0.1041615589846991
 23
-0.9945603901372088
 33
0.0
 40
0.0
 40
0.0
 40
0.0
 40
0.0
 40
0.0207478393861297
 40
0.0428188466135612
 40
0.0428188466135612
 40
0.0428188466135612
 40
0.0428188466135612
 10
46.75130775901343
 20
25.78838915171588
 30
0.0
 10
46.75090107915994
 20
25.78148517264852
 30
0.0
 10
46.75037738065985
 20
25.7672121754731
 30
0.0
 10
46.75109838797382
 20
25.75292811976544
 30
0.0
 10
46.75186470481421
 20
25.74561113657916
 30
0.0
 11
46.75130775901343
 21
25.78838915171588
 31
0.0
 11
46.75068486067321
 21
25.76765096353853
 31
0.0
 11
46.75186470481421
 21
25.74561113657916
 31
0.0
  0
SPLINE
  5
106
330
2
100
AcDbEntity
  8
GAIKEI
  6
Continuous
 62
     1
100
AcDbSpline
210
0.0
220
0.0
230
1.0
 70
     8
 71
     3
 72
     9
 73
     5
 74
     3
 42
0.0000000001
 43
0.0000000001
 44
0.000001
 12
-0.117243214706586
 22
-0.9931032315954196
 32
0.0
 13
0.0002686405243751
 23
-0.9999999639161337
 33
0.0
 40
0.0
 40
0.0
 40
0.0
 40
0.0
 40
0.0176316160067161
 40
0.0352550539543959
 40
0.0352550539543959
 40
0.0352550539543959
 40
0.0352550539543959
 10
46.81377724143549
 20
25.78077501597369
 30
0.0
 10
46.81308817898846
 20
25.77493834436218
 30
0.0
 10
46.81193127273489
 20
25.76323950884728
 30
0.0
 10
46.81146395676931
 20
25.75148561568308
 30
0.0
 10
46.81146553489251
 20
25.74561113657916
 30
0.0
 11
46.81377724143549
 21
25.78077501597369
 31
0.0
 11
46.81210354554125
 21
25.76322402226293
 31
0.0
 11
46.81146553489251
 21
25.74561113657916
 31
0.0
  0
LINE
  5
107
330
2
100
AcDbEntity
  8
GAIKEI
  6
Continuous
 62
     1
100
AcDbLine
 10
46.81146548531488
 20
25.74561895247911
 30
0.0
 11
46.7518644853149
 21
25.74561895247911
 31
0.0
  0
SPLINE
  5
108
330
2
100
AcDbEntity
  8
GAIKEI
  6
Continuous
 62
     1
100
AcDbSpline
210
0.0
220
0.0
230
1.0
 70
     8
 71
     3
 72
     9
 73
     5
 74
     3
 42
0.0000000001
 43
0.0000000001
 44
0.000001
 12
0.4779823182660964
 22
-0.8783694572473295
 32
0.0
 13
-0.058916846215057
 23
-0.9982628938471426
 33
0.0
 40
0.0
 40
0.0
 40
0.0
 40
0.0
 40
0.0492145710714857
 40
0.1516690372111161
 40
0.1516690372111161
 40
0.1516690372111161
 40
0.1516690372111161
 10
46.75130775901343
 20
25.93991655650103
 30
0.0
 10
46.7591489906045
 20
25.92550703114079
 30
0.0
 10
46.74966006237305
 20
25.8710769470049
 30
0.0
 10
46.75331985702196
 20
25.82248131566792
 30
0.0
 10
46.75130775901343
 20
25.78838915171588
 30
0.0
 11
46.75130775901343
 21
25.93991655650103
 31
0.0
 11
46.7543744273006
 21
25.89079737899381
 31
0.0
 11
46.75130775901343
 21
25.78838915171588
 31
0.0
  0
SPLINE
  5
109
330
2
100
AcDbEntity
  8
GAIKEI
  6
Continuous
 62
     1
100
AcDbSpline
210
0.0
220
0.0
230
1.0
 70
     8
 71
     3
 72
     9
 73
     5
 74
     3
 42
0.0000000001
 43
0.0000000001
 44
0.000001
 12
0.0541245663902453
 22
0.9985341913590479
 32
0.0
 13
-0.998645573378363
 23
-0.0520290185550401
 33
0.0
 40
0.0
 40
0.0
 40
0.0
 40
0.0
 40
0.1410371238712472
 40
0.2001696693490912
 40
0.2001696693490912
 40
0.2001696693490912
 40
0.2001696693490912
 10
46.81377724143549
 20
25.78077501597369
 30
0.0
 10
46.81632176582698
 20
25.82771847945249
 30
0.0
 10
46.79887920994629
 20
25.86987935181961
 30
0.0
 10
46.83346139303017
 20
25.98179750031784
 30
0.0
 10
46.81377724143549
 20
25.98077196421588
 30
0.0
 11
46.81377724143549
 21
25.78077501597369
 31
0.0
 11
46.81756886471855
 21
25.92176038485565
 31
0.0
 11
46.81377724143549
 21
25.98077196421588
 31
0.0
  0
SPLINE
  5
10A
330
2
100
AcDbEntity
  8
GAIKEI
  6
Continuous
 62
     1
100
AcDbSpline
210
0.0
220
0.0
230
1.0
 70
     8
 71
     3
 72
     9
 73
     5
 74
     3
 42
0.0000000001
 43
0.0000000001
 44
0.000001
 12
-0.9930967486082368
 22
0.1172981155166132
 32
0.0
 13
-0.9916304356992322
 23
0.1291087874428037
 33
0.0
 40
0.0
 40
0.0
 40
0.0
 40
0.0
 40
0.0368861725404601
 40
0.0629319564268773
 40
0.0629319564268773
 40
0.0629319564268773
 40
0.0629319564268773
 10
46.81377724143549
 20
25.78077501597369
 30
0.0
 10
46.80156672876264
 20
25.78221724214956
 30
0.0
 10
46.78073989824818
 20
25.78472467469081
 30
0.0
 10
46.75991702302123
 20
25.78726823852402
 30
0.0
 10
46.75130775901343
 20
25.78838915171588
 30
0.0
 11
46.81377724143549
 21
25.78077501597369
 31
0.0
 11
46.77715384545607
 21
25.78516999868231
 31
0.0
 11
46.75130775901343
 21
25.78838915171588
 31
0.0
  0
SPLINE
  5
10B
330
2
100
AcDbEntity
  8
GAIKEI
  6
Continuous
100
AcDbSpline
210
0.0
220
0.0
230
1.0
 70
     8
 71
     3
 72
     9
 73
     5
 74
     3
 42
0.0000000001
 43
0.0000000001
 44
0.000001
 12
-0.5313504305953538
 22
-0.8471521232376934
 32
0.0
 13
0.47609226227362
 23
-0.879395336468864
 33
0.0
 40
0.0
 40
0.0
 40
0.0
 40
0.0
 40
0.0034653098034053
 40
0.0059912507593955
 40
0.0059912507593955
 40
0.0059912507593955
 40
0.0059912507593955
 10
46.75186470481421
 20
25.94562334361041
 30
0.0
 10
46.75125094019549
 20
25.94464479542454
 30
0.0
 10
46.75032817665017
 20
25.94270514825645
 30
0.0
 10
46.75090689869873
 20
25.94065699006666
 30
0.0
 10
46.75130775901343
 20
25.93991655650103
 30
0.0
 11
46.75186470481421
 21
25.94562334361041
 31
0.0
 11
46.75068486556283
 21
25.94236507293323
 31
0.0
 11
46.75130775901343
 21
25.93991655650103
 31
0.0
  0
SPLINE
  5
10C
330
2
100
AcDbEntity
  8
GAIKEI
  6
Continuous
100
AcDbSpline
210
0.0
220
0.0
230
1.0
 70
     8
 71
     3
 72
     9
 73
     5
 74
     3
 42
0.0000000001
 43
0.0000000001
 44
0.000001
 12
-0.9986290886555543
 22
-0.0523444676253086
 32
0.0
 13
-0.4509901328110991
 23
-0.892528935165145
 33
0.0
 40
0.0
 40
0.0
 40
0.0
 40
0.0
 40
0.0385154614698915
 40
0.0771463181325096
 40
0.0771463181325096
 40
0.0771463181325096
 40
0.0771463181325096
 10
46.81377724143549
 20
25.98077196421588
 30
0.0
 10
46.80095635470655
 20
25.98009994044055
 30
0.0
 10
46.77541446444244
 20
25.97126945952244
 30
0.0
 10
46.75711513740572
 20
25.9514096089549
 30
0.0
 10
46.75130775901343
 20
25.93991655650103
 30
0.0
 11
46.81377724143549
 21
25.98077196421588
 31
0.0
 11
46.77725720736065
 21
25.96853429152185
 31
0.0
 11
46.75130775901343
 21
25.93991655650103
 31
0.0
  0
SPLINE
  5
10D
330
2
100
AcDbEntity
  8
GAIKEI
  6
Continuous
 62
     1
100
AcDbSpline
210
0.0
220
0.0
230
1.0
 70
     8
 71
     3
 72
     9
 73
     5
 74
     3
 42
0.0000000001
 43
0.0000000001
 44
0.000001
 12
-0.5217951880808808
 22
0.8530707952424807
 32
0.0
 13
0.4760922622736198
 23
0.8793953364688642
 33
0.0
 40
0.0
 40
0.0
 40
0.0
 40
0.0
 40
0.003434631101987
 40
0.0059566485229308
 40
0.0059566485229308
 40
0.0059566485229308
 40
0.0059566485229308
 10
46.75181129905261
 20
-4.225847443483586
 30
0.0
 10
46.75121390772533
 20
-4.22487078232174
 30
0.0
 10
46.75032327890502
 20
-4.222933126293087
 30
0.0
 10
46.75090752135362
 20
-4.22090282801063
 30
0.0
 10
46.75130775901343
 20
-4.220163544557806
 30
0.0
 11
46.75181129905261
 21
-4.225847443483586
 31
0.0
 11
46.75067623429804
 21
-4.222605780383388
 31
0.0
 11
46.75130775901343
 21
-4.220163544557806
 31
0.0
  0
SPLINE
  5
10E
330
2
100
AcDbEntity
  8
GAIKEI
  6
Continuous
 62
     1
100
AcDbSpline
210
0.0
220
0.0
230
1.0
 70
     8
 71
     3
 72
     9
 73
     5
 74
     3
 42
0.0000000001
 43
0.0000000001
 44
0.000001
 12
0.4509901328110987
 22
-0.8925289351651452
 32
0.0
 13
0.9986290886555543
 23
-0.0523444676253087
 33
0.0
 40
0.0
 40
0.0
 40
0.0
 40
0.0
 40
0.0386280192690956
 40
0.0771422793579338
 40
0.0771422793579338
 40
0.0771422793579338
 40
0.0771422793579338
 10
46.75130775901343
 20
-4.220163544557806
 30
0.0
 10
46.75711471086024
 20
-4.231655752859734
 30
0.0
 10
46.77541538615589
 20
-4.25151364431351
 30
0.0
 10
46.8009567546179
 20
-4.260339320064673
 30
0.0
 10
46.81377724143549
 20
-4.261011322878117
 30
0.0
 11
46.75130775901343
 21
-4.220163544557806
 31
0.0
 11
46.77725720736065
 21
-4.248777464881356
 31
0.0
 11
46.81377724143549
 21
-4.261011322878117
 31
0.0
  0
LINE
  5
10F
330
2
100
AcDbEntity
  8
GAIKEI
  6
Continuous
100
AcDbLine
 10
46.5975679853149
 20
25.51192295247921
 30
0.0
 11
46.5975679853149
 21
25.68534645247911
 31
0.0
  0
LINE
  5
110
330
2
100
AcDbEntity
  8
GAIKEI
  6
Continuous
100
AcDbLine
 10
46.5975679853149
 20
-3.792169853169581
 30
0.0
 11
46.5975679853149
 21
25.51192295247921
 31
0.0
  0
LINE
  5
111
330
2
100
AcDbEntity
  8
GAIKEI
  6
Continuous
100
AcDbLine
 10
46.5975679853149
 20
-3.965593353169481
 30
0.0
 11
46.5975679853149
 21
-3.792169853169581
 31
0.0
  0
LINE
  5
112
330
2
100
AcDbEntity
  8
GAIKEI
  6
Continuous
100
AcDbLine
 10
46.81377748531489
 20
-4.261011353169521
 30
0.0
 11
48.74494198531492
 21
-4.362219353169564
 31
0.0
  0
LINE
  5
113
330
2
100
AcDbEntity
  8
GAIKEI
  6
Continuous
100
AcDbLine
 10
46.81142198531488
 20
-4.260888353169491
 30
0.0
 11
46.81377598531489
 21
-4.261012353169518
 31
0.0
  0
LINE
  5
114
330
2
100
AcDbEntity
  8
GAIKEI
  6
Continuous
100
AcDbLine
 10
46.60521248531481
 20
-3.992156853169546
 30
0.0
 11
46.75184348531489
 21
-4.225823353169572
 31
0.0
  0
LINE
  5
115
330
2
100
AcDbEntity
  8
GAIKEI
  6
Continuous
100
AcDbLine
 10
46.75186348531489
 20
25.9456164524791
 30
0.0
 11
46.60521598531486
 21
25.71192395247914
 31
0.0
  0
LINE
  5
116
330
2
100
AcDbEntity
  8
GAIKEI
  6
Continuous
100
AcDbLine
 10
46.8137764853149
 20
25.9807679524792
 30
0.0
 11
48.74494848531486
 21
26.08197645247918
 31
0.0
  0
LINE
  5
117
330
2
100
AcDbEntity
  8
GAIKEI
  6
Continuous
100
AcDbLine
 10
46.81146498531489
 20
25.9806534524792
 30
0.0
 11
46.81378098531489
 21
25.98077495247918
 31
0.0
  0
LINE
  5
118
330
2
100
AcDbEntity
  8
GAIKEI
  6
Continuous
100
AcDbLine
 10
48.00754998531481
 20
-4.323570353169486
 30
0.0
 11
48.00756448531489
 21
-4.323574853169532
 31
0.0
  0
ARC
  5
119
330
2
100
AcDbEntity
  8
GAIKEI
  6
Continuous
100
AcDbCircle
 10
48.74756148531485
 20
26.0320489524791
 30
0.0
 40
0.05
100
AcDbArc
 50
0.0
 51
92.99996499999727
  0
ARC
  5
11A
330
2
100
AcDbEntity
  8
GAIKEI
  6
Continuous
100
AcDbCircle
 10
48.74756148531485
 20
-4.312288353169549
 30
0.0
 40
0.05
100
AcDbArc
 50
266.999963000003
 51
359.9999830000006
  0
ARC
  5
11B
330
2
100
AcDbEntity
  8
GAIKEI
  6
Continuous
100
AcDbCircle
 10
46.64756348531493
 20
25.68534645247911
 30
0.0
 40
0.05
100
AcDbArc
 50
147.8907530000006
 51
179.9999639999999
  0
ARC
  5
11C
330
2
100
AcDbEntity
  8
GAIKEI
  6
Continuous
100
AcDbCircle
 10
46.64756348531493
 20
-3.965555353169576
 30
0.0
 40
0.05
100
AcDbArc
 50
179.9999639999999
 51
212.0989570000021
  0
ARC
  5
11D
330
2
100
AcDbEntity
  8
GAIKEI
  6
Continuous
100
AcDbCircle
 10
46.81538698531486
 20
25.90575195247919
 30
0.0
 40
0.075
100
AcDbArc
 50
92.99996499999727
 51
147.8907530000006
  0
ARC
  5
11E
330
2
100
AcDbEntity
  8
GAIKEI
  6
Continuous
 62
     7
100
AcDbCircle
 10
46.81534898531485
 20
-4.185991353169526
 30
0.0
 40
0.075
100
AcDbArc
 50
212.0989570000021
 51
266.999963000003
  0
LINE
  5
11F
330
2
100
AcDbEntity
  8
GAIKEI
  6
Continuous
100
AcDbLine
 10
48.79756498531484
 20
-4.162218353169521
 30
0.0
 11
48.79756498531484
 21
-4.312288353169549
 31
0.0
  0
LINE
  5
120
330
2
100
AcDbEntity
  8
GAIKEI
  6
Continuous
100
AcDbLine
 10
48.79756498531484
 20
25.88197895247919
 30
0.0
 11
48.79756498531484
 21
25.11634536063088
 31
0.0
  0
LINE
  5
121
330
2
100
AcDbEntity
  8
GAIKEI
  6
Continuous
100
AcDbLine
 10
48.79756498531484
 20
26.0320489524791
 30
0.0
 11
48.79756498531484
 21
25.88197895247919
 31
0.0
  0
LINE
  5
122
330
2
100
AcDbEntity
  8
GAIKEI
  6
Continuous
100
AcDbLine
 10
50.98756498531486
 20
21.40738345247911
 30
0.0
 11
50.98756498531486
 21
0.5993541468304217
 31
0.0
  0
LINE
  5
123
330
2
100
AcDbEntity
  8
GAIKEI
  6
Continuous
100
AcDbLine
 10
50.71256498531486
 20
-0.9307116084763151
 30
0.0
 11
50.71256498531486
 21
-2.63328785316952
 31
0.0
  0
LINE
  5
124
330
2
100
AcDbEntity
  8
GAIKEI
  6
Continuous
100
AcDbLine
 10
50.71256498531486
 20
-2.63328785316952
 30
0.0
 11
50.71256498531486
 21
-2.871739853169571
 31
0.0
  0
LINE
  5
125
330
2
100
AcDbEntity
  8
GAIKEI
  6
Continuous
100
AcDbLine
 10
50.45195848531493
 20
-3.146361353169538
 30
0.0
 11
49.98352648531485
 21
-3.170910853169572
 31
0.0
  0
LINE
  5
126
330
2
100
AcDbEntity
  8
GAIKEI
  6
Continuous
100
AcDbLine
 10
49.98352598531493
 20
-3.170896353169553
 30
0.0
 11
49.7269584853149
 21
-3.184342353169482
 31
0.0
  0
LINE
  5
127
330
2
100
AcDbEntity
  8
GAIKEI
  6
Continuous
100
AcDbLine
 10
49.7269584853149
 20
-3.184356853169503
 30
0.0
 11
48.95078998531486
 21
-3.225034353169518
 31
0.0
  0
ARC
  5
128
330
2
100
AcDbEntity
  8
GAIKEI
  6
Continuous
100
AcDbCircle
 10
50.43756498531489
 20
-2.871739853169571
 30
0.0
 40
0.275
100
AcDbArc
 50
316.1660690000017
 51
317.7622019999981
  0
ARC
  5
129
330
2
100
AcDbEntity
  8
GAIKEI
  6
Continuous
100
AcDbCircle
 10
50.43756498531489
 20
-2.871739853169571
 30
0.0
 40
0.275
100
AcDbArc
 50
281.9388440000014
 51
284.2289240000028
  0
LINE
  5
12A
330
2
100
AcDbEntity
  8
GAIKEI
  6
Continuous
100
AcDbLine
 10
49.98352648531485
 20
-3.170910853169572
 30
0.0
 11
49.98352498531481
 21
-3.170910853169572
 31
0.0
  0
SPLINE
  5
12B
330
2
100
AcDbEntity
  8
GAIKEI
  6
Continuous
100
AcDbSpline
210
0.0
220
0.0
230
1.0
 70
     8
 71
     3
 72
     9
 73
     5
 74
     3
 42
0.0000000001
 43
0.0000000001
 44
0.000001
 12
0.000292441292299
 22
-0.9999999572390445
 32
0.0
 13
-0.0134279012734896
 23
-0.9999098416694325
 33
0.0
 40
0.0
 40
0.0
 40
0.0
 40
0.0
 40
0.001971675300847
 40
0.0039551967672426
 40
0.0039551967672426
 40
0.0039551967672426
 40
0.0039551967672426
 10
50.71256477805649
 20
-2.871739777467893
 30
0.0
 10
50.71256497025625
 20
-2.872397002540072
 30
0.0
 10
50.71256010474971
 20
-2.873715406645215
 30
0.0
 10
50.71254619041286
 20
-2.875033741381135
 30
0.0
 10
50.71253731223605
 20
-2.875694855592939
 30
0.0
 11
50.71256477805649
 21
-2.871739777467893
 31
0.0
 11
50.71255786859795
 21
-2.873711443191211
 31
0.0
 11
50.71253731223605
 21
-2.875694855592939
 31
0.0
  0
SPLINE
  5
12C
330
2
100
AcDbEntity
  8
GAIKEI
  6
Continuous
100
AcDbSpline
210
0.0
220
0.0
230
1.0
 70
     8
 71
     3
 72
    11
 73
     7
 74
     5
 42
0.0000000001
 43
0.0000000001
 44
0.000001
 12
-0.0149572399466855
 22
-0.9998881342296133
 32
0.0
 13
-0.9986281369103121
 23
-0.0523626218885118
 33
0.0
 40
0.0
 40
0.0
 40
0.0
 40
0.0
 40
0.0840092266952549
 40
0.183276080650801
 40
0.3087930186101872
 40
0.4109809135887688
 40
0.4109809135887688
 40
0.4109809135887688
 40
0.4109809135887688
 10
50.71253731223605
 20
-2.875694855592939
 30
0.0
 10
50.71211846351558
 20
-2.903694798572403
 30
0.0
 10
50.70175366092668
 20
-2.965015247336959
 30
0.0
 10
50.65122917970498
 20
-3.057197409564438
 30
0.0
 10
50.56164755767563
 20
-3.126144669728275
 30
0.0
 10
50.48597124441368
 20
-3.144565543765846
 30
0.0
 10
50.45195534202125
 20
-3.146349152467962
 30
0.0
 11
50.71253731223605
 21
-2.875694855592939
 31
0.0
 11
50.69849441927718
 21
-2.958522566698263
 31
0.0
 11
50.65068733665025
 21
-3.045519074342962
 31
0.0
 11
50.55121820370247
 21
-3.122072394894586
 31
0.0
 11
50.45195534202125
 21
-3.146349152467962
 31
0.0
  0
SPLINE
  5
12D
330
2
100
AcDbEntity
  8
GAIKEI
  6
Continuous
100
AcDbSpline
210
0.0
220
0.0
230
1.0
 70
     8
 71
     3
 72
     9
 73
     5
 74
     0
 42
0.0000000001
 43
0.0000000001
 40
0.0
 40
0.0
 40
0.0
 40
0.0
 40
0.0817662733904568
 40
0.1541939903358289
 40
0.1541939903358289
 40
0.1541939903358289
 40
0.1541939903358289
 10
48.95078957053697
 20
-3.225035675905417
 30
0.0
 10
48.92357149917426
 20
-3.226462123934823
 30
0.0
 10
48.87248337176
 20
-3.239115507515576
 30
0.0
 10
48.82832195232372
 20
-3.267656747664488
 30
0.0
 10
48.81042026513246
 20
-3.283955239339036
 30
0.0
  0
SPLINE
  5
12E
330
2
100
AcDbEntity
  8
GAIKEI
  6
Continuous
100
AcDbSpline
210
0.0
220
0.0
230
1.0
 70
     8
 71
     3
 72
     9
 73
     5
 74
     3
 42
0.0000000001
 43
0.0000000001
 44
0.000001
 12
0.9964149559530449
 22
0.0846004465300951
 32
0.0
 13
0.8863949201347114
 23
0.4629298495013889
 33
0.0
 40
0.0
 40
0.0
 40
0.0
 40
0.0
 40
0.0549383756856139
 40
0.1104511970150265
 40
0.1104511970150265
 40
0.1104511970150265
 40
0.1104511970150265
 10
50.46003334495104
 20
-3.145812043092917
 30
0.0
 10
50.47828048468067
 20
-3.144262772721369
 30
0.0
 10
50.51473316029345
 20
-3.137447316567396
 30
0.0
 10
50.54916713934665
 20
-3.123665333142436
 30
0.0
 10
50.5655692336229
 20
-3.115099152467962
 30
0.0
 11
50.46003334495104
 21
-3.145812043092917
 31
0.0
 11
50.51404448794982
 21
-3.135759024612355
 31
0.0
 11
50.5655692336229
 21
-3.115099152467962
 31
0.0
  0
SPLINE
  5
12F
330
2
100
AcDbEntity
  8
GAIKEI
  6
Continuous
100
AcDbSpline
210
0.0
220
0.0
230
1.0
 70
     8
 71
     3
 72
     9
 73
     5
 74
     3
 42
0.0000000001
 43
0.0000000001
 44
0.000001
 12
0.3547102003781057
 22
0.9349762958213027
 32
0.0
 13
0.0160765725421326
 23
0.9998707635566196
 33
0.0
 40
0.0
 40
0.0
 40
0.0
 40
0.0
 40
0.0481786276402043
 40
0.0959362969183986
 40
0.0959362969183986
 40
0.0959362969183986
 40
0.0959362969183986
 10
50.69456551047823
 20
-2.969566925905439
 30
0.0
 10
50.70026199403296
 20
-2.954551634302508
 30
0.0
 10
50.7090057318051
 20
-2.923601034312707
 30
0.0
 10
50.71228138569118
 20
-2.891612021341897
 30
0.0
 10
50.71253731223605
 20
-2.875694855592939
 30
0.0
 11
50.69456551047823
 21
-2.969566925905439
 31
0.0
 11
50.70766604850864
 21
-2.923203448496508
 31
0.0
 11
50.71253731223605
 21
-2.875694855592939
 31
0.0
  0
SPLINE
  5
130
330
2
100
AcDbEntity
  8
GAIKEI
  6
Continuous
100
AcDbSpline
210
0.0
220
0.0
230
1.0
 70
     8
 71
     3
 72
     9
 73
     5
 74
     3
 42
0.0000000001
 43
0.0000000001
 44
0.000001
 12
0.4735930250987969
 22
0.8807438030311486
 32
0.0
 13
0.0259809635691539
 23
0.999662437791887
 33
0.0
 40
0.0
 40
0.0
 40
0.0
 40
0.0
 40
0.0001031924152869
 40
0.0002079496049619
 40
0.0002079496049619
 40
0.0002079496049619
 40
0.0002079496049619
 10
50.68318855735338
 20
-2.995397004030393
 30
0.0
 10
50.68320484775608
 20
-2.995366708670298
 30
0.0
 10
50.68323723922041
 20
-2.995305438598709
 30
0.0
 10
50.68325478879431
 20
-2.995236598806308
 30
0.0
 10
50.68325569602523
 20
-2.995201691530439
 30
0.0
 11
50.68318855735338
 21
-2.995397004030393
 31
0.0
 11
50.6832337844517
 21
-2.995304931705334
 31
0.0
 11
50.68325569602523
 21
-2.995201691530439
 31
0.0
  0
LINE
  5
131
330
2
100
AcDbEntity
  8
GAIKEI
  6
Continuous
100
AcDbLine
 10
50.63667298531485
 20
24.41382895247915
 30
0.0
 11
50.64408498531489
 21
24.36109195247917
 31
0.0
  0
LINE
  5
132
330
2
100
AcDbEntity
  8
GAIKEI
  6
Continuous
 62
     7
100
AcDbLine
 10
48.91577998531491
 20
24.96459895247921
 30
0.0
 11
49.00171448531486
 21
24.94633345247911
 31
0.0
  0
LINE
  5
133
330
2
100
AcDbEntity
  8
GAIKEI
  6
Continuous
 62
     7
100
AcDbLine
 10
49.00171598531486
 20
24.94634945247919
 30
0.0
 11
49.00195998531488
 21
24.94629545247921
 31
0.0
  0
LINE
  5
134
330
2
100
AcDbEntity
  8
GAIKEI
  6
Continuous
100
AcDbLine
 10
49.00195548531489
 20
24.94627995247919
 30
0.0
 11
49.73171448531489
 21
24.79116695247916
 31
0.0
  0
LINE
  5
135
330
2
100
AcDbEntity
  8
GAIKEI
  6
Continuous
100
AcDbLine
 10
49.73171448531489
 20
24.79116695247916
 30
0.0
 11
50.4215314853149
 21
24.64454195247919
 31
0.0
  0
ARC
  5
136
330
2
100
AcDbEntity
  8
GAIKEI
  6
Continuous
100
AcDbCircle
 10
50.36436098531485
 20
24.37555795247914
 30
0.0
 40
0.275
100
AcDbArc
 50
7.99999900000078
 51
77.99999500000324
  0
SPLINE
  5
137
330
2
100
AcDbEntity
  8
GAIKEI
  6
Continuous
100
AcDbSpline
210
0.0
220
0.0
230
1.0
 70
     8
 71
     3
 72
     9
 73
     5
 74
     0
 42
0.0000000001
 43
0.0000000001
 40
0.0125680641019867
 40
0.0125680641019867
 40
0.0125680641019867
 40
0.0125680641019867
 40
0.0706421812361975
 40
0.1375054895056824
 40
0.1375054895056824
 40
0.1375054895056824
 40
0.1375054895056824
 10
48.80640092919803
 20
25.02277761519787
 30
0.0
 10
48.82041309021433
 20
25.00937138453873
 30
0.0
 10
48.85445885596617
 20
24.9843656189459
 30
0.0
 10
48.89398365272448
 20
24.96923000205385
 30
0.0
 10
48.9157843825486
 20
24.9645961219307
 30
0.0
  0
SPLINE
  5
138
330
2
100
AcDbEntity
  8
GAIKEI
  6
Continuous
100
AcDbSpline
210
0.0
220
0.0
230
1.0
 70
     8
 71
     3
 72
     9
 73
     5
 74
     3
 42
0.0000000001
 43
0.0000000001
 44
0.000001
 12
-0.9327901679541716
 22
0.3604198975750763
 32
0.0
 13
-0.9791656917511913
 23
0.2030629165983071
 33
0.0
 40
0.0
 40
0.0
 40
0.0
 40
0.0
 40
0.026659438813824
 40
0.0533318606693761
 40
0.0533318606693761
 40
0.0533318606693761
 40
0.0533318606693761
 10
49.05336678000968
 20
24.9322474891182
 30
0.0
 10
49.04507755920678
 20
24.9354503531871
 30
0.0
 10
49.02803189153639
 20
24.94066040593253
 30
0.0
 10
49.0106670190025
 20
24.94448018179746
 30
0.0
 10
49.00196144553688
 20
24.9462855750557
 30
0.0
 11
49.05336678000968
 21
24.9322474891182
 31
0.0
 11
49.02795528444322
 21
24.94031163098777
 31
0.0
 11
49.00196144553688
 21
24.9462855750557
 31
0.0
  0
SPLINE
  5
139
330
2
100
AcDbEntity
  8
GAIKEI
  6
Continuous
100
AcDbSpline
210
0.0
220
0.0
230
1.0
 70
     8
 71
     3
 72
     9
 73
     5
 74
     3
 42
0.0000000001
 43
0.0000000001
 44
0.000001
 12
-0.1194642256909221
 22
0.9928385058910984
 32
0.0
 13
-0.2730182884720905
 23
0.9620088430777393
 33
0.0
 40
0.0
 40
0.0
 40
0.0
 40
0.0
 40
0.0108672981235874
 40
0.020655470794303
 40
0.020655470794303
 40
0.020655470794303
 40
0.020655470794303
 10
50.63426430198227
 20
24.42555803599322
 30
0.0
 10
50.63383155086371
 20
24.42915452667059
 30
0.0
 10
50.63267584726427
 20
24.43595349841506
 30
0.0
 10
50.63098943595143
 20
24.44263411018769
 30
0.0
 10
50.63009865256815
 20
24.44577287974329
 30
0.0
 11
50.63426430198227
 21
24.42555803599322
 31
0.0
 11
50.63246926181811
 21
24.43627666028709
 31
0.0
 11
50.63009865256815
 21
24.44577287974329
 31
0.0
  0
SPLINE
  5
13A
330
2
100
AcDbEntity
  8
GAIKEI
  6
Continuous
 62
     7
100
AcDbSpline
210
0.0
220
0.0
230
1.0
 70
     8
 71
     3
 72
     9
 73
     5
 74
     3
 42
0.0000000001
 43
0.0000000001
 44
0.000001
 12
0.9476067522711588
 22
-0.3194392634760274
 32
0.0
 13
0.9781595216317647
 23
-0.207855599494258
 33
0.0
 40
0.0
 40
0.0
 40
0.0
 40
0.0
 40
0.0000303572916965
 40
0.000061058487714
 40
0.000061058487714
 40
0.000061058487714
 40
0.000061058487714
 10
48.99842895104523
 20
24.94698183701274
 30
0.0
 10
48.99843853997008
 20
24.94697860457578
 30
0.0
 10
48.99845956863126
 20
24.94698073220725
 30
0.0
 10
48.99847997598282
 20
24.94698396415124
 30
0.0
 10
48.99848998620522
 20
24.94698183701274
 30
0.0
 11
48.99842895104523
 21
24.94698183701274
 31
0.0
 11
48.99845952878142
 21
24.94698087185412
 31
0.0
 11
48.99848998620522
 21
24.94698183701274
 31
0.0
  0
ARC
  5
13B
330
2
100
AcDbEntity
  8
GAIKEI
  6
Continuous
100
AcDbCircle
 10
50.3242639853149
 20
24.21891345247917
 30
0.0
 40
0.35
100
AcDbArc
 50
7.830456999999732
 51
77.90524299999812
  0
LINE
  5
13C
330
2
100
AcDbEntity
  8
GAIKEI
  6
Continuous
100
AcDbLine
 10
50.39759898531484
 20
24.56114445247914
 30
0.0
 11
48.88756498531488
 21
24.8847229524792
 31
0.0
  0
LINE
  5
13D
330
2
100
AcDbEntity
  8
GAIKEI
  6
Continuous
100
AcDbLine
 10
48.85445280836659
 20
24.8847229524792
 30
0.0
 11
48.88756498531488
 21
24.8847229524792
 31
0.0
  0
LINE
  5
13E
330
2
100
AcDbEntity
  8
GAIKEI
  6
Continuous
100
AcDbLine
 10
50.68378748531483
 20
24.17361945247916
 30
0.0
 11
50.67100048531493
 21
24.26659845247917
 31
0.0
  0
LINE
  5
13F
330
2
100
AcDbEntity
  8
GAIKEI
  6
Continuous
100
AcDbLine
 10
50.37871096782713
 20
23.04865040095029
 30
0.0
 11
50.23921598531483
 21
24.06297795247912
 31
0.0
  0
ARC
  5
140
330
2
100
AcDbEntity
  8
GAIKEI
  6
Continuous
100
AcDbCircle
 10
50.0906144853149
 20
24.04254145247917
 30
0.0
 40
0.15
100
AcDbArc
 50
7.830456999999732
 51
88.00000000000286
  0
LINE
  5
141
330
2
100
AcDbEntity
  8
GAIKEI
  6
Continuous
100
AcDbLine
 10
50.86048598531487
 20
22.88876745247916
 30
0.0
 11
50.68378748531483
 21
24.17361945247916
 31
0.0
  0
LINE
  5
142
330
2
100
AcDbEntity
  8
GAIKEI
  6
Continuous
 62
     1
100
AcDbLine
 10
50.31592257692158
 20
23.12353773986439
 30
0.0
 11
50.19406248531485
 21
24.00963345247914
 31
0.0
  0
LINE
  5
143
330
2
100
AcDbEntity
  8
GAIKEI
  6
Continuous
100
AcDbLine
 10
50.97357798531485
 20
22.06642595247917
 30
0.0
 11
50.86048598531487
 21
22.88876745247916
 31
0.0
  0
ARC
  5
144
330
2
100
AcDbEntity
  8
GAIKEI
  6
Continuous
100
AcDbCircle
 10
49.48756498531484
 20
21.86206295247911
 30
0.0
 40
1.5
100
AcDbArc
 50
0.0
 51
7.830456999999732
  0
LINE
  5
145
330
2
100
AcDbEntity
  8
GAIKEI
  6
Continuous
100
AcDbLine
 10
50.98756498531486
 20
21.40738345247911
 30
0.0
 11
50.98756498531486
 21
21.86206295247911
 31
0.0
  0
LINE
  5
146
330
2
100
AcDbEntity
  8
GAIKEI
  6
Continuous
100
AcDbLine
 10
49.39924402302469
 20
24.21685477746968
 30
0.0
 11
50.09585248531486
 21
24.19252895247911
 31
0.0
  0
LINE
  5
147
330
2
100
AcDbEntity
  8
GAIKEI
  6
Continuous
 62
     1
100
AcDbLine
 10
49.44674912390835
 20
24.16019572730585
 30
0.0
 11
50.05069648531489
 21
24.1391054524791
 31
0.0
  0
ARC
  5
148
330
2
100
AcDbEntity
  8
GAIKEI
  6
Continuous
 62
     1
100
AcDbCircle
 10
50.04546148531487
 20
23.98919695247918
 30
0.0
 40
0.15
100
AcDbArc
 50
7.830456999999732
 51
88.00000000000286
  0
LINE
  5
149
330
2
100
AcDbEntity
  8
GAIKEI
  6
Continuous
100
AcDbLine
 10
50.98757023531486
 20
12.33472782747918
 30
0.0
 11
50.98757023531486
 21
-0.4208393232152618
 31
0.0
  0
LINE
  5
14A
330
2
100
AcDbEntity
  8
GAIKEI
  6
Continuous
100
AcDbLine
 10
50.98757023531486
 20
-0.2642179781694836
 30
0.0
 11
50.98757023531486
 21
-0.3274382281695694
 31
0.0
  0
SPLINE
  5
14B
330
2
100
AcDbEntity
  8
GAIKEI
  6
Continuous
100
AcDbSpline
210
0.0
220
0.0
230
1.0
 70
     8
 71
     3
 72
     9
 73
     5
 74
     3
 42
0.0000000001
 43
0.0000000001
 44
0.000001
 12
0.6535156864074855
 22
0.7569129722889898
 32
0.0
 13
0.6415607664383718
 23
0.7670722149621957
 33
0.0
 40
0.0
 40
0.0
 40
0.0
 40
0.0
 40
0.0011430106086463
 40
0.0022866783577447
 40
0.0022866783577447
 40
0.0022866783577447
 40
0.0022866783577447
 10
50.8094086830469
 20
-0.8152067084598114
 30
0.0
 10
50.80965767483439
 20
-0.8149183219407621
 30
0.0
 10
50.81015170647641
 20
-0.8143378469402755
 30
0.0
 10
50.81064115637556
 20
-0.8137535282421312
 30
0.0
 10
50.8108857338281
 20
-0.8134611029909706
 30
0.0
 11
50.8094086830469
 21
-0.8152067084598114
 31
0.0
 11
50.81015042375899
 21
-0.8143370443523847
 31
0.0
 11
50.8108857338281
 21
-0.8134611029909706
 31
0.0
  0
LINE
  5
14C
330
2
100
AcDbEntity
  8
GAIKEI
  6
Continuous
 62
     1
100
AcDbLine
 10
50.36780723531494
 20
-0.6067349781695272
 30
0.0
 11
50.36780723531494
 21
22.3264880895303
 31
0.0
  0
LINE
  5
14D
330
2
100
AcDbEntity
  8
GAIKEI
100
AcDbLine
 10
50.87071725275205
 20
-0.7420843434552467
 30
0.0
 11
48.91442096787777
 21
-3.075347241081373
 31
0.0
  0
ARC
  5
14E
330
2
100
AcDbEntity
  8
GAIKEI
100
AcDbCircle
 10
50.48757023531486
 20
-0.4208393232152618
 30
0.0
 40
0.5
100
AcDbArc
 50
320.0222528634252
 51
0.0
  0
LINE
  5
14F
330
2
100
AcDbEntity
  8
GAIKEI
100
AcDbLine
 10
50.7249604408593
 20
-0.4867643256472435
 30
0.0
 11
50.36780712054694
 21
-0.6067350287722208
 31
0.0
  0
ARC
  5
150
330
2
100
AcDbEntity
  8
GAIKEI
100
AcDbCircle
 10
50.65706484531453
 20
-0.1404299210904014
 30
0.0
 40
0.3529268078144859
100
AcDbArc
 50
281.0916342477189
 51
339.4669884400832
  0
LINE
  5
151
330
2
100
AcDbEntity
  8
GAIKEI
100
AcDbLine
 10
50.36780712054694
 20
-0.6067350287722208
 30
0.0
 11
47.76493848531496
 21
-2.995673448119362
 31
0.0
  0
ARC
  5
152
330
2
100
AcDbEntity
  8
GAIKEI
100
AcDbCircle
 10
49.29756798531496
 20
-3.396592261321244
 30
0.0
 40
0.5
100
AcDbArc
 50
140.0222528634251
 51
180.0
  0
LINE
  5
153
330
2
100
AcDbEntity
  8
GAIKEI
  6
Continuous
 62
     1
100
AcDbLine
 10
47.76493848531496
 20
26.03061627219228
 30
0.0
 11
47.76493848531496
 21
-4.359511177025466
 31
0.0
  0
ARC
  5
154
330
2
100
AcDbEntity
  8
GAIKEI
100
AcDbCircle
 10
50.65706484531453
 20
21.86018302040003
 30
0.0
 40
0.3529268078144859
100
AcDbArc
 50
23.28941395879059
 51
78.90836575228108
  0
LINE
  5
155
330
2
100
AcDbEntity
  8
GAIKEI
100
AcDbLine
 10
50.7249604408593
 20
22.20651742495687
 30
0.0
 11
50.36780712054694
 21
22.32648812808185
 31
0.0
  0
ARC
  5
156
330
2
100
AcDbEntity
  8
GAIKEI
100
AcDbCircle
 10
50.48757023531486
 20
22.14059242252489
 30
0.0
 40
0.5
100
AcDbArc
 50
27.31304412189146
 51
39.97774713657485
  0
SPLINE
  5
157
330
2
100
AcDbEntity
  8
GAIKEI
  6
Continuous
100
AcDbSpline
210
0.0
220
0.0
230
1.0
 70
     8
 71
     3
 72
     9
 73
     5
 74
     3
 42
0.0000000001
 43
0.0000000001
 44
0.000001
 12
0.6535156864074856
 22
-0.7569129722889898
 32
0.0
 13
0.641560766438372
 23
-0.7670722149621957
 33
0.0
 40
0.0
 40
0.0
 40
0.0
 40
0.0
 40
0.0011430106086461
 40
0.0022866783577448
 40
0.0022866783577448
 40
0.0022866783577448
 40
0.0022866783577448
 10
50.8094086830469
 20
22.53495980776945
 30
0.0
 10
50.80965767483439
 20
22.53467142125039
 30
0.0
 10
50.81015170647642
 20
22.5340909462499
 30
0.0
 10
50.81064115637556
 20
22.53350662755176
 30
0.0
 10
50.8108857338281
 20
22.5332142023006
 30
0.0
 11
50.8094086830469
 21
22.53495980776945
 31
0.0
 11
50.81015042375899
 21
22.53409014366202
 31
0.0
 11
50.8108857338281
 21
22.5332142023006
 31
0.0
  0
LINE
  5
158
330
2
100
AcDbEntity
  8
GAIKEI
100
AcDbLine
 10
50.36780712054694
 20
22.32648812808185
 30
0.0
 11
47.76493848531496
 21
24.71542654742899
 31
0.0
  0
LINE
  5
159
330
2
100
AcDbEntity
  8
GAIKEI
100
AcDbLine
 10
50.87071725275205
 20
22.46183744276487
 30
0.0
 11
48.91442096787777
 21
24.795100340391
 31
0.0
  0
ARC
  5
15A
330
2
100
AcDbEntity
  8
GAIKEI
100
AcDbCircle
 10
49.29756798531496
 20
25.11634536063088
 30
0.0
 40
0.5
100
AcDbArc
 50
180.0
 51
219.9777471365749
  0
LINE
  5
15B
330
2
100
AcDbEntity
  8
GAIKEI
  6
Continuous
100
AcDbLine
 10
48.79756498531484
 20
-3.396592261321244
 30
0.0
 11
48.79756498531484
 21
-4.162218353169521
 31
0.0
  0
LINE
  5
15C
330
2
100
AcDbEntity
  8
GAIKEI
  6
Continuous
 62
     1
100
AcDbLine
 10
-30.42779712588203
 20
-4.067077273197411
 30
0.0
 11
-30.41534237588206
 21
-3.63930427319741
 31
0.0
  0
LINE
  5
15D
330
2
100
AcDbEntity
  8
GAIKEI
  6
Continuous
 62
     1
100
AcDbLine
 10
-30.97714187588207
 20
-3.639298773197424
 30
0.0
 11
-30.41533762588205
 21
-3.639298773197424
 31
0.0
  0
LINE
  5
15E
330
2
100
AcDbEntity
  8
GAIKEI
  6
Continuous
100
AcDbLine
 10
-30.39531912588194
 20
-4.097075273197447
 30
0.0
 11
-30.38221712588205
 21
-3.647070773197413
 31
0.0
  0
LINE
  5
15F
330
2
100
AcDbEntity
  8
GAIKEI
  6
Continuous
100
AcDbLine
 10
-30.38220787588211
 20
25.41152466491832
 30
0.0
 11
-30.38220787588211
 21
-3.647074523197431
 31
0.0
  0
LINE
  5
160
330
2
100
AcDbEntity
  8
GAIKEI
  6
Continuous
 62
     1
100
AcDbLine
 10
-30.96469087588201
 20
-4.06706977319743
 30
0.0
 11
-30.4277888758822
 21
-4.06706977319743
 31
0.0
  0
LINE
  5
161
330
2
100
AcDbEntity
  8
GAIKEI
  6
Continuous
100
AcDbLine
 10
-30.44520837588192
 20
-4.097074523197419
 30
0.0
 11
-30.94727137588205
 21
-4.097074523197419
 31
0.0
  0
LINE
  5
162
330
2
100
AcDbEntity
  8
GAIKEI
  6
Continuous
100
AcDbLine
 10
-30.42687337588195
 20
-4.097074523197419
 30
0.0
 11
-30.44520837588192
 21
-4.097074523197419
 31
0.0
  0
LINE
  5
163
330
2
100
AcDbEntity
  8
GAIKEI
  6
Continuous
100
AcDbLine
 10
-30.42687337588195
 20
-4.097074523197419
 30
0.0
 11
-30.39533037588211
 21
-4.097074523197419
 31
0.0
  0
LINE
  5
164
330
2
100
AcDbEntity
  8
GAIKEI
  6
Continuous
 62
     1
100
AcDbLine
 10
-30.97714187588207
 20
25.40374866491828
 30
0.0
 11
-30.97714187588207
 21
-3.639298773197424
 31
0.0
  0
SPLINE
  5
165
330
2
100
AcDbEntity
  8
GAIKEI
  6
Continuous
 62
     1
100
AcDbSpline
210
0.0
220
0.0
230
1.0
 70
     8
 71
     3
 72
     9
 73
     5
 74
     3
 42
0.0000000001
 43
0.0000000001
 44
0.000001
 12
-0.4555710774664803
 22
-0.8901994121409149
 32
0.0
 13
-0.4548274176199876
 23
-0.8905795978918074
 33
0.0
 40
0.0
 40
0.0
 40
0.0
 40
0.0
 40
0.0517793888168824
 40
0.1036079629296272
 40
0.1036079629296272
 40
0.1036079629296272
 40
0.1036079629296272
 10
-35.68117026699355
 20
-4.070219161690772
 30
0.0
 10
-35.68903333097817
 20
-4.08558382218604
 30
0.0
 10
-35.7047633594018
 20
-4.116329564711675
 30
0.0
 10
-35.72048055023605
 20
-4.147081873282832
 30
0.0
 10
-35.72833823574359
 20
-4.162467696847044
 30
0.0
 11
-35.68117026699355
 21
-4.070219161690772
 31
0.0
 11
-35.70475268749186
 21
-4.116316607178759
 31
0.0
 11
-35.72833823574359
 21
-4.162467696847044
 31
0.0
  0
LINE
  5
166
330
2
100
AcDbEntity
  8
GAIKEI
  6
Continuous
100
AcDbLine
 10
-30.94727137588205
 20
-4.097074523197419
 30
0.0
 11
-30.94727137588205
 21
-4.06706977319743
 31
0.0
  0
SPLINE
  5
167
330
2
100
AcDbEntity
  8
GAIKEI
  6
Continuous
100
AcDbSpline
210
0.0
220
0.0
230
1.0
 70
     8
 71
     3
 72
     9
 73
     5
 74
     3
 42
0.0000000001
 43
0.0000000001
 44
0.000001
 12
0.9999883567442765
 22
0.0048255959094992
 32
0.0
 13
0.9289662195941573
 23
0.3701645078244804
 33
0.0
 40
0.0
 40
0.0
 40
0.0
 40
0.0
 40
0.0006886604951415
 40
0.0013897972775236
 40
0.0013897972775236
 40
0.0013897972775236
 40
0.0013897972775236
 10
-35.52734946621234
 20
-4.366569259347044
 30
0.0
 10
-35.52711991538672
 20
-4.366568151614621
 30
0.0
 10
-35.52665606296525
 20
-4.366513664813597
 30
0.0
 10
-35.5262115965388
 20
-4.36637500961225
 30
0.0
 10
-35.52599448574341
 20
-4.366288497628261
 30
0.0
 11
-35.52734946621234
 21
-4.366569259347044
 31
0.0
 11
-35.52666414937603
 21
-4.366493666822464
 31
0.0
 11
-35.52599448574341
 21
-4.366288497628261
 31
0.0
  0
LINE
  5
168
330
2
100
AcDbEntity
  8
GAIKEI
  6
Continuous
 62
     1
100
AcDbLine
 10
-31.01957387588203
 20
-4.033180773197443
 30
0.0
 11
-31.25326512588202
 21
-3.799259773197433
 31
0.0
  0
LINE
  5
169
330
2
100
AcDbEntity
  8
GAIKEI
  6
Continuous
 62
     1
100
AcDbLine
 10
-31.21933787588199
 20
-4.232949023197419
 30
0.0
 11
-31.453258875882
 21
-3.999257773197426
 31
0.0
  0
LINE
  5
16A
330
2
100
AcDbEntity
  8
GAIKEI
  6
Continuous
 62
     1
100
AcDbLine
 10
-35.18573562588205
 20
-3.972685023197413
 30
0.0
 11
-31.48001062588213
 21
-3.972685023197413
 31
0.0
  0
LINE
  5
16B
330
2
100
AcDbEntity
  8
GAIKEI
  6
Continuous
 62
     1
100
AcDbLine
 10
-35.64592912588222
 20
-4.033909773197422
 30
0.0
 11
-35.41231087588193
 21
-3.799312523197443
 31
0.0
  0
LINE
  5
16C
330
2
100
AcDbEntity
  8
GAIKEI
  6
Continuous
 62
     1
100
AcDbLine
 10
-35.21234687588203
 20
-3.999251023197416
 30
0.0
 11
-35.44863712588216
 21
-4.234871273197426
 31
0.0
  0
SPLINE
  5
16D
330
2
100
AcDbEntity
  8
GAIKEI
  6
Continuous
 62
     1
100
AcDbSpline
210
0.0
220
0.0
230
1.0
 70
     8
 71
     3
 72
     9
 73
     5
 74
     3
 42
0.0000000001
 43
0.0000000001
 44
0.000001
 12
0.4193310596052151
 22
0.9078333891471318
 32
0.0
 13
0.4173617955917634
 23
0.9087404093471464
 33
0.0
 40
0.0
 40
0.0
 40
0.0
 40
0.0
 40
0.0530945544880685
 40
0.1061312742876894
 40
0.1061312742876894
 40
0.1061312742876894
 40
0.1061312742876894
 10
-35.52599448574341
 20
-4.366288497628261
 30
0.0
 10
-35.51857308714583
 20
-4.350221494512874
 30
0.0
 10
-35.50375713356395
 20
-4.318096321715652
 30
0.0
 10
-35.4889760132901
 20
-4.285955108667423
 30
0.0
 10
-35.48159751308748
 20
-4.269889571847044
 30
0.0
 11
-35.52599448574341
 21
-4.366288497628261
 31
0.0
 11
-35.5037577757018
 21
-4.318074801148383
 31
0.0
 11
-35.48159751308748
 21
-4.269889571847044
 31
0.0
  0
LINE
  5
16E
330
2
100
AcDbEntity
  8
GAIKEI
  6
Continuous
 62
     1
100
AcDbLine
 10
-30.96469337588218
 20
-4.06707027319743
 30
0.0
 11
-30.97714812588214
 21
-3.639297273197427
 31
0.0
  0
LINE
  5
16F
330
2
100
AcDbEntity
  8
GAIKEI
  6
Continuous
100
AcDbLine
 10
-30.88320887588196
 20
-4.169376616067721
 30
0.0
 11
-30.88320887588196
 21
-4.097074523197419
 31
0.0
  0
LINE
  5
170
330
2
100
AcDbEntity
  8
GAIKEI
  6
Continuous
100
AcDbLine
 10
-30.88320887588196
 20
-4.169596523197468
 30
0.0
 11
-30.88314787588223
 21
-4.169596523197468
 31
0.0
  0
LINE
  5
171
330
2
100
AcDbEntity
  8
GAIKEI
  6
Continuous
100
AcDbLine
 10
-30.88314837588195
 20
-4.169593773197391
 30
0.0
 11
-30.88313612588189
 21
-4.169593773197391
 31
0.0
  0
LINE
  5
172
330
2
100
AcDbEntity
  8
GAIKEI
  6
Continuous
 62
     1
100
AcDbLine
 10
-31.28001062588209
 20
-3.772685023197424
 30
0.0
 11
-31.28001062588209
 21
25.53715941491834
 31
0.0
  0
LINE
  5
173
330
2
100
AcDbEntity
  8
GAIKEI
  6
Continuous
100
AcDbLine
 10
-35.72833812588209
 20
-4.166286820255152
 30
0.0
 11
-35.72833812588209
 21
25.92694216491833
 31
0.0
  0
LINE
  5
174
330
2
100
AcDbEntity
  8
GAIKEI
  6
Continuous
100
AcDbLine
 10
-35.72833812588209
 20
-4.162467773197419
 30
0.0
 11
-35.72839937588191
 21
-4.162467773197419
 31
0.0
  0
LINE
  5
175
330
2
100
AcDbEntity
  8
GAIKEI
  6
Continuous
 62
     1
100
AcDbLine
 10
-35.38573562588198
 20
25.53715941491834
 30
0.0
 11
-35.38573562588198
 21
-3.772685023197424
 31
0.0
  0
LINE
  5
176
330
2
100
AcDbEntity
  8
GAIKEI
  6
Continuous
 62
     1
100
AcDbLine
 10
-35.64600187588207
 20
25.79934444651855
 30
0.0
 11
-35.64600187588207
 21
-4.034870054797636
 31
0.0
  0
LINE
  5
177
330
2
100
AcDbEntity
  8
GAIKEI
  6
Continuous
 62
     1
100
AcDbLine
 10
-31.01957362588195
 20
25.79742350141084
 30
0.0
 11
-31.01957362588195
 21
-4.032949109689866
 31
0.0
  0
LINE
  5
178
330
2
100
AcDbEntity
  8
GAIKEI
  6
Continuous
100
AcDbLine
 10
-30.98453937588209
 20
25.86154891491839
 30
0.0
 11
-30.98453937588209
 21
-4.033109773197451
 31
0.0
  0
LINE
  5
179
330
2
100
AcDbEntity
  8
GAIKEI
100
AcDbLine
 10
-31.08334789523969
 20
-4.36937656775177
 30
0.0
 11
-35.52847714523983
 21
-4.366286771939201
 31
0.0
  0
LINE
  5
17A
330
2
100
AcDbEntity
  8
GAIKEI
 62
     1
100
AcDbLine
 10
-31.21948272430763
 20
-4.232949089032159
 30
0.0
 11
-35.44591097430778
 21
-4.234870034139873
 31
0.0
  0
ARC
  5
17B
330
2
100
AcDbEntity
  8
GAIKEI
  6
Continuous
 62
     1
100
AcDbCircle
 10
-31.48001062588213
 20
-3.772685023197424
 30
0.0
 40
0.2
100
AcDbArc
 50
270.0
 51
0.000000000000007
  0
ARC
  5
17C
330
2
100
AcDbEntity
  8
GAIKEI
 62
     1
100
AcDbCircle
 10
-31.219573625882
 20
-4.032949109689866
 30
0.0
 40
0.2
100
AcDbArc
 50
270.0260413837083
 51
360.0
  0
ARC
  5
17D
330
2
100
AcDbEntity
  8
GAIKEI
100
AcDbCircle
 10
-31.08320887588201
 20
-4.169376616067721
 30
0.0
 40
0.2
100
AcDbArc
 50
269.9601738844593
 51
0.000000000000007
  0
ARC
  5
17E
330
2
100
AcDbEntity
  8
GAIKEI
 62
     1
100
AcDbCircle
 10
-35.44600187588213
 20
-4.034870054797636
 30
0.0
 40
0.2
100
AcDbArc
 50
180.0
 51
270.0260413837083
  0
ARC
  5
17F
330
2
100
AcDbEntity
  8
GAIKEI
100
AcDbCircle
 10
-35.52833812588216
 20
-4.166286820255152
 30
0.0
 40
0.2
100
AcDbArc
 50
180.0
 51
269.9601738844593
  0
ARC
  5
180
330
2
100
AcDbEntity
  8
GAIKEI
  6
Continuous
 62
     1
100
AcDbCircle
 10
-35.18573562588205
 20
-3.772685023197424
 30
0.0
 40
0.2
100
AcDbArc
 50
180.0
 51
270.0
  0
ARC
  5
181
330
2
100
AcDbEntity
  8
GAIKEI
  6
Continuous
 62
     1
100
AcDbCircle
 10
-35.18573562588205
 20
25.53715941491834
 30
0.0
 40
0.2
100
AcDbArc
 50
90.0
 51
180.0
  0
ARC
  5
182
330
2
100
AcDbEntity
  8
GAIKEI
100
AcDbCircle
 10
-35.52833812588216
 20
25.93076121197612
 30
0.0
 40
0.2
100
AcDbArc
 50
90.03982611554064
 51
180.0
  0
ARC
  5
183
330
2
100
AcDbEntity
  8
GAIKEI
 62
     1
100
AcDbCircle
 10
-35.44600187588213
 20
25.79934444651855
 30
0.0
 40
0.2
100
AcDbArc
 50
89.9739586162917
 51
180.0
  0
ARC
  5
184
330
2
100
AcDbEntity
  8
GAIKEI
100
AcDbCircle
 10
-31.08320887588201
 20
25.93385100778863
 30
0.0
 40
0.2
100
AcDbArc
 50
0.000000000000007
 51
90.03982611554064
  0
ARC
  5
185
330
2
100
AcDbEntity
  8
GAIKEI
 62
     1
100
AcDbCircle
 10
-31.219573625882
 20
25.79742350141084
 30
0.0
 40
0.2
100
AcDbArc
 50
0.0000000000000579
 51
89.9739586162917
  0
ARC
  5
186
330
2
100
AcDbEntity
  8
GAIKEI
  6
Continuous
 62
     1
100
AcDbCircle
 10
-31.48001062588213
 20
25.53715941491834
 30
0.0
 40
0.2
100
AcDbArc
 50
0.000000000000007
 51
90.0
  0
LINE
  5
187
330
2
100
AcDbEntity
  8
GAIKEI
 62
     1
100
AcDbLine
 10
-31.21948272430763
 20
25.99742348075307
 30
0.0
 11
-35.44591097430778
 21
25.99934442586084
 31
0.0
  0
LINE
  5
188
330
2
100
AcDbEntity
  8
GAIKEI
100
AcDbLine
 10
-31.08334789523969
 20
26.13385095947268
 30
0.0
 11
-35.52847714523983
 21
26.13076116366018
 31
0.0
  0
LINE
  5
189
330
2
100
AcDbEntity
  8
GAIKEI
  6
Continuous
100
AcDbLine
 10
-35.72833812588209
 20
25.92694216491833
 30
0.0
 11
-35.72839937588191
 21
25.92694216491833
 31
0.0
  0
LINE
  5
18A
330
2
100
AcDbEntity
  8
GAIKEI
  6
Continuous
100
AcDbLine
 10
-30.88314837588195
 20
25.9340681649183
 30
0.0
 11
-30.88313612588189
 21
25.9340681649183
 31
0.0
  0
LINE
  5
18B
330
2
100
AcDbEntity
  8
GAIKEI
  6
Continuous
100
AcDbLine
 10
-30.88320887588196
 20
25.93407091491844
 30
0.0
 11
-30.88314787588223
 21
25.93407091491844
 31
0.0
  0
LINE
  5
18C
330
2
100
AcDbEntity
  8
GAIKEI
  6
Continuous
100
AcDbLine
 10
-30.88320887588196
 20
25.93385100778863
 30
0.0
 11
-30.88320887588196
 21
25.86154891491839
 31
0.0
  0
LINE
  5
18D
330
2
100
AcDbEntity
  8
GAIKEI
  6
Continuous
 62
     1
100
AcDbLine
 10
-30.96469337588218
 20
25.83154466491834
 30
0.0
 11
-30.97714812588214
 21
25.40377166491834
 31
0.0
  0
SPLINE
  5
18E
330
2
100
AcDbEntity
  8
GAIKEI
  6
Continuous
 62
     1
100
AcDbSpline
210
0.0
220
0.0
230
1.0
 70
     8
 71
     3
 72
     9
 73
     5
 74
     3
 42
0.0000000001
 43
0.0000000001
 44
0.000001
 12
0.4193310596052152
 22
-0.9078333891471318
 32
0.0
 13
0.4173617955917634
 23
-0.9087404093471464
 33
0.0
 40
0.0
 40
0.0
 40
0.0
 40
0.0
 40
0.0530945544881118
 40
0.106131274287737
 40
0.106131274287737
 40
0.106131274287737
 40
0.106131274287737
 10
-35.52599448574341
 20
26.13076288934923
 30
0.0
 10
-35.51857308714583
 20
26.11469588623383
 30
0.0
 10
-35.50375713356395
 20
26.08257071343659
 30
0.0
 10
-35.4889760132901
 20
26.05042950038834
 30
0.0
 10
-35.48159751308748
 20
26.03436396356797
 30
0.0
 11
-35.52599448574341
 21
26.13076288934923
 31
0.0
 11
-35.5037577757018
 21
26.0825491928693
 31
0.0
 11
-35.48159751308748
 21
26.03436396356797
 31
0.0
  0
LINE
  5
18F
330
2
100
AcDbEntity
  8
GAIKEI
  6
Continuous
 62
     1
100
AcDbLine
 10
-35.21234687588203
 20
25.76372541491839
 30
0.0
 11
-35.44863712588216
 21
25.99934566491839
 31
0.0
  0
LINE
  5
190
330
2
100
AcDbEntity
  8
GAIKEI
  6
Continuous
 62
     1
100
AcDbLine
 10
-35.64592912588222
 20
25.79838416491833
 30
0.0
 11
-35.41231087588193
 21
25.56378691491835
 31
0.0
  0
LINE
  5
191
330
2
100
AcDbEntity
  8
GAIKEI
  6
Continuous
 62
     1
100
AcDbLine
 10
-35.18573562588205
 20
25.73715941491838
 30
0.0
 11
-31.48001062588213
 21
25.73715941491838
 31
0.0
  0
LINE
  5
192
330
2
100
AcDbEntity
  8
GAIKEI
  6
Continuous
 62
     1
100
AcDbLine
 10
-31.21933787588199
 20
25.99742341491839
 30
0.0
 11
-31.453258875882
 21
25.7637321649184
 31
0.0
  0
LINE
  5
193
330
2
100
AcDbEntity
  8
GAIKEI
  6
Continuous
 62
     1
100
AcDbLine
 10
-31.01957387588203
 20
25.79765516491836
 30
0.0
 11
-31.25326512588202
 21
25.56373416491835
 31
0.0
  0
SPLINE
  5
194
330
2
100
AcDbEntity
  8
GAIKEI
  6
Continuous
100
AcDbSpline
210
0.0
220
0.0
230
1.0
 70
     8
 71
     3
 72
     9
 73
     5
 74
     3
 42
0.0000000001
 43
0.0000000001
 44
0.000001
 12
0.9999883567442765
 22
-0.0048255959094992
 32
0.0
 13
0.9289662195941573
 23
-0.3701645078244804
 33
0.0
 40
0.0
 40
0.0
 40
0.0
 40
0.0
 40
0.0006886604951461
 40
0.0013897972775126
 40
0.0013897972775126
 40
0.0013897972775126
 40
0.0013897972775126
 10
-35.52734946621234
 20
26.13104365106796
 30
0.0
 10
-35.52711991538672
 20
26.13104254333554
 30
0.0
 10
-35.52665606296525
 20
26.13098805653454
 30
0.0
 10
-35.52621159653879
 20
26.13084940133322
 30
0.0
 10
-35.52599448574341
 20
26.13076288934923
 30
0.0
 11
-35.52734946621234
 21
26.13104365106796
 31
0.0
 11
-35.52666414937603
 21
26.13096805854338
 31
0.0
 11
-35.52599448574341
 21
26.13076288934923
 31
0.0
  0
LINE
  5
195
330
2
100
AcDbEntity
  8
GAIKEI
  6
Continuous
100
AcDbLine
 10
-30.94727137588205
 20
25.86154891491839
 30
0.0
 11
-30.94727137588205
 21
25.8315441649184
 31
0.0
  0
SPLINE
  5
196
330
2
100
AcDbEntity
  8
GAIKEI
  6
Continuous
 62
     1
100
AcDbSpline
210
0.0
220
0.0
230
1.0
 70
     8
 71
     3
 72
     9
 73
     5
 74
     3
 42
0.0000000001
 43
0.0000000001
 44
0.000001
 12
-0.4555710774664803
 22
0.8901994121409149
 32
0.0
 13
-0.4548274176199876
 23
0.8905795978918074
 33
0.0
 40
0.0
 40
0.0
 40
0.0
 40
0.0
 40
0.0517793888169395
 40
0.1036079629296375
 40
0.1036079629296375
 40
0.1036079629296375
 40
0.1036079629296375
 10
-35.68117026699355
 20
25.83469355341168
 30
0.0
 10
-35.68903333097818
 20
25.85005821390697
 30
0.0
 10
-35.7047633594018
 20
25.8808039564326
 30
0.0
 10
-35.72048055023606
 20
25.91155626500377
 30
0.0
 10
-35.72833823574359
 20
25.92694208856797
 30
0.0
 11
-35.68117026699355
 21
25.83469355341168
 31
0.0
 11
-35.70475268749186
 21
25.88079099889973
 31
0.0
 11
-35.72833823574359
 21
25.92694208856797
 31
0.0
  0
LINE
  5
197
330
2
100
AcDbEntity
  8
GAIKEI
  6
Continuous
100
AcDbLine
 10
-30.42687337588195
 20
25.86154891491839
 30
0.0
 11
-30.39533037588211
 21
25.86154891491839
 31
0.0
  0
LINE
  5
198
330
2
100
AcDbEntity
  8
GAIKEI
  6
Continuous
100
AcDbLine
 10
-30.42687337588195
 20
25.86154891491839
 30
0.0
 11
-30.44520837588192
 21
25.86154891491839
 31
0.0
  0
LINE
  5
199
330
2
100
AcDbEntity
  8
GAIKEI
  6
Continuous
100
AcDbLine
 10
-30.44520837588192
 20
25.86154891491839
 30
0.0
 11
-30.98453937588209
 21
25.86154891491839
 31
0.0
  0
LINE
  5
19A
330
2
100
AcDbEntity
  8
GAIKEI
  6
Continuous
 62
     1
100
AcDbLine
 10
-30.96469087588201
 20
25.8315441649184
 30
0.0
 11
-30.4277888758822
 21
25.8315441649184
 31
0.0
  0
LINE
  5
19B
330
2
100
AcDbEntity
  8
GAIKEI
  6
Continuous
100
AcDbLine
 10
-30.39531912588194
 20
25.86154966491843
 30
0.0
 11
-30.38221712588205
 21
25.41154516491832
 31
0.0
  0
LINE
  5
19C
330
2
100
AcDbEntity
  8
GAIKEI
  6
Continuous
 62
     1
100
AcDbLine
 10
-30.97714187588207
 20
25.40377316491839
 30
0.0
 11
-30.41533762588205
 21
25.40377316491839
 31
0.0
  0
LINE
  5
19D
330
2
100
AcDbEntity
  8
GAIKEI
  6
Continuous
 62
     1
100
AcDbLine
 10
-30.42779712588203
 20
25.83155166491832
 30
0.0
 11
-30.41534237588206
 21
25.40377866491832
 31
0.0
  0
DIMENSION
  5
19E
330
2
100
AcDbEntity
  8
SUNPO
100
AcDbDimension
  2
*D10
 10
-35.72833762588192
 20
34.13198370247898
 30
0.0
 11
-41.56167095921525
 21
35.88198370247898
 31
0.0
 70
    33
  1
107
 71
     5
 42
5.351732499999791
  3
STANDARD
100
AcDbAlignedDimension
 13
-30.37660512588213
 23
26.13198370247898
 33
0.0
 14
-35.72833762588192
 24
26.13198370247898
 34
0.0
1001
ACAD
1000
DSTYLE
1002
{
1070
    40
1040
1.0
1070
   140
1040
2.5
1070
   147
1040
0.5
1070
   172
1070
     1
1070
   279
1070
     0
1070
   288
1070
     0
1002
}
  0
ARC
  5
1AC
330
2
100
AcDbEntity
  8
GAIKEI
 62
     1
100
AcDbCircle
 10
-5.594171685612834
 20
165.9272086325266
 30
0.0
 40
172.2451368622826
100
AcDbArc
 50
270.087141166115
 51
273.7439666659791
  0
LINE
  5
1AD
330
2
100
AcDbEntity
  8
GAIKEI
  6
Continuous
 62
     1
100
AcDbLine
 10
8.897792124117911
 20
-7.352725103169801
 30
0.0
 11
5.897792124117912
 21
-7.352725103169801
 31
0.0
  0
LINE
  5
1AE
330
2
100
AcDbEntity
  8
GAIKEI
  6
Continuous
 62
     1
100
AcDbLine
 10
5.897792124117912
 20
-7.352725103169801
 30
0.0
 11
5.897792124117912
 21
-7.267729853169782
 31
0.0
  0
LINE
  5
1AF
330
2
100
AcDbEntity
  8
GAIKEI
  6
Continuous
 62
     1
100
AcDbLine
 10
8.897792124117911
 20
-7.352725103169801
 30
0.0
 11
8.897792124117911
 21
-7.267729853169782
 31
0.0
  0
LINE
  5
1B0
330
2
100
AcDbEntity
  8
GAIKEI
  6
Continuous
 62
     1
100
AcDbLine
 10
-0.082207875882105
 20
-7.352725103169801
 30
0.0
 11
-0.082207875882105
 21
-7.267729853169782
 31
0.0
  0
ARC
  5
1B1
330
2
100
AcDbEntity
  8
GAIKEI
  6
HIDDEN2
 62
     1
100
AcDbCircle
 10
10.07006887411795
 20
-3.935505603169815
 30
0.0
 40
0.05
100
AcDbArc
 50
181.0000009999991
 51
270.0
  0
LINE
  5
1B3
330
2
100
AcDbEntity
  8
GAIKEI
  6
HIDDEN2
 62
     1
100
AcDbLine
 10
10.02007637411781
 20
-3.936378103169828
 30
0.0
 11
10.01718112411787
 21
-3.770505603169851
 31
0.0
  0
ARC
  5
1B4
330
2
100
AcDbEntity
  8
GAIKEI
  6
HIDDEN2
 62
     1
100
AcDbCircle
 10
10.07390887411803
 20
-3.385505603169859
 30
0.0
 40
0.05
100
AcDbArc
 50
90.0
 51
178.9999999999982
  0
LINE
  5
1B5
330
2
100
AcDbEntity
  8
GAIKEI
  6
HIDDEN2
 62
     1
100
AcDbLine
 10
10.01718112411787
 20
-3.770505603169851
 30
0.0
 11
10.02391662411774
 21
-3.384632853169761
 31
0.0
  0
LINE
  5
1B6
330
2
100
AcDbEntity
  8
GAIKEI
  6
Continuous
100
AcDbLine
 10
8.901375628090264
 20
-7.217729853169713
 30
0.0
 11
9.123921624117985
 21
-7.217729853169827
 31
0.0
  0
LINE
  5
1B7
330
2
100
AcDbEntity
  8
GAIKEI
  6
Continuous
 62
     1
100
AcDbLine
 10
8.900581124117806
 20
-7.267729853169782
 30
0.0
 11
8.901375628090264
 21
-7.217729853169713
 31
0.0
  0
LINE
  5
1B8
330
2
100
AcDbEntity
  8
GAIKEI
  6
Continuous
100
AcDbLine
 10
9.075661874117811
 20
-7.267728103169758
 30
0.0
 11
9.076534624117682
 21
-7.21772885316983
 31
0.0
  0
LINE
  5
1B9
330
2
100
AcDbEntity
  8
GAIKEI
100
AcDbLine
 10
2.153963032077271
 20
-5.891431256432781
 30
0.0
 11
4.994539203952271
 21
-5.913045331139812
 31
0.0
  0
ARC
  5
1BA
330
2
100
AcDbEntity
  8
GAIKEI
100
AcDbCircle
 10
2.080043835324758
 20
-27.45231939934303
 30
0.0
 40
21.79684751240989
100
AcDbArc
 50
71.33876240204347
 51
80.79333714661627
  0
ARC
  5
1BB
330
2
100
AcDbEntity
  8
GAIKEI
100
AcDbCircle
 10
5.139015955749286
 20
-9.42762647882006
 30
0.0
 40
3.517549456004707
100
AcDbArc
 50
83.00403043973124
 51
92.35397894531805
  0
LINE
  5
1BC
330
2
100
AcDbEntity
  8
GAIKEI
100
AcDbLine
 10
9.054426899264726
 20
-6.801398297448315
 30
0.0
 11
9.105623188327273
 21
-6.868668957848798
 31
0.0
  0
LINE
  5
1BD
330
2
100
AcDbEntity
  8
GAIKEI
100
AcDbLine
 10
9.105623188327273
 20
-6.868668957848798
 30
0.0
 11
9.123921624117985
 21
-7.217729853169827
 31
0.0
  0
LINE
  5
1BE
330
2
100
AcDbEntity
  8
GAIKEI
100
AcDbLine
 10
2.077227624117866
 20
-4.415114853169768
 30
0.0
 11
2.154599124117893
 21
-5.891436353169806
 31
0.0
  0
LINE
  5
1BF
330
2
100
AcDbEntity
  8
GAIKEI
100
AcDbLine
 10
2.153963032077271
 20
-5.891431256432781
 30
0.0
 11
2.085420203172219
 21
-6.05580793469238
 31
0.0
  0
LINE
  5
1C0
330
2
100
AcDbEntity
  8
GAIKEI
100
AcDbLine
 10
2.085420203172219
 20
-6.05580793469238
 30
0.0
 11
3.741465386574787
 21
-6.064747729283851
 31
0.0
  0
ARC
  5
1C1
330
2
100
AcDbEntity
  8
GAIKEI
 62
     1
100
AcDbCircle
 10
-5.332208145123658
 20
70.27262754560777
 30
0.0
 40
75.22807432498495
100
AcDbArc
 50
264.3713243723748
 51
275.628676200609
  0
LINE
  5
1C2
330
2
100
AcDbEntity
  8
GAIKEI
100
AcDbLine
 10
-12.71065162588219
 20
-4.592729853169828
 30
0.0
 11
2.046236124118066
 21
-4.592729853169828
 31
0.0
  0
LINE
  5
1C3
330
2
100
AcDbEntity
  8
GAIKEI
100
AcDbLine
 10
-12.74983595493643
 20
-6.05580793469238
 30
0.0
 11
-14.405881138339
 21
-6.064747729283851
 31
0.0
  0
LINE
  5
1C4
330
2
100
AcDbEntity
  8
GAIKEI
100
AcDbLine
 10
-12.81837878384148
 20
-5.891431256432781
 30
0.0
 11
-12.74983595493643
 21
-6.05580793469238
 31
0.0
  0
LINE
  5
1C5
330
2
100
AcDbEntity
  8
GAIKEI
100
AcDbLine
 10
-12.74164337588208
 20
-4.415114853169768
 30
0.0
 11
-12.8190148758821
 21
-5.891436353169806
 31
0.0
  0
LINE
  5
1C6
330
2
100
AcDbEntity
  8
GAIKEI
 62
     1
100
AcDbLine
 10
-19.71208447740027
 20
-6.799117108483471
 30
0.0
 11
8.886482666353556
 21
-6.799117108483471
 31
0.0
  0
LINE
  5
1C7
330
2
100
AcDbEntity
  8
GAIKEI
100
AcDbLine
 10
-19.77003894009148
 20
-6.868668957848798
 30
0.0
 11
-19.78833737588219
 21
-7.217729853169827
 31
0.0
  0
LINE
  5
1C8
330
2
100
AcDbEntity
  8
GAIKEI
100
AcDbLine
 10
-19.71884265102893
 20
-6.801398297448315
 30
0.0
 11
-19.77003894009148
 21
-6.868668957848798
 31
0.0
  0
ARC
  5
1C9
330
2
100
AcDbEntity
  8
GAIKEI
100
AcDbCircle
 10
-15.8034317075135
 20
-9.42762647882006
 30
0.0
 40
3.517549456004707
100
AcDbArc
 50
87.64602105468195
 51
96.99596956026876
  0
ARC
  5
1CA
330
2
100
AcDbEntity
  8
GAIKEI
100
AcDbCircle
 10
-12.74445958708897
 20
-27.45231939934303
 30
0.0
 40
21.79684751240989
100
AcDbArc
 50
99.20666285338372
 51
108.6612375979565
  0
LINE
  5
1CB
330
2
100
AcDbEntity
  8
GAIKEI
100
AcDbLine
 10
-12.81837878384148
 20
-5.891431256432781
 30
0.0
 11
-15.65895495571648
 21
-5.913045331139812
 31
0.0
  0
ARC
  5
1CC
330
2
100
AcDbEntity
  8
GAIKEI
 62
     1
100
AcDbCircle
 10
-5.070244066151373
 20
165.9272086325266
 30
0.0
 40
172.2451368622826
100
AcDbArc
 50
266.2560333340209
 51
269.912858833885
  0
DIMENSION
  5
1CD
330
2
100
AcDbEntity
  8
SUNPO
100
AcDbDimension
  2
*D9
 10
12.2677921241178
 20
-15.49405385031406
 30
0.0
 11
-5.33220787588211
 21
-13.74405385031406
 31
0.0
 70
    33
  1
704
 71
     5
 42
35.19999999999982
  3
STANDARD
100
AcDbAlignedDimension
 13
-22.93220787588202
 23
-7.494053850314059
 33
0.0
 14
12.2677921241178
 24
-7.494053850314059
 34
0.0
1001
ACAD
1000
DSTYLE
1002
{
1070
    40
1040
1.0
1070
   140
1040
2.5
1070
   147
1040
0.5
1070
   172
1070
     1
1070
   279
1070
     0
1070
   288
1070
     0
1002
}
  0
LINE
  5
1DA
330
2
100
AcDbEntity
  8
GAIKEI
  6
HIDDEN2
 62
     1
100
AcDbLine
 10
-22.93220787588202
 20
-4.067729853169736
 30
0.0
 11
-22.93220787588202
 21
-3.767729853169781
 31
0.0
  0
LINE
  5
1DB
330
2
100
AcDbEntity
  8
GAIKEI
  6
HIDDEN2
 62
     1
100
AcDbLine
 10
12.2677921241178
 20
-4.067729853169736
 30
0.0
 11
12.2677921241178
 21
-3.767729853169781
 31
0.0
  0
LINE
  5
1DC
330
2
100
AcDbEntity
  8
GAIKEI
  6
HIDDEN2
 62
     1
100
AcDbLine
 10
-22.93220787588202
 20
-3.767729853169781
 30
0.0
 11
10.01722962411792
 21
-3.767729853169781
 31
0.0
  0
LINE
  5
1DD
330
2
100
AcDbEntity
  8
GAIKEI
  6
HIDDEN2
 62
     1
100
AcDbLine
 10
-22.93220787588202
 20
-4.067729853169736
 30
0.0
 11
12.2677921241178
 21
-4.067729853169736
 31
0.0
  0
LINE
  5
1DE
330
2
100
AcDbEntity
  8
GAIKEI
  6
HIDDEN2
 62
     1
100
AcDbLine
 10
-22.93220787588202
 20
-4.367729853169805
 30
0.0
 11
12.2677921241178
 21
-4.367729853169805
 31
0.0
  0
LINE
  5
1DF
330
2
100
AcDbEntity
  8
GAIKEI
  6
HIDDEN2
 62
     1
100
AcDbLine
 10
12.2677921241178
 20
-4.367729853169805
 30
0.0
 11
12.2677921241178
 21
-4.067729853169736
 31
0.0
  0
LINE
  5
1E0
330
2
100
AcDbEntity
  8
GAIKEI
  6
HIDDEN2
 62
     1
100
AcDbLine
 10
-22.93220787588202
 20
-4.367729853169805
 30
0.0
 11
-22.93220787588202
 21
-4.067729853169736
 31
0.0
  0
LINE
  5
1E1
330
2
100
AcDbEntity
  8
GAIKEI
  6
Continuous
100
AcDbLine
 10
-19.74007762588202
 20
-7.267728103169758
 30
0.0
 11
-19.74095037588189
 21
-7.21772885316983
 31
0.0
  0
LINE
  5
1E2
330
2
100
AcDbEntity
  8
GAIKEI
  6
Continuous
 62
     1
100
AcDbLine
 10
-19.56499687588202
 20
-7.267729853169782
 30
0.0
 11
-19.56579137985447
 21
-7.217729853169713
 31
0.0
  0
LINE
  5
1E3
330
2
100
AcDbEntity
  8
GAIKEI
  6
Continuous
100
AcDbLine
 10
-19.74008287588221
 20
-7.267729853169782
 30
0.0
 11
8.897792124117911
 21
-7.267729853169782
 31
0.0
  0
LINE
  5
1E4
330
2
100
AcDbEntity
  8
GAIKEI
  6
Continuous
100
AcDbLine
 10
-19.56579137985447
 20
-7.217729853169713
 30
0.0
 11
-19.78833737588219
 21
-7.217729853169827
 31
0.0
  0
LINE
  5
1E5
330
2
100
AcDbEntity
  8
GAIKEI
  6
HIDDEN2
 62
     1
100
AcDbLine
 10
12.2677921241178
 20
-3.760505603169859
 30
0.0
 11
10.0177921241178
 21
-3.760505603169859
 31
0.0
  0
ARC
  5
1E6
330
2
100
AcDbEntity
  8
GAIKEI
  6
HIDDEN2
 62
     1
100
AcDbCircle
 10
12.21490437411795
 20
-3.935505603169815
 30
0.0
 40
0.05
100
AcDbArc
 50
270.0
 51
358.9999990000009
  0
ARC
  5
1E7
330
2
100
AcDbEntity
  8
GAIKEI
  6
HIDDEN2
 62
     1
100
AcDbCircle
 10
10.07006887411795
 20
-3.935505603169815
 30
0.0
 40
0.05
100
AcDbArc
 50
181.0000009999991
 51
270.0
  0
LINE
  5
1E8
330
2
100
AcDbEntity
  8
GAIKEI
  6
HIDDEN2
 62
     1
100
AcDbLine
 10
10.02007662411789
 20
-3.936378103169828
 30
0.0
 11
10.01718112411787
 21
-3.770505603169851
 31
0.0
  0
LINE
  5
1E9
330
2
100
AcDbEntity
  8
GAIKEI
  6
HIDDEN2
 62
     1
100
AcDbLine
 10
12.26489687411809
 20
-3.936378103169828
 30
0.0
 11
12.2677921241178
 21
-3.770505603169851
 31
0.0
  0
LINE
  5
1EA
330
2
100
AcDbEntity
  8
GAIKEI
  6
HIDDEN2
 62
     1
100
AcDbLine
 10
12.21490437411795
 20
-3.985505603169768
 30
0.0
 11
10.07006887411795
 21
-3.985505603169768
 31
0.0
  0
ARC
  5
1EB
330
2
100
AcDbEntity
  8
GAIKEI
  6
HIDDEN2
 62
     1
100
AcDbCircle
 10
12.2116753741178
 20
-3.385505603169859
 30
0.0
 40
0.05
100
AcDbArc
 50
1.000000000001775
 51
90.0
  0
ARC
  5
1EC
330
2
100
AcDbEntity
  8
GAIKEI
  6
HIDDEN2
 62
     1
100
AcDbCircle
 10
10.07390912411789
 20
-3.385505603169859
 30
0.0
 40
0.05
100
AcDbArc
 50
90.0
 51
178.9999999999982
  0
LINE
  5
1ED
330
2
100
AcDbEntity
  8
GAIKEI
  6
HIDDEN2
 62
     1
100
AcDbLine
 10
10.01718112411787
 20
-3.770505603169851
 30
0.0
 11
10.02391662411797
 21
-3.384632853169761
 31
0.0
  0
ARC
  5
1EE
330
2
100
AcDbEntity
  8
GAIKEI
  6
HIDDEN2
 62
     1
100
AcDbCircle
 10
11.06806387411812
 20
-3.085505603169791
 30
0.0
 40
0.25
100
AcDbArc
 50
270.0
 51
358.9999999999982
  0
ARC
  5
1EF
330
2
100
AcDbEntity
  8
GAIKEI
  6
HIDDEN2
 62
     1
100
AcDbCircle
 10
12.46752037411794
 20
-3.085505603169791
 30
0.0
 40
0.25
100
AcDbArc
 50
181.0000000000017
 51
213.4171470000081
  0
LINE
  5
1F0
330
2
100
AcDbEntity
  8
GAIKEI
  6
HIDDEN2
 62
     1
100
AcDbLine
 10
12.26840312411797
 20
-3.770505603169851
 30
0.0
 11
12.25884962411793
 21
-3.223188103169774
 31
0.0
  0
CIRCLE
  5
1F1
330
2
100
AcDbEntity
  8
GAIKEI
  6
HIDDEN2
 62
     1
100
AcDbCircle
 10
11.7677921241178
 20
-2.363422103169739
 30
0.0
 40
0.16708625
  0
CIRCLE
  5
1F2
330
2
100
AcDbEntity
  8
GAIKEI
  6
HIDDEN2
 62
     1
100
AcDbCircle
 10
11.7677921241178
 20
-0.1136093531698066
 30
0.0
 40
0.1778155
  0
CIRCLE
  5
1F3
330
2
100
AcDbEntity
  8
GAIKEI
  6
HIDDEN2
 62
     1
100
AcDbCircle
 10
11.7677921241178
 20
-2.360505603169769
 30
0.0
 40
0.105
  0
CIRCLE
  5
1F4
330
2
100
AcDbEntity
  8
GAIKEI
  6
HIDDEN2
 62
     1
100
AcDbCircle
 10
11.7677921241178
 20
-0.1105056031698837
 30
0.0
 40
0.105
  0
CIRCLE
  5
1F5
330
2
100
AcDbEntity
  8
GAIKEI
  6
HIDDEN2
 62
     1
100
AcDbCircle
 10
11.7677921241178
 20
-2.360505603169769
 30
0.0
 40
0.125
  0
CIRCLE
  5
1F6
330
2
100
AcDbEntity
  8
GAIKEI
  6
HIDDEN2
 62
     1
100
AcDbCircle
 10
11.7677921241178
 20
-0.1105056031698837
 30
0.0
 40
0.125
  0
LINE
  5
1F7
330
2
100
AcDbEntity
  8
GAIKEI
  6
HIDDEN2
 62
     1
100
AcDbLine
 10
11.98891162411801
 20
1.564494396830184
 30
0.0
 11
11.54667262411781
 21
1.564494396830184
 31
0.0
  0
LINE
  5
1F8
330
2
100
AcDbEntity
  8
GAIKEI
  6
HIDDEN2
 62
     1
100
AcDbLine
 10
12.2116753741178
 20
-3.335505603169791
 30
0.0
 11
10.07390912411789
 21
-3.335505603169791
 31
0.0
  0
LINE
  5
1F9
330
2
100
AcDbEntity
  8
GAIKEI
  6
HIDDEN2
 62
     1
100
AcDbLine
 10
11.31802587411799
 20
-3.089868603169803
 30
0.0
 11
11.39669562411801
 21
1.417112396830191
 31
0.0
  0
LINE
  5
1FA
330
2
100
AcDbEntity
  8
GAIKEI
  6
HIDDEN2
 62
     1
100
AcDbLine
 10
12.21755837411784
 20
-3.089868603169803
 30
0.0
 11
12.13888887411791
 21
1.417112396830191
 31
0.0
  0
ARC
  5
1FB
330
2
100
AcDbEntity
  8
GAIKEI
  6
HIDDEN2
 62
     1
100
AcDbCircle
 10
11.54667262411781
 20
1.414494396830206
 30
0.0
 40
0.15
100
AcDbArc
 50
90.0
 51
178.9999999999982
  0
ARC
  5
1FC
330
2
100
AcDbEntity
  8
GAIKEI
  6
HIDDEN2
 62
     1
100
AcDbCircle
 10
11.98891162411801
 20
1.414494396830206
 30
0.0
 40
0.15
100
AcDbArc
 50
1.000000000001775
 51
90.0
  0
LINE
  5
1FD
330
2
100
AcDbEntity
  8
GAIKEI
  6
HIDDEN2
 62
     1
100
AcDbLine
 10
-20.68159687588208
 20
-3.770505603169851
 30
0.0
 11
-20.68833237588195
 21
-3.384632853169761
 31
0.0
  0
LINE
  5
1FE
330
2
100
AcDbEntity
  8
GAIKEI
  6
HIDDEN2
 62
     1
100
AcDbLine
 10
-22.93281887588195
 20
-3.770505603169851
 30
0.0
 11
-22.92326537588191
 21
-3.223188103169774
 31
0.0
  0
ARC
  5
1FF
330
2
100
AcDbEntity
  8
GAIKEI
  6
HIDDEN2
 62
     1
100
AcDbCircle
 10
-22.65332737588223
 20
1.414494396830206
 30
0.0
 40
0.15
100
AcDbArc
 50
90.0
 51
178.9999999999982
  0
ARC
  5
200
330
2
100
AcDbEntity
  8
GAIKEI
  6
HIDDEN2
 62
     1
100
AcDbCircle
 10
-22.21108837588203
 20
1.414494396830206
 30
0.0
 40
0.15
100
AcDbArc
 50
1.000000000001775
 51
90.0
  0
LINE
  5
201
330
2
100
AcDbEntity
  8
GAIKEI
  6
HIDDEN2
 62
     1
100
AcDbLine
 10
-22.88197412588205
 20
-3.089868603169803
 30
0.0
 11
-22.80330437588204
 21
1.417112396830191
 31
0.0
  0
LINE
  5
202
330
2
100
AcDbEntity
  8
GAIKEI
  6
HIDDEN2
 62
     1
100
AcDbLine
 10
-21.9824416258822
 20
-3.089868603169803
 30
0.0
 11
-22.06111112588191
 21
1.417112396830191
 31
0.0
  0
LINE
  5
203
330
2
100
AcDbEntity
  8
GAIKEI
  6
HIDDEN2
 62
     1
100
AcDbLine
 10
-22.87609087588216
 20
-3.335505603169791
 30
0.0
 11
-20.73832462588224
 21
-3.335505603169791
 31
0.0
  0
LINE
  5
204
330
2
100
AcDbEntity
  8
GAIKEI
  6
HIDDEN2
 62
     1
100
AcDbLine
 10
-22.65332737588223
 20
1.564494396830184
 30
0.0
 11
-22.21108837588203
 21
1.564494396830184
 31
0.0
  0
CIRCLE
  5
205
330
2
100
AcDbEntity
  8
GAIKEI
  6
HIDDEN2
 62
     1
100
AcDbCircle
 10
-22.43220787588201
 20
-0.1105056031698837
 30
0.0
 40
0.125
  0
CIRCLE
  5
206
330
2
100
AcDbEntity
  8
GAIKEI
  6
HIDDEN2
 62
     1
100
AcDbCircle
 10
-22.43220787588201
 20
-2.360505603169769
 30
0.0
 40
0.125
  0
CIRCLE
  5
207
330
2
100
AcDbEntity
  8
GAIKEI
  6
HIDDEN2
 62
     1
100
AcDbCircle
 10
-22.43220787588201
 20
-0.1105056031698837
 30
0.0
 40
0.105
  0
CIRCLE
  5
208
330
2
100
AcDbEntity
  8
GAIKEI
  6
HIDDEN2
 62
     1
100
AcDbCircle
 10
-22.43220787588201
 20
-2.360505603169769
 30
0.0
 40
0.105
  0
CIRCLE
  5
209
330
2
100
AcDbEntity
  8
GAIKEI
  6
HIDDEN2
 62
     1
100
AcDbCircle
 10
-22.43220787588201
 20
-0.1136093531698066
 30
0.0
 40
0.1778155
  0
CIRCLE
  5
20A
330
2
100
AcDbEntity
  8
GAIKEI
  6
HIDDEN2
 62
     1
100
AcDbCircle
 10
-22.43220787588201
 20
-2.363422103169739
 30
0.0
 40
0.16708625
  0
ARC
  5
20B
330
2
100
AcDbEntity
  8
GAIKEI
  6
HIDDEN2
 62
     1
100
AcDbCircle
 10
-23.13193612588192
 20
-3.085505603169791
 30
0.0
 40
0.25
100
AcDbArc
 50
326.582852999992
 51
358.9999999999982
  0
ARC
  5
20C
330
2
100
AcDbEntity
  8
GAIKEI
  6
HIDDEN2
 62
     1
100
AcDbCircle
 10
-21.73247962588211
 20
-3.085505603169791
 30
0.0
 40
0.25
100
AcDbArc
 50
181.0000000000017
 51
270.0
  0
ARC
  5
20D
330
2
100
AcDbEntity
  8
GAIKEI
  6
HIDDEN2
 62
     1
100
AcDbCircle
 10
-20.73832462588224
 20
-3.385505603169859
 30
0.0
 40
0.05
100
AcDbArc
 50
1.000000000001775
 51
90.0
  0
ARC
  5
20E
330
2
100
AcDbEntity
  8
GAIKEI
  6
HIDDEN2
 62
     1
100
AcDbCircle
 10
-22.87609087588216
 20
-3.385505603169859
 30
0.0
 40
0.05
100
AcDbArc
 50
90.0
 51
178.9999999999982
  0
ARC
  5
20F
330
2
100
AcDbEntity
  8
GAIKEI
  6
HIDDEN2
 62
     1
100
AcDbCircle
 10
-22.87932012588193
 20
-3.935505603169815
 30
0.0
 40
0.05
100
AcDbArc
 50
181.0000009999991
 51
270.0
  0
LINE
  5
210
330
2
100
AcDbEntity
  8
GAIKEI
  6
HIDDEN2
 62
     1
100
AcDbLine
 10
-20.68449212588202
 20
-3.936378103169828
 30
0.0
 11
-20.68159687588208
 21
-3.770505603169851
 31
0.0
  0
LINE
  5
211
330
2
100
AcDbEntity
  8
GAIKEI
  6
HIDDEN2
 62
     1
100
AcDbLine
 10
-22.87932012588193
 20
-3.985505603169768
 30
0.0
 11
-20.73448462588216
 21
-3.985505603169768
 31
0.0
  0
ARC
  5
212
330
2
100
AcDbEntity
  8
GAIKEI
  6
HIDDEN2
 62
     1
100
AcDbCircle
 10
-20.73448462588216
 20
-3.935505603169815
 30
0.0
 40
0.05
100
AcDbArc
 50
270.0
 51
358.9999990000009
  0
LINE
  5
213
330
2
100
AcDbEntity
  8
GAIKEI
  6
HIDDEN2
 62
     1
100
AcDbLine
 10
-22.93220787588202
 20
-3.760505603169859
 30
0.0
 11
-20.68220787588201
 21
-3.760505603169859
 31
0.0
  0
LINE
  5
214
330
2
100
AcDbEntity
  8
GAIKEI
  6
HIDDEN2
 62
     1
100
AcDbLine
 10
-22.92931262588208
 20
-3.936378103169828
 30
0.0
 11
-22.93220787588202
 21
-3.770505603169851
 31
0.0
  0
LINE
  5
215
330
2
100
AcDbEntity
  8
GAIKEI
  6
Continuous
 62
     1
100
AcDbLine
 10
-10.5822078758821
 20
-7.352725103169801
 30
0.0
 11
-0.082207875882105
 21
-7.352725103169801
 31
0.0
  0
LINE
  5
216
330
2
100
AcDbEntity
  8
GAIKEI
  6
Continuous
 62
     1
100
AcDbLine
 10
-10.5822078758821
 20
-7.352725103169801
 30
0.0
 11
-10.5822078758821
 21
-7.267729853169782
 31
0.0
  0
LINE
  5
217
330
2
100
AcDbEntity
  8
GAIKEI
  6
Continuous
 62
     1
100
AcDbLine
 10
-19.56220787588212
 20
-7.352725103169801
 30
0.0
 11
-19.56220787588212
 21
-7.267729853169782
 31
0.0
  0
LINE
  5
218
330
2
100
AcDbEntity
  8
GAIKEI
  6
Continuous
 62
     1
100
AcDbLine
 10
-16.56220787588212
 20
-7.352725103169801
 30
0.0
 11
-16.56220787588212
 21
-7.267729853169782
 31
0.0
  0
LINE
  5
219
330
2
100
AcDbEntity
  8
GAIKEI
  6
Continuous
 62
     1
100
AcDbLine
 10
-19.56220787588212
 20
-7.352725103169801
 30
0.0
 11
-16.56220787588212
 21
-7.352725103169801
 31
0.0
  0
POINT
  5
21A
330
2
100
AcDbEntity
  8
GAIKEI
  6
HIDDEN2
 62
     1
100
AcDbPoint
 10
-22.43220787588201
 20
-0.1136093531698066
 30
0.0
  0
POINT
  5
21B
330
2
100
AcDbEntity
  8
GAIKEI
  6
HIDDEN2
 62
     1
100
AcDbPoint
 10
-22.43220787588201
 20
-2.363422103169739
 30
0.0
  0
DIMENSION
  5
21C
330
2
100
AcDbEntity
  8
SUNPO
100
AcDbDimension
  2
*D8
 10
55.96495953531448
 20
-15.49405385031406
 30
0.0
 11
47.79257603531448
 21
-13.74405385031406
 31
0.0
 70
    33
  1
327
 71
     5
 42
16.34476699999998
  3
STANDARD
100
AcDbAlignedDimension
 13
39.6201925353145
 23
-7.494053850314059
 33
0.0
 14
55.96495953531448
 24
-7.494053850314059
 34
0.0
1001
ACAD
1000
DSTYLE
1002
{
1070
    40
1040
1.0
1070
   140
1040
2.5
1070
   147
1040
0.5
1070
   172
1070
     1
1070
   279
1070
     0
1070
   288
1070
     0
1002
}
  0
ARC
  5
229
330
2
100
AcDbEntity
  8
GAIKEI
100
AcDbCircle
 10
50.24410373138685
 20
-22.38419037343266
 30
0.0
 40
16.57827481891813
100
AcDbArc
 50
70.0616332233228
 51
82.83655129852879
  0
ARC
  5
22A
330
2
100
AcDbEntity
  8
GAIKEI
100
AcDbCircle
 10
43.836708011863
 20
-21.22801646768852
 30
0.0
 40
15.00936247034608
100
AcDbArc
 50
96.58693607677401
 51
106.0382372516389
  0
ARC
  5
22B
330
2
100
AcDbEntity
  8
GAIKEI
  6
Continuous
100
AcDbCircle
 10
48.29453453958783
 20
-4.992727603169726
 30
0.0
 40
0.4
100
AcDbArc
 50
90.0
 51
176.9999942712111
  0
LINE
  5
22C
330
2
100
AcDbEntity
  8
GAIKEI
  6
HIDDEN2
 62
     1
100
AcDbLine
 10
49.17644503531452
 20
1.564494646830155
 30
0.0
 11
49.61868403531454
 21
1.564494646830155
 31
0.0
  0
LINE
  5
22D
330
2
100
AcDbEntity
  8
GAIKEI
  6
HIDDEN2
 62
     1
100
AcDbLine
 10
48.90454653531449
 20
-3.335505353169708
 30
0.0
 11
51.1405825353145
 21
-3.335505353169708
 31
0.0
  0
LINE
  5
22E
330
2
100
AcDbEntity
  8
GAIKEI
  6
HIDDEN2
 62
     1
100
AcDbLine
 10
48.95869653531454
 20
-2.465505353169817
 30
0.0
 11
49.7725645353145
 21
-2.465505353169817
 31
0.0
  0
LINE
  5
22F
330
2
100
AcDbEntity
  8
GAIKEI
  6
HIDDEN2
 62
     1
100
AcDbLine
 10
48.95834753531453
 20
-2.485505353169799
 30
0.0
 11
49.79256453531448
 21
-2.485505353169799
 31
0.0
  0
LINE
  5
230
330
2
100
AcDbEntity
  8
GAIKEI
  6
HIDDEN2
 62
     1
100
AcDbLine
 10
48.96271128531449
 20
-2.235505353169799
 30
0.0
 11
49.79256453531448
 21
-2.235505353169799
 31
0.0
  0
LINE
  5
231
330
2
100
AcDbEntity
  8
GAIKEI
  6
HIDDEN2
 62
     1
100
AcDbLine
 10
48.96236228531446
 20
-2.255505353169779
 30
0.0
 11
49.7725645353145
 21
-2.255505353169779
 31
0.0
  0
LINE
  5
232
330
2
100
AcDbEntity
  8
GAIKEI
  6
HIDDEN2
 62
     1
100
AcDbLine
 10
49.00163603531453
 20
-0.0055053531697808
 30
0.0
 11
49.74756453531447
 21
-0.0055053531697808
 31
0.0
  0
LINE
  5
233
330
2
100
AcDbEntity
  8
GAIKEI
  6
HIDDEN2
 62
     1
100
AcDbLine
 10
48.99797053531447
 20
-0.2155053531698172
 30
0.0
 11
49.74756453531447
 21
-0.2155053531698172
 31
0.0
  0
LINE
  5
234
330
2
100
AcDbEntity
  8
GAIKEI
  6
HIDDEN2
 62
     1
100
AcDbLine
 10
48.99762128531452
 20
-0.2355053531697989
 30
0.0
 11
49.7675645353145
 21
-0.2355053531697989
 31
0.0
  0
LINE
  5
235
330
2
100
AcDbEntity
  8
GAIKEI
  6
HIDDEN2
 62
     1
100
AcDbLine
 10
49.00198528531446
 20
0.014494646830201
 30
0.0
 11
49.7675645353145
 21
0.014494646830201
 31
0.0
  0
LINE
  5
236
330
2
100
AcDbEntity
  8
GAIKEI
  6
HIDDEN2
 62
     1
100
AcDbLine
 10
49.84733103531451
 20
-3.089868603169803
 30
0.0
 11
49.82718153531445
 21
-1.935505353169843
 31
0.0
  0
LINE
  5
237
330
2
100
AcDbEntity
  8
GAIKEI
  6
HIDDEN2
 62
     1
100
AcDbLine
 10
48.94779828531446
 20
-3.089868603169803
 30
0.0
 11
49.02646803531447
 21
1.417112396830191
 31
0.0
  0
ARC
  5
238
330
2
100
AcDbEntity
  8
GAIKEI
  6
HIDDEN2
 62
     1
100
AcDbCircle
 10
49.61868403531457
 20
1.414494646830291
 30
0.0
 40
0.15
100
AcDbArc
 50
0.9999999999757104
 51
90.0
  0
ARC
  5
239
330
2
100
AcDbEntity
  8
GAIKEI
  6
HIDDEN2
 62
     1
100
AcDbCircle
 10
49.17644503531454
 20
1.414494646830291
 30
0.0
 40
0.15
100
AcDbArc
 50
90.0
 51
179.0000000000242
  0
LINE
  5
23A
330
2
100
AcDbEntity
  8
GAIKEI
  6
HIDDEN2
 62
     1
100
AcDbLine
 10
49.69756453531451
 20
1.310674646830249
 30
0.0
 11
49.77045253531453
 21
1.314494646830155
 31
0.0
  0
LINE
  5
23B
330
2
100
AcDbEntity
  8
GAIKEI
  6
HIDDEN2
 62
     1
100
AcDbLine
 10
49.69756453531451
 20
0.3192291468304234
 30
0.0
 11
49.69756453531451
 21
1.310674646830249
 31
0.0
  0
LINE
  5
23C
330
2
100
AcDbEntity
  8
GAIKEI
  6
HIDDEN2
 62
     1
100
AcDbLine
 10
49.69756453531451
 20
0.3192291468304234
 30
0.0
 11
49.78790753531453
 21
0.3144946468301555
 31
0.0
  0
LINE
  5
23D
330
2
100
AcDbEntity
  8
GAIKEI
  6
HIDDEN2
 62
     1
100
AcDbLine
 10
49.69756453531451
 20
-0.5410176031697917
 30
0.0
 11
49.8027442853145
 21
-0.5355053531697536
 31
0.0
  0
LINE
  5
23E
330
2
100
AcDbEntity
  8
GAIKEI
  6
HIDDEN2
 62
     1
100
AcDbLine
 10
49.77045253531453
 20
1.314494646830155
 30
0.0
 11
49.76866128531449
 21
1.417112396830191
 31
0.0
  0
LINE
  5
23F
330
2
100
AcDbEntity
  8
GAIKEI
  6
HIDDEN2
 62
     1
100
AcDbLine
 10
49.8027442853145
 20
-0.5355053531697536
 30
0.0
 11
49.78790753531453
 21
0.3144946468301555
 31
0.0
  0
LINE
  5
240
330
2
100
AcDbEntity
  8
GAIKEI
  6
HIDDEN2
 62
     1
100
AcDbLine
 10
49.7725645353145
 20
-2.255505353169779
 30
0.0
 11
49.83173428531452
 21
-2.196335853169728
 31
0.0
  0
LINE
  5
241
330
2
100
AcDbEntity
  8
GAIKEI
  6
HIDDEN2
 62
     1
100
AcDbLine
 10
49.7725645353145
 20
-2.465505353169817
 30
0.0
 11
49.83756728531452
 21
-2.530508103169665
 31
0.0
  0
LINE
  5
242
330
2
100
AcDbEntity
  8
GAIKEI
  6
HIDDEN2
 62
     1
100
AcDbLine
 10
49.7725645353145
 20
-2.465505353169817
 30
0.0
 11
49.7725645353145
 21
-2.255505353169779
 31
0.0
  0
LINE
  5
243
330
2
100
AcDbEntity
  8
GAIKEI
  6
HIDDEN2
 62
     1
100
AcDbLine
 10
49.74756453531447
 20
-0.2155053531698172
 30
0.0
 11
49.74756453531447
 21
-0.0055053531697808
 31
0.0
  0
LINE
  5
244
330
2
100
AcDbEntity
  8
GAIKEI
  6
HIDDEN2
 62
     1
100
AcDbLine
 10
49.74756453531447
 20
-0.0055053531697808
 30
0.0
 11
49.79270528531451
 21
0.0396351468301077
 31
0.0
  0
LINE
  5
245
330
2
100
AcDbEntity
  8
GAIKEI
  6
HIDDEN2
 62
     1
100
AcDbLine
 10
49.74756453531447
 20
-0.2155053531698172
 30
0.0
 11
49.7980397853145
 21
-0.2659806031696803
 31
0.0
  0
LINE
  5
246
330
2
100
AcDbEntity
  8
GAIKEI
  6
HIDDEN2
 62
     1
100
AcDbLine
 10
51.14773928531447
 20
-3.745505353169788
 30
0.0
 11
51.1405825353145
 21
-3.335505603169791
 31
0.0
  0
LINE
  5
247
330
2
100
AcDbEntity
  8
GAIKEI
  6
HIDDEN2
 62
     1
100
AcDbLine
 10
48.89408878531449
 20
-3.93463285316983
 30
0.0
 11
48.8975645353145
 21
-3.735505353169799
 31
0.0
  0
ARC
  5
248
330
2
100
AcDbEntity
  8
GAIKEI
  6
HIDDEN2
 62
     1
100
AcDbCircle
 10
48.69783628531457
 20
-3.085505353169708
 30
0.0
 40
0.25
100
AcDbArc
 50
326.5828530000069
 51
359.0000000000243
  0
ARC
  5
249
330
2
100
AcDbEntity
  8
GAIKEI
  6
HIDDEN2
 62
     1
100
AcDbCircle
 10
50.09729278531455
 20
-3.085505353169708
 30
0.0
 40
0.25
100
AcDbArc
 50
180.9999999999757
 51
270.0
  0
LINE
  5
24A
330
2
100
AcDbEntity
  8
GAIKEI
  6
HIDDEN2
 62
     1
100
AcDbLine
 10
48.94408128531447
 20
-3.985505353169799
 30
0.0
 11
49.1475645353145
 21
-3.985505353169799
 31
0.0
  0
LINE
  5
24B
330
2
100
AcDbEntity
  8
GAIKEI
  6
HIDDEN2
 62
     1
100
AcDbLine
 10
49.11905828531447
 20
-3.936378103169714
 30
0.0
 11
49.12199728531451
 21
-3.768011853169753
 31
0.0
  0
LINE
  5
24C
330
2
100
AcDbEntity
  8
GAIKEI
  6
HIDDEN2
 62
     1
100
AcDbLine
 10
48.8975645353145
 20
-3.735505353169799
 30
0.0
 11
48.90650703531449
 21
-3.223188103169774
 31
0.0
  0
ARC
  5
24D
330
2
100
AcDbEntity
  8
GAIKEI
  6
HIDDEN2
 62
     1
100
AcDbCircle
 10
48.94408128531449
 20
-3.935505353169843
 30
0.0
 40
0.05
100
AcDbArc
 50
179.0000000000242
 51
270.0
  0
ARC
  5
24E
330
2
100
AcDbEntity
  8
GAIKEI
  6
HIDDEN2
 62
     1
100
AcDbCircle
 10
49.06906603531449
 20
-3.935505353169843
 30
0.0
 40
0.05
100
AcDbArc
 50
270.0
 51
358.9999989999813
  0
LINE
  5
250
330
2
100
AcDbEntity
  8
GAIKEI
  6
HIDDEN2
 62
     1
100
AcDbLine
 10
49.69756453531451
 20
-1.485505353169799
 30
0.0
 11
49.69756453531451
 21
-0.5410176031697917
 31
0.0
  0
LINE
  5
251
330
2
100
AcDbEntity
  8
GAIKEI
  6
HIDDEN2
 62
     1
100
AcDbLine
 10
51.1475645353145
 20
-3.745505353169788
 30
0.0
 11
48.8975645353145
 21
-3.770505353169653
 31
0.0
  0
LINE
  5
252
330
2
100
AcDbEntity
  8
GAIKEI
  6
HIDDEN2
 62
     1
100
AcDbLine
 10
49.1475645353145
 20
-3.767727603169702
 30
0.0
 11
49.1475645353145
 21
-4.067727603169656
 31
0.0
  0
LINE
  5
253
330
2
100
AcDbEntity
  8
GAIKEI
  6
HIDDEN2
 62
     1
100
AcDbLine
 10
53.6475645353145
 20
-3.767727603169702
 30
0.0
 11
53.6475645353145
 21
-4.067727603169656
 31
0.0
  0
LINE
  5
254
330
2
100
AcDbEntity
  8
GAIKEI
  6
HIDDEN2
 62
     1
100
AcDbLine
 10
49.1475645353145
 20
-3.767727603169702
 30
0.0
 11
53.6475645353145
 21
-3.767727603169702
 31
0.0
  0
LINE
  5
255
330
2
100
AcDbEntity
  8
GAIKEI
  6
HIDDEN2
 62
     1
100
AcDbLine
 10
49.1475645353145
 20
-4.067727603169656
 30
0.0
 11
53.6475645353145
 21
-4.067727603169656
 31
0.0
  0
LINE
  5
256
330
2
100
AcDbEntity
  8
GAIKEI
  6
Continuous
100
AcDbLine
 10
49.1475645353145
 20
-4.367727603169838
 30
0.0
 11
53.6475645353145
 21
-4.367727603169838
 31
0.0
  0
LINE
  5
257
330
2
100
AcDbEntity
  8
GAIKEI
  6
HIDDEN2
 62
     1
100
AcDbLine
 10
49.1475645353145
 20
-4.067727603169656
 30
0.0
 11
49.1475645353145
 21
-4.367727603169838
 31
0.0
  0
LINE
  5
258
330
2
100
AcDbEntity
  8
GAIKEI
  6
HIDDEN2
 62
     1
100
AcDbLine
 10
53.6475645353145
 20
-4.067727603169656
 30
0.0
 11
53.6475645353145
 21
-4.367727603169838
 31
0.0
  0
LINE
  5
259
330
2
100
AcDbEntity
  8
GAIKEI
  6
Continuous
100
AcDbLine
 10
50.41474278531453
 20
-5.961172853169897
 30
0.0
 11
43.4268385353145
 21
-6.261369853169695
 31
0.0
  0
LINE
  5
25A
330
2
100
AcDbEntity
  8
GAIKEI
  6
Continuous
100
AcDbLine
 10
51.53513303531449
 20
-5.913047853169871
 30
0.0
 11
50.41474278531453
 21
-5.961177103169744
 31
0.0
  0
LINE
  5
25B
330
2
100
AcDbEntity
  8
GAIKEI
  6
Continuous
100
AcDbLine
 10
52.0382237853145
 20
-5.891432853169759
 30
0.0
 11
51.53513553531447
 21
-5.913047603169785
 31
0.0
  0
SPLINE
  5
25C
330
2
100
AcDbEntity
  8
GAIKEI
  6
Continuous
100
AcDbSpline
210
0.0
220
0.0
230
1.0
 70
     8
 71
     3
 72
     9
 73
     5
 74
     3
 42
0.0000000001
 43
0.0000000001
 44
0.000001
 12
-0.9902076422500524
 22
0.1396023826071465
 32
0.0
 13
-0.9859473551062224
 23
0.167056316728955
 33
0.0
 40
0.0
 40
0.0
 40
0.0
 40
0.0
 40
0.1233452203494446
 40
0.2767125891643377
 40
0.2767125891643377
 40
0.2767125891643377
 40
0.2767125891643377
 10
52.31141954080519
 20
-5.935318031667008
 30
0.0
 10
52.27070708086351
 20
-5.929578269452346
 30
0.0
 10
52.17959575444464
 20
-5.915155962986919
 30
0.0
 10
52.08861802494654
 20
-5.899974083570134
 30
0.0
 10
52.03821397439899
 20
-5.891433754323258
 30
0.0
 11
52.31141954080519
 21
-5.935318031667008
 31
0.0
 11
52.18950762168825
 21
-5.91656880727254
 31
0.0
 11
52.03821397439899
 21
-5.891433754323258
 31
0.0
  0
LINE
  5
25D
330
2
100
AcDbEntity
  8
GAIKEI
  6
Continuous
100
AcDbLine
 10
47.8374285353145
 20
-6.071898603169699
 30
0.0
 11
47.89508272777914
 21
-4.971793180732844
 31
0.0
  0
LINE
  5
25E
330
2
100
AcDbEntity
  8
GAIKEI
  6
Continuous
100
AcDbLine
 10
48.91494903531449
 20
-4.592731103169795
 30
0.0
 11
48.92425603531446
 21
-4.415118353169815
 31
0.0
  0
SPLINE
  5
25F
330
2
100
AcDbEntity
  8
GAIKEI
  6
Continuous
100
AcDbSpline
210
0.0
220
0.0
230
1.0
 70
     8
 71
     3
 72
     9
 73
     5
 74
     3
 42
0.0000000001
 43
0.0000000001
 44
0.000001
 12
0.0302589672827417
 22
0.999542092609902
 32
0.0
 13
0.9997531277520559
 23
-0.0222189907507327
 33
0.0
 40
0.0
 40
0.0
 40
0.0
 40
0.0
 40
0.0370349074766539
 40
0.0740697535800659
 40
0.0740697535800659
 40
0.0740697535800659
 40
0.0740697535800659
 10
48.92426133768018
 20
-4.415115394948259
 30
0.0
 10
48.92463488369806
 20
-4.402776078641982
 30
0.0
 10
48.93640401849168
 20
-4.377904588519156
 30
0.0
 10
48.96185840144804
 20
-4.36745340733484
 30
0.0
 10
48.97420030252394
 20
-4.36772769963585
 30
0.0
 11
48.92426133768018
 21
-4.415115394948259
 31
0.0
 11
48.93982465709408
 21
-4.381508926225193
 31
0.0
 11
48.97420030252394
 21
-4.36772769963585
 31
0.0
  0
LINE
  5
260
330
2
100
AcDbEntity
  8
GAIKEI
  6
Continuous
100
AcDbLine
 10
48.97420028531447
 20
-4.367727603169838
 30
0.0
 11
54.70571878531448
 21
-4.367727603169838
 31
0.0
  0
SPLINE
  5
261
330
2
100
AcDbEntity
  8
GAIKEI
  6
Continuous
100
AcDbSpline
210
0.0
220
0.0
230
1.0
 70
     8
 71
     3
 72
     9
 73
     5
 74
     3
 42
0.0000000001
 43
0.0000000001
 44
0.000001
 12
-0.999279299987914
 22
0.0379589332788036
 32
0.0
 13
0.0476309352692855
 23
-0.9988650028934708
 33
0.0
 40
0.0
 40
0.0
 40
0.0
 40
0.0
 40
0.026614801595652
 40
0.0614831060835167
 40
0.0614831060835167
 40
0.0614831060835167
 40
0.0614831060835167
 10
51.96012559549266
 20
-4.36772769963585
 30
0.0
 10
51.95126038872338
 20
-4.367390943143184
 30
0.0
 10
51.93183866234145
 20
-4.382218362998624
 30
0.0
 10
51.92772384764353
 20
-4.403505818593871
 30
0.0
 10
51.92827745096153
 20
-4.415115394948259
 30
0.0
 11
51.96012559549266
 21
-4.36772769963585
 31
0.0
 11
51.93731352367759
 21
-4.381439241084478
 31
0.0
 11
51.92827745096153
 21
-4.415115394948259
 31
0.0
  0
LINE
  5
262
330
2
100
AcDbEntity
  8
GAIKEI
  6
Continuous
100
AcDbLine
 10
51.92826528531449
 20
-4.415115353169709
 30
0.0
 11
48.92426128531447
 21
-4.415115353169709
 31
0.0
  0
LINE
  5
263
330
2
100
AcDbEntity
  8
GAIKEI
  6
Continuous
100
AcDbLine
 10
52.24849228531454
 20
-4.415115353169709
 30
0.0
 11
51.92827753531455
 21
-4.415115353169709
 31
0.0
  0
SPLINE
  5
264
330
2
100
AcDbEntity
  8
GAIKEI
  6
Continuous
100
AcDbSpline
210
0.0
220
0.0
230
1.0
 70
     8
 71
     3
 72
    11
 73
     7
 74
     5
 42
0.0000000001
 43
0.0000000001
 44
0.000001
 12
0.9999999995578146
 22
-0.0000297383728632
 32
0.0
 13
0.0413160348323966
 23
-0.9991461280842399
 33
0.0
 40
0.0
 40
0.0
 40
0.0
 40
0.0
 40
0.0144937194587471
 40
0.0311929113558471
 40
0.0494761076260436
 40
0.0674599294913185
 40
0.0674599294913185
 40
0.0674599294913185
 40
0.0674599294913185
 10
52.20905137674268
 20
-4.36772769963585
 30
0.0
 10
52.21388261656013
 20
-4.367727843309061
 30
0.0
 10
52.2243671130531
 20
-4.370379704472968
 30
0.0
 10
52.23750914478993
 20
-4.381139509330185
 30
0.0
 10
52.24591140515776
 20
-4.397077959825017
 30
0.0
 10
52.2482446213079
 20
-4.409125906286643
 30
0.0
 10
52.24849229471144
 20
-4.415115394948259
 30
0.0
 11
52.20905137674268
 21
-4.36772769963585
 31
0.0
 11
52.22315203079343
 21
-4.371084542977256
 31
0.0
 11
52.23623643533645
 21
-4.3814606097921
 31
0.0
 11
52.24509051166879
 21
-4.39745701284113
 31
0.0
 11
52.24849229471144
 21
-4.415115394948259
 31
0.0
  0
LINE
  5
265
330
2
100
AcDbEntity
  8
GAIKEI
  6
Continuous
100
AcDbLine
 10
51.92826303531453
 20
-4.415114103169742
 30
0.0
 11
51.92227253531448
 21
-4.592735103169786
 31
0.0
  0
LINE
  5
266
330
2
100
AcDbEntity
  8
GAIKEI
  6
Continuous
100
AcDbLine
 10
48.29453453958783
 20
-4.592727603169747
 30
0.0
 11
51.92227153531455
 21
-4.592727603169747
 31
0.0
  0
LINE
  5
267
330
2
100
AcDbEntity
  8
GAIKEI
  6
Continuous
100
AcDbLine
 10
51.88502928531447
 20
-5.898020353169782
 30
0.0
 11
51.92227303531446
 21
-4.592728853169716
 31
0.0
  0
LINE
  5
268
330
2
100
AcDbEntity
  8
GAIKEI
  6
Continuous
100
AcDbLine
 10
52.24848653531452
 20
-4.415111103169635
 30
0.0
 11
52.3114122853145
 21
-5.935318353169747
 31
0.0
  0
ARC
  5
269
330
2
100
AcDbEntity
  8
GAIKEI
  6
Continuous
100
AcDbCircle
 10
54.7057187853145
 20
-4.417727603169794
 30
0.0
 40
0.05
100
AcDbArc
 50
2.99996500000379
 51
89.99996400000158
  0
LINE
  5
26A
330
2
100
AcDbEntity
  8
GAIKEI
  6
Continuous
100
AcDbLine
 10
54.75564553531446
 20
-4.415115353169709
 30
0.0
 11
52.24849228531454
 21
-4.415115353169709
 31
0.0
  0
LINE
  5
26B
330
2
100
AcDbEntity
  8
GAIKEI
  6
Continuous
100
AcDbLine
 10
54.75563978531447
 20
-4.415108353169613
 30
0.0
 11
54.86293008347196
 21
-6.462329957612552
 31
0.0
  0
LINE
  5
26C
330
2
100
AcDbEntity
  8
GAIKEI
  6
Continuous
100
AcDbLine
 10
39.81762678531449
 20
-7.352725103169801
 30
0.0
 11
42.86506703531446
 21
-7.352725103169801
 31
0.0
  0
LINE
  5
26D
330
2
100
AcDbEntity
  8
GAIKEI
  6
Continuous
100
AcDbLine
 10
51.09752603531453
 20
-7.352725103169801
 30
0.0
 11
55.76762678531449
 21
-7.352725103169801
 31
0.0
  0
ARC
  5
26E
330
2
100
AcDbEntity
  8
GAIKEI
  6
Continuous
100
AcDbCircle
 10
55.86895528531454
 20
-6.869000853169778
 30
0.0
 40
0.075
100
AcDbArc
 50
3.000001000016101
 51
67.68834699999034
  0
ARC
  5
26F
330
2
100
AcDbEntity
  8
GAIKEI
  6
Continuous
100
AcDbCircle
 10
55.86895528531454
 20
-6.869000853169778
 30
0.0
 40
0.07500475
100
AcDbArc
 50
3.000001000016101
 51
67.68834699999034
  0
LINE
  5
270
330
2
100
AcDbEntity
  8
GAIKEI
  6
Continuous
100
AcDbLine
 10
55.96233928531447
 20
-7.217729603169741
 30
0.0
 11
55.94385753531449
 21
-6.865076853169681
 31
0.0
  0
LINE
  5
271
330
2
100
AcDbEntity
  8
GAIKEI
  6
Continuous
100
AcDbLine
 10
55.91495478531451
 20
-7.217730103169684
 30
0.0
 11
55.91408203531452
 21
-7.267730103169866
 31
0.0
  0
LINE
  5
272
330
2
100
AcDbEntity
  8
GAIKEI
  6
Continuous
100
AcDbLine
 10
39.66584778531447
 20
-7.267730603169582
 30
0.0
 11
39.66497503531448
 21
-7.217730603169628
 31
0.0
  0
LINE
  5
273
330
2
100
AcDbEntity
  8
GAIKEI
  6
Continuous
100
AcDbLine
 10
39.63576678531448
 20
-6.871013353169644
 30
0.0
 11
39.61759603531451
 21
-7.217729603169741
 31
0.0
  0
ARC
  5
274
330
2
100
AcDbEntity
  8
GAIKEI
  6
Continuous
100
AcDbCircle
 10
55.86895528531454
 20
-6.869000853169778
 30
0.0
 40
0.075
100
AcDbArc
 50
3.000001000016101
 51
67.68834699999034
  0
ARC
  5
275
330
2
100
AcDbEntity
  8
GAIKEI
  6
Continuous
100
AcDbCircle
 10
39.7106637853145
 20
-6.874937853169681
 30
0.0
 40
0.075
100
AcDbArc
 50
106.0408529999929
 51
177.0000160000058
  0
LINE
  5
276
330
2
100
AcDbEntity
  8
GAIKEI
  6
Continuous
100
AcDbLine
 10
43.42685478531453
 20
-6.261374103169771
 30
0.0
 11
42.11497428531449
 21
-6.317731603169647
 31
0.0
  0
LINE
  5
277
330
2
100
AcDbEntity
  8
GAIKEI
  6
Continuous
100
AcDbLine
 10
39.66584778531447
 20
-7.267729603169697
 30
0.0
 11
55.91408203531452
 21
-7.267729603169697
 31
0.0
  0
LINE
  5
278
330
2
100
AcDbEntity
  8
GAIKEI
  6
Continuous
100
AcDbLine
 10
39.61759578531448
 20
-7.217729603169741
 30
0.0
 11
55.9623390353145
 21
-7.217729603169741
 31
0.0
  0
LINE
  5
279
330
2
100
AcDbEntity
  8
GAIKEI
  6
Continuous
100
AcDbLine
 10
54.09752603531453
 20
-7.267729603169697
 30
0.0
 11
54.09752603531453
 21
-7.352725103169801
 31
0.0
  0
LINE
  5
27A
330
2
100
AcDbEntity
  8
GAIKEI
  6
Continuous
100
AcDbLine
 10
51.09752603531453
 20
-7.267729603169697
 30
0.0
 11
51.09752603531453
 21
-7.352725103169801
 31
0.0
  0
LINE
  5
27B
330
2
100
AcDbEntity
  8
GAIKEI
  6
Continuous
100
AcDbLine
 10
55.76762678531449
 20
-7.267729603169697
 30
0.0
 11
55.76762678531449
 21
-7.352725103169801
 31
0.0
  0
LINE
  5
27C
330
2
100
AcDbEntity
  8
GAIKEI
  6
Continuous
100
AcDbLine
 10
42.86506703531446
 20
-7.267729603169697
 30
0.0
 11
42.86506703531446
 21
-7.352725103169801
 31
0.0
  0
LINE
  5
27D
330
2
100
AcDbEntity
  8
GAIKEI
  6
Continuous
100
AcDbLine
 10
39.81762678531449
 20
-7.267729603169697
 30
0.0
 11
39.81762678531449
 21
-7.352725103169801
 31
0.0
  0
LINE
  5
281
330
2
100
AcDbEntity
  8
WAKU
 62
     4
100
AcDbLine
 10
71.08737487948935
 20
-58.34031790098038
 30
0.0
 11
-53.91262512051048
 21
-58.34031790098038
 31
0.0
  0
LINE
  5
283
330
2
100
AcDbEntity
  8
WAKU
 62
     1
100
AcDbLine
 10
-53.91262512051048
 20
-53.34031790098038
 30
0.0
 11
71.08737487948935
 21
-53.34031790098038
 31
0.0
  0
LINE
  5
284
330
2
100
AcDbEntity
  8
WAKU
 62
     1
100
AcDbLine
 10
-53.91262512051048
 20
-48.34031790098038
 30
0.0
 11
71.08737487948935
 21
-48.34031790098038
 31
0.0
  0
LINE
  5
285
330
2
100
AcDbEntity
  8
WAKU
 62
     1
100
AcDbLine
 10
-53.91262512051048
 20
-38.34031790098038
 30
0.0
 11
71.08737487948935
 21
-38.34031790098038
 31
0.0
  0
LINE
  5
286
330
2
100
AcDbEntity
  8
WAKU
 62
     1
100
AcDbLine
 10
-53.91262512051048
 20
-28.34031790098038
 30
0.0
 11
71.08737487948935
 21
-28.34031790098038
 31
0.0
  0
LINE
  5
287
330
2
100
AcDbEntity
  8
WAKU
 62
     4
100
AcDbLine
 10
-53.91262512051048
 20
-23.34031790098038
 30
0.0
 11
71.08737487948935
 21
-23.34031790098038
 31
0.0
  0
LINE
  5
288
330
2
100
AcDbEntity
  8
WAKU
 62
     1
100
AcDbLine
 10
-53.91262512051048
 20
-43.34031790098038
 30
0.0
 11
71.08737487948935
 21
-43.34031790098038
 31
0.0
  0
LINE
  5
289
330
2
100
AcDbEntity
  8
WAKU
 62
     1
100
AcDbLine
 10
-53.91262512051048
 20
-33.34031790098038
 30
0.0
 11
71.08737487948935
 21
-33.34031790098038
 31
0.0
  0
LINE
  5
28E
330
2
100
AcDbEntity
  8
WAKU
 62
     4
100
AcDbLine
 10
-13.91262512051065
 20
-23.34031790098038
 30
0.0
 11
-13.91262512051065
 21
-58.34031790098038
 31
0.0
  0
LINE
  5
28F
330
2
100
AcDbEntity
  8
WAKU
 62
     4
100
AcDbLine
 10
-53.91262512051071
 20
-23.34031790098038
 30
0.0
 11
-53.91262512051048
 21
-58.34031790098038
 31
0.0
  0
TEXT
  5
290
330
2
100
AcDbEntity
  8
MOJI1
100
AcDbText
 10
-51.41262512051048
 20
-52.34031790098039
 30
0.0
 40
3.0
  1
接続端子
100
AcDbText
  0
TEXT
  5
291
330
2
100
AcDbEntity
  8
MOJI1
100
AcDbText
 10
-51.41262512051048
 20
-47.34031790098039
 30
0.0
 40
3.0
  1
音声最大出力
100
AcDbText
  0
TEXT
  5
292
330
2
100
AcDbEntity
  8
MOJI1
100
AcDbText
 10
-51.41262512051048
 20
-32.34031790098038
 30
0.0
 40
3.0
  1
消費電力
100
AcDbText
  0
TEXT
  5
293
330
2
100
AcDbEntity
  8
MOJI1
100
AcDbText
 10
-51.41262512051048
 20
-37.34031790098038
 30
0.0
 40
3.0
  1
パネルサイズ
100
AcDbText
  0
TEXT
  5
294
330
2
100
AcDbEntity
  8
MOJI1
100
AcDbText
 10
-51.41262512051048
 20
-42.34031790098038
 30
0.0
 40
3.0
  1
画素数
100
AcDbText
  0
TEXT
  5
295
330
2
100
AcDbEntity
  8
MOJI1
100
AcDbText
 10
-51.41262512051048
 20
-27.34031790098038
 30
0.0
 40
3.0
  1
電  源
100
AcDbText
  0
LINE
  5
296
330
2
100
AcDbEntity
  8
WAKU
 62
     4
100
AcDbLine
 10
71.08737487948935
 20
-23.34031790098038
 30
0.0
 11
71.08737487948935
 21
-58.34031790098038
 31
0.0
  0
TEXT
  5
30D
330
2
100
AcDbEntity
  8
MOJI1
100
AcDbText
 10
-11.41262512051064
 20
-57.34031790098038
 30
0.0
 40
3.0
  1
コンポーネントビデオ、シリアル
100
AcDbText
  0
TEXT
  5
30E
330
2
100
AcDbEntity
  8
MOJI1
100
AcDbText
 10
-11.41262512051064
 20
-52.34031790098038
 30
0.0
 40
3.0
  1
ビデオ／Ｓビデオ／ＰＣ／外部スピーカ
100
AcDbText
  0
TEXT
  5
30F
330
2
100
AcDbEntity
  8
MOJI1
100
AcDbText
 10
-11.41262512051064
 20
-47.34031790098038
 30
0.0
 40
3.0
  1
１６Ｗ（８Ｗ＋８Ｗ）
100
AcDbText
  0
TEXT
  5
310
330
2
100
AcDbEntity
  8
MOJI1
100
AcDbText
 10
-11.41262512051064
 20
-42.34031790098038
 30
0.0
 40
3.0
  1
７８６４３２画素（水平１０２４×垂直７６８）
100
AcDbText
  0
TEXT
  5
311
330
2
100
AcDbEntity
  8
MOJI1
100
AcDbText
 10
-11.41262512051064
 20
-37.34031790098038
 30
0.0
 40
3.0
  1
４２Ｖ型（１６：９）
100
AcDbText
  0
TEXT
  5
312
330
2
100
AcDbEntity
  8
MOJI1
100
AcDbText
 10
-11.41262512051064
 20
-32.34031790098038
 30
0.0
 40
3.0
  1
２９５Ｗ
100
AcDbText
  0
TEXT
  5
313
330
2
100
AcDbEntity
  8
MOJI1
100
AcDbText
 10
-11.41262512051064
 20
-27.34031790098038
 30
0.0
 40
3.0
  1
ＡＣ１００Ｖ　５０Ｈｚ／６０Ｈｚ
100
AcDbText
  0
ENDSEC
  0
SECTION
  2
OBJECTS
  0
DICTIONARY
  5
9
330
0
100
AcDbDictionary
281
     1
  3
ACAD_COLOR
350
29
  3
ACAD_GROUP
350
25
  3
ACAD_LAYOUT
350
D
  3
ACAD_MATERIAL
350
28
  3
ACAD_MLINESTYLE
350
26
  3
ACAD_PLOTSETTINGS
350
27
  3
ACAD_PLOTSTYLENAME
350
8
  3
ACDBHEADERROUNDTRIPXREC
350
358
  3
AcDbVariableDictionary
350
2FC
  0
DICTIONARY
  5
15
330
14
100
AcDbDictionary
280
     1
281
     1
  3
ACAD_LAYERFILTERS
360
16
  0
DICTIONARY
  5
3
330
2
100
AcDbDictionary
280
     1
281
     1
  3
ACAD_LAYOUTSELFREF
360
4
  0
DICTIONARY
  5
F
330
E
100
AcDbDictionary
280
     1
281
     1
  3
ACAD_LAYOUTSELFREF
360
10
  0
DICTIONARY
  5
29
102
{ACAD_REACTORS
330
9
102
}
330
9
100
AcDbDictionary
281
     1
  0
DICTIONARY
  5
25
102
{ACAD_REACTORS
330
9
102
}
330
9
100
AcDbDictionary
281
     1
  0
DICTIONARY
  5
D
102
{ACAD_REACTORS
330
9
102
}
330
9
100
AcDbDictionary
281
     1
  3
Model
350
C
  3
ﾚｲｱｳﾄ1
350
13
  0
DICTIONARY
  5
28
102
{ACAD_REACTORS
330
9
102
}
330
9
100
AcDbDictionary
281
     1
  0
DICTIONARY
  5
26
102
{ACAD_REACTORS
330
9
102
}
330
9
100
AcDbDictionary
281
     1
  3
STANDARD
350
31
  0
DICTIONARY
  5
27
102
{ACAD_REACTORS
330
9
102
}
330
9
100
AcDbDictionary
281
     1
  0
ACDBDICTIONARYWDFLT
  5
8
102
{ACAD_REACTORS
330
9
102
}
330
9
100
AcDbDictionary
281
     1
  3
Normal
350
7
100
AcDbDictionaryWithDefault
340
7
  0
DICTIONARY
  5
358
102
{ACAD_REACTORS
330
9
102
}
330
9
100
AcDbDictionary
281
     1
  3
COLORDICT
350
35A
  3
MATERIALDICT
350
359
  0
DICTIONARY
  5
2FC
102
{ACAD_REACTORS
330
9
102
}
330
9
100
AcDbDictionary
281
     1
  3
DIMASSOC
350
2FE
  3
HIDETEXT
350
2FD
  3
PROJECTNAME
350
2FF
  0
DICTIONARY
  5
16
102
{ACAD_REACTORS
330
15
102
}
330
15
100
AcDbDictionary
280
     1
281
     1
  0
XRECORD
  5
4
102
{ACAD_REACTORS
330
3
102
}
330
3
100
AcDbXrecord
280
     1
340
2
  0
XRECORD
  5
10
102
{ACAD_REACTORS
330
F
102
}
330
F
100
AcDbXrecord
280
     1
340
E
  0
LAYOUT
  5
C
102
{ACAD_XDICTIONARY
360
35B
102
}
102
{ACAD_REACTORS
330
D
102
}
330
D
100
AcDbPlotSettings
  1

  2
\\Uranus\5FCNM08
  4
A4
  6

 40
5.873749732971191
 41
5.873747825622557
 42
5.873748779296875
 43
5.873748779296875
 44
209.9733276367186
 45
296.9259948730469
 46
5.44
 47
0.0
 48
0.0
 49
0.0
140
0.0
141
0.0
142
1.0
143
1.383239362962725
 70
 11956
 72
     1
 73
     0
 74
     1
  7
tmsacad.ctb
 75
     0
147
0.7229406759059578
148
0.5671991949084259
149
0.1357563133815347
100
AcDbLayout
  1
Model
 70
     1
 71
     0
 10
0.0
 20
0.0
 11
12.0
 21
9.0
 12
0.0
 22
0.0
 32
0.0
 14
0.0
 24
0.0
 34
0.0
 15
0.0
 25
0.0
 35
0.0
146
0.0
 13
0.0
 23
0.0
 33
0.0
 16
1.0
 26
0.0
 36
0.0
 17
0.0
 27
1.0
 37
0.0
 76
     0
330
2
  0
LAYOUT
  5
13
102
{ACAD_XDICTIONARY
360
35D
102
}
102
{ACAD_REACTORS
330
D
102
}
330
D
100
AcDbPlotSettings
  1

  2
C:\Program Files\ACAD2000\plotters\DWF ePlot.pc3
  4

  6

 40
0.0
 41
0.0
 42
0.0
 43
0.0
 44
0.0
 45
0.0
 46
0.0
 47
0.0
 48
0.0
 49
0.0
140
0.0
141
0.0
142
1.0
143
1.0
 70
   688
 72
     0
 73
     0
 74
     5
  7
tmsacad.ctb
 75
    16
147
1.0
148
0.0
149
0.0
100
AcDbLayout
  1
ﾚｲｱｳﾄ1
 70
     1
 71
     1
 10
0.0
 20
0.0
 11
12.0
 21
9.0
 12
0.0
 22
0.0
 32
0.0
 14
1.000000000000000E+20
 24
1.000000000000000E+20
 34
1.000000000000000E+20
 15
-1.000000000000000E+20
 25
-1.000000000000000E+20
 35
-1.000000000000000E+20
146
0.0
 13
0.0
 23
0.0
 33
0.0
 16
1.0
 26
0.0
 36
0.0
 17
0.0
 27
1.0
 37
0.0
 76
     0
330
E
  0
MLINESTYLE
  5
31
102
{ACAD_REACTORS
330
26
102
}
330
26
100
AcDbMlineStyle
  2
STANDARD
 70
     0
  3

 62
   256
 51
90.0
 52
90.0
 71
     2
 49
0.5
 62
   256
  6
BYLAYER
 49
-0.5
 62
   256
  6
BYLAYER
  0
ACDBPLACEHOLDER
  5
7
102
{ACAD_REACTORS
330
8
102
}
330
8
  0
XRECORD
  5
35A
102
{ACAD_REACTORS
330
358
102
}
330
358
100
AcDbXrecord
280
     1
340
29
  0
XRECORD
  5
359
102
{ACAD_REACTORS
330
358
102
}
330
358
100
AcDbXrecord
280
     1
340
28
  0
DICTIONARYVAR
  5
2FE
102
{ACAD_REACTORS
330
2FC
102
}
330
2FC
100
DictionaryVariables
280
     0
  1
1
  0
DICTIONARYVAR
  5
2FD
102
{ACAD_REACTORS
330
2FC
102
}
330
2FC
100
DictionaryVariables
280
     0
  1
1
  0
DICTIONARYVAR
  5
2FF
102
{ACAD_REACTORS
330
2FC
102
}
330
2FC
100
DictionaryVariables
280
     0
  1

  0
DICTIONARY
  5
35B
330
C
100
AcDbDictionary
280
     1
281
     1
  3
ACAD_XREC_ROUNDTRIP
360
35C
  0
DICTIONARY
  5
35D
330
13
100
AcDbDictionary
280
     1
281
     1
  3
ACAD_XREC_ROUNDTRIP
360
35E
  0
XRECORD
  5
35C
102
{ACAD_REACTORS
330
35B
102
}
330
35B
100
AcDbXrecord
280
     1
102
SHADEPLOT
 70
     0
102
SHADEPLOTRESLEVEL
 70
     2
102
SHADEPLOTCUSTOMDPI
 70
   300
  0
XRECORD
  5
35E
102
{ACAD_REACTORS
330
35D
102
}
330
35D
100
AcDbXrecord
280
     1
102
SHADEPLOT
 70
     0
102
SHADEPLOTRESLEVEL
 70
     2
102
SHADEPLOTCUSTOMDPI
 70
   300
  0
ENDSEC
  0
EOF
