  0
SECTION
  2
HEADER
  9
$ACADVER
  1
AC1015
  9
$ACADMAINTVER
 70
    20
  9
$DWGCODEPAGE
  3
ANSI_932
  9
$INSBASE
 10
0.0
 20
120.4992141396419
 30
0.0
  9
$EXTMIN
 10
-58.28847191311751
 20
-59.64790329788411
 30
-0.0000000349181948
  9
$EXTMAX
 10
66.79267891335894
 20
53.58123386248917
 30
0.0000000814935747
  9
$LIMMIN
 10
-1101.784450318844
 20
-1579.160531687244
  9
$LIMMAX
 10
-508.2420711400536
 20
-1161.440814074914
  9
$ORTHOMODE
 70
     1
  9
$REGENMODE
 70
     1
  9
$FILLMODE
 70
     1
  9
$QTEXTMODE
 70
     0
  9
$MIRRTEXT
 70
     1
  9
$LTSCALE
 40
1.0
  9
$ATTMODE
 70
     1
  9
$TEXTSIZE
 40
3.0
  9
$TRACEWID
 40
0.5
  9
$TEXTSTYLE
  7
STANDARD
  9
$CLAYER
  8
0
  9
$CELTYPE
  6
BYLAYER
  9
$CECOLOR
 62
   256
  9
$CELTSCALE
 40
1.0
  9
$DISPSILH
 70
     0
  9
$DIMSCALE
 40
1.0
  9
$DIMASZ
 40
2.0
  9
$DIMEXO
 40
2.0
  9
$DIMDLI
 40
8.0
  9
$DIMRND
 40
0.0
  9
$DIMDLE
 40
0.0
  9
$DIMEXE
 40
2.0
  9
$DIMTP
 40
0.0
  9
$DIMTM
 40
0.0
  9
$DIMTXT
 40
2.5
  9
$DIMCEN
 40
0.0
  9
$DIMTSZ
 40
0.0
  9
$DIMTOL
 70
     0
  9
$DIMLIM
 70
     0
  9
$DIMTIH
 70
     0
  9
$DIMTOH
 70
     0
  9
$DIMSE1
 70
     0
  9
$DIMSE2
 70
     0
  9
$DIMTAD
 70
     3
  9
$DIMZIN
 70
     0
  9
$DIMBLK
  1

  9
$DIMASO
 70
     1
  9
$DIMSHO
 70
     1
  9
$DIMPOST
  1

  9
$DIMAPOST
  1

  9
$DIMALT
 70
     0
  9
$DIMALTD
 70
     2
  9
$DIMALTF
 40
25.4
  9
$DIMLFAC
 40
1.0
  9
$DIMTOFL
 70
     1
  9
$DIMTVP
 40
0.0
  9
$DIMTIX
 70
     0
  9
$DIMSOXD
 70
     0
  9
$DIMSAH
 70
     1
  9
$DIMBLK1
  1
OPEN30
  9
$DIMBLK2
  1
OPEN30
  9
$DIMSTYLE
  2
STANDARD
  9
$DIMCLRD
 70
     0
  9
$DIMCLRE
 70
     0
  9
$DIMCLRT
 70
     0
  9
$DIMTFAC
 40
1.0
  9
$DIMGAP
 40
0.5
  9
$DIMJUST
 70
     0
  9
$DIMSD1
 70
     0
  9
$DIMSD2
 70
     0
  9
$DIMTOLJ
 70
     1
  9
$DIMTZIN
 70
     0
  9
$DIMALTZ
 70
     0
  9
$DIMALTTZ
 70
     0
  9
$DIMUPT
 70
     0
  9
$DIMDEC
 70
     4
  9
$DIMTDEC
 70
     4
  9
$DIMALTU
 70
     2
  9
$DIMALTTD
 70
     2
  9
$DIMTXSTY
  7
STANDARD
  9
$DIMAUNIT
 70
     0
  9
$DIMADEC
 70
     0
  9
$DIMALTRND
 40
0.0
  9
$DIMAZIN
 70
     0
  9
$DIMDSEP
 70
    46
  9
$DIMATFIT
 70
     3
  9
$DIMFRAC
 70
     0
  9
$DIMLDRBLK
  1
OPEN30
  9
$DIMLUNIT
 70
     2
  9
$DIMLWD
 70
    -2
  9
$DIMLWE
 70
    -2
  9
$DIMTMOVE
 70
     0
  9
$LUNITS
 70
     2
  9
$LUPREC
 70
     4
  9
$SKETCHINC
 40
0.1
  9
$FILLETRAD
 40
0.0
  9
$AUNITS
 70
     0
  9
$AUPREC
 70
     0
  9
$MENU
  1
ACAD
  9
$ELEVATION
 40
0.0
  9
$PELEVATION
 40
0.0
  9
$THICKNESS
 40
0.0
  9
$LIMCHECK
 70
     0
  9
$CHAMFERA
 40
0.0
  9
$CHAMFERB
 40
0.0
  9
$CHAMFERC
 40
0.0
  9
$CHAMFERD
 40
0.0
  9
$SKPOLY
 70
     0
  9
$TDCREATE
 40
2451815.565532581
  9
$TDUCREATE
 40
2451815.190532581
  9
$TDUPDATE
 40
2453731.742152951
  9
$TDUUPDATE
 40
2453731.367152951
  9
$TDINDWG
 40
0.6805314236
  9
$TDUSRTIMER
 40
0.6805314236
  9
$USRTIMER
 70
     1
  9
$ANGBASE
 50
0.0
  9
$ANGDIR
 70
     0
  9
$PDMODE
 70
     0
  9
$PDSIZE
 40
0.0
  9
$PLINEWID
 40
0.0
  9
$SPLFRAME
 70
     0
  9
$SPLINETYPE
 70
     6
  9
$SPLINESEGS
 70
     8
  9
$HANDSEED
  5
390
  9
$SURFTAB1
 70
     6
  9
$SURFTAB2
 70
     6
  9
$SURFTYPE
 70
     6
  9
$SURFU
 70
     6
  9
$SURFV
 70
     6
  9
$UCSBASE
  2

  9
$UCSNAME
  2

  9
$UCSORG
 10
0.0
 20
0.0
 30
0.0
  9
$UCSXDIR
 10
1.0
 20
0.0
 30
0.0
  9
$UCSYDIR
 10
0.0
 20
1.0
 30
0.0
  9
$UCSORTHOREF
  2

  9
$UCSORTHOVIEW
 70
     0
  9
$UCSORGTOP
 10
0.0
 20
0.0
 30
0.0
  9
$UCSORGBOTTOM
 10
0.0
 20
0.0
 30
0.0
  9
$UCSORGLEFT
 10
0.0
 20
0.0
 30
0.0
  9
$UCSORGRIGHT
 10
0.0
 20
0.0
 30
0.0
  9
$UCSORGFRONT
 10
0.0
 20
0.0
 30
0.0
  9
$UCSORGBACK
 10
0.0
 20
0.0
 30
0.0
  9
$PUCSBASE
  2

  9
$PUCSNAME
  2

  9
$PUCSORG
 10
0.0
 20
0.0
 30
0.0
  9
$PUCSXDIR
 10
1.0
 20
0.0
 30
0.0
  9
$PUCSYDIR
 10
0.0
 20
1.0
 30
0.0
  9
$PUCSORTHOREF
  2

  9
$PUCSORTHOVIEW
 70
     0
  9
$PUCSORGTOP
 10
0.0
 20
0.0
 30
0.0
  9
$PUCSORGBOTTOM
 10
0.0
 20
0.0
 30
0.0
  9
$PUCSORGLEFT
 10
0.0
 20
0.0
 30
0.0
  9
$PUCSORGRIGHT
 10
0.0
 20
0.0
 30
0.0
  9
$PUCSORGFRONT
 10
0.0
 20
0.0
 30
0.0
  9
$PUCSORGBACK
 10
0.0
 20
0.0
 30
0.0
  9
$USERI1
 70
     0
  9
$USERI2
 70
     0
  9
$USERI3
 70
     0
  9
$USERI4
 70
     0
  9
$USERI5
 70
     0
  9
$USERR1
 40
0.0
  9
$USERR2
 40
0.0
  9
$USERR3
 40
0.0
  9
$USERR4
 40
0.0
  9
$USERR5
 40
0.0
  9
$WORLDVIEW
 70
     1
  9
$SHADEDGE
 70
     3
  9
$SHADEDIF
 70
    70
  9
$TILEMODE
 70
     1
  9
$MAXACTVP
 70
    48
  9
$PINSBASE
 10
0.0
 20
0.0
 30
0.0
  9
$PLIMCHECK
 70
     0
  9
$PEXTMIN
 10
1.000000000000000E+20
 20
1.000000000000000E+20
 30
1.000000000000000E+20
  9
$PEXTMAX
 10
-1.000000000000000E+20
 20
-1.000000000000000E+20
 30
-1.000000000000000E+20
  9
$PLIMMIN
 10
0.0
 20
0.0
  9
$PLIMMAX
 10
12.0
 20
9.0
  9
$UNITMODE
 70
     0
  9
$VISRETAIN
 70
     1
  9
$PLINEGEN
 70
     0
  9
$PSLTSCALE
 70
     1
  9
$TREEDEPTH
 70
  3020
  9
$CMLSTYLE
  2
STANDARD
  9
$CMLJUST
 70
     0
  9
$CMLSCALE
 40
1.0
  9
$PROXYGRAPHICS
 70
     1
  9
$MEASUREMENT
 70
     0
  9
$CELWEIGHT
370
    -1
  9
$ENDCAPS
280
     0
  9
$JOINSTYLE
280
     0
  9
$LWDISPLAY
290
     0
  9
$INSUNITS
 70
     0
  9
$HYPERLINKBASE
  1

  9
$STYLESHEET
  1

  9
$XEDIT
290
     1
  9
$CEPSNTYPE
380
     0
  9
$PSTYLEMODE
290
     1
  9
$FINGERPRINTGUID
  2
{1754B7AB-9B3C-11D4-AD9E-00104B1004F2}
  9
$VERSIONGUID
  2
{7D6B5306-36C4-4C91-AE3D-655597FFA7D6}
  9
$EXTNAMES
290
     1
  9
$PSVPSCALE
 40
0.0
  9
$OLESTARTUP
290
     0
  0
ENDSEC
  0
SECTION
  2
CLASSES
  0
CLASS
  1
ACDBDICTIONARYWDFLT
  2
AcDbDictionaryWithDefault
  3
ObjectDBX Classes
 90
        0
280
     0
281
     0
  0
CLASS
  1
ACDBPLACEHOLDER
  2
AcDbPlaceHolder
  3
ObjectDBX Classes
 90
        0
280
     0
281
     0
  0
CLASS
  1
LAYOUT
  2
AcDbLayout
  3
ObjectDBX Classes
 90
        0
280
     0
281
     0
  0
CLASS
  1
DICTIONARYVAR
  2
AcDbDictionaryVar
  3
ObjectDBX Classes
 90
        0
280
     0
281
     0
  0
ENDSEC
  0
SECTION
  2
TABLES
  0
TABLE
  2
VPORT
  5
1F
330
0
100
AcDbSymbolTable
 70
     2
  0
VPORT
  5
388
330
1F
100
AcDbSymbolTableRecord
100
AcDbViewportTableRecord
  2
*Active
 70
     0
 10
0.0
 20
0.0
 11
1.0
 21
1.0
 12
4.252103500120703
 22
-3.033334717697471
 13
0.0
 23
0.0
 14
1.0
 24
1.0
 15
0.0
 25
0.0
 16
0.0
 26
0.0
 36
1.0
 17
0.0
 27
0.0
 37
0.0
 40
114.1996726217479
 41
1.589413447782546
 42
50.0
 43
0.0
 44
0.0
 50
0.0
 51
0.0
 71
     0
 72
 10000
 73
     1
 74
     0
 75
     0
 76
     1
 77
     0
 78
     0
281
     0
 65
     1
110
0.0
120
0.0
130
0.0
111
1.0
121
0.0
131
0.0
112
0.0
122
1.0
132
0.0
 79
     0
146
0.0
  0
ENDTAB
  0
TABLE
  2
LTYPE
  5
1A
330
0
100
AcDbSymbolTable
 70
     2
  0
LTYPE
  5
1B
330
1A
100
AcDbSymbolTableRecord
100
AcDbLinetypeTableRecord
  2
BYBLOCK
 70
     0
  3

 72
    65
 73
     0
 40
0.0
  0
LTYPE
  5
1C
330
1A
100
AcDbSymbolTableRecord
100
AcDbLinetypeTableRecord
  2
BYLAYER
 70
     0
  3

 72
    65
 73
     0
 40
0.0
  0
LTYPE
  5
A
330
1A
100
AcDbSymbolTableRecord
100
AcDbLinetypeTableRecord
  2
CONTINUOUS
 70
     0
  3
Solid line
 72
    65
 73
     0
 40
0.0
  0
LTYPE
  5
4F
330
1A
100
AcDbSymbolTableRecord
100
AcDbLinetypeTableRecord
  2
HIDDEN2
 70
     0
  3
Hidden (.5x) _ _ _ _ _ _ _ _ _ _ _ _ _ _ _ _ _
 72
    65
 73
     2
 40
1.399999999999999
 49
0.7
 74
     0
 49
-0.7
 74
     0
  0
ENDTAB
  0
TABLE
  2
LAYER
  5
14
102
{ACAD_XDICTIONARY
360
15
102
}
330
0
100
AcDbSymbolTable
 70
     7
  0
LAYER
  5
6
330
14
100
AcDbSymbolTableRecord
100
AcDbLayerTableRecord
  2
0
 70
     0
 62
     7
  6
CONTINUOUS
370
    -3
390
7
  0
LAYER
  5
42
330
14
100
AcDbSymbolTableRecord
100
AcDbLayerTableRecord
  2
DEFPOINTS
 70
     0
 62
     7
  6
CONTINUOUS
290
     0
370
    -3
390
7
  0
LAYER
  5
2D7
330
14
100
AcDbSymbolTableRecord
100
AcDbLayerTableRecord
  2
WAKU
 70
     0
 62
     4
  6
CONTINUOUS
370
    -3
390
7
  0
LAYER
  5
34
330
14
100
AcDbSymbolTableRecord
100
AcDbLayerTableRecord
  2
MOJI1
 70
     0
 62
     2
  6
CONTINUOUS
370
    -3
390
7
  0
LAYER
  5
2A
330
14
100
AcDbSymbolTableRecord
100
AcDbLayerTableRecord
  2
GAIKEI
 70
     0
 62
     7
  6
CONTINUOUS
370
    -3
390
7
  0
LAYER
  5
36
330
14
100
AcDbSymbolTableRecord
100
AcDbLayerTableRecord
  2
TOUROKU
 70
     0
 62
     1
  6
CONTINUOUS
370
    -3
390
7
  0
LAYER
  5
38
330
14
100
AcDbSymbolTableRecord
100
AcDbLayerTableRecord
  2
SUNPO
 70
     0
 62
     3
  6
CONTINUOUS
370
    -3
390
7
  0
ENDTAB
  0
TABLE
  2
STYLE
  5
17
330
0
100
AcDbSymbolTable
 70
     1
  0
STYLE
  5
18
330
17
100
AcDbSymbolTableRecord
100
AcDbTextStyleTableRecord
  2
STANDARD
 70
     0
 40
0.0
 41
1.0
 50
0.0
 71
     0
 42
3.0
  3
MONOTXT.shx
  4
BIGFONT.shx
  0
ENDTAB
  0
TABLE
  2
VIEW
  5
1D
330
0
100
AcDbSymbolTable
 70
     0
  0
ENDTAB
  0
TABLE
  2
UCS
  5
1E
330
0
100
AcDbSymbolTable
 70
     0
  0
ENDTAB
  0
TABLE
  2
APPID
  5
21
330
0
100
AcDbSymbolTable
 70
     1
  0
APPID
  5
22
330
21
100
AcDbSymbolTableRecord
100
AcDbRegAppTableRecord
  2
ACAD
 70
     0
  0
ENDTAB
  0
TABLE
  2
DIMSTYLE
  5
23
330
0
100
AcDbSymbolTable
 70
     1
100
AcDbDimStyleTable
 71
     1
340
32
  0
DIMSTYLE
105
32
102
{ACAD_REACTORS
330
2C9
330
2BC
330
2AD
330
6A
330
37
102
}
330
23
100
AcDbSymbolTableRecord
100
AcDbDimStyleTableRecord
  2
STANDARD
 70
     0
 40
0.0
 41
2.0
 42
2.0
 43
8.0
 44
2.0
 73
     0
 74
     0
 77
     3
140
3.0
141
0.0
173
     1
279
     2
288
     1
340
18
341
2B
343
2B
344
2B
  0
ENDTAB
  0
TABLE
  2
BLOCK_RECORD
  5
1
330
0
100
AcDbSymbolTable
 70
    11
  0
BLOCK_RECORD
  5
2
102
{ACAD_XDICTIONARY
360
3
102
}
330
1
100
AcDbSymbolTableRecord
100
AcDbBlockTableRecord
  2
*MODEL_SPACE
340
C
  0
BLOCK_RECORD
  5
E
102
{ACAD_XDICTIONARY
360
F
102
}
330
1
100
AcDbSymbolTableRecord
100
AcDbBlockTableRecord
  2
*PAPER_SPACE
340
13
  0
BLOCK_RECORD
  5
2B
330
1
100
AcDbSymbolTableRecord
100
AcDbBlockTableRecord
  2
_OPEN30
340
0
102
{BLKREFS
331
2B5
331
2B6
331
3E
331
3F
331
70
331
71
331
2C2
331
2C3
331
2CF
331
2D0
331
355
331
356
331
35E
331
35F
331
369
331
36A
331
372
331
373
331
37B
331
37C
102
}
  0
BLOCK_RECORD
  5
307
330
1
100
AcDbSymbolTableRecord
100
AcDbBlockTableRecord
  2
*D6
340
0
  0
BLOCK_RECORD
  5
313
330
1
100
AcDbSymbolTableRecord
100
AcDbBlockTableRecord
  2
*D7
340
0
  0
BLOCK_RECORD
  5
31F
330
1
100
AcDbSymbolTableRecord
100
AcDbBlockTableRecord
  2
*D8
340
0
  0
BLOCK_RECORD
  5
32D
330
1
100
AcDbSymbolTableRecord
100
AcDbBlockTableRecord
  2
*D9
340
0
  0
BLOCK_RECORD
  5
339
330
1
100
AcDbSymbolTableRecord
100
AcDbBlockTableRecord
  2
*D10
340
0
  0
ENDTAB
  0
ENDSEC
  0
SECTION
  2
BLOCKS
  0
BLOCK
  5
5
330
2
100
AcDbEntity
  8
0
100
AcDbBlockBegin
  2
*MODEL_SPACE
 70
     0
 10
0.0
 20
0.0
 30
0.0
  3
*MODEL_SPACE
  1

  0
ENDBLK
  5
B
330
2
100
AcDbEntity
  8
0
100
AcDbBlockEnd
  0
BLOCK
  5
11
330
E
100
AcDbEntity
 67
     1
  8
0
100
AcDbBlockBegin
  2
*PAPER_SPACE
 70
     0
 10
0.0
 20
0.0
 30
0.0
  3
*PAPER_SPACE
  1

  0
ENDBLK
  5
12
330
E
100
AcDbEntity
 67
     1
  8
0
100
AcDbBlockEnd
  0
BLOCK
  5
2C
330
2B
100
AcDbEntity
  8
0
100
AcDbBlockBegin
  2
_OPEN30
 70
     0
 10
0.0
 20
0.0
 30
0.0
  3
_OPEN30
  1

  0
LINE
  5
2D
330
2B
100
AcDbEntity
  8
0
  6
ByBlock
 62
     0
100
AcDbLine
 10
-1.0
 20
0.26794919
 30
0.0
 11
0.0
 21
0.0
 31
0.0
  0
LINE
  5
2E
330
2B
100
AcDbEntity
  8
0
  6
ByBlock
 62
     0
100
AcDbLine
 10
0.0
 20
0.0
 30
0.0
 11
-1.0
 21
-0.26794919
 31
0.0
  0
LINE
  5
2F
330
2B
100
AcDbEntity
  8
0
  6
ByBlock
 62
     0
100
AcDbLine
 10
0.0
 20
0.0
 30
0.0
 11
-1.0
 21
0.0
 31
0.0
  0
ENDBLK
  5
30
330
2B
100
AcDbEntity
  8
0
100
AcDbBlockEnd
  0
BLOCK
  5
311
330
307
100
AcDbEntity
  8
0
100
AcDbBlockBegin
  2
*D6
 70
     1
 10
0.0
 20
0.0
 30
0.0
  3
*D6
  1

  0
LINE
  5
352
330
307
100
AcDbEntity
  8
SUNPO
 62
     0
370
    -2
100
AcDbLine
 10
10.10842952125175
 20
-0.4151547014107854
 30
0.0
 11
18.10842952125174
 21
-0.4151547014107877
 31
0.0
  0
LINE
  5
353
330
307
100
AcDbEntity
  8
SUNPO
 62
     0
370
    -2
100
AcDbLine
 10
10.10842952125175
 20
30.08484529858922
 30
0.0
 11
18.10842952125175
 21
30.08484529858922
 31
0.0
  0
LINE
  5
354
330
307
100
AcDbEntity
  8
SUNPO
 62
     0
370
    -2
100
AcDbLine
 10
16.10842952125174
 20
1.584845298589212
 30
0.0
 11
16.10842952125175
 21
28.08484529858922
 31
0.0
  0
INSERT
  5
355
330
307
100
AcDbEntity
  8
SUNPO
 62
     0
370
    -2
100
AcDbBlockReference
  2
_OPEN30
 10
16.10842952125174
 20
-0.4151547014107872
 30
0.0
 41
2.0
 42
2.0
 43
2.0
 50
270.0
  0
INSERT
  5
356
330
307
100
AcDbEntity
  8
SUNPO
 62
     0
370
    -2
100
AcDbBlockReference
  2
_OPEN30
 10
16.10842952125175
 20
30.08484529858922
 30
0.0
 41
2.0
 42
2.0
 43
2.0
 50
90.0
  0
MTEXT
  5
357
330
307
100
AcDbEntity
  8
SUNPO
 62
     0
100
AcDbMText
 10
14.35842952125174
 20
14.83484529858922
 30
0.0
 40
2.5
 41
0.0
 71
     5
 72
     1
  1
\A1;610
 11
0.0000000000000001
 21
1.0
 31
0.0
 73
     1
 44
1.0
1001
ACAD
1000
MTEXTBEGIN
1070
    73
1070
     1
1070
    44
1040
1.0
1070
    74
1070
     0
1000
MTEXTEND
  0
POINT
  5
358
330
307
100
AcDbEntity
  8
DEFPOINTS
 62
     0
100
AcDbPoint
 10
8.10842952125175
 20
-0.4151547014107848
 30
0.0
  0
POINT
  5
359
330
307
100
AcDbEntity
  8
DEFPOINTS
 62
     0
100
AcDbPoint
 10
8.10842952125175
 20
30.08484529858922
 30
0.0
  0
POINT
  5
35A
330
307
100
AcDbEntity
  8
DEFPOINTS
 62
     0
100
AcDbPoint
 10
16.10842952125175
 20
30.08484529858922
 30
0.0
  0
ENDBLK
  5
312
330
307
100
AcDbEntity
  8
0
100
AcDbBlockEnd
  0
BLOCK
  5
31D
330
313
100
AcDbEntity
  8
0
100
AcDbBlockBegin
  2
*D7
 70
     1
 10
0.0
 20
0.0
 30
0.0
  3
*D7
  1

  0
LINE
  5
35B
330
313
100
AcDbEntity
  8
SUNPO
 62
     0
370
    -2
100
AcDbLine
 10
-42.00189988075827
 20
32.08455885423789
 30
0.0
 11
-42.00189988075827
 21
40.08455885423788
 31
0.0
  0
LINE
  5
35C
330
313
100
AcDbEntity
  8
SUNPO
 62
     0
370
    -2
100
AcDbLine
 10
8.098100119241721
 20
32.08455885423789
 30
0.0
 11
8.098100119241721
 21
40.08455885423788
 31
0.0
  0
LINE
  5
35D
330
313
100
AcDbEntity
  8
SUNPO
 62
     0
370
    -2
100
AcDbLine
 10
-40.00189988075827
 20
38.08455885423788
 30
0.0
 11
6.098100119241721
 21
38.08455885423788
 31
0.0
  0
INSERT
  5
35E
330
313
100
AcDbEntity
  8
SUNPO
 62
     0
370
    -2
100
AcDbBlockReference
  2
_OPEN30
 10
-42.00189988075827
 20
38.08455885423788
 30
0.0
 41
2.0
 42
2.0
 43
2.0
 50
180.0
  0
INSERT
  5
35F
330
313
100
AcDbEntity
  8
SUNPO
 62
     0
370
    -2
100
AcDbBlockReference
  2
_OPEN30
 10
8.098100119241721
 20
38.08455885423788
 30
0.0
 41
2.0
 42
2.0
 43
2.0
  0
MTEXT
  5
360
330
313
100
AcDbEntity
  8
SUNPO
 62
     0
100
AcDbMText
 10
-16.95189988075827
 20
39.83455885423789
 30
0.0
 40
2.5
 41
0.0
 71
     5
 72
     1
  1
\A1;1020
 73
     1
 44
1.0
1001
ACAD
1000
MTEXTBEGIN
1070
    73
1070
     1
1070
    44
1040
1.0
1070
    74
1070
     0
1000
MTEXTEND
  0
POINT
  5
361
330
313
100
AcDbEntity
  8
DEFPOINTS
 62
     0
100
AcDbPoint
 10
-42.00189988075827
 20
30.08455885423789
 30
0.0
  0
POINT
  5
362
330
313
100
AcDbEntity
  8
DEFPOINTS
 62
     0
100
AcDbPoint
 10
8.098100119241721
 20
30.08455885423789
 30
0.0
  0
POINT
  5
363
330
313
100
AcDbEntity
  8
DEFPOINTS
 62
     0
100
AcDbPoint
 10
8.098100119241721
 20
38.08455885423788
 30
0.0
  0
ENDBLK
  5
31E
330
313
100
AcDbEntity
  8
0
100
AcDbBlockEnd
  0
BLOCK
  5
32B
330
31F
100
AcDbEntity
  8
0
100
AcDbBlockBegin
  2
*D8
 70
     1
 10
0.0
 20
0.0
 30
0.0
  3
*D8
  1

  0
LINE
  5
364
330
31F
100
AcDbEntity
  8
SUNPO
 62
     0
370
    -2
100
AcDbLine
 10
32.96817451171996
 20
32.08455885423789
 30
0.0
 11
32.96817451171996
 21
40.08455885423788
 31
0.0
  0
LINE
  5
365
330
31F
100
AcDbEntity
  8
SUNPO
 62
     0
370
    -2
100
AcDbLine
 10
37.41817451171993
 20
32.08455885423789
 30
0.0
 11
37.41817451171993
 21
40.08455885423788
 31
0.0
  0
LINE
  5
366
330
31F
100
AcDbEntity
  8
SUNPO
 62
     0
370
    -2
100
AcDbLine
 10
30.96817451171996
 20
38.08455885423788
 30
0.0
 11
28.96817451171996
 21
38.08455885423788
 31
0.0
  0
LINE
  5
367
330
31F
100
AcDbEntity
  8
SUNPO
 62
     0
370
    -2
100
AcDbLine
 10
39.41817451171992
 20
38.08455885423788
 30
0.0
 11
46.58484117838659
 21
38.08455885423788
 31
0.0
  0
LINE
  5
368
330
31F
100
AcDbEntity
  8
SUNPO
 62
     0
370
    -2
100
AcDbLine
 10
32.96817451171996
 20
38.08455885423788
 30
0.0
 11
37.41817451171993
 21
38.08455885423788
 31
0.0
  0
INSERT
  5
369
330
31F
100
AcDbEntity
  8
SUNPO
 62
     0
370
    -2
100
AcDbBlockReference
  2
_OPEN30
 10
32.96817451171996
 20
38.08455885423788
 30
0.0
 41
2.0
 42
2.0
 43
2.0
  0
INSERT
  5
36A
330
31F
100
AcDbEntity
  8
SUNPO
 62
     0
370
    -2
100
AcDbBlockReference
  2
_OPEN30
 10
37.41817451171993
 20
38.08455885423788
 30
0.0
 41
2.0
 42
2.0
 43
2.0
 50
180.0
  0
MTEXT
  5
36B
330
31F
100
AcDbEntity
  8
SUNPO
 62
     0
100
AcDbMText
 10
44.00150784505326
 20
39.83455885423789
 30
0.0
 40
2.5
 41
0.0
 71
     5
 72
     1
  1
\A1;89
 73
     1
 44
1.0
1001
ACAD
1000
MTEXTBEGIN
1070
    73
1070
     1
1070
    44
1040
1.0
1070
    74
1070
     0
1000
MTEXTEND
  0
POINT
  5
36C
330
31F
100
AcDbEntity
  8
DEFPOINTS
 62
     0
100
AcDbPoint
 10
32.96817451171996
 20
30.08455885423789
 30
0.0
  0
POINT
  5
36D
330
31F
100
AcDbEntity
  8
DEFPOINTS
 62
     0
100
AcDbPoint
 10
37.41817451171993
 20
30.08455885423789
 30
0.0
  0
POINT
  5
36E
330
31F
100
AcDbEntity
  8
DEFPOINTS
 62
     0
100
AcDbPoint
 10
37.41817451171993
 20
38.08455885423788
 30
0.0
  0
ENDBLK
  5
32C
330
31F
100
AcDbEntity
  8
0
100
AcDbBlockEnd
  0
BLOCK
  5
337
330
32D
100
AcDbEntity
  8
0
100
AcDbBlockBegin
  2
*D9
 70
     1
 10
0.0
 20
0.0
 30
0.0
  3
*D9
  1

  0
LINE
  5
36F
330
32D
100
AcDbEntity
  8
SUNPO
 62
     0
370
    -2
100
AcDbLine
 10
-34.55189988075821
 20
-5.54147869855511
 30
0.0
 11
-34.55189988075821
 21
-13.54147869855508
 31
0.0
  0
LINE
  5
370
330
32D
100
AcDbEntity
  8
SUNPO
 62
     0
370
    -2
100
AcDbLine
 10
0.6481001192416044
 20
-5.54147869855511
 30
0.0
 11
0.6481001192416038
 21
-13.54147869855508
 31
0.0
  0
LINE
  5
371
330
32D
100
AcDbEntity
  8
SUNPO
 62
     0
370
    -2
100
AcDbLine
 10
-32.55189988075821
 20
-11.54147869855508
 30
0.0
 11
-1.351899880758395
 21
-11.54147869855508
 31
0.0
  0
INSERT
  5
372
330
32D
100
AcDbEntity
  8
SUNPO
 62
     0
370
    -2
100
AcDbBlockReference
  2
_OPEN30
 10
-34.55189988075821
 20
-11.54147869855508
 30
0.0
 41
2.0
 42
2.0
 43
2.0
 50
180.0
  0
INSERT
  5
373
330
32D
100
AcDbEntity
  8
SUNPO
 62
     0
370
    -2
100
AcDbBlockReference
  2
_OPEN30
 10
0.6481001192416041
 20
-11.54147869855508
 30
0.0
 41
2.0
 42
2.0
 43
2.0
  0
MTEXT
  5
374
330
32D
100
AcDbEntity
  8
SUNPO
 62
     0
100
AcDbMText
 10
-16.9518998807583
 20
-9.79147869855508
 30
0.0
 40
2.5
 41
0.0
 71
     5
 72
     1
  1
\A1;704
 73
     1
 44
1.0
1001
ACAD
1000
MTEXTBEGIN
1070
    73
1070
     1
1070
    44
1040
1.0
1070
    74
1070
     0
1000
MTEXTEND
  0
POINT
  5
375
330
32D
100
AcDbEntity
  8
DEFPOINTS
 62
     0
100
AcDbPoint
 10
-34.55189988075821
 20
-3.541478698555109
 30
0.0
  0
POINT
  5
376
330
32D
100
AcDbEntity
  8
DEFPOINTS
 62
     0
100
AcDbPoint
 10
0.6481001192416045
 20
-3.541478698555109
 30
0.0
  0
POINT
  5
377
330
32D
100
AcDbEntity
  8
DEFPOINTS
 62
     0
100
AcDbPoint
 10
0.6481001192416041
 20
-11.54147869855508
 30
0.0
  0
ENDBLK
  5
338
330
32D
100
AcDbEntity
  8
0
100
AcDbBlockEnd
  0
BLOCK
  5
343
330
339
100
AcDbEntity
  8
0
100
AcDbBlockBegin
  2
*D10
 70
     1
 10
0.0
 20
0.0
 30
0.0
  3
*D10
  1

  0
LINE
  5
378
330
339
100
AcDbEntity
  8
SUNPO
 62
     0
370
    -2
100
AcDbLine
 10
25.39683157258101
 20
-5.54147869855511
 30
0.0
 11
25.39683157258101
 21
-13.54147869855508
 31
0.0
  0
LINE
  5
379
330
339
100
AcDbEntity
  8
SUNPO
 62
     0
370
    -2
100
AcDbLine
 10
41.74159857258099
 20
-5.54147869855511
 30
0.0
 11
41.74159857258099
 21
-13.54147869855508
 31
0.0
  0
LINE
  5
37A
330
339
100
AcDbEntity
  8
SUNPO
 62
     0
370
    -2
100
AcDbLine
 10
27.39683157258101
 20
-11.54147869855508
 30
0.0
 11
39.74159857258099
 21
-11.54147869855508
 31
0.0
  0
INSERT
  5
37B
330
339
100
AcDbEntity
  8
SUNPO
 62
     0
370
    -2
100
AcDbBlockReference
  2
_OPEN30
 10
25.39683157258101
 20
-11.54147869855508
 30
0.0
 41
2.0
 42
2.0
 43
2.0
 50
180.0
  0
INSERT
  5
37C
330
339
100
AcDbEntity
  8
SUNPO
 62
     0
370
    -2
100
AcDbBlockReference
  2
_OPEN30
 10
41.74159857258099
 20
-11.54147869855508
 30
0.0
 41
2.0
 42
2.0
 43
2.0
  0
MTEXT
  5
37D
330
339
100
AcDbEntity
  8
SUNPO
 62
     0
100
AcDbMText
 10
33.569215072581
 20
-9.79147869855508
 30
0.0
 40
2.5
 41
0.0
 71
     5
 72
     1
  1
\A1;327
 73
     1
 44
1.0
1001
ACAD
1000
MTEXTBEGIN
1070
    73
1070
     1
1070
    44
1040
1.0
1070
    74
1070
     0
1000
MTEXTEND
  0
POINT
  5
37E
330
339
100
AcDbEntity
  8
DEFPOINTS
 62
     0
100
AcDbPoint
 10
25.39683157258101
 20
-3.541478698555109
 30
0.0
  0
POINT
  5
37F
330
339
100
AcDbEntity
  8
DEFPOINTS
 62
     0
100
AcDbPoint
 10
41.74159857258099
 20
-3.541478698555109
 30
0.0
  0
POINT
  5
380
330
339
100
AcDbEntity
  8
DEFPOINTS
 62
     0
100
AcDbPoint
 10
41.74159857258099
 20
-11.54147869855508
 30
0.0
  0
ENDBLK
  5
344
330
339
100
AcDbEntity
  8
0
100
AcDbBlockEnd
  0
ENDSEC
  0
SECTION
  2
ENTITIES
  0
TEXT
  5
33
330
2
100
AcDbEntity
  8
MOJI1
100
AcDbText
 10
-31.2702100684547
 20
49.45861536559228
 30
0.0
 40
4.0
  1
ハイビジョンプラズマディスプレイ据置きスタンド
 41
0.85
100
AcDbText
  0
TEXT
  5
35
330
2
100
AcDbEntity
  8
TOUROKU
100
AcDbText
 10
26.72973996447284
 20
43.45861536559207
 30
0.0
 40
2.0
  1
ＴＨ４２ＰＨＤ８Ｓ＋ＴＹＳＴ０８Ｓ
 72
     2
 11
66.72973996447284
 21
43.45861536559207
 31
0.0
100
AcDbText
  0
DIMENSION
  5
37
330
2
100
AcDbEntity
  8
SUNPO
100
AcDbDimension
  2
*D10
 10
41.74159857258099
 20
-11.54147869855508
 30
0.0
 11
33.569215072581
 21
-9.79147869855508
 31
0.0
 70
    33
  1
327
 71
     5
 42
16.34476699999998
  3
STANDARD
100
AcDbAlignedDimension
 13
25.39683157258101
 23
-3.541478698555109
 33
0.0
 14
41.74159857258099
 24
-3.541478698555109
 34
0.0
1001
ACAD
1000
DSTYLE
1002
{
1070
    40
1040
1.0
1070
   140
1040
2.5
1070
   147
1040
0.5
1070
   172
1070
     1
1070
   279
1070
     0
1070
   288
1070
     0
1002
}
  0
ARC
  5
46
330
2
100
AcDbEntity
  8
GAIKEI
100
AcDbCircle
 10
36.02074276865339
 20
-18.43161522167371
 30
0.0
 40
16.57827481891813
100
AcDbArc
 50
70.0616332233228
 51
82.83655129852879
  0
ARC
  5
47
330
2
100
AcDbEntity
  8
GAIKEI
100
AcDbCircle
 10
29.61334704912953
 20
-17.27544131592951
 30
0.0
 40
15.00936247034608
100
AcDbArc
 50
96.58693607677401
 51
106.0382372516389
  0
ARC
  5
48
330
2
100
AcDbEntity
  8
GAIKEI
  6
Continuous
100
AcDbCircle
 10
34.07117357685436
 20
-1.040152451410775
 30
0.0
 40
0.4
100
AcDbArc
 50
90.0
 51
176.9999942712111
  0
ARC
  5
49
330
2
100
AcDbEntity
  8
GAIKEI
 62
     1
100
AcDbCircle
 10
-17.21386369048903
 20
169.8797837842856
 30
0.0
 40
172.2451368622826
100
AcDbArc
 50
270.087141166115
 51
273.7439666659791
  0
LINE
  5
4A
330
2
100
AcDbEntity
  8
GAIKEI
  6
Continuous
 62
     1
100
AcDbLine
 10
-2.721899880758285
 20
-3.400149951410853
 30
0.0
 11
-5.721899880758286
 21
-3.400149951410853
 31
0.0
  0
LINE
  5
4B
330
2
100
AcDbEntity
  8
GAIKEI
  6
Continuous
 62
     1
100
AcDbLine
 10
-5.721899880758286
 20
-3.400149951410853
 30
0.0
 11
-5.721899880758286
 21
-3.315154701410833
 31
0.0
  0
LINE
  5
4C
330
2
100
AcDbEntity
  8
GAIKEI
  6
Continuous
 62
     1
100
AcDbLine
 10
-2.721899880758285
 20
-3.400149951410853
 30
0.0
 11
-2.721899880758285
 21
-3.315154701410833
 31
0.0
  0
LINE
  5
4D
330
2
100
AcDbEntity
  8
GAIKEI
  6
Continuous
 62
     1
100
AcDbLine
 10
-11.7018998807583
 20
-3.400149951410853
 30
0.0
 11
-11.7018998807583
 21
-3.315154701410833
 31
0.0
  0
ARC
  5
4E
330
2
100
AcDbEntity
  8
GAIKEI
  6
HIDDEN2
 62
     1
100
AcDbCircle
 10
-1.549623130758249
 20
0.0170695485891344
 30
0.0
 40
0.05
100
AcDbArc
 50
181.0000009999991
 51
270.0
  0
LINE
  5
50
330
2
100
AcDbEntity
  8
GAIKEI
  6
HIDDEN2
 62
     1
100
AcDbLine
 10
-1.599615630758393
 20
0.0161970485891772
 30
0.0
 11
-1.60251088075833
 21
0.1820695485891548
 31
0.0
  0
ARC
  5
51
330
2
100
AcDbEntity
  8
GAIKEI
  6
HIDDEN2
 62
     1
100
AcDbCircle
 10
-1.545783130758166
 20
0.5670695485891457
 30
0.0
 40
0.05
100
AcDbArc
 50
90.0
 51
178.9999999999982
  0
LINE
  5
52
330
2
100
AcDbEntity
  8
GAIKEI
  6
HIDDEN2
 62
     1
100
AcDbLine
 10
-1.60251088075833
 20
0.1820695485891548
 30
0.0
 11
-1.595775380758452
 21
0.5679422985891877
 31
0.0
  0
LINE
  5
53
330
2
100
AcDbEntity
  8
GAIKEI
  6
Continuous
100
AcDbLine
 10
-2.718316376785935
 20
-3.265154701410764
 30
0.0
 11
-2.495770380758215
 21
-3.26515470141082
 31
0.0
  0
LINE
  5
54
330
2
100
AcDbEntity
  8
GAIKEI
  6
Continuous
 62
     1
100
AcDbLine
 10
-2.719110880758393
 20
-3.315154701410833
 30
0.0
 11
-2.718316376785935
 21
-3.265154701410764
 31
0.0
  0
LINE
  5
55
330
2
100
AcDbEntity
  8
GAIKEI
  6
Continuous
100
AcDbLine
 10
-2.544030130758385
 20
-3.315152951410808
 30
0.0
 11
-2.543157380758514
 21
-3.265153701410881
 31
0.0
  0
LINE
  5
56
330
2
100
AcDbEntity
  8
GAIKEI
100
AcDbLine
 10
-9.465728972798927
 20
-1.938856104673774
 30
0.0
 11
-6.625152800923927
 21
-1.960470179380861
 31
0.0
  0
ARC
  5
57
330
2
100
AcDbEntity
  8
GAIKEI
100
AcDbCircle
 10
-9.539648169551439
 20
-23.49974424758402
 30
0.0
 40
21.79684751240989
100
AcDbArc
 50
71.33876240204347
 51
80.79333714661627
  0
ARC
  5
58
330
2
100
AcDbEntity
  8
GAIKEI
100
AcDbCircle
 10
-6.480676049126912
 20
-5.475051327061052
 30
0.0
 40
3.517549456004707
100
AcDbArc
 50
83.00403043973124
 51
92.35397894531805
  0
LINE
  5
59
330
2
100
AcDbEntity
  8
GAIKEI
100
AcDbLine
 10
-2.565265105611473
 20
-2.848823145689365
 30
0.0
 11
-2.514068816548926
 21
-2.91609380608979
 31
0.0
  0
LINE
  5
5A
330
2
100
AcDbEntity
  8
GAIKEI
100
AcDbLine
 10
-2.514068816548926
 20
-2.91609380608979
 30
0.0
 11
-2.495770380758215
 21
-3.26515470141082
 31
0.0
  0
LINE
  5
5B
330
2
100
AcDbEntity
  8
GAIKEI
100
AcDbLine
 10
-9.542464380758332
 20
-0.4625397014108188
 30
0.0
 11
-9.465092880758303
 21
-1.938861201410857
 31
0.0
  0
LINE
  5
5C
330
2
100
AcDbEntity
  8
GAIKEI
100
AcDbLine
 10
-9.465728972798927
 20
-1.938856104673774
 30
0.0
 11
-9.53427180170398
 21
-2.103232782933432
 31
0.0
  0
LINE
  5
5D
330
2
100
AcDbEntity
  8
GAIKEI
100
AcDbLine
 10
-9.53427180170398
 20
-2.103232782933432
 30
0.0
 11
-7.87822661830141
 21
-2.1121725775249
 31
0.0
  0
ARC
  5
5E
330
2
100
AcDbEntity
  8
GAIKEI
 62
     1
100
AcDbCircle
 10
-16.95190014999986
 20
74.22520269736679
 30
0.0
 40
75.22807432498495
100
AcDbArc
 50
264.3713243723748
 51
275.628676200609
  0
LINE
  5
5F
330
2
100
AcDbEntity
  8
GAIKEI
100
AcDbLine
 10
-24.33034363075839
 20
-0.6401547014108218
 30
0.0
 11
-9.573455880758132
 21
-0.6401547014108218
 31
0.0
  0
LINE
  5
60
330
2
100
AcDbEntity
  8
GAIKEI
100
AcDbLine
 10
-24.36952795981263
 20
-2.103232782933432
 30
0.0
 11
-26.0255731432152
 21
-2.1121725775249
 31
0.0
  0
LINE
  5
61
330
2
100
AcDbEntity
  8
GAIKEI
100
AcDbLine
 10
-24.43807078871768
 20
-1.938856104673774
 30
0.0
 11
-24.36952795981263
 21
-2.103232782933432
 31
0.0
  0
LINE
  5
62
330
2
100
AcDbEntity
  8
GAIKEI
100
AcDbLine
 10
-24.36133538075828
 20
-0.4625397014108188
 30
0.0
 11
-24.4387068807583
 21
-1.938861201410857
 31
0.0
  0
LINE
  5
63
330
2
100
AcDbEntity
  8
GAIKEI
 62
     1
100
AcDbLine
 10
-31.33177648227647
 20
-2.846541956724522
 30
0.0
 11
-2.733209338522641
 21
-2.846541956724522
 31
0.0
  0
LINE
  5
64
330
2
100
AcDbEntity
  8
GAIKEI
100
AcDbLine
 10
-31.38973094496768
 20
-2.91609380608979
 30
0.0
 11
-31.40802938075839
 21
-3.26515470141082
 31
0.0
  0
LINE
  5
65
330
2
100
AcDbEntity
  8
GAIKEI
100
AcDbLine
 10
-31.33853465590514
 20
-2.848823145689365
 30
0.0
 11
-31.38973094496768
 21
-2.91609380608979
 31
0.0
  0
ARC
  5
66
330
2
100
AcDbEntity
  8
GAIKEI
100
AcDbCircle
 10
-27.4231237123897
 20
-5.475051327061052
 30
0.0
 40
3.517549456004707
100
AcDbArc
 50
87.64602105468195
 51
96.99596956026876
  0
ARC
  5
67
330
2
100
AcDbEntity
  8
GAIKEI
100
AcDbCircle
 10
-24.36415159196517
 20
-23.49974424758402
 30
0.0
 40
21.79684751240989
100
AcDbArc
 50
99.20666285338372
 51
108.6612375979565
  0
LINE
  5
68
330
2
100
AcDbEntity
  8
GAIKEI
100
AcDbLine
 10
-24.43807078871768
 20
-1.938856104673774
 30
0.0
 11
-27.27864696059268
 21
-1.960470179380861
 31
0.0
  0
ARC
  5
69
330
2
100
AcDbEntity
  8
GAIKEI
 62
     1
100
AcDbCircle
 10
-16.68993607102757
 20
169.8797837842856
 30
0.0
 40
172.2451368622826
100
AcDbArc
 50
266.2560333340209
 51
269.912858833885
  0
DIMENSION
  5
6A
330
2
100
AcDbEntity
  8
SUNPO
100
AcDbDimension
  2
*D9
 10
0.6481001192416041
 20
-11.54147869855508
 30
0.0
 11
-16.9518998807583
 21
-9.79147869855508
 31
0.0
 70
    33
  1
704
 71
     5
 42
35.19999999999981
  3
STANDARD
100
AcDbAlignedDimension
 13
-34.55189988075821
 23
-3.541478698555109
 33
0.0
 14
0.6481001192416045
 24
-3.541478698555109
 34
0.0
1001
ACAD
1000
DSTYLE
1002
{
1070
    40
1040
1.0
1070
   140
1040
2.5
1070
   147
1040
0.5
1070
   172
1070
     1
1070
   279
1070
     0
1070
   288
1070
     0
1002
}
  0
LINE
  5
77
330
2
100
AcDbEntity
  8
GAIKEI
  6
HIDDEN2
 62
     1
100
AcDbLine
 10
34.95308407258104
 20
5.517069798589105
 30
0.0
 11
35.39532307258106
 21
5.517069798589105
 31
0.0
  0
LINE
  5
78
330
2
100
AcDbEntity
  8
GAIKEI
  6
HIDDEN2
 62
     1
100
AcDbLine
 10
34.68118557258101
 20
0.6170697985892418
 30
0.0
 11
36.91722157258103
 21
0.6170697985892418
 31
0.0
  0
LINE
  5
79
330
2
100
AcDbEntity
  8
GAIKEI
  6
HIDDEN2
 62
     1
100
AcDbLine
 10
34.73533557258106
 20
1.487069798589131
 30
0.0
 11
35.54920357258102
 21
1.487069798589131
 31
0.0
  0
LINE
  5
7A
330
2
100
AcDbEntity
  8
GAIKEI
  6
HIDDEN2
 62
     1
100
AcDbLine
 10
34.73498657258104
 20
1.46706979858915
 30
0.0
 11
35.569203572581
 21
1.46706979858915
 31
0.0
  0
LINE
  5
7B
330
2
100
AcDbEntity
  8
GAIKEI
  6
HIDDEN2
 62
     1
100
AcDbLine
 10
34.73935032258102
 20
1.71706979858915
 30
0.0
 11
35.569203572581
 21
1.71706979858915
 31
0.0
  0
LINE
  5
7C
330
2
100
AcDbEntity
  8
GAIKEI
  6
HIDDEN2
 62
     1
100
AcDbLine
 10
34.73900132258099
 20
1.697069798589168
 30
0.0
 11
35.54920357258102
 21
1.697069798589168
 31
0.0
  0
LINE
  5
7D
330
2
100
AcDbEntity
  8
GAIKEI
  6
HIDDEN2
 62
     1
100
AcDbLine
 10
34.77827507258105
 20
3.947069798589168
 30
0.0
 11
35.524203572581
 21
3.947069798589168
 31
0.0
  0
LINE
  5
7E
330
2
100
AcDbEntity
  8
GAIKEI
  6
HIDDEN2
 62
     1
100
AcDbLine
 10
34.77460957258099
 20
3.737069798589131
 30
0.0
 11
35.524203572581
 21
3.737069798589131
 31
0.0
  0
LINE
  5
7F
330
2
100
AcDbEntity
  8
GAIKEI
  6
HIDDEN2
 62
     1
100
AcDbLine
 10
34.77426032258104
 20
3.717069798589149
 30
0.0
 11
35.54420357258103
 21
3.717069798589149
 31
0.0
  0
LINE
  5
80
330
2
100
AcDbEntity
  8
GAIKEI
  6
HIDDEN2
 62
     1
100
AcDbLine
 10
34.77862432258099
 20
3.967069798589149
 30
0.0
 11
35.54420357258103
 21
3.967069798589149
 31
0.0
  0
LINE
  5
81
330
2
100
AcDbEntity
  8
GAIKEI
  6
HIDDEN2
 62
     1
100
AcDbLine
 10
35.62397007258103
 20
0.8627065485891447
 30
0.0
 11
35.60382057258097
 21
2.017069798589104
 31
0.0
  0
LINE
  5
82
330
2
100
AcDbEntity
  8
GAIKEI
  6
HIDDEN2
 62
     1
100
AcDbLine
 10
34.72443732258098
 20
0.8627065485891447
 30
0.0
 11
34.803107072581
 21
5.369687548589141
 31
0.0
  0
ARC
  5
83
330
2
100
AcDbEntity
  8
GAIKEI
  6
HIDDEN2
 62
     1
100
AcDbCircle
 10
35.39532307258109
 20
5.367069798589241
 30
0.0
 40
0.15
100
AcDbArc
 50
0.9999999999757104
 51
90.0
  0
ARC
  5
84
330
2
100
AcDbEntity
  8
GAIKEI
  6
HIDDEN2
 62
     1
100
AcDbCircle
 10
34.95308407258106
 20
5.367069798589241
 30
0.0
 40
0.15
100
AcDbArc
 50
90.0
 51
179.0000000000242
  0
LINE
  5
85
330
2
100
AcDbEntity
  8
GAIKEI
  6
HIDDEN2
 62
     1
100
AcDbLine
 10
35.47420357258103
 20
5.2632497985892
 30
0.0
 11
35.54709157258108
 21
5.267069798589105
 31
0.0
  0
LINE
  5
86
330
2
100
AcDbEntity
  8
GAIKEI
  6
HIDDEN2
 62
     1
100
AcDbLine
 10
35.47420357258103
 20
4.271804298589373
 30
0.0
 11
35.47420357258103
 21
5.2632497985892
 31
0.0
  0
LINE
  5
87
330
2
100
AcDbEntity
  8
GAIKEI
  6
HIDDEN2
 62
     1
100
AcDbLine
 10
35.47420357258103
 20
4.271804298589373
 30
0.0
 11
35.56454657258105
 21
4.267069798589105
 31
0.0
  0
LINE
  5
88
330
2
100
AcDbEntity
  8
GAIKEI
  6
HIDDEN2
 62
     1
100
AcDbLine
 10
35.47420357258103
 20
3.411557548589158
 30
0.0
 11
35.57938332258102
 21
3.417069798589196
 31
0.0
  0
LINE
  5
89
330
2
100
AcDbEntity
  8
GAIKEI
  6
HIDDEN2
 62
     1
100
AcDbLine
 10
35.54709157258108
 20
5.267069798589105
 30
0.0
 11
35.54530032258102
 21
5.369687548589141
 31
0.0
  0
LINE
  5
8A
330
2
100
AcDbEntity
  8
GAIKEI
  6
HIDDEN2
 62
     1
100
AcDbLine
 10
35.57938332258102
 20
3.417069798589196
 30
0.0
 11
35.56454657258105
 21
4.267069798589105
 31
0.0
  0
LINE
  5
8B
330
2
100
AcDbEntity
  8
GAIKEI
  6
HIDDEN2
 62
     1
100
AcDbLine
 10
35.54920357258102
 20
1.697069798589168
 30
0.0
 11
35.60837332258105
 21
1.75623929858922
 31
0.0
  0
LINE
  5
8C
330
2
100
AcDbEntity
  8
GAIKEI
  6
HIDDEN2
 62
     1
100
AcDbLine
 10
35.54920357258102
 20
1.487069798589131
 30
0.0
 11
35.61420632258104
 21
1.422067048589283
 31
0.0
  0
LINE
  5
8D
330
2
100
AcDbEntity
  8
GAIKEI
  6
HIDDEN2
 62
     1
100
AcDbLine
 10
35.54920357258102
 20
1.487069798589131
 30
0.0
 11
35.54920357258102
 21
1.697069798589168
 31
0.0
  0
LINE
  5
8E
330
2
100
AcDbEntity
  8
GAIKEI
  6
HIDDEN2
 62
     1
100
AcDbLine
 10
35.524203572581
 20
3.737069798589131
 30
0.0
 11
35.524203572581
 21
3.947069798589168
 31
0.0
  0
LINE
  5
8F
330
2
100
AcDbEntity
  8
GAIKEI
  6
HIDDEN2
 62
     1
100
AcDbLine
 10
35.524203572581
 20
3.947069798589168
 30
0.0
 11
35.56934432258103
 21
3.992210298589056
 31
0.0
  0
LINE
  5
90
330
2
100
AcDbEntity
  8
GAIKEI
  6
HIDDEN2
 62
     1
100
AcDbLine
 10
35.524203572581
 20
3.737069798589131
 30
0.0
 11
35.57467882258102
 21
3.686594548589268
 31
0.0
  0
LINE
  5
91
330
2
100
AcDbEntity
  8
GAIKEI
  6
HIDDEN2
 62
     1
100
AcDbLine
 10
36.92437832258101
 20
0.2070697985891599
 30
0.0
 11
36.91722157258103
 21
0.6170695485891571
 31
0.0
  0
LINE
  5
92
330
2
100
AcDbEntity
  8
GAIKEI
  6
HIDDEN2
 62
     1
100
AcDbLine
 10
34.67072782258102
 20
0.0179422985891193
 30
0.0
 11
34.67420357258102
 21
0.2170697985891508
 31
0.0
  0
ARC
  5
93
330
2
100
AcDbEntity
  8
GAIKEI
  6
HIDDEN2
 62
     1
100
AcDbCircle
 10
34.47447532258109
 20
0.8670697985892417
 30
0.0
 40
0.25
100
AcDbArc
 50
326.5828530000069
 51
359.0000000000243
  0
ARC
  5
94
330
2
100
AcDbEntity
  8
GAIKEI
  6
HIDDEN2
 62
     1
100
AcDbCircle
 10
35.87393182258107
 20
0.8670697985892417
 30
0.0
 40
0.25
100
AcDbArc
 50
180.9999999999757
 51
270.0
  0
LINE
  5
95
330
2
100
AcDbEntity
  8
GAIKEI
  6
HIDDEN2
 62
     1
100
AcDbLine
 10
34.72072032258099
 20
-0.0329302014108492
 30
0.0
 11
34.92420357258102
 21
-0.0329302014108492
 31
0.0
  0
LINE
  5
96
330
2
100
AcDbEntity
  8
GAIKEI
  6
HIDDEN2
 62
     1
100
AcDbLine
 10
34.895697322581
 20
0.016197048589234
 30
0.0
 11
34.89863632258103
 21
0.1845632985891967
 31
0.0
  0
LINE
  5
97
330
2
100
AcDbEntity
  8
GAIKEI
  6
HIDDEN2
 62
     1
100
AcDbLine
 10
34.67420357258102
 20
0.2170697985891508
 30
0.0
 11
34.68314607258101
 21
0.7293870485891745
 31
0.0
  0
ARC
  5
98
330
2
100
AcDbEntity
  8
GAIKEI
  6
HIDDEN2
 62
     1
100
AcDbCircle
 10
34.72072032258102
 20
0.0170697985891053
 30
0.0
 40
0.05
100
AcDbArc
 50
179.0000000000242
 51
270.0
  0
ARC
  5
99
330
2
100
AcDbEntity
  8
GAIKEI
  6
HIDDEN2
 62
     1
100
AcDbCircle
 10
34.84570507258103
 20
0.0170697985891053
 30
0.0
 40
0.05
100
AcDbArc
 50
270.0
 51
358.9999989999813
  0
LINE
  5
9A
330
2
100
AcDbEntity
  8
GAIKEI
  6
HIDDEN2
 62
     1
100
AcDbLine
 10
35.47420357258103
 20
2.467069798589149
 30
0.0
 11
35.60382057258097
 21
2.017069798589104
 31
0.0
  0
LINE
  5
9B
330
2
100
AcDbEntity
  8
GAIKEI
  6
HIDDEN2
 62
     1
100
AcDbLine
 10
35.47420357258103
 20
2.467069798589149
 30
0.0
 11
35.47420357258103
 21
3.411557548589158
 31
0.0
  0
LINE
  5
9C
330
2
100
AcDbEntity
  8
GAIKEI
  6
HIDDEN2
 62
     1
100
AcDbLine
 10
36.92420357258102
 20
0.2070697985891599
 30
0.0
 11
34.67420357258102
 21
0.1820697985892963
 31
0.0
  0
LINE
  5
9D
330
2
100
AcDbEntity
  8
GAIKEI
  6
HIDDEN2
 62
     1
100
AcDbLine
 10
34.92420357258102
 20
0.1848475485892464
 30
0.0
 11
34.92420357258102
 21
-0.1151524514107081
 31
0.0
  0
LINE
  5
9E
330
2
100
AcDbEntity
  8
GAIKEI
  6
HIDDEN2
 62
     1
100
AcDbLine
 10
39.42420357258102
 20
0.1848475485892464
 30
0.0
 11
39.42420357258102
 21
-0.1151524514107081
 31
0.0
  0
LINE
  5
9F
330
2
100
AcDbEntity
  8
GAIKEI
  6
HIDDEN2
 62
     1
100
AcDbLine
 10
34.92420357258102
 20
0.1848475485892464
 30
0.0
 11
39.42420357258102
 21
0.1848475485892464
 31
0.0
  0
LINE
  5
A0
330
2
100
AcDbEntity
  8
GAIKEI
  6
HIDDEN2
 62
     1
100
AcDbLine
 10
34.92420357258102
 20
-0.1151524514107081
 30
0.0
 11
39.42420357258102
 21
-0.1151524514107081
 31
0.0
  0
LINE
  5
A1
330
2
100
AcDbEntity
  8
GAIKEI
  6
Continuous
100
AcDbLine
 10
34.92420357258102
 20
-0.4151524514108901
 30
0.0
 11
39.42420357258102
 21
-0.4151524514108901
 31
0.0
  0
LINE
  5
A2
330
2
100
AcDbEntity
  8
GAIKEI
  6
HIDDEN2
 62
     1
100
AcDbLine
 10
34.92420357258102
 20
-0.1151524514107081
 30
0.0
 11
34.92420357258102
 21
-0.4151524514108901
 31
0.0
  0
LINE
  5
A3
330
2
100
AcDbEntity
  8
GAIKEI
  6
HIDDEN2
 62
     1
100
AcDbLine
 10
39.42420357258102
 20
-0.1151524514107081
 30
0.0
 11
39.42420357258102
 21
-0.4151524514108901
 31
0.0
  0
LINE
  5
A4
330
2
100
AcDbEntity
  8
GAIKEI
  6
HIDDEN2
 62
     1
100
AcDbLine
 10
-34.55189988075821
 20
-0.1151547014107876
 30
0.0
 11
-34.55189988075821
 21
0.1848452985891669
 31
0.0
  0
LINE
  5
A5
330
2
100
AcDbEntity
  8
GAIKEI
  6
HIDDEN2
 62
     1
100
AcDbLine
 10
0.6481001192416045
 20
-0.1151547014107876
 30
0.0
 11
0.6481001192416045
 21
0.1848452985891669
 31
0.0
  0
LINE
  5
A6
330
2
100
AcDbEntity
  8
GAIKEI
  6
HIDDEN2
 62
     1
100
AcDbLine
 10
-34.55189988075821
 20
0.1848452985891669
 30
0.0
 11
-1.602462380758281
 21
0.1848452985891669
 31
0.0
  0
LINE
  5
A7
330
2
100
AcDbEntity
  8
GAIKEI
  6
Continuous
100
AcDbLine
 10
36.19138182258105
 20
-2.008597701410948
 30
0.0
 11
29.20347757258101
 21
-2.308794701410747
 31
0.0
  0
LINE
  5
A8
330
2
100
AcDbEntity
  8
GAIKEI
  6
Continuous
100
AcDbLine
 10
37.31177207258101
 20
-1.96047270141092
 30
0.0
 11
36.19138182258105
 21
-2.008601951410796
 31
0.0
  0
LINE
  5
A9
330
2
100
AcDbEntity
  8
GAIKEI
  6
Continuous
100
AcDbLine
 10
37.81486282258103
 20
-1.93885770141081
 30
0.0
 11
37.311774572581
 21
-1.960472451410836
 31
0.0
  0
SPLINE
  5
AA
330
2
100
AcDbEntity
  8
GAIKEI
  6
Continuous
100
AcDbSpline
210
0.0
220
0.0
230
1.0
 70
     8
 71
     3
 72
     9
 73
     5
 74
     3
 42
0.0000000001
 43
0.0000000001
 44
0.000001
 12
-0.9902076422500524
 22
0.1396023826071465
 32
0.0
 13
-0.9859473551062224
 23
0.167056316728955
 33
0.0
 40
0.0
 40
0.0
 40
0.0
 40
0.0
 40
0.1233452203494447
 40
0.2767125891643447
 40
0.2767125891643447
 40
0.2767125891643447
 40
0.2767125891643447
 10
38.08805857807171
 20
-1.982742879908029
 30
0.0
 10
38.04734611813003
 20
-1.977003117693367
 30
0.0
 10
37.95623479171112
 20
-1.962580811227937
 30
0.0
 10
37.86525706221306
 20
-1.947398931811156
 30
0.0
 10
37.81485301166551
 20
-1.938858602564279
 30
0.0
 11
38.08805857807171
 21
-1.982742879908029
 31
0.0
 11
37.96614665895477
 21
-1.963993655513561
 31
0.0
 11
37.81485301166551
 21
-1.938858602564279
 31
0.0
  0
LINE
  5
AB
330
2
100
AcDbEntity
  8
GAIKEI
  6
Continuous
100
AcDbLine
 10
33.61406757258102
 20
-2.119323451410749
 30
0.0
 11
33.67172176504567
 21
-1.019218028973895
 31
0.0
  0
LINE
  5
AC
330
2
100
AcDbEntity
  8
GAIKEI
  6
Continuous
100
AcDbLine
 10
34.69158807258101
 20
-0.6401559514108472
 30
0.0
 11
34.70089507258098
 21
-0.4625432014108668
 31
0.0
  0
SPLINE
  5
AD
330
2
100
AcDbEntity
  8
GAIKEI
  6
Continuous
100
AcDbSpline
210
0.0
220
0.0
230
1.0
 70
     8
 71
     3
 72
     9
 73
     5
 74
     3
 42
0.0000000001
 43
0.0000000001
 44
0.000001
 12
0.0302589672827417
 22
0.999542092609902
 32
0.0
 13
0.9997531277520559
 23
-0.0222189907507327
 33
0.0
 40
0.0
 40
0.0
 40
0.0
 40
0.0
 40
0.0370349074766528
 40
0.0740697535800653
 40
0.0740697535800653
 40
0.0740697535800653
 40
0.0740697535800653
 10
34.7009003749467
 20
-0.4625402431892809
 30
0.0
 10
34.70127392096458
 20
-0.450200926883005
 30
0.0
 10
34.71304305575821
 20
-0.42532943676018
 30
0.0
 10
34.73849743871456
 20
-0.4148782555758631
 30
0.0
 10
34.75083933979046
 20
-0.415152547876872
 30
0.0
 11
34.7009003749467
 21
-0.4625402431892809
 31
0.0
 11
34.7164636943606
 21
-0.4289337744662163
 31
0.0
 11
34.75083933979046
 21
-0.415152547876872
 31
0.0
  0
LINE
  5
AE
330
2
100
AcDbEntity
  8
GAIKEI
  6
Continuous
100
AcDbLine
 10
34.750839322581
 20
-0.4151524514108901
 30
0.0
 11
40.48235782258099
 21
-0.4151524514108901
 31
0.0
  0
SPLINE
  5
AF
330
2
100
AcDbEntity
  8
GAIKEI
  6
Continuous
100
AcDbSpline
210
0.0
220
0.0
230
1.0
 70
     8
 71
     3
 72
     9
 73
     5
 74
     3
 42
0.0000000001
 43
0.0000000001
 44
0.000001
 12
-0.999279299987914
 22
0.0379589332788036
 32
0.0
 13
0.0476309352692855
 23
-0.9988650028934708
 33
0.0
 40
0.0
 40
0.0
 40
0.0
 40
0.0
 40
0.0266148015956585
 40
0.0614831060835242
 40
0.0614831060835242
 40
0.0614831060835242
 40
0.0614831060835242
 10
37.73676463275918
 20
-0.415152547876872
 30
0.0
 10
37.7278994259899
 20
-0.4148157913842059
 30
0.0
 10
37.70847769960798
 20
-0.4296432112396455
 30
0.0
 10
37.70436288491004
 20
-0.4509306668348934
 30
0.0
 10
37.70491648822805
 20
-0.4625402431892809
 30
0.0
 11
37.73676463275918
 21
-0.415152547876872
 31
0.0
 11
37.71395256094411
 21
-0.4288640893255007
 31
0.0
 11
37.70491648822805
 21
-0.4625402431892809
 31
0.0
  0
LINE
  5
B0
330
2
100
AcDbEntity
  8
GAIKEI
  6
Continuous
100
AcDbLine
 10
37.70490432258102
 20
-0.4625402014107607
 30
0.0
 11
34.70090032258101
 21
-0.4625402014107607
 31
0.0
  0
LINE
  5
B1
330
2
100
AcDbEntity
  8
GAIKEI
  6
Continuous
100
AcDbLine
 10
38.02513132258106
 20
-0.4625402014107607
 30
0.0
 11
37.70491657258107
 21
-0.4625402014107607
 31
0.0
  0
SPLINE
  5
B2
330
2
100
AcDbEntity
  8
GAIKEI
  6
Continuous
100
AcDbSpline
210
0.0
220
0.0
230
1.0
 70
     8
 71
     3
 72
    11
 73
     7
 74
     5
 42
0.0000000001
 43
0.0000000001
 44
0.000001
 12
0.9999999995578146
 22
-0.0000297383728632
 32
0.0
 13
0.0413160348323966
 23
-0.9991461280842399
 33
0.0
 40
0.0
 40
0.0
 40
0.0
 40
0.0
 40
0.0144937194587404
 40
0.0311929113558341
 40
0.0494761076260372
 40
0.0674599294913111
 40
0.0674599294913111
 40
0.0674599294913111
 40
0.0674599294913111
 10
37.9856904140092
 20
-0.415152547876872
 30
0.0
 10
37.99052165382665
 20
-0.4151526915500831
 30
0.0
 10
38.00100615031961
 20
-0.4178045527139929
 30
0.0
 10
38.01414818205645
 20
-0.4285643575712129
 30
0.0
 10
38.0225504424243
 20
-0.4445028080660327
 30
0.0
 10
38.02488365857442
 20
-0.4565507545276659
 30
0.0
 10
38.02513133197796
 20
-0.4625402431892809
 30
0.0
 11
37.9856904140092
 21
-0.415152547876872
 31
0.0
 11
37.99979106805996
 21
-0.4185093912182795
 31
0.0
 11
38.01287547260297
 21
-0.428885458033122
 31
0.0
 11
38.02172954893531
 21
-0.4448818610821519
 31
0.0
 11
38.02513133197796
 21
-0.4625402431892809
 31
0.0
  0
LINE
  5
B3
330
2
100
AcDbEntity
  8
GAIKEI
  6
Continuous
100
AcDbLine
 10
37.70490207258105
 20
-0.4625389514107924
 30
0.0
 11
37.69891157258101
 21
-0.6401599514108371
 31
0.0
  0
LINE
  5
B4
330
2
100
AcDbEntity
  8
GAIKEI
  6
Continuous
100
AcDbLine
 10
34.07117357685436
 20
-0.6401524514107991
 30
0.0
 11
37.69891057258107
 21
-0.6401524514107991
 31
0.0
  0
LINE
  5
B5
330
2
100
AcDbEntity
  8
GAIKEI
  6
Continuous
100
AcDbLine
 10
37.66166832258098
 20
-1.945445201410833
 30
0.0
 11
37.698912072581
 21
-0.6401537014107676
 31
0.0
  0
LINE
  5
B6
330
2
100
AcDbEntity
  8
GAIKEI
  6
Continuous
100
AcDbLine
 10
38.02512557258105
 20
-0.4625359514106863
 30
0.0
 11
38.08805132258103
 21
-1.982743201410798
 31
0.0
  0
ARC
  5
B7
330
2
100
AcDbEntity
  8
GAIKEI
  6
Continuous
100
AcDbCircle
 10
40.48235782258102
 20
-0.4651524514108445
 30
0.0
 40
0.05
100
AcDbArc
 50
2.99996500000379
 51
89.99996400000158
  0
LINE
  5
B8
330
2
100
AcDbEntity
  8
GAIKEI
  6
Continuous
100
AcDbLine
 10
40.53228457258099
 20
-0.4625402014107607
 30
0.0
 11
38.02513132258106
 21
-0.4625402014107607
 31
0.0
  0
LINE
  5
B9
330
2
100
AcDbEntity
  8
GAIKEI
  6
Continuous
100
AcDbLine
 10
40.53227882258098
 20
-0.4625332014106647
 30
0.0
 11
40.63956912073847
 21
-2.509754805853602
 31
0.0
  0
LINE
  5
BA
330
2
100
AcDbEntity
  8
GAIKEI
  6
Continuous
100
AcDbLine
 10
25.59426582258102
 20
-3.400149951410853
 30
0.0
 11
28.64170607258099
 21
-3.400149951410853
 31
0.0
  0
LINE
  5
BB
330
2
100
AcDbEntity
  8
GAIKEI
  6
Continuous
100
AcDbLine
 10
36.87416507258105
 20
-3.400149951410853
 30
0.0
 11
41.54426582258101
 21
-3.400149951410853
 31
0.0
  0
LINE
  5
BC
330
2
100
AcDbEntity
  8
GAIKEI
  6
HIDDEN2
 62
     1
100
AcDbLine
 10
-34.55189988075821
 20
-0.1151547014107876
 30
0.0
 11
0.6481001192416045
 21
-0.1151547014107876
 31
0.0
  0
LINE
  5
BD
330
2
100
AcDbEntity
  8
GAIKEI
  6
HIDDEN2
 62
     1
100
AcDbLine
 10
-34.55189988075821
 20
-0.415154701410856
 30
0.0
 11
0.6481001192416045
 21
-0.415154701410856
 31
0.0
  0
LINE
  5
BE
330
2
100
AcDbEntity
  8
GAIKEI
  6
HIDDEN2
 62
     1
100
AcDbLine
 10
0.6481001192416045
 20
-0.415154701410856
 30
0.0
 11
0.6481001192416045
 21
-0.1151547014107876
 31
0.0
  0
LINE
  5
BF
330
2
100
AcDbEntity
  8
GAIKEI
  6
HIDDEN2
 62
     1
100
AcDbLine
 10
-34.55189988075821
 20
-0.415154701410856
 30
0.0
 11
-34.55189988075821
 21
-0.1151547014107876
 31
0.0
  0
ARC
  5
C0
330
2
100
AcDbEntity
  8
GAIKEI
  6
Continuous
100
AcDbCircle
 10
41.64559432258106
 20
-2.91642570141083
 30
0.0
 40
0.075
100
AcDbArc
 50
3.000001000016101
 51
67.68834699999034
  0
ARC
  5
C1
330
2
100
AcDbEntity
  8
GAIKEI
  6
Continuous
100
AcDbCircle
 10
41.64559432258106
 20
-2.91642570141083
 30
0.0
 40
0.07500475
100
AcDbArc
 50
3.000001000016101
 51
67.68834699999034
  0
LINE
  5
C2
330
2
100
AcDbEntity
  8
GAIKEI
  6
Continuous
100
AcDbLine
 10
41.73897832258099
 20
-3.265154451410793
 30
0.0
 11
41.72049657258101
 21
-2.912501701410731
 31
0.0
  0
LINE
  5
C3
330
2
100
AcDbEntity
  8
GAIKEI
  6
Continuous
100
AcDbLine
 10
41.69159382258103
 20
-3.265154951410734
 30
0.0
 11
41.69072107258104
 21
-3.315154951410916
 31
0.0
  0
LINE
  5
C4
330
2
100
AcDbEntity
  8
GAIKEI
  6
Continuous
100
AcDbLine
 10
25.44248682258098
 20
-3.315155451410632
 30
0.0
 11
25.441614072581
 21
-3.265155451410676
 31
0.0
  0
LINE
  5
C5
330
2
100
AcDbEntity
  8
GAIKEI
  6
Continuous
100
AcDbLine
 10
25.412405822581
 20
-2.918438201410694
 30
0.0
 11
25.39423507258103
 21
-3.265154451410793
 31
0.0
  0
ARC
  5
C6
330
2
100
AcDbEntity
  8
GAIKEI
  6
Continuous
100
AcDbCircle
 10
41.64559432258106
 20
-2.91642570141083
 30
0.0
 40
0.075
100
AcDbArc
 50
3.000001000016101
 51
67.68834699999034
  0
ARC
  5
C7
330
2
100
AcDbEntity
  8
GAIKEI
  6
Continuous
100
AcDbCircle
 10
25.48730282258102
 20
-2.922362701410732
 30
0.0
 40
0.075
100
AcDbArc
 50
106.0408529999929
 51
177.0000160000058
  0
LINE
  5
C8
330
2
100
AcDbEntity
  8
GAIKEI
  6
Continuous
100
AcDbLine
 10
29.20349382258105
 20
-2.30879895141082
 30
0.0
 11
27.89161332258102
 21
-2.365156451410696
 31
0.0
  0
LINE
  5
C9
330
2
100
AcDbEntity
  8
GAIKEI
  6
Continuous
100
AcDbLine
 10
25.44248682258098
 20
-3.315154451410747
 30
0.0
 11
41.69072107258104
 21
-3.315154451410747
 31
0.0
  0
LINE
  5
CA
330
2
100
AcDbEntity
  8
GAIKEI
  6
Continuous
100
AcDbLine
 10
25.394234822581
 20
-3.265154451410793
 30
0.0
 11
41.73897807258103
 21
-3.265154451410793
 31
0.0
  0
LINE
  5
CB
330
2
100
AcDbEntity
  8
GAIKEI
  6
Continuous
100
AcDbLine
 10
-31.35976963075822
 20
-3.315152951410808
 30
0.0
 11
-31.36064238075809
 21
-3.265153701410881
 31
0.0
  0
LINE
  5
CC
330
2
100
AcDbEntity
  8
GAIKEI
  6
Continuous
 62
     1
100
AcDbLine
 10
-31.18468888075822
 20
-3.315154701410833
 30
0.0
 11
-31.18548338473067
 21
-3.265154701410764
 31
0.0
  0
LINE
  5
CD
330
2
100
AcDbEntity
  8
GAIKEI
  6
Continuous
100
AcDbLine
 10
-31.35977488075841
 20
-3.315154701410833
 30
0.0
 11
-2.721899880758285
 21
-3.315154701410833
 31
0.0
  0
LINE
  5
CE
330
2
100
AcDbEntity
  8
GAIKEI
  6
Continuous
100
AcDbLine
 10
-31.18548338473067
 20
-3.265154701410764
 30
0.0
 11
-31.40802938075839
 21
-3.26515470141082
 31
0.0
  0
LINE
  5
CF
330
2
100
AcDbEntity
  8
GAIKEI
  6
HIDDEN2
 62
     1
100
AcDbLine
 10
0.6481001192416045
 20
0.1920695485891457
 30
0.0
 11
-1.601899880758394
 21
0.1920695485891457
 31
0.0
  0
ARC
  5
D0
330
2
100
AcDbEntity
  8
GAIKEI
  6
HIDDEN2
 62
     1
100
AcDbCircle
 10
0.5952123692417503
 20
0.0170695485891344
 30
0.0
 40
0.05
100
AcDbArc
 50
270.0
 51
358.9999990000009
  0
ARC
  5
D1
330
2
100
AcDbEntity
  8
GAIKEI
  6
HIDDEN2
 62
     1
100
AcDbCircle
 10
-1.549623130758249
 20
0.0170695485891344
 30
0.0
 40
0.05
100
AcDbArc
 50
181.0000009999991
 51
270.0
  0
LINE
  5
D2
330
2
100
AcDbEntity
  8
GAIKEI
  6
HIDDEN2
 62
     1
100
AcDbLine
 10
-1.599615380758308
 20
0.0161970485891772
 30
0.0
 11
-1.60251088075833
 21
0.1820695485891548
 31
0.0
  0
LINE
  5
D3
330
2
100
AcDbEntity
  8
GAIKEI
  6
HIDDEN2
 62
     1
100
AcDbLine
 10
0.6452048692418943
 20
0.0161970485891772
 30
0.0
 11
0.6481001192416045
 21
0.1820695485891548
 31
0.0
  0
LINE
  5
D4
330
2
100
AcDbEntity
  8
GAIKEI
  6
HIDDEN2
 62
     1
100
AcDbLine
 10
0.5952123692417503
 20
-0.0329304514108202
 30
0.0
 11
-1.549623130758249
 21
-0.0329304514108202
 31
0.0
  0
ARC
  5
D5
330
2
100
AcDbEntity
  8
GAIKEI
  6
HIDDEN2
 62
     1
100
AcDbCircle
 10
0.5919833692416036
 20
0.5670695485891457
 30
0.0
 40
0.05
100
AcDbArc
 50
1.000000000001775
 51
90.0
  0
ARC
  5
D6
330
2
100
AcDbEntity
  8
GAIKEI
  6
HIDDEN2
 62
     1
100
AcDbCircle
 10
-1.545782880758309
 20
0.5670695485891457
 30
0.0
 40
0.05
100
AcDbArc
 50
90.0
 51
178.9999999999982
  0
LINE
  5
D7
330
2
100
AcDbEntity
  8
GAIKEI
  6
HIDDEN2
 62
     1
100
AcDbLine
 10
-1.60251088075833
 20
0.1820695485891548
 30
0.0
 11
-1.595775380758226
 21
0.5679422985891877
 31
0.0
  0
ARC
  5
D8
330
2
100
AcDbEntity
  8
GAIKEI
  6
HIDDEN2
 62
     1
100
AcDbCircle
 10
-0.5516281307580755
 20
0.8670695485891569
 30
0.0
 40
0.25
100
AcDbArc
 50
270.0
 51
358.9999999999982
  0
ARC
  5
D9
330
2
100
AcDbEntity
  8
GAIKEI
  6
HIDDEN2
 62
     1
100
AcDbCircle
 10
0.8478283692417392
 20
0.8670695485891569
 30
0.0
 40
0.25
100
AcDbArc
 50
181.0000000000017
 51
213.4171470000081
  0
LINE
  5
DA
330
2
100
AcDbEntity
  8
GAIKEI
  6
HIDDEN2
 62
     1
100
AcDbLine
 10
0.6487111192417672
 20
0.1820695485891548
 30
0.0
 11
0.639157619241729
 21
0.7293870485891745
 31
0.0
  0
CIRCLE
  5
DB
330
2
100
AcDbEntity
  8
GAIKEI
  6
HIDDEN2
 62
     1
100
AcDbCircle
 10
0.1481001192416045
 20
1.589153048589209
 30
0.0
 40
0.16708625
  0
CIRCLE
  5
DC
330
2
100
AcDbEntity
  8
GAIKEI
  6
HIDDEN2
 62
     1
100
AcDbCircle
 10
0.1481001192416045
 20
3.8389657985892
 30
0.0
 40
0.1778155
  0
CIRCLE
  5
DD
330
2
100
AcDbEntity
  8
GAIKEI
  6
HIDDEN2
 62
     1
100
AcDbCircle
 10
0.1481001192416045
 20
1.592069548589178
 30
0.0
 40
0.105
  0
CIRCLE
  5
DE
330
2
100
AcDbEntity
  8
GAIKEI
  6
HIDDEN2
 62
     1
100
AcDbCircle
 10
0.1481001192416045
 20
3.842069548589122
 30
0.0
 40
0.105
  0
CIRCLE
  5
DF
330
2
100
AcDbEntity
  8
GAIKEI
  6
HIDDEN2
 62
     1
100
AcDbCircle
 10
0.1481001192416045
 20
1.592069548589178
 30
0.0
 40
0.125
  0
CIRCLE
  5
E0
330
2
100
AcDbEntity
  8
GAIKEI
  6
HIDDEN2
 62
     1
100
AcDbCircle
 10
0.1481001192416045
 20
3.842069548589122
 30
0.0
 40
0.125
  0
LINE
  5
E1
330
2
100
AcDbEntity
  8
GAIKEI
  6
HIDDEN2
 62
     1
100
AcDbLine
 10
0.369219619241818
 20
5.517069548589134
 30
0.0
 11
-0.0730193807583817
 21
5.517069548589134
 31
0.0
  0
LINE
  5
E2
330
2
100
AcDbEntity
  8
GAIKEI
  6
HIDDEN2
 62
     1
100
AcDbLine
 10
0.5919833692416036
 20
0.6170695485891571
 30
0.0
 11
-1.545782880758309
 21
0.6170695485891571
 31
0.0
  0
LINE
  5
E3
330
2
100
AcDbEntity
  8
GAIKEI
  6
HIDDEN2
 62
     1
100
AcDbLine
 10
-0.3016661307582069
 20
0.8627065485891447
 30
0.0
 11
-0.2229963807581896
 21
5.369687548589141
 31
0.0
  0
LINE
  5
E4
330
2
100
AcDbEntity
  8
GAIKEI
  6
HIDDEN2
 62
     1
100
AcDbLine
 10
0.5978663692416433
 20
0.8627065485891447
 30
0.0
 11
0.5191968692417106
 21
5.369687548589141
 31
0.0
  0
ARC
  5
E5
330
2
100
AcDbEntity
  8
GAIKEI
  6
HIDDEN2
 62
     1
100
AcDbCircle
 10
-0.0730193807583817
 20
5.367069548589157
 30
0.0
 40
0.15
100
AcDbArc
 50
90.0
 51
178.9999999999982
  0
ARC
  5
E6
330
2
100
AcDbEntity
  8
GAIKEI
  6
HIDDEN2
 62
     1
100
AcDbCircle
 10
0.369219619241818
 20
5.367069548589157
 30
0.0
 40
0.15
100
AcDbArc
 50
1.000000000001775
 51
90.0
  0
LINE
  5
E7
330
2
100
AcDbEntity
  8
GAIKEI
  6
HIDDEN2
 62
     1
100
AcDbLine
 10
-32.30128888075828
 20
0.1820695485891548
 30
0.0
 11
-32.30802438075816
 21
0.5679422985891877
 31
0.0
  0
LINE
  5
E8
330
2
100
AcDbEntity
  8
GAIKEI
  6
HIDDEN2
 62
     1
100
AcDbLine
 10
-34.55251088075815
 20
0.1820695485891548
 30
0.0
 11
-34.54295738075811
 21
0.7293870485891745
 31
0.0
  0
ARC
  5
E9
330
2
100
AcDbEntity
  8
GAIKEI
  6
HIDDEN2
 62
     1
100
AcDbCircle
 10
-34.27301938075843
 20
5.367069548589157
 30
0.0
 40
0.15
100
AcDbArc
 50
90.0
 51
178.9999999999982
  0
ARC
  5
EA
330
2
100
AcDbEntity
  8
GAIKEI
  6
HIDDEN2
 62
     1
100
AcDbCircle
 10
-33.83078038075823
 20
5.367069548589157
 30
0.0
 40
0.15
100
AcDbArc
 50
1.000000000001775
 51
90.0
  0
LINE
  5
EB
330
2
100
AcDbEntity
  8
GAIKEI
  6
HIDDEN2
 62
     1
100
AcDbLine
 10
-34.50166613075825
 20
0.8627065485891447
 30
0.0
 11
-34.42299638075823
 21
5.369687548589141
 31
0.0
  0
LINE
  5
EC
330
2
100
AcDbEntity
  8
GAIKEI
  6
HIDDEN2
 62
     1
100
AcDbLine
 10
-33.6021336307584
 20
0.8627065485891447
 30
0.0
 11
-33.68080313075811
 21
5.369687548589141
 31
0.0
  0
LINE
  5
ED
330
2
100
AcDbEntity
  8
GAIKEI
  6
HIDDEN2
 62
     1
100
AcDbLine
 10
-34.49578288075836
 20
0.6170695485891571
 30
0.0
 11
-32.35801663075844
 21
0.6170695485891571
 31
0.0
  0
LINE
  5
EE
330
2
100
AcDbEntity
  8
GAIKEI
  6
HIDDEN2
 62
     1
100
AcDbLine
 10
-34.27301938075843
 20
5.517069548589134
 30
0.0
 11
-33.83078038075823
 21
5.517069548589134
 31
0.0
  0
CIRCLE
  5
EF
330
2
100
AcDbEntity
  8
GAIKEI
  6
HIDDEN2
 62
     1
100
AcDbCircle
 10
-34.05189988075822
 20
3.842069548589122
 30
0.0
 40
0.125
  0
CIRCLE
  5
F0
330
2
100
AcDbEntity
  8
GAIKEI
  6
HIDDEN2
 62
     1
100
AcDbCircle
 10
-34.05189988075822
 20
1.592069548589178
 30
0.0
 40
0.125
  0
CIRCLE
  5
F1
330
2
100
AcDbEntity
  8
GAIKEI
  6
HIDDEN2
 62
     1
100
AcDbCircle
 10
-34.05189988075822
 20
3.842069548589122
 30
0.0
 40
0.105
  0
CIRCLE
  5
F2
330
2
100
AcDbEntity
  8
GAIKEI
  6
HIDDEN2
 62
     1
100
AcDbCircle
 10
-34.05189988075822
 20
1.592069548589178
 30
0.0
 40
0.105
  0
CIRCLE
  5
F3
330
2
100
AcDbEntity
  8
GAIKEI
  6
HIDDEN2
 62
     1
100
AcDbCircle
 10
-34.05189988075822
 20
3.8389657985892
 30
0.0
 40
0.1778155
  0
CIRCLE
  5
F4
330
2
100
AcDbEntity
  8
GAIKEI
  6
HIDDEN2
 62
     1
100
AcDbCircle
 10
-34.05189988075822
 20
1.589153048589209
 30
0.0
 40
0.16708625
  0
ARC
  5
F5
330
2
100
AcDbEntity
  8
GAIKEI
  6
HIDDEN2
 62
     1
100
AcDbCircle
 10
-34.75162813075812
 20
0.8670695485891569
 30
0.0
 40
0.25
100
AcDbArc
 50
326.582852999992
 51
358.9999999999982
  0
ARC
  5
F6
330
2
100
AcDbEntity
  8
GAIKEI
  6
HIDDEN2
 62
     1
100
AcDbCircle
 10
-33.35217163075831
 20
0.8670695485891569
 30
0.0
 40
0.25
100
AcDbArc
 50
181.0000000000017
 51
270.0
  0
ARC
  5
F7
330
2
100
AcDbEntity
  8
GAIKEI
  6
HIDDEN2
 62
     1
100
AcDbCircle
 10
-32.35801663075844
 20
0.5670695485891457
 30
0.0
 40
0.05
100
AcDbArc
 50
1.000000000001775
 51
90.0
  0
ARC
  5
F8
330
2
100
AcDbEntity
  8
GAIKEI
  6
HIDDEN2
 62
     1
100
AcDbCircle
 10
-34.49578288075836
 20
0.5670695485891457
 30
0.0
 40
0.05
100
AcDbArc
 50
90.0
 51
178.9999999999982
  0
ARC
  5
F9
330
2
100
AcDbEntity
  8
GAIKEI
  6
HIDDEN2
 62
     1
100
AcDbCircle
 10
-34.49901213075813
 20
0.0170695485891344
 30
0.0
 40
0.05
100
AcDbArc
 50
181.0000009999991
 51
270.0
  0
LINE
  5
FA
330
2
100
AcDbEntity
  8
GAIKEI
  6
HIDDEN2
 62
     1
100
AcDbLine
 10
-32.30418413075822
 20
0.0161970485891772
 30
0.0
 11
-32.30128888075828
 21
0.1820695485891548
 31
0.0
  0
LINE
  5
FB
330
2
100
AcDbEntity
  8
GAIKEI
  6
HIDDEN2
 62
     1
100
AcDbLine
 10
-34.49901213075813
 20
-0.0329304514108202
 30
0.0
 11
-32.35417663075836
 21
-0.0329304514108202
 31
0.0
  0
ARC
  5
FC
330
2
100
AcDbEntity
  8
GAIKEI
  6
HIDDEN2
 62
     1
100
AcDbCircle
 10
-32.35417663075836
 20
0.0170695485891344
 30
0.0
 40
0.05
100
AcDbArc
 50
270.0
 51
358.9999990000009
  0
LINE
  5
FD
330
2
100
AcDbEntity
  8
GAIKEI
  6
HIDDEN2
 62
     1
100
AcDbLine
 10
-34.55189988075821
 20
0.1920695485891457
 30
0.0
 11
-32.30189988075821
 21
0.1920695485891457
 31
0.0
  0
LINE
  5
FE
330
2
100
AcDbEntity
  8
GAIKEI
  6
HIDDEN2
 62
     1
100
AcDbLine
 10
-34.54900463075829
 20
0.0161970485891772
 30
0.0
 11
-34.55189988075821
 21
0.1820695485891548
 31
0.0
  0
LINE
  5
FF
330
2
100
AcDbEntity
  8
GAIKEI
  6
Continuous
 62
     1
100
AcDbLine
 10
-22.2018998807583
 20
-3.400149951410853
 30
0.0
 11
-11.7018998807583
 21
-3.400149951410853
 31
0.0
  0
LINE
  5
100
330
2
100
AcDbEntity
  8
GAIKEI
  6
Continuous
 62
     1
100
AcDbLine
 10
-22.2018998807583
 20
-3.400149951410853
 30
0.0
 11
-22.2018998807583
 21
-3.315154701410833
 31
0.0
  0
LINE
  5
101
330
2
100
AcDbEntity
  8
GAIKEI
  6
Continuous
 62
     1
100
AcDbLine
 10
-31.18189988075832
 20
-3.400149951410853
 30
0.0
 11
-31.18189988075832
 21
-3.315154701410833
 31
0.0
  0
LINE
  5
102
330
2
100
AcDbEntity
  8
GAIKEI
  6
Continuous
 62
     1
100
AcDbLine
 10
-28.18189988075832
 20
-3.400149951410853
 30
0.0
 11
-28.18189988075832
 21
-3.315154701410833
 31
0.0
  0
LINE
  5
103
330
2
100
AcDbEntity
  8
GAIKEI
  6
Continuous
 62
     1
100
AcDbLine
 10
-31.18189988075832
 20
-3.400149951410853
 30
0.0
 11
-28.18189988075832
 21
-3.400149951410853
 31
0.0
  0
LINE
  5
104
330
2
100
AcDbEntity
  8
GAIKEI
  6
Continuous
100
AcDbLine
 10
39.87416507258105
 20
-3.315154451410747
 30
0.0
 11
39.87416507258105
 21
-3.400149951410853
 31
0.0
  0
LINE
  5
105
330
2
100
AcDbEntity
  8
GAIKEI
  6
Continuous
100
AcDbLine
 10
36.87416507258105
 20
-3.315154451410747
 30
0.0
 11
36.87416507258105
 21
-3.400149951410853
 31
0.0
  0
LINE
  5
106
330
2
100
AcDbEntity
  8
GAIKEI
  6
Continuous
100
AcDbLine
 10
41.54426582258101
 20
-3.315154451410747
 30
0.0
 11
41.54426582258101
 21
-3.400149951410853
 31
0.0
  0
LINE
  5
107
330
2
100
AcDbEntity
  8
GAIKEI
  6
Continuous
100
AcDbLine
 10
28.64170607258099
 20
-3.315154451410747
 30
0.0
 11
28.64170607258099
 21
-3.400149951410853
 31
0.0
  0
LINE
  5
108
330
2
100
AcDbEntity
  8
GAIKEI
  6
Continuous
100
AcDbLine
 10
25.59426582258102
 20
-3.315154451410747
 30
0.0
 11
25.59426582258102
 21
-3.400149951410853
 31
0.0
  0
POINT
  5
109
330
2
100
AcDbEntity
  8
GAIKEI
  6
HIDDEN2
 62
     1
100
AcDbPoint
 10
-34.05189988075822
 20
3.8389657985892
 30
0.0
  0
POINT
  5
10A
330
2
100
AcDbEntity
  8
GAIKEI
  6
HIDDEN2
 62
     1
100
AcDbPoint
 10
-34.05189988075822
 20
1.589153048589209
 30
0.0
  0
LINE
  5
10B
330
2
100
AcDbEntity
  8
GAIKEI
  6
Continuous
 62
     1
100
AcDbLine
 10
-41.05818883075833
 20
28.58484529858916
 30
0.0
 11
-41.05818883075833
 21
1.084845298589157
 31
0.0
  0
LINE
  5
10C
330
2
100
AcDbEntity
  8
GAIKEI
  6
Continuous
 62
     1
100
AcDbLine
 10
-41.13189988075825
 20
28.58484529858916
 30
0.0
 11
-41.13189988075825
 21
1.084845298589157
 31
0.0
  0
LINE
  5
10D
330
2
100
AcDbEntity
  8
GAIKEI
  6
Continuous
 62
     1
100
AcDbLine
 10
-41.05189988075832
 20
28.58484529858916
 30
0.0
 11
-41.05189988075832
 21
1.084845298589157
 31
0.0
  0
LINE
  5
10E
330
2
100
AcDbEntity
  8
GAIKEI
  6
Continuous
 62
     1
100
AcDbLine
 10
-42.06689988075831
 20
29.49984529858918
 30
0.0
 11
-42.06689988075831
 21
0.1698452985891379
 31
0.0
  0
LINE
  5
10F
330
2
100
AcDbEntity
  8
GAIKEI
  6
Continuous
 62
     1
100
AcDbLine
 10
-16.9518998807583
 20
28.69113424858912
 30
0.0
 11
-40.95189988075829
 21
28.69113424858912
 31
0.0
  0
LINE
  5
110
330
2
100
AcDbEntity
  8
GAIKEI
  6
Continuous
 62
     1
100
AcDbLine
 10
-40.95189988075829
 20
28.76484529858917
 30
0.0
 11
-16.9518998807583
 21
28.76484529858917
 31
0.0
  0
LINE
  5
111
330
2
100
AcDbEntity
  8
GAIKEI
  6
Continuous
 62
     1
100
AcDbLine
 10
-40.95189988075829
 20
28.68484529858913
 30
0.0
 11
-16.9518998807583
 21
28.68484529858913
 31
0.0
  0
LINE
  5
112
330
2
100
AcDbEntity
  8
GAIKEI
  6
Continuous
 62
     1
100
AcDbLine
 10
-16.9518998807583
 20
29.69984529858917
 30
0.0
 11
-41.86689988075825
 21
29.69984529858917
 31
0.0
  0
LINE
  5
113
330
2
100
AcDbEntity
  8
GAIKEI
  6
Continuous
 62
     1
100
AcDbLine
 10
-42.14577413075832
 20
29.97871954858917
 30
0.0
 11
8.241974369241718
 21
29.97871954858917
 31
0.0
  0
LINE
  5
114
330
2
100
AcDbEntity
  8
GAIKEI
  6
Continuous
100
AcDbLine
 10
-42.45189988075829
 20
-0.215154701410853
 30
0.0
 11
-42.45189988075829
 21
29.88484529858917
 31
0.0
  0
LINE
  5
115
330
2
100
AcDbEntity
  8
GAIKEI
  6
Continuous
 62
     1
100
AcDbLine
 10
-42.34577413075824
 20
29.77871954858912
 30
0.0
 11
-42.34577413075824
 21
-0.1090289514108633
 31
0.0
  0
ARC
  5
116
330
2
100
AcDbEntity
  8
GAIKEI
  6
Continuous
 62
     1
100
AcDbCircle
 10
-42.14577413075832
 20
29.77871954858912
 30
0.0
 40
0.2
100
AcDbArc
 50
90.0
 51
180.0
  0
ARC
  5
117
330
2
100
AcDbEntity
  8
GAIKEI
  6
Continuous
 62
     1
100
AcDbCircle
 10
-41.86689988075825
 20
29.49984529858918
 30
0.0
 40
0.2
100
AcDbArc
 50
90.0
 51
180.0
  0
ARC
  5
118
330
2
100
AcDbEntity
  8
GAIKEI
  6
Continuous
100
AcDbCircle
 10
-42.25189988075825
 20
29.88484529858917
 30
0.0
 40
0.2
100
AcDbArc
 50
90.0
 51
180.0
  0
ARC
  5
119
330
2
100
AcDbEntity
  8
GAIKEI
  6
Continuous
 62
     1
100
AcDbCircle
 10
-40.95189988075829
 20
28.58484529858916
 30
0.0
 40
0.1
100
AcDbArc
 50
90.0
 51
180.0
  0
ARC
  5
11A
330
2
100
AcDbEntity
  8
GAIKEI
  6
Continuous
 62
     1
100
AcDbCircle
 10
-40.95189988075829
 20
28.58484529858916
 30
0.0
 40
0.18
100
AcDbArc
 50
90.0
 51
180.0
  0
ARC
  5
11B
330
2
100
AcDbEntity
  8
GAIKEI
  6
Continuous
 62
     1
100
AcDbCircle
 10
-40.95189988075829
 20
28.58484529858916
 30
0.0
 40
0.10628895
100
AcDbArc
 50
90.0
 51
180.0
  0
ARC
  5
11C
330
2
100
AcDbEntity
  8
GAIKEI
  6
Continuous
100
AcDbCircle
 10
-42.25189988075825
 20
29.88484529858917
 30
0.0
 40
0.2
100
AcDbArc
 50
90.0
 51
180.0
  0
LINE
  5
11D
330
2
100
AcDbEntity
  8
GAIKEI
  6
Continuous
 62
     1
100
AcDbLine
 10
7.154389069241715
 20
28.58484529858916
 30
0.0
 11
7.154389069241715
 21
1.084845298589157
 31
0.0
  0
LINE
  5
11E
330
2
100
AcDbEntity
  8
GAIKEI
  6
Continuous
 62
     1
100
AcDbLine
 10
8.441974369241705
 20
29.77871954858912
 30
0.0
 11
8.441974369241705
 21
-0.1090289514108633
 31
0.0
  0
LINE
  5
11F
330
2
100
AcDbEntity
  8
GAIKEI
  6
Continuous
 62
     1
100
AcDbLine
 10
7.228100119241702
 20
28.58484529858916
 30
0.0
 11
7.228100119241702
 21
1.084845298589157
 31
0.0
  0
LINE
  5
120
330
2
100
AcDbEntity
  8
GAIKEI
  6
Continuous
 62
     1
100
AcDbLine
 10
7.148100119241718
 20
28.58484529858916
 30
0.0
 11
7.148100119241718
 21
1.084845298589157
 31
0.0
  0
LINE
  5
121
330
2
100
AcDbEntity
  8
GAIKEI
  6
Continuous
100
AcDbLine
 10
8.548100119241695
 20
29.88484529858917
 30
0.0
 11
8.548100119241695
 21
-0.215154701410853
 31
0.0
  0
LINE
  5
122
330
2
100
AcDbEntity
  8
GAIKEI
  6
Continuous
 62
     1
100
AcDbLine
 10
8.163100119241704
 20
29.49984529858918
 30
0.0
 11
8.163100119241704
 21
0.1698452985891379
 31
0.0
  0
LINE
  5
123
330
2
100
AcDbEntity
  8
GAIKEI
  6
Continuous
 62
     1
100
AcDbLine
 10
-16.9518998807583
 20
28.69113424858912
 30
0.0
 11
7.048100119241695
 21
28.69113424858912
 31
0.0
  0
LINE
  5
124
330
2
100
AcDbEntity
  8
GAIKEI
  6
Continuous
 62
     1
100
AcDbLine
 10
7.048100119241695
 20
28.76484529858917
 30
0.0
 11
-16.9518998807583
 21
28.76484529858917
 31
0.0
  0
LINE
  5
125
330
2
100
AcDbEntity
  8
GAIKEI
  6
Continuous
 62
     1
100
AcDbLine
 10
7.048100119241695
 20
28.68484529858913
 30
0.0
 11
-16.9518998807583
 21
28.68484529858913
 31
0.0
  0
LINE
  5
126
330
2
100
AcDbEntity
  8
GAIKEI
  6
Continuous
100
AcDbLine
 10
-42.25189988075825
 20
30.08484529858916
 30
0.0
 11
8.348100119241706
 21
30.08484529858916
 31
0.0
  0
LINE
  5
127
330
2
100
AcDbEntity
  8
GAIKEI
  6
Continuous
 62
     1
100
AcDbLine
 10
-16.9518998807583
 20
29.69984529858917
 30
0.0
 11
7.963100119241714
 21
29.69984529858917
 31
0.0
  0
ARC
  5
128
330
2
100
AcDbEntity
  8
GAIKEI
  6
Continuous
 62
     1
100
AcDbCircle
 10
8.241974369241718
 20
29.77871954858912
 30
0.0
 40
0.2
100
AcDbArc
 50
0.0
 51
90.0
  0
ARC
  5
129
330
2
100
AcDbEntity
  8
GAIKEI
  6
Continuous
 62
     1
100
AcDbCircle
 10
7.963100119241714
 20
29.49984529858918
 30
0.0
 40
0.2
100
AcDbArc
 50
0.0
 51
90.0
  0
ARC
  5
12A
330
2
100
AcDbEntity
  8
GAIKEI
  6
Continuous
100
AcDbCircle
 10
8.348100119241706
 20
29.88484529858917
 30
0.0
 40
0.2
100
AcDbArc
 50
0.0
 51
90.0
  0
ARC
  5
12B
330
2
100
AcDbEntity
  8
GAIKEI
  6
Continuous
 62
     1
100
AcDbCircle
 10
7.048100119241695
 20
28.58484529858916
 30
0.0
 40
0.1
100
AcDbArc
 50
0.0
 51
90.0
  0
ARC
  5
12C
330
2
100
AcDbEntity
  8
GAIKEI
  6
Continuous
 62
     1
100
AcDbCircle
 10
7.048100119241695
 20
28.58484529858916
 30
0.0
 40
0.18
100
AcDbArc
 50
0.0
 51
90.0
  0
ARC
  5
12D
330
2
100
AcDbEntity
  8
GAIKEI
  6
Continuous
 62
     1
100
AcDbCircle
 10
7.048100119241695
 20
28.58484529858916
 30
0.0
 40
0.10628895
100
AcDbArc
 50
0.0
 51
90.0
  0
ARC
  5
12E
330
2
100
AcDbEntity
  8
GAIKEI
  6
Continuous
100
AcDbCircle
 10
8.348100119241706
 20
29.88484529858917
 30
0.0
 40
0.2
100
AcDbArc
 50
0.0
 51
90.0
  0
LINE
  5
12F
330
2
100
AcDbEntity
  8
GAIKEI
  6
Continuous
 62
     1
100
AcDbLine
 10
7.048100119241695
 20
0.9848452985891356
 30
0.0
 11
-40.95189988075829
 21
0.9848452985891356
 31
0.0
  0
LINE
  5
130
330
2
100
AcDbEntity
  8
GAIKEI
  6
Continuous
100
AcDbLine
 10
-42.25189988075825
 20
-0.4151547014108985
 30
0.0
 11
8.348100119241706
 21
-0.4151547014108418
 31
0.0
  0
ARC
  5
131
330
2
100
AcDbEntity
  8
GAIKEI
  6
Continuous
 62
     1
100
AcDbCircle
 10
8.241974369241718
 20
-0.1090289514108633
 30
0.0
 40
0.2
100
AcDbArc
 50
270.0
 51
0.0
  0
ARC
  5
132
330
2
100
AcDbEntity
  8
GAIKEI
  6
Continuous
 62
     1
100
AcDbCircle
 10
7.963100119241714
 20
0.1698452985891379
 30
0.0
 40
0.2
100
AcDbArc
 50
270.0
 51
0.0
  0
ARC
  5
133
330
2
100
AcDbEntity
  8
GAIKEI
  6
Continuous
100
AcDbCircle
 10
8.348100119241706
 20
-0.215154701410853
 30
0.0
 40
0.2
100
AcDbArc
 50
270.0
 51
0.0
  0
ARC
  5
134
330
2
100
AcDbEntity
  8
GAIKEI
  6
Continuous
 62
     1
100
AcDbCircle
 10
7.048100119241695
 20
1.084845298589157
 30
0.0
 40
0.1
100
AcDbArc
 50
270.0
 51
0.0
  0
ARC
  5
135
330
2
100
AcDbEntity
  8
GAIKEI
  6
Continuous
 62
     1
100
AcDbCircle
 10
7.048100119241695
 20
1.084845298589157
 30
0.0
 40
0.18
100
AcDbArc
 50
270.0
 51
0.0
  0
ARC
  5
136
330
2
100
AcDbEntity
  8
GAIKEI
  6
Continuous
 62
     1
100
AcDbCircle
 10
7.048100119241695
 20
1.084845298589157
 30
0.0
 40
0.10628895
100
AcDbArc
 50
270.0
 51
0.0
  0
ARC
  5
137
330
2
100
AcDbEntity
  8
GAIKEI
  6
Continuous
100
AcDbCircle
 10
8.348100119241706
 20
-0.215154701410853
 30
0.0
 40
0.2
100
AcDbArc
 50
270.0
 51
0.0
  0
LINE
  5
138
330
2
100
AcDbEntity
  8
GAIKEI
  6
Continuous
 62
     1
100
AcDbLine
 10
-41.86689988075825
 20
-0.0301547014108508
 30
0.0
 11
7.963100119241714
 21
-0.0301547014108508
 31
0.0
  0
LINE
  5
139
330
2
100
AcDbEntity
  8
GAIKEI
  6
Continuous
 62
     1
100
AcDbLine
 10
-40.95189988075829
 20
0.9785563485891371
 30
0.0
 11
7.048100119241695
 21
0.9785563485891371
 31
0.0
  0
LINE
  5
13A
330
2
100
AcDbEntity
  8
GAIKEI
  6
Continuous
 62
     1
100
AcDbLine
 10
-42.14577413075832
 20
-0.309028951410852
 30
0.0
 11
8.241974369241718
 21
-0.309028951410852
 31
0.0
  0
LINE
  5
13B
330
2
100
AcDbEntity
  8
GAIKEI
  6
Continuous
 62
     1
100
AcDbLine
 10
-40.95189988075829
 20
0.9048452985891517
 30
0.0
 11
7.048100119241695
 21
0.9048452985891517
 31
0.0
  0
ARC
  5
13C
330
2
100
AcDbEntity
  8
GAIKEI
  6
Continuous
 62
     1
100
AcDbCircle
 10
-40.95189988075829
 20
1.084845298589157
 30
0.0
 40
0.10628895
100
AcDbArc
 50
180.0
 51
270.0
  0
ARC
  5
13D
330
2
100
AcDbEntity
  8
GAIKEI
  6
Continuous
 62
     1
100
AcDbCircle
 10
-42.14577413075832
 20
-0.1090289514108633
 30
0.0
 40
0.2
100
AcDbArc
 50
180.0
 51
270.0
  0
ARC
  5
13E
330
2
100
AcDbEntity
  8
GAIKEI
  6
Continuous
 62
     1
100
AcDbCircle
 10
-40.95189988075829
 20
1.084845298589157
 30
0.0
 40
0.18
100
AcDbArc
 50
180.0
 51
270.0
  0
ARC
  5
13F
330
2
100
AcDbEntity
  8
GAIKEI
  6
Continuous
 62
     1
100
AcDbCircle
 10
-40.95189988075829
 20
1.084845298589157
 30
0.0
 40
0.1
100
AcDbArc
 50
180.0
 51
270.0
  0
ARC
  5
140
330
2
100
AcDbEntity
  8
GAIKEI
  6
Continuous
100
AcDbCircle
 10
-42.25189988075825
 20
-0.215154701410853
 30
0.0
 40
0.2
100
AcDbArc
 50
180.0
 51
270.0
  0
ARC
  5
141
330
2
100
AcDbEntity
  8
GAIKEI
  6
Continuous
 62
     1
100
AcDbCircle
 10
-41.86689988075825
 20
0.1698452985891379
 30
0.0
 40
0.2
100
AcDbArc
 50
180.0
 51
270.0
  0
ARC
  5
142
330
2
100
AcDbEntity
  8
GAIKEI
  6
Continuous
 62
     1
100
AcDbCircle
 10
-39.53689988075828
 20
0.1098452985891356
 30
0.0
 40
0.025
100
AcDbArc
 50
270.0
 51
0.0
  0
ARC
  5
143
330
2
100
AcDbEntity
  8
GAIKEI
  6
Continuous
 62
     1
100
AcDbCircle
 10
-39.8368998807583
 20
0.1098452985891356
 30
0.0
 40
0.025
100
AcDbArc
 50
180.0
 51
270.0
  0
ARC
  5
144
330
2
100
AcDbEntity
  8
GAIKEI
  6
Continuous
 62
     1
100
AcDbCircle
 10
-39.53689988075828
 20
0.4098452985891471
 30
0.0
 40
0.025
100
AcDbArc
 50
0.0
 51
90.0
  0
ARC
  5
145
330
2
100
AcDbEntity
  8
GAIKEI
  6
Continuous
 62
     1
100
AcDbCircle
 10
-39.8368998807583
 20
0.4098452985891471
 30
0.0
 40
0.025
100
AcDbArc
 50
90.0
 51
180.0
  0
LINE
  5
146
330
2
100
AcDbEntity
  8
GAIKEI
  6
Continuous
 62
     1
100
AcDbLine
 10
-39.86189988075827
 20
0.1098452985891356
 30
0.0
 11
-39.86189988075827
 21
0.4098452985891471
 31
0.0
  0
LINE
  5
147
330
2
100
AcDbEntity
  8
GAIKEI
  6
Continuous
 62
     1
100
AcDbLine
 10
-39.53689988075828
 20
0.4348452985891244
 30
0.0
 11
-39.8368998807583
 21
0.4348452985891244
 31
0.0
  0
LINE
  5
148
330
2
100
AcDbEntity
  8
GAIKEI
  6
Continuous
 62
     1
100
AcDbLine
 10
-41.44189988075831
 20
0.2198452985891492
 30
0.0
 11
-41.44189988075831
 21
0.2998452985891333
 31
0.0
  0
LINE
  5
149
330
2
100
AcDbEntity
  8
GAIKEI
  6
Continuous
 62
     1
100
AcDbLine
 10
-41.36189988075827
 20
0.2198452985891492
 30
0.0
 11
-41.36189988075827
 21
0.2998452985891333
 31
0.0
  0
LINE
  5
14A
330
2
100
AcDbEntity
  8
GAIKEI
  6
Continuous
 62
     1
100
AcDbLine
 10
-41.36189988075827
 20
0.2198452985891492
 30
0.0
 11
-41.44189988075831
 21
0.2198452985891492
 31
0.0
  0
LINE
  5
14B
330
2
100
AcDbEntity
  8
GAIKEI
  6
Continuous
 62
     1
100
AcDbLine
 10
-41.36189988075827
 20
0.2998452985891333
 30
0.0
 11
-41.44189988075831
 21
0.2998452985891333
 31
0.0
  0
LINE
  5
14C
330
2
100
AcDbEntity
  8
GAIKEI
  6
Continuous
 62
     1
100
AcDbLine
 10
-39.53689988075828
 20
0.0848452985891584
 30
0.0
 11
-39.8368998807583
 21
0.0848452985891584
 31
0.0
  0
LINE
  5
14D
330
2
100
AcDbEntity
  8
GAIKEI
  6
Continuous
 62
     1
100
AcDbLine
 10
-39.51189988075832
 20
0.1098452985891356
 30
0.0
 11
-39.51189988075832
 21
0.4098452985891471
 31
0.0
  0
ARC
  5
14E
330
2
100
AcDbEntity
  8
GAIKEI
  6
Continuous
100
AcDbCircle
 10
-42.25189988075825
 20
-0.215154701410853
 30
0.0
 40
0.2
100
AcDbArc
 50
180.0
 51
270.0
  0
LINE
  5
14F
330
2
100
AcDbEntity
  8
GAIKEI
  6
Continuous
 62
     1
100
AcDbLine
 10
6.048100119241695
 20
1.884845298589169
 30
0.0
 11
6.048100119241695
 21
27.78484529858915
 31
0.0
  0
LINE
  5
150
330
2
100
AcDbEntity
  8
GAIKEI
  6
Continuous
 62
     1
100
AcDbLine
 10
-39.95189988075831
 20
1.884845298589169
 30
0.0
 11
-39.95189988075831
 21
27.78484529858915
 31
0.0
  0
LINE
  5
151
330
2
100
AcDbEntity
  8
GAIKEI
  6
Continuous
 62
     1
100
AcDbLine
 10
-39.95189988075831
 20
27.78484529858915
 30
0.0
 11
6.048100119241695
 21
27.78484529858915
 31
0.0
  0
LINE
  5
152
330
2
100
AcDbEntity
  8
GAIKEI
  6
Continuous
 62
     1
100
AcDbLine
 10
-39.95189988075831
 20
1.884845298589169
 30
0.0
 11
6.048100119241695
 21
1.884845298589169
 31
0.0
  0
SPLINE
  5
153
330
2
100
AcDbEntity
  8
GAIKEI
  6
Continuous
 62
     1
100
AcDbSpline
210
0.0
220
0.0
230
1.0
 70
     8
 71
     3
 72
     9
 73
     5
 74
     3
 42
0.0000000001
 43
0.0000000001
 44
0.000001
 12
0.5315847197080427
 22
0.8470051273592869
 32
0.0
 13
0.9993540111673828
 23
-0.035938285485854
 33
0.0
 40
0.0
 40
0.0
 40
0.0
 40
0.0
 40
0.0328737966681831
 40
0.0674428314280503
 40
0.0674428314280503
 40
0.0674428314280503
 40
0.0674428314280503
 10
33.11602609466419
 20
29.93557158020357
 30
0.0
 10
33.12185116399339
 20
29.94485300498148
 30
0.0
 10
33.13990952687369
 20
29.96030191841703
 30
0.0
 10
33.16290896431436
 20
29.96506284592115
 30
0.0
 10
33.17442453216418
 20
29.96464872864109
 30
0.0
 11
33.11602609466419
 21
29.93557158020357
 31
0.0
 11
33.14063007842404
 21
29.95737509414122
 31
0.0
 11
33.17442453216418
 21
29.96464872864109
 31
0.0
  0
SPLINE
  5
154
330
2
100
AcDbEntity
  8
GAIKEI
  6
Continuous
 62
     1
100
AcDbSpline
210
0.0
220
0.0
230
1.0
 70
     8
 71
     3
 72
     9
 73
     5
 74
     3
 42
0.0000000001
 43
0.0000000001
 44
0.000001
 12
0.7133538227200053
 22
0.7008040550758503
 32
0.0
 13
0.9673999115770403
 23
0.2532536496888728
 33
0.0
 40
0.0
 40
0.0
 40
0.0
 40
0.0
 40
0.0295629239674542
 40
0.0656585529903345
 40
0.0656585529903345
 40
0.0656585529903345
 40
0.0656585529903345
 10
33.11602609466419
 20
29.8292727520786
 30
0.0
 10
33.12305570293851
 20
29.83617869107737
 30
0.0
 10
33.14229680597963
 20
29.84748808925606
 30
0.0
 10
33.16278489605583
 20
29.85530278392016
 30
0.0
 10
33.17442453216418
 20
29.85834990051612
 30
0.0
 11
33.11602609466419
 21
29.8292727520786
 31
0.0
 11
33.14063595991238
 21
29.84565372784656
 31
0.0
 11
33.17442453216418
 21
29.85834990051612
 31
0.0
  0
SPLINE
  5
155
330
2
100
AcDbEntity
  8
GAIKEI
  6
Continuous
 62
     1
100
AcDbSpline
210
0.0
220
0.0
230
1.0
 70
     8
 71
     3
 72
     9
 73
     5
 74
     3
 42
0.0000000001
 43
0.0000000001
 44
0.000001
 12
0.7133260416388183
 22
-0.7008323325303243
 32
0.0
 13
0.9674089049294847
 23
-0.253219293623403
 33
0.0
 40
0.0
 40
0.0
 40
0.0
 40
0.0
 40
0.0295599238169226
 40
0.0656531631158659
 40
0.0656531631158659
 40
0.0656531631158659
 40
0.0656531631158659
 10
33.11602609466419
 20
-0.1595822283901782
 30
0.0
 10
33.12305471581335
 20
-0.166487745176189
 30
0.0
 10
33.14229784262488
 20
-0.1777919658333702
 30
0.0
 10
33.16278555846233
 20
-0.1856006682764298
 30
0.0
 10
33.17442453216418
 20
-0.1886471697963827
 30
0.0
 11
33.11602609466419
 21
-0.1595822283901782
 31
0.0
 11
33.14063596363766
 21
-0.1759577849783511
 31
0.0
 11
33.17442453216418
 21
-0.1886471697963827
 31
0.0
  0
SPLINE
  5
156
330
2
100
AcDbEntity
  8
GAIKEI
  6
Continuous
 62
     1
100
AcDbSpline
210
0.0
220
0.0
230
1.0
 70
     8
 71
     3
 72
     9
 73
     5
 74
     3
 42
0.0000000001
 43
0.0000000001
 44
0.000001
 12
0.5315659660105952
 22
-0.8470168969856638
 32
0.0
 13
0.9993596112734818
 23
0.0357822212182991
 33
0.0
 40
0.0
 40
0.0
 40
0.0
 40
0.0
 40
0.0328730912401407
 40
0.0674423361628287
 40
0.0674423361628287
 40
0.0674423361628287
 40
0.0674423361628287
 10
33.11602609466419
 20
-0.2658810565151555
 30
0.0
 10
33.1218508334978
 20
-0.2751624110940057
 30
0.0
 10
33.13991036523368
 20
-0.2906103970714271
 30
0.0
 10
33.16290882977487
 20
-0.2953705264090693
 30
0.0
 10
33.17442453216418
 20
-0.2949582049526782
 30
0.0
 11
33.11602609466419
 21
-0.2658810565151555
 31
0.0
 11
33.14063009816809
 21
-0.2876834851826118
 31
0.0
 11
33.17442453216418
 21
-0.2949582049526782
 31
0.0
  0
SPLINE
  5
157
330
2
100
AcDbEntity
  8
GAIKEI
  6
Continuous
 62
     1
100
AcDbSpline
210
0.0
220
0.0
230
1.0
 70
     8
 71
     3
 72
     9
 73
     5
 74
     3
 42
0.0000000001
 43
0.0000000001
 44
0.000001
 12
-0.5314527441063981
 22
0.8470879415868104
 32
0.0
 13
0.3179393013820943
 23
0.9481110697785709
 33
0.0
 40
0.0
 40
0.0
 40
0.0
 40
0.0
 40
0.0467623854969482
 40
0.1086022182816316
 40
0.1086022182816316
 40
0.1086022182816316
 40
0.1086022182816316
 10
33.11602609466419
 20
-0.2658810565151555
 30
0.0
 10
33.10774209529976
 20
-0.2526771055570558
 30
0.0
 10
33.10152501261997
 20
-0.2147321522549936
 30
0.0
 10
33.10947232358647
 20
-0.1791259050623162
 30
0.0
 10
33.11602609466419
 20
-0.1595822283901782
 30
0.0
 11
33.11602609466419
 21
-0.2658810565151555
 31
0.0
 11
33.10501472141253
 21
-0.2204328367389792
 31
0.0
 11
33.11602609466419
 21
-0.1595822283901782
 31
0.0
  0
SPLINE
  5
158
330
2
100
AcDbEntity
  8
GAIKEI
  6
Continuous
 62
     1
100
AcDbSpline
210
0.0
220
0.0
230
1.0
 70
     8
 71
     3
 72
     9
 73
     5
 74
     3
 42
0.0000000001
 43
0.0000000001
 44
0.000001
 12
-0.1811677688426682
 22
-0.983452205006715
 32
0.0
 13
0.3894822046516699
 23
-0.9210339908275235
 33
0.0
 40
0.0
 40
0.0
 40
0.0
 40
0.0
 40
0.0634735287711632
 40
0.1071114425332216
 40
0.1071114425332216
 40
0.1071114425332216
 40
0.1071114425332216
 10
33.17442453216418
 20
-0.1886471697963827
 30
0.0
 10
33.17059141296816
 20
-0.2094548970729019
 30
0.0
 10
33.16656598708654
 20
-0.2447017325952709
 30
0.0
 10
33.16875913521137
 20
-0.2815608709981263
 30
0.0
 10
33.17442453216418
 20
-0.2949582049526782
 30
0.0
 11
33.17442453216418
 21
-0.1886471697963827
 31
0.0
 11
33.16800515252751
 21
-0.251794661013065
 31
0.0
 11
33.17442453216418
 21
-0.2949582049526782
 31
0.0
  0
SPLINE
  5
159
330
2
100
AcDbEntity
  8
GAIKEI
  6
Continuous
 62
     1
100
AcDbSpline
210
0.0
220
0.0
230
1.0
 70
     8
 71
     3
 72
     9
 73
     5
 74
     3
 42
0.0000000001
 43
0.0000000001
 44
0.000001
 12
-0.0194223067410764
 22
-0.9998113692096403
 32
0.0
 13
-0.180956661794664
 23
-0.983491070906153
 33
0.0
 40
0.0
 40
0.0
 40
0.0
 40
0.0
 40
0.0398095287014408
 40
0.0777433366760434
 40
0.0777433366760434
 40
0.0777433366760434
 40
0.0777433366760434
 10
33.18204171966417
 20
-0.1113400408901555
 30
0.0
 10
33.18178398870495
 20
-0.1246073806896815
 30
0.0
 10
33.1802413799494
 20
-0.1505049618386868
 30
0.0
 10
33.17671265725093
 20
-0.176211315986886
 30
0.0
 10
33.17442453216418
 20
-0.1886471697963827
 30
0.0
 11
33.18204171966417
 21
-0.1113400408901555
 31
0.0
 11
33.17968240838153
 21
-0.15107943507806
 31
0.0
 11
33.17442453216418
 21
-0.1886471697963827
 31
0.0
  0
SPLINE
  5
15A
330
2
100
AcDbEntity
  8
GAIKEI
  6
Continuous
 62
     1
100
AcDbSpline
210
0.0
220
0.0
230
1.0
 70
     8
 71
     3
 72
     9
 73
     5
 74
     3
 42
0.0000000001
 43
0.0000000001
 44
0.000001
 12
-0.9984630479128485
 22
0.0554214935975616
 32
0.0
 13
0.0131614812355851
 23
0.9999133839546729
 33
0.0
 40
0.0
 40
0.0
 40
0.0
 40
0.0
 40
0.0591053775878936
 40
0.1997446953722639
 40
0.1997446953722639
 40
0.1997446953722639
 40
0.1997446953722639
 10
35.11563546966417
 20
-0.4124020526088829
 30
0.0
 10
35.09596395784603
 20
-0.4113101498403599
 30
0.0
 10
35.13664882902415
 20
-0.3039983406659916
 30
0.0
 10
35.11501846241684
 20
-0.2595463193506989
 30
0.0
 10
35.11563546966417
 20
-0.2126706072964168
 30
0.0
 11
35.11563546966417
 21
-0.4124020526088829
 31
0.0
 11
35.11458606246518
 21
-0.3533053062759848
 31
0.0
 11
35.11563546966417
 21
-0.2126706072964168
 31
0.0
  0
SPLINE
  5
15B
330
2
100
AcDbEntity
  8
GAIKEI
  6
Continuous
100
AcDbSpline
210
0.0
220
0.0
230
1.0
 70
     8
 71
     3
 72
     9
 73
     5
 74
     3
 42
0.0000000001
 43
0.0000000001
 44
0.000001
 12
0.389300517660971
 22
-0.9211108005820474
 32
0.0
 13
0.9983154509840366
 23
-0.0580194823015479
 33
0.0
 40
0.0
 40
0.0
 40
0.0
 40
0.0
 40
0.0130424241073482
 40
0.0178402923890596
 40
0.0178402923890596
 40
0.0178402923890596
 40
0.0178402923890596
 10
33.17442453216418
 20
-0.2949582049526782
 30
0.0
 10
33.17611700631636
 20
-0.2989627108563615
 30
0.0
 10
33.17930024169961
 20
-0.3028011299961206
 30
0.0
 10
33.18044512431836
 20
-0.3109786962580596
 30
0.0
 10
33.18204171966417
 20
-0.3110714862026782
 30
0.0
 11
33.17442453216418
 21
-0.2949582049526782
 31
0.0
 11
33.17968240838153
 21
-0.3068932079177387
 31
0.0
 11
33.18204171966417
 21
-0.3110714862026782
 31
0.0
  0
SPLINE
  5
15C
330
2
100
AcDbEntity
  8
GAIKEI
  6
Continuous
 62
     1
100
AcDbSpline
210
0.0
220
0.0
230
1.0
 70
     8
 71
     3
 72
     9
 73
     5
 74
     3
 42
0.0000000001
 43
0.0000000001
 44
0.000001
 12
0.0002033799686629
 22
0.999999979318294
 32
0.0
 13
-0.2676862784602433
 23
0.9635061267704038
 33
0.0
 40
0.0
 40
0.0
 40
0.0
 40
0.0
 40
0.024881963169913
 40
0.0487674615858263
 40
0.0487674615858263
 40
0.0487674615858263
 40
0.0487674615858263
 10
33.12247140716417
 20
29.78104277160984
 30
0.0
 10
33.12247309399513
 20
29.78933675916161
 30
0.0
 10
33.12136382340084
 20
29.80560809873064
 30
0.0
 10
33.11815736805757
 20
29.82160147739037
 30
0.0
 10
33.11602609466419
 20
29.8292727520786
 30
0.0
 11
33.12247140716417
 21
29.78104277160984
 31
0.0
 11
33.12079426106632
 21
29.80586791728658
 31
0.0
 11
33.11602609466419
 21
29.8292727520786
 31
0.0
  0
SPLINE
  5
15D
330
2
100
AcDbEntity
  8
GAIKEI
  6
Continuous
 62
     1
100
AcDbSpline
210
0.0
220
0.0
230
1.0
 70
     8
 71
     3
 72
     9
 73
     5
 74
     3
 42
0.0000000001
 43
0.0000000001
 44
0.000001
 12
0.2677112637034975
 22
0.9634991848913399
 32
0.0
 13
-0.0002033617628701
 23
0.9999999793219965
 33
0.0
 40
0.0
 40
0.0
 40
0.0
 40
0.0
 40
0.0238903823885124
 40
0.0487795518661373
 40
0.0487795518661373
 40
0.0487795518661373
 40
0.0487795518661373
 10
33.11602609466419
 20
-0.1595822283901782
 30
0.0
 10
33.11815800281739
 20
-0.1519094404041535
 30
0.0
 10
33.12136367803134
 20
-0.135911723212863
 30
0.0
 10
33.12247309433264
 20
-0.1196364305444777
 30
0.0
 10
33.12247140716417
 20
-0.1113400408901555
 30
0.0
 11
33.11602609466419
 21
-0.1595822283901782
 31
0.0
 11
33.1207942610661
 21
-0.1361724091597409
 31
0.0
 11
33.12247140716417
 21
-0.1113400408901555
 31
0.0
  0
SPLINE
  5
15E
330
2
100
AcDbEntity
  8
GAIKEI
  6
Continuous
 62
     1
100
AcDbSpline
210
0.0
220
0.0
230
1.0
 70
     8
 71
     3
 72
     9
 73
     5
 74
     3
 42
0.0000000001
 43
0.0000000001
 44
0.000001
 12
-0.3179591382001075
 22
0.9481044174747024
 32
0.0
 13
0.5314035119872484
 23
0.8471188272300517
 33
0.0
 40
0.0
 40
0.0
 40
0.0
 40
0.0
 40
0.0618382027209638
 40
0.1086021855636142
 40
0.1086021855636142
 40
0.1086021855636142
 40
0.1086021855636142
 10
33.11602609466419
 20
29.8292727520786
 30
0.0
 10
33.10947208744919
 20
29.84881577646808
 30
0.0
 10
33.1015248512536
 20
29.88442240765961
 30
0.0
 10
33.10774257975849
 20
29.92236669676948
 30
0.0
 10
33.11602609466419
 20
29.93557158020357
 30
0.0
 11
33.11602609466419
 21
29.8292727520786
 31
0.0
 11
33.1050147519599
 21
29.89012170937881
 31
0.0
 11
33.11602609466419
 21
29.93557158020357
 31
0.0
  0
SPLINE
  5
15F
330
2
100
AcDbEntity
  8
GAIKEI
  6
Continuous
 62
     1
100
AcDbSpline
210
0.0
220
0.0
230
1.0
 70
     8
 71
     3
 72
    11
 73
     7
 74
     5
 42
0.0000000001
 43
0.0000000001
 44
0.000001
 12
-0.5290666453914412
 22
-0.8485802759516905
 32
0.0
 13
0.0727207652946618
 23
-0.9973523400959958
 33
0.0
 40
0.0
 40
0.0
 40
0.0
 40
0.0
 40
0.0042499997892126
 40
0.0119006040293179
 40
0.0517105994362595
 40
0.1067147985146371
 40
0.1067147985146371
 40
0.1067147985146371
 40
0.1067147985146371
 10
32.97579171966416
 20
29.71203642395355
 30
0.0
 10
32.97504220862036
 20
29.71083426862224
 30
0.0
 10
32.97398854731997
 20
29.70691422936505
 30
0.0
 10
32.97186755606774
 20
29.68987497439399
 30
0.0
 10
32.97307502259477
 20
29.65550390212815
 30
0.0
 10
32.97445840384702
 20
29.62401157768601
 30
0.0
 10
32.97579171966416
 20
29.60572538879737
 30
0.0
 11
32.97579171966416
 21
29.71203642395355
 31
0.0
 11
32.97436264317142
 21
29.70803374257903
 31
0.0
 11
32.97325265716418
 21
29.70046415832857
 31
0.0
 11
32.97294381970417
 21
29.66065542755368
 31
0.0
 11
32.97579171966416
 21
29.60572538879737
 31
0.0
  0
SPLINE
  5
160
330
2
100
AcDbEntity
  8
GAIKEI
  6
Continuous
 62
     1
100
AcDbSpline
210
0.0
220
0.0
230
1.0
 70
     8
 71
     3
 72
     9
 73
     5
 74
     3
 42
0.0000000001
 43
0.0000000001
 44
0.000001
 12
-0.013160041142413
 22
0.999913402909037
 32
0.0
 13
0.9982350858631345
 23
0.0593861377075533
 33
0.0
 40
0.0
 40
0.0
 40
0.0
 40
0.0
 40
0.1406210867696354
 40
0.1997324418875851
 40
0.1997324418875851
 40
0.1997324418875851
 40
0.1997324418875851
 10
35.11563546966417
 20
29.8823733380161
 30
0.0
 10
35.11501860990171
 20
29.9292429744803
 30
0.0
 10
35.13664506834362
 20
29.97378667210283
 30
0.0
 10
35.09596646011362
 20
30.0809224446056
 30
0.0
 10
35.11563546966417
 20
30.0820925762973
 30
0.0
 11
35.11563546966417
 21
29.8823733380161
 31
0.0
 11
35.11458788897497
 21
30.02298982053563
 31
0.0
 11
35.11563546966417
 21
30.0820925762973
 31
0.0
  0
SPLINE
  5
161
330
2
100
AcDbEntity
  8
GAIKEI
  6
Continuous
 62
     1
100
AcDbSpline
210
0.0
220
0.0
230
1.0
 70
     8
 71
     3
 72
     9
 73
     5
 74
     3
 42
0.0000000001
 43
0.0000000001
 44
0.000001
 12
-0.9989303325859209
 22
-0.0462405735234906
 32
0.0
 13
-0.3891051082920194
 23
-0.9211933644469308
 33
0.0
 40
0.0
 40
0.0
 40
0.0
 40
0.0
 40
0.004793854337338
 40
0.0178404975019821
 40
0.0178404975019821
 40
0.0178404975019821
 40
0.0178404975019821
 10
33.18204171966417
 20
29.98076200989109
 30
0.0
 10
33.18044547749499
 20
29.98068811969977
 30
0.0
 10
33.17929786552991
 20
29.97246921787834
 30
0.0
 10
33.17611670399799
 20
29.96865488901162
 30
0.0
 10
33.17442453216418
 20
29.96464872864109
 30
0.0
 11
33.18204171966417
 21
29.98076200989109
 31
0.0
 11
33.17968240838153
 21
29.97658833613045
 31
0.0
 11
33.17442453216418
 21
29.96464872864109
 31
0.0
  0
SPLINE
  5
162
330
2
100
AcDbEntity
  8
GAIKEI
  6
Continuous
 62
     1
100
AcDbSpline
210
0.0
220
0.0
230
1.0
 70
     8
 71
     3
 72
     9
 73
     5
 74
     3
 42
0.0000000001
 43
0.0000000001
 44
0.000001
 12
-0.3896843379679151
 22
-0.9209484875618764
 32
0.0
 13
0.1811790978866817
 23
-0.9834501179464915
 33
0.0
 40
0.0
 40
0.0
 40
0.0
 40
0.0
 40
0.0436293659992862
 40
0.1070993691145494
 40
0.1070993691145494
 40
0.1070993691145494
 40
0.1070993691145494
 10
33.17442453216418
 20
29.96464872864109
 30
0.0
 10
33.16875730529572
 20
29.95125526243099
 30
0.0
 10
33.16656719830975
 20
29.91439850289395
 30
0.0
 10
33.17059138619509
 20
29.87915642786604
 30
0.0
 10
33.17442453216418
 20
29.85834990051612
 30
0.0
 11
33.17442453216418
 21
29.96464872864109
 31
0.0
 11
33.16800506721839
 21
29.92149383929595
 31
0.0
 11
33.17442453216418
 21
29.85834990051612
 31
0.0
  0
SPLINE
  5
163
330
2
100
AcDbEntity
  8
GAIKEI
  6
Continuous
 62
     1
100
AcDbSpline
210
0.0
220
0.0
230
1.0
 70
     8
 71
     3
 72
     9
 73
     5
 74
     3
 42
0.0000000001
 43
0.0000000001
 44
0.000001
 12
0.1809456865258911
 22
-0.9834930902287387
 32
0.0
 13
0.0194233923575108
 23
-0.9998113481198972
 33
0.0
 40
0.0
 40
0.0
 40
0.0
 40
0.0
 40
0.0379349179422742
 40
0.0777433278263148
 40
0.0777433278263148
 40
0.0777433278263148
 40
0.0777433278263148
 10
33.17442453216418
 20
29.85834990051612
 30
0.0
 10
33.17671258542097
 20
29.84591365729125
 30
0.0
 10
33.18024127431568
 20
29.82020731180053
 30
0.0
 10
33.18178398154274
 20
29.79430973826073
 30
0.0
 10
33.18204171966417
 20
29.78104277160984
 30
0.0
 11
33.17442453216418
 21
29.85834990051612
 31
0.0
 11
33.17968240838153
 21
29.8207810452304
 31
0.0
 11
33.18204171966417
 21
29.78104277160984
 31
0.0
  0
LINE
  5
164
330
2
100
AcDbEntity
  8
GAIKEI
  6
Continuous
100
AcDbLine
 10
32.96817451171998
 20
0.3340090985891777
 30
0.0
 11
32.96817451171998
 21
0.1256838985891875
 31
0.0
  0
LINE
  5
165
330
2
100
AcDbEntity
  8
GAIKEI
  6
Continuous
 62
     1
100
AcDbLine
 10
32.97579171172002
 20
29.60572539858921
 30
0.0
 11
32.96817451171998
 21
29.60572539858921
 31
0.0
  0
LINE
  5
166
330
2
100
AcDbEntity
  8
GAIKEI
  6
Continuous
 62
     1
100
AcDbLine
 10
33.12247141172
 20
29.7810305485892
 30
0.0
 11
33.18204171172002
 21
29.7810305485892
 31
0.0
  0
LINE
  5
167
330
2
100
AcDbEntity
  8
GAIKEI
  6
Continuous
 62
     1
100
AcDbLine
 10
33.12247141172
 20
-0.1113400514108491
 30
0.0
 11
33.18204171172002
 21
-0.1113400514108491
 31
0.0
  0
LINE
  5
168
330
2
100
AcDbEntity
  8
GAIKEI
  6
Continuous
 62
     1
100
AcDbLine
 10
35.11563546172002
 20
29.88236114858919
 30
0.0
 11
35.16817451171997
 21
29.88236114858919
 31
0.0
  0
LINE
  5
169
330
2
100
AcDbEntity
  8
GAIKEI
  6
Continuous
 62
     1
100
AcDbLine
 10
35.11563546172002
 20
-0.2126706014107924
 30
0.0
 11
35.16817451171997
 21
-0.2126706014107924
 31
0.0
  0
LINE
  5
16A
330
2
100
AcDbEntity
  8
GAIKEI
  6
Continuous
 62
     1
100
AcDbLine
 10
33.12247141172
 20
-0.1113400514108491
 30
0.0
 11
33.12247141172
 21
29.7810305485892
 31
0.0
  0
LINE
  5
16B
330
2
100
AcDbEntity
  8
GAIKEI
  6
Continuous
 62
     1
100
AcDbLine
 10
32.97573186171999
 20
0.0639682485891342
 30
0.0
 11
33.11601246171998
 21
-0.1595782014108238
 31
0.0
  0
LINE
  5
16C
330
2
100
AcDbEntity
  8
GAIKEI
  6
Continuous
 62
     1
100
AcDbLine
 10
35.11563546172002
 20
-0.2126706014107924
 30
0.0
 11
35.11563546172002
 21
29.88236114858919
 31
0.0
  0
LINE
  5
16D
330
2
100
AcDbEntity
  8
GAIKEI
  6
Continuous
 62
     1
100
AcDbLine
 10
33.18207341171998
 20
-0.1113437014107887
 30
0.0
 11
35.11555276172001
 21
-0.2126730514108033
 31
0.0
  0
LINE
  5
16E
330
2
100
AcDbEntity
  8
GAIKEI
  6
Continuous
 62
     1
100
AcDbLine
 10
33.18204171172002
 20
29.7810305485892
 30
0.0
 11
33.18204171172002
 21
-0.1113400514108491
 31
0.0
  0
LINE
  5
16F
330
2
100
AcDbEntity
  8
GAIKEI
  6
Continuous
 62
     1
100
AcDbLine
 10
33.11611521171997
 20
29.82921029858918
 30
0.0
 11
32.97583826172
 21
29.60566959858918
 31
0.0
  0
LINE
  5
170
330
2
100
AcDbEntity
  8
GAIKEI
  6
Continuous
 62
     1
100
AcDbLine
 10
35.11546726172
 20
29.88235734858918
 30
0.0
 11
33.18198791171997
 21
29.78102794858918
 31
0.0
  0
ARC
  5
171
330
2
100
AcDbEntity
  8
GAIKEI
  6
Continuous
100
AcDbCircle
 10
33.01817451171999
 20
29.6854616985892
 30
0.0
 40
0.05
100
AcDbArc
 50
147.8907859999988
 51
180.0
  0
ARC
  5
172
330
2
100
AcDbEntity
  8
GAIKEI
  6
Continuous
100
AcDbCircle
 10
33.01817451171999
 20
-0.0157590014107711
 30
0.0
 40
0.05
100
AcDbArc
 50
180.0000170000011
 51
212.1092280000036
  0
ARC
  5
173
330
2
100
AcDbEntity
  8
GAIKEI
  6
Continuous
100
AcDbCircle
 10
33.18594796172002
 20
29.90585964858914
 30
0.0
 40
0.075
100
AcDbArc
 50
93.00000100000287
 51
147.8907859999988
  0
ARC
  5
174
330
2
100
AcDbEntity
  8
GAIKEI
  6
Continuous
100
AcDbCircle
 10
33.18594796172002
 20
-0.2361691514107917
 30
0.0
 40
0.075
100
AcDbArc
 50
212.1092280000036
 51
267.0000160000055
  0
ARC
  5
175
330
2
100
AcDbEntity
  8
GAIKEI
  6
Continuous
100
AcDbCircle
 10
35.11817451172002
 20
30.03216579858915
 30
0.0
 40
0.05
100
AcDbArc
 50
0.0000359999984121
 51
93.00000100000287
  0
ARC
  5
176
330
2
100
AcDbEntity
  8
GAIKEI
  6
Continuous
100
AcDbCircle
 10
35.11817451172002
 20
-0.362463101410782
 30
0.0
 40
0.05
100
AcDbArc
 50
267.0000160000055
 51
0.0000359999984121
  0
LINE
  5
177
330
2
100
AcDbEntity
  8
GAIKEI
  6
Continuous
100
AcDbLine
 10
33.11600781171998
 20
-0.2658821014108241
 30
0.0
 11
33.12237951171997
 21
-0.2760358014108135
 31
0.0
  0
LINE
  5
178
330
2
100
AcDbEntity
  8
GAIKEI
  6
Continuous
 62
     7
100
AcDbLine
 10
32.97573431172001
 20
-0.0423435514108235
 30
0.0
 11
33.11600841172
 21
-0.2658797014107961
 31
0.0
  0
LINE
  5
179
330
2
100
AcDbEntity
  8
GAIKEI
  6
Continuous
100
AcDbLine
 10
32.96817451171998
 20
0.0639651485891761
 30
0.0
 11
32.96817451171998
 21
-0.0157590014107711
 31
0.0
  0
LINE
  5
17A
330
2
100
AcDbEntity
  8
GAIKEI
  6
Continuous
100
AcDbLine
 10
32.96817451171998
 20
0.1256838985891875
 30
0.0
 11
32.96817451171998
 21
0.0639651485891761
 31
0.0
  0
LINE
  5
17B
330
2
100
AcDbEntity
  8
GAIKEI
  6
Continuous
100
AcDbLine
 10
32.96817451171998
 20
29.60572539858921
 30
0.0
 11
32.96817451171998
 21
0.3340090985891777
 31
0.0
  0
LINE
  5
17C
330
2
100
AcDbEntity
  8
GAIKEI
  6
Continuous
100
AcDbLine
 10
32.96817451171998
 20
29.6854616985892
 30
0.0
 11
32.96817451171998
 21
29.60572539858921
 31
0.0
  0
LINE
  5
17D
330
2
100
AcDbEntity
  8
GAIKEI
  6
Continuous
100
AcDbLine
 10
33.18198376171999
 20
29.98076434858919
 30
0.0
 11
35.11547531171996
 21
30.08209434858915
 31
0.0
  0
LINE
  5
17E
330
2
100
AcDbEntity
  8
GAIKEI
  6
Continuous
100
AcDbLine
 10
33.11616666171997
 20
29.93547654858921
 30
0.0
 11
33.12253736172002
 21
29.94562869858916
 31
0.0
  0
LINE
  5
17F
330
2
100
AcDbEntity
  8
GAIKEI
  6
Continuous
100
AcDbLine
 10
32.97588956171998
 20
29.71194439858923
 30
0.0
 11
33.11616646171998
 21
29.9354850485892
 31
0.0
  0
LINE
  5
180
330
2
100
AcDbEntity
  8
GAIKEI
  6
Continuous
100
AcDbLine
 10
35.16817451171997
 20
30.03216579858915
 30
0.0
 11
35.16817451171997
 21
29.88236114858919
 31
0.0
  0
LINE
  5
181
330
2
100
AcDbEntity
  8
GAIKEI
  6
Continuous
100
AcDbLine
 10
35.16817451171997
 20
29.88236114858919
 30
0.0
 11
35.16817451171997
 21
-0.2126706014107924
 31
0.0
  0
LINE
  5
182
330
2
100
AcDbEntity
  8
GAIKEI
  6
Continuous
100
AcDbLine
 10
35.16817451171997
 20
-0.2126706014107924
 30
0.0
 11
35.16817451171997
 21
-0.362463101410782
 31
0.0
  0
LINE
  5
183
330
2
100
AcDbEntity
  8
GAIKEI
  6
Continuous
100
AcDbLine
 10
33.18216741171998
 20
-0.3110730014108469
 30
0.0
 11
35.11564676172
 21
-0.4124023514108616
 31
0.0
  0
ARC
  5
184
330
2
100
AcDbEntity
  8
GAIKEI
  6
Continuous
100
AcDbCircle
 10
35.35317456172001
 20
28.1382326485892
 30
0.0
 40
0.05
100
AcDbArc
 50
87.99999999999647
 51
180.0
  0
ARC
  5
185
330
2
100
AcDbEntity
  8
GAIKEI
  6
Continuous
100
AcDbCircle
 10
36.41607111171996
 20
27.98930454858916
 30
0.0
 40
0.15
100
AcDbArc
 50
7.83045700000142
 51
87.99999999999647
  0
LINE
  5
186
330
2
100
AcDbEntity
  8
GAIKEI
  6
Continuous
100
AcDbLine
 10
35.70485471172001
 20
28.16423219858919
 30
0.0
 11
36.42130606172
 21
28.13921314858916
 31
0.0
  0
LINE
  5
187
330
2
100
AcDbEntity
  8
GAIKEI
  6
Continuous
100
AcDbLine
 10
35.71266541172
 20
28.17570944858918
 30
0.0
 11
35.71235641171997
 21
28.16685979858923
 31
0.0
  0
ARC
  5
188
330
2
100
AcDbEntity
  8
GAIKEI
  6
Continuous
 62
     1
100
AcDbCircle
 10
35.75817456172
 20
28.02402879858923
 30
0.0
 40
0.15
100
AcDbArc
 50
107.7854970000014
 51
180.0
  0
LINE
  5
189
330
2
100
AcDbEntity
  8
GAIKEI
  6
Continuous
100
AcDbLine
 10
35.35491951172
 20
28.18820219858921
 30
0.0
 11
35.71266541172
 21
28.17570944858918
 31
0.0
  0
ARC
  5
18A
330
2
100
AcDbEntity
  8
GAIKEI
  6
Continuous
100
AcDbCircle
 10
35.40817456172002
 20
28.07950104858921
 30
0.0
 40
0.15
100
AcDbArc
 50
87.99999999999647
 51
180.0
  0
LINE
  5
18B
330
2
100
AcDbEntity
  8
GAIKEI
  6
Continuous
100
AcDbLine
 10
35.41340946172002
 20
28.22940969858919
 30
0.0
 11
36.46646206171997
 21
28.19263629858918
 31
0.0
  0
LINE
  5
18C
330
2
100
AcDbEntity
  8
GAIKEI
  6
Continuous
100
AcDbLine
 10
35.25817456171998
 20
23.19016014858923
 30
0.0
 11
35.25817456171998
 21
28.07950104858921
 31
0.0
  0
LINE
  5
18D
330
2
100
AcDbEntity
  8
GAIKEI
  6
Continuous
100
AcDbLine
 10
37.35817451171997
 20
25.4074908985892
 30
0.0
 11
37.35817451171997
 21
25.86217034858916
 31
0.0
  0
ARC
  5
18E
330
2
100
AcDbEntity
  8
GAIKEI
  6
Continuous
100
AcDbCircle
 10
35.85817451171998
 20
25.86217034858916
 30
0.0
 40
1.044499999999998
100
AcDbArc
 50
0.0
 51
7.83045700000142
  0
ARC
  5
18F
330
2
100
AcDbEntity
  8
GAIKEI
  6
Continuous
100
AcDbCircle
 10
35.85817451171998
 20
25.86217034858916
 30
0.0
 40
0.9925
100
AcDbArc
 50
0.0
 51
7.83045700000142
  0
LINE
  5
190
330
2
100
AcDbEntity
  8
GAIKEI
  6
Continuous
100
AcDbLine
 10
36.85067456172003
 20
25.4074908985892
 30
0.0
 11
36.85067456172003
 21
25.86217034858916
 31
0.0
  0
LINE
  5
191
330
2
100
AcDbEntity
  8
GAIKEI
  6
Continuous
100
AcDbLine
 10
36.90267456171998
 20
25.4074908985892
 30
0.0
 11
36.90267456171998
 21
25.86217034858916
 31
0.0
  0
ARC
  5
192
330
2
100
AcDbEntity
  8
GAIKEI
  6
Continuous
100
AcDbCircle
 10
35.85817451171998
 20
25.86217034858916
 30
0.0
 40
1.5
100
AcDbArc
 50
0.0
 51
7.83045700000142
  0
LINE
  5
193
330
2
100
AcDbEntity
  8
GAIKEI
  6
Continuous
100
AcDbLine
 10
37.34418786171997
 20
26.06653364858923
 30
0.0
 11
37.23109576172002
 21
26.88887484858921
 31
0.0
  0
LINE
  5
194
330
2
100
AcDbEntity
  8
GAIKEI
  6
Continuous
100
AcDbLine
 10
36.84142001171998
 20
25.99739069858922
 30
0.0
 11
36.56467246171999
 21
28.00974084858919
 31
0.0
  0
LINE
  5
195
330
2
100
AcDbEntity
  8
GAIKEI
  6
Continuous
100
AcDbLine
 10
37.23109576172002
 20
26.88887484858921
 30
0.0
 11
37.05439706171997
 21
28.17372694858918
 31
0.0
  0
ARC
  5
196
330
2
100
AcDbEntity
  8
GAIKEI
  6
Continuous
100
AcDbCircle
 10
36.46122441172
 20
28.04264904858914
 30
0.0
 40
0.15
100
AcDbArc
 50
7.83045700000142
 51
87.99999999999647
  0
LINE
  5
197
330
2
100
AcDbEntity
  8
GAIKEI
  6
Continuous
100
AcDbLine
 10
36.89293516171998
 20
26.0044752985892
 30
0.0
 11
36.60982571171999
 21
28.06308534858917
 31
0.0
  0
LINE
  5
198
330
2
100
AcDbEntity
  8
GAIKEI
  6
Continuous
100
AcDbLine
 10
37.05439706171997
 20
28.17372694858918
 30
0.0
 11
37.04161016172
 21
28.26670574858915
 31
0.0
  0
LINE
  5
199
330
2
100
AcDbEntity
  8
GAIKEI
  6
Continuous
100
AcDbLine
 10
35.16817451171997
 20
28.88483059858922
 30
0.0
 11
35.25817456171998
 21
28.88483059858922
 31
0.0
  0
LINE
  5
19A
330
2
100
AcDbEntity
  8
GAIKEI
  6
Continuous
100
AcDbLine
 10
36.76820891171999
 20
28.56125179858916
 30
0.0
 11
35.25817456171998
 21
28.88483059858922
 31
0.0
  0
ARC
  5
19B
330
2
100
AcDbEntity
  8
GAIKEI
  6
Continuous
100
AcDbCircle
 10
36.69487371172002
 20
28.21902094858919
 30
0.0
 40
0.35
100
AcDbArc
 50
7.83045700000142
 51
77.90524300000477
  0
ELLIPSE
  5
19C
330
2
100
AcDbEntity
  8
GAIKEI
  6
Continuous
 62
     1
100
AcDbEllipse
 10
35.28592456172001
 20
27.79483059858919
 30
0.0
 11
0.0
 21
0.1249999999999998
 31
0.0
210
0.0
220
0.0
230
1.0
 40
0.0524
 41
0.0
 42
6.283185307179584
  0
ELLIPSE
  5
19D
330
2
100
AcDbEntity
  8
GAIKEI
  6
Continuous
 62
     1
100
AcDbEllipse
 10
35.28592456172001
 20
27.25483059858922
 30
0.0
 11
0.0
 21
0.1249999999999998
 31
0.0
210
0.0
220
0.0
230
1.0
 40
0.0524
 41
0.0
 42
6.283185307179584
  0
LINE
  5
19E
330
2
100
AcDbEntity
  8
GAIKEI
  6
Continuous
 62
     1
100
AcDbLine
 10
35.60817456172001
 20
23.24563244858919
 30
0.0
 11
35.60817456172001
 21
28.02402879858923
 31
0.0
  0
LINE
  5
19F
330
2
100
AcDbEntity
  8
GAIKEI
  6
Continuous
100
AcDbLine
 10
35.30317456172
 20
23.13142854858918
 30
0.0
 11
35.30317456172
 21
28.1382326485892
 31
0.0
  0
ARC
  5
1A0
330
2
100
AcDbEntity
  8
GAIKEI
  6
Continuous
100
AcDbCircle
 10
35.35317456172001
 20
23.13142854858918
 30
0.0
 40
0.05
100
AcDbArc
 50
180.0
 51
272.0000000000035
  0
ARC
  5
1A1
330
2
100
AcDbEntity
  8
GAIKEI
  6
Continuous
100
AcDbCircle
 10
36.41607111171996
 20
23.2803566985892
 30
0.0
 40
0.15
100
AcDbArc
 50
272.0000000000035
 51
352.1695429999986
  0
LINE
  5
1A2
330
2
100
AcDbEntity
  8
GAIKEI
  6
Continuous
100
AcDbLine
 10
35.70485471172001
 20
23.10542904858923
 30
0.0
 11
36.42130606172
 21
23.13044804858916
 31
0.0
  0
LINE
  5
1A3
330
2
100
AcDbEntity
  8
GAIKEI
  6
Continuous
100
AcDbLine
 10
35.71266541172
 20
23.09395179858919
 30
0.0
 11
35.71235641171997
 21
23.10280139858921
 31
0.0
  0
ARC
  5
1A4
330
2
100
AcDbEntity
  8
GAIKEI
  6
Continuous
 62
     1
100
AcDbCircle
 10
35.75817456172
 20
23.24563244858919
 30
0.0
 40
0.15
100
AcDbArc
 50
180.0
 51
252.2145029999985
  0
LINE
  5
1A5
330
2
100
AcDbEntity
  8
GAIKEI
  6
Continuous
100
AcDbLine
 10
35.35491951172
 20
23.08145899858923
 30
0.0
 11
35.71266541172
 21
23.09395179858919
 31
0.0
  0
ARC
  5
1A6
330
2
100
AcDbEntity
  8
GAIKEI
  6
Continuous
100
AcDbCircle
 10
35.40817456172002
 20
23.19016014858923
 30
0.0
 40
0.15
100
AcDbArc
 50
180.0
 51
272.0000000000035
  0
LINE
  5
1A7
330
2
100
AcDbEntity
  8
GAIKEI
  6
Continuous
100
AcDbLine
 10
35.41340946172002
 20
23.04025154858923
 30
0.0
 11
36.46646206171997
 21
23.07702494858919
 31
0.0
  0
ARC
  5
1A8
330
2
100
AcDbEntity
  8
GAIKEI
  6
Continuous
100
AcDbCircle
 10
35.85817451171998
 20
25.4074908985892
 30
0.0
 40
1.044499999999998
100
AcDbArc
 50
352.1695429999986
 51
0.0
  0
ARC
  5
1A9
330
2
100
AcDbEntity
  8
GAIKEI
  6
Continuous
100
AcDbCircle
 10
35.85817451171998
 20
25.4074908985892
 30
0.0
 40
0.9925
100
AcDbArc
 50
352.1695429999986
 51
0.0
  0
ARC
  5
1AA
330
2
100
AcDbEntity
  8
GAIKEI
  6
Continuous
100
AcDbCircle
 10
35.85817451171998
 20
25.4074908985892
 30
0.0
 40
1.5
100
AcDbArc
 50
352.1695429999986
 51
0.0
  0
LINE
  5
1AB
330
2
100
AcDbEntity
  8
GAIKEI
  6
Continuous
100
AcDbLine
 10
37.34418786171997
 20
25.20312759858919
 30
0.0
 11
37.23109576172002
 21
24.38078634858923
 31
0.0
  0
LINE
  5
1AC
330
2
100
AcDbEntity
  8
GAIKEI
  6
Continuous
100
AcDbLine
 10
36.84142001171998
 20
25.27227049858922
 30
0.0
 11
36.56467246171999
 21
23.25992034858919
 31
0.0
  0
LINE
  5
1AD
330
2
100
AcDbEntity
  8
GAIKEI
  6
Continuous
100
AcDbLine
 10
37.23109576172002
 20
24.38078634858923
 30
0.0
 11
37.05439706171997
 21
23.09593429858919
 31
0.0
  0
ARC
  5
1AE
330
2
100
AcDbEntity
  8
GAIKEI
  6
Continuous
100
AcDbCircle
 10
36.46122441172
 20
23.22701219858922
 30
0.0
 40
0.15
100
AcDbArc
 50
272.0000000000035
 51
352.1695429999986
  0
LINE
  5
1AF
330
2
100
AcDbEntity
  8
GAIKEI
  6
Continuous
100
AcDbLine
 10
36.89293516171998
 20
25.26518589858918
 30
0.0
 11
36.60982571171999
 21
23.20657584858915
 31
0.0
  0
LINE
  5
1B0
330
2
100
AcDbEntity
  8
GAIKEI
  6
Continuous
100
AcDbLine
 10
37.05439706171997
 20
23.09593429858919
 30
0.0
 11
37.04161016172
 21
23.00295549858922
 31
0.0
  0
LINE
  5
1B1
330
2
100
AcDbEntity
  8
GAIKEI
  6
Continuous
100
AcDbLine
 10
35.16817451171997
 20
22.38483059858922
 30
0.0
 11
35.25817456171998
 21
22.38483059858922
 31
0.0
  0
LINE
  5
1B2
330
2
100
AcDbEntity
  8
GAIKEI
  6
Continuous
100
AcDbLine
 10
36.76820891171999
 20
22.70840939858917
 30
0.0
 11
35.25817456171998
 21
22.38483059858922
 31
0.0
  0
ARC
  5
1B3
330
2
100
AcDbEntity
  8
GAIKEI
  6
Continuous
100
AcDbCircle
 10
36.69487371172002
 20
23.05064024858919
 30
0.0
 40
0.35
100
AcDbArc
 50
282.0947569999952
 51
352.1695429999986
  0
ELLIPSE
  5
1B4
330
2
100
AcDbEntity
  8
GAIKEI
  6
Continuous
 62
     1
100
AcDbEllipse
 10
35.28592456172001
 20
23.47483059858914
 30
0.0
 11
0.0
 21
-0.1249999999999998
 31
0.0
210
0.0
220
0.0
230
1.0
 40
0.0524
 41
0.0
 42
6.283185307179584
  0
ELLIPSE
  5
1B5
330
2
100
AcDbEntity
  8
GAIKEI
  6
Continuous
 62
     1
100
AcDbEllipse
 10
35.28592456172001
 20
24.01483059858922
 30
0.0
 11
0.0
 21
-0.1249999999999998
 31
0.0
210
0.0
220
0.0
230
1.0
 40
0.0524
 41
0.0
 42
6.283185307179584
  0
SPLINE
  5
1B6
330
2
100
AcDbEntity
  8
GAIKEI
  6
Continuous
 62
     1
100
AcDbSpline
210
0.0
220
0.0
230
1.0
 70
     8
 71
     3
 72
     9
 73
     5
 74
     3
 42
0.0000000001
 43
0.0000000001
 44
0.000001
 12
0.1645792369075682
 22
-0.9863638653047479
 32
0.0
 13
0.2978225556979947
 23
-0.9546212470490665
 33
0.0
 40
0.0
 40
0.0
 40
0.0
 40
0.0
 40
0.0035192682478015
 40
0.0063721167681864
 40
0.0063721167681864
 40
0.0063721167681864
 40
0.0063721167681864
 10
37.07173656054798
 20
21.42804595844379
 30
0.0
 10
37.07192962670887
 20
21.42688886543314
 30
0.0
 10
37.07230093256183
 20
21.42479761872643
 30
0.0
 10
37.07279611985306
 20
21.42272816873928
 30
0.0
 10
37.07307933406551
 20
21.42182037213522
 30
0.0
 11
37.07173656054798
 21
21.42804595844379
 31
0.0
 11
37.07237845103853
 21
21.42458599522135
 31
0.0
 11
37.07307933406551
 21
21.42182037213522
 31
0.0
  0
SPLINE
  5
1B7
330
2
100
AcDbEntity
  8
GAIKEI
  6
Continuous
 62
     1
100
AcDbSpline
210
0.0
220
0.0
230
1.0
 70
     8
 71
     3
 72
     9
 73
     5
 74
     3
 42
0.0000000001
 43
0.0000000001
 44
0.000001
 12
0.1008208793748643
 22
-0.994904593557633
 32
0.0
 13
0.1320556432458019
 23
-0.9912423049320167
 33
0.0
 40
0.0
 40
0.0
 40
0.0
 40
0.0
 40
0.0110438235454379
 40
0.0212594800383551
 40
0.0212594800383551
 40
0.0212594800383551
 40
0.0212594800383551
 10
37.06691478291683
 20
21.46491119501613
 30
0.0
 10
37.06728593225066
 20
21.46124867809087
 30
0.0
 10
37.06804019341517
 20
21.4542022050645
 30
0.0
 10
37.06890651094923
 20
21.4471684266577
 30
0.0
 10
37.06935618931235
 20
21.44379302969489
 30
0.0
 11
37.06691478291683
 21
21.46491119501613
 31
0.0
 11
37.06810065150504
 21
21.45393136128038
 31
0.0
 11
37.06935618931235
 21
21.44379302969489
 31
0.0
  0
SPLINE
  5
1B8
330
2
100
AcDbEntity
  8
GAIKEI
  6
Continuous
 62
     1
100
AcDbSpline
210
0.0
220
0.0
230
1.0
 70
     8
 71
     3
 72
     9
 73
     5
 74
     3
 42
0.0000000001
 43
0.0000000001
 44
0.000001
 12
0.0354014571428636
 22
-0.9993731719593847
 32
0.0
 13
0.0453932351704914
 23
-0.9989691958217512
 33
0.0
 40
0.0
 40
0.0
 40
0.0
 40
0.0
 40
0.0065510483115551
 40
0.0130121296136598
 40
0.0130121296136598
 40
0.0130121296136598
 40
0.0130121296136598
 10
37.06233714592523
 20
21.53473541792798
 30
0.0
 10
37.06241445147724
 20
21.53255310395105
 30
0.0
 10
37.06259082518437
 20
21.52821925898884
 30
0.0
 10
37.06278869923655
 20
21.52388640260268
 30
0.0
 10
37.06288646236422
 20
21.52173492887184
 30
0.0
 11
37.06233714592523
 21
21.53473541792798
 31
0.0
 11
37.06259742785576
 21
21.52818951251399
 31
0.0
 11
37.06288646236422
 21
21.52173492887184
 31
0.0
  0
SPLINE
  5
1B9
330
2
100
AcDbEntity
  8
GAIKEI
  6
Continuous
 62
     1
100
AcDbSpline
210
0.0
220
0.0
230
1.0
 70
     8
 71
     3
 72
     9
 73
     5
 74
     3
 42
0.0000000001
 43
0.0000000001
 44
0.000001
 12
-0.0091614349012668
 22
-0.9999580331746678
 32
0.0
 13
0.0035961960669798
 23
-0.9999935336660172
 33
0.0
 40
0.0
 40
0.0
 40
0.0
 40
0.0
 40
0.0092713104754814
 40
0.0185548833565437
 40
0.0185548833565437
 40
0.0185548833565437
 40
0.0185548833565437
 10
37.06154368884668
 20
21.59815094905159
 30
0.0
 10
37.06151537601089
 20
21.59506064192225
 30
0.0
 10
37.06147372744155
 20
21.58887578832332
 30
0.0
 10
37.06147152517071
 20
21.5826907647291
 30
0.0
 10
37.0614826536868
 20
21.57959626044565
 30
0.0
 11
37.06154368884668
 21
21.59815094905159
 31
0.0
 11
37.06148358936051
 21
21.58887984833555
 31
0.0
 11
37.0614826536868
 21
21.57959626044565
 31
0.0
  0
SPLINE
  5
1BA
330
2
100
AcDbEntity
  8
GAIKEI
  6
Continuous
 62
     1
100
AcDbSpline
210
0.0
220
0.0
230
1.0
 70
     8
 71
     3
 72
     9
 73
     5
 74
     3
 42
0.0000000001
 43
0.0000000001
 44
0.000001
 12
-0.0569611709790511
 22
-0.9983763944528615
 32
0.0
 13
-0.0342607908576336
 23
-0.9994129267774203
 33
0.0
 40
0.0
 40
0.0
 40
0.0
 40
0.0
 40
0.0140491508216956
 40
0.0285936597046104
 40
0.0285936597046104
 40
0.0285936597046104
 40
0.0285936597046104
 10
37.06355784912299
 20
21.66193269113453
 30
0.0
 10
37.06329109709564
 20
21.65725724428703
 30
0.0
 10
37.06281236448174
 20
21.64773776872409
 30
0.0
 10
37.062442212891
 20
21.63821355970402
 30
0.0
 10
37.06227611076535
 20
21.63336823630695
 30
0.0
 11
37.06355784912299
 21
21.66193269113453
 31
0.0
 11
37.06284741759433
 21
21.6479014551696
 31
0.0
 11
37.06227611076535
 21
21.63336823630695
 31
0.0
  0
SPLINE
  5
1BB
330
2
100
AcDbEntity
  8
GAIKEI
  6
Continuous
 62
     1
100
AcDbSpline
210
0.0
220
0.0
230
1.0
 70
     8
 71
     3
 72
     9
 73
     5
 74
     3
 42
0.0000000001
 43
0.0000000001
 44
0.000001
 12
-0.1261518379468331
 22
-0.9920109443865204
 32
0.0
 13
-0.1054039013669571
 23
-0.9944294935170741
 33
0.0
 40
0.0
 40
0.0
 40
0.0
 40
0.0
 40
0.0069138441174463
 40
0.0141952970832147
 40
0.0141952970832147
 40
0.0141952970832147
 40
0.0141952970832147
 10
37.06892894319313
 20
21.72235749942363
 30
0.0
 10
37.06863821181223
 20
21.72007129641286
 30
0.0
 10
37.0680630354028
 20
21.71537453940575
 30
0.0
 10
37.06753682505955
 20
21.71067200801777
 30
0.0
 10
37.06728099387615
 20
21.7082583774895
 30
0.0
 11
37.06892894319313
 21
21.72235749942363
 31
0.0
 11
37.06808943244336
 21
21.71549482545535
 31
0.0
 11
37.06728099387615
 21
21.7082583774895
 31
0.0
  0
SPLINE
  5
1BC
330
2
100
AcDbEntity
  8
GAIKEI
  6
Continuous
 62
     1
100
AcDbSpline
210
0.0
220
0.0
230
1.0
 70
     8
 71
     3
 72
     9
 73
     5
 74
     3
 42
0.0000000001
 43
0.0000000001
 44
0.000001
 12
0.1646380104571948
 22
-0.9863540568744554
 32
0.0
 13
0.2982273181557149
 23
-0.9544948751594478
 33
0.0
 40
0.0
 40
0.0
 40
0.0
 40
0.0
 40
0.0034886175919595
 40
0.0063125319358737
 40
0.0063125319358737
 40
0.0063125319358737
 40
0.0063125319358737
 10
37.07173656054798
 20
8.018010979455963
 30
0.0
 10
37.07192801356784
 20
8.016863975417725
 30
0.0
 10
37.07229949564124
 20
8.014792692388711
 30
0.0
 10
37.07279861126501
 20
8.012744898896995
 30
0.0
 10
37.07307933406551
 20
8.011846428307277
 30
0.0
 11
37.07173656054798
 21
8.018010979455963
 31
0.0
 11
37.07237848398407
 21
8.014582219266884
 31
0.0
 11
37.07307933406551
 21
8.011846428307277
 31
0.0
  0
SPLINE
  5
1BD
330
2
100
AcDbEntity
  8
GAIKEI
  6
Continuous
 62
     1
100
AcDbSpline
210
0.0
220
0.0
230
1.0
 70
     8
 71
     3
 72
     9
 73
     5
 74
     3
 42
0.0000000001
 43
0.0000000001
 44
0.000001
 12
0.1008215918041188
 22
-0.9949045213617655
 32
0.0
 13
0.1320410088821702
 23
-0.9912442544465914
 33
0.0
 40
0.0
 40
0.0
 40
0.0
 40
0.0
 40
0.0110434410636091
 40
0.0212594793641799
 40
0.0212594793641799
 40
0.0212594793641799
 40
0.0212594793641799
 10
37.06691478291683
 20
8.054937251188192
 30
0.0
 10
37.06728592201917
 20
8.051274861373
 30
0.0
 10
37.06804023564697
 20
8.044228393976833
 30
0.0
 10
37.06890654397769
 20
8.037194615623167
 30
0.0
 10
37.06935618931235
 20
8.033819085866952
 30
0.0
 11
37.06691478291683
 21
8.054937251188192
 31
0.0
 11
37.06810068037603
 21
8.04395780488258
 31
0.0
 11
37.06935618931235
 21
8.033819085866952
 31
0.0
  0
SPLINE
  5
1BE
330
2
100
AcDbEntity
  8
GAIKEI
  6
Continuous
 62
     1
100
AcDbSpline
210
0.0
220
0.0
230
1.0
 70
     8
 71
     3
 72
     9
 73
     5
 74
     3
 42
0.0000000001
 43
0.0000000001
 44
0.000001
 12
0.035394893594903
 22
-0.9993734044427066
 32
0.0
 13
0.0453961719075586
 23
-0.9989690623718733
 33
0.0
 40
0.0
 40
0.0
 40
0.0
 40
0.0
 40
0.0065206358170787
 40
0.0129511489853377
 40
0.0129511489853377
 40
0.0129511489853377
 40
0.0129511489853377
 10
37.06233714592523
 20
8.124700438940152
 30
0.0
 10
37.06241407832886
 20
8.122528255601604
 30
0.0
 10
37.06259091671824
 20
8.118214769103522
 30
0.0
 10
37.06278915547047
 20
8.113902279613988
 30
0.0
 10
37.06288646236422
 20
8.111760985043899
 30
0.0
 11
37.06233714592523
 21
8.124700438940152
 31
0.0
 11
37.06259740023623
 21
8.118184965657261
 31
0.0
 11
37.06288646236422
 21
8.111760985043899
 31
0.0
  0
SPLINE
  5
1BF
330
2
100
AcDbEntity
  8
GAIKEI
  6
Continuous
 62
     1
100
AcDbSpline
210
0.0
220
0.0
230
1.0
 70
     8
 71
     3
 72
     9
 73
     5
 74
     3
 42
0.0000000001
 43
0.0000000001
 44
0.000001
 12
-0.0091608177041735
 22
-0.9999580388291256
 32
0.0
 13
0.003597856109263
 23
-0.9999935276947631
 33
0.0
 40
0.0
 40
0.0
 40
0.0
 40
0.0
 40
0.0093018293769684
 40
0.0186159185134004
 40
0.0186159185134004
 40
0.0186159185134004
 40
0.0186159185134004
 10
37.06154368884668
 20
8.18817700522365
 30
0.0
 10
37.0615152847256
 20
8.185076525536544
 30
0.0
 10
37.06147359436507
 20
8.178871326328019
 30
0.0
 10
37.06147148343596
 20
8.172665957742085
 30
0.0
 10
37.0614826536868
 20
8.169561281457816
 30
0.0
 11
37.06154368884668
 21
8.18817700522365
 31
0.0
 11
37.06148358449289
 21
8.178875385064969
 31
0.0
 11
37.0614826536868
 21
8.169561281457816
 31
0.0
  0
SPLINE
  5
1C0
330
2
100
AcDbEntity
  8
GAIKEI
  6
Continuous
 62
     1
100
AcDbSpline
210
0.0
220
0.0
230
1.0
 70
     8
 71
     3
 72
     9
 73
     5
 74
     3
 42
0.0000000001
 43
0.0000000001
 44
0.000001
 12
-0.0569605106606471
 22
-0.9983764321263189
 32
0.0
 13
-0.0342601710533544
 23
-0.9994129480246865
 33
0.0
 40
0.0
 40
0.0
 40
0.0
 40
0.0
 40
0.0140186829178396
 40
0.0285326849080215
 40
0.0285326849080215
 40
0.0285326849080215
 40
0.0285326849080215
 10
37.06355784912299
 20
8.2518977121467
 30
0.0
 10
37.06329167867706
 20
8.247232404601826
 30
0.0
 10
37.06281261959706
 20
8.237733305059931
 30
0.0
 10
37.06244186149563
 20
8.22822945298456
 30
0.0
 10
37.06227611076535
 20
8.223394292479012
 30
0.0
 11
37.06355784912299
 21
8.2518977121467
 31
0.0
 11
37.06284741724508
 21
8.237896990036375
 31
0.0
 11
37.06227611076535
 21
8.223394292479012
 31
0.0
  0
SPLINE
  5
1C1
330
2
100
AcDbEntity
  8
GAIKEI
  6
Continuous
 62
     1
100
AcDbSpline
210
0.0
220
0.0
230
1.0
 70
     8
 71
     3
 72
     9
 73
     5
 74
     3
 42
0.0000000001
 43
0.0000000001
 44
0.000001
 12
-0.1261500648611508
 22
-0.9920111698642951
 32
0.0
 13
-0.1054054122280503
 23
-0.9944293333731838
 33
0.0
 40
0.0
 40
0.0
 40
0.0
 40
0.0
 40
0.0069139016790093
 40
0.0141952970220697
 40
0.0141952970220697
 40
0.0141952970220697
 40
0.0141952970220697
 10
37.06892894319313
 20
8.312383555595687
 30
0.0
 10
37.06863821347805
 20
8.31009733303138
 30
0.0
 10
37.06806304094879
 20
8.30540057559939
 30
0.0
 10
37.06753682670206
 20
8.300698044700572
 30
0.0
 10
37.06728099387615
 20
8.298284433661564
 30
0.0
 11
37.06892894319313
 21
8.312383555595687
 31
0.0
 11
37.06808943733282
 21
8.305520823070509
 31
0.0
 11
37.06728099387615
 21
8.298284433661564
 31
0.0
  0
SPLINE
  5
1C2
330
2
100
AcDbEntity
  8
GAIKEI
  6
Continuous
 62
     1
100
AcDbSpline
210
0.0
220
0.0
230
1.0
 70
     8
 71
     3
 72
    43
 73
    39
 74
    37
 42
0.0000000001
 43
0.0000000001
 44
0.000001
 12
0.2770611746011755
 22
0.9608522808052324
 32
0.0
 13
-0.2770611746011753
 23
0.9608522808052324
 33
0.0
 40
0.0
 40
0.0
 40
0.0
 40
0.0
 40
0.0034298107286644
 40
0.0070027013734849
 40
0.0128036496248563
 40
0.0195021664477994
 40
0.0270601532254349
 40
0.0354384984689947
 40
0.044597543012508
 40
0.0544973314295224
 40
0.0650977598421506
 40
0.0763586698566001
 40
0.0882399129626692
 40
0.1007013981865281
 40
0.1137031301481292
 40
0.1272052417758368
 40
0.1411680243594508
 40
0.1555519567544706
 40
0.1703177350619433
 40
0.1854263038353405
 40
0.2005341871667812
 40
0.2152980286113586
 40
0.2296789521908573
 40
0.2436378337148086
 40
0.2571353318569197
 40
0.2701319177250982
 40
0.2825879039717209
 40
0.2944634747608093
 40
0.3057187183952
 40
0.3163136652762224
 40
0.3262083354256471
 40
0.3353628026942348
 40
0.3437372883792414
 40
0.3512923084612565
 40
0.3579889238937057
 40
0.363789203367387
 40
0.3673620940122006
 40
0.3707919047408718
 40
0.3707919047408718
 40
0.3707919047408718
 40
0.3707919047408718
 10
37.07765697105711
 20
21.40051910133431
 30
0.0
 10
37.07797372685349
 20
21.40161761515477
 30
0.0
 10
37.07858222663076
 20
21.40387145926881
 30
0.0
 10
37.07961943229937
 20
21.40801153629142
 30
0.0
 10
37.08079184943944
 20
21.41324007483891
 30
0.0
 10
37.08205720388485
 20
21.41980582853395
 30
0.0
 10
37.08332664919841
 20
21.42724367013854
 30
0.0
 10
37.08458046726923
 20
21.43551472873251
 30
0.0
 10
37.08580759891842
 20
21.44457809079734
 30
0.0
 10
37.08699450671491
 20
21.45439331420465
 30
0.0
 10
37.08812857109901
 20
21.46491972068152
 30
0.0
 10
37.08919699089284
 20
21.47611665304978
 30
0.0
 10
37.0901870823522
 20
21.48794341845831
 30
0.0
 10
37.09108617005153
 20
21.50035931693409
 30
0.0
 10
37.0918816062491
 20
21.51332363984823
 30
0.0
 10
37.09256075697037
 20
21.52679567464541
 30
0.0
 10
37.09311100050082
 20
21.54073470618396
 30
0.0
 10
37.09351972398593
 20
21.55510001863465
 30
0.0
 10
37.0937743219735
 20
21.56985089504722
 30
0.0
 10
37.09386160291983
 20
21.58484505571638
 30
0.0
 10
37.09377432957249
 20
21.59983857084612
 30
0.0
 10
37.09351973714061
 20
21.61458757016006
 30
0.0
 10
37.09311101755298
 20
21.62894993279286
 30
0.0
 10
37.09256077633432
 20
21.64288512052541
 30
0.0
 10
37.09188162641992
 20
21.6563525962722
 30
0.0
 10
37.09108618954922
 20
21.66931182364395
 30
0.0
 10
37.09018709967168
 20
21.68172226883951
 30
0.0
 10
37.08919700444159
 20
21.69354340197972
 30
0.0
 10
37.08812857908939
 20
21.70473470182146
 30
0.0
 10
37.08699450710419
 20
21.71525565422298
 30
0.0
 10
37.08580758898786
 20
21.72506578060481
 30
0.0
 10
37.08458044408471
 20
21.73412458132147
 30
0.0
 10
37.08332660661682
 20
21.74239179212621
 30
0.0
 10
37.08205713952792
 20
21.74982667843795
 30
0.0
 10
37.08079173916325
 20
21.75639054233857
 30
0.0
 10
37.0796193601026
 20
21.76161820886238
 30
0.0
 10
37.07858223051655
 20
21.76575807489671
 30
0.0
 10
37.07797372685349
 20
21.76801191807737
 30
0.0
 10
37.07765697105711
 20
21.76911043189782
 30
0.0
 11
37.07765697105711
 21
21.40051910133431
 31
0.0
 11
37.07855893828153
 21
21.40382817923123
 31
0.0
 11
37.07942699069386
 21
21.40729400408188
 31
0.0
 11
37.08069885711964
 21
21.41295378969161
 31
0.0
 11
37.08197996522344
 21
21.41952864155107
 31
0.0
 11
37.0832577175652
 21
21.42697782173227
 31
0.0
 11
37.08451951670478
 21
21.43526059230746
 31
0.0
 11
37.08575276520215
 21
21.44433621534878
 31
0.0
 11
37.08694486561725
 21
21.45416395292827
 31
0.0
 11
37.08808322051002
 21
21.46470306711805
 31
0.0
 11
37.08915523244034
 21
21.4759128199905
 31
0.0
 11
37.09014830396816
 21
21.48775247361746
 31
0.0
 11
37.09104983765352
 21
21.50018129007126
 31
0.0
 11
37.09184723605611
 21
21.51315853142396
 31
0.0
 11
37.09252790173608
 21
21.5266434597477
 31
0.0
 11
37.09307923725325
 21
21.54059533711469
 31
0.0
 11
37.09348864516758
 21
21.5549734255969
 31
0.0
 11
37.09374352803903
 21
21.56973698726668
 31
0.0
 11
37.09383128842743
 21
21.58484528419601
 31
0.0
 11
37.09374352803948
 21
21.59995289567198
 31
0.0
 11
37.09348864516838
 21
21.61471452019063
 31
0.0
 11
37.09307923725422
 21
21.62908959863816
 31
0.0
 11
37.09252790173721
 21
21.64303757190063
 31
0.0
 11
37.0918472360573
 21
21.65651788086413
 31
0.0
 11
37.09104983765465
 21
21.66948996641477
 31
0.0
 11
37.0901483039693
 21
21.68191326943858
 31
0.0
 11
37.08915523244136
 21
21.69374723082169
 31
0.0
 11
37.08808322051087
 21
21.7049512914501
 31
0.0
 11
37.086944865618
 21
21.71548489221001
 31
0.0
 11
37.08575276520267
 21
21.72530747398738
 31
0.0
 11
37.08451951670511
 21
21.73437847766846
 31
0.0
 11
37.08325771756543
 21
21.74265734413913
 31
0.0
 11
37.08197996522355
 21
21.75010351428566
 31
0.0
 11
37.08069885711971
 21
21.75667642899404
 31
0.0
 11
37.07942699069386
 21
21.76233552915025
 31
0.0
 11
37.07855893828153
 21
21.7658013540009
 31
0.0
 11
37.07765697105711
 21
21.76911043189782
 31
0.0
  0
SPLINE
  5
1C3
330
2
100
AcDbEntity
  8
GAIKEI
  6
Continuous
 62
     1
100
AcDbSpline
210
0.0
220
0.0
230
1.0
 70
     8
 71
     3
 72
    43
 73
    39
 74
    37
 42
0.0000000001
 43
0.0000000001
 44
0.000001
 12
0.2770611746011755
 22
0.9608522808052324
 32
0.0
 13
-0.2770611746011753
 23
0.9608522808052324
 33
0.0
 40
0.0
 40
0.0
 40
0.0
 40
0.0
 40
0.0034003813442567
 40
0.0069436756809803
 40
0.0127446235585474
 40
0.0194431400990739
 40
0.0270011267012152
 40
0.035379471831294
 40
0.0445385162965675
 40
0.0544383046566456
 40
0.065038733025832
 40
0.0762996430053985
 40
0.0881808860827082
 40
0.1006423712818161
 40
0.1136441032215013
 40
0.1271462148291945
 40
0.141108997393914
 40
0.1554929297708155
 40
0.1702587080600971
 40
0.1853672768149865
 40
0.2004758455698715
 40
0.2152416238591471
 40
0.2296255562360438
 40
0.2435883388007565
 40
0.2570904504083904
 40
0.2700921823480791
 40
0.2825536675472426
 40
0.2944349106245648
 40
0.3056958206041475
 40
0.3162962489732856
 40
0.3261960373334501
 40
0.3353550817987494
 40
0.3437334269288415
 40
0.3512914135310032
 40
0.3579899300715396
 40
0.363790877949119
 40
0.3673341722858451
 40
0.370734553630101
 40
0.370734553630101
 40
0.370734553630101
 40
0.370734553630101
 10
37.07765697105711
 20
7.990545157506375
 30
0.0
 10
37.07797100894022
 20
7.99163424556312
 30
0.0
 10
37.07858330549424
 20
7.993866588508391
 30
0.0
 10
37.07962449355502
 20
7.99798549609601
 30
0.0
 10
37.08079076482412
 20
8.003205354885064
 30
0.0
 10
37.08205755501234
 20
8.009770766722127
 30
0.0
 10
37.08332653888072
 20
8.01720871791104
 30
0.0
 10
37.08458050131417
 20
8.02547974203394
 30
0.0
 10
37.08580758869559
 20
8.03454311454478
 30
0.0
 10
37.08699450981053
 20
8.044358334722037
 30
0.0
 10
37.0881285702249
 20
8.054884742096735
 30
0.0
 10
37.08919699117413
 20
8.066081674153256
 30
0.0
 10
37.09018708229026
 20
8.077908439613013
 30
0.0
 10
37.09108617008262
 20
8.090324338040773
 30
0.0
 10
37.09188160624916
 20
8.103288660939428
 30
0.0
 10
37.0925607569756
 20
8.116760695714631
 30
0.0
 10
37.09311100050274
 20
8.130699727234453
 30
0.0
 10
37.0935197239843
 20
8.145065039667834
 30
0.0
 10
37.09377432198242
 20
8.159815916057461
 30
0.0
 10
37.09386160421515
 20
8.174810305208181
 30
0.0
 10
37.09377432198289
 20
8.189804694358901
 30
0.0
 10
37.09351972398514
 20
8.204555570748532
 30
0.0
 10
37.09311100050368
 20
8.218920883181908
 30
0.0
 10
37.09256075697676
 20
8.232859914701716
 30
0.0
 10
37.09188160625038
 20
8.246331949476902
 30
0.0
 10
37.09108617008371
 20
8.259296272375548
 30
0.0
 10
37.09018708229144
 20
8.27171217080334
 30
0.0
 10
37.08919699117517
 20
8.283538936263113
 30
0.0
 10
37.08812857022571
 20
8.294735868319605
 30
0.0
 10
37.08699450981134
 20
8.305262275694321
 30
0.0
 10
37.0858075886961
 20
8.315077495871566
 30
0.0
 10
37.08458050131448
 20
8.32414086838242
 30
0.0
 10
37.08332653888097
 20
8.332411892505326
 30
0.0
 10
37.08205755501243
 20
8.33984984369423
 30
0.0
 10
37.08079076482421
 20
8.346415255531306
 30
0.0
 10
37.07962449355501
 20
8.351635114320343
 30
0.0
 10
37.07858330549424
 20
8.355754021907976
 30
0.0
 10
37.07797100894022
 20
8.357986364853246
 30
0.0
 10
37.07765697105711
 20
8.359075452909991
 30
0.0
 11
37.07765697105711
 21
7.990545157506375
 31
0.0
 11
37.07855893828153
 21
7.993823717823346
 31
0.0
 11
37.07942699069386
 21
7.997259025094052
 31
0.0
 11
37.08069885711964
 21
8.002918810703789
 31
0.0
 11
37.08197996522344
 21
8.009493662563244
 31
0.0
 11
37.0832577175652
 21
8.016942842744441
 31
0.0
 11
37.08451951670478
 21
8.025225613319634
 31
0.0
 11
37.08575276520215
 21
8.034301236360846
 31
0.0
 11
37.08694486561725
 21
8.044128973940329
 31
0.0
 11
37.08808322051002
 21
8.054668088130227
 31
0.0
 11
37.08915523244034
 21
8.06587784100256
 31
0.0
 11
37.09014830396816
 21
8.077717494629581
 31
0.0
 11
37.09104983765352
 21
8.090146311083371
 31
0.0
 11
37.09184723605611
 21
8.103123552436072
 31
0.0
 11
37.09252790173608
 21
8.116608480759822
 31
0.0
 11
37.09307923725325
 21
8.130560358126757
 31
0.0
 11
37.09348864516758
 21
8.144938446609073
 31
0.0
 11
37.09374352803903
 21
8.159702008278799
 31
0.0
 11
37.09383128842743
 21
8.174810305208183
 31
0.0
 11
37.09374352803948
 21
8.189918602137566
 31
0.0
 11
37.09348864516838
 21
8.204682163807291
 31
0.0
 11
37.09307923725422
 21
8.219060252289606
 31
0.0
 11
37.09252790173721
 21
8.233012129656541
 31
0.0
 11
37.0918472360573
 21
8.246497057980235
 31
0.0
 11
37.09104983765465
 21
8.259474299332936
 31
0.0
 11
37.0901483039693
 21
8.271903115786782
 31
0.0
 11
37.08915523244136
 21
8.283742769413805
 31
0.0
 11
37.08808322051087
 21
8.294952522286138
 31
0.0
 11
37.086944865618
 21
8.305491636475977
 31
0.0
 11
37.08575276520267
 21
8.315319374055519
 31
0.0
 11
37.08451951670511
 21
8.324394997096732
 31
0.0
 11
37.08325771756543
 21
8.332677767671922
 31
0.0
 11
37.08197996522355
 21
8.34012694785312
 31
0.0
 11
37.08069885711971
 21
8.346701799712576
 31
0.0
 11
37.07942699069386
 21
8.352361585322311
 31
0.0
 11
37.07855893828153
 21
8.355796892593019
 31
0.0
 11
37.07765697105711
 21
8.359075452909991
 31
0.0
  0
SPLINE
  5
1C4
330
2
100
AcDbEntity
  8
GAIKEI
  6
Continuous
100
AcDbSpline
210
0.0
220
0.0
230
1.0
 70
     8
 71
     3
 72
     9
 73
     5
 74
     3
 42
0.0000000001
 43
0.0000000001
 44
0.000001
 12
-0.3157010400653189
 22
-0.9488587109268038
 32
0.0
 13
-0.5936093330953858
 23
-0.8047533533089822
 33
0.0
 40
0.0
 40
0.0
 40
0.0
 40
0.0
 40
0.0090766684078573
 40
0.0173040062121937
 40
0.0173040062121937
 40
0.0173040062121937
 40
0.0173040062121937
 10
37.3356525919036
 20
3.921147942295164
 30
0.0
 10
37.33469742068471
 20
3.918277117000167
 30
0.0
 10
37.33268567593932
 20
3.912870060461066
 30
0.0
 10
37.32995631421943
 20
3.907729933926123
 30
0.0
 10
37.32832837271704
 20
3.905522941363841
 30
0.0
 11
37.3356525919036
 21
3.921147942295164
 31
0.0
 11
37.33238893565911
 21
3.912678945638986
 31
0.0
 11
37.32832837271704
 21
3.905522941363841
 31
0.0
  0
SPLINE
  5
1C5
330
2
100
AcDbEntity
  8
GAIKEI
  6
Continuous
100
AcDbSpline
210
0.0
220
0.0
230
1.0
 70
     8
 71
     3
 72
     9
 73
     5
 74
     3
 42
0.0000000001
 43
0.0000000001
 44
0.000001
 12
-0.0126254316132282
 22
-0.999920296061931
 32
0.0
 13
-0.1660238152324452
 23
-0.9861217433844885
 33
0.0
 40
0.0
 40
0.0
 40
0.0
 40
0.0
 40
0.0135509657198281
 40
0.02995193712084
 40
0.02995193712084
 40
0.02995193712084
 40
0.02995193712084
 10
37.35811353074237
 20
4.026006346982711
 30
0.0
 10
37.35805650181204
 20
4.021489718431213
 30
0.0
 10
37.35775215064201
 20
4.011509460032967
 30
0.0
 10
37.3567628804417
 20
4.001551271967878
 30
0.0
 10
37.35585522982653
 20
3.99616015379749
 30
0.0
 11
37.35811353074237
 21
4.026006346982711
 31
0.0
 11
37.35764014987595
 21
4.012464267740114
 31
0.0
 11
37.35585522982653
 21
3.99616015379749
 31
0.0
  0
SPLINE
  5
1C6
330
2
100
AcDbEntity
  8
GAIKEI
  6
Continuous
100
AcDbSpline
210
0.0
220
0.0
230
1.0
 70
     8
 71
     3
 72
     9
 73
     5
 74
     3
 42
0.0000000001
 43
0.0000000001
 44
0.000001
 12
-0.9512628121061844
 22
-0.3083813585543628
 32
0.0
 13
-0.9560356348868982
 23
-0.2932505154750895
 33
0.0
 40
0.0
 40
0.0
 40
0.0
 40
0.0
 40
0.0023156638362856
 40
0.0045951359214106
 40
0.0045951359214106
 40
0.0045951359214106
 40
0.0045951359214106
 10
37.16792797253143
 20
3.767888655816448
 30
0.0
 10
37.16719370423383
 20
3.767650619963185
 30
0.0
 10
37.16572840420646
 20
3.767203975000452
 30
0.0
 10
37.16425985986687
 20
3.766768701086903
 30
0.0
 10
37.1635334410195
 20
3.766545882298912
 30
0.0
 11
37.16792797253143
 21
3.767888655816448
 31
0.0
 11
37.16571608012074
 21
3.767202931694981
 31
0.0
 11
37.1635334410195
 21
3.766545882298912
 31
0.0
  0
SPLINE
  5
1C7
330
2
100
AcDbEntity
  8
GAIKEI
  6
Continuous
100
AcDbSpline
210
0.0
220
0.0
230
1.0
 70
     8
 71
     3
 72
     9
 73
     5
 74
     3
 42
0.0000000001
 43
0.0000000001
 44
0.000001
 12
-0.9421594453780514
 22
-0.3351650033713585
 32
0.0
 13
-0.8771292464302293
 23
-0.4802543961867901
 33
0.0
 40
0.0
 40
0.0
 40
0.0
 40
0.0
 40
0.0011591428797868
 40
0.0020078270964326
 40
0.0020078270964326
 40
0.0020078270964326
 40
0.0020078270964326
 10
37.17476391043888
 20
3.77026902705208
 30
0.0
 10
37.17439987796797
 20
3.770139525676342
 30
0.0
 10
37.17377330746315
 20
3.769911409406249
 30
0.0
 10
37.1731199557315
 20
3.769733501735318
 30
0.0
 10
37.17287182048236
 20
3.769597640293312
 30
0.0
 11
37.17476391043888
 21
3.77026902705208
 31
0.0
 11
37.17366793078995
 21
3.769891969312737
 31
0.0
 11
37.17287182048236
 21
3.769597640293312
 31
0.0
  0
SPLINE
  5
1C8
330
2
100
AcDbEntity
  8
GAIKEI
  6
Continuous
100
AcDbSpline
210
0.0
220
0.0
230
1.0
 70
     8
 71
     3
 72
     9
 73
     5
 74
     3
 42
0.0000000001
 43
0.0000000001
 44
0.000001
 12
-0.9564705885565075
 22
-0.2918287395483318
 32
0.0
 13
-0.9752593618868349
 23
-0.2210637397948462
 33
0.0
 40
0.0
 40
0.0
 40
0.0
 40
0.0
 40
0.0050183846228803
 40
0.0095840110870593
 40
0.0095840110870593
 40
0.0095840110870593
 40
0.0095840110870593
 10
37.1635334410195
 20
3.766545882298912
 30
0.0
 10
37.16193346192156
 20
3.766057712679224
 30
0.0
 10
37.15888050231863
 20
3.765118973106272
 30
0.0
 10
37.15580135519376
 20
3.764257801910622
 30
0.0
 10
37.15431713187641
 20
3.76392137042373
 30
0.0
 11
37.1635334410195
 21
3.766545882298912
 31
0.0
 11
37.15872895432429
 21
3.765096883402718
 31
0.0
 11
37.15431713187641
 21
3.76392137042373
 31
0.0
  0
SPLINE
  5
1C9
330
2
100
AcDbEntity
  8
GAIKEI
  6
Continuous
 62
     1
100
AcDbSpline
210
0.0
220
0.0
230
1.0
 70
     8
 71
     3
 72
    13
 73
     9
 74
     7
 42
0.0000000001
 43
0.0000000001
 44
0.000001
 12
0.0171063064596899
 22
-0.9998536764343608
 32
0.0
 13
0.9062487129382523
 23
0.4227449234441039
 33
0.0
 40
0.0
 40
0.0
 40
0.0
 40
0.0
 40
0.1499071949144684
 40
0.2861535616705502
 40
0.407330187003585
 40
0.4849560908471047
 40
0.5237979657206546
 40
0.5360583401269641
 40
0.5360583401269641
 40
0.5360583401269641
 40
0.5360583401269641
 10
36.79213449310115
 20
4.637151402941042
 30
0.0
 10
36.79298927924006
 20
4.587189649621311
 30
0.0
 10
36.7942187982173
 20
4.491750823571565
 30
0.0
 10
36.79744750573792
 20
4.356255986437908
 30
0.0
 10
36.78733769848275
 20
4.243757526841257
 30
0.0
 10
36.79114898482013
 20
4.166622277045381
 30
0.0
 10
36.76915191362708
 20
4.121477060352004
 30
0.0
 10
36.78739324587443
 20
4.10655407216511
 30
0.0
 10
36.79109689538305
 20
4.108281742511707
 30
0.0
 11
36.79213449310115
 21
4.637151402941042
 31
0.0
 11
36.79456311721001
 21
4.48726469647633
 31
0.0
 11
36.79482004013622
 21
4.351018573386197
 31
0.0
 11
36.78943740206759
 21
4.229961566390129
 31
0.0
 11
36.7821007649425
 21
4.152683177883858
 31
0.0
 11
36.78019297922598
 21
4.113888279410133
 31
0.0
 11
36.79109689538305
 21
4.108281742511707
 31
0.0
  0
SPLINE
  5
1CA
330
2
100
AcDbEntity
  8
GAIKEI
  6
Continuous
 62
     1
100
AcDbSpline
210
0.0
220
0.0
230
1.0
 70
     8
 71
     3
 72
     9
 73
     5
 74
     3
 42
0.0000000001
 43
0.0000000001
 44
0.000001
 12
-0.3838936161508544
 22
0.9233773288740744
 32
0.0
 13
0.9065999430110528
 23
0.4219911649932448
 33
0.0
 40
0.0
 40
0.0
 40
0.0
 40
0.0
 40
0.108905084540322
 40
0.1584584259989187
 40
0.1584584259989187
 40
0.1584584259989187
 40
0.1584584259989187
 10
36.66731759113023
 20
3.880986807088873
 30
0.0
 10
36.65338160222309
 20
3.914506969110089
 30
0.0
 10
36.64561477487981
 20
3.953234845169318
 30
0.0
 10
36.6161487224692
 20
4.026726419698122
 30
0.0
 10
36.63112374131666
 20
4.033696777128596
 30
0.0
 11
36.66731759113023
 21
3.880986807088873
 31
0.0
 11
36.63245677692478
 21
3.984160737848498
 31
0.0
 11
36.63112374131666
 21
4.033696777128596
 31
0.0
  0
SPLINE
  5
1CB
330
2
100
AcDbEntity
  8
GAIKEI
  6
Continuous
100
AcDbSpline
210
0.0
220
0.0
230
1.0
 70
     8
 71
     3
 72
     9
 73
     5
 74
     3
 42
0.0000000001
 43
0.0000000001
 44
0.000001
 12
-0.5706642736664941
 22
-0.8211834671744755
 32
0.0
 13
-0.5093037193375937
 23
-0.8605868471391449
 33
0.0
 40
0.0
 40
0.0
 40
0.0
 40
0.0
 40
0.0025620985913673
 40
0.0051314383267159
 40
0.0051314383267159
 40
0.0051314383267159
 40
0.0051314383267159
 10
37.09645580030261
 20
4.239324230791196
 30
0.0
 10
37.09596843425871
 20
4.238622913123029
 30
0.0
 10
37.09503037009124
 20
4.237191739929656
 30
0.0
 10
37.09414540953547
 20
4.235727781099842
 30
0.0
 10
37.09370921810765
 20
4.234990734439151
 30
0.0
 11
37.09645580030261
 21
4.239324230791196
 31
0.0
 11
37.09504507178164
 21
4.237185169090678
 31
0.0
 11
37.09370921810765
 21
4.234990734439151
 31
0.0
  0
SPLINE
  5
1CC
330
2
100
AcDbEntity
  8
GAIKEI
  6
Continuous
 62
     1
100
AcDbSpline
210
0.0
220
0.0
230
1.0
 70
     8
 71
     3
 72
     9
 73
     5
 74
     3
 42
0.0000000001
 43
0.0000000001
 44
0.000001
 12
0.0144628323544703
 22
0.9998954077703759
 32
0.0
 13
0.9053598185504306
 23
0.4246452624889762
 33
0.0
 40
0.0
 40
0.0
 40
0.0
 40
0.0
 40
0.0588256727799635
 40
0.0800501390681995
 40
0.0800501390681995
 40
0.0800501390681995
 40
0.0800501390681995
 10
37.12648509896749
 20
4.184636727531568
 30
0.0
 10
37.12676869424868
 20
4.204243234222131
 30
0.0
 10
37.13270550448172
 20
4.225311414238582
 30
0.0
 10
37.12007983931831
 20
4.261649532458656
 30
0.0
 10
37.12648509896749
 20
4.264653822144707
 30
0.0
 11
37.12648509896749
 21
4.184636727531568
 31
0.0
 11
37.12547086080005
 21
4.243453064920656
 31
0.0
 11
37.12648509896749
 21
4.264653822144707
 31
0.0
  0
SPLINE
  5
1CD
330
2
100
AcDbEntity
  8
GAIKEI
  6
Continuous
 62
     1
100
AcDbSpline
210
0.0
220
0.0
230
1.0
 70
     8
 71
     3
 72
     9
 73
     5
 74
     3
 42
0.0000000001
 43
0.0000000001
 44
0.000001
 12
0.088371545246291
 22
0.9960875814860774
 32
0.0
 13
-0.9108295441416883
 23
-0.4127826807396893
 33
0.0
 40
0.0
 40
0.0
 40
0.0
 40
0.0
 40
0.0822732468033393
 40
0.11136546897958
 40
0.11136546897958
 40
0.11136546897958
 40
0.11136546897958
 10
37.19936107987375
 20
4.187566415206191
 30
0.0
 10
37.2017846178579
 20
4.214883535015973
 30
0.0
 10
37.19444003871206
 20
4.232917640837097
 30
0.0
 10
37.20825480018792
 20
4.302714363181728
 30
0.0
 10
37.19942211503364
 20
4.2987114413622
 30
0.0
 11
37.19936107987375
 21
4.187566415206191
 31
0.0
 11
37.20248057331233
 21
4.269779600828171
 31
0.0
 11
37.19942211503364
 21
4.2987114413622
 31
0.0
  0
SPLINE
  5
1CE
330
2
100
AcDbEntity
  8
GAIKEI
  6
Continuous
 62
     1
100
AcDbSpline
210
0.0
220
0.0
230
1.0
 70
     8
 71
     3
 72
    11
 73
     7
 74
     5
 42
0.0000000001
 43
0.0000000001
 44
0.000001
 12
0.5343295847045642
 22
0.8452762240294282
 32
0.0
 13
0.4235545341722595
 23
0.9058706069754776
 33
0.0
 40
0.0
 40
0.0
 40
0.0
 40
0.0
 40
0.0051026150698925
 40
0.0102418296713265
 40
0.0907509768668936
 40
0.171261279775961
 40
0.171261279775961
 40
0.171261279775961
 40
0.171261279775961
 10
37.12648509896749
 20
3.911382316713087
 30
0.0
 10
37.12739392503123
 20
3.912820023112738
 30
0.0
 10
37.12902237388888
 20
3.915828339867791
 30
0.0
 10
37.14178469244082
 20
3.943251358773477
 30
0.0
 10
37.16529374567051
 20
3.99340494539746
 30
0.0
 10
37.18799424525884
 20
4.042039948680659
 30
0.0
 10
37.19936107987375
 20
4.066350587668664
 30
0.0
 11
37.12648509896749
 21
3.911382316713087
 31
0.0
 11
37.12896899823633
 21
3.915839587105296
 31
0.0
 11
37.13118480627887
 21
3.920476555536396
 31
0.0
 11
37.16527234907053
 21
3.993413239765942
 31
0.0
 11
37.19936107987375
 21
4.066350587668664
 31
0.0
  0
SPLINE
  5
1CF
330
2
100
AcDbEntity
  8
GAIKEI
  6
Continuous
 62
     1
100
AcDbSpline
210
0.0
220
0.0
230
1.0
 70
     8
 71
     3
 72
     9
 73
     5
 74
     3
 42
0.0000000001
 43
0.0000000001
 44
0.000001
 12
0.3837437811265501
 22
-0.92343960844589
 32
0.0
 13
-0.9665308733465561
 23
-0.2565503281384446
 33
0.0
 40
0.0
 40
0.0
 40
0.0
 40
0.0
 40
0.105917864911875
 40
0.1755777114823446
 40
0.1755777114823446
 40
0.1755777114823446
 40
0.1755777114823446
 10
37.12648509896749
 20
3.911382316713087
 30
0.0
 10
37.14003353962421
 20
3.878779399479205
 30
0.0
 10
37.15168297763238
 20
3.821188016232237
 30
0.0
 10
37.12134000414578
 20
3.755046912069527
 30
0.0
 10
37.09889720669814
 20
3.749089826570951
 30
0.0
 11
37.12648509896749
 21
3.911382316713087
 31
0.0
 11
37.13880694998689
 21
3.806184623740789
 31
0.0
 11
37.09889720669814
 21
3.749089826570951
 31
0.0
  0
SPLINE
  5
1D0
330
2
100
AcDbEntity
  8
GAIKEI
  6
Continuous
100
AcDbSpline
210
0.0
220
0.0
230
1.0
 70
     8
 71
     3
 72
     9
 73
     5
 74
     3
 42
0.0000000001
 43
0.0000000001
 44
0.000001
 12
0.5797443213398605
 22
-0.8147984547568711
 32
0.0
 13
0.1755249561896888
 23
-0.9844749817819687
 33
0.0
 40
0.0
 40
0.0
 40
0.0
 40
0.0
 40
0.0609983285825408
 40
0.1219991254618766
 40
0.1219991254618766
 40
0.1219991254618766
 40
0.1219991254618766
 10
36.95943186635409
 20
28.53443065936111
 30
0.0
 10
36.97121967788974
 20
28.51786354473718
 30
0.0
 10
36.99099224361015
 20
28.4818834299893
 30
0.0
 10
37.00249367444191
 20
28.44251009559205
 30
0.0
 10
37.0060627285085
 20
28.42249217612656
 30
0.0
 11
36.95943186635409
 21
28.53443065936111
 31
0.0
 11
36.98892483121748
 21
28.48103516135982
 31
0.0
 11
37.0060627285085
 21
28.42249217612656
 31
0.0
  0
SPLINE
  5
1D1
330
2
100
AcDbEntity
  8
GAIKEI
  6
Continuous
100
AcDbSpline
210
0.0
220
0.0
230
1.0
 70
     8
 71
     3
 72
     9
 73
     5
 74
     3
 42
0.0000000001
 43
0.0000000001
 44
0.000001
 12
0.7764249965061636
 22
-0.6302096673333438
 32
0.0
 13
0.7372538005900991
 23
-0.6756158919944488
 33
0.0
 40
0.0
 40
0.0
 40
0.0
 40
0.0
 40
0.0083503360267312
 40
0.0167047820409398
 40
0.0167047820409398
 40
0.0167047820409398
 40
0.0167047820409398
 10
36.90822336720808
 20
28.58917919778063
 30
0.0
 10
36.91038450374821
 20
28.58742504361745
 30
0.0
 10
36.91464926879785
 20
28.58384322491978
 30
0.0
 10
36.91880452961296
 20
28.58013536965934
 30
0.0
 10
36.92085764530489
 20
28.57825390416067
 30
0.0
 11
36.90822336720808
 21
28.58917919778063
 31
0.0
 11
36.91462091688524
 21
28.58381245717814
 31
0.0
 11
36.92085764530489
 21
28.57825390416067
 31
0.0
  0
SPLINE
  5
1D2
330
2
100
AcDbEntity
  8
GAIKEI
  6
Continuous
100
AcDbSpline
210
0.0
220
0.0
230
1.0
 70
     8
 71
     3
 72
     9
 73
     5
 74
     3
 42
0.0000000001
 43
0.0000000001
 44
0.000001
 12
0.9654121897346719
 22
-0.2607284102504091
 32
0.0
 13
0.902243292601743
 23
-0.4312273657308471
 33
0.0
 40
0.0
 40
0.0
 40
0.0
 40
0.0
 40
0.0246662016358725
 40
0.0503219312280011
 40
0.0503219312280011
 40
0.0503219312280011
 40
0.0503219312280011
 10
36.80653879083472
 20
28.64118115400518
 30
0.0
 10
36.81447647474596
 20
28.63903742749203
 30
0.0
 10
36.83047494303631
 20
28.63391033661284
 30
0.0
 10
36.84594203095446
 20
28.62735188067997
 30
0.0
 10
36.85365793426823
 20
28.62366406311733
 30
0.0
 11
36.80653879083472
 21
28.64118115400518
 31
0.0
 11
36.83003362817809
 21
28.63366756072273
 31
0.0
 11
36.85365793426823
 21
28.62366406311733
 31
0.0
  0
SPLINE
  5
1D3
330
2
100
AcDbEntity
  8
GAIKEI
  6
Continuous
 62
     1
100
AcDbSpline
210
0.0
220
0.0
230
1.0
 70
     8
 71
     3
 72
     9
 73
     5
 74
     3
 42
0.0000000001
 43
0.0000000001
 44
0.000001
 12
0.1860620377725842
 22
-0.9825379982982406
 32
0.0
 13
-0.3863119893201843
 23
-0.9223681731865438
 33
0.0
 40
0.0
 40
0.0
 40
0.0
 40
0.0
 40
0.1196974472846061
 40
0.3243034073795517
 40
0.3243034073795517
 40
0.3243034073795517
 40
0.3243034073795517
 10
36.03175847121671
 20
23.42499431965868
 30
0.0
 10
36.0391821882027
 20
23.38579188957321
 30
0.0
 10
36.00493101575106
 20
23.2769287183029
 30
0.0
 10
35.97185309321438
 20
23.1767400905266
 30
0.0
 10
35.94550584805737
 20
23.11383274864798
 30
0.0
 11
36.03175847121671
 21
23.42499431965868
 31
0.0
 11
36.01405743179821
 21
23.30661265815965
 31
0.0
 11
35.94550584805737
 21
23.11383274864798
 31
0.0
  0
SPLINE
  5
1D4
330
2
100
AcDbEntity
  8
GAIKEI
  6
Continuous
 62
     1
100
AcDbSpline
210
0.0
220
0.0
230
1.0
 70
     8
 71
     3
 72
     9
 73
     5
 74
     3
 42
0.0000000001
 43
0.0000000001
 44
0.000001
 12
0.9987434150041043
 22
-0.0501157758189905
 32
0.0
 13
0.0001977800506801
 23
0.9999999804415256
 33
0.0
 40
0.0
 40
0.0
 40
0.0
 40
0.0
 40
0.1293505015534953
 40
0.18675882455999
 40
0.18675882455999
 40
0.18675882455999
 40
0.18675882455999
 10
35.60817453842267
 20
27.91326244532891
 30
0.0
 10
35.65123719230735
 20
27.9111016117496
 30
0.0
 10
35.69950815649652
 20
27.90932533660372
 30
0.0
 10
35.78816336336344
 20
27.92465730983058
 30
0.0
 10
35.78816714810378
 20
27.94379341712514
 30
0.0
 11
35.60817453842267
 21
27.91326244532891
 31
0.0
 11
35.73747439507835
 21
27.91684833760982
 31
0.0
 11
35.78816714810378
 21
27.94379341712514
 31
0.0
  0
SPLINE
  5
1D5
330
2
100
AcDbEntity
  8
GAIKEI
  6
Continuous
100
AcDbSpline
210
0.0
220
0.0
230
1.0
 70
     8
 71
     3
 72
     9
 73
     5
 74
     3
 42
0.0000000001
 43
0.0000000001
 44
0.000001
 12
0.829555864905178
 22
-0.5584237342748085
 32
0.0
 13
0.7181515903451526
 23
-0.6958866957233258
 33
0.0
 40
0.0
 40
0.0
 40
0.0
 40
0.0
 40
0.0468884831089169
 40
0.0937367770005018
 40
0.0937367770005018
 40
0.0937367770005018
 40
0.0937367770005018
 10
35.55592836473002
 20
28.86865919490768
 30
0.0
 10
35.56889390344986
 20
28.85993131429696
 30
0.0
 10
35.59404957819999
 20
28.84132086380516
 30
0.0
 10
35.61746754972876
 20
28.82056626526806
 30
0.0
 10
35.62868227531649
 20
28.80969923045589
 30
0.0
 11
35.55592836473002
 21
28.86865919490768
 31
0.0
 11
35.59362492595901
 21
28.84077561887912
 31
0.0
 11
35.62868227531649
 21
28.80969923045589
 31
0.0
  0
SPLINE
  5
1D6
330
2
100
AcDbEntity
  8
GAIKEI
  6
Continuous
100
AcDbSpline
210
0.0
220
0.0
230
1.0
 70
     8
 71
     3
 72
     9
 73
     5
 74
     3
 42
0.0000000001
 43
0.0000000001
 44
0.000001
 12
-0.1770699054458256
 22
0.9841982770689078
 32
0.0
 13
-0.9788794881764774
 23
0.2044381266480339
 33
0.0
 40
0.0
 40
0.0
 40
0.0
 40
0.0
 40
0.0810830638413691
 40
0.1015696684434569
 40
0.1015696684434569
 40
0.1015696684434569
 40
0.1015696684434569
 10
35.40836837041499
 20
28.85264621785675
 30
0.0
 10
35.40358258026578
 20
28.87924682176747
 30
0.0
 10
35.39431628197551
 20
28.90752972032132
 30
0.0
 10
35.37901924279611
 20
28.94502190758288
 30
0.0
 10
35.37233460378698
 20
28.94641798860496
 30
0.0
 11
35.40836837041499
 21
28.85264621785675
 31
0.0
 11
35.38494427558706
 21
28.93027132271723
 31
0.0
 11
35.37233460378698
 21
28.94641798860496
 31
0.0
  0
SPLINE
  5
1D7
330
2
100
AcDbEntity
  8
GAIKEI
  6
Continuous
100
AcDbSpline
210
0.0
220
0.0
230
1.0
 70
     8
 71
     3
 72
     9
 73
     5
 74
     3
 42
0.0000000001
 43
0.0000000001
 44
0.000001
 12
0.0554147012212912
 22
0.9984634249127781
 32
0.0
 13
0.9781883213327244
 23
-0.2077200231279278
 33
0.0
 40
0.0
 40
0.0
 40
0.0
 40
0.0
 40
0.062627723478123
 40
0.0848015881153629
 40
0.0848015881153629
 40
0.0848015881153629
 40
0.0848015881153629
 10
35.27187736092539
 20
28.88189429131884
 30
0.0
 10
35.2730341931203
 20
28.90273812174499
 30
0.0
 10
35.27660820018689
 20
28.92058461613597
 30
0.0
 10
35.27916702685573
 20
28.9662028199699
 30
0.0
 10
35.28639709866471
 20
28.96466750141147
 30
0.0
 11
35.27187736092539
 21
28.88189429131884
 31
0.0
 11
35.27775983652456
 21
28.94424424990424
 31
0.0
 11
35.28639709866471
 21
28.96466750141147
 31
0.0
  0
SPLINE
  5
1D8
330
2
100
AcDbEntity
  8
GAIKEI
  6
Continuous
 62
     1
100
AcDbSpline
210
0.0
220
0.0
230
1.0
 70
     8
 71
     3
 72
     9
 73
     5
 74
     3
 42
0.0000000001
 43
0.0000000001
 44
0.000001
 12
0.6567232424679582
 22
-0.7541316747109696
 32
0.0
 13
0.750852887176076
 23
-0.6604694859108565
 33
0.0
 40
0.0
 40
0.0
 40
0.0
 40
0.0
 40
0.0622959924961459
 40
0.124675287355906
 40
0.124675287355906
 40
0.124675287355906
 40
0.124675287355906
 10
35.61741347989644
 20
23.19380266313752
 30
0.0
 10
35.63105055529137
 20
23.17814286942122
 30
0.0
 10
35.65937650315202
 20
23.14768732841773
 30
0.0
 10
35.68966148967515
 20
23.1191768762563
 30
0.0
 10
35.70527404755697
 20
23.10544366932047
 30
0.0
 11
35.61741347989644
 21
23.19380266313752
 31
0.0
 11
35.65984571415348
 21
23.1481930502575
 31
0.0
 11
35.70527404755697
 21
23.10544366932047
 31
0.0
  0
SPLINE
  5
1D9
330
2
100
AcDbEntity
  8
GAIKEI
  6
Continuous
 62
     1
100
AcDbSpline
210
0.0
220
0.0
230
1.0
 70
     8
 71
     3
 72
    11
 73
     7
 74
     5
 42
0.0000000001
 43
0.0000000001
 44
0.000001
 12
0.9206948447319934
 22
0.3902832341824725
 32
0.0
 13
0.3671367247417234
 23
-0.9301669878822405
 33
0.0
 40
0.0
 40
0.0
 40
0.0
 40
0.0
 40
0.0726826003240879
 40
0.1415657218736269
 40
0.2004100302421489
 40
0.2281680664200159
 40
0.2281680664200159
 40
0.2281680664200159
 40
0.2281680664200159
 10
36.79213449310115
 20
4.637151402941042
 30
0.0
 10
36.81444065824119
 20
4.646607003048801
 30
0.0
 10
36.85988501345645
 20
4.661070483217461
 30
0.0
 10
36.92592768666672
 20
4.668896513084312
 30
0.0
 10
36.97965560602668
 20
4.666148093119487
 30
0.0
 10
37.00388643354374
 20
4.645757939241407
 30
0.0
 10
37.00728343170627
 20
4.637151402941042
 30
0.0
 11
36.79213449310115
 21
4.637151402941042
 31
0.0
 11
36.86142204134743
 21
4.659102706138668
 31
0.0
 11
36.92982981380843
 21
4.667180701605928
 31
0.0
 11
36.98776735884596
 21
4.656891217423407
 31
0.0
 11
37.00728343170627
 21
4.637151402941042
 31
0.0
  0
SPLINE
  5
1DA
330
2
100
AcDbEntity
  8
GAIKEI
  6
Continuous
 62
     1
100
AcDbSpline
210
0.0
220
0.0
230
1.0
 70
     8
 71
     3
 72
     9
 73
     5
 74
     3
 42
0.0000000001
 43
0.0000000001
 44
0.000001
 12
0.0579129316284592
 22
-0.9983216377251357
 32
0.0
 13
-0.0189869989958103
 23
-0.9998197306860538
 33
0.0
 40
0.0
 40
0.0
 40
0.0
 40
0.0
 40
0.1056034001940045
 40
0.2027679800166954
 40
0.2027679800166954
 40
0.2027679800166954
 40
0.2027679800166954
 10
36.78702058913135
 20
22.71244047843558
 30
0.0
 10
36.78905918996308
 20
22.6772984252919
 30
0.0
 10
36.79207977917162
 20
22.60976811960118
 30
0.0
 10
36.79274944769433
 20
22.54215445181529
 30
0.0
 10
36.79213449310115
 20
22.50977209713845
 30
0.0
 11
36.78702058913135
 21
22.71244047843558
 31
0.0
 11
36.79156682902654
 21
22.60693514459305
 31
0.0
 11
36.79213449310115
 21
22.50977209713845
 31
0.0
  0
SPLINE
  5
1DB
330
2
100
AcDbEntity
  8
GAIKEI
  6
Continuous
 62
     1
100
AcDbSpline
210
0.0
220
0.0
230
1.0
 70
     8
 71
     3
 72
     9
 73
     5
 74
     3
 42
0.0000000001
 43
0.0000000001
 44
0.000001
 12
0.9038411592213025
 22
-0.427868155975053
 32
0.0
 13
0.3435351878273928
 23
0.9391398057394852
 33
0.0
 40
0.0
 40
0.0
 40
0.0
 40
0.0
 40
0.1444206830774334
 40
0.2249124189690599
 40
0.2249124189690599
 40
0.2249124189690599
 40
0.2249124189690599
 10
36.79213449310115
 20
22.50977209713845
 30
0.0
 10
36.8356456123039
 20
22.48917442668744
 30
0.0
 10
36.90202777389926
 20
22.47002885563754
 30
0.0
 10
36.99806618383691
 20
22.48457443273548
 30
0.0
 10
37.00728343170627
 20
22.50977209713845
 30
0.0
 11
36.79213449310115
 21
22.50977209713845
 31
0.0
 11
36.93312308238731
 21
22.47847881298796
 31
0.0
 11
37.00728343170627
 21
22.50977209713845
 31
0.0
  0
SPLINE
  5
1DC
330
2
100
AcDbEntity
  8
GAIKEI
  6
Continuous
 62
     1
100
AcDbSpline
210
0.0
220
0.0
230
1.0
 70
     8
 71
     3
 72
    11
 73
     7
 74
     5
 42
0.0000000001
 43
0.0000000001
 44
0.000001
 12
0.9999999136648373
 22
-0.0004155361809812
 32
0.0
 13
-0.9999999982988994
 23
-0.0000583283907888
 33
0.0
 40
0.0
 40
0.0
 40
0.0
 40
0.0
 40
0.106824911546254
 40
0.3305210750164618
 40
0.5542130927240123
 40
0.6610280755900063
 40
0.6610280755900063
 40
0.6610280755900063
 40
0.6610280755900063
 10
37.08931468659571
 20
21.90979647543961
 30
0.0
 10
37.12492298737022
 20
21.90978167890102
 30
0.0
 10
37.11716325517866
 20
21.74026954752475
 30
0.0
 10
37.14448110506108
 20
21.58480425676122
 30
0.0
 10
37.11717533502091
 20
21.4293605303668
 30
0.0
 10
37.12491968082381
 20
21.25983513457454
 30
0.0
 10
37.08931468659571
 20
21.25983305779252
 30
0.0
 11
37.08931468659571
 21
21.90979647543961
 31
0.0
 11
37.12241876718022
 21
21.80822985795382
 31
0.0
 11
37.13345628540995
 21
21.58480688409233
 31
0.0
 11
37.12242300423257
 21
21.36138785149271
 31
0.0
 11
37.08931468659571
 21
21.25983305779252
 31
0.0
  0
SPLINE
  5
1DD
330
2
100
AcDbEntity
  8
GAIKEI
  6
Continuous
 62
     1
100
AcDbSpline
210
0.0
220
0.0
230
1.0
 70
     8
 71
     3
 72
    37
 73
    33
 74
    31
 42
0.0000000001
 43
0.0000000001
 44
0.000001
 12
0.9531453210649694
 22
-0.3025128045752051
 32
0.0
 13
-0.8762670848182503
 23
-0.481825690539769
 33
0.0
 40
0.0
 40
0.0
 40
0.0
 40
0.0
 40
0.0216846486234601
 40
0.0388575122373936
 40
0.0529157023987371
 40
0.0673569896225729
 40
0.0824928601043926
 40
0.0985679969784623
 40
0.1157694184982918
 40
0.1342401711596937
 40
0.154092944980286
 40
0.1754215541310279
 40
0.2114680121679565
 40
0.2507082762072323
 40
0.2924136372179179
 40
0.3358492439489397
 40
0.3802772139988381
 40
0.4249586442768457
 40
0.4691552257460898
 40
0.5121309128067626
 40
0.5523086616664333
 40
0.5899218938621001
 40
0.6244980923252797
 40
0.6555772297283279
 40
0.6739429383478918
 40
0.6910080117361104
 40
0.7069992320486476
 40
0.7222522098516389
 40
0.7372958871657467
 40
0.7528982819897216
 40
0.7700215413947868
 40
0.7897003315789835
 40
0.7897003315789835
 40
0.7897003315789835
 40
0.7897003315789835
 10
37.05696605185508
 20
21.95697665403301
 30
0.0
 10
37.06385559231321
 20
21.95479002607591
 30
0.0
 10
37.07569153788121
 20
21.94863872664665
 30
0.0
 10
37.08772488174252
 20
21.93548731450334
 30
0.0
 10
37.0958823023426
 20
21.92259474370978
 30
0.0
 10
37.102236009839
 20
21.90947810177442
 30
0.0
 10
37.10743891854054
 20
21.89515529270038
 30
0.0
 10
37.11173505892097
 20
21.87958727809323
 30
0.0
 10
37.11531997252604
 20
21.86270737053561
 30
0.0
 10
37.11840143197543
 20
21.84445371991937
 30
0.0
 10
37.12115837621351
 20
21.82476051397513
 30
0.0
 10
37.12441381806443
 20
21.79922418111992
 30
0.0
 10
37.12782773492714
 20
21.76719577523441
 30
0.0
 10
37.13081294564823
 20
21.7283083269965
 30
0.0
 10
37.13308923960699
 20
21.68690776108731
 30
0.0
 10
37.13459271531256
 20
21.64374153274939
 30
0.0
 10
37.13531242538902
 20
21.59956328077295
 30
0.0
 10
37.13522192521689
 20
21.55512557100499
 30
0.0
 10
37.13430926876686
 20
21.51118088822741
 30
0.0
 10
37.13254132122968
 20
21.46876461060875
 30
0.0
 10
37.13001107470552
 20
21.42858507440053
 30
0.0
 10
37.12679478697628
 20
21.39126526912422
 30
0.0
 10
37.12296106220368
 20
21.35704810169182
 30
0.0
 10
37.11863701398484
 20
21.32937063852803
 30
0.0
 10
37.11486459061695
 20
21.30752492875552
 30
0.0
 10
37.11187169600981
 20
21.29064563523582
 30
0.0
 10
37.10818540594039
 20
21.27495493425942
 30
0.0
 10
37.10316832006253
 20
21.26032318681988
 30
0.0
 10
37.09609440953312
 20
21.24667680963192
 30
0.0
 10
37.08627754555292
 20
21.23402089185506
 30
0.0
 10
37.07313789311044
 20
21.22237666845826
 30
0.0
 10
37.06271401055757
 20
21.21581346142227
 30
0.0
 10
37.05696605185508
 20
21.21265287919911
 30
0.0
 11
37.05696605185508
 21
21.95697665403301
 31
0.0
 11
37.07613136586875
 21
21.94683163974204
 31
0.0
 11
37.08797191307818
 21
21.93439364487446
 31
0.0
 11
37.09558450000887
 21
21.92257505807456
 31
0.0
 11
37.1019111627007
 21
21.90959344351913
 31
0.0
 11
37.10714604020606
 21
21.8953917191582
 31
0.0
 11
37.11148327157744
 21
21.87991280294145
 31
0.0
 11
37.11511699586735
 21
21.86309961281879
 31
0.0
 11
37.11824135212821
 21
21.84489506674001
 31
0.0
 11
37.12105047941245
 21
21.82524208265508
 31
0.0
 11
37.12373851677253
 21
21.80408357851363
 31
0.0
 11
37.12754455744189
 21
21.76823868274047
 31
0.0
 11
37.13061188934572
 21
21.72911855534929
 31
0.0
 11
37.13291982458443
 21
21.68747717769131
 31
0.0
 11
37.13444767525849
 21
21.64406853111777
 31
0.0
 11
37.13517475346836
 21
21.59964659697968
 31
0.0
 11
37.1350803713144
 21
21.55496535662846
 31
0.0
 11
37.13414384089707
 21
21.51077879141505
 31
0.0
 11
37.13234447431674
 21
21.46784088269075
 31
0.0
 11
37.12979716597406
 21
21.42774405460941
 31
0.0
 11
37.12654029217535
 21
21.39027217649706
 31
0.0
 11
37.12256917622401
 21
21.35592485931713
 31
0.0
 11
37.11787914142329
 21
21.32520171403255
 31
0.0
 11
37.11477580720558
 21
21.30710014702206
 31
0.0
 11
37.11164884188221
 21
21.29032406591134
 31
0.0
 11
37.10786566072332
 21
21.27478686527283
 31
0.0
 11
37.10279367899918
 21
21.26040193967899
 31
0.0
 11
37.09580031198007
 21
21.24708268370225
 31
0.0
 11
37.08625297493612
 21
21.23474249191506
 31
0.0
 11
37.07351908313778
 21
21.22329475888987
 31
0.0
 11
37.05696605185508
 21
21.21265287919911
 31
0.0
  0
SPLINE
  5
1DE
330
2
100
AcDbEntity
  8
GAIKEI
  6
Continuous
 62
     1
100
AcDbSpline
210
0.0
220
0.0
230
1.0
 70
     8
 71
     3
 72
     9
 73
     5
 74
     3
 42
0.0000000001
 43
0.0000000001
 44
0.000001
 12
-0.999999999979706
 22
-0.0000063708878533
 32
0.0
 13
-0.9999999547234208
 23
-0.0003009205153209
 33
0.0
 40
0.0
 40
0.0
 40
0.0
 40
0.0
 40
0.0112191479162543
 40
0.0274452669225676
 40
0.0274452669225676
 40
0.0274452669225676
 40
0.0274452669225676
 10
37.00728343170627
 20
21.21210356276012
 30
0.0
 10
37.00354371573426
 20
21.21210353893481
 30
0.0
 10
36.9944840350156
 20
21.21051039733639
 30
0.0
 10
36.98534838616701
 20
21.20978585427508
 30
0.0
 10
36.97993968007646
 20
21.20978422668438
 30
0.0
 11
37.00728343170627
 21
21.21210356276012
 31
0.0
 11
36.99612421428887
 21
21.21094519004802
 31
0.0
 11
36.97993968007646
 21
21.20978422668438
 31
0.0
  0
SPLINE
  5
1DF
330
2
100
AcDbEntity
  8
GAIKEI
  6
Continuous
 62
     1
100
AcDbSpline
210
0.0
220
0.0
230
1.0
 70
     8
 71
     3
 72
     9
 73
     5
 74
     3
 42
0.0000000001
 43
0.0000000001
 44
0.000001
 12
-0.000035724576246
 22
-0.9999999993618773
 32
0.0
 13
-0.9530550976430763
 23
-0.3027969300645998
 33
0.0
 40
0.0
 40
0.0
 40
0.0
 40
0.0
 40
0.030270041882761
 40
0.0618468000996534
 40
0.0618468000996534
 40
0.0618468000996534
 40
0.0618468000996534
 10
37.08931468659571
 20
21.25983305779252
 30
0.0
 10
37.08931432613424
 20
21.24974304383804
 30
0.0
 10
37.082277825766
 20
21.22888481907978
 30
0.0
 10
37.06467817924123
 20
21.21529067790994
 30
0.0
 10
37.05464671577934
 20
21.21210356276012
 30
0.0
 11
37.08931468659571
 21
21.25983305779252
 31
0.0
 11
37.07989705664662
 21
21.2310652598446
 31
0.0
 11
37.05464671577934
 21
21.21210356276012
 31
0.0
  0
SPLINE
  5
1E0
330
2
100
AcDbEntity
  8
GAIKEI
  6
Continuous
 62
     1
100
AcDbSpline
210
0.0
220
0.0
230
1.0
 70
     8
 71
     3
 72
     9
 73
     5
 74
     3
 42
0.0000000001
 43
0.0000000001
 44
0.000001
 12
-0.3081820727638415
 22
-0.951327393712061
 32
0.0
 13
-0.9999636457021694
 23
-0.0085268560458341
 33
0.0
 40
0.0
 40
0.0
 40
0.0
 40
0.0
 40
0.0551480243977625
 40
0.0898967511300085
 40
0.0898967511300085
 40
0.0898967511300085
 40
0.0898967511300085
 10
37.0437214221594
 20
21.25983305779252
 30
0.0
 10
37.03805621133682
 20
21.24234511568629
 30
0.0
 10
37.01225111402711
 20
21.22133334215357
 30
0.0
 10
36.9838317377528
 20
21.20988299248125
 30
0.0
 10
36.97224924993057
 20
21.20978422668438
 30
0.0
 11
37.0437214221594
 21
21.25983305779252
 31
0.0
 11
37.00541098148139
 21
21.22016442659859
 31
0.0
 11
36.97224924993057
 21
21.20978422668438
 31
0.0
  0
SPLINE
  5
1E1
330
2
100
AcDbEntity
  8
GAIKEI
  6
Continuous
 62
     1
100
AcDbSpline
210
0.0
220
0.0
230
1.0
 70
     8
 71
     3
 72
     9
 73
     5
 74
     3
 42
0.0000000001
 43
0.0000000001
 44
0.000001
 12
0.999999983294575
 22
0.0001827863508696
 32
0.0
 13
0.9999999218844049
 23
0.0003952609063509
 33
0.0
 40
0.0
 40
0.0
 40
0.0
 40
0.0
 40
0.0162231530945003
 40
0.0274453021202418
 40
0.0274453021202418
 40
0.0274453021202418
 40
0.0274453021202418
 10
36.97993968007646
 20
21.95984530654775
 30
0.0
 10
36.9853473976843
 20
21.95984629500474
 30
0.0
 10
36.99448324416888
 20
21.95912158336915
 30
0.0
 10
37.00354271565656
 20
21.95752449191308
 30
0.0
 10
37.00728343170627
 20
21.95752597047201
 30
0.0
 11
36.97993968007646
 21
21.95984530654775
 31
0.0
 11
36.99612133871383
 21
21.95868570817899
 31
0.0
 11
37.00728343170627
 21
21.95752597047201
 31
0.0
  0
SPLINE
  5
1E2
330
2
100
AcDbEntity
  8
GAIKEI
  6
Continuous
 62
     1
100
AcDbSpline
210
0.0
220
0.0
230
1.0
 70
     8
 71
     3
 72
     9
 73
     5
 74
     3
 42
0.0000000001
 43
0.0000000001
 44
0.000001
 12
0.9999976346126128
 22
0.0021750331443408
 32
0.0
 13
0.3094592465044053
 23
-0.9509127061686188
 33
0.0
 40
0.0
 40
0.0
 40
0.0
 40
0.0
 40
0.0469741725792329
 40
0.0914080190009587
 40
0.0914080190009587
 40
0.0914080190009587
 40
0.0914080190009587
 10
36.97224924993057
 20
21.95984530654775
 30
0.0
 10
36.98790727041961
 20
21.95987936334185
 30
0.0
 10
37.01882933400444
 20
21.94954909821938
 30
0.0
 10
37.03913793394841
 20
21.92388071182173
 30
0.0
 10
37.0437214221594
 20
21.90979647543961
 30
0.0
 11
36.97224924993057
 21
21.95984530654775
 31
0.0
 11
37.01688557477652
 21
21.9452123610977
 31
0.0
 11
37.0437214221594
 21
21.90979647543961
 31
0.0
  0
SPLINE
  5
1E3
330
2
100
AcDbEntity
  8
GAIKEI
  6
Continuous
 62
     1
100
AcDbSpline
210
0.0
220
0.0
230
1.0
 70
     8
 71
     3
 72
     9
 73
     5
 74
     3
 42
0.0000000001
 43
0.0000000001
 44
0.000001
 12
0.9530395279038478
 22
-0.3028459315440954
 32
0.0
 13
0.0000357266035025
 23
-0.999999999361805
 33
0.0
 40
0.0
 40
0.0
 40
0.0
 40
0.0
 40
0.0315772684264167
 40
0.061846494330666
 40
0.061846494330666
 40
0.061846494330666
 40
0.061846494330666
 10
37.05464671577934
 20
21.95752597047201
 30
0.0
 10
37.06467817744388
 20
21.95433828804794
 30
0.0
 10
37.08227728246181
 20
21.94074415009619
 30
0.0
 10
37.0893143261235
 20
21.91988621740125
 30
0.0
 10
37.08931468659571
 20
21.90979647543961
 30
0.0
 11
37.05464671577934
 21
21.95752597047201
 31
0.0
 11
37.07989704733318
 21
21.93856341284552
 31
0.0
 11
37.08931468659571
 21
21.90979647543961
 31
0.0
  0
SPLINE
  5
1E4
330
2
100
AcDbEntity
  8
GAIKEI
  6
Continuous
 62
     1
100
AcDbSpline
210
0.0
220
0.0
230
1.0
 70
     8
 71
     3
 72
     9
 73
     5
 74
     3
 42
0.0000000001
 43
0.0000000001
 44
0.000001
 12
0.9999999662987059
 22
0.0002596200816618
 32
0.0
 13
0.9999999772895147
 23
0.0002131219603387
 33
0.0
 40
0.0
 40
0.0
 40
0.0
 40
0.0
 40
0.0162231051320827
 40
0.0274453233096659
 40
0.0274453233096659
 40
0.0274453233096659
 40
0.0274453233096659
 10
36.97993968007646
 20
8.549810327559924
 30
0.0
 10
36.98534738160491
 20
8.549811731507885
 30
0.0
 10
36.99448334891001
 20
8.549087336886687
 30
0.0
 10
37.0035426923987
 20
8.547490194250469
 30
0.0
 10
37.00728343170627
 20
8.547490991484181
 30
0.0
 11
36.97993968007646
 21
8.549810327559924
 31
0.0
 11
36.99612133871383
 21
8.548651396259771
 31
0.0
 11
37.00728343170627
 21
8.547490991484181
 31
0.0
  0
SPLINE
  5
1E5
330
2
100
AcDbEntity
  8
GAIKEI
  6
Continuous
 62
     1
100
AcDbSpline
210
0.0
220
0.0
230
1.0
 70
     8
 71
     3
 72
     9
 73
     5
 74
     3
 42
0.0000000001
 43
0.0000000001
 44
0.000001
 12
0.9999952281185336
 22
0.0030892944440435
 32
0.0
 13
0.3094499789294173
 23
-0.9509157221019027
 33
0.0
 40
0.0
 40
0.0
 40
0.0
 40
0.0
 40
0.0469640404398837
 40
0.0913762738214171
 40
0.0913762738214171
 40
0.0913762738214171
 40
0.0913762738214171
 10
36.97224924993057
 20
8.549810327559924
 30
0.0
 10
36.98790385537492
 20
8.549858689476325
 30
0.0
 10
37.01882398283058
 20
8.539552393017387
 30
0.0
 10
37.03914030059803
 20
8.513899961937056
 30
0.0
 10
37.0437214221594
 20
8.49982253161167
 30
0.0
 11
36.97224924993057
 21
8.549810327559924
 31
0.0
 11
37.01688615778451
 21
8.535211742494283
 31
0.0
 11
37.0437214221594
 21
8.49982253161167
 31
0.0
  0
SPLINE
  5
1E6
330
2
100
AcDbEntity
  8
GAIKEI
  6
Continuous
 62
     1
100
AcDbSpline
210
0.0
220
0.0
230
1.0
 70
     8
 71
     3
 72
    11
 73
     7
 74
     5
 42
0.0000000001
 43
0.0000000001
 44
0.000001
 12
0.9999999669927422
 22
-0.000256932899469
 32
0.0
 13
-0.9999999802176745
 23
-0.0001989086489841
 33
0.0
 40
0.0
 40
0.0
 40
0.0
 40
0.0
 40
0.1068294229709868
 40
0.3305449959017221
 40
0.5542598125368326
 40
0.6610881456445128
 40
0.6610881456445128
 40
0.6610881456445128
 40
0.6610881456445128
 10
37.08931468659571
 20
8.49982253161167
 30
0.0
 10
37.12492449307733
 20
8.499813382280539
 30
0.0
 10
37.11716355650152
 20
8.330277631973419
 30
0.0
 10
37.14448326863747
 20
8.174808847357651
 30
0.0
 10
37.11716886431899
 20
8.01934230104673
 30
0.0
 10
37.1249241302605
 20
7.849805161831166
 30
0.0
 10
37.08931468659571
 20
7.849798078804695
 30
0.0
 11
37.08931468659571
 21
8.49982253161167
 31
0.0
 11
37.12241971573238
 21
8.398251478156936
 31
0.0
 11
37.13345630776169
 21
8.174809025287089
 31
0.0
 11
37.12242208920808
 21
7.951367212377789
 31
0.0
 11
37.08931468659571
 21
7.849798078804695
 31
0.0
  0
SPLINE
  5
1E7
330
2
100
AcDbEntity
  8
GAIKEI
  6
Continuous
 62
     1
100
AcDbSpline
210
0.0
220
0.0
230
1.0
 70
     8
 71
     3
 72
     9
 73
     5
 74
     3
 42
0.0000000001
 43
0.0000000001
 44
0.000001
 12
-0.0000357256246498
 22
0.99999999936184
 32
0.0
 13
-0.9530465585211443
 23
0.3028238056874048
 33
0.0
 40
0.0
 40
0.0
 40
0.0
 40
0.0
 40
0.0302405539324172
 40
0.0617993085690723
 40
0.0617993085690723
 40
0.0617993085690723
 40
0.0617993085690723
 10
37.08931468659571
 20
8.49982253161167
 30
0.0
 10
37.08931432647482
 20
8.509902716249376
 30
0.0
 10
37.08227569269221
 20
8.530749321410461
 30
0.0
 10
37.06467236994523
 20
8.544305410756905
 30
0.0
 10
37.05464671577934
 20
8.547490991484181
 30
0.0
 11
37.08931468659571
 21
8.49982253161167
 31
0.0
 11
37.07989705105902
 21
8.528559340730424
 31
0.0
 11
37.05464671577934
 21
8.547490991484181
 31
0.0
  0
SPLINE
  5
1E8
330
2
100
AcDbEntity
  8
GAIKEI
  6
Continuous
 62
     1
100
AcDbSpline
210
0.0
220
0.0
230
1.0
 70
     8
 71
     3
 72
    37
 73
    33
 74
    31
 42
0.0000000001
 43
0.0000000001
 44
0.000001
 12
0.9538209886631285
 22
-0.3003756341411404
 32
0.0
 13
-0.8762581300694602
 23
-0.481841975638459
 33
0.0
 40
0.0
 40
0.0
 40
0.0
 40
0.0
 40
0.021684741759566
 40
0.0388601863366003
 40
0.0529205851152602
 40
0.0673680891046533
 40
0.0825131310597349
 40
0.0985990564044078
 40
0.1158114287100632
 40
0.1342918141163073
 40
0.1541514322147307
 40
0.1754826448097909
 40
0.2115264968287007
 40
0.2507598691007039
 40
0.2924554705106102
 40
0.3358798785307533
 40
0.3802966439638714
 40
0.4249682982656761
 40
0.4691579659935481
 40
0.5121310313402364
 40
0.5523087768958233
 40
0.5899220125419924
 40
0.6244982145289964
 40
0.6555773488686422
 40
0.6739456141075639
 40
0.6910173742574667
 40
0.707017946468881
 40
0.7222813582623698
 40
0.7373348788948181
 40
0.7529450153044412
 40
0.7700730053481431
 40
0.789753411203882
 40
0.789753411203882
 40
0.789753411203882
 40
0.789753411203882
 10
37.05696605185508
 20
8.547002710205076
 30
0.0
 10
37.06386050579641
 20
8.544831520852669
 30
0.0
 10
37.0756987460754
 20
8.538671492619744
 30
0.0
 10
37.08772354329758
 20
8.525512690281606
 30
0.0
 10
37.09588373011877
 20
8.512617408209555
 30
0.0
 10
37.10223635897119
 20
8.499493594499153
 30
0.0
 10
37.10743909486706
 20
8.485161489493322
 30
0.0
 10
37.11173496797812
 20
8.46958270575126
 30
0.0
 10
37.11531977735746
 20
8.452692103292044
 30
0.0
 10
37.1184011744386
 20
8.434429175669059
 30
0.0
 10
37.12115806115328
 20
8.414729544342794
 30
0.0
 10
37.12441348594332
 20
8.389190913084611
 30
0.0
 10
37.12782758729651
 20
8.357164843478916
 30
0.0
 10
37.13081286766288
 20
8.318283838042267
 30
0.0
 10
37.13308922097745
 20
8.276892573037708
 30
0.0
 10
37.1345927201465
 20
8.233737072076854
 30
0.0
 10
37.13531243220972
 20
8.189569547277031
 30
0.0
 10
37.13522191389213
 20
8.145141134968179
 30
0.0
 10
37.13430920221978
 20
8.101202891769844
 30
0.0
 10
37.13254124251337
 20
8.058789798558812
 30
0.0
 10
37.13001108488555
 20
8.01861113219633
 30
0.0
 10
37.12679477130315
 20
7.981291329302928
 30
0.0
 10
37.12296111087866
 20
7.947074149697414
 30
0.0
 10
37.11863675105302
 20
7.919395875128535
 30
0.0
 10
37.11486418388861
 20
7.897547065026707
 30
0.0
 10
37.11187138157156
 20
7.880661466332218
 30
0.0
 10
37.10818517074729
 20
7.864961707824995
 30
0.0
 10
37.10316838039815
 20
7.850319472569784
 30
0.0
 10
37.09609506858176
 20
7.836662314270677
 30
0.0
 10
37.08627883118124
 20
7.823996427406324
 30
0.0
 10
37.07313937228666
 20
7.812344648665214
 30
0.0
 10
37.06271442373314
 20
7.805778848757585
 30
0.0
 10
37.05696605185508
 20
7.802617900211286
 30
0.0
 11
37.05696605185508
 21
8.547002710205076
 31
0.0
 11
37.07613537614404
 21
8.536865075132567
 31
0.0
 11
37.08797191307818
 21
8.524419701046525
 31
0.0
 11
37.09558450233514
 21
8.512598488330212
 31
0.0
 11
37.10191116606817
 21
8.499609958743887
 31
0.0
 11
37.10714604364003
 21
8.485398460012076
 31
0.0
 11
37.11148327441332
 21
8.469908339859074
 31
0.0
 11
37.11511699775056
 21
8.4530839460094
 31
0.0
 11
37.11824135301443
 21
8.43486962618769
 31
0.0
 11
37.12105047956757
 21
8.415209728118355
 31
0.0
 11
37.12373851677253
 21
8.394048599525802
 31
0.0
 11
37.12754455747532
 21
8.358206324324639
 31
0.0
 11
37.13061188934844
 21
8.31909310976286
 31
0.0
 11
37.13291982451963
 21
8.277461506609112
 31
0.0
 11
37.1344476751166
 21
8.23406406563194
 31
0.0
 11
37.13517475326708
 21
8.189653337600105
 31
0.0
 11
37.13508037109878
 21
8.144981873282263
 31
0.0
 11
37.13414384073943
 21
8.100802223446947
 31
0.0
 11
37.13234447431674
 21
8.057866938862815
 31
0.0
 11
37.1297971662103
 21
8.017770114235048
 31
0.0
 11
37.12654029219883
 21
7.980298232841703
 31
0.0
 11
37.12256917602296
 21
7.945950912294362
 31
0.0
 11
37.11787914142329
 21
7.915227770204608
 31
0.0
 11
37.11477580440018
 21
7.897123609818406
 31
0.0
 11
37.11164884042663
 21
7.880340726605907
 31
0.0
 11
37.10786566309597
 21
7.864793900071133
 31
0.0
 11
37.10279368600166
 21
7.850397909718338
 31
0.0
 11
37.09580032273701
 21
7.837067535051772
 31
0.0
 11
37.08625298689546
 21
7.824717555575688
 31
0.0
 11
37.07351909207036
 21
7.813262750794107
 31
0.0
 11
37.05696605185508
 21
7.802617900211286
 31
0.0
  0
SPLINE
  5
1E9
330
2
100
AcDbEntity
  8
GAIKEI
  6
Continuous
 62
     1
100
AcDbSpline
210
0.0
220
0.0
230
1.0
 70
     8
 71
     3
 72
     9
 73
     5
 74
     3
 42
0.0000000001
 43
0.0000000001
 44
0.000001
 12
-0.9999999845428636
 22
0.0001758245511382
 32
0.0
 13
-0.9999999621242039
 23
0.0002752300687916
 33
0.0
 40
0.0
 40
0.0
 40
0.0
 40
0.0
 40
0.011219370800582
 40
0.0274453357059611
 40
0.0274453357059611
 40
0.0274453357059611
 40
0.0274453357059611
 10
37.00728343170627
 20
7.802129618932183
 30
0.0
 10
37.00354364149722
 20
7.802130276479128
 30
0.0
 10
36.99448437559579
 20
7.800532587404956
 30
0.0
 10
36.98534833484007
 20
7.799808794231963
 30
0.0
 10
36.97993968007646
 20
7.799810282856442
 30
0.0
 11
37.00728343170627
 21
7.802129618932183
 31
0.0
 11
36.99612421568585
 21
7.80096907735887
 31
0.0
 11
36.97993968007646
 21
7.799810282856442
 31
0.0
  0
SPLINE
  5
1EA
330
2
100
AcDbEntity
  8
GAIKEI
  6
Continuous
 62
     1
100
AcDbSpline
210
0.0
220
0.0
230
1.0
 70
     8
 71
     3
 72
     9
 73
     5
 74
     3
 42
0.0000000001
 43
0.0000000001
 44
0.000001
 12
-0.0000357254400997
 22
-0.9999999993618466
 32
0.0
 13
-0.9530480675327188
 23
-0.302819056487782
 33
0.0
 40
0.0
 40
0.0
 40
0.0
 40
0.0
 40
0.0302406313354643
 40
0.0617993382075346
 40
0.0617993382075346
 40
0.0617993382075346
 40
0.0617993382075346
 10
37.08931468659571
 20
7.849798078804695
 30
0.0
 10
37.08931432647576
 20
7.839717868365974
 30
0.0
 10
37.08227574572825
 20
7.81887123491619
 30
0.0
 10
37.06467237064543
 20
7.805315144878508
 30
0.0
 10
37.05464671577934
 20
7.802129618932183
 30
0.0
 11
37.08931468659571
 21
7.849798078804695
 31
0.0
 11
37.07989705292161
 21
7.821061187729497
 31
0.0
 11
37.05464671577934
 21
7.802129618932183
 31
0.0
  0
SPLINE
  5
1EB
330
2
100
AcDbEntity
  8
GAIKEI
  6
Continuous
 62
     1
100
AcDbSpline
210
0.0
220
0.0
230
1.0
 70
     8
 71
     3
 72
     9
 73
     5
 74
     3
 42
0.0000000001
 43
0.0000000001
 44
0.000001
 12
-0.3081913340163683
 22
-0.9513243934837429
 32
0.0
 13
-0.9999695877579064
 23
0.0077989460366634
 33
0.0
 40
0.0
 40
0.0
 40
0.0
 40
0.0
 40
0.055123972016627
 40
0.0898779466552227
 40
0.0898779466552227
 40
0.0898779466552227
 40
0.0898779466552227
 10
37.0437214221594
 20
7.849798078804695
 30
0.0
 10
37.03805851200204
 20
7.832317819056318
 30
0.0
 10
37.01227544916176
 20
7.811417980634694
 30
0.0
 10
36.98383355582801
 20
7.799719934732187
 30
0.0
 10
36.97224924993057
 20
7.799810282856442
 30
0.0
 11
37.0437214221594
 21
7.849798078804695
 31
0.0
 11
37.00543123402329
 21
7.810143409257449
 31
0.0
 11
36.97224924993057
 21
7.799810282856442
 31
0.0
  0
SPLINE
  5
1EC
330
2
100
AcDbEntity
  8
GAIKEI
  6
Continuous
 62
     1
100
AcDbSpline
210
0.0
220
0.0
230
1.0
 70
     8
 71
     3
 72
    17
 73
    13
 74
    11
 42
0.0000000001
 43
0.0000000001
 44
0.000001
 12
-0.9062908520037618
 22
-0.4226545771363364
 32
0.0
 13
-0.0003835314305866
 23
-0.9999999264518182
 33
0.0
 40
0.0
 40
0.0
 40
0.0
 40
0.0
 40
0.0845299821498762
 40
0.169202927463412
 40
0.2946986072013487
 40
0.4143442631848482
 40
0.4839228813460418
 40
0.5519287181989857
 40
0.6202611840005627
 40
0.6900745335493977
 40
0.7419164228007299
 40
0.7965618430600696
 40
0.7965618430600696
 40
0.7965618430600696
 40
0.7965618430600696
 10
36.37532538622614
 20
4.44275441869783
 30
0.0
 10
36.34978913637865
 20
4.430845424077531
 30
0.0
 10
36.29994625314846
 20
4.404302249708234
 30
0.0
 10
36.21795294158248
 20
4.349462989125869
 30
0.0
 10
36.14702952975148
 20
4.261546489507034
 30
0.0
 10
36.11508775508848
 20
4.159695978833326
 30
0.0
 10
36.1066217663043
 20
4.074187805869575
 30
0.0
 10
36.10885127188744
 20
4.005419966943905
 30
0.0
 10
36.11723944456802
 20
3.937172158761218
 30
0.0
 10
36.12796754835963
 20
3.874754662349986
 30
0.0
 10
36.13768110445527
 20
3.816792329375294
 30
0.0
 10
36.14034700673616
 20
3.781282016932054
 30
0.0
 10
36.14034002065742
 20
3.763066878185298
 30
0.0
 11
36.37532538622614
 21
4.44275441869783
 31
0.0
 11
36.30067774469265
 21
4.403091328757085
 31
0.0
 11
36.23146551437017
 21
4.354314472020148
 31
0.0
 11
36.15306544743353
 21
4.256321419799944
 31
0.0
 11
36.11519353478357
 21
4.142827643008303
 31
0.0
 11
36.10810806532303
 21
4.073610673707746
 31
0.0
 11
36.10985971475637
 21
4.005627356757911
 31
0.0
 11
36.11771150194702
 21
3.937747474748873
 31
0.0
 11
36.12892644575837
 21
3.868840810271165
 31
0.0
 11
36.13676694109788
 21
3.81759526874211
 31
0.0
 11
36.14034002065742
 21
3.763066878185298
 31
0.0
  0
SPLINE
  5
1ED
330
2
100
AcDbEntity
  8
GAIKEI
  6
Continuous
 62
     1
100
AcDbSpline
210
0.0
220
0.0
230
1.0
 70
     8
 71
     3
 72
    11
 73
     7
 74
     5
 42
0.0000000001
 43
0.0000000001
 44
0.000001
 12
0.4074081346236131
 22
-0.9132461945403923
 32
0.0
 13
-0.9062446231407076
 23
-0.4227536907332174
 33
0.0
 40
0.0
 40
0.0
 40
0.0
 40
0.0
 40
0.185091835163708
 40
0.3390809074839973
 40
0.4470239600373465
 40
0.4992594039218245
 40
0.4992594039218245
 40
0.4992594039218245
 40
0.4992594039218245
 10
36.37532538622614
 20
4.44275441869783
 30
0.0
 10
36.4004613593255
 20
4.386409613996578
 30
0.0
 10
36.44272851239718
 20
4.282823770456422
 30
0.0
 10
36.48713570056602
 20
4.13551676978188
 30
0.0
 10
36.50653955986831
 20
4.04260497658844
 30
0.0
 10
36.50383668992513
 20
3.974346256267453
 30
0.0
 10
36.48805732653924
 20
3.966985347371036
 30
0.0
 11
36.37532538622614
 21
4.44275441869783
 31
0.0
 11
36.44404727169141
 21
4.270894065841645
 31
0.0
 11
36.48830728421993
 21
4.123402791729374
 31
0.0
 11
36.50425933282989
 21
4.016645063269578
 31
0.0
 11
36.48805732653924
 21
3.966985347371036
 31
0.0
  0
SPLINE
  5
1EE
330
2
100
AcDbEntity
  8
GAIKEI
  6
Continuous
100
AcDbSpline
210
0.0
220
0.0
230
1.0
 70
     8
 71
     3
 72
     9
 73
     5
 74
     3
 42
0.0000000001
 43
0.0000000001
 44
0.000001
 12
0.9319223686303319
 22
0.3626578261204795
 32
0.0
 13
0.7901977966068979
 23
0.6128518925789523
 33
0.0
 40
0.0
 40
0.0
 40
0.0
 40
0.0
 40
0.014040008183513
 40
0.0281982700537192
 40
0.0281982700537192
 40
0.0281982700537192
 40
0.0281982700537192
 10
36.20467107917936
 20
0.8244070350587263
 30
0.0
 10
36.20903247840668
 20
0.8261042746742418
 30
0.0
 10
36.21756183333394
 20
0.8301393900351168
 30
0.0
 10
36.22541690251656
 20
0.8353697104923693
 30
0.0
 10
36.22914617829443
 20
0.8382620163532974
 30
0.0
 11
36.20467107917936
 21
0.8244070350587263
 31
0.0
 11
36.21735934418636
 21
0.8304178708252436
 31
0.0
 11
36.22914617829443
 21
0.8382620163532974
 31
0.0
  0
SPLINE
  5
1EF
330
2
100
AcDbEntity
  8
GAIKEI
  6
Continuous
100
AcDbSpline
210
0.0
220
0.0
230
1.0
 70
     8
 71
     3
 72
     9
 73
     5
 74
     3
 42
0.0000000001
 43
0.0000000001
 44
0.000001
 12
0.9899260579873063
 22
0.1415853089755879
 32
0.0
 13
0.8749269641730222
 23
0.4842548991625992
 33
0.0
 40
0.0
 40
0.0
 40
0.0
 40
0.0
 40
0.0103179590836991
 40
0.0207385676221927
 40
0.0207385676221927
 40
0.0207385676221927
 40
0.0207385676221927
 10
36.15846746314415
 20
0.8065847683714364
 30
0.0
 10
36.16187213533155
 20
0.8070717255130574
 30
0.0
 10
36.16864640618122
 20
0.8086418039059026
 30
0.0
 10
36.17502065900371
 20
0.8114334535671099
 30
0.0
 10
36.17805974946819
 20
0.8131155304794502
 30
0.0
 11
36.15846746314415
 21
0.8065847683714364
 31
0.0
 11
36.16851398121939
 21
0.8089354171438285
 31
0.0
 11
36.17805974946819
 21
0.8131155304794502
 31
0.0
  0
SPLINE
  5
1F0
330
2
100
AcDbEntity
  8
GAIKEI
  6
Continuous
100
AcDbSpline
210
0.0
220
0.0
230
1.0
 70
     8
 71
     3
 72
     9
 73
     5
 74
     3
 42
0.0000000001
 43
0.0000000001
 44
0.000001
 12
0.9986285255378286
 22
0.0523552096943815
 32
0.0
 13
0.9722010928234167
 23
0.2341474644598021
 33
0.0
 40
0.0
 40
0.0
 40
0.0
 40
0.0
 40
0.0209971208182076
 40
0.0425732994532656
 40
0.0425732994532656
 40
0.0425732994532656
 40
0.0425732994532656
 10
36.09724919777651
 20
0.7954153341119366
 30
0.0
 10
36.10423863904425
 20
0.7957817703330751
 30
0.0
 10
36.11838849608858
 20
0.7970699497191239
 30
0.0
 10
36.13237132994989
 20
0.7996517421143602
 30
0.0
 10
36.13936345809921
 20
0.8013357446210703
 30
0.0
 11
36.09724919777651
 21
0.7954153341119366
 31
0.0
 11
36.11815447764562
 21
0.7973667330219029
 31
0.0
 11
36.13936345809921
 21
0.8013357446210703
 31
0.0
  0
SPLINE
  5
1F1
330
2
100
AcDbEntity
  8
GAIKEI
  6
Continuous
100
AcDbSpline
210
0.0
220
0.0
230
1.0
 70
     8
 71
     3
 72
     9
 73
     5
 74
     3
 42
0.0000000001
 43
0.0000000001
 44
0.000001
 12
-0.8336646498830011
 22
-0.5522709946533979
 32
0.0
 13
-0.9619339084121218
 23
-0.2732821908704988
 33
0.0
 40
0.0
 40
0.0
 40
0.0
 40
0.0
 40
0.044236519642811
 40
0.0843931981844992
 40
0.0843931981844992
 40
0.0843931981844992
 40
0.0843931981844992
 10
36.23500555364368
 20
0.8408254930685925
 30
0.0
 10
36.22271274609032
 20
0.8326819775008793
 30
0.0
 10
36.1979960159813
 20
0.8189571607904264
 30
0.0
 10
36.17146555704342
 20
0.8092662408432138
 30
0.0
 10
36.15858953346393
 20
0.8056082058132288
 30
0.0
 11
36.23500555364368
 21
0.8408254930685925
 31
0.0
 11
36.19630320495228
 21
0.8194010827895397
 31
0.0
 11
36.15858953346393
 21
0.8056082058132288
 31
0.0
  0
SPLINE
  5
1F2
330
2
100
AcDbEntity
  8
GAIKEI
  6
Continuous
 62
     1
100
AcDbSpline
210
0.0
220
0.0
230
1.0
 70
     8
 71
     3
 72
     9
 73
     5
 74
     3
 42
0.0000000001
 43
0.0000000001
 44
0.000001
 12
-0.9850337644152421
 22
-0.1723614892078195
 32
0.0
 13
-0.2957883009680813
 23
-0.9552535166176651
 33
0.0
 40
0.0
 40
0.0
 40
0.0
 40
0.0
 40
0.1574377602857706
 40
0.3287481786948435
 40
0.3287481786948435
 40
0.3287481786948435
 40
0.3287481786948435
 10
36.53639717317052
 20
1.33844515163534
 30
0.0
 10
36.48470333661206
 20
1.329399749361873
 30
0.0
 10
36.40821622559938
 20
1.225362459369468
 30
0.0
 10
36.37549229161662
 20
1.126025655491434
 30
0.0
 10
36.35860175241683
 20
1.071477362285264
 30
0.0
 11
36.53639717317052
 21
1.33844515163534
 31
0.0
 11
36.42148067965539
 21
1.230829711587573
 31
0.0
 11
36.35860175241683
 21
1.071477362285264
 31
0.0
  0
SPLINE
  5
1F3
330
2
100
AcDbEntity
  8
GAIKEI
  6
Continuous
 62
     1
100
AcDbSpline
210
0.0
220
0.0
230
1.0
 70
     8
 71
     3
 72
     9
 73
     5
 74
     3
 42
0.0000000001
 43
0.0000000001
 44
0.000001
 12
0.9978452281986013
 22
0.0656117410322368
 32
0.0
 13
-0.0584370804213165
 23
-0.9982910936354349
 33
0.0
 40
0.0
 40
0.0
 40
0.0
 40
0.0
 40
0.1116304529379611
 40
0.1786075253372409
 40
0.1786075253372409
 40
0.1786075253372409
 40
0.1786075253372409
 10
36.35817450629762
 20
3.763066878185298
 30
0.0
 10
36.39530447789288
 20
3.765508300975124
 30
0.0
 10
36.43505972878293
 20
3.749621967645077
 30
0.0
 10
36.53770182135925
 20
3.797073167168449
 30
0.0
 10
36.53639717317052
 20
3.774785628883789
 30
0.0
 11
36.35817450629762
 21
3.763066878185298
 31
0.0
 11
36.46956367309318
 21
3.770391097371856
 31
0.0
 11
36.53639717317052
 21
3.774785628883789
 31
0.0
  0
SPLINE
  5
1F4
330
2
100
AcDbEntity
  8
GAIKEI
  6
Continuous
 62
     1
100
AcDbSpline
210
0.0
220
0.0
230
1.0
 70
     8
 71
     3
 72
     9
 73
     5
 74
     3
 42
0.0000000001
 43
0.0000000001
 44
0.000001
 12
-0.9089599495712977
 22
-0.4168834490302344
 32
0.0
 13
-0.0584370804213165
 23
-0.9982910936354349
 33
0.0
 40
0.0
 40
0.0
 40
0.0
 40
0.0
 40
0.0693722202742863
 40
0.199351664093589
 40
0.199351664093589
 40
0.199351664093589
 40
0.199351664093589
 10
36.49055976809464
 20
3.968145015408906
 30
0.0
 10
36.46954091148059
 20
3.958504971923963
 30
0.0
 10
36.54860975268513
 20
3.873211361223718
 30
0.0
 10
36.53892904624105
 20
3.818038069257289
 30
0.0
 10
36.53639717317052
 20
3.774785628883789
 30
0.0
 11
36.49055976809464
 21
3.968145015408906
 31
0.0
 11
36.51382478213772
 21
3.902789552750931
 31
0.0
 11
36.53639717317052
 21
3.774785628883789
 31
0.0
  0
SPLINE
  5
1F5
330
2
100
AcDbEntity
  8
GAIKEI
  6
Continuous
 62
     1
100
AcDbSpline
210
0.0
220
0.0
230
1.0
 70
     8
 71
     3
 72
     9
 73
     5
 74
     3
 42
0.0000000001
 43
0.0000000001
 44
0.000001
 12
-0.8242199307060358
 22
-0.5662698171604573
 32
0.0
 13
-0.7635969288552223
 23
-0.6456932168165256
 33
0.0
 40
0.0
 40
0.0
 40
0.0
 40
0.0
 40
0.0842429341240927
 40
0.1686312615918258
 40
0.1686312615918258
 40
0.1686312615918258
 40
0.1686312615918258
 10
36.66731759113023
 20
3.880986807088873
 30
0.0
 10
36.64417268935482
 20
3.865085396787703
 30
0.0
 10
36.60008146670054
 20
3.830048131793267
 30
0.0
 10
36.55787672906572
 20
3.792948619091925
 30
0.0
 10
36.53639717317052
 20
3.774785628883789
 30
0.0
 11
36.66731759113023
 21
3.880986807088873
 31
0.0
 11
36.60058957079136
 21
3.829562973112245
 31
0.0
 11
36.53639717317052
 21
3.774785628883789
 31
0.0
  0
SPLINE
  5
1F6
330
2
100
AcDbEntity
  8
GAIKEI
  6
Continuous
 62
     1
100
AcDbSpline
210
0.0
220
0.0
230
1.0
 70
     8
 71
     3
 72
    11
 73
     7
 74
     5
 42
0.0000000001
 43
0.0000000001
 44
0.000001
 12
0.050091494938014
 22
-0.9987446330944036
 32
0.0
 13
-0.9986242733284907
 23
-0.0524362538626057
 33
0.0
 40
0.0
 40
0.0
 40
0.0
 40
0.0
 40
0.1975606454140186
 40
0.3648945480851526
 40
0.4840003254777002
 40
0.5430360203227317
 40
0.5430360203227317
 40
0.5430360203227317
 40
0.5430360203227317
 10
36.53639717317052
 20
1.33844515163534
 30
0.0
 10
36.53969587586042
 20
1.272674273529367
 30
0.0
 10
36.5411541460242
 20
1.15212444069568
 30
0.0
 10
36.52590418727359
 20
0.9865650451504334
 30
0.0
 10
36.50700792963133
 20
0.8832053823599322
 30
0.0
 10
36.4743225867022
 20
0.815184998424829
 30
0.0
 10
36.45467109408051
 20
0.8141531281975458
 30
0.0
 11
36.53639717317052
 21
1.33844515163534
 31
0.0
 11
36.53747673139689
 21
1.14088830156865
 31
0.0
 11
36.52211737278353
 21
0.9742608300950619
 31
0.0
 11
36.49346639459114
 21
0.8586525135321776
 31
0.0
 11
36.45467109408051
 21
0.8141531281975458
 31
0.0
  0
SPLINE
  5
1F7
330
2
100
AcDbEntity
  8
GAIKEI
  6
Continuous
 62
     1
100
AcDbSpline
210
0.0
220
0.0
230
1.0
 70
     8
 71
     3
 72
    13
 73
     9
 74
     7
 42
0.0000000001
 43
0.0000000001
 44
0.000001
 12
-0.9958442137968301
 22
-0.091073057746918
 32
0.0
 13
-0.0021490968022977
 23
0.9999976906888008
 33
0.0
 40
0.0
 40
0.0
 40
0.0
 40
0.0
 40
0.0186237222847411
 40
0.0751802964372059
 40
0.1192815630830654
 40
0.1723092376012827
 40
0.3776468578457786
 40
0.5372602936856556
 40
0.5372602936856556
 40
0.5372602936856556
 40
0.5372602936856556
 10
36.82253000272536
 20
0.8334402387221473
 30
0.0
 10
36.81634789403315
 20
0.8328748656104471
 30
0.0
 10
36.80480559926035
 20
0.8647238539516138
 30
0.0
 10
36.78806771134344
 20
0.8935860260407157
 30
0.0
 10
36.7730722912514
 20
0.9446994901288492
 30
0.0
 10
36.74398714726107
 20
1.040246980853834
 30
0.0
 10
36.70818993792491
 20
1.174539804500124
 30
0.0
 10
36.66743193270509
 20
1.292076733795199
 30
0.0
 10
36.66731759113023
 20
1.345281089542794
 30
0.0
 11
36.82253000272536
 21
0.8334402387221473
 31
0.0
 11
36.81069066111311
 21
0.8478169829773776
 31
0.0
 11
36.78767892642933
 21
0.8994802817209404
 31
0.0
 11
36.77397205724529
 21
0.9413973472678376
 31
0.0
 11
36.75874826064242
 21
0.9921926895907802
 31
0.0
 11
36.70126653185386
 21
1.18932037844999
 31
0.0
 11
36.66731759113023
 21
1.345281089542794
 31
0.0
  0
SPLINE
  5
1F8
330
2
100
AcDbEntity
  8
GAIKEI
  6
Continuous
100
AcDbSpline
210
0.0
220
0.0
230
1.0
 70
     8
 71
     3
 72
     9
 73
     5
 74
     3
 42
0.0000000001
 43
0.0000000001
 44
0.000001
 12
-0.0388440392278802
 22
-0.9992452855112517
 32
0.0
 13
-0.2905979386519135
 23
-0.9568452529282144
 33
0.0
 40
0.0
 40
0.0
 40
0.0
 40
0.0
 40
0.0216767608424873
 40
0.0435609816912299
 40
0.0435609816912299
 40
0.0435609816912299
 40
0.0435609816912299
 10
37.08296702996737
 20
1.097478340397542
 30
0.0
 10
37.08268635898453
 20
1.090258206705206
 30
0.0
 10
37.08152252719485
 20
1.075759215265316
 30
0.0
 10
37.07849506918868
 20
1.061489525447456
 30
0.0
 10
37.07637523269946
 20
1.054509587836405
 30
0.0
 11
37.08296702996737
 21
1.097478340397542
 31
0.0
 11
37.08106705287233
 21
1.075885934417185
 31
0.0
 11
37.07637523269946
 21
1.054509587836405
 31
0.0
  0
SPLINE
  5
1F9
330
2
100
AcDbEntity
  8
GAIKEI
  6
Continuous
100
AcDbSpline
210
0.0
220
0.0
230
1.0
 70
     8
 71
     3
 72
     9
 73
     5
 74
     3
 42
0.0000000001
 43
0.0000000001
 44
0.000001
 12
-0.8772575866336344
 22
-0.4800199232258298
 32
0.0
 13
-0.9663992325400203
 23
-0.2570457611906102
 33
0.0
 40
0.0
 40
0.0
 40
0.0
 40
0.0
 40
0.0254042789014473
 40
0.0504946159949651
 40
0.0504946159949651
 40
0.0504946159949651
 40
0.0504946159949651
 10
36.92818186449146
 20
0.8616384825903935
 30
0.0
 10
36.92075316569171
 20
0.8575736292544334
 30
0.0
 10
36.90539500490233
 20
0.8505467725966443
 30
0.0
 10
36.88932825404138
 20
0.8454166877296893
 30
0.0
 10
36.8812458265376
 20
0.8432668994641119
 30
0.0
 11
36.92818186449146
 21
0.8616384825903935
 31
0.0
 11
36.90511929309631
 21
0.8509826952295894
 31
0.0
 11
36.8812458265376
 21
0.8432668994641119
 31
0.0
  0
SPLINE
  5
1FA
330
2
100
AcDbEntity
  8
GAIKEI
  6
Continuous
 62
     1
100
AcDbSpline
210
0.0
220
0.0
230
1.0
 70
     8
 71
     3
 72
    15
 73
    11
 74
     9
 42
0.0000000001
 43
0.0000000001
 44
0.000001
 12
-0.0109598631659733
 22
-0.9999399388960236
 32
0.0
 13
0.99863913019592
 23
0.0521525420429005
 33
0.0
 40
0.0
 40
0.0
 40
0.0
 40
0.0
 40
0.2060160328921782
 40
0.3971841297034682
 40
0.5696126666485349
 40
0.7194120619170656
 40
0.8427021069835033
 40
0.9356304494506973
 40
0.9944510323551915
 40
1.016340558256391
 40
1.016340558256391
 40
1.016340558256391
 40
1.016340558256391
 10
35.28639709866471
 20
1.768193712406599
 30
0.0
 10
35.28564446282122
 20
1.69952582595933
 30
0.0
 10
35.28478966983676
 20
1.567156877925433
 30
0.0
 10
35.28532701127048
 20
1.377180645708015
 30
0.0
 10
35.28768682848935
 20
1.206383237983706
 30
0.0
 10
35.29128668099659
 20
1.056950775514271
 30
0.0
 10
35.29707068627276
 20
0.9377399346829291
 30
0.0
 10
35.30171653229728
 20
0.8397048332205914
 30
0.0
 10
35.31117967424254
 20
0.7944838984324703
 30
0.0
 10
35.31408366624507
 20
0.7543853861532554
 30
0.0
 10
35.32137024528053
 20
0.7547659176265427
 30
0.0
 11
35.28639709866471
 21
1.768193712406599
 31
0.0
 11
35.28508914348768
 21
1.562182596090025
 31
0.0
 11
35.28571251436577
 21
1.371015517966924
 31
0.0
 11
35.28811291948623
 21
1.198603693507465
 31
0.0
 11
35.29213606703641
 21
1.048858338182157
 31
0.0
 11
35.29762766520358
 21
0.9256906674609981
 31
0.0
 11
35.30443342217509
 21
0.8330118968145541
 31
0.0
 11
35.31239904613828
 21
0.7747332417129372
 31
0.0
 11
35.32137024528053
 21
0.7547659176265427
 31
0.0
  0
SPLINE
  5
1FB
330
2
100
AcDbEntity
  8
GAIKEI
  6
Continuous
 62
     1
100
AcDbSpline
210
0.0
220
0.0
230
1.0
 70
     8
 71
     3
 72
     9
 73
     5
 74
     3
 42
0.0000000001
 43
0.0000000001
 44
0.000001
 12
-0.0001282874902118
 22
-0.9999999917711599
 32
0.0
 13
-0.4029774593087212
 23
-0.9152099034041798
 33
0.0
 40
0.0
 40
0.0
 40
0.0
 40
0.0
 40
0.0545541254554146
 40
0.1148452902883969
 40
0.1148452902883969
 40
0.1148452902883969
 40
0.1148452902883969
 10
36.35817450629762
 20
1.07007355360784
 30
0.0
 10
36.358172173427
 20
1.051888845272341
 30
0.0
 10
36.35409365249335
 20
1.013550870494392
 30
0.0
 10
36.34253048924224
 20
0.9767111995672584
 30
0.0
 10
36.33443182910119
 20
0.9583181758529519
 30
0.0
 11
36.35817450629762
 21
1.07007355360784
 31
0.0
 11
36.35260751855165
 21
1.01580425146207
 31
0.0
 11
36.33443182910119
 21
0.9583181758529519
 31
0.0
  0
SPLINE
  5
1FC
330
2
100
AcDbEntity
  8
GAIKEI
  6
Continuous
 62
     1
100
AcDbSpline
210
0.0
220
0.0
230
1.0
 70
     8
 71
     3
 72
    13
 73
     9
 74
     7
 42
0.0000000001
 43
0.0000000001
 44
0.000001
 12
0.0012464214186471
 22
-0.9999992232165219
 32
0.0
 13
-0.9985877679209654
 23
-0.0531269212229018
 33
0.0
 40
0.0
 40
0.0
 40
0.0
 40
0.0
 40
0.241782689564392
 40
0.5178336125674258
 40
0.7481207083285275
 40
0.9035648525459455
 40
0.9917518536177979
 40
1.019903192777825
 40
1.019903192777825
 40
1.019903192777825
 40
1.019903192777825
 10
36.14034002065742
 20
1.812932484604488
 30
0.0
 10
36.14044047503173
 20
1.732338317353956
 30
0.0
 10
36.14171860917024
 20
1.560180035322347
 30
0.0
 10
36.14242281854322
 20
1.308674782975563
 30
0.0
 10
36.12940661647689
 20
1.094196516884105
 30
0.0
 10
36.12645160648319
 20
0.9236483426959377
 30
0.0
 10
36.09793708690256
 20
0.8552286375527831
 30
0.0
 10
36.10692490122122
 20
0.7959138654378945
 30
0.0
 10
36.09755437357595
 20
0.7954153341119366
 30
0.0
 11
36.14034002065742
 21
1.812932484604488
 31
0.0
 11
36.1414609845202
 21
1.571153142800739
 31
0.0
 11
36.13936345809921
 21
1.295110188114874
 31
0.0
 11
36.12978076144199
 21
1.065022558570689
 31
0.0
 11
36.11624454384982
 21
0.9101689156252348
 31
0.0
 11
36.1038155122516
 21
0.8228621954237667
 31
0.0
 11
36.09755437357595
 21
0.7954153341119366
 31
0.0
  0
SPLINE
  5
1FD
330
2
100
AcDbEntity
  8
GAIKEI
  6
Continuous
 62
     1
100
AcDbSpline
210
0.0
220
0.0
230
1.0
 70
     8
 71
     3
 72
     9
 73
     5
 74
     3
 42
0.0000000001
 43
0.0000000001
 44
0.000001
 12
0.00441624400497
 22
0.999990248346897
 32
0.0
 13
-0.9988625858354369
 23
-0.0476815962206028
 33
0.0
 40
0.0
 40
0.0
 40
0.0
 40
0.0
 40
0.0619392336224958
 40
0.2180288114584744
 40
0.2180288114584744
 40
0.2180288114584744
 40
0.2180288114584744
 10
36.35817450629762
 20
1.812932484604488
 30
0.0
 10
36.35826568588733
 20
1.833578694475346
 30
0.0
 10
36.23903730211447
 20
1.796627117712005
 30
0.0
 10
36.19231070043716
 20
1.815413351346028
 30
0.0
 10
36.14034002065742
 20
1.812932484604488
 30
0.0
 11
36.35817450629762
 21
1.812932484604488
 31
0.0
 11
36.29637368249403
 21
1.817081433090918
 31
0.0
 11
36.14034002065742
 21
1.812932484604488
 31
0.0
  0
SPLINE
  5
1FE
330
2
100
AcDbEntity
  8
GAIKEI
  6
Continuous
 62
     1
100
AcDbSpline
210
0.0
220
0.0
230
1.0
 70
     8
 71
     3
 72
    11
 73
     7
 74
     5
 42
0.0000000001
 43
0.0000000001
 44
0.000001
 12
0.9987564980174209
 22
0.049854364583028
 32
0.0
 13
0.0002726581662577
 23
-0.9999999628287616
 33
0.0
 40
0.0
 40
0.0
 40
0.0
 40
0.0
 40
0.1661273401196848
 40
0.2978564361165405
 40
0.3847037589629922
 40
0.4165648482961337
 40
0.4165648482961337
 40
0.4165648482961337
 40
0.4165648482961337
 10
36.66731759113023
 20
1.345281089542794
 30
0.0
 10
36.72262451127786
 20
1.348041813869972
 30
0.0
 10
36.81863380454372
 20
1.350044479916144
 30
0.0
 10
36.9575729810944
 20
1.358756611921252
 30
0.0
 10
37.02042782026343
 20
1.344854424038567
 30
0.0
 10
37.0831472397183
 20
1.355901452259069
 30
0.0
 10
37.08315013544703
 20
1.345281089542794
 30
0.0
 11
36.66731759113023
 21
1.345281089542794
 31
0.0
 11
36.83331815572947
 21
1.351750427198027
 31
0.0
 11
36.96503470924191
 21
1.353567476764936
 31
0.0
 11
37.0518508397777
 21
1.351241332720775
 31
0.0
 11
37.08315013544703
 21
1.345281089542794
 31
0.0
  0
SPLINE
  5
1FF
330
2
100
AcDbEntity
  8
GAIKEI
  6
Continuous
 62
     1
100
AcDbSpline
210
0.0
220
0.0
230
1.0
 70
     8
 71
     3
 72
    13
 73
     9
 74
     7
 42
0.0000000001
 43
0.0000000001
 44
0.000001
 12
0.753073790038753
 22
0.6579360658579742
 32
0.0
 13
-1.0
 23
0.0000000000000001
 33
0.0
 40
0.0
 40
0.0
 40
0.0
 40
0.0
 40
0.0783056690111415
 40
0.179705193401377
 40
0.3131113426639541
 40
0.421939996870959
 40
0.4952544847326364
 40
0.5221143207126088
 40
0.5221143207126088
 40
0.5221143207126088
 40
0.5221143207126088
 10
36.66731759113023
 20
3.880986807088873
 30
0.0
 10
36.68697424011148
 20
3.898160181690062
 30
0.0
 10
36.73429697650465
 20
3.93467050949306
 30
0.0
 10
36.81876683862423
 20
3.997929546636109
 30
0.0
 10
36.90435370921354
 20
4.065421095050613
 30
0.0
 10
37.00491028439047
 20
4.133800996966607
 30
0.0
 10
37.02801338242612
 20
4.164575704589267
 30
0.0
 10
37.09210341410702
 20
4.196660654029499
 30
0.0
 10
37.08315013544703
 20
4.196660654029499
 30
0.0
 11
36.66731759113023
 21
3.880986807088873
 31
0.0
 11
36.72843438889734
 21
3.929939471461323
 31
0.0
 11
36.80922433786979
 21
3.991216305846562
 31
0.0
 11
36.91558826944564
 21
4.0717390795306
 31
0.0
 11
37.00269311692151
 21
4.136980341520683
 31
0.0
 11
37.06154502426588
 21
4.180700672719382
 31
0.0
 11
37.08315013544703
 21
4.196660654029499
 31
0.0
  0
SPLINE
  5
200
330
2
100
AcDbEntity
  8
GAIKEI
  6
Continuous
 62
     1
100
AcDbSpline
210
0.0
220
0.0
230
1.0
 70
     8
 71
     3
 72
    11
 73
     7
 74
     5
 42
0.0000000001
 43
0.0000000001
 44
0.000001
 12
-0.0010703563239132
 22
0.9999994271685059
 32
0.0
 13
-0.001070356323913
 23
0.9999994271685059
 33
0.0
 40
0.0
 40
0.0
 40
0.0
 40
0.0
 40
0.0842517119636574
 40
0.2610778965508669
 40
0.4379040811380205
 40
0.5221557931017348
 40
0.5221557931017348
 40
0.5221557931017348
 40
0.5221557931017348
 10
36.37251776887129
 20
2.698796795218612
 30
0.0
 10
36.37248770908705
 20
2.726880683119153
 30
0.0
 10
36.37253850575172
 20
2.813906679956934
 30
0.0
 10
36.37251776887122
 20
2.959874691639422
 30
0.0
 10
36.37249703199108
 20
3.105842703321929
 30
0.0
 10
36.37254782865553
 20
3.192868700159711
 30
0.0
 10
36.37251776887129
 20
3.220952588060271
 30
0.0
 11
36.37251776887129
 21
2.698796795218612
 31
0.0
 11
36.37251491650946
 21
2.78304850766014
 31
0.0
 11
36.37251776887129
 21
2.959874691639441
 31
0.0
 11
36.37252062123323
 21
3.136700875618686
 31
0.0
 11
36.37251776887129
 21
3.220952588060271
 31
0.0
  0
SPLINE
  5
201
330
2
100
AcDbEntity
  8
GAIKEI
  6
Continuous
100
AcDbSpline
210
0.0
220
0.0
230
1.0
 70
     8
 71
     3
 72
     9
 73
     5
 74
     3
 42
0.0000000001
 43
0.0000000001
 44
0.000001
 12
0.8216128654306013
 22
-0.5700458747845799
 32
0.0
 13
0.7561419739598785
 23
-0.6544076063250324
 33
0.0
 40
0.0
 40
0.0
 40
0.0
 40
0.0
 40
0.0283706002317537
 40
0.0567420865417614
 40
0.0567420865417614
 40
0.0567420865417614
 40
0.0567420865417614
 10
35.56203188071882
 20
28.86450880403529
 30
0.0
 10
35.56980176410229
 20
28.85911795615953
 30
0.0
 10
35.5850511950907
 20
28.84791139858111
 30
0.0
 10
35.59968073085573
 20
28.83590760171382
 30
0.0
 10
35.6068316880766
 20
28.82971876289915
 30
0.0
 11
35.56203188071882
 21
28.86450880403529
 31
0.0
 11
35.5848962759715
 21
28.84771226070254
 31
0.0
 11
35.6068316880766
 21
28.82971876289915
 31
0.0
  0
SPLINE
  5
202
330
2
100
AcDbEntity
  8
GAIKEI
  6
Continuous
100
AcDbSpline
210
0.0
220
0.0
230
1.0
 70
     8
 71
     3
 72
     9
 73
     5
 74
     3
 42
0.0000000001
 43
0.0000000001
 44
0.000001
 12
0.974571587853388
 22
-0.2240763712418738
 32
0.0
 13
0.8019783848264074
 23
-0.5973530532869376
 33
0.0
 40
0.0
 40
0.0
 40
0.0
 40
0.0
 40
0.0374098602521766
 40
0.0749238911644101
 40
0.0749238911644101
 40
0.0749238911644101
 40
0.0749238911644101
 10
35.460591444985
 20
28.91870802601582
 30
0.0
 10
35.47274430728744
 20
28.9159138041045
 30
0.0
 10
35.49602386975375
 20
28.90611261324787
 30
0.0
 10
35.51745749958245
 20
28.89315771148526
 30
0.0
 10
35.52748598022223
 20
28.88568800451642
 30
0.0
 11
35.460591444985
 21
28.91870802601582
 31
0.0
 11
35.49553110123897
 21
28.9053390238872
 31
0.0
 11
35.52748598022223
 21
28.88568800451642
 31
0.0
  0
SPLINE
  5
203
330
2
100
AcDbEntity
  8
GAIKEI
  6
Continuous
100
AcDbSpline
210
0.0
220
0.0
230
1.0
 70
     8
 71
     3
 72
     9
 73
     5
 74
     3
 42
0.0000000001
 43
0.0000000001
 44
0.000001
 12
0.9796871977183204
 22
-0.2005317795932212
 32
0.0
 13
0.7383676368651692
 23
-0.6743984229149308
 33
0.0
 40
0.0
 40
0.0
 40
0.0
 40
0.0
 40
0.0284893840296848
 40
0.0668705966584664
 40
0.0668705966584664
 40
0.0668705966584664
 40
0.0668705966584664
 10
35.37331116634519
 20
28.94617384796541
 30
0.0
 10
35.38261472794678
 20
28.94426950567242
 30
0.0
 10
35.40415942372098
 20
28.9407450905507
 30
0.0
 10
35.42764642667189
 20
28.93569791934261
 30
0.0
 10
35.43709290842814
 20
28.92706984292047
 30
0.0
 11
35.37331116634519
 21
28.94617384796541
 31
0.0
 11
35.40132411717329
 21
28.94098952529365
 31
0.0
 11
35.43709290842814
 21
28.92706984292047
 31
0.0
  0
SPLINE
  5
204
330
2
100
AcDbEntity
  8
GAIKEI
  6
Continuous
100
AcDbSpline
210
0.0
220
0.0
230
1.0
 70
     8
 71
     3
 72
     9
 73
     5
 74
     3
 42
0.0000000001
 43
0.0000000001
 44
0.000001
 12
0.9007582109122999
 22
-0.4343209014934379
 32
0.0
 13
0.8072984539028846
 23
-0.5901433777701925
 33
0.0
 40
0.0
 40
0.0
 40
0.0
 40
0.0
 40
0.0120400664915374
 40
0.024167412735271
 40
0.024167412735271
 40
0.024167412735271
 40
0.024167412735271
 10
35.49330629068496
 20
28.90424269312238
 30
0.0
 10
35.49692135360236
 20
28.90249960894483
 30
0.0
 10
35.50412138851815
 20
28.89887923189077
 30
0.0
 10
35.51097788790237
 20
28.894604390983
 30
0.0
 10
35.51424135052653
 20
28.89221876662444
 30
0.0
 11
35.49330629068496
 21
28.90424269312238
 31
0.0
 11
35.50400938562646
 21
28.89873054791158
 31
0.0
 11
35.51424135052653
 21
28.89221876662444
 31
0.0
  0
SPLINE
  5
205
330
2
100
AcDbEntity
  8
GAIKEI
  6
Continuous
100
AcDbSpline
210
0.0
220
0.0
230
1.0
 70
     8
 71
     3
 72
     9
 73
     5
 74
     3
 42
0.0000000001
 43
0.0000000001
 44
0.000001
 12
0.9975914891662062
 22
-0.0693629637713897
 32
0.0
 13
0.8773045369304625
 23
-0.4799341095204913
 33
0.0
 40
0.0
 40
0.0
 40
0.0
 40
0.0
 40
0.0098074236358237
 40
0.0196844074862998
 40
0.0196844074862998
 40
0.0196844074862998
 40
0.0196844074862998
 10
35.39375794490766
 20
28.94000929681673
 30
0.0
 10
35.39701921235757
 20
28.93978253949328
 30
0.0
 10
35.40354195845201
 20
28.93867732796976
 30
0.0
 10
35.40966839990542
 20
28.93615726806971
 30
0.0
 10
35.41255677415316
 20
28.9345771675867
 30
0.0
 11
35.39375794490766
 21
28.94000929681673
 31
0.0
 11
35.40342058669594
 21
28.93833101536947
 31
0.0
 11
35.41255677415316
 21
28.9345771675867
 31
0.0
  0
SPLINE
  5
206
330
2
100
AcDbEntity
  8
GAIKEI
  6
Continuous
100
AcDbSpline
210
0.0
220
0.0
230
1.0
 70
     8
 71
     3
 72
     9
 73
     5
 74
     3
 42
0.0000000001
 43
0.0000000001
 44
0.000001
 12
0.9285769966303645
 22
-0.3711398137210987
 32
0.0
 13
0.8342620363354255
 23
-0.5513681662278568
 33
0.0
 40
0.0
 40
0.0
 40
0.0
 40
0.0
 40
0.0162320771835853
 40
0.0325811667065144
 40
0.0325811667065144
 40
0.0325811667065144
 40
0.0325811667065144
 10
35.4824420322249
 20
28.90857618947442
 30
0.0
 10
35.4874662767183
 20
28.90656806610702
 30
0.0
 10
35.49739421478897
 20
28.90212683732124
 30
0.0
 10
35.50682622310592
 20
28.89668839963167
 30
0.0
 10
35.5113726980118
 20
28.89368361046175
 30
0.0
 11
35.4824420322249
 21
28.90857618947442
 31
0.0
 11
35.4972348889356
 21
28.90189608954981
 31
0.0
 11
35.5113726980118
 21
28.89368361046175
 31
0.0
  0
SPLINE
  5
207
330
2
100
AcDbEntity
  8
GAIKEI
  6
Continuous
100
AcDbSpline
210
0.0
220
0.0
230
1.0
 70
     8
 71
     3
 72
     9
 73
     5
 74
     3
 42
0.0000000001
 43
0.0000000001
 44
0.000001
 12
0.97199515865132
 22
-0.2350008756545292
 32
0.0
 13
0.9088829148800572
 23
-0.4170513721822898
 33
0.0
 40
0.0
 40
0.0
 40
0.0
 40
0.0
 40
0.0095490869333768
 40
0.0191512755967846
 40
0.0191512755967846
 40
0.0191512755967846
 40
0.0191512755967846
 10
35.42220032941546
 20
28.93237990183073
 30
0.0
 10
35.42529421817172
 20
28.93163188723372
 30
0.0
 10
35.43142819777599
 20
28.92982211295601
 30
0.0
 10
35.43735764833509
 20
28.92742814901494
 30
0.0
 10
35.4402667367423
 20
28.92609328036227
 30
0.0
 11
35.42220032941546
 21
28.93237990183073
 31
0.0
 11
35.43136090262439
 21
28.92968271954917
 31
0.0
 11
35.4402667367423
 21
28.92609328036227
 31
0.0
  0
SPLINE
  5
208
330
2
100
AcDbEntity
  8
GAIKEI
  6
Continuous
100
AcDbSpline
210
0.0
220
0.0
230
1.0
 70
     8
 71
     3
 72
     9
 73
     5
 74
     3
 42
0.0000000001
 43
0.0000000001
 44
0.000001
 12
0.9476067522711588
 22
-0.3194392634760274
 32
0.0
 13
0.9781595216317647
 23
-0.207855599494258
 33
0.0
 40
0.0
 40
0.0
 40
0.0
 40
0.0
 40
0.0000303572916962
 40
0.0000610584876069
 40
0.0000610584876069
 40
0.0000610584876069
 40
0.0000610584876069
 10
35.36903870515303
 20
28.94708937536373
 30
0.0
 10
35.36904829407789
 20
28.94708614292677
 30
0.0
 10
35.36906932273904
 20
28.94708827055826
 30
0.0
 10
35.36908973009055
 20
28.94709150250223
 30
0.0
 10
35.36909974031292
 20
28.94708937536373
 30
0.0
 11
35.36903870515303
 21
28.94708937536373
 31
0.0
 11
35.36906928288923
 21
28.94708841020517
 31
0.0
 11
35.36909974031292
 21
28.94708937536373
 31
0.0
  0
SPLINE
  5
209
330
2
100
AcDbEntity
  8
GAIKEI
  6
Continuous
100
AcDbSpline
210
0.0
220
0.0
230
1.0
 70
     8
 71
     3
 72
     9
 73
     5
 74
     3
 42
0.0000000001
 43
0.0000000001
 44
0.000001
 12
0.0079263994431562
 22
0.9999685856025015
 32
0.0
 13
-0.9712813647251413
 23
0.2379338364707028
 33
0.0
 40
0.0
 40
0.0
 40
0.0
 40
0.0
 40
0.0716707874565754
 40
0.0906323653615338
 40
0.0906323653615338
 40
0.0906323653615338
 40
0.0906323653615338
 10
36.79970918252556
 20
28.55450175811879
 30
0.0
 10
36.79989854628882
 20
28.57839127010611
 30
0.0
 10
36.79193379800871
 20
28.60025813652838
 30
0.0
 10
36.79827350218944
 20
28.64309525596675
 30
0.0
 10
36.79213449310115
 20
28.64459912295891
 30
0.0
 11
36.79970918252556
 21
28.55450175811879
 31
0.0
 11
36.7962462121611
 21
28.62608814676148
 31
0.0
 11
36.79213449310115
 21
28.64459912295891
 31
0.0
  0
SPLINE
  5
20A
330
2
100
AcDbEntity
  8
GAIKEI
  6
Continuous
100
AcDbSpline
210
0.0
220
0.0
230
1.0
 70
     8
 71
     3
 72
     9
 73
     5
 74
     3
 42
0.0000000001
 43
0.0000000001
 44
0.000001
 12
-0.228940221854976
 22
0.9734404834487799
 32
0.0
 13
-0.9781629580561467
 23
0.2078394271711907
 33
0.0
 40
0.0
 40
0.0
 40
0.0
 40
0.0
 40
0.0768003403863603
 40
0.1232767023991975
 40
0.1232767023991975
 40
0.1232767023991975
 40
0.1232767023991975
 10
36.227865591932
 20
28.67703967038878
 30
0.0
 10
36.22200469627646
 20
28.70195985721369
 30
0.0
 10
36.211394242333
 20
28.74151950720028
 30
0.0
 10
36.17954169223534
 20
28.77480210898811
 30
0.0
 10
36.16438787365328
 20
28.77802198247403
 30
0.0
 11
36.227865591932
 21
28.67703967038878
 31
0.0
 11
36.2005399908206
 21
28.74881329024502
 31
0.0
 11
36.16438787365328
 21
28.77802198247403
 31
0.0
  0
SPLINE
  5
20B
330
2
100
AcDbEntity
  8
GAIKEI
  6
Continuous
 62
     1
100
AcDbSpline
210
0.0
220
0.0
230
1.0
 70
     8
 71
     3
 72
    13
 73
     9
 74
     7
 42
0.0000000001
 43
0.0000000001
 44
0.000001
 12
-0.1863999512363903
 22
0.9824739478373313
 32
0.0
 13
0.4459120888327769
 23
0.8950767615309818
 33
0.0
 40
0.0
 40
0.0
 40
0.0
 40
0.0
 40
0.0301827171175154
 40
0.0732653686857986
 40
0.1318623522492265
 40
0.2017746703933246
 40
0.2956142245785891
 40
0.4260883385556962
 40
0.4260883385556962
 40
0.4260883385556962
 40
0.4260883385556962
 10
36.03175847121671
 20
23.59741864634222
 30
0.0
 10
36.02988311888375
 20
23.60730322408985
 30
0.0
 10
36.03016192153228
 20
23.63207216508258
 30
0.0
 10
36.03786904610037
 20
23.67532369116701
 30
0.0
 10
36.05118282756169
 20
23.73101932407051
 30
0.0
 10
36.07438386111918
 20
23.80149918142063
 30
0.0
 10
36.11252094983419
 20
23.89193826824631
 30
0.0
 10
36.14499454541924
 20
23.95930842552583
 30
0.0
 10
36.16438787365328
 20
23.99823654132658
 30
0.0
 11
36.03175847121671
 21
23.59741864634222
 31
0.0
 11
36.03079325216814
 21
23.62758609740613
 31
0.0
 11
36.0373126707665
 21
23.67017255692869
 31
0.0
 11
36.05102073540709
 21
23.72714355807383
 31
0.0
 11
36.07264252324004
 21
23.79362837835603
 31
0.0
 11
36.10836818555785
 21
23.88040128402403
 31
0.0
 11
36.16438787365328
 21
23.99823654132658
 31
0.0
  0
SPLINE
  5
20C
330
2
100
AcDbEntity
  8
GAIKEI
  6
Continuous
 62
     1
100
AcDbSpline
210
0.0
220
0.0
230
1.0
 70
     8
 71
     3
 72
    11
 73
     7
 74
     5
 42
0.0000000001
 43
0.0000000001
 44
0.000001
 12
-0.0003823422944843
 22
-0.9999999269071825
 32
0.0
 13
0.8804453328006502
 23
-0.4741476731457748
 33
0.0
 40
0.0
 40
0.0
 40
0.0
 40
0.0
 40
0.1206607758104141
 40
0.2428295030391353
 40
0.3661144945035534
 40
0.4900228211764639
 40
0.4900228211764639
 40
0.4900228211764639
 40
0.4900228211764639
 10
35.78816714810378
 20
23.99823654132658
 30
0.0
 10
35.78815177019782
 20
23.95801628566292
 30
0.0
 10
35.80048492303838
 20
23.87670203142413
 30
0.0
 10
35.85073193572487
 20
23.76407954051898
 30
0.0
 10
35.92815140718235
 20
23.66671456232912
 30
0.0
 10
35.99539363524528
 20
23.61700226126734
 30
0.0
 10
36.03175847121671
 20
23.59741864634222
 30
0.0
 11
35.78816714810378
 21
23.99823654132658
 31
0.0
 11
35.80559203570928
 21
23.87883957291589
 31
0.0
 11
35.85497892351643
 21
23.767098201322
 31
0.0
 11
35.93185775439545
 21
23.67072152598436
 31
0.0
 11
36.03175847121671
 21
23.59741864634222
 31
0.0
  0
SPLINE
  5
20D
330
2
100
AcDbEntity
  8
GAIKEI
  6
Continuous
 62
     1
100
AcDbSpline
210
0.0
220
0.0
230
1.0
 70
     8
 71
     3
 72
    11
 73
     7
 74
     5
 42
0.0000000001
 43
0.0000000001
 44
0.000001
 12
-0.8942966538041691
 22
0.447474574690748
 32
0.0
 13
0.0000341928975867
 23
0.9999999994154229
 33
0.0
 40
0.0
 40
0.0
 40
0.0
 40
0.0
 40
0.1288141245564109
 40
0.2573806169544957
 40
0.3879065356552445
 40
0.519711554130647
 40
0.519711554130647
 40
0.519711554130647
 40
0.519711554130647
 10
36.03175847121671
 20
23.42499431965868
 30
0.0
 10
35.99335912436554
 20
23.44420800152536
 30
0.0
 10
35.92273917884198
 20
23.49607382906945
 30
0.0
 10
35.84579389541596
 20
23.60205295568431
 30
0.0
 10
35.79889603360302
 20
23.72502751859145
 30
0.0
 10
35.78816564583862
 20
23.81282203457345
 30
0.0
 10
35.78816714810378
 20
23.85675704070624
 30
0.0
 11
36.03175847121671
 21
23.42499431965868
 31
0.0
 11
35.92757120515049
 21
23.50074618759387
 31
0.0
 11
35.85118252730618
 21
23.6041586207659
 31
0.0
 11
35.80418399063891
 21
23.72592958364621
 31
0.0
 11
35.78816714810378
 21
23.85675704070624
 31
0.0
  0
SPLINE
  5
20E
330
2
100
AcDbEntity
  8
GAIKEI
  6
Continuous
 62
     1
100
AcDbSpline
210
0.0
220
0.0
230
1.0
 70
     8
 71
     3
 72
    13
 73
     9
 74
     7
 42
0.0000000001
 43
0.0000000001
 44
0.000001
 12
0.3596970176533544
 22
-0.933069159007671
 32
0.0
 13
0.8303267561068238
 23
-0.5572768415187546
 33
0.0
 40
0.0
 40
0.0
 40
0.0
 40
0.0
 40
0.0445009805044188
 40
0.089213187857287
 40
0.2326619285704273
 40
0.3562789295720067
 40
0.4044119270492292
 40
0.4898258576176204
 40
0.4898258576176204
 40
0.4898258576176204
 40
0.4898258576176204
 10
35.87830328211257
 20
28.15817523828922
 30
0.0
 10
35.88363890543593
 20
28.14433440747113
 30
0.0
 10
35.89460099470535
 20
28.1166948012244
 30
0.0
 10
35.92472670915639
 20
28.04517345931371
 30
0.0
 10
35.97062575910404
 20
27.95239173425445
 30
0.0
 10
36.03236936105485
 20
27.86410120956916
 30
0.0
 10
36.10386875111019
 20
27.81607840490509
 30
0.0
 10
36.14074738302156
 20
27.79132484797038
 30
0.0
 10
36.16438787365328
 20
27.77545844615409
 30
0.0
 11
35.87830328211257
 21
28.15817523828922
 31
0.0
 11
35.89472080180426
 21
28.11681334405827
 31
0.0
 11
35.91212955783627
 21
28.07562936248317
 31
0.0
 11
35.97729461737063
 21
27.9478361702663
 31
0.0
 11
36.05446355069503
 21
27.85126411473496
 31
0.0
 11
36.09347016943829
 21
27.82306354900736
 31
0.0
 11
36.16438787365328
 21
27.77545844615409
 31
0.0
  0
SPLINE
  5
20F
330
2
100
AcDbEntity
  8
GAIKEI
  6
Continuous
 62
     1
100
AcDbSpline
210
0.0
220
0.0
230
1.0
 70
     8
 71
     3
 72
     9
 73
     5
 74
     3
 42
0.0000000001
 43
0.0000000001
 44
0.000001
 12
-0.9985505398405583
 22
-0.0538221086927053
 32
0.0
 13
0.0009939570685328
 23
0.9999995060245511
 33
0.0
 40
0.0
 40
0.0
 40
0.0
 40
0.0
 40
0.0316465249667435
 40
0.0434022489457694
 40
0.0434022489457694
 40
0.0434022489457694
 40
0.0434022489457694
 10
37.12648509896749
 20
4.184636727531568
 30
0.0
 10
37.11595154743762
 20
4.184068966629399
 30
0.0
 10
37.10670117730034
 20
4.18729966985076
 30
0.0
 10
37.08314624055205
 20
4.180718154807572
 30
0.0
 10
37.08315013544703
 20
4.184636727531568
 30
0.0
 11
37.12648509896749
 21
4.184636727531568
 31
0.0
 11
37.0948575354627
 21
4.183564229545567
 31
0.0
 11
37.08315013544703
 21
4.184636727531568
 31
0.0
  0
SPLINE
  5
210
330
2
100
AcDbEntity
  8
GAIKEI
  6
Continuous
 62
     1
100
AcDbSpline
210
0.0
220
0.0
230
1.0
 70
     8
 71
     3
 72
    11
 73
     7
 74
     5
 42
0.0000000001
 43
0.0000000001
 44
0.000001
 12
-0.2462178745595128
 22
-0.9692145057970378
 32
0.0
 13
0.0022214769121426
 23
0.9999975325171202
 33
0.0
 40
0.0
 40
0.0
 40
0.0
 40
0.0
 40
0.0213790245571224
 40
0.0356970595796584
 40
0.0574789945407002
 40
0.0752630840816231
 40
0.0752630840816231
 40
0.0752630840816231
 40
0.0752630840816231
 10
37.12648509896749
 20
3.911382316713087
 30
0.0
 10
37.12473046630529
 20
3.904475363139568
 30
0.0
 10
37.12061105616665
 20
3.89242394158922
 30
0.0
 10
37.09964872049232
 20
3.883718834768371
 30
0.0
 10
37.08699961592764
 20
3.902044574945147
 30
0.0
 10
37.08313696646559
 20
3.914304399677181
 30
0.0
 10
37.08315013544703
 20
3.920232414896844
 30
0.0
 11
37.12648509896749
 21
3.911382316713087
 31
0.0
 11
37.11660447587898
 21
3.892422663765357
 31
0.0
 11
37.1031086327304
 21
3.887639639516662
 31
0.0
 11
37.08770512261415
 21
3.903040667407451
 31
0.0
 11
37.08315013544703
 21
3.920232414896844
 31
0.0
  0
SPLINE
  5
211
330
2
100
AcDbEntity
  8
GAIKEI
  6
Continuous
 62
     1
100
AcDbSpline
210
0.0
220
0.0
230
1.0
 70
     8
 71
     3
 72
    11
 73
     7
 74
     5
 42
0.0000000001
 43
0.0000000001
 44
0.000001
 12
0.0015222858712839
 22
0.9999988413221919
 32
0.0
 13
-0.4566484066018179
 23
-0.8896472518633554
 33
0.0
 40
0.0
 40
0.0
 40
0.0
 40
0.0
 40
0.0355010350953135
 40
0.072736913824343
 40
0.1352504283146201
 40
0.2154916644102332
 40
0.2154916644102332
 40
0.2154916644102332
 40
0.2154916644102332
 10
37.35817456590226
 20
4.066350587668664
 30
0.0
 10
37.35819258014365
 20
4.078184252322349
 30
0.0
 10
37.35220491179053
 20
4.10365967895969
 30
0.0
 10
37.31313748660079
 20
4.131757400415724
 30
0.0
 10
37.24713042668133
 20
4.129156106620774
 30
0.0
 10
37.21157509074269
 20
4.090146052728191
 30
0.0
 10
37.19936107987375
 20
4.066350587668664
 30
0.0
 11
37.35817456590226
 21
4.066350587668664
 31
0.0
 11
37.34876906336902
 21
4.100584036873413
 31
0.0
 11
37.31935620421352
 21
4.123418462163924
 31
0.0
 11
37.25685197753072
 21
4.122328042261841
 31
0.0
 11
37.19936107987375
 21
4.066350587668664
 31
0.0
  0
SPLINE
  5
212
330
2
100
AcDbEntity
  8
GAIKEI
  6
Continuous
 62
     1
100
AcDbSpline
210
0.0
220
0.0
230
1.0
 70
     8
 71
     3
 72
    25
 73
    21
 74
    19
 42
0.0000000001
 43
0.0000000001
 44
0.000001
 12
0.9671989480162134
 22
0.2540200680189069
 32
0.0
 13
-0.0735875879962012
 23
0.9972887580299406
 33
0.0
 40
0.0
 40
0.0
 40
0.0
 40
0.0
 40
0.0016149715310537
 40
0.005015612311216
 40
0.0107650426525276
 40
0.0189186835237051
 40
0.0295122406667348
 40
0.042738081225173
 40
0.0589352567370671
 40
0.0785667383593185
 40
0.1021905311045881
 40
0.1304316592073497
 40
0.1561908655718244
 40
0.1822189237706621
 40
0.2081491574787709
 40
0.2335745890526358
 40
0.2580611698629362
 40
0.2811576054949211
 40
0.3024037986515488
 40
0.3213412923671311
 40
0.3213412923671311
 40
0.3213412923671311
 40
0.3213412923671311
 10
37.15431713187641
 20
3.76392137042373
 30
0.0
 10
37.15483779813171
 20
3.764058115483118
 30
0.0
 10
37.15642322692737
 20
3.764599132710765
 30
0.0
 10
37.15969294661337
 20
3.766093394557548
 30
0.0
 10
37.16462637378722
 20
3.769112912919556
 30
0.0
 10
37.17100616545421
 20
3.774248419961689
 30
0.0
 10
37.17832641364139
 20
3.782043650708872
 30
0.0
 10
37.18603156380595
 20
3.792984651971292
 30
0.0
 10
37.19356372690489
 20
3.80755203287321
 30
0.0
 10
37.20037368197273
 20
3.826214517022029
 30
0.0
 10
37.20592632369945
 20
3.84943922612292
 30
0.0
 10
37.20933278184581
 20
3.875129082661708
 30
0.0
 10
37.21080911878972
 20
3.901779929606925
 30
0.0
 10
37.21083726928764
 20
3.927695832429241
 30
0.0
 10
37.20977708815226
 20
3.953474217382675
 30
0.0
 10
37.20795217005653
 20
3.978691849474548
 30
0.0
 10
37.20567959374728
 20
4.002922664262105
 30
0.0
 10
37.20327626849938
 20
4.025739692531296
 30
0.0
 10
37.20105775040753
 20
4.046715720630532
 30
0.0
 10
37.19982560136882
 20
4.060055204472726
 30
0.0
 10
37.19936107987375
 20
4.066350587668664
 30
0.0
 11
37.15431713187641
 21
3.76392137042373
 31
0.0
 11
37.15585216344678
 21
3.764423590051903
 31
0.0
 11
37.1589558040279
 21
3.765813460380256
 31
0.0
 11
37.16388205411224
 21
3.768777904745348
 31
0.0
 11
37.17025886301437
 21
3.773859047325884
 31
0.0
 11
37.17755202035383
 21
3.781542340954814
 31
0.0
 11
37.18522731575028
 21
3.792313238465083
 31
0.0
 11
37.19275053882311
 21
3.806657192689583
 31
0.0
 11
37.19958747919199
 21
3.82505965646132
 31
0.0
 11
37.2052039264764
 21
3.848006082613125
 31
0.0
 11
37.20906567029593
 21
3.875981923978058
 31
0.0
 11
37.21057207978109
 21
3.901697040268088
 31
0.0
 11
37.21065359185721
 21
3.927724969684248
 31
0.0
 11
37.20963415761631
 21
3.953635158044988
 31
0.0
 11
37.20783772815023
 21
3.978997051168875
 31
0.0
 11
37.20558825455103
 21
4.003380094874586
 31
0.0
 11
37.20320968791057
 21
4.026353734980745
 31
0.0
 11
37.2010259793208
 21
4.047487417305858
 31
0.0
 11
37.19936107987375
 21
4.066350587668664
 31
0.0
  0
SPLINE
  5
213
330
2
100
AcDbEntity
  8
GAIKEI
  6
Continuous
100
AcDbSpline
210
0.0
220
0.0
230
1.0
 70
     8
 71
     3
 72
     9
 73
     5
 74
     3
 42
0.0000000001
 43
0.0000000001
 44
0.000001
 12
-0.1740597242984542
 22
-0.9847350975654041
 32
0.0
 13
-0.5145281351077995
 23
-0.8574734970729359
 33
0.0
 40
0.0
 40
0.0
 40
0.0
 40
0.0
 40
0.0499205989764941
 40
0.0997612470801313
 40
0.0997612470801313
 40
0.0997612470801313
 40
0.0997612470801313
 10
37.35384106955021
 20
3.981023434145271
 30
0.0
 10
37.35094468098532
 20
3.964637245510724
 30
0.0
 10
37.3419851474346
 20
3.932393688855191
 30
0.0
 10
37.32747709666807
 20
3.90225152875126
 30
0.0
 10
37.31892895809429
 20
3.888005850475991
 30
0.0
 11
37.35384106955021
 21
3.981023434145271
 31
0.0
 11
37.34058762395453
 21
3.932894183775004
 31
0.0
 11
37.31892895809429
 21
3.888005850475991
 31
0.0
  0
SPLINE
  5
214
330
2
100
AcDbEntity
  8
GAIKEI
  6
Continuous
100
AcDbSpline
210
0.0
220
0.0
230
1.0
 70
     8
 71
     3
 72
     9
 73
     5
 74
     3
 42
0.0000000001
 43
0.0000000001
 44
0.000001
 12
0.4369039627369132
 22
0.8995081585759978
 32
0.0
 13
-0.2131732998587373
 23
-0.9770144032855078
 33
0.0
 40
0.0
 40
0.0
 40
0.0
 40
0.0
 40
0.0014852975999954
 40
0.0023748874171354
 40
0.0023748874171354
 40
0.0023748874171354
 40
0.0023748874171354
 10
37.3295490759148
 20
4.425786644248971
 30
0.0
 10
37.32976538671723
 20
4.426231990018674
 30
0.0
 10
37.32995009897717
 20
4.426479644872642
 30
0.0
 10
37.33064988589852
 20
4.428212588866506
 30
0.0
 10
37.3305866736329
 20
4.427922874845052
 30
0.0
 11
37.3295490759148
 21
4.425786644248971
 31
0.0
 11
37.33019757448861
 21
4.427121788371521
 31
0.0
 11
37.3305866736329
 21
4.427922874845052
 31
0.0
  0
SPLINE
  5
215
330
2
100
AcDbEntity
  8
GAIKEI
  6
Continuous
100
AcDbSpline
210
0.0
220
0.0
230
1.0
 70
     8
 71
     3
 72
    11
 73
     7
 74
     5
 42
0.0000000001
 43
0.0000000001
 44
0.000001
 12
-0.0015438828007261
 22
-0.9999988082122385
 32
0.0
 13
-0.4415794705322062
 23
-0.8972221415037061
 33
0.0
 40
0.0
 40
0.0
 40
0.0
 40
0.0
 40
0.0182162166839588
 40
0.0591903801206818
 40
0.1030924941737472
 40
0.1266148240201264
 40
0.1266148240201264
 40
0.1266148240201264
 40
0.1266148240201264
 10
37.35817456590226
 20
4.547917999184818
 30
0.0
 10
37.35816519133438
 20
4.541845934193453
 30
0.0
 10
37.35863934301224
 20
4.522064082803924
 30
0.0
 10
37.35185566966678
 20
4.488203860939891
 30
0.0
 10
37.34350428743731
 20
4.452803629206925
 30
0.0
 10
37.33301140190122
 20
4.432821562634947
 30
0.0
 10
37.3295490759148
 20
4.425786644248971
 30
0.0
 11
37.35817456590226
 21
4.547917999184818
 31
0.0
 11
37.35804423281175
 21
4.529702215158721
 31
0.0
 11
37.3518269092739
 21
4.489202175372581
 31
0.0
 11
37.33968875969728
 21
4.44701135796626
 31
0.0
 11
37.3295490759148
 21
4.425786644248971
 31
0.0
  0
SPLINE
  5
216
330
2
100
AcDbEntity
  8
GAIKEI
  6
Continuous
100
AcDbSpline
210
0.0
220
0.0
230
1.0
 70
     8
 71
     3
 72
     9
 73
     5
 74
     3
 42
0.0000000001
 43
0.0000000001
 44
0.000001
 12
0.4618342237308737
 22
0.8869662619236999
 32
0.0
 13
0.4618342237308737
 23
0.8869662619237001
 33
0.0
 40
0.0
 40
0.0
 40
0.0
 40
0.0
 40
0.0013375615421719
 40
0.0026751230843527
 40
0.0026751230843527
 40
0.0026751230843527
 40
0.0026751230843527
 10
37.32594800148141
 20
4.418706565701967
 30
0.0
 10
37.32615391204691
 20
4.419102023022351
 30
0.0
 10
37.32655835308027
 20
4.419896751319786
 30
0.0
 10
37.32696279411366
 20
4.42069147961721
 30
0.0
 10
37.32716870467917
 20
4.421086936937597
 30
0.0
 11
37.32594800148141
 21
4.418706565701967
 31
0.0
 11
37.32655835308029
 21
4.419896751319781
 31
0.0
 11
37.32716870467917
 21
4.421086936937597
 31
0.0
  0
SPLINE
  5
217
330
2
100
AcDbEntity
  8
GAIKEI
  6
Continuous
100
AcDbSpline
210
0.0
220
0.0
230
1.0
 70
     8
 71
     3
 72
     9
 73
     5
 74
     3
 42
0.0000000001
 43
0.0000000001
 44
0.000001
 12
0.4439066962705617
 22
0.8960730132116218
 32
0.0
 13
-0.4521290279565891
 23
-0.8919525447460925
 33
0.0
 40
0.0
 40
0.0
 40
0.0
 40
0.0
 40
0.0004384415357217
 40
0.0038762570634207
 40
0.0038762570634207
 40
0.0038762570634207
 40
0.0038762570634207
 10
37.3300373571939
 20
4.426763206807179
 30
0.0
 10
37.33010223290512
 20
4.426894165349856
 30
0.0
 10
37.32894627698252
 20
4.424420856702177
 30
0.0
 10
37.32884648478132
 20
4.424306325462998
 30
0.0
 10
37.32832837271704
 20
4.423284202693565
 30
0.0
 11
37.3300373571939
 21
4.426763206807179
 31
0.0
 11
37.3298538176015
 21
4.426363929936342
 31
0.0
 11
37.32832837271704
 21
4.423284202693565
 31
0.0
  0
SPLINE
  5
218
330
2
100
AcDbEntity
  8
GAIKEI
  6
Continuous
100
AcDbSpline
210
0.0
220
0.0
230
1.0
 70
     8
 71
     3
 72
     9
 73
     5
 74
     3
 42
0.0000000001
 43
0.0000000001
 44
0.000001
 12
-0.5741370598084015
 22
-0.8187592054777548
 32
0.0
 13
-0.4232439726305972
 23
-0.9060157502118107
 33
0.0
 40
0.0
 40
0.0
 40
0.0
 40
0.0
 40
0.0001442083319256
 40
0.0007375073091666
 40
0.0007375073091666
 40
0.0007375073091666
 40
0.0007375073091666
 10
37.33247876358942
 20
4.431890160237769
 30
0.0
 10
37.33245116514019
 20
4.431850802938012
 30
0.0
 10
37.33236709875323
 20
4.431616268353688
 30
0.0
 10
37.33225729119534
 20
4.43139795288499
 30
0.0
 10
37.33217358778997
 20
4.431218773479002
 30
0.0
 11
37.33247876358942
 21
4.431890160237769
 31
0.0
 11
37.33241817008022
 21
4.431759201825882
 31
0.0
 11
37.33217358778997
 21
4.431218773479002
 31
0.0
  0
SPLINE
  5
219
330
2
100
AcDbEntity
  8
GAIKEI
  6
Continuous
100
AcDbSpline
210
0.0
220
0.0
230
1.0
 70
     8
 71
     3
 72
     9
 73
     5
 74
     3
 42
0.0000000001
 43
0.0000000001
 44
0.000001
 12
-0.6697753278810991
 22
-0.7425638088149506
 32
0.0
 13
0.1620782925170355
 23
-0.9867779016043895
 33
0.0
 40
0.0
 40
0.0
 40
0.0
 40
0.0
 40
0.0002864023018052
 40
0.0003617234365402
 40
0.0003617234365402
 40
0.0003617234365402
 40
0.0003617234365402
 10
37.28951001102828
 20
4.366338398518081
 30
0.0
 10
37.28944606929641
 20
4.36626750785672
 30
0.0
 10
37.28936153528681
 20
4.366179739038825
 30
0.0
 10
37.28932283624164
 20
4.366057997795734
 30
0.0
 10
37.28932690554862
 20
4.366033222718641
 30
0.0
 11
37.28951001102828
 21
4.366338398518081
 31
0.0
 11
37.28934191695831
 21
4.366107438641704
 31
0.0
 11
37.28932690554862
 21
4.366033222718641
 31
0.0
  0
SPLINE
  5
21A
330
2
100
AcDbEntity
  8
GAIKEI
  6
Continuous
100
AcDbSpline
210
0.0
220
0.0
230
1.0
 70
     8
 71
     3
 72
     9
 73
     5
 74
     3
 42
0.0000000001
 43
0.0000000001
 44
0.000001
 12
0.494787596202249
 22
0.8690139438722491
 32
0.0
 13
0.4344739558854116
 23
0.9006843962550265
 33
0.0
 40
0.0
 40
0.0
 40
0.0
 40
0.0
 40
0.0048469645010705
 40
0.009692359043341
 40
0.009692359043341
 40
0.009692359043341
 40
0.009692359043341
 10
37.32588696632153
 20
4.418706565701967
 30
0.0
 10
37.32668637229298
 20
4.420110592280928
 30
0.0
 10
37.32821273465022
 20
4.422959468452837
 30
0.0
 10
37.32964080041514
 20
4.425857799493531
 30
0.0
 10
37.33034253299334
 20
4.427312523246172
 30
0.0
 11
37.32588696632153
 21
4.418706565701967
 31
0.0
 11
37.32818855720874
 21
4.422972754436244
 31
0.0
 11
37.33034253299334
 21
4.427312523246172
 31
0.0
  0
SPLINE
  5
21B
330
2
100
AcDbEntity
  8
GAIKEI
  6
Continuous
100
AcDbSpline
210
0.0
220
0.0
230
1.0
 70
     8
 71
     3
 72
     9
 73
     5
 74
     3
 42
0.0000000001
 43
0.0000000001
 44
0.000001
 12
0.6530725087615257
 22
0.757295383783585
 32
0.0
 13
0.3984111868807301
 23
0.9172069156784024
 33
0.0
 40
0.0
 40
0.0
 40
0.0
 40
0.0
 40
0.0024128777328479
 40
0.0048209191597802
 40
0.0048209191597802
 40
0.0048209191597802
 40
0.0048209191597802
 10
37.3138020046637
 20
4.398137716819717
 30
0.0
 10
37.31432726603514
 20
4.398746803875957
 30
0.0
 10
37.31530960450398
 20
4.400023177745146
 30
0.0
 10
37.31610671965789
 20
4.401429813288983
 30
0.0
 10
37.31642651653888
 20
4.402166037372325
 30
0.0
 11
37.3138020046637
 21
4.398137716819717
 31
0.0
 11
37.31526319119704
 21
4.400057090920398
 31
0.0
 11
37.31642651653888
 21
4.402166037372325
 31
0.0
  0
SPLINE
  5
21C
330
2
100
AcDbEntity
  8
GAIKEI
  6
Continuous
100
AcDbSpline
210
0.0
220
0.0
230
1.0
 70
     8
 71
     3
 72
     9
 73
     5
 74
     3
 42
0.0000000001
 43
0.0000000001
 44
0.000001
 12
0.7514248269581099
 22
0.6598187095187395
 32
0.0
 13
0.5774930851933911
 23
0.8163955760253841
 33
0.0
 40
0.0
 40
0.0
 40
0.0
 40
0.0
 40
0.033307543357449
 40
0.0644839933969306
 40
0.0644839933969306
 40
0.0644839933969306
 40
0.0644839933969306
 10
37.26332592743634
 20
4.340398455565689
 30
0.0
 10
37.2716686324376
 20
4.347724102324139
 30
0.0
 10
37.28720171154083
 20
4.362650520486101
 30
0.0
 10
37.30078156650369
 20
4.3793997046624
 30
0.0
 10
37.30678296127658
 20
4.387883809958537
 30
0.0
 11
37.26332592743634
 21
4.340398455565689
 31
0.0
 11
37.28719437230339
 21
4.363629221965226
 31
0.0
 11
37.30678296127658
 21
4.387883809958537
 31
0.0
  0
SPLINE
  5
21D
330
2
100
AcDbEntity
  8
GAIKEI
  6
Continuous
100
AcDbSpline
210
0.0
220
0.0
230
1.0
 70
     8
 71
     3
 72
     9
 73
     5
 74
     3
 42
0.0000000001
 43
0.0000000001
 44
0.000001
 12
0.2300685421109333
 22
-0.9731744272898612
 32
0.0
 13
-0.7756951449428287
 23
-0.6311077896145191
 33
0.0
 40
0.0
 40
0.0
 40
0.0
 40
0.0
 40
0.0040610244780991
 40
0.0135011642753737
 40
0.0135011642753737
 40
0.0135011642753737
 40
0.0135011642753737
 10
37.26576733383186
 20
4.342595721321656
 30
0.0
 10
37.26607877182558
 20
4.341278359598095
 30
0.0
 10
37.25996434422576
 20
4.339070189813564
 30
0.0
 10
37.25801535233335
 20
4.335731538391603
 30
0.0
 10
37.25557446213057
 20
4.333745623137899
 30
0.0
 11
37.26576733383186
 21
4.342595721321656
 31
0.0
 11
37.2627763557422
 21
4.339847971255351
 31
0.0
 11
37.25557446213057
 21
4.333745623137899
 31
0.0
  0
SPLINE
  5
21E
330
2
100
AcDbEntity
  8
GAIKEI
  6
Continuous
100
AcDbSpline
210
0.0
220
0.0
230
1.0
 70
     8
 71
     3
 72
    11
 73
     7
 74
     5
 42
0.0000000001
 43
0.0000000001
 44
0.000001
 12
-1.0
 22
0.0000000000000001
 32
0.0
 13
-0.9029836121814568
 23
-0.4296749889529625
 33
0.0
 40
0.0
 40
0.0
 40
0.0
 40
0.0
 40
0.0166322880969542
 40
0.0411462676209766
 40
0.0587158155562508
 40
0.0664051299443415
 40
0.0664051299443415
 40
0.0664051299443415
 40
0.0664051299443415
 10
37.25557446213057
 20
4.333745623137899
 30
0.0
 10
37.25003036609825
 20
4.333745623137899
 30
0.0
 10
37.24069840916707
 20
4.320198180988786
 30
0.0
 10
37.22380678100382
 20
4.311645355682994
 30
0.0
 10
37.20931945440151
 20
4.303263318386661
 30
0.0
 10
37.20167552150087
 20
4.299751708227232
 30
0.0
 10
37.19936107987375
 20
4.298650406202312
 30
0.0
 11
37.25557446213057
 21
4.333745623137899
 31
0.0
 11
37.24207694905707
 21
4.324026563687283
 31
0.0
 11
37.22176098355264
 21
4.310308121740916
 31
0.0
 11
37.20630275995397
 21
4.301957556769337
 31
0.0
 11
37.19936107987375
 21
4.298650406202312
 31
0.0
  0
SPLINE
  5
21F
330
2
100
AcDbEntity
  8
GAIKEI
  6
Continuous
 62
     1
100
AcDbSpline
210
0.0
220
0.0
230
1.0
 70
     8
 71
     3
 72
    11
 73
     7
 74
     5
 42
0.0000000001
 43
0.0000000001
 44
0.000001
 12
0.9063167999938059
 22
0.4225989328535836
 32
0.0
 13
-0.0483793023056808
 23
0.9988290359758348
 33
0.0
 40
0.0
 40
0.0
 40
0.0
 40
0.0
 40
0.1438909576343457
 40
0.3064814847693722
 40
0.3973599290466731
 40
0.4865910886473284
 40
0.4865910886473284
 40
0.4865910886473284
 40
0.4865910886473284
 10
36.79109689538305
 20
4.108281742511707
 30
0.0
 10
36.83456715947345
 20
4.128551130892891
 30
0.0
 10
36.92141671219346
 20
4.185902911732896
 30
0.0
 10
37.00045857489064
 20
4.297347050074925
 30
0.0
 10
37.03254638612782
 20
4.407869173128835
 30
0.0
 10
37.03667651535011
 20
4.468343382515362
 30
0.0
 10
37.03523753493497
 20
4.498052273556338
 30
0.0
 11
36.79109689538305
 21
4.108281742511707
 31
0.0
 11
36.91041270740849
 21
4.18870803793672
 31
0.0
 11
37.00374339243277
 21
4.321843766959743
 31
0.0
 11
37.02945939291389
 21
4.409007784261091
 31
0.0
 11
37.03523753493497
 21
4.498052273556338
 31
0.0
  0
SPLINE
  5
220
330
2
100
AcDbEntity
  8
GAIKEI
  6
Continuous
100
AcDbSpline
210
0.0
220
0.0
230
1.0
 70
     8
 71
     3
 72
     9
 73
     5
 74
     3
 42
0.0000000001
 43
0.0000000001
 44
0.000001
 12
0.4340195517902086
 22
0.9009034513552641
 32
0.0
 13
-0.0007614355580964
 23
0.9999997101079035
 33
0.0
 40
0.0
 40
0.0
 40
0.0
 40
0.0
 40
0.0541594003094129
 40
0.1236629806979301
 40
0.1236629806979301
 40
0.1236629806979301
 40
0.1236629806979301
 10
37.3305866736329
 20
4.427922874845052
 30
0.0
 10
37.33842208651541
 20
4.444187005065745
 30
0.0
 10
37.35062521388358
 20
4.48377856337638
 30
0.0
 10
37.35819220673477
 20
4.524750145771491
 30
0.0
 10
37.35817456590226
 20
4.547917999184818
 30
0.0
 11
37.3305866736329
 21
4.427922874845052
 31
0.0
 11
37.34822081655406
 21
4.479130941857391
 31
0.0
 11
37.35817456590226
 21
4.547917999184818
 31
0.0
  0
SPLINE
  5
221
330
2
100
AcDbEntity
  8
GAIKEI
  6
Continuous
100
AcDbSpline
210
0.0
220
0.0
230
1.0
 70
     8
 71
     3
 72
     9
 73
     5
 74
     3
 42
0.0000000001
 43
0.0000000001
 44
0.000001
 12
0.9057694603986139
 22
0.4237707925390845
 32
0.0
 13
0.4351244737735739
 23
0.9003703084416269
 33
0.0
 40
0.0
 40
0.0
 40
0.0
 40
0.0
 40
0.1117053163412514
 40
0.1869950235717983
 40
0.1869950235717983
 40
0.1869950235717983
 40
0.1869950235717983
 10
37.19936107987375
 20
4.298650406202312
 30
0.0
 10
37.23308750124244
 20
4.314429556347898
 30
0.0
 10
37.28553073702105
 20
4.352171644023075
 30
0.0
 10
37.31966654221981
 20
4.405326669204502
 30
0.0
 10
37.3305866736329
 20
4.427922874845052
 30
0.0
 11
37.19936107987375
 21
4.298650406202312
 31
0.0
 11
37.28921139174017
 21
4.365021163729663
 31
0.0
 11
37.3305866736329
 21
4.427922874845052
 31
0.0
  0
SPLINE
  5
222
330
2
100
AcDbEntity
  8
GAIKEI
  6
Continuous
 62
     1
100
AcDbSpline
210
0.0
220
0.0
230
1.0
 70
     8
 71
     3
 72
     9
 73
     5
 74
     3
 42
0.0000000001
 43
0.0000000001
 44
0.000001
 12
0.0924355776148119
 22
0.9957186670897639
 32
0.0
 13
-0.0933289346513915
 23
0.9956353298054645
 33
0.0
 40
0.0
 40
0.0
 40
0.0
 40
0.0
 40
0.1806356638307798
 40
0.3607769043862347
 40
0.3607769043862347
 40
0.3607769043862347
 40
0.3607769043862347
 10
37.07881663909498
 20
21.40473052736658
 30
0.0
 10
37.08438235973632
 20
21.46468462817273
 30
0.0
 10
37.08795927533831
 20
21.58505273613156
 30
0.0
 10
37.08429869879782
 20
21.70541918718098
 30
0.0
 10
37.07869456877521
 20
21.76520418166498
 30
0.0
 11
37.07881663909498
 21
21.40473052736658
 31
0.0
 11
37.08614884157916
 21
21.58521727680622
 31
0.0
 11
37.07869456877521
 21
21.76520418166498
 31
0.0
  0
SPLINE
  5
223
330
2
100
AcDbEntity
  8
GAIKEI
  6
Continuous
 62
     1
100
AcDbSpline
210
0.0
220
0.0
230
1.0
 70
     8
 71
     3
 72
     9
 73
     5
 74
     3
 42
0.0000000001
 43
0.0000000001
 44
0.000001
 12
0.0924292431579833
 22
0.9957192551162414
 32
0.0
 13
-0.0933330765008945
 23
0.9956349415477935
 33
0.0
 40
0.0
 40
0.0
 40
0.0
 40
0.0
 40
0.1806358391393027
 40
0.3607768975203742
 40
0.3607768975203742
 40
0.3607768975203742
 40
0.3607768975203742
 10
37.07881663909498
 20
7.994756583538644
 30
0.0
 10
37.08438198372792
 20
8.054710777937005
 30
0.0
 10
37.08795917342874
 20
8.175078822808734
 30
0.0
 10
37.08429894183616
 20
8.295445327126516
 30
0.0
 10
37.07869456877521
 20
8.355230237837048
 30
0.0
 11
37.07881663909498
 21
7.994756583538644
 31
0.0
 11
37.08614875776007
 21
8.175243511792217
 31
0.0
 11
37.07869456877521
 21
8.355230237837048
 31
0.0
  0
SPLINE
  5
224
330
2
100
AcDbEntity
  8
GAIKEI
  6
Continuous
 62
     1
100
AcDbSpline
210
0.0
220
0.0
230
1.0
 70
     8
 71
     3
 72
     9
 73
     5
 74
     3
 42
0.0000000001
 43
0.0000000001
 44
0.000001
 12
-0.0000099100994793
 22
0.9999999999508949
 32
0.0
 13
0.6038096629412589
 23
0.7971285284938455
 33
0.0
 40
0.0
 40
0.0
 40
0.0
 40
0.0
 40
0.049799753367024
 40
0.0930673019124989
 40
0.0930673019124989
 40
0.0930673019124989
 40
0.0930673019124989
 10
37.00728343170627
 20
22.50977209713845
 30
0.0
 10
37.00728326719943
 20
22.52637201492664
 30
0.0
 10
37.01357334834979
 20
22.55681202017157
 30
0.0
 10
37.02292800586706
 20
22.58738683147369
 30
0.0
 10
37.03163646050157
 20
22.59888343057489
 30
0.0
 11
37.00728343170627
 21
22.50977209713845
 31
0.0
 11
37.01489317603998
 21
22.55898665315985
 31
0.0
 11
37.03163646050157
 21
22.59888343057489
 31
0.0
  0
SPLINE
  5
225
330
2
100
AcDbEntity
  8
GAIKEI
  6
Continuous
 62
     1
100
AcDbSpline
210
0.0
220
0.0
230
1.0
 70
     8
 71
     3
 72
     9
 73
     5
 74
     3
 42
0.0000000001
 43
0.0000000001
 44
0.000001
 12
-0.8178480872751791
 22
0.5754341892348167
 32
0.0
 13
-0.9966355735469214
 23
0.0819605608863135
 33
0.0
 40
0.0
 40
0.0
 40
0.0
 40
0.0
 40
0.0028796622015267
 40
0.0054790397610756
 40
0.0054790397610756
 40
0.0054790397610756
 40
0.0054790397610756
 10
37.05971263405004
 20
21.95557284535559
 30
0.0
 10
37.05892759197554
 20
21.95612519738366
 30
0.0
 10
37.05731598032188
 20
21.95702887406268
 30
0.0
 10
37.05551025982765
 20
21.9574549549911
 30
0.0
 10
37.05464671577934
 20
21.95752597047201
 30
0.0
 11
37.05971263405004
 21
21.95557284535559
 31
0.0
 11
37.05718077527243
 21
21.95694368984673
 31
0.0
 11
37.05464671577934
 21
21.95752597047201
 31
0.0
  0
SPLINE
  5
226
330
2
100
AcDbEntity
  8
GAIKEI
  6
Continuous
 62
     1
100
AcDbSpline
210
0.0
220
0.0
230
1.0
 70
     8
 71
     3
 72
     9
 73
     5
 74
     3
 42
0.0000000001
 43
0.0000000001
 44
0.000001
 12
0.9841315496067643
 22
0.1774403930016749
 32
0.0
 13
0.9496494122794063
 23
0.3133145284811707
 33
0.0
 40
0.0
 40
0.0
 40
0.0
 40
0.0
 40
0.001181418248553
 40
0.0023849585303609
 40
0.0023849585303609
 40
0.0023849585303609
 40
0.0023849585303609
 10
37.05464671577934
 20
21.21210356276012
 30
0.0
 10
37.0550342727699
 20
21.21217343986623
 30
0.0
 10
37.05581516553815
 20
21.21232313720776
 30
0.0
 10
37.05658507141465
 20
21.21252718364714
 30
0.0
 10
37.05696605185508
 20
21.21265287919911
 30
0.0
 11
37.05464671577934
 21
21.21210356276012
 31
0.0
 11
37.05580476343229
 21
21.21233419859581
 31
0.0
 11
37.05696605185508
 21
21.21265287919911
 31
0.0
  0
SPLINE
  5
227
330
2
100
AcDbEntity
  8
GAIKEI
  6
Continuous
 62
     1
100
AcDbSpline
210
0.0
220
0.0
230
1.0
 70
     8
 71
     3
 72
     9
 73
     5
 74
     3
 42
0.0000000001
 43
0.0000000001
 44
0.000001
 12
-0.8178480872751791
 22
0.5754341892348167
 32
0.0
 13
-0.9966781476583459
 23
0.081441205665979
 33
0.0
 40
0.0
 40
0.0
 40
0.0
 40
0.0
 40
0.0028650108098455
 40
0.0054580042542992
 40
0.0054580042542992
 40
0.0054580042542992
 40
0.0054580042542992
 10
37.05971263405004
 20
8.545598901527652
 30
0.0
 10
37.05893158617976
 20
8.546148443251823
 30
0.0
 10
37.05731139587611
 20
8.547030152275183
 30
0.0
 10
37.05550817574704
 20
8.547420599313381
 30
0.0
 10
37.05464671577934
 20
8.547490991484181
 30
0.0
 11
37.05971263405004
 21
8.545598901527652
 31
0.0
 11
37.05718077527243
 21
8.546939561976017
 31
0.0
 11
37.05464671577934
 21
8.547490991484181
 31
0.0
  0
SPLINE
  5
228
330
2
100
AcDbEntity
  8
GAIKEI
  6
Continuous
 62
     1
100
AcDbSpline
210
0.0
220
0.0
230
1.0
 70
     8
 71
     3
 72
     9
 73
     5
 74
     3
 42
0.0000000001
 43
0.0000000001
 44
0.000001
 12
0.9839337708855248
 22
0.1785338469618341
 32
0.0
 13
0.949971462887902
 23
0.3123367088553942
 33
0.0
 40
0.0
 40
0.0
 40
0.0
 40
0.0
 40
0.0011760655267255
 40
0.0023716260302952
 40
0.0023716260302952
 40
0.0023716260302952
 40
0.0023716260302952
 10
37.05464671577934
 20
7.802129618932183
 30
0.0
 10
37.05503243930885
 20
7.802199608099772
 30
0.0
 10
37.05581358437453
 20
7.802318281736548
 30
0.0
 10
37.05658746906823
 20
7.802493427733645
 30
0.0
 10
37.05696605185508
 20
7.802617900211286
 30
0.0
 11
37.05464671577934
 21
7.802129618932183
 31
0.0
 11
37.05580476343229
 21
7.802330404240449
 31
0.0
 11
37.05696605185508
 21
7.802617900211286
 31
0.0
  0
SPLINE
  5
229
330
2
100
AcDbEntity
  8
GAIKEI
  6
Continuous
 62
     1
100
AcDbSpline
210
0.0
220
0.0
230
1.0
 70
     8
 71
     3
 72
     9
 73
     5
 74
     3
 42
0.0000000001
 43
0.0000000001
 44
0.000001
 12
-0.9318207203994109
 22
0.3629189234998956
 32
0.0
 13
0.0000044054683735
 23
0.9999999999902959
 33
0.0
 40
0.0
 40
0.0
 40
0.0
 40
0.0
 40
0.0512833858937607
 40
0.1432513595647676
 40
0.1432513595647676
 40
0.1432513595647676
 40
0.1432513595647676
 10
37.03523753493497
 20
4.498052273556338
 30
0.0
 10
37.01930856107229
 20
4.504256177290336
 30
0.0
 10
37.01551095855054
 20
4.565692140252768
 30
0.0
 10
37.00728329665227
 20
4.606495411717671
 30
0.0
 10
37.00728343170627
 20
4.637151402941042
 30
0.0
 11
37.03523753493497
 21
4.498052273556338
 31
0.0
 11
37.01602236933982
 21
4.545600289198403
 31
0.0
 11
37.00728343170627
 21
4.637151402941042
 31
0.0
  0
SPLINE
  5
22A
330
2
100
AcDbEntity
  8
GAIKEI
  6
Continuous
 62
     1
100
AcDbSpline
210
0.0
220
0.0
230
1.0
 70
     8
 71
     3
 72
     9
 73
     5
 74
     3
 42
0.0000000001
 43
0.0000000001
 44
0.000001
 12
-0.9087758162825879
 22
-0.4172846938720804
 32
0.0
 13
-0.9320637417466123
 23
0.3622943296841729
 33
0.0
 40
0.0
 40
0.0
 40
0.0
 40
0.0
 40
0.1726111474600604
 40
0.3345727660554798
 40
0.3345727660554798
 40
0.3345727660554798
 40
0.3345727660554798
 10
37.35817456590226
 20
4.549138702382578
 30
0.0
 10
37.30588628709143
 20
4.525129372440318
 30
0.0
 10
37.20503676431577
 20
4.475045089153912
 30
0.0
 10
37.08555705235077
 20
4.478493014875141
 30
0.0
 10
37.03523753493497
 20
4.498052273556338
 30
0.0
 11
37.35817456590226
 21
4.549138702382578
 31
0.0
 11
37.19686883071322
 21
4.487699037411373
 31
0.0
 11
37.03523753493497
 21
4.498052273556338
 31
0.0
  0
SPLINE
  5
22B
330
2
100
AcDbEntity
  8
GAIKEI
  6
Continuous
 62
     1
100
AcDbSpline
210
0.0
220
0.0
230
1.0
 70
     8
 71
     3
 72
    11
 73
     7
 74
     5
 42
0.0000000001
 43
0.0000000001
 44
0.000001
 12
0.6038798991310502
 22
0.7970753210490668
 32
0.0
 13
0.0000274432937339
 23
0.9999999996234329
 33
0.0
 40
0.0
 40
0.0
 40
0.0
 40
0.0
 40
0.0851848422785999
 40
0.2307716396275163
 40
0.5599477241684272
 40
0.94759028080532
 40
0.94759028080532
 40
0.94759028080532
 40
0.94759028080532
 10
37.12532543092962
 20
22.72254066450793
 30
0.0
 10
37.14247256891719
 20
22.74517357634384
 30
0.0
 10
37.16486936057805
 20
22.8213790595208
 30
0.0
 10
37.19880386768801
 20
23.00333276865766
 30
0.0
 10
37.21974495208444
 20
23.29172023057183
 30
0.0
 10
37.22584679320227
 20
23.53021618329143
 30
0.0
 10
37.22585033926512
 20
23.6594303687884
 30
0.0
 11
37.12532543092962
 21
22.72254066450793
 31
0.0
 11
37.15786030225665
 21
22.80126786051457
 31
0.0
 11
37.18605541501816
 21
22.94409829490129
 31
0.0
 11
37.21594055015251
 21
23.2719149335596
 31
0.0
 11
37.22585033926512
 21
23.6594303687884
 31
0.0
  0
SPLINE
  5
22C
330
2
100
AcDbEntity
  8
GAIKEI
  6
Continuous
 62
     1
100
AcDbSpline
210
0.0
220
0.0
230
1.0
 70
     8
 71
     3
 72
     9
 73
     5
 74
     3
 42
0.0000000001
 43
0.0000000001
 44
0.000001
 12
0.5393179490749111
 22
-0.8421022205205444
 32
0.0
 13
0.0255566981077921
 23
-0.9996733742487229
 33
0.0
 40
0.0
 40
0.0
 40
0.0
 40
0.0
 40
0.1433454388234692
 40
0.2847972682299051
 40
0.2847972682299051
 40
0.2847972682299051
 40
0.2847972682299051
 10
37.0400421277993
 20
22.99155351446618
 30
0.0
 10
37.0658117171578
 20
22.95131634368793
 30
0.0
 10
37.10711817408164
 20
22.8645640311079
 30
0.0
 10
37.12412041702931
 20
22.76967587370672
 30
0.0
 10
37.12532543092962
 20
22.72254066450793
 30
0.0
 11
37.0400421277993
 21
22.99155351446618
 31
0.0
 11
37.10123553841524
 21
22.86192710577982
 31
0.0
 11
37.12532543092962
 21
22.72254066450793
 31
0.0
  0
SPLINE
  5
22D
330
2
100
AcDbEntity
  8
GAIKEI
  6
Continuous
 62
     1
100
AcDbSpline
210
0.0
220
0.0
230
1.0
 70
     8
 71
     3
 72
     9
 73
     5
 74
     3
 42
0.0000000001
 43
0.0000000001
 44
0.000001
 12
0.0026893436512621
 22
0.9999963837088239
 32
0.0
 13
-0.4703074679310344
 23
0.8825026264030602
 33
0.0
 40
0.0
 40
0.0
 40
0.0
 40
0.0
 40
0.1085986655623001
 40
0.247950575377882
 40
0.247950575377882
 40
0.247950575377882
 40
0.247950575377882
 10
37.03163646050157
 20
22.59888343057489
 30
0.0
 10
37.03173381354549
 20
22.6350828548542
 30
0.0
 10
37.02309447821059
 20
22.71790717460564
 30
0.0
 10
36.99462078541005
 20
22.79687749517361
 30
0.0
 10
36.97277470412448
 20
22.83787030397579
 30
0.0
 11
37.03163646050157
 21
22.59888343057489
 31
0.0
 11
37.02036167263859
 21
22.70689431607602
 31
0.0
 11
36.97277470412448
 21
22.83787030397579
 31
0.0
  0
SPLINE
  5
22E
330
2
100
AcDbEntity
  8
GAIKEI
  6
Continuous
 62
     1
100
AcDbSpline
210
0.0
220
0.0
230
1.0
 70
     8
 71
     3
 72
     9
 73
     5
 74
     3
 42
0.0000000001
 43
0.0000000001
 44
0.000001
 12
0.0746315686445355
 22
0.9972111757103688
 32
0.0
 13
-0.0741686800374705
 23
0.9972457103951359
 33
0.0
 40
0.0
 40
0.0
 40
0.0
 40
0.0
 40
0.1521671957966732
 40
0.3267803505474882
 40
0.3267803505474882
 40
0.3267803505474882
 40
0.3267803505474882
 10
37.07307933406551
 20
21.42169830181544
 30
0.0
 10
37.07686482623836
 20
21.47227924455709
 30
0.0
 10
37.07996358305428
 20
21.58124113135844
 30
0.0
 10
37.07745731162708
 20
21.69025336919141
 30
0.0
 10
37.0731403692254
 20
21.74829744237602
 30
0.0
 11
37.07307933406551
 21
21.42169830181544
 31
0.0
 11
37.07853436638166
 21
21.57376765227084
 31
0.0
 11
37.0731403692254
 21
21.74829744237602
 31
0.0
  0
SPLINE
  5
22F
330
2
100
AcDbEntity
  8
GAIKEI
  6
Continuous
 62
     1
100
AcDbSpline
210
0.0
220
0.0
230
1.0
 70
     8
 71
     3
 72
     9
 73
     5
 74
     3
 42
0.0000000001
 43
0.0000000001
 44
0.000001
 12
0.0746285580971607
 22
0.9972114010160227
 32
0.0
 13
-0.0741686835241313
 23
0.9972457101358205
 33
0.0
 40
0.0
 40
0.0
 40
0.0
 40
0.0
 40
0.1521680963250822
 40
0.3267803392072226
 40
0.3267803392072226
 40
0.3267803392072226
 40
0.3267803392072226
 10
37.07307933406551
 20
8.011724357987501
 30
0.0
 10
37.07686469593789
 20
8.06230561149626
 30
0.0
 10
37.07996332523882
 20
8.171267485864971
 30
0.0
 10
37.07745728928599
 20
8.280279728497607
 30
0.0
 10
37.0731403692254
 20
8.338323498548076
 30
0.0
 11
37.07307933406551
 21
8.011724357987501
 31
0.0
 11
37.07853419874361
 21
8.163794615551097
 31
0.0
 11
37.0731403692254
 21
8.338323498548076
 31
0.0
  0
SPLINE
  5
230
330
2
100
AcDbEntity
  8
GAIKEI
  6
Continuous
 62
     1
100
AcDbSpline
210
0.0
220
0.0
230
1.0
 70
     8
 71
     3
 72
     9
 73
     5
 74
     3
 42
0.0000000001
 43
0.0000000001
 44
0.000001
 12
0.1569133273070882
 22
-0.9876123772581117
 32
0.0
 13
-0.0000142460188216
 23
-0.9999999998985256
 33
0.0
 40
0.0
 40
0.0
 40
0.0
 40
0.0
 40
0.0141992118986424
 40
0.0282496522182249
 40
0.0282496522182249
 40
0.0282496522182249
 40
0.0282496522182249
 10
37.03181956598124
 20
22.71979408231297
 30
0.0
 10
37.03256224784262
 20
22.7151196431735
 30
0.0
 10
37.03369143496804
 20
22.7057605471215
 30
0.0
 10
37.03407793361804
 20
22.69634035371066
 30
0.0
 10
37.03407786689709
 20
22.69165687360461
 30
0.0
 11
37.03181956598124
 21
22.71979408231297
 31
0.0
 11
37.0335106561644
 21
22.70569624374147
 31
0.0
 11
37.03407786689709
 21
22.69165687360461
 31
0.0
  0
SPLINE
  5
231
330
2
100
AcDbEntity
  8
GAIKEI
  6
Continuous
 62
     1
100
AcDbSpline
210
0.0
220
0.0
230
1.0
 70
     8
 71
     3
 72
     9
 73
     5
 74
     3
 42
0.0000000001
 43
0.0000000001
 44
0.000001
 12
-0.0000780189020072
 22
0.9999999969565253
 32
0.0
 13
-0.1478803268001294
 23
0.9890052623446889
 33
0.0
 40
0.0
 40
0.0
 40
0.0
 40
0.0
 40
0.038916100163334
 40
0.0793118631585687
 40
0.0793118631585687
 40
0.0793118631585687
 40
0.0793118631585687
 10
37.06337474364332
 20
22.64075355025804
 30
0.0
 10
37.06337373157952
 20
22.65372558360634
 30
0.0
 10
37.06241735356758
 20
22.68017112855939
 30
0.0
 10
37.0595066145051
 20
22.70647687492006
 30
0.0
 10
37.05751536829408
 20
22.71979408231297
 30
0.0
 11
37.06337474364332
 21
22.64075355025804
 31
0.0
 11
37.06196554680705
 21
22.67964362192671
 31
0.0
 11
37.05751536829408
 21
22.71979408231297
 31
0.0
  0
SPLINE
  5
232
330
2
100
AcDbEntity
  8
GAIKEI
  6
Continuous
 62
     1
100
AcDbSpline
210
0.0
220
0.0
230
1.0
 70
     8
 71
     3
 72
     9
 73
     5
 74
     3
 42
0.0000000001
 43
0.0000000001
 44
0.000001
 12
0.203894072625902
 22
-0.9789929556171605
 32
0.0
 13
-0.0000213165802684
 23
-0.9999999997728018
 33
0.0
 40
0.0
 40
0.0
 40
0.0
 40
0.0
 40
0.055035245261713
 40
0.1094195798242693
 40
0.1094195798242693
 40
0.1094195798242693
 40
0.1094195798242693
 10
37.02968333538516
 20
22.71979408231297
 30
0.0
 10
37.03342378881662
 20
22.70183437650568
 30
0.0
 10
37.03899524208296
 20
22.66571454815081
 30
0.0
 10
37.040853156074
 20
22.62921857406922
 30
0.0
 10
37.04085276964466
 20
22.61109046255248
 30
0.0
 11
37.02968333538516
 21
22.71979408231297
 31
0.0
 11
37.03808803877147
 21
22.66540405281464
 31
0.0
 11
37.04085276964466
 21
22.61109046255248
 31
0.0
  0
SPLINE
  5
233
330
2
100
AcDbEntity
  8
GAIKEI
  6
Continuous
 62
     1
100
AcDbSpline
210
0.0
220
0.0
230
1.0
 70
     8
 71
     3
 72
     9
 73
     5
 74
     3
 42
0.0000000001
 43
0.0000000001
 44
0.000001
 12
-0.9907447224773274
 22
-0.1357383324021754
 32
0.0
 13
-0.3611331329489518
 23
0.9325142681409623
 33
0.0
 40
0.0
 40
0.0
 40
0.0
 40
0.0
 40
0.0027039998096777
 40
0.0055898692069963
 40
0.0055898692069963
 40
0.0055898692069963
 40
0.0055898692069963
 10
36.3628131784491
 20
3.229802686244028
 30
0.0
 10
36.36192018726877
 20
3.229680340769034
 30
0.0
 10
36.36076006163003
 20
3.232029798859698
 30
0.0
 10
36.36023088512672
 20
3.23354432026585
 30
0.0
 10
36.35988349077448
 20
3.234441358395514
 30
0.0
 11
36.3628131784491
 21
3.229802686244028
 31
0.0
 11
36.36094543905783
 21
3.231758985307891
 31
0.0
 11
36.35988349077448
 21
3.234441358395514
 31
0.0
  0
SPLINE
  5
234
330
2
100
AcDbEntity
  8
GAIKEI
  6
Continuous
 62
     1
100
AcDbSpline
210
0.0
220
0.0
230
1.0
 70
     8
 71
     3
 72
     9
 73
     5
 74
     3
 42
0.0000000001
 43
0.0000000001
 44
0.000001
 12
0.0000000448385034
 22
-0.9999999999999989
 32
0.0
 13
0.9081584222605471
 23
-0.41862665953954
 33
0.0
 40
0.0
 40
0.0
 40
0.0
 40
0.0
 40
0.0139027966927363
 40
0.0278033723758054
 40
0.0278033723758054
 40
0.0278033723758054
 40
0.0278033723758054
 10
36.35817450629762
 20
3.243535597218823
 30
0.0
 10
36.35817450650541
 20
3.238901331654577
 30
0.0
 10
36.36106041906239
 20
3.229532098755321
 30
0.0
 10
36.36830979391101
 20
3.222892305248231
 30
0.0
 10
36.37251776887129
 20
3.220952588060271
 30
0.0
 11
36.35817450629762
 21
3.243535597218823
 31
0.0
 11
36.36215071578093
 21
3.230213591259911
 31
0.0
 11
36.37251776887129
 21
3.220952588060271
 31
0.0
  0
SPLINE
  5
235
330
2
100
AcDbEntity
  8
GAIKEI
  6
Continuous
 62
     1
100
AcDbSpline
210
0.0
220
0.0
230
1.0
 70
     8
 71
     3
 72
     9
 73
     5
 74
     3
 42
0.0000000001
 43
0.0000000001
 44
0.000001
 12
0.8726831600107129
 22
0.4882869056545715
 32
0.0
 13
0.9060488313008754
 23
0.4231731504931732
 33
0.0
 40
0.0
 40
0.0
 40
0.0
 40
0.0
 40
0.0008647289721276
 40
0.0017201373300769
 40
0.0017201373300769
 40
0.0017201373300769
 40
0.0017201373300769
 10
36.3709918898741
 20
2.69794230298018
 30
0.0
 10
36.37124343467808
 20
2.69808304825819
 30
0.0
 10
36.37174646856011
 20
2.69835834556057
 30
0.0
 10
36.37225942162363
 20
2.698615098108793
 30
0.0
 10
36.37251776887129
 20
2.698735760058724
 30
0.0
 11
36.3709918898741
 21
2.69794230298018
 31
0.0
 11
36.37175175763785
 21
2.698354838334552
 31
0.0
 11
36.37251776887129
 21
2.698735760058724
 31
0.0
  0
SPLINE
  5
236
330
2
100
AcDbEntity
  8
GAIKEI
  6
Continuous
100
AcDbSpline
210
0.0
220
0.0
230
1.0
 70
     8
 71
     3
 72
     9
 73
     5
 74
     3
 42
0.0000000001
 43
0.0000000001
 44
0.000001
 12
0.1851928867955859
 22
0.9827021902287171
 32
0.0
 13
0.0002185501612885
 23
0.9999999761179132
 33
0.0
 40
0.0
 40
0.0
 40
0.0
 40
0.0
 40
0.0245916893651366
 40
0.0487685661491633
 40
0.0487685661491633
 40
0.0487685661491633
 40
0.0487685661491633
 10
37.35384106955021
 20
3.981023434145271
 30
0.0
 10
37.35535913819845
 20
3.989078869812119
 30
0.0
 10
37.35751574838658
 20
4.005223408674281
 30
0.0
 10
37.35817280461549
 20
4.021487427520669
 30
0.0
 10
37.35817456590226
 20
4.029546386256213
 30
0.0
 11
37.35384106955021
 21
3.981023434145271
 31
0.0
 11
37.35715263195809
 21
4.00539209612222
 31
0.0
 11
37.35817456590226
 21
4.029546386256213
 31
0.0
  0
SPLINE
  5
237
330
2
100
AcDbEntity
  8
GAIKEI
  6
Continuous
100
AcDbSpline
210
0.0
220
0.0
230
1.0
 70
     8
 71
     3
 72
     9
 73
     5
 74
     3
 42
0.0000000001
 43
0.0000000001
 44
0.000001
 12
0.5142335519141901
 22
0.8576501933106039
 32
0.0
 13
0.1763857305699941
 23
0.9843211234405618
 33
0.0
 40
0.0
 40
0.0
 40
0.0
 40
0.0
 40
0.0506159141892286
 40
0.099760758700958
 40
0.099760758700958
 40
0.099760758700958
 40
0.099760758700958
 10
37.31892895809429
 20
3.888005850475991
 30
0.0
 10
37.32760509187326
 20
3.902476100005653
 30
0.0
 10
37.34209649959544
 20
3.932640295494861
 30
0.0
 10
37.35095158644922
 20
3.964898664624906
 30
0.0
 10
37.35384106955021
 20
3.981023434145271
 30
0.0
 11
37.31892895809429
 21
3.888005850475991
 31
0.0
 11
37.34086017738488
 21
3.933623828489629
 31
0.0
 11
37.35384106955021
 21
3.981023434145271
 31
0.0
  0
SPLINE
  5
238
330
2
100
AcDbEntity
  8
GAIKEI
  6
Continuous
100
AcDbSpline
210
0.0
220
0.0
230
1.0
 70
     8
 71
     3
 72
     9
 73
     5
 74
     3
 42
0.0000000001
 43
0.0000000001
 44
0.000001
 12
0.9659554725890357
 22
0.2587083782471927
 32
0.0
 13
0.5147026122524477
 23
0.8573687776800053
 33
0.0
 40
0.0
 40
0.0
 40
0.0
 40
0.0
 40
0.0769747054409454
 40
0.2100305177808715
 40
0.2100305177808715
 40
0.2100305177808715
 40
0.2100305177808715
 10
37.15431713187641
 20
3.76392137042373
 30
0.0
 10
37.17910184453361
 20
3.770559370827291
 30
0.0
 10
37.24509665695307
 20
3.796576228014778
 30
0.0
 10
37.29610090003204
 20
3.849979884079623
 30
0.0
 10
37.31892895809429
 20
3.888005850475991
 30
0.0
 11
37.15431713187641
 21
3.76392137042373
 31
0.0
 11
37.22546195723928
 21
3.79330693329868
 31
0.0
 11
37.31892895809429
 21
3.888005850475991
 31
0.0
  0
SPLINE
  5
239
330
2
100
AcDbEntity
  8
GAIKEI
  6
Continuous
100
AcDbSpline
210
0.0
220
0.0
230
1.0
 70
     8
 71
     3
 72
     9
 73
     5
 74
     3
 42
0.0000000001
 43
0.0000000001
 44
0.000001
 12
0.5699514274070385
 22
0.8216783862294782
 32
0.0
 13
0.9063077132477696
 23
0.4226184199814281
 33
0.0
 40
0.0
 40
0.0
 40
0.0
 40
0.0
 40
0.020208511166394
 40
0.0396555940045296
 40
0.0396555940045296
 40
0.0396555940045296
 40
0.0396555940045296
 10
37.09645580030261
 20
4.239263195631308
 30
0.0
 10
37.10029509023096
 20
4.244798161245743
 30
0.0
 10
37.10938474230285
 20
4.254630616347617
 30
0.0
 10
37.12061008524204
 20
4.26191425700394
 30
0.0
 10
37.12648509896749
 20
4.264653822144707
 30
0.0
 11
37.09645580030261
 21
4.239263195631308
 31
0.0
 11
37.11011447741319
 21
4.254156687340098
 31
0.0
 11
37.12648509896749
 21
4.264653822144707
 31
0.0
  0
SPLINE
  5
23A
330
2
100
AcDbEntity
  8
GAIKEI
  6
Continuous
100
AcDbSpline
210
0.0
220
0.0
230
1.0
 70
     8
 71
     3
 72
     9
 73
     5
 74
     3
 42
0.0000000001
 43
0.0000000001
 44
0.000001
 12
0.0000000268429086
 22
0.9999999999999998
 32
0.0
 13
0.5092546093492742
 23
0.8606159090189528
 33
0.0
 40
0.0
 40
0.0
 40
0.0
 40
0.0
 40
0.0196586702455616
 40
0.0401001248289801
 40
0.0401001248289801
 40
0.0401001248289801
 40
0.0401001248289801
 10
37.08315013544703
 20
4.196660654029499
 30
0.0
 10
37.08315013562293
 20
4.203213544111353
 30
0.0
 10
37.08505357898694
 20
4.216614308098963
 30
0.0
 10
37.09023924978485
 20
4.229126654099824
 30
0.0
 10
37.09370921810765
 20
4.234990734439151
 30
0.0
 11
37.08315013544703
 21
4.196660654029499
 31
0.0
 11
37.08580623977591
 21
4.216139017244103
 31
0.0
 11
37.09370921810765
 21
4.234990734439151
 31
0.0
  0
SPLINE
  5
23B
330
2
100
AcDbEntity
  8
GAIKEI
  6
Continuous
100
AcDbSpline
210
0.0
220
0.0
230
1.0
 70
     8
 71
     3
 72
     9
 73
     5
 74
     3
 42
0.0000000001
 43
0.0000000001
 44
0.000001
 12
0.6698986207304117
 22
-0.7424525829596745
 32
0.0
 13
0.978147580946624
 23
-0.2079117839091086
 33
0.0
 40
0.0
 40
0.0
 40
0.0
 40
0.0
 40
0.0695597461715116
 40
0.1390132460895186
 40
0.1390132460895186
 40
0.1390132460895186
 40
0.1390132460895186
 10
35.16817453216416
 20
29.03453037549642
 30
0.0
 10
35.18370719150371
 20
29.01731543775807
 30
0.0
 10
35.21987595553876
 20
28.98717135218545
 30
0.0
 10
35.26375184102036
 20
28.96948090176703
 30
0.0
 10
35.28639709866471
 20
28.96466750141147
 30
0.0
 11
35.16817453216416
 21
29.03453037549642
 31
0.0
 11
35.22183233270553
 21
28.99026636440223
 31
0.0
 11
35.28639709866471
 21
28.96466750141147
 31
0.0
  0
SPLINE
  5
23C
330
2
100
AcDbEntity
  8
GAIKEI
  6
Continuous
100
AcDbSpline
210
0.0
220
0.0
230
1.0
 70
     8
 71
     3
 72
     9
 73
     5
 74
     3
 42
0.0000000001
 43
0.0000000001
 44
0.000001
 12
0.5770979100858435
 22
-0.816674967275569
 32
0.0
 13
0.1391936939879922
 23
-0.9902651743618864
 33
0.0
 40
0.0
 40
0.0
 40
0.0
 40
0.0
 40
0.0725628913700646
 40
0.1305860791437096
 40
0.1305860791437096
 40
0.1305860791437096
 40
0.1305860791437096
 10
36.95943186635409
 20
28.53443065936111
 30
0.0
 10
36.97339049734058
 20
28.51467722704942
 30
0.0
 10
36.99377853231955
 20
28.47554690561795
 30
0.0
 10
37.00459127775854
 20
28.43303899930159
 30
0.0
 10
37.00728343170627
 20
28.41388621858235
 30
0.0
 11
36.95943186635409
 21
28.53443065936111
 31
0.0
 11
36.99309144840763
 21
28.4701463364714
 31
0.0
 11
37.00728343170627
 21
28.41388621858235
 31
0.0
  0
SPLINE
  5
23D
330
2
100
AcDbEntity
  8
GAIKEI
  6
Continuous
100
AcDbSpline
210
0.0
220
0.0
230
1.0
 70
     8
 71
     3
 72
     9
 73
     5
 74
     3
 42
0.0000000001
 43
0.0000000001
 44
0.000001
 12
0.7367973998811618
 22
-0.6761135936574263
 32
0.0
 13
0.5761966598679106
 23
-0.8173110846899504
 33
0.0
 40
0.0
 40
0.0
 40
0.0
 40
0.0
 40
0.0301178273881474
 40
0.0584659077415215
 40
0.0584659077415215
 40
0.0584659077415215
 40
0.0584659077415215
 10
36.92085764530489
 20
28.57825390416067
 30
0.0
 10
36.92825455760811
 20
28.57146621332449
 30
0.0
 10
36.94191201227539
 20
28.55750119486902
 30
0.0
 10
36.95398717661634
 20
28.54215372612861
 30
0.0
 10
36.95943186635409
 20
28.53443065936111
 30
0.0
 11
36.92085764530489
 21
28.57825390416067
 31
0.0
 11
36.94190625200159
 21
28.55671232418152
 31
0.0
 11
36.95943186635409
 21
28.53443065936111
 31
0.0
  0
SPLINE
  5
23E
330
2
100
AcDbEntity
  8
GAIKEI
  6
Continuous
100
AcDbSpline
210
0.0
220
0.0
230
1.0
 70
     8
 71
     3
 72
     9
 73
     5
 74
     3
 42
0.0000000001
 43
0.0000000001
 44
0.000001
 12
0.9653983653387442
 22
-0.2607795931457843
 32
0.0
 13
0.7762688479035695
 23
-0.6304019953763352
 33
0.0
 40
0.0
 40
0.0
 40
0.0
 40
0.0
 40
0.0544112516253462
 40
0.1148354607441788
 40
0.1148354607441788
 40
0.1148354607441788
 40
0.1148354607441788
 10
36.80653879083472
 20
28.64118115400518
 30
0.0
 10
36.82404830195976
 20
28.63645137265138
 30
0.0
 10
36.86009637063027
 20
28.62278925170937
 30
0.0
 10
36.89258822347536
 20
28.60187637844648
 30
0.0
 10
36.90822336720808
 20
28.58917919778063
 30
0.0
 11
36.80653879083472
 21
28.64118115400518
 31
0.0
 11
36.85741064106438
 21
28.62187777513688
 31
0.0
 11
36.90822336720808
 21
28.58917919778063
 31
0.0
  0
SPLINE
  5
23F
330
2
100
AcDbEntity
  8
GAIKEI
  6
Continuous
100
AcDbSpline
210
0.0
220
0.0
230
1.0
 70
     8
 71
     3
 72
     9
 73
     5
 74
     3
 42
0.0000000001
 43
0.0000000001
 44
0.000001
 12
0.9780744726698765
 22
-0.2082554342905432
 32
0.0
 13
0.9656791930172921
 23
-0.2597377449918885
 33
0.0
 40
0.0
 40
0.0
 40
0.0
 40
0.0
 40
0.0073284994669873
 40
0.0148055604792003
 40
0.0148055604792003
 40
0.0148055604792003
 40
0.0148055604792003
 10
36.79213449310115
 20
28.64459912295891
 30
0.0
 10
36.7945237658517
 20
28.64409038967918
 30
0.0
 10
36.79934245489053
 20
28.64302288578967
 30
0.0
 10
36.80413197675324
 20
28.64182851232733
 30
0.0
 10
36.80653879083472
 20
28.64118115400518
 30
0.0
 11
36.79213449310115
 21
28.64459912295891
 31
0.0
 11
36.79928674484465
 21
28.64300302933677
 31
0.0
 11
36.80653879083472
 21
28.64118115400518
 31
0.0
  0
SPLINE
  5
240
330
2
100
AcDbEntity
  8
GAIKEI
  6
Continuous
 62
     1
100
AcDbSpline
210
0.0
220
0.0
230
1.0
 70
     8
 71
     3
 72
     9
 73
     5
 74
     3
 42
0.0000000001
 43
0.0000000001
 44
0.000001
 12
-0.4031347934464675
 22
-0.9151406112247856
 32
0.0
 13
-0.9986239382571366
 23
-0.0524426347527165
 33
0.0
 40
0.0
 40
0.0
 40
0.0
 40
0.0
 40
0.1580103630845511
 40
0.2974965161848781
 40
0.2974965161848781
 40
0.2974965161848781
 40
0.2974965161848781
 10
36.33443182910119
 20
0.9583181758529519
 30
0.0
 10
36.31319867073969
 20
0.9101176091019365
 30
0.0
 10
36.24145739467748
 20
0.8328724412821269
 30
0.0
 10
36.14398577742309
 20
0.7978536745719706
 30
0.0
 10
36.09755437357595
 20
0.7954153341119366
 30
0.0
 11
36.33443182910119
 21
0.9583181758529519
 31
0.0
 11
36.22973092038362
 21
0.8399754523195213
 31
0.0
 11
36.09755437357595
 21
0.7954153341119366
 31
0.0
  0
SPLINE
  5
241
330
2
100
AcDbEntity
  8
GAIKEI
  6
Continuous
100
AcDbSpline
210
0.0
220
0.0
230
1.0
 70
     8
 71
     3
 72
     9
 73
     5
 74
     3
 42
0.0000000001
 43
0.0000000001
 44
0.000001
 12
-0.718003555664965
 22
0.6960394342653782
 32
0.0
 13
-0.9781988621469723
 23
0.2076703784711929
 33
0.0
 40
0.0
 40
0.0
 40
0.0
 40
0.0
 40
0.154166652804149
 40
0.293301394358127
 40
0.293301394358127
 40
0.293301394358127
 40
0.293301394358127
 10
35.62868227531649
 20
28.80969923045589
 30
0.0
 10
35.59178487369038
 20
28.84546792038936
 30
0.0
 10
35.51073396959889
 20
28.9029438713391
 30
0.0
 10
35.41770175241139
 20
28.93678660045929
 30
0.0
 10
35.37233460378698
 20
28.94641798860496
 30
0.0
 11
35.62868227531649
 21
28.80969923045589
 31
0.0
 11
35.50326922255411
 21
28.89935932712567
 31
0.0
 11
35.37233460378698
 21
28.94641798860496
 31
0.0
  0
SPLINE
  5
242
330
2
100
AcDbEntity
  8
GAIKEI
  6
Continuous
100
AcDbSpline
210
0.0
220
0.0
230
1.0
 70
     8
 71
     3
 72
     9
 73
     5
 74
     3
 42
0.0000000001
 43
0.0000000001
 44
0.000001
 12
-0.0083024321297457
 22
0.9999655342164203
 32
0.0
 13
0.0082086445030465
 23
0.9999663085101532
 33
0.0
 40
0.0
 40
0.0
 40
0.0
 40
0.0
 40
0.0006085849801134
 40
0.0012207135976182
 40
0.0012207135976182
 40
0.0012207135976182
 40
0.0012207135976182
 10
37.35817456590226
 20
4.547917999184818
 30
0.0
 10
37.3581728816571
 20
4.548120853853069
 30
0.0
 10
37.35817120662897
 20
4.548527760215977
 30
0.0
 10
37.35817289098686
 20
4.548934666384584
 30
0.0
 10
37.35817456590226
 20
4.549138702382578
 30
0.0
 11
37.35817456590226
 21
4.547917999184818
 31
0.0
 11
37.35817199006628
 21
4.5485265790588
 31
0.0
 11
37.35817456590226
 21
4.549138702382578
 31
0.0
  0
SPLINE
  5
243
330
2
100
AcDbEntity
  8
GAIKEI
  6
Continuous
100
AcDbSpline
210
0.0
220
0.0
230
1.0
 70
     8
 71
     3
 72
    11
 73
     7
 74
     5
 42
0.0000000001
 43
0.0000000001
 44
0.000001
 12
0.6795671808267718
 22
0.7336132814658919
 32
0.0
 13
0.9986295107058266
 23
0.0523364151183627
 33
0.0
 40
0.0
 40
0.0
 40
0.0
 40
0.0
 40
0.0012914770038116
 40
0.002584627751431
 40
0.0904969255271076
 40
0.1722457679364512
 40
0.1722457679364512
 40
0.1722457679364512
 40
0.1722457679364512
 10
35.16817453216416
 20
0.6831175506789294
 30
0.0
 10
35.16846708062635
 20
0.6834333655731641
 30
0.0
 10
35.16905452186982
 20
0.6840636058970566
 30
0.0
 10
35.18975731781672
 20
0.7060018236043251
 30
0.0
 10
35.23794327436001
 20
0.7394224810709492
 30
0.0
 10
35.29415797644853
 20
0.7533397705092824
 30
0.0
 10
35.32137024528053
 20
0.7547659176265427
 30
0.0
 11
35.16817453216416
 21
0.6831175506789294
 31
0.0
 11
35.16905494396352
 21
0.6840622725686388
 31
0.0
 11
35.16994201359845
 21
0.6850027298745829
 31
0.0
 11
35.2419346806311
 21
0.7354595342813754
 31
0.0
 11
35.32137024528053
 21
0.7547659176265427
 31
0.0
  0
SPLINE
  5
244
330
2
100
AcDbEntity
  8
GAIKEI
  6
Continuous
100
AcDbSpline
210
0.0
220
0.0
230
1.0
 70
     8
 71
     3
 72
     9
 73
     5
 74
     3
 42
0.0000000001
 43
0.0000000001
 44
0.000001
 12
0.684675086744087
 22
0.7288484242913455
 32
0.0
 13
0.9986280087922196
 23
0.0523650652218333
 33
0.0
 40
0.0
 40
0.0
 40
0.0
 40
0.0
 40
0.0886730334945998
 40
0.1722719318335571
 40
0.1722719318335571
 40
0.1722719318335571
 40
0.1722719318335571
 10
35.16817453216416
 20
0.6827755617057109
 30
0.0
 10
35.18841193779742
 20
0.7043186286189352
 30
0.0
 10
35.23652372908677
 20
0.7384686293298123
 30
0.0
 10
35.29354217815205
 20
0.753306697038545
 30
0.0
 10
35.32137024528053
 20
0.7547659176265427
 30
0.0
 11
35.16817453216416
 21
0.6827755617057109
 31
0.0
 11
35.24030012253193
 21
0.7343570260935337
 31
0.0
 11
35.32137024528053
 21
0.7547659176265427
 31
0.0
  0
ELLIPSE
  5
245
330
2
100
AcDbEntity
  8
GAIKEI
  6
Continuous
 62
     1
100
AcDbEllipse
 10
37.09029126172001
 20
21.58484529858922
 30
0.0
 11
0.0
 21
-0.2050000104308133
 31
0.0
210
0.0
220
0.0
230
0.9999999999999998
 40
0.140541
 41
0.0
 42
6.283185307179584
  0
ELLIPSE
  5
246
330
2
100
AcDbEntity
  8
GAIKEI
  6
Continuous
 62
     1
100
AcDbEllipse
 10
37.09029126172001
 20
8.174810298589221
 30
0.0
 11
0.0
 21
-0.2050000104308133
 31
0.0
210
0.0
220
0.0
230
0.9999999999999998
 40
0.140541
 41
0.0
 42
6.283185307179584
  0
LINE
  5
247
330
2
100
AcDbEntity
  8
GAIKEI
  6
Continuous
 62
     1
100
AcDbLine
 10
37.19936106172
 20
4.187566398589154
 30
0.0
 11
37.35817456172001
 21
4.187566398589154
 31
0.0
  0
LINE
  5
248
330
2
100
AcDbEntity
  8
GAIKEI
  6
Continuous
 62
     1
100
AcDbLine
 10
37.19939281172
 20
4.187561598589211
 30
0.0
 11
37.12645421172002
 21
4.184616048589163
 31
0.0
  0
LINE
  5
249
330
2
100
AcDbEntity
  8
GAIKEI
  6
Continuous
 62
     1
100
AcDbLine
 10
37.19936106172
 20
4.066350598589195
 30
0.0
 11
37.19936106172
 21
4.187566398589154
 31
0.0
  0
LINE
  5
24A
330
2
100
AcDbEntity
  8
GAIKEI
  6
Continuous
 62
     1
100
AcDbLine
 10
35.28639711172
 20
1.768193698589215
 30
0.0
 11
35.16817451171997
 21
1.768193698589215
 31
0.0
  0
LINE
  5
24B
330
2
100
AcDbEntity
  8
GAIKEI
  6
Continuous
 62
     1
100
AcDbLine
 10
37.22585036171998
 20
23.65943034858921
 30
0.0
 11
37.13189161172002
 21
23.65943034858921
 31
0.0
  0
LINE
  5
24C
330
2
100
AcDbEntity
  8
GAIKEI
  6
Continuous
 62
     1
100
AcDbLine
 10
36.51904431171998
 20
23.17128549858919
 30
0.0
 11
36.03172211171997
 21
23.42502389858916
 31
0.0
  0
LINE
  5
24D
330
2
100
AcDbEntity
  8
GAIKEI
  6
Continuous
 62
     1
100
AcDbLine
 10
35.78816716172
 20
23.85675704858917
 30
0.0
 11
35.60817456172001
 21
23.85675704858917
 31
0.0
  0
LINE
  5
24E
330
2
100
AcDbEntity
  8
GAIKEI
  6
Continuous
 62
     1
100
AcDbLine
 10
36.51485806171999
 20
22.65411994858923
 30
0.0
 11
36.79213991172
 21
22.50974514858919
 31
0.0
  0
LINE
  5
24F
330
2
100
AcDbEntity
  8
GAIKEI
  6
Continuous
 62
     1
100
AcDbLine
 10
36.79210286172
 20
4.637134698589163
 30
0.0
 11
36.37534726172001
 21
4.442798398589188
 31
0.0
  0
LINE
  5
250
330
2
100
AcDbEntity
  8
GAIKEI
  6
Continuous
 62
     1
100
AcDbLine
 10
37.04372141172
 20
21.25983304858923
 30
0.0
 11
37.04372141172
 21
21.9097964985892
 31
0.0
  0
LINE
  5
251
330
2
100
AcDbEntity
  8
GAIKEI
  6
Continuous
 62
     1
100
AcDbLine
 10
36.82857246171997
 20
21.95984529858922
 30
0.0
 11
36.82857246171997
 21
21.20984524858918
 31
0.0
  0
LINE
  5
252
330
2
100
AcDbEntity
  8
GAIKEI
  6
Continuous
 62
     1
100
AcDbLine
 10
36.79213451171997
 20
7.79981029858922
 30
0.0
 11
36.79213451171997
 21
4.637151398589223
 31
0.0
  0
LINE
  5
253
330
2
100
AcDbEntity
  8
GAIKEI
  6
Continuous
 62
     1
100
AcDbLine
 10
36.79213451171997
 20
21.20984524858918
 30
0.0
 11
36.79213451171997
 21
8.549810348589147
 31
0.0
  0
LINE
  5
254
330
2
100
AcDbEntity
  8
GAIKEI
  6
Continuous
 62
     1
100
AcDbLine
 10
36.79213451171997
 20
22.5097720985892
 30
0.0
 11
36.79213451171997
 21
21.95984529858922
 31
0.0
  0
LINE
  5
255
330
2
100
AcDbEntity
  8
GAIKEI
  6
Continuous
 62
     1
100
AcDbLine
 10
37.08931466172001
 20
21.25983304858923
 30
0.0
 11
37.04372141172
 21
21.25983304858923
 31
0.0
  0
LINE
  5
256
330
2
100
AcDbEntity
  8
GAIKEI
  6
Continuous
 62
     1
100
AcDbLine
 10
37.04372141172
 20
21.9097964985892
 30
0.0
 11
37.08931466172001
 21
21.9097964985892
 31
0.0
  0
LINE
  5
257
330
2
100
AcDbEntity
  8
GAIKEI
  6
Continuous
 62
     1
100
AcDbLine
 10
37.04372141172
 20
8.499822548589206
 30
0.0
 11
37.08931466172001
 21
8.499822548589206
 31
0.0
  0
LINE
  5
258
330
2
100
AcDbEntity
  8
GAIKEI
  6
Continuous
 62
     1
100
AcDbLine
 10
37.04372141172
 20
7.849798098589161
 30
0.0
 11
37.04372141172
 21
8.499822548589206
 31
0.0
  0
LINE
  5
259
330
2
100
AcDbEntity
  8
GAIKEI
  6
Continuous
 62
     1
100
AcDbLine
 10
36.82857246171997
 20
8.549810348589147
 30
0.0
 11
36.82857246171997
 21
7.79981029858922
 31
0.0
  0
LINE
  5
25A
330
2
100
AcDbEntity
  8
GAIKEI
  6
Continuous
 62
     1
100
AcDbLine
 10
37.08931466172001
 20
7.849798098589161
 30
0.0
 11
37.04372141172
 21
7.849798098589161
 31
0.0
  0
LINE
  5
25B
330
2
100
AcDbEntity
  8
GAIKEI
  6
Continuous
 62
     1
100
AcDbLine
 10
36.53639716171998
 20
2.930852448589206
 30
0.0
 11
36.53639716171998
 21
1.338445148589215
 31
0.0
  0
LINE
  5
25C
330
2
100
AcDbEntity
  8
GAIKEI
  6
Continuous
 62
     1
100
AcDbLine
 10
36.53639716171998
 20
3.774785648589187
 30
0.0
 11
36.53639716171998
 21
2.987493098589169
 31
0.0
  0
LINE
  5
25D
330
2
100
AcDbEntity
  8
GAIKEI
  6
Continuous
 62
     1
100
AcDbLine
 10
36.53640451172001
 20
1.338416998589166
 30
0.0
 11
36.66732836172001
 21
1.34527844858914
 31
0.0
  0
LINE
  5
25E
330
2
100
AcDbEntity
  8
GAIKEI
  6
Continuous
 62
     1
100
AcDbLine
 10
36.14036231172
 20
1.812907948589185
 30
0.0
 11
35.28637066171999
 21
1.768152148589223
 31
0.0
  0
LINE
  5
25F
330
2
100
AcDbEntity
  8
GAIKEI
  6
Continuous
 62
     1
100
AcDbLine
 10
36.14034001172
 20
3.763066898589187
 30
0.0
 11
36.14034001172
 21
1.812932498589218
 31
0.0
  0
LINE
  5
260
330
2
100
AcDbEntity
  8
GAIKEI
  6
Continuous
 62
     1
100
AcDbLine
 10
36.14034001172
 20
3.763066898589187
 30
0.0
 11
36.35817451171997
 21
3.763066898589187
 31
0.0
  0
LINE
  5
261
330
2
100
AcDbEntity
  8
GAIKEI
  6
Continuous
 62
     1
100
AcDbLine
 10
36.66731761172
 20
1.345281098589197
 30
0.0
 11
36.66731761172
 21
3.880986798589191
 31
0.0
  0
LINE
  5
262
330
2
100
AcDbEntity
  8
GAIKEI
  6
Continuous
100
AcDbLine
 10
36.81508371172001
 20
25.08076789858919
 30
0.0
 11
36.81508371172001
 21
26.18889329858919
 31
0.0
  0
LINE
  5
263
330
2
100
AcDbEntity
  8
GAIKEI
  6
Continuous
 62
     1
100
AcDbLine
 10
36.60992106171998
 20
27.68071909858915
 30
0.0
 11
36.16436491172001
 21
27.77542494858919
 31
0.0
  0
LINE
  5
264
330
2
100
AcDbEntity
  8
GAIKEI
  6
Continuous
 62
     1
100
AcDbLine
 10
36.16440946172
 20
23.99823344858916
 30
0.0
 11
36.63267776171998
 21
23.75441604858915
 31
0.0
  0
LINE
  5
265
330
2
100
AcDbEntity
  8
GAIKEI
  6
Continuous
 62
     1
100
AcDbLine
 10
36.03175246172
 20
23.59741924858915
 30
0.0
 11
36.57237496172
 21
23.3159285485892
 31
0.0
  0
LINE
  5
266
330
2
100
AcDbEntity
  8
GAIKEI
  6
Continuous
 62
     1
100
AcDbLine
 10
36.03175846172
 20
23.42499429858921
 30
0.0
 11
36.03175846172
 21
23.59741864858918
 31
0.0
  0
LINE
  5
267
330
2
100
AcDbEntity
  8
GAIKEI
  6
Continuous
 62
     1
100
AcDbLine
 10
36.16438786171997
 20
23.99823654858918
 30
0.0
 11
35.78816716172
 21
23.99823654858918
 31
0.0
  0
LINE
  5
268
330
2
100
AcDbEntity
  8
GAIKEI
  6
Continuous
 62
     1
100
AcDbLine
 10
36.16438786171997
 20
27.7754584485892
 30
0.0
 11
36.16438786171997
 21
23.99823654858918
 31
0.0
  0
LINE
  5
269
330
2
100
AcDbEntity
  8
GAIKEI
  6
Continuous
 62
     1
100
AcDbLine
 10
37.12648511171997
 20
4.184636748589213
 30
0.0
 11
37.12648511171997
 21
3.911443348589187
 31
0.0
  0
LINE
  5
26A
330
2
100
AcDbEntity
  8
GAIKEI
  6
Continuous
 62
     1
100
AcDbLine
 10
37.00728341172001
 20
21.95752594858922
 30
0.0
 11
37.00728341172001
 21
22.5097720985892
 31
0.0
  0
LINE
  5
26B
330
2
100
AcDbEntity
  8
GAIKEI
  6
Continuous
 62
     1
100
AcDbLine
 10
37.05464671171998
 20
21.95752594858922
 30
0.0
 11
37.00728341172001
 21
21.95752594858922
 31
0.0
  0
LINE
  5
26C
330
2
100
AcDbEntity
  8
GAIKEI
  6
Continuous
 62
     1
100
AcDbLine
 10
37.00728341172001
 20
21.21210354858917
 30
0.0
 11
37.05464671171998
 21
21.21210354858917
 31
0.0
  0
LINE
  5
26D
330
2
100
AcDbEntity
  8
GAIKEI
  6
Continuous
 62
     1
100
AcDbLine
 10
37.00728341172001
 20
8.547490998589152
 30
0.0
 11
37.00728341172001
 21
21.21210354858917
 31
0.0
  0
LINE
  5
26E
330
2
100
AcDbEntity
  8
GAIKEI
  6
Continuous
 62
     1
100
AcDbLine
 10
37.05464671171998
 20
8.547490998589152
 30
0.0
 11
37.00728341172001
 21
8.547490998589152
 31
0.0
  0
LINE
  5
26F
330
2
100
AcDbEntity
  8
GAIKEI
  6
Continuous
 62
     1
100
AcDbLine
 10
37.00728341172001
 20
7.802129598589174
 30
0.0
 11
37.05464671171998
 21
7.802129598589174
 31
0.0
  0
LINE
  5
270
330
2
100
AcDbEntity
  8
GAIKEI
  6
Continuous
 62
     1
100
AcDbLine
 10
37.00728341172001
 20
4.637151398589223
 30
0.0
 11
37.00728341172001
 21
7.802129598589174
 31
0.0
  0
LINE
  5
271
330
2
100
AcDbEntity
  8
GAIKEI
  6
Continuous
 62
     1
100
AcDbLine
 10
37.06334011172001
 20
22.64077929858919
 30
0.0
 11
37.12529461171997
 21
22.72254289858918
 31
0.0
  0
LINE
  5
272
330
2
100
AcDbEntity
  8
GAIKEI
  6
Continuous
 62
     1
100
AcDbLine
 10
37.03161406171998
 20
22.59890934858922
 30
0.0
 11
37.04085471171996
 21
22.61110454858917
 31
0.0
  0
LINE
  5
273
330
2
100
AcDbEntity
  8
GAIKEI
  6
Continuous
 62
     1
100
AcDbLine
 10
37.06160471171997
 20
8.684820098589142
 30
0.0
 11
37.06160471171997
 21
8.834844548589188
 31
0.0
  0
LINE
  5
274
330
2
100
AcDbEntity
  8
GAIKEI
  6
Continuous
 62
     1
100
AcDbLine
 10
37.04262281172001
 20
8.834844548589188
 30
0.0
 11
37.06160471171997
 21
8.834844548589188
 31
0.0
  0
LINE
  5
275
330
2
100
AcDbEntity
  8
GAIKEI
  6
Continuous
 62
     1
100
AcDbLine
 10
37.06158196172001
 20
8.834842998589209
 30
0.0
 11
37.06333806171997
 21
8.934803148589224
 31
0.0
  0
LINE
  5
276
330
2
100
AcDbEntity
  8
GAIKEI
  6
Continuous
 62
     1
100
AcDbLine
 10
37.04085276172
 20
8.934820098589142
 30
0.0
 11
37.06337476171999
 21
8.934820098589142
 31
0.0
  0
LINE
  5
277
330
2
100
AcDbEntity
  8
GAIKEI
  6
Continuous
 62
     1
100
AcDbLine
 10
37.06337476171999
 20
8.934820098589142
 30
0.0
 11
37.06337476171999
 21
9.284795698589135
 31
0.0
  0
LINE
  5
278
330
2
100
AcDbEntity
  8
GAIKEI
  6
Continuous
 62
     1
100
AcDbLine
 10
37.04085276172
 20
9.284795698589135
 30
0.0
 11
37.04085276172
 21
8.934820098589142
 31
0.0
  0
LINE
  5
279
330
2
100
AcDbEntity
  8
GAIKEI
  6
Continuous
 62
     1
100
AcDbLine
 10
37.04084706171997
 20
8.934795548589221
 30
0.0
 11
37.04260316172
 21
8.834835348589166
 31
0.0
  0
LINE
  5
27A
330
2
100
AcDbEntity
  8
GAIKEI
  6
Continuous
 62
     1
100
AcDbLine
 10
37.04262281172001
 20
8.834844548589188
 30
0.0
 11
37.04262281172001
 21
8.684820098589142
 31
0.0
  0
LINE
  5
27B
330
2
100
AcDbEntity
  8
GAIKEI
  6
Continuous
 62
     1
100
AcDbLine
 10
37.06160471171997
 20
22.11981844858915
 30
0.0
 11
37.06160471171997
 21
22.26984289858919
 31
0.0
  0
LINE
  5
27C
330
2
100
AcDbEntity
  8
GAIKEI
  6
Continuous
100
AcDbLine
 10
37.04262281172001
 20
22.26984289858919
 30
0.0
 11
37.06160471171997
 21
22.26984289858919
 31
0.0
  0
LINE
  5
27D
330
2
100
AcDbEntity
  8
GAIKEI
  6
Continuous
 62
     1
100
AcDbLine
 10
37.06160431172
 20
22.26983869858916
 30
0.0
 11
37.06336036171999
 21
22.36979884858917
 31
0.0
  0
LINE
  5
27E
330
2
100
AcDbEntity
  8
GAIKEI
  6
Continuous
 62
     1
100
AcDbLine
 10
37.04085276172
 20
22.36981849858918
 30
0.0
 11
37.06337476171999
 21
22.36981849858918
 31
0.0
  0
LINE
  5
27F
330
2
100
AcDbEntity
  8
GAIKEI
  6
Continuous
 62
     1
100
AcDbLine
 10
37.06337476171999
 20
22.36981849858918
 30
0.0
 11
37.06337476171999
 21
22.64075354858917
 31
0.0
  0
LINE
  5
280
330
2
100
AcDbEntity
  8
GAIKEI
  6
Continuous
 62
     1
100
AcDbLine
 10
37.04085276172
 20
22.61109044858918
 30
0.0
 11
37.04085276172
 21
22.36981849858918
 31
0.0
  0
LINE
  5
281
330
2
100
AcDbEntity
  8
GAIKEI
  6
Continuous
 62
     1
100
AcDbLine
 10
37.04088576171998
 20
22.36979229858921
 30
0.0
 11
37.04264186172
 21
22.26983214858919
 31
0.0
  0
LINE
  5
282
330
2
100
AcDbEntity
  8
GAIKEI
  6
Continuous
 62
     1
100
AcDbLine
 10
37.04262281172001
 20
22.26984289858919
 30
0.0
 11
37.04262281172001
 21
22.11981844858915
 31
0.0
  0
LINE
  5
283
330
2
100
AcDbEntity
  8
GAIKEI
  6
Continuous
100
AcDbLine
 10
37.09889836172003
 20
3.749072598589207
 30
0.0
 11
37.15431646172002
 21
3.763921848589204
 31
0.0
  0
LINE
  5
284
330
2
100
AcDbEntity
  8
GAIKEI
  6
Continuous
100
AcDbLine
 10
37.08316836172
 20
3.74484814858917
 30
0.0
 11
37.09896841172
 21
3.74908179858923
 31
0.0
  0
LINE
  5
285
330
2
100
AcDbEntity
  8
GAIKEI
  6
Continuous
 62
     1
100
AcDbLine
 10
36.35817451171997
 20
1.812932498589218
 30
0.0
 11
36.35817451171997
 21
1.070073548589192
 31
0.0
  0
LINE
  5
286
330
2
100
AcDbEntity
  8
GAIKEI
  6
Continuous
 62
     1
100
AcDbLine
 10
36.35817451171997
 20
3.763066898589187
 30
0.0
 11
36.35817451171997
 21
1.812932498589218
 31
0.0
  0
ARC
  5
287
330
2
100
AcDbEntity
  8
GAIKEI
  6
Continuous
 62
     1
100
AcDbCircle
 10
36.24953191171997
 20
2.959844198589138
 30
0.0
 40
0.28861095
100
AcDbArc
 50
295.2165659999991
 51
64.78345099999656
  0
LINE
  5
288
330
2
100
AcDbEntity
  8
GAIKEI
  6
Continuous
100
AcDbLine
 10
37.01471026172001
 20
28.36116384858915
 30
0.0
 11
37.00729571172
 21
28.41392109858916
 31
0.0
  0
LINE
  5
289
330
2
100
AcDbEntity
  8
GAIKEI
  6
Continuous
 62
     1
100
AcDbLine
 10
36.82857246171997
 20
7.79981029858922
 30
0.0
 11
36.79213451171997
 21
7.79981029858922
 31
0.0
  0
LINE
  5
28A
330
2
100
AcDbEntity
  8
GAIKEI
  6
Continuous
 62
     1
100
AcDbLine
 10
36.97218821172001
 20
7.79981029858922
 30
0.0
 11
36.97993966172001
 21
7.79981029858922
 31
0.0
  0
LINE
  5
28B
330
2
100
AcDbEntity
  8
GAIKEI
  6
Continuous
 62
     1
100
AcDbLine
 10
36.82857246171997
 20
7.79981029858922
 30
0.0
 11
36.97224926172001
 21
7.79981029858922
 31
0.0
  0
LINE
  5
28C
330
2
100
AcDbEntity
  8
GAIKEI
  6
Continuous
100
AcDbLine
 10
36.79108776171998
 20
4.108273698589157
 30
0.0
 11
36.48806321172
 21
3.966970998589174
 31
0.0
  0
LINE
  5
28D
330
2
100
AcDbEntity
  8
GAIKEI
  6
Continuous
100
AcDbLine
 10
37.19939121171999
 20
4.298673948589196
 30
0.0
 11
36.79109906171996
 21
4.108284198589188
 31
0.0
  0
LINE
  5
28E
330
2
100
AcDbEntity
  8
GAIKEI
  6
Continuous
100
AcDbLine
 10
35.37226816171997
 20
28.9464129485892
 30
0.0
 11
35.28635786172001
 21
28.96467374858921
 31
0.0
  0
LINE
  5
28F
330
2
100
AcDbEntity
  8
GAIKEI
  6
Continuous
100
AcDbLine
 10
36.16436616171998
 20
28.77807094858915
 30
0.0
 11
35.37230811172
 21
28.94642989858918
 31
0.0
  0
LINE
  5
290
330
2
100
AcDbEntity
  8
GAIKEI
  6
Continuous
100
AcDbLine
 10
36.79208676171996
 20
28.64462124858917
 30
0.0
 11
36.16438631172
 21
28.77804309858922
 31
0.0
  0
LINE
  5
291
330
2
100
AcDbEntity
  8
GAIKEI
  6
Continuous
 62
     1
100
AcDbLine
 10
35.78816716172
 20
28.16132284858915
 30
0.0
 11
35.78816716172
 21
27.94379339858918
 31
0.0
  0
LINE
  5
292
330
2
100
AcDbEntity
  8
GAIKEI
  6
Continuous
 62
     1
100
AcDbLine
 10
35.78816716172
 20
27.94379339858918
 30
0.0
 11
35.78816716172
 21
23.85675704858917
 31
0.0
  0
LINE
  5
293
330
2
100
AcDbEntity
  8
GAIKEI
  6
Continuous
 62
     1
100
AcDbLine
 10
36.79213451171997
 20
8.549810348589147
 30
0.0
 11
36.82857246171997
 21
8.549810348589147
 31
0.0
  0
LINE
  5
294
330
2
100
AcDbEntity
  8
GAIKEI
  6
Continuous
 62
     1
100
AcDbLine
 10
36.97224926172001
 20
8.549810348589147
 30
0.0
 11
36.82857246171997
 21
8.549810348589147
 31
0.0
  0
LINE
  5
295
330
2
100
AcDbEntity
  8
GAIKEI
  6
Continuous
 62
     1
100
AcDbLine
 10
36.97993966172001
 20
8.549810348589147
 30
0.0
 11
36.97218821172001
 21
8.549810348589147
 31
0.0
  0
LINE
  5
296
330
2
100
AcDbEntity
  8
GAIKEI
  6
Continuous
 62
     1
100
AcDbLine
 10
36.82857246171997
 20
21.20984524858918
 30
0.0
 11
36.79213451171997
 21
21.20984524858918
 31
0.0
  0
LINE
  5
297
330
2
100
AcDbEntity
  8
GAIKEI
  6
Continuous
 62
     1
100
AcDbLine
 10
36.97218821172001
 20
21.20984524858918
 30
0.0
 11
36.97993966172001
 21
21.20984524858918
 31
0.0
  0
LINE
  5
298
330
2
100
AcDbEntity
  8
GAIKEI
  6
Continuous
 62
     1
100
AcDbLine
 10
36.82857246171997
 20
21.20984524858918
 30
0.0
 11
36.97224926172001
 21
21.20984524858918
 31
0.0
  0
LINE
  5
299
330
2
100
AcDbEntity
  8
GAIKEI
  6
Continuous
 62
     1
100
AcDbLine
 10
36.79213451171997
 20
21.95984529858922
 30
0.0
 11
36.82857246171997
 21
21.95984529858922
 31
0.0
  0
LINE
  5
29A
330
2
100
AcDbEntity
  8
GAIKEI
  6
Continuous
 62
     1
100
AcDbLine
 10
36.97224926172001
 20
21.95984529858922
 30
0.0
 11
36.82857246171997
 21
21.95984529858922
 31
0.0
  0
LINE
  5
29B
330
2
100
AcDbEntity
  8
GAIKEI
  6
Continuous
 62
     1
100
AcDbLine
 10
36.97993966172001
 20
21.95984529858922
 30
0.0
 11
36.97218821172001
 21
21.95984529858922
 31
0.0
  0
ARC
  5
29C
330
2
100
AcDbEntity
  8
GAIKEI
  6
Continuous
100
AcDbCircle
 10
36.58315011172002
 20
3.763066898589187
 30
0.0
 40
0.225
100
AcDbArc
 50
115.0000400000042
 51
180.0
  0
ARC
  5
29D
330
2
100
AcDbEntity
  8
GAIKEI
  6
Continuous
100
AcDbCircle
 10
36.80812571172001
 20
1.108037398589174
 30
0.0
 40
0.27499985
100
AcDbArc
 50
273.0000370000033
 51
0.0000359999984121
  0
LINE
  5
29E
330
2
100
AcDbEntity
  8
GAIKEI
  6
Continuous
100
AcDbLine
 10
37.35817456172001
 20
25.30483084858915
 30
0.0
 11
37.35817456172001
 21
4.549138698589188
 31
0.0
  0
LINE
  5
29F
330
2
100
AcDbEntity
  8
GAIKEI
  6
Continuous
100
AcDbLine
 10
37.35817456172001
 20
4.187566398589154
 30
0.0
 11
37.35817456172001
 21
4.547917998589213
 31
0.0
  0
LINE
  5
2A0
330
2
100
AcDbEntity
  8
GAIKEI
  6
Continuous
100
AcDbLine
 10
37.35817456172001
 20
4.066350598589195
 30
0.0
 11
37.35817456172001
 21
4.187566398589154
 31
0.0
  0
LINE
  5
2A1
330
2
100
AcDbEntity
  8
GAIKEI
  6
Continuous
100
AcDbLine
 10
37.35817456172001
 20
4.029546398589189
 30
0.0
 11
37.35817456172001
 21
4.066350598589195
 31
0.0
  0
LINE
  5
2A2
330
2
100
AcDbEntity
  8
GAIKEI
  6
Continuous
100
AcDbLine
 10
37.08315011172003
 20
1.345281098589197
 30
0.0
 11
37.08315011172003
 21
1.108037398589174
 31
0.0
  0
LINE
  5
2A3
330
2
100
AcDbEntity
  8
GAIKEI
  6
Continuous
100
AcDbLine
 10
37.08315011172003
 20
4.196660648589187
 30
0.0
 11
37.08315011172003
 21
1.345281098589197
 31
0.0
  0
LINE
  5
2A4
330
2
100
AcDbEntity
  8
GAIKEI
  6
Continuous
100
AcDbLine
 10
36.45472251172001
 20
0.8141364985891357
 30
0.0
 11
36.82256486172
 21
0.8334142985891901
 31
0.0
  0
LINE
  5
2A5
330
2
100
AcDbEntity
  8
GAIKEI
  6
Continuous
100
AcDbLine
 10
36.09754771171996
 20
0.7954755485892237
 30
0.0
 11
36.45466271171998
 21
0.8141898985892055
 31
0.0
  0
LINE
  5
2A6
330
2
100
AcDbEntity
  8
GAIKEI
  6
Continuous
100
AcDbLine
 10
35.32139011171998
 20
0.7547410485891817
 30
0.0
 11
36.09754666171998
 21
0.7954176985891479
 31
0.0
  0
LINE
  5
2A7
330
2
100
AcDbEntity
  8
GAIKEI
  6
Continuous
 62
     1
100
AcDbLine
 10
37.06337476171999
 20
9.284795698589135
 30
0.0
 11
37.04085276172
 21
9.284795698589135
 31
0.0
  0
LINE
  5
2A8
330
2
100
AcDbEntity
  8
GAIKEI
  6
Continuous
 62
     1
100
AcDbLine
 10
37.04262281172001
 20
8.684820098589142
 30
0.0
 11
37.06160471171997
 21
8.684820098589142
 31
0.0
  0
LINE
  5
2A9
330
2
100
AcDbEntity
  8
GAIKEI
  6
Continuous
 62
     1
100
AcDbLine
 10
37.05751536172002
 20
22.71979409858918
 30
0.0
 11
37.02968331171999
 21
22.71979409858918
 31
0.0
  0
LINE
  5
2AA
330
2
100
AcDbEntity
  8
GAIKEI
  6
Continuous
 62
     1
100
AcDbLine
 10
37.04262281172001
 20
22.11981844858915
 30
0.0
 11
37.06160471171997
 21
22.11981844858915
 31
0.0
  0
POINT
  5
2AB
330
2
100
AcDbEntity
  8
GAIKEI
  6
Continuous
100
AcDbPoint
 10
35.16817451171997
 20
-0.4151552514108233
 30
0.0
  0
POINT
  5
2AC
330
2
100
AcDbEntity
  8
GAIKEI
  6
Continuous
100
AcDbPoint
 10
35.16817451171997
 20
30.08485619858922
 30
0.0
  0
DIMENSION
  5
2AD
330
2
100
AcDbEntity
  8
SUNPO
100
AcDbDimension
  2
*D8
 10
37.41817451171993
 20
38.08455885423788
 30
0.0
 11
44.00150784505326
 21
39.83455885423789
 31
0.0
 70
    33
  1
89
 71
     5
 42
4.449999999999967
  3
STANDARD
100
AcDbAlignedDimension
 13
32.96817451171996
 23
30.08455885423789
 33
0.0
 14
37.41817451171993
 24
30.08455885423789
 34
0.0
1001
ACAD
1000
DSTYLE
1002
{
1070
    40
1040
1.0
1070
   140
1040
2.5
1070
   147
1040
0.5
1070
   172
1070
     1
1070
   279
1070
     0
1070
   288
1070
     0
1002
}
  0
DIMENSION
  5
2BC
330
2
100
AcDbEntity
  8
SUNPO
100
AcDbDimension
  2
*D7
 10
8.098100119241721
 20
38.08455885423788
 30
0.0
 11
-16.95189988075827
 21
39.83455885423789
 31
0.0
 70
    33
  1
1020
 71
     5
 42
50.09999999999999
  3
STANDARD
100
AcDbAlignedDimension
 13
-42.00189988075827
 23
30.08455885423789
 33
0.0
 14
8.098100119241721
 24
30.08455885423789
 34
0.0
1001
ACAD
1000
DSTYLE
1002
{
1070
    40
1040
1.0
1070
   140
1040
2.5
1070
   147
1040
0.5
1070
   172
1070
     1
1070
   279
1070
     0
1070
   288
1070
     0
1002
}
  0
DIMENSION
  5
2C9
330
2
100
AcDbEntity
  8
SUNPO
100
AcDbDimension
  2
*D6
 10
16.10842952125175
 20
30.08484529858922
 30
0.0
 11
14.35842952125174
 21
14.83484529858922
 31
0.0
 70
    33
  1
610
 71
     5
 42
30.50000000000001
  3
STANDARD
100
AcDbAlignedDimension
 13
8.10842952125175
 23
-0.4151547014107848
 33
0.0
 14
8.10842952125175
 24
30.08484529858922
 34
0.0
1001
ACAD
1000
DSTYLE
1002
{
1070
    40
1040
1.0
1070
   140
1040
2.5
1070
   147
1040
0.5
1070
   172
1070
     1
1070
   279
1070
     0
1070
   288
1070
     0
1002
}
  0
LINE
  5
2D6
330
2
100
AcDbEntity
  8
WAKU
 62
     4
100
AcDbLine
 10
66.72978993154528
 20
-24.54138463440771
 30
0.0
 11
66.72978993154528
 21
-59.5413846344077
 31
0.0
  0
TEXT
  5
2D8
330
2
100
AcDbEntity
  8
MOJI1
100
AcDbText
 10
-55.77021006845447
 20
-28.54138463440771
 30
0.0
 40
3.0
  1
電  源
100
AcDbText
  0
TEXT
  5
2D9
330
2
100
AcDbEntity
  8
MOJI1
100
AcDbText
 10
-55.77021006845447
 20
-43.5413846344077
 30
0.0
 40
3.0
  1
画素数
100
AcDbText
  0
TEXT
  5
2DA
330
2
100
AcDbEntity
  8
MOJI1
100
AcDbText
 10
-55.77021006845447
 20
-38.54138463440771
 30
0.0
 40
3.0
  1
パネルサイズ
100
AcDbText
  0
TEXT
  5
2DB
330
2
100
AcDbEntity
  8
MOJI1
100
AcDbText
 10
-55.77021006845447
 20
-33.54138463440771
 30
0.0
 40
3.0
  1
消費電力
100
AcDbText
  0
TEXT
  5
2DC
330
2
100
AcDbEntity
  8
MOJI1
100
AcDbText
 10
-55.77021006845447
 20
-48.5413846344077
 30
0.0
 40
3.0
  1
音声最大出力
100
AcDbText
  0
TEXT
  5
2DD
330
2
100
AcDbEntity
  8
MOJI1
100
AcDbText
 10
-55.77021006845447
 20
-53.5413846344077
 30
0.0
 40
3.0
  1
接続端子
100
AcDbText
  0
LINE
  5
2DE
330
2
100
AcDbEntity
  8
WAKU
 62
     4
100
AcDbLine
 10
-58.2702100684547
 20
-24.54138463440771
 30
0.0
 11
-58.27021006845447
 21
-59.5413846344077
 31
0.0
  0
LINE
  5
2DF
330
2
100
AcDbEntity
  8
WAKU
 62
     4
100
AcDbLine
 10
-18.2702100684547
 20
-24.54138463440771
 30
0.0
 11
-18.2702100684547
 21
-59.5413846344077
 31
0.0
  0
LINE
  5
2E4
330
2
100
AcDbEntity
  8
WAKU
 62
     1
100
AcDbLine
 10
-58.27021006845447
 20
-34.54138463440771
 30
0.0
 11
66.72978993154528
 21
-34.54138463440771
 31
0.0
  0
LINE
  5
2E5
330
2
100
AcDbEntity
  8
WAKU
 62
     1
100
AcDbLine
 10
-58.27021006845447
 20
-44.54138463440769
 30
0.0
 11
66.72978993154528
 21
-44.54138463440769
 31
0.0
  0
LINE
  5
2E6
330
2
100
AcDbEntity
  8
WAKU
 62
     4
100
AcDbLine
 10
-58.27021006845447
 20
-24.54138463440771
 30
0.0
 11
66.72978993154528
 21
-24.54138463440771
 31
0.0
  0
LINE
  5
2E7
330
2
100
AcDbEntity
  8
WAKU
 62
     1
100
AcDbLine
 10
-58.27021006845447
 20
-29.5413846344077
 30
0.0
 11
66.72978993154528
 21
-29.5413846344077
 31
0.0
  0
LINE
  5
2E8
330
2
100
AcDbEntity
  8
WAKU
 62
     1
100
AcDbLine
 10
-58.27021006845447
 20
-39.5413846344077
 30
0.0
 11
66.72978993154528
 21
-39.5413846344077
 31
0.0
  0
LINE
  5
2E9
330
2
100
AcDbEntity
  8
WAKU
 62
     1
100
AcDbLine
 10
-58.27021006845447
 20
-49.5413846344077
 30
0.0
 11
66.72978993154528
 21
-49.5413846344077
 31
0.0
  0
LINE
  5
2EA
330
2
100
AcDbEntity
  8
WAKU
 62
     1
100
AcDbLine
 10
-58.27021006845447
 20
-54.5413846344077
 30
0.0
 11
66.72978993154528
 21
-54.5413846344077
 31
0.0
  0
LINE
  5
2EB
330
2
100
AcDbEntity
  8
WAKU
 62
     4
100
AcDbLine
 10
66.72978993154528
 20
-59.5413846344077
 30
0.0
 11
-58.27021006845447
 21
-59.5413846344077
 31
0.0
  0
TEXT
  5
381
330
2
100
AcDbEntity
  8
MOJI1
100
AcDbText
 10
-15.7702100684547
 20
-58.5413846344077
 30
0.0
 40
3.0
  1
コンポーネントビデオ、シリアル
100
AcDbText
  0
TEXT
  5
382
330
2
100
AcDbEntity
  8
MOJI1
100
AcDbText
 10
-15.7702100684547
 20
-53.5413846344077
 30
0.0
 40
3.0
  1
ビデオ／Ｓビデオ／ＰＣ／外部スピーカ
100
AcDbText
  0
TEXT
  5
383
330
2
100
AcDbEntity
  8
MOJI1
100
AcDbText
 10
-15.7702100684547
 20
-48.5413846344077
 30
0.0
 40
3.0
  1
１６Ｗ（８Ｗ＋８Ｗ）
100
AcDbText
  0
TEXT
  5
384
330
2
100
AcDbEntity
  8
MOJI1
100
AcDbText
 10
-15.7702100684547
 20
-43.54138463440769
 30
0.0
 40
3.0
  1
７８６４３２画素（水平１０２４×垂直７６８）
100
AcDbText
  0
TEXT
  5
385
330
2
100
AcDbEntity
  8
MOJI1
100
AcDbText
 10
-15.7702100684547
 20
-38.54138463440771
 30
0.0
 40
3.0
  1
４２Ｖ型（１６：９）
100
AcDbText
  0
TEXT
  5
386
330
2
100
AcDbEntity
  8
MOJI1
100
AcDbText
 10
-15.7702100684547
 20
-33.54138463440771
 30
0.0
 40
3.0
  1
２９５Ｗ
100
AcDbText
  0
TEXT
  5
387
330
2
100
AcDbEntity
  8
MOJI1
100
AcDbText
 10
-15.7702100684547
 20
-28.54138463440771
 30
0.0
 40
3.0
  1
ＡＣ１００Ｖ　５０Ｈｚ／６０Ｈｚ
100
AcDbText
  0
ENDSEC
  0
SECTION
  2
OBJECTS
  0
DICTIONARY
  5
9
330
0
100
AcDbDictionary
281
     1
  3
ACAD_COLOR
350
29
  3
ACAD_GROUP
350
25
  3
ACAD_LAYOUT
350
D
  3
ACAD_MATERIAL
350
28
  3
ACAD_MLINESTYLE
350
26
  3
ACAD_PLOTSETTINGS
350
27
  3
ACAD_PLOTSTYLENAME
350
8
  3
ACDBHEADERROUNDTRIPXREC
350
389
  3
AcDbVariableDictionary
350
2FF
  0
DICTIONARY
  5
15
330
14
100
AcDbDictionary
280
     1
281
     1
  3
ACAD_LAYERFILTERS
360
16
  0
DICTIONARY
  5
3
330
2
100
AcDbDictionary
280
     1
281
     1
  3
ACAD_LAYOUTSELFREF
360
4
  0
DICTIONARY
  5
F
330
E
100
AcDbDictionary
280
     1
281
     1
  3
ACAD_LAYOUTSELFREF
360
10
  0
DICTIONARY
  5
29
102
{ACAD_REACTORS
330
9
102
}
330
9
100
AcDbDictionary
281
     1
  0
DICTIONARY
  5
25
102
{ACAD_REACTORS
330
9
102
}
330
9
100
AcDbDictionary
281
     1
  0
DICTIONARY
  5
D
102
{ACAD_REACTORS
330
9
102
}
330
9
100
AcDbDictionary
281
     1
  3
Model
350
C
  3
ﾚｲｱｳﾄ1
350
13
  0
DICTIONARY
  5
28
102
{ACAD_REACTORS
330
9
102
}
330
9
100
AcDbDictionary
281
     1
  0
DICTIONARY
  5
26
102
{ACAD_REACTORS
330
9
102
}
330
9
100
AcDbDictionary
281
     1
  3
STANDARD
350
31
  0
DICTIONARY
  5
27
102
{ACAD_REACTORS
330
9
102
}
330
9
100
AcDbDictionary
281
     1
  0
ACDBDICTIONARYWDFLT
  5
8
102
{ACAD_REACTORS
330
9
102
}
330
9
100
AcDbDictionary
281
     1
  3
Normal
350
7
100
AcDbDictionaryWithDefault
340
7
  0
DICTIONARY
  5
389
102
{ACAD_REACTORS
330
9
102
}
330
9
100
AcDbDictionary
281
     1
  3
COLORDICT
350
38B
  3
MATERIALDICT
350
38A
  0
DICTIONARY
  5
2FF
102
{ACAD_REACTORS
330
9
102
}
330
9
100
AcDbDictionary
281
     1
  3
DIMASSOC
350
301
  3
HIDETEXT
350
300
  3
PROJECTNAME
350
302
  0
DICTIONARY
  5
16
102
{ACAD_REACTORS
330
15
102
}
330
15
100
AcDbDictionary
280
     1
281
     1
  0
XRECORD
  5
4
102
{ACAD_REACTORS
330
3
102
}
330
3
100
AcDbXrecord
280
     1
340
2
  0
XRECORD
  5
10
102
{ACAD_REACTORS
330
F
102
}
330
F
100
AcDbXrecord
280
     1
340
E
  0
LAYOUT
  5
C
102
{ACAD_XDICTIONARY
360
38C
102
}
102
{ACAD_REACTORS
330
D
102
}
330
D
100
AcDbPlotSettings
  1

  2
\\Uranus\5FCNM08
  4
A4
  6

 40
5.873749732971191
 41
5.873747825622557
 42
5.873748779296875
 43
5.873748779296875
 44
209.9733276367186
 45
296.9259948730469
 46
5.4
 47
0.0
 48
0.0
 49
0.0
140
0.0
141
0.0
142
1.0
143
1.382669210069356
 70
 11956
 72
     1
 73
     0
 74
     1
  7
tmsacad.ctb
 75
     0
147
0.7232387853272862
148
0.6008072166987404
149
0.0333900090327006
100
AcDbLayout
  1
Model
 70
     1
 71
     0
 10
0.0
 20
0.0
 11
12.0
 21
9.0
 12
0.0
 22
0.0
 32
0.0
 14
0.0
 24
0.0
 34
0.0
 15
0.0
 25
0.0
 35
0.0
146
0.0
 13
0.0
 23
0.0
 33
0.0
 16
1.0
 26
0.0
 36
0.0
 17
0.0
 27
1.0
 37
0.0
 76
     0
330
2
  0
LAYOUT
  5
13
102
{ACAD_XDICTIONARY
360
38E
102
}
102
{ACAD_REACTORS
330
D
102
}
330
D
100
AcDbPlotSettings
  1

  2
C:\Program Files\ACAD2000\plotters\DWF ePlot.pc3
  4

  6

 40
0.0
 41
0.0
 42
0.0
 43
0.0
 44
0.0
 45
0.0
 46
0.0
 47
0.0
 48
0.0
 49
0.0
140
0.0
141
0.0
142
1.0
143
1.0
 70
   688
 72
     0
 73
     0
 74
     5
  7
tmsacad.ctb
 75
    16
147
1.0
148
0.0
149
0.0
100
AcDbLayout
  1
ﾚｲｱｳﾄ1
 70
     1
 71
     1
 10
0.0
 20
0.0
 11
12.0
 21
9.0
 12
0.0
 22
0.0
 32
0.0
 14
1.000000000000000E+20
 24
1.000000000000000E+20
 34
1.000000000000000E+20
 15
-1.000000000000000E+20
 25
-1.000000000000000E+20
 35
-1.000000000000000E+20
146
0.0
 13
0.0
 23
0.0
 33
0.0
 16
1.0
 26
0.0
 36
0.0
 17
0.0
 27
1.0
 37
0.0
 76
     0
330
E
  0
MLINESTYLE
  5
31
102
{ACAD_REACTORS
330
26
102
}
330
26
100
AcDbMlineStyle
  2
STANDARD
 70
     0
  3

 62
   256
 51
90.0
 52
90.0
 71
     2
 49
0.5
 62
   256
  6
BYLAYER
 49
-0.5
 62
   256
  6
BYLAYER
  0
ACDBPLACEHOLDER
  5
7
102
{ACAD_REACTORS
330
8
102
}
330
8
  0
XRECORD
  5
38B
102
{ACAD_REACTORS
330
389
102
}
330
389
100
AcDbXrecord
280
     1
340
29
  0
XRECORD
  5
38A
102
{ACAD_REACTORS
330
389
102
}
330
389
100
AcDbXrecord
280
     1
340
28
  0
DICTIONARYVAR
  5
301
102
{ACAD_REACTORS
330
2FF
102
}
330
2FF
100
DictionaryVariables
280
     0
  1
1
  0
DICTIONARYVAR
  5
300
102
{ACAD_REACTORS
330
2FF
102
}
330
2FF
100
DictionaryVariables
280
     0
  1
1
  0
DICTIONARYVAR
  5
302
102
{ACAD_REACTORS
330
2FF
102
}
330
2FF
100
DictionaryVariables
280
     0
  1

  0
DICTIONARY
  5
38C
330
C
100
AcDbDictionary
280
     1
281
     1
  3
ACAD_XREC_ROUNDTRIP
360
38D
  0
DICTIONARY
  5
38E
330
13
100
AcDbDictionary
280
     1
281
     1
  3
ACAD_XREC_ROUNDTRIP
360
38F
  0
XRECORD
  5
38D
102
{ACAD_REACTORS
330
38C
102
}
330
38C
100
AcDbXrecord
280
     1
102
SHADEPLOT
 70
     0
102
SHADEPLOTRESLEVEL
 70
     2
102
SHADEPLOTCUSTOMDPI
 70
   300
  0
XRECORD
  5
38F
102
{ACAD_REACTORS
330
38E
102
}
330
38E
100
AcDbXrecord
280
     1
102
SHADEPLOT
 70
     0
102
SHADEPLOTRESLEVEL
 70
     2
102
SHADEPLOTCUSTOMDPI
 70
   300
  0
ENDSEC
  0
EOF
