  0
SECTION
  2
HEADER
  9
$ACADVER
  1
AC1015
  9
$ACADMAINTVER
 70
    20
  9
$DWGCODEPAGE
  3
ANSI_932
  9
$INSBASE
 10
0.0
 20
246.4992141396417
 30
0.0
  9
$EXTMIN
 10
1.9765862576578
 20
131.4387719625492
 30
-0.0015258207003583
  9
$EXTMAX
 10
127.0375023864917
 20
244.5548720645111
 30
0.0000000349246037
  9
$LIMMIN
 10
-1101.784450318844
 20
-1579.160531687244
  9
$LIMMAX
 10
-508.2420711400537
 20
-1161.440814074914
  9
$ORTHOMODE
 70
     0
  9
$REGENMODE
 70
     1
  9
$FILLMODE
 70
     1
  9
$QTEXTMODE
 70
     0
  9
$MIRRTEXT
 70
     1
  9
$LTSCALE
 40
1.0
  9
$ATTMODE
 70
     1
  9
$TEXTSIZE
 40
3.0
  9
$TRACEWID
 40
0.5
  9
$TEXTSTYLE
  7
STANDARD
  9
$CLAYER
  8
0
  9
$CELTYPE
  6
BYLAYER
  9
$CECOLOR
 62
   256
  9
$CELTSCALE
 40
1.0
  9
$DISPSILH
 70
     0
  9
$DIMSCALE
 40
1.0
  9
$DIMASZ
 40
2.0
  9
$DIMEXO
 40
2.0
  9
$DIMDLI
 40
8.0
  9
$DIMRND
 40
0.0
  9
$DIMDLE
 40
0.0
  9
$DIMEXE
 40
2.0
  9
$DIMTP
 40
0.0
  9
$DIMTM
 40
0.0
  9
$DIMTXT
 40
2.5
  9
$DIMCEN
 40
0.0
  9
$DIMTSZ
 40
0.0
  9
$DIMTOL
 70
     0
  9
$DIMLIM
 70
     0
  9
$DIMTIH
 70
     0
  9
$DIMTOH
 70
     0
  9
$DIMSE1
 70
     0
  9
$DIMSE2
 70
     0
  9
$DIMTAD
 70
     3
  9
$DIMZIN
 70
     0
  9
$DIMBLK
  1

  9
$DIMASO
 70
     1
  9
$DIMSHO
 70
     1
  9
$DIMPOST
  1

  9
$DIMAPOST
  1

  9
$DIMALT
 70
     0
  9
$DIMALTD
 70
     2
  9
$DIMALTF
 40
25.4
  9
$DIMLFAC
 40
1.0
  9
$DIMTOFL
 70
     1
  9
$DIMTVP
 40
0.0
  9
$DIMTIX
 70
     0
  9
$DIMSOXD
 70
     0
  9
$DIMSAH
 70
     1
  9
$DIMBLK1
  1
OPEN30
  9
$DIMBLK2
  1
OPEN30
  9
$DIMSTYLE
  2
STANDARD
  9
$DIMCLRD
 70
     0
  9
$DIMCLRE
 70
     0
  9
$DIMCLRT
 70
     0
  9
$DIMTFAC
 40
1.0
  9
$DIMGAP
 40
0.5
  9
$DIMJUST
 70
     0
  9
$DIMSD1
 70
     0
  9
$DIMSD2
 70
     0
  9
$DIMTOLJ
 70
     1
  9
$DIMTZIN
 70
     0
  9
$DIMALTZ
 70
     0
  9
$DIMALTTZ
 70
     0
  9
$DIMUPT
 70
     0
  9
$DIMDEC
 70
     4
  9
$DIMTDEC
 70
     4
  9
$DIMALTU
 70
     2
  9
$DIMALTTD
 70
     2
  9
$DIMTXSTY
  7
STANDARD
  9
$DIMAUNIT
 70
     0
  9
$DIMADEC
 70
     0
  9
$DIMALTRND
 40
0.0
  9
$DIMAZIN
 70
     0
  9
$DIMDSEP
 70
    46
  9
$DIMATFIT
 70
     3
  9
$DIMFRAC
 70
     0
  9
$DIMLDRBLK
  1
OPEN30
  9
$DIMLUNIT
 70
     2
  9
$DIMLWD
 70
    -2
  9
$DIMLWE
 70
    -2
  9
$DIMTMOVE
 70
     0
  9
$LUNITS
 70
     2
  9
$LUPREC
 70
     4
  9
$SKETCHINC
 40
0.1
  9
$FILLETRAD
 40
0.0
  9
$AUNITS
 70
     0
  9
$AUPREC
 70
     0
  9
$MENU
  1
ACAD
  9
$ELEVATION
 40
0.0
  9
$PELEVATION
 40
0.0
  9
$THICKNESS
 40
0.0
  9
$LIMCHECK
 70
     0
  9
$CHAMFERA
 40
0.0
  9
$CHAMFERB
 40
0.0
  9
$CHAMFERC
 40
0.0
  9
$CHAMFERD
 40
0.0
  9
$SKPOLY
 70
     0
  9
$TDCREATE
 40
2451815.190532581
  9
$TDUCREATE
 40
2451814.815532581
  9
$TDUPDATE
 40
2453731.725071968
  9
$TDUUPDATE
 40
2453731.350071968
  9
$TDINDWG
 40
0.4819818056
  9
$TDUSRTIMER
 40
0.4819818056
  9
$USRTIMER
 70
     1
  9
$ANGBASE
 50
0.0
  9
$ANGDIR
 70
     0
  9
$PDMODE
 70
     0
  9
$PDSIZE
 40
0.0
  9
$PLINEWID
 40
0.0
  9
$SPLFRAME
 70
     0
  9
$SPLINETYPE
 70
     6
  9
$SPLINESEGS
 70
     8
  9
$HANDSEED
  5
269
  9
$SURFTAB1
 70
     6
  9
$SURFTAB2
 70
     6
  9
$SURFTYPE
 70
     6
  9
$SURFU
 70
     6
  9
$SURFV
 70
     6
  9
$UCSBASE
  2

  9
$UCSNAME
  2

  9
$UCSORG
 10
0.0
 20
0.0
 30
0.0
  9
$UCSXDIR
 10
1.0
 20
0.0
 30
0.0
  9
$UCSYDIR
 10
0.0
 20
1.0
 30
0.0
  9
$UCSORTHOREF
  2

  9
$UCSORTHOVIEW
 70
     0
  9
$UCSORGTOP
 10
0.0
 20
0.0
 30
0.0
  9
$UCSORGBOTTOM
 10
0.0
 20
0.0
 30
0.0
  9
$UCSORGLEFT
 10
0.0
 20
0.0
 30
0.0
  9
$UCSORGRIGHT
 10
0.0
 20
0.0
 30
0.0
  9
$UCSORGFRONT
 10
0.0
 20
0.0
 30
0.0
  9
$UCSORGBACK
 10
0.0
 20
0.0
 30
0.0
  9
$PUCSBASE
  2

  9
$PUCSNAME
  2

  9
$PUCSORG
 10
0.0
 20
0.0
 30
0.0
  9
$PUCSXDIR
 10
1.0
 20
0.0
 30
0.0
  9
$PUCSYDIR
 10
0.0
 20
1.0
 30
0.0
  9
$PUCSORTHOREF
  2

  9
$PUCSORTHOVIEW
 70
     0
  9
$PUCSORGTOP
 10
0.0
 20
0.0
 30
0.0
  9
$PUCSORGBOTTOM
 10
0.0
 20
0.0
 30
0.0
  9
$PUCSORGLEFT
 10
0.0
 20
0.0
 30
0.0
  9
$PUCSORGRIGHT
 10
0.0
 20
0.0
 30
0.0
  9
$PUCSORGFRONT
 10
0.0
 20
0.0
 30
0.0
  9
$PUCSORGBACK
 10
0.0
 20
0.0
 30
0.0
  9
$USERI1
 70
     0
  9
$USERI2
 70
     0
  9
$USERI3
 70
     0
  9
$USERI4
 70
     0
  9
$USERI5
 70
     0
  9
$USERR1
 40
0.0
  9
$USERR2
 40
0.0
  9
$USERR3
 40
0.0
  9
$USERR4
 40
0.0
  9
$USERR5
 40
0.0
  9
$WORLDVIEW
 70
     1
  9
$SHADEDGE
 70
     3
  9
$SHADEDIF
 70
    70
  9
$TILEMODE
 70
     1
  9
$MAXACTVP
 70
    48
  9
$PINSBASE
 10
0.0
 20
0.0
 30
0.0
  9
$PLIMCHECK
 70
     0
  9
$PEXTMIN
 10
1.000000000000000E+20
 20
1.000000000000000E+20
 30
1.000000000000000E+20
  9
$PEXTMAX
 10
-1.000000000000000E+20
 20
-1.000000000000000E+20
 30
-1.000000000000000E+20
  9
$PLIMMIN
 10
0.0
 20
0.0
  9
$PLIMMAX
 10
12.0
 20
9.0
  9
$UNITMODE
 70
     0
  9
$VISRETAIN
 70
     1
  9
$PLINEGEN
 70
     0
  9
$PSLTSCALE
 70
     1
  9
$TREEDEPTH
 70
  3020
  9
$CMLSTYLE
  2
STANDARD
  9
$CMLJUST
 70
     0
  9
$CMLSCALE
 40
1.0
  9
$PROXYGRAPHICS
 70
     1
  9
$MEASUREMENT
 70
     0
  9
$CELWEIGHT
370
    -1
  9
$ENDCAPS
280
     0
  9
$JOINSTYLE
280
     0
  9
$LWDISPLAY
290
     0
  9
$INSUNITS
 70
     0
  9
$HYPERLINKBASE
  1

  9
$STYLESHEET
  1

  9
$XEDIT
290
     1
  9
$CEPSNTYPE
380
     0
  9
$PSTYLEMODE
290
     1
  9
$FINGERPRINTGUID
  2
{1754B7AB-9B3C-11D4-AD9E-00104B1004F2}
  9
$VERSIONGUID
  2
{204A88FC-00DD-4A53-B88A-9A7EE43EB6B6}
  9
$EXTNAMES
290
     1
  9
$PSVPSCALE
 40
0.0
  9
$OLESTARTUP
290
     0
  0
ENDSEC
  0
SECTION
  2
CLASSES
  0
CLASS
  1
ACDBDICTIONARYWDFLT
  2
AcDbDictionaryWithDefault
  3
ObjectDBX Classes
 90
        0
280
     0
281
     0
  0
CLASS
  1
ACDBPLACEHOLDER
  2
AcDbPlaceHolder
  3
ObjectDBX Classes
 90
        0
280
     0
281
     0
  0
CLASS
  1
LAYOUT
  2
AcDbLayout
  3
ObjectDBX Classes
 90
        0
280
     0
281
     0
  0
CLASS
  1
DICTIONARYVAR
  2
AcDbDictionaryVar
  3
ObjectDBX Classes
 90
        0
280
     0
281
     0
  0
ENDSEC
  0
SECTION
  2
TABLES
  0
TABLE
  2
VPORT
  5
1F
330
0
100
AcDbSymbolTable
 70
     2
  0
VPORT
  5
261
330
1F
100
AcDbSymbolTableRecord
100
AcDbViewportTableRecord
  2
*Active
 70
     0
 10
0.0
 20
0.0
 11
1.0
 21
1.0
 12
64.50704432207476
 22
187.9968220135301
 13
0.0
 23
0.0
 14
1.0
 24
1.0
 15
0.0
 25
0.0
 16
0.0
 26
0.0
 36
1.0
 17
0.0
 27
0.0
 37
0.0
 40
114.0856666742643
 41
1.589413447782546
 42
50.0
 43
0.0
 44
0.0
 50
0.0
 51
0.0
 71
     0
 72
  1000
 73
     1
 74
     0
 75
     0
 76
     1
 77
     0
 78
     0
281
     0
 65
     1
110
0.0
120
0.0
130
0.0
111
1.0
121
0.0
131
0.0
112
0.0
122
1.0
132
0.0
 79
     0
146
0.0
  0
ENDTAB
  0
TABLE
  2
LTYPE
  5
1A
330
0
100
AcDbSymbolTable
 70
     1
  0
LTYPE
  5
1B
330
1A
100
AcDbSymbolTableRecord
100
AcDbLinetypeTableRecord
  2
BYBLOCK
 70
     0
  3

 72
    65
 73
     0
 40
0.0
  0
LTYPE
  5
1C
330
1A
100
AcDbSymbolTableRecord
100
AcDbLinetypeTableRecord
  2
BYLAYER
 70
     0
  3

 72
    65
 73
     0
 40
0.0
  0
LTYPE
  5
A
330
1A
100
AcDbSymbolTableRecord
100
AcDbLinetypeTableRecord
  2
CONTINUOUS
 70
     0
  3
Solid line
 72
    65
 73
     0
 40
0.0
  0
ENDTAB
  0
TABLE
  2
LAYER
  5
14
102
{ACAD_XDICTIONARY
360
15
102
}
330
0
100
AcDbSymbolTable
 70
     7
  0
LAYER
  5
6
330
14
100
AcDbSymbolTableRecord
100
AcDbLayerTableRecord
  2
0
 70
     0
 62
     7
  6
CONTINUOUS
370
    -3
390
7
  0
LAYER
  5
1E6
330
14
100
AcDbSymbolTableRecord
100
AcDbLayerTableRecord
  2
DEFPOINTS
 70
     0
 62
     7
  6
CONTINUOUS
290
     0
370
    -3
390
7
  0
LAYER
  5
206
330
14
100
AcDbSymbolTableRecord
100
AcDbLayerTableRecord
  2
WAKU
 70
     0
 62
     4
  6
CONTINUOUS
370
    -3
390
7
  0
LAYER
  5
31
330
14
100
AcDbSymbolTableRecord
100
AcDbLayerTableRecord
  2
MOJI1
 70
     0
 62
     2
  6
CONTINUOUS
370
    -3
390
7
  0
LAYER
  5
37
330
14
100
AcDbSymbolTableRecord
100
AcDbLayerTableRecord
  2
GAIKEI
 70
     0
 62
     7
  6
CONTINUOUS
370
    -3
390
7
  0
LAYER
  5
35
330
14
100
AcDbSymbolTableRecord
100
AcDbLayerTableRecord
  2
TOUROKU
 70
     0
 62
     1
  6
CONTINUOUS
370
    -3
390
7
  0
LAYER
  5
1DA
330
14
100
AcDbSymbolTableRecord
100
AcDbLayerTableRecord
  2
SUNPO
 70
     0
 62
     3
  6
CONTINUOUS
370
    -3
390
7
  0
ENDTAB
  0
TABLE
  2
STYLE
  5
17
330
0
100
AcDbSymbolTable
 70
     1
  0
STYLE
  5
18
330
17
100
AcDbSymbolTableRecord
100
AcDbTextStyleTableRecord
  2
STANDARD
 70
     0
 40
0.0
 41
1.0
 50
0.0
 71
     0
 42
3.0
  3
MONOTXT.shx
  4
BIGFONT.shx
  0
ENDTAB
  0
TABLE
  2
VIEW
  5
1D
330
0
100
AcDbSymbolTable
 70
     0
  0
ENDTAB
  0
TABLE
  2
UCS
  5
1E
330
0
100
AcDbSymbolTable
 70
     0
  0
ENDTAB
  0
TABLE
  2
APPID
  5
21
330
0
100
AcDbSymbolTable
 70
     1
  0
APPID
  5
22
330
21
100
AcDbSymbolTableRecord
100
AcDbRegAppTableRecord
  2
ACAD
 70
     0
  0
ENDTAB
  0
TABLE
  2
DIMSTYLE
  5
23
330
0
100
AcDbSymbolTable
 70
     1
100
AcDbDimStyleTable
 71
     1
340
24
  0
DIMSTYLE
105
24
102
{ACAD_REACTORS
330
1F7
330
1EA
330
1D9
102
}
330
23
100
AcDbSymbolTableRecord
100
AcDbDimStyleTableRecord
  2
STANDARD
 70
     0
 40
0.0
 41
2.0
 42
2.0
 43
8.0
 44
2.0
 73
     0
 74
     0
 77
     3
140
3.0
141
0.0
173
     1
279
     2
288
     1
340
18
341
25
343
25
344
25
  0
ENDTAB
  0
TABLE
  2
BLOCK_RECORD
  5
1
330
0
100
AcDbSymbolTable
 70
     7
  0
BLOCK_RECORD
  5
2
102
{ACAD_XDICTIONARY
360
3
102
}
330
1
100
AcDbSymbolTableRecord
100
AcDbBlockTableRecord
  2
*MODEL_SPACE
340
C
  0
BLOCK_RECORD
  5
E
102
{ACAD_XDICTIONARY
360
F
102
}
330
1
100
AcDbSymbolTableRecord
100
AcDbBlockTableRecord
  2
*PAPER_SPACE
340
13
  0
BLOCK_RECORD
  5
25
330
1
100
AcDbSymbolTableRecord
100
AcDbBlockTableRecord
  2
_OPEN30
340
0
102
{BLKREFS
331
1FD
331
1FE
331
1F0
331
1F1
331
1E2
331
1E3
331
23E
331
23F
331
24A
331
24B
331
258
331
259
102
}
  0
BLOCK_RECORD
  5
23A
330
1
100
AcDbSymbolTableRecord
100
AcDbBlockTableRecord
  2
*D4
340
0
  0
BLOCK_RECORD
  5
246
330
1
100
AcDbSymbolTableRecord
100
AcDbBlockTableRecord
  2
*D5
340
0
  0
BLOCK_RECORD
  5
252
330
1
100
AcDbSymbolTableRecord
100
AcDbBlockTableRecord
  2
*D6
340
0
  0
ENDTAB
  0
ENDSEC
  0
SECTION
  2
BLOCKS
  0
BLOCK
  5
5
330
2
100
AcDbEntity
  8
0
100
AcDbBlockBegin
  2
*MODEL_SPACE
 70
     0
 10
0.0
 20
0.0
 30
0.0
  3
*MODEL_SPACE
  1

  0
ENDBLK
  5
B
330
2
100
AcDbEntity
  8
0
100
AcDbBlockEnd
  0
BLOCK
  5
11
330
E
100
AcDbEntity
 67
     1
  8
0
100
AcDbBlockBegin
  2
*PAPER_SPACE
 70
     0
 10
0.0
 20
0.0
 30
0.0
  3
*PAPER_SPACE
  1

  0
ENDBLK
  5
12
330
E
100
AcDbEntity
 67
     1
  8
0
100
AcDbBlockEnd
  0
BLOCK
  5
26
330
25
100
AcDbEntity
  8
0
100
AcDbBlockBegin
  2
_OPEN30
 70
     0
 10
0.0
 20
0.0
 30
0.0
  3
_OPEN30
  1

  0
LINE
  5
27
330
25
100
AcDbEntity
  8
0
  6
ByBlock
 62
     0
100
AcDbLine
 10
-1.0
 20
0.26794919
 30
0.0
 11
0.0
 21
0.0
 31
0.0
  0
LINE
  5
28
330
25
100
AcDbEntity
  8
0
  6
ByBlock
 62
     0
100
AcDbLine
 10
0.0
 20
0.0
 30
0.0
 11
-1.0
 21
-0.26794919
 31
0.0
  0
LINE
  5
29
330
25
100
AcDbEntity
  8
0
  6
ByBlock
 62
     0
100
AcDbLine
 10
0.0
 20
0.0
 30
0.0
 11
-1.0
 21
0.0
 31
0.0
  0
ENDBLK
  5
2A
330
25
100
AcDbEntity
  8
0
100
AcDbBlockEnd
  0
BLOCK
  5
244
330
23A
100
AcDbEntity
  8
0
100
AcDbBlockBegin
  2
*D4
 70
     1
 10
0.0
 20
0.0
 30
0.0
  3
*D4
  1

  0
LINE
  5
23B
330
23A
100
AcDbEntity
  8
SUNPO
 62
     0
370
    -2
100
AcDbLine
 10
77.19074664663849
 20
184.3544154517459
 30
0.0
 11
85.19074664663849
 21
184.3544154517459
 31
0.0
  0
LINE
  5
23C
330
23A
100
AcDbEntity
  8
SUNPO
 62
     0
370
    -2
100
AcDbLine
 10
77.19074664663849
 20
214.8544154517459
 30
0.0
 11
85.19074664663849
 21
214.8544154517459
 31
0.0
  0
LINE
  5
23D
330
23A
100
AcDbEntity
  8
SUNPO
 62
     0
370
    -2
100
AcDbLine
 10
83.19074664663849
 20
186.3544154517459
 30
0.0
 11
83.19074664663849
 21
212.8544154517459
 31
0.0
  0
INSERT
  5
23E
330
23A
100
AcDbEntity
  8
SUNPO
 62
     0
370
    -2
100
AcDbBlockReference
  2
_OPEN30
 10
83.19074664663849
 20
184.3544154517459
 30
0.0
 41
2.0
 42
2.0
 43
2.0
 50
270.0
  0
INSERT
  5
23F
330
23A
100
AcDbEntity
  8
SUNPO
 62
     0
370
    -2
100
AcDbBlockReference
  2
_OPEN30
 10
83.19074664663849
 20
214.8544154517459
 30
0.0
 41
2.0
 42
2.0
 43
2.0
 50
90.0
  0
MTEXT
  5
240
330
23A
100
AcDbEntity
  8
SUNPO
 62
     0
100
AcDbMText
 10
81.44074664663845
 20
199.6044154517459
 30
0.0
 40
2.5
 41
0.0
 71
     5
 72
     1
  1
\A1;610
 11
0.0000000000000001
 21
1.0
 31
0.0
 73
     1
 44
1.0
1001
ACAD
1000
MTEXTBEGIN
1070
    73
1070
     1
1070
    44
1040
1.0
1070
    74
1070
     0
1000
MTEXTEND
  0
POINT
  5
241
330
23A
100
AcDbEntity
  8
DEFPOINTS
 62
     0
100
AcDbPoint
 10
75.19074664663849
 20
184.3544154517459
 30
0.0
  0
POINT
  5
242
330
23A
100
AcDbEntity
  8
DEFPOINTS
 62
     0
100
AcDbPoint
 10
75.19074664663849
 20
214.8544154517459
 30
0.0
  0
POINT
  5
243
330
23A
100
AcDbEntity
  8
DEFPOINTS
 62
     0
100
AcDbPoint
 10
83.19074664663849
 20
214.8544154517459
 30
0.0
  0
ENDBLK
  5
245
330
23A
100
AcDbEntity
  8
0
100
AcDbBlockEnd
  0
BLOCK
  5
250
330
246
100
AcDbEntity
  8
0
100
AcDbBlockBegin
  2
*D5
 70
     1
 10
0.0
 20
0.0
 30
0.0
  3
*D5
  1

  0
LINE
  5
247
330
246
100
AcDbEntity
  8
SUNPO
 62
     0
370
    -2
100
AcDbLine
 10
25.08041724462847
 20
216.8541290073946
 30
0.0
 11
25.08041724462847
 21
224.8541290073946
 31
0.0
  0
LINE
  5
248
330
246
100
AcDbEntity
  8
SUNPO
 62
     0
370
    -2
100
AcDbLine
 10
75.18041724462844
 20
216.8541290073946
 30
0.0
 11
75.18041724462844
 21
224.8541290073946
 31
0.0
  0
LINE
  5
249
330
246
100
AcDbEntity
  8
SUNPO
 62
     0
370
    -2
100
AcDbLine
 10
27.08041724462847
 20
222.8541290073946
 30
0.0
 11
73.18041724462844
 21
222.8541290073946
 31
0.0
  0
INSERT
  5
24A
330
246
100
AcDbEntity
  8
SUNPO
 62
     0
370
    -2
100
AcDbBlockReference
  2
_OPEN30
 10
25.08041724462847
 20
222.8541290073946
 30
0.0
 41
2.0
 42
2.0
 43
2.0
 50
180.0
  0
INSERT
  5
24B
330
246
100
AcDbEntity
  8
SUNPO
 62
     0
370
    -2
100
AcDbBlockReference
  2
_OPEN30
 10
75.18041724462844
 20
222.8541290073946
 30
0.0
 41
2.0
 42
2.0
 43
2.0
  0
MTEXT
  5
24C
330
246
100
AcDbEntity
  8
SUNPO
 62
     0
100
AcDbMText
 10
50.13041724462845
 20
224.6041290073946
 30
0.0
 40
2.5
 41
0.0
 71
     5
 72
     1
  1
\A1;1020
 73
     1
 44
1.0
1001
ACAD
1000
MTEXTBEGIN
1070
    73
1070
     1
1070
    44
1040
1.0
1070
    74
1070
     0
1000
MTEXTEND
  0
POINT
  5
24D
330
246
100
AcDbEntity
  8
DEFPOINTS
 62
     0
100
AcDbPoint
 10
25.08041724462847
 20
214.8541290073946
 30
0.0
  0
POINT
  5
24E
330
246
100
AcDbEntity
  8
DEFPOINTS
 62
     0
100
AcDbPoint
 10
75.18041724462844
 20
214.8541290073946
 30
0.0
  0
POINT
  5
24F
330
246
100
AcDbEntity
  8
DEFPOINTS
 62
     0
100
AcDbPoint
 10
75.18041724462844
 20
222.8541290073946
 30
0.0
  0
ENDBLK
  5
251
330
246
100
AcDbEntity
  8
0
100
AcDbBlockEnd
  0
BLOCK
  5
25E
330
252
100
AcDbEntity
  8
0
100
AcDbBlockBegin
  2
*D6
 70
     1
 10
0.0
 20
0.0
 30
0.0
  3
*D6
  1

  0
LINE
  5
253
330
252
100
AcDbEntity
  8
SUNPO
 62
     0
370
    -2
100
AcDbLine
 10
99.28819302411236
 20
216.8541290073946
 30
0.0
 11
99.28819302411236
 21
224.8541290073946
 31
0.0
  0
LINE
  5
254
330
252
100
AcDbEntity
  8
SUNPO
 62
     0
370
    -2
100
AcDbLine
 10
103.7381930241123
 20
216.8541290073946
 30
0.0
 11
103.7381930241123
 21
224.8541290073946
 31
0.0
  0
LINE
  5
255
330
252
100
AcDbEntity
  8
SUNPO
 62
     0
370
    -2
100
AcDbLine
 10
97.28819302411237
 20
222.8541290073946
 30
0.0
 11
95.28819302411235
 21
222.8541290073946
 31
0.0
  0
LINE
  5
256
330
252
100
AcDbEntity
  8
SUNPO
 62
     0
370
    -2
100
AcDbLine
 10
105.7381930241123
 20
222.8541290073946
 30
0.0
 11
112.9048596907789
 21
222.8541290073946
 31
0.0
  0
LINE
  5
257
330
252
100
AcDbEntity
  8
SUNPO
 62
     0
370
    -2
100
AcDbLine
 10
99.28819302411236
 20
222.8541290073946
 30
0.0
 11
103.7381930241123
 21
222.8541290073946
 31
0.0
  0
INSERT
  5
258
330
252
100
AcDbEntity
  8
SUNPO
 62
     0
370
    -2
100
AcDbBlockReference
  2
_OPEN30
 10
99.28819302411236
 20
222.8541290073946
 30
0.0
 41
2.0
 42
2.0
 43
2.0
  0
INSERT
  5
259
330
252
100
AcDbEntity
  8
SUNPO
 62
     0
370
    -2
100
AcDbBlockReference
  2
_OPEN30
 10
103.7381930241123
 20
222.8541290073946
 30
0.0
 41
2.0
 42
2.0
 43
2.0
 50
180.0
  0
MTEXT
  5
25A
330
252
100
AcDbEntity
  8
SUNPO
 62
     0
100
AcDbMText
 10
110.3215263574456
 20
224.6041290073946
 30
0.0
 40
2.5
 41
0.0
 71
     5
 72
     1
  1
\A1;89
 73
     1
 44
1.0
1001
ACAD
1000
MTEXTBEGIN
1070
    73
1070
     1
1070
    44
1040
1.0
1070
    74
1070
     0
1000
MTEXTEND
  0
POINT
  5
25B
330
252
100
AcDbEntity
  8
DEFPOINTS
 62
     0
100
AcDbPoint
 10
99.28819302411236
 20
214.8541290073946
 30
0.0
  0
POINT
  5
25C
330
252
100
AcDbEntity
  8
DEFPOINTS
 62
     0
100
AcDbPoint
 10
103.7381930241123
 20
214.8541290073946
 30
0.0
  0
POINT
  5
25D
330
252
100
AcDbEntity
  8
DEFPOINTS
 62
     0
100
AcDbPoint
 10
103.7381930241123
 20
222.8541290073946
 30
0.0
  0
ENDBLK
  5
25F
330
252
100
AcDbEntity
  8
0
100
AcDbBlockEnd
  0
ENDSEC
  0
SECTION
  2
ENTITIES
  0
TEXT
  5
33
330
2
100
AcDbEntity
  8
MOJI1
100
AcDbText
 10
28.99999999999977
 20
240.4992141396418
 30
0.0
 40
4.0
  1
プログレッシブワイドプラズマディスプレイ
100
AcDbText
  0
TEXT
  5
34
330
2
100
AcDbEntity
  8
TOUROKU
100
AcDbText
 10
106.1999500329273
 20
234.4992141396418
 30
0.0
 40
2.0
  1
ＴＨ４２ＰＷＤ８Ｋ
 72
     2
 11
126.9999500329273
 21
234.4992141396418
 31
0.0
100
AcDbText
  0
LINE
  5
36
330
2
100
AcDbEntity
  8
GAIKEI
  6
Continuous
 62
     1
100
AcDbLine
 10
26.02412829462841
 20
213.3544154517459
 30
0.0
 11
26.02412829462841
 21
185.8544154517459
 31
0.0
  0
LINE
  5
38
330
2
100
AcDbEntity
  8
GAIKEI
  6
Continuous
 62
     1
100
AcDbLine
 10
25.95041724462848
 20
213.3544154517459
 30
0.0
 11
25.95041724462848
 21
185.8544154517459
 31
0.0
  0
LINE
  5
39
330
2
100
AcDbEntity
  8
GAIKEI
  6
Continuous
 62
     1
100
AcDbLine
 10
26.03041724462841
 20
213.3544154517459
 30
0.0
 11
26.03041724462841
 21
185.8544154517459
 31
0.0
  0
LINE
  5
3A
330
2
100
AcDbEntity
  8
GAIKEI
  6
Continuous
 62
     1
100
AcDbLine
 10
25.01541724462842
 20
214.2694154517459
 30
0.0
 11
25.01541724462842
 21
184.9394154517458
 31
0.0
  0
LINE
  5
3B
330
2
100
AcDbEntity
  8
GAIKEI
  6
Continuous
 62
     1
100
AcDbLine
 10
50.13041724462843
 20
213.4607044017459
 30
0.0
 11
26.13041724462843
 21
213.4607044017459
 31
0.0
  0
LINE
  5
3C
330
2
100
AcDbEntity
  8
GAIKEI
  6
Continuous
 62
     1
100
AcDbLine
 10
26.13041724462843
 20
213.5344154517459
 30
0.0
 11
50.13041724462843
 21
213.5344154517459
 31
0.0
  0
LINE
  5
3D
330
2
100
AcDbEntity
  8
GAIKEI
  6
Continuous
 62
     1
100
AcDbLine
 10
26.13041724462843
 20
213.4544154517459
 30
0.0
 11
50.13041724462843
 21
213.4544154517459
 31
0.0
  0
LINE
  5
3E
330
2
100
AcDbEntity
  8
GAIKEI
  6
Continuous
 62
     1
100
AcDbLine
 10
50.13041724462843
 20
214.4694154517459
 30
0.0
 11
25.21541724462847
 21
214.4694154517459
 31
0.0
  0
LINE
  5
3F
330
2
100
AcDbEntity
  8
GAIKEI
  6
Continuous
 62
     1
100
AcDbLine
 10
24.93654299462841
 20
214.7482897017459
 30
0.0
 11
75.32429149462846
 21
214.7482897017459
 31
0.0
  0
LINE
  5
40
330
2
100
AcDbEntity
  8
GAIKEI
  6
Continuous
100
AcDbLine
 10
24.63041724462843
 20
184.5544154517459
 30
0.0
 11
24.63041724462843
 21
214.6544154517459
 31
0.0
  0
LINE
  5
41
330
2
100
AcDbEntity
  8
GAIKEI
  6
Continuous
 62
     1
100
AcDbLine
 10
24.73654299462848
 20
214.5482897017459
 30
0.0
 11
24.73654299462848
 21
184.6605412017458
 31
0.0
  0
ARC
  5
42
330
2
100
AcDbEntity
  8
GAIKEI
  6
Continuous
 62
     1
100
AcDbCircle
 10
24.93654299462841
 20
214.5482897017459
 30
0.0
 40
0.2
100
AcDbArc
 50
90.0
 51
180.0
  0
ARC
  5
43
330
2
100
AcDbEntity
  8
GAIKEI
  6
Continuous
 62
     1
100
AcDbCircle
 10
25.21541724462847
 20
214.2694154517459
 30
0.0
 40
0.2
100
AcDbArc
 50
90.0
 51
180.0
  0
ARC
  5
44
330
2
100
AcDbEntity
  8
GAIKEI
  6
Continuous
100
AcDbCircle
 10
24.83041724462848
 20
214.6544154517459
 30
0.0
 40
0.2
100
AcDbArc
 50
90.0
 51
180.0
  0
ARC
  5
45
330
2
100
AcDbEntity
  8
GAIKEI
  6
Continuous
 62
     1
100
AcDbCircle
 10
26.13041724462843
 20
213.3544154517459
 30
0.0
 40
0.1
100
AcDbArc
 50
90.0
 51
180.0
  0
ARC
  5
46
330
2
100
AcDbEntity
  8
GAIKEI
  6
Continuous
 62
     1
100
AcDbCircle
 10
26.13041724462843
 20
213.3544154517459
 30
0.0
 40
0.18
100
AcDbArc
 50
90.0
 51
180.0
  0
ARC
  5
47
330
2
100
AcDbEntity
  8
GAIKEI
  6
Continuous
 62
     1
100
AcDbCircle
 10
26.13041724462843
 20
213.3544154517459
 30
0.0
 40
0.10628895
100
AcDbArc
 50
90.0
 51
180.0
  0
ARC
  5
48
330
2
100
AcDbEntity
  8
GAIKEI
  6
Continuous
100
AcDbCircle
 10
24.83041724462848
 20
214.6544154517459
 30
0.0
 40
0.2
100
AcDbArc
 50
90.0
 51
180.0
  0
LINE
  5
49
330
2
100
AcDbEntity
  8
GAIKEI
  6
Continuous
 62
     1
100
AcDbLine
 10
74.23670619462845
 20
213.3544154517459
 30
0.0
 11
74.23670619462845
 21
185.8544154517459
 31
0.0
  0
LINE
  5
4A
330
2
100
AcDbEntity
  8
GAIKEI
  6
Continuous
 62
     1
100
AcDbLine
 10
75.52429149462844
 20
214.5482897017459
 30
0.0
 11
75.52429149462844
 21
184.6605412017458
 31
0.0
  0
LINE
  5
4B
330
2
100
AcDbEntity
  8
GAIKEI
  6
Continuous
 62
     1
100
AcDbLine
 10
74.31041724462843
 20
213.3544154517459
 30
0.0
 11
74.31041724462843
 21
185.8544154517459
 31
0.0
  0
LINE
  5
4C
330
2
100
AcDbEntity
  8
GAIKEI
  6
Continuous
 62
     1
100
AcDbLine
 10
74.23041724462845
 20
213.3544154517459
 30
0.0
 11
74.23041724462845
 21
185.8544154517459
 31
0.0
  0
LINE
  5
4D
330
2
100
AcDbEntity
  8
GAIKEI
  6
Continuous
100
AcDbLine
 10
75.63041724462843
 20
214.6544154517459
 30
0.0
 11
75.63041724462843
 21
184.5544154517459
 31
0.0
  0
LINE
  5
4E
330
2
100
AcDbEntity
  8
GAIKEI
  6
Continuous
 62
     1
100
AcDbLine
 10
75.24541724462844
 20
214.2694154517459
 30
0.0
 11
75.24541724462844
 21
184.9394154517458
 31
0.0
  0
LINE
  5
4F
330
2
100
AcDbEntity
  8
GAIKEI
  6
Continuous
 62
     1
100
AcDbLine
 10
50.13041724462843
 20
213.4607044017459
 30
0.0
 11
74.13041724462843
 21
213.4607044017459
 31
0.0
  0
LINE
  5
50
330
2
100
AcDbEntity
  8
GAIKEI
  6
Continuous
 62
     1
100
AcDbLine
 10
74.13041724462843
 20
213.5344154517459
 30
0.0
 11
50.13041724462843
 21
213.5344154517459
 31
0.0
  0
LINE
  5
51
330
2
100
AcDbEntity
  8
GAIKEI
  6
Continuous
 62
     1
100
AcDbLine
 10
74.13041724462843
 20
213.4544154517459
 30
0.0
 11
50.13041724462843
 21
213.4544154517459
 31
0.0
  0
LINE
  5
52
330
2
100
AcDbEntity
  8
GAIKEI
  6
Continuous
100
AcDbLine
 10
24.83041724462848
 20
214.8544154517459
 30
0.0
 11
75.43041724462844
 21
214.8544154517459
 31
0.0
  0
LINE
  5
53
330
2
100
AcDbEntity
  8
GAIKEI
  6
Continuous
 62
     1
100
AcDbLine
 10
50.13041724462843
 20
214.4694154517459
 30
0.0
 11
75.04541724462845
 21
214.4694154517459
 31
0.0
  0
ARC
  5
54
330
2
100
AcDbEntity
  8
GAIKEI
  6
Continuous
 62
     1
100
AcDbCircle
 10
75.32429149462846
 20
214.5482897017459
 30
0.0
 40
0.2
100
AcDbArc
 50
0.0
 51
90.0
  0
ARC
  5
55
330
2
100
AcDbEntity
  8
GAIKEI
  6
Continuous
 62
     1
100
AcDbCircle
 10
75.04541724462845
 20
214.2694154517459
 30
0.0
 40
0.2
100
AcDbArc
 50
0.0
 51
90.0
  0
ARC
  5
56
330
2
100
AcDbEntity
  8
GAIKEI
  6
Continuous
100
AcDbCircle
 10
75.43041724462844
 20
214.6544154517459
 30
0.0
 40
0.2
100
AcDbArc
 50
0.0
 51
90.0
  0
ARC
  5
57
330
2
100
AcDbEntity
  8
GAIKEI
  6
Continuous
 62
     1
100
AcDbCircle
 10
74.13041724462843
 20
213.3544154517459
 30
0.0
 40
0.1
100
AcDbArc
 50
0.0
 51
90.0
  0
ARC
  5
58
330
2
100
AcDbEntity
  8
GAIKEI
  6
Continuous
 62
     1
100
AcDbCircle
 10
74.13041724462843
 20
213.3544154517459
 30
0.0
 40
0.18
100
AcDbArc
 50
0.0
 51
90.0
  0
ARC
  5
59
330
2
100
AcDbEntity
  8
GAIKEI
  6
Continuous
 62
     1
100
AcDbCircle
 10
74.13041724462843
 20
213.3544154517459
 30
0.0
 40
0.10628895
100
AcDbArc
 50
0.0
 51
90.0
  0
ARC
  5
5A
330
2
100
AcDbEntity
  8
GAIKEI
  6
Continuous
100
AcDbCircle
 10
75.43041724462844
 20
214.6544154517459
 30
0.0
 40
0.2
100
AcDbArc
 50
0.0
 51
90.0
  0
LINE
  5
5B
330
2
100
AcDbEntity
  8
GAIKEI
  6
Continuous
 62
     1
100
AcDbLine
 10
74.13041724462843
 20
185.7544154517458
 30
0.0
 11
26.13041724462843
 21
185.7544154517458
 31
0.0
  0
LINE
  5
5C
330
2
100
AcDbEntity
  8
GAIKEI
  6
Continuous
100
AcDbLine
 10
24.83041724462848
 20
184.3544154517458
 30
0.0
 11
75.43041724462844
 21
184.3544154517459
 31
0.0
  0
ARC
  5
5D
330
2
100
AcDbEntity
  8
GAIKEI
  6
Continuous
 62
     1
100
AcDbCircle
 10
75.32429149462846
 20
184.6605412017458
 30
0.0
 40
0.2
100
AcDbArc
 50
270.0
 51
0.0
  0
ARC
  5
5E
330
2
100
AcDbEntity
  8
GAIKEI
  6
Continuous
 62
     1
100
AcDbCircle
 10
75.04541724462845
 20
184.9394154517458
 30
0.0
 40
0.2
100
AcDbArc
 50
270.0
 51
0.0
  0
ARC
  5
5F
330
2
100
AcDbEntity
  8
GAIKEI
  6
Continuous
100
AcDbCircle
 10
75.43041724462844
 20
184.5544154517459
 30
0.0
 40
0.2
100
AcDbArc
 50
270.0
 51
0.0
  0
ARC
  5
60
330
2
100
AcDbEntity
  8
GAIKEI
  6
Continuous
 62
     1
100
AcDbCircle
 10
74.13041724462843
 20
185.8544154517459
 30
0.0
 40
0.1
100
AcDbArc
 50
270.0
 51
0.0
  0
ARC
  5
61
330
2
100
AcDbEntity
  8
GAIKEI
  6
Continuous
 62
     1
100
AcDbCircle
 10
74.13041724462843
 20
185.8544154517459
 30
0.0
 40
0.18
100
AcDbArc
 50
270.0
 51
0.0
  0
ARC
  5
62
330
2
100
AcDbEntity
  8
GAIKEI
  6
Continuous
 62
     1
100
AcDbCircle
 10
74.13041724462843
 20
185.8544154517459
 30
0.0
 40
0.10628895
100
AcDbArc
 50
270.0
 51
0.0
  0
ARC
  5
63
330
2
100
AcDbEntity
  8
GAIKEI
  6
Continuous
100
AcDbCircle
 10
75.43041724462844
 20
184.5544154517459
 30
0.0
 40
0.2
100
AcDbArc
 50
270.0
 51
0.0
  0
LINE
  5
64
330
2
100
AcDbEntity
  8
GAIKEI
  6
Continuous
 62
     1
100
AcDbLine
 10
25.21541724462847
 20
184.7394154517459
 30
0.0
 11
75.04541724462845
 21
184.7394154517459
 31
0.0
  0
LINE
  5
65
330
2
100
AcDbEntity
  8
GAIKEI
  6
Continuous
 62
     1
100
AcDbLine
 10
26.13041724462843
 20
185.7481265017458
 30
0.0
 11
74.13041724462843
 21
185.7481265017458
 31
0.0
  0
LINE
  5
66
330
2
100
AcDbEntity
  8
GAIKEI
  6
Continuous
 62
     1
100
AcDbLine
 10
24.93654299462841
 20
184.4605412017459
 30
0.0
 11
75.32429149462846
 21
184.4605412017459
 31
0.0
  0
LINE
  5
67
330
2
100
AcDbEntity
  8
GAIKEI
  6
Continuous
 62
     1
100
AcDbLine
 10
26.13041724462843
 20
185.6744154517459
 30
0.0
 11
74.13041724462843
 21
185.6744154517459
 31
0.0
  0
ARC
  5
68
330
2
100
AcDbEntity
  8
GAIKEI
  6
Continuous
 62
     1
100
AcDbCircle
 10
26.13041724462843
 20
185.8544154517459
 30
0.0
 40
0.10628895
100
AcDbArc
 50
180.0
 51
270.0
  0
ARC
  5
69
330
2
100
AcDbEntity
  8
GAIKEI
  6
Continuous
 62
     1
100
AcDbCircle
 10
24.93654299462841
 20
184.6605412017458
 30
0.0
 40
0.2
100
AcDbArc
 50
180.0
 51
270.0
  0
ARC
  5
6A
330
2
100
AcDbEntity
  8
GAIKEI
  6
Continuous
 62
     1
100
AcDbCircle
 10
26.13041724462843
 20
185.8544154517459
 30
0.0
 40
0.18
100
AcDbArc
 50
180.0
 51
270.0
  0
ARC
  5
6B
330
2
100
AcDbEntity
  8
GAIKEI
  6
Continuous
 62
     1
100
AcDbCircle
 10
26.13041724462843
 20
185.8544154517459
 30
0.0
 40
0.1
100
AcDbArc
 50
180.0
 51
270.0
  0
ARC
  5
6C
330
2
100
AcDbEntity
  8
GAIKEI
  6
Continuous
100
AcDbCircle
 10
24.83041724462848
 20
184.5544154517459
 30
0.0
 40
0.2
100
AcDbArc
 50
180.0
 51
270.0
  0
ARC
  5
6D
330
2
100
AcDbEntity
  8
GAIKEI
  6
Continuous
 62
     1
100
AcDbCircle
 10
25.21541724462847
 20
184.9394154517458
 30
0.0
 40
0.2
100
AcDbArc
 50
180.0
 51
270.0
  0
ARC
  5
6E
330
2
100
AcDbEntity
  8
GAIKEI
  6
Continuous
 62
     1
100
AcDbCircle
 10
27.54541724462845
 20
184.8794154517458
 30
0.0
 40
0.025
100
AcDbArc
 50
270.0
 51
0.0
  0
ARC
  5
6F
330
2
100
AcDbEntity
  8
GAIKEI
  6
Continuous
 62
     1
100
AcDbCircle
 10
27.24541724462845
 20
184.8794154517458
 30
0.0
 40
0.025
100
AcDbArc
 50
180.0
 51
270.0
  0
ARC
  5
70
330
2
100
AcDbEntity
  8
GAIKEI
  6
Continuous
 62
     1
100
AcDbCircle
 10
27.54541724462845
 20
185.1794154517459
 30
0.0
 40
0.025
100
AcDbArc
 50
0.0
 51
90.0
  0
ARC
  5
71
330
2
100
AcDbEntity
  8
GAIKEI
  6
Continuous
 62
     1
100
AcDbCircle
 10
27.24541724462845
 20
185.1794154517459
 30
0.0
 40
0.025
100
AcDbArc
 50
90.0
 51
180.0
  0
LINE
  5
72
330
2
100
AcDbEntity
  8
GAIKEI
  6
Continuous
 62
     1
100
AcDbLine
 10
27.22041724462846
 20
184.8794154517458
 30
0.0
 11
27.22041724462846
 21
185.1794154517459
 31
0.0
  0
LINE
  5
73
330
2
100
AcDbEntity
  8
GAIKEI
  6
Continuous
 62
     1
100
AcDbLine
 10
27.54541724462845
 20
185.2044154517459
 30
0.0
 11
27.24541724462845
 21
185.2044154517459
 31
0.0
  0
LINE
  5
74
330
2
100
AcDbEntity
  8
GAIKEI
  6
Continuous
 62
     1
100
AcDbLine
 10
25.64041724462842
 20
184.9894154517459
 30
0.0
 11
25.64041724462842
 21
185.0694154517458
 31
0.0
  0
LINE
  5
75
330
2
100
AcDbEntity
  8
GAIKEI
  6
Continuous
 62
     1
100
AcDbLine
 10
25.72041724462847
 20
184.9894154517459
 30
0.0
 11
25.72041724462847
 21
185.0694154517458
 31
0.0
  0
LINE
  5
76
330
2
100
AcDbEntity
  8
GAIKEI
  6
Continuous
 62
     1
100
AcDbLine
 10
25.72041724462847
 20
184.9894154517459
 30
0.0
 11
25.64041724462842
 21
184.9894154517459
 31
0.0
  0
LINE
  5
77
330
2
100
AcDbEntity
  8
GAIKEI
  6
Continuous
 62
     1
100
AcDbLine
 10
25.72041724462847
 20
185.0694154517458
 30
0.0
 11
25.64041724462842
 21
185.0694154517458
 31
0.0
  0
LINE
  5
78
330
2
100
AcDbEntity
  8
GAIKEI
  6
Continuous
 62
     1
100
AcDbLine
 10
27.54541724462845
 20
184.8544154517459
 30
0.0
 11
27.24541724462845
 21
184.8544154517459
 31
0.0
  0
LINE
  5
79
330
2
100
AcDbEntity
  8
GAIKEI
  6
Continuous
 62
     1
100
AcDbLine
 10
27.57041724462843
 20
184.8794154517458
 30
0.0
 11
27.57041724462843
 21
185.1794154517459
 31
0.0
  0
ARC
  5
7A
330
2
100
AcDbEntity
  8
GAIKEI
  6
Continuous
100
AcDbCircle
 10
24.83041724462848
 20
184.5544154517459
 30
0.0
 40
0.2
100
AcDbArc
 50
180.0
 51
270.0
  0
LINE
  5
7B
330
2
100
AcDbEntity
  8
GAIKEI
  6
Continuous
 62
     1
100
AcDbLine
 10
73.13041724462843
 20
186.6544154517459
 30
0.0
 11
73.13041724462843
 21
212.5544154517459
 31
0.0
  0
LINE
  5
7C
330
2
100
AcDbEntity
  8
GAIKEI
  6
Continuous
 62
     1
100
AcDbLine
 10
27.13041724462843
 20
186.6544154517459
 30
0.0
 11
27.13041724462843
 21
212.5544154517459
 31
0.0
  0
LINE
  5
7D
330
2
100
AcDbEntity
  8
GAIKEI
  6
Continuous
 62
     1
100
AcDbLine
 10
27.13041724462843
 20
212.5544154517459
 30
0.0
 11
73.13041724462843
 21
212.5544154517459
 31
0.0
  0
LINE
  5
7E
330
2
100
AcDbEntity
  8
GAIKEI
  6
Continuous
 62
     1
100
AcDbLine
 10
27.13041724462843
 20
186.6544154517459
 30
0.0
 11
73.13041724462843
 21
186.6544154517459
 31
0.0
  0
SPLINE
  5
7F
330
2
100
AcDbEntity
  8
GAIKEI
  6
Continuous
 62
     1
100
AcDbSpline
210
0.0
220
0.0
230
1.0
 70
     8
 71
     3
 72
     9
 73
     5
 74
     3
 42
0.0000000001
 43
0.0000000001
 44
0.000001
 12
0.5315847197080427
 22
0.8470051273592869
 32
0.0
 13
0.9993540111673826
 23
-0.035938285485854
 33
0.0
 40
0.0
 40
0.0
 40
0.0
 40
0.0
 40
0.0328737966681366
 40
0.067442831428022
 40
0.067442831428022
 40
0.067442831428022
 40
0.067442831428022
 10
99.43604460705657
 20
214.7051417333603
 30
0.0
 10
99.44186967638575
 20
214.7144231581382
 30
0.0
 10
99.45992803926611
 20
214.7298720715737
 30
0.0
 10
99.48292747670674
 20
214.7346329990779
 30
0.0
 10
99.49444304455656
 20
214.7342188817978
 30
0.0
 11
99.43604460705657
 21
214.7051417333603
 31
0.0
 11
99.46064859081642
 21
214.7269452472979
 31
0.0
 11
99.49444304455656
 21
214.7342188817978
 31
0.0
  0
SPLINE
  5
80
330
2
100
AcDbEntity
  8
GAIKEI
  6
Continuous
 62
     1
100
AcDbSpline
210
0.0
220
0.0
230
1.0
 70
     8
 71
     3
 72
     9
 73
     5
 74
     3
 42
0.0000000001
 43
0.0000000001
 44
0.000001
 12
0.7133538227200053
 22
0.7008040550758503
 32
0.0
 13
0.9673999115770403
 23
0.2532536496888728
 33
0.0
 40
0.0
 40
0.0
 40
0.0
 40
0.0
 40
0.0295629239674857
 40
0.0656585529903431
 40
0.0656585529903431
 40
0.0656585529903431
 40
0.0656585529903431
 10
99.43604460705657
 20
214.5988429052353
 30
0.0
 10
99.44307421533089
 20
214.6057488442341
 30
0.0
 10
99.46231531837199
 20
214.6170582424129
 30
0.0
 10
99.48280340844823
 20
214.6248729370769
 30
0.0
 10
99.49444304455656
 20
214.6279200536728
 30
0.0
 11
99.43604460705657
 21
214.5988429052353
 31
0.0
 11
99.46065447230477
 21
214.6152238810033
 31
0.0
 11
99.49444304455656
 21
214.6279200536728
 31
0.0
  0
SPLINE
  5
81
330
2
100
AcDbEntity
  8
GAIKEI
  6
Continuous
 62
     1
100
AcDbSpline
210
0.0
220
0.0
230
1.0
 70
     8
 71
     3
 72
     9
 73
     5
 74
     3
 42
0.0000000001
 43
0.0000000001
 44
0.000001
 12
0.7133260416388183
 22
-0.7008323325303243
 32
0.0
 13
0.9674089049294847
 23
-0.2532192936234031
 33
0.0
 40
0.0
 40
0.0
 40
0.0
 40
0.0
 40
0.0295599238169349
 40
0.0656531631158979
 40
0.0656531631158979
 40
0.0656531631158979
 40
0.0656531631158979
 10
99.43604460705657
 20
184.6099879247666
 30
0.0
 10
99.44307322820572
 20
184.6030824079806
 30
0.0
 10
99.46231635501725
 20
184.5917781873234
 30
0.0
 10
99.48280407085471
 20
184.5839694848802
 30
0.0
 10
99.49444304455656
 20
184.5809229833603
 30
0.0
 11
99.43604460705657
 21
184.6099879247666
 31
0.0
 11
99.46065447603004
 21
184.5936123681784
 31
0.0
 11
99.49444304455656
 21
184.5809229833603
 31
0.0
  0
SPLINE
  5
82
330
2
100
AcDbEntity
  8
GAIKEI
  6
Continuous
 62
     1
100
AcDbSpline
210
0.0
220
0.0
230
1.0
 70
     8
 71
     3
 72
     9
 73
     5
 74
     3
 42
0.0000000001
 43
0.0000000001
 44
0.000001
 12
0.5315659660105952
 22
-0.847016896985664
 32
0.0
 13
0.9993596112734818
 23
0.0357822212182991
 33
0.0
 40
0.0
 40
0.0
 40
0.0
 40
0.0
 40
0.0328730912401335
 40
0.067442336162777
 40
0.067442336162777
 40
0.067442336162777
 40
0.067442336162777
 10
99.43604460705657
 20
184.5036890966415
 30
0.0
 10
99.44186934589017
 20
184.4944077420626
 30
0.0
 10
99.45992887762614
 20
184.4789597560853
 30
0.0
 10
99.48292734216726
 20
184.4741996267477
 30
0.0
 10
99.49444304455656
 20
184.4746119482041
 30
0.0
 11
99.43604460705657
 21
184.5036890966415
 31
0.0
 11
99.46064861056051
 21
184.4818866679741
 31
0.0
 11
99.49444304455656
 21
184.4746119482041
 31
0.0
  0
SPLINE
  5
83
330
2
100
AcDbEntity
  8
GAIKEI
  6
Continuous
 62
     1
100
AcDbSpline
210
0.0
220
0.0
230
1.0
 70
     8
 71
     3
 72
     9
 73
     5
 74
     3
 42
0.0000000001
 43
0.0000000001
 44
0.000001
 12
-0.5314527441063981
 22
0.8470879415868104
 32
0.0
 13
0.3179393013820943
 23
0.9481110697785709
 33
0.0
 40
0.0
 40
0.0
 40
0.0
 40
0.0
 40
0.0467623854969734
 40
0.1086022182817313
 40
0.1086022182817313
 40
0.1086022182817313
 40
0.1086022182817313
 10
99.43604460705657
 20
184.5036890966415
 30
0.0
 10
99.42776060769212
 20
184.5168930475996
 30
0.0
 10
99.42154352501242
 20
184.5548380009017
 30
0.0
 10
99.42949083597884
 20
184.5904442480944
 30
0.0
 10
99.43604460705657
 20
184.6099879247666
 30
0.0
 11
99.43604460705657
 21
184.5036890966415
 31
0.0
 11
99.42503323380492
 21
184.5491373164177
 31
0.0
 11
99.43604460705657
 21
184.6099879247666
 31
0.0
  0
SPLINE
  5
84
330
2
100
AcDbEntity
  8
GAIKEI
  6
Continuous
 62
     1
100
AcDbSpline
210
0.0
220
0.0
230
1.0
 70
     8
 71
     3
 72
     9
 73
     5
 74
     3
 42
0.0000000001
 43
0.0000000001
 44
0.000001
 12
-0.1811677688426682
 22
-0.983452205006715
 32
0.0
 13
0.3894822046516699
 23
-0.9210339908275235
 33
0.0
 40
0.0
 40
0.0
 40
0.0
 40
0.0
 40
0.0634735287712179
 40
0.1071114425331709
 40
0.1071114425331709
 40
0.1071114425331709
 40
0.1071114425331709
 10
99.49444304455656
 20
184.5809229833603
 30
0.0
 10
99.49060992536054
 20
184.5601152560838
 30
0.0
 10
99.48658449947886
 20
184.5248684205614
 30
0.0
 10
99.48877764760375
 20
184.4880092821586
 30
0.0
 10
99.49444304455656
 20
184.4746119482041
 30
0.0
 11
99.49444304455656
 21
184.5809229833603
 31
0.0
 11
99.48802366491989
 21
184.5177754921436
 31
0.0
 11
99.49444304455656
 21
184.4746119482041
 31
0.0
  0
SPLINE
  5
85
330
2
100
AcDbEntity
  8
GAIKEI
  6
Continuous
 62
     1
100
AcDbSpline
210
0.0
220
0.0
230
1.0
 70
     8
 71
     3
 72
     9
 73
     5
 74
     3
 42
0.0000000001
 43
0.0000000001
 44
0.000001
 12
-0.0194223067410764
 22
-0.9998113692096403
 32
0.0
 13
-0.1809566617946639
 23
-0.983491070906153
 33
0.0
 40
0.0
 40
0.0
 40
0.0
 40
0.0
 40
0.0398095287014697
 40
0.0777433366759876
 40
0.0777433366759876
 40
0.0777433366759876
 40
0.0777433366759876
 10
99.50206023205657
 20
184.6582301122665
 30
0.0
 10
99.50180250109735
 20
184.6449627724669
 30
0.0
 10
99.50025989234177
 20
184.619065191318
 30
0.0
 10
99.49673116964332
 20
184.5933588371698
 30
0.0
 10
99.49444304455656
 20
184.5809229833603
 30
0.0
 11
99.50206023205657
 21
184.6582301122665
 31
0.0
 11
99.49970092077391
 21
184.6184907180785
 31
0.0
 11
99.49444304455656
 21
184.5809229833603
 31
0.0
  0
SPLINE
  5
86
330
2
100
AcDbEntity
  8
GAIKEI
  6
Continuous
 62
     1
100
AcDbSpline
210
0.0
220
0.0
230
1.0
 70
     8
 71
     3
 72
     9
 73
     5
 74
     3
 42
0.0000000001
 43
0.0000000001
 44
0.000001
 12
-0.9984630479128485
 22
0.0554214935975616
 32
0.0
 13
0.0131614812355851
 23
0.9999133839546729
 33
0.0
 40
0.0
 40
0.0
 40
0.0
 40
0.0
 40
0.0591053775879733
 40
0.199744695372292
 40
0.199744695372292
 40
0.199744695372292
 40
0.199744695372292
 10
101.4356539820566
 20
184.3571681005478
 30
0.0
 10
101.4159824702384
 20
184.3582600033163
 30
0.0
 10
101.4566673414166
 20
184.4655718124908
 30
0.0
 10
101.4350369748092
 20
184.510023833806
 30
0.0
 10
101.4356539820566
 20
184.5568995458603
 30
0.0
 11
101.4356539820566
 21
184.3571681005478
 31
0.0
 11
101.4346045748576
 21
184.4162648468808
 31
0.0
 11
101.4356539820566
 21
184.5568995458603
 31
0.0
  0
SPLINE
  5
87
330
2
100
AcDbEntity
  8
GAIKEI
  6
Continuous
100
AcDbSpline
210
0.0
220
0.0
230
1.0
 70
     8
 71
     3
 72
     9
 73
     5
 74
     3
 42
0.0000000001
 43
0.0000000001
 44
0.000001
 12
0.389300517660971
 22
-0.9211108005820474
 32
0.0
 13
0.9983154509840366
 23
-0.0580194823015479
 33
0.0
 40
0.0
 40
0.0
 40
0.0
 40
0.0
 40
0.0130424241073791
 40
0.0178402923890681
 40
0.0178402923890681
 40
0.0178402923890681
 40
0.0178402923890681
 10
99.49444304455656
 20
184.4746119482041
 30
0.0
 10
99.49613551870875
 20
184.4706074423004
 30
0.0
 10
99.49931875409195
 20
184.4667690231606
 30
0.0
 10
99.50046363671077
 20
184.4585914568987
 30
0.0
 10
99.50206023205657
 20
184.4584986669541
 30
0.0
 11
99.49444304455656
 21
184.4746119482041
 31
0.0
 11
99.49970092077391
 21
184.462676945239
 31
0.0
 11
99.50206023205657
 21
184.4584986669541
 31
0.0
  0
SPLINE
  5
88
330
2
100
AcDbEntity
  8
GAIKEI
  6
Continuous
 62
     1
100
AcDbSpline
210
0.0
220
0.0
230
1.0
 70
     8
 71
     3
 72
     9
 73
     5
 74
     3
 42
0.0000000001
 43
0.0000000001
 44
0.000001
 12
0.0002033799686629
 22
0.999999979318294
 32
0.0
 13
-0.2676862784602433
 23
0.9635061267704038
 33
0.0
 40
0.0
 40
0.0
 40
0.0
 40
0.0
 40
0.0248819631699636
 40
0.0487674615858867
 40
0.0487674615858867
 40
0.0487674615858867
 40
0.0487674615858867
 10
99.44248991955657
 20
214.5506129247665
 30
0.0
 10
99.44249160638754
 20
214.5589069123183
 30
0.0
 10
99.44138233579323
 20
214.5751782518874
 30
0.0
 10
99.43817588044993
 20
214.5911716305471
 30
0.0
 10
99.43604460705657
 20
214.5988429052353
 30
0.0
 11
99.44248991955657
 21
214.5506129247665
 31
0.0
 11
99.44081277345871
 21
214.5754380704433
 31
0.0
 11
99.43604460705657
 21
214.5988429052353
 31
0.0
  0
SPLINE
  5
89
330
2
100
AcDbEntity
  8
GAIKEI
  6
Continuous
 62
     1
100
AcDbSpline
210
0.0
220
0.0
230
1.0
 70
     8
 71
     3
 72
     9
 73
     5
 74
     3
 42
0.0000000001
 43
0.0000000001
 44
0.000001
 12
0.2677112637034975
 22
0.9634991848913399
 32
0.0
 13
-0.0002033617628701
 23
0.9999999793219965
 33
0.0
 40
0.0
 40
0.0
 40
0.0
 40
0.0
 40
0.0238903823884862
 40
0.0487795518660273
 40
0.0487795518660273
 40
0.0487795518660273
 40
0.0487795518660273
 10
99.43604460705657
 20
184.6099879247666
 30
0.0
 10
99.43817651520975
 20
184.6176607127526
 30
0.0
 10
99.44138219042368
 20
184.6336584299438
 30
0.0
 10
99.44249160672503
 20
184.6499337226122
 30
0.0
 10
99.44248991955657
 20
184.6582301122665
 30
0.0
 11
99.43604460705657
 21
184.6099879247666
 31
0.0
 11
99.44081277345848
 21
184.633397743997
 31
0.0
 11
99.44248991955657
 21
184.6582301122665
 31
0.0
  0
SPLINE
  5
8A
330
2
100
AcDbEntity
  8
GAIKEI
  6
Continuous
 62
     1
100
AcDbSpline
210
0.0
220
0.0
230
1.0
 70
     8
 71
     3
 72
     9
 73
     5
 74
     3
 42
0.0000000001
 43
0.0000000001
 44
0.000001
 12
-0.3179591382001075
 22
0.9481044174747026
 32
0.0
 13
0.5314035119872484
 23
0.8471188272300517
 33
0.0
 40
0.0
 40
0.0
 40
0.0
 40
0.0
 40
0.0618382027209426
 40
0.1086021855636397
 40
0.1086021855636397
 40
0.1086021855636397
 40
0.1086021855636397
 10
99.43604460705657
 20
214.5988429052353
 30
0.0
 10
99.42949059984156
 20
214.6183859296248
 30
0.0
 10
99.42154336364604
 20
214.6539925608163
 30
0.0
 10
99.42776109215085
 20
214.6919368499262
 30
0.0
 10
99.43604460705657
 20
214.7051417333603
 30
0.0
 11
99.43604460705657
 21
214.5988429052353
 31
0.0
 11
99.42503326435229
 21
214.6596918625355
 31
0.0
 11
99.43604460705657
 21
214.7051417333603
 31
0.0
  0
SPLINE
  5
8B
330
2
100
AcDbEntity
  8
GAIKEI
  6
Continuous
 62
     1
100
AcDbSpline
210
0.0
220
0.0
230
1.0
 70
     8
 71
     3
 72
    11
 73
     7
 74
     5
 42
0.0000000001
 43
0.0000000001
 44
0.000001
 12
-0.5290666453914411
 22
-0.8485802759516904
 32
0.0
 13
0.0727207652946618
 23
-0.9973523400959958
 33
0.0
 40
0.0
 40
0.0
 40
0.0
 40
0.0
 40
0.0042499997893029
 40
0.0119006040293379
 40
0.0517105994362971
 40
0.1067147985147126
 40
0.1067147985147126
 40
0.1067147985147126
 40
0.1067147985147126
 10
99.29581023205654
 20
214.4816065771103
 30
0.0
 10
99.29506072101274
 20
214.480404421779
 30
0.0
 10
99.29400705971236
 20
214.4764843825218
 30
0.0
 10
99.29188606846011
 20
214.4594451275509
 30
0.0
 10
99.2930935349872
 20
214.4250740552848
 30
0.0
 10
99.29447691623941
 20
214.3935817308427
 30
0.0
 10
99.29581023205654
 20
214.3752955419541
 30
0.0
 11
99.29581023205654
 21
214.4816065771103
 31
0.0
 11
99.29438115556379
 21
214.4776038957357
 31
0.0
 11
99.29327116955656
 21
214.4700343114853
 31
0.0
 11
99.29296233209656
 21
214.4302255807104
 31
0.0
 11
99.29581023205654
 21
214.3752955419541
 31
0.0
  0
SPLINE
  5
8C
330
2
100
AcDbEntity
  8
GAIKEI
  6
Continuous
 62
     1
100
AcDbSpline
210
0.0
220
0.0
230
1.0
 70
     8
 71
     3
 72
     9
 73
     5
 74
     3
 42
0.0000000001
 43
0.0000000001
 44
0.000001
 12
-0.013160041142413
 22
0.9999134029090368
 32
0.0
 13
0.9982350858631345
 23
0.0593861377075533
 33
0.0
 40
0.0
 40
0.0
 40
0.0
 40
0.0
 40
0.140621086769621
 40
0.1997324418875599
 40
0.1997324418875599
 40
0.1997324418875599
 40
0.1997324418875599
 10
101.4356539820566
 20
214.6519434911728
 30
0.0
 10
101.4350371222941
 20
214.698813127637
 30
0.0
 10
101.4566635807361
 20
214.7433568252596
 30
0.0
 10
101.415984972506
 20
214.8504925977623
 30
0.0
 10
101.4356539820566
 20
214.851662729454
 30
0.0
 11
101.4356539820566
 21
214.6519434911728
 31
0.0
 11
101.4346064013674
 21
214.7925599736923
 31
0.0
 11
101.4356539820566
 21
214.851662729454
 31
0.0
  0
SPLINE
  5
8D
330
2
100
AcDbEntity
  8
GAIKEI
  6
Continuous
 62
     1
100
AcDbSpline
210
0.0
220
0.0
230
1.0
 70
     8
 71
     3
 72
     9
 73
     5
 74
     3
 42
0.0000000001
 43
0.0000000001
 44
0.000001
 12
-0.9989303325859209
 22
-0.0462405735234906
 32
0.0
 13
-0.3891051082920194
 23
-0.921193364446931
 33
0.0
 40
0.0
 40
0.0
 40
0.0
 40
0.0
 40
0.0047938543374285
 40
0.0178404975019848
 40
0.0178404975019848
 40
0.0178404975019848
 40
0.0178404975019848
 10
99.50206023205657
 20
214.7503321630478
 30
0.0
 10
99.50046398988735
 20
214.7502582728565
 30
0.0
 10
99.49931637792236
 20
214.742039371035
 30
0.0
 10
99.49613521639037
 20
214.7382250421683
 30
0.0
 10
99.49444304455656
 20
214.7342188817978
 30
0.0
 11
99.50206023205657
 21
214.7503321630478
 31
0.0
 11
99.49970092077391
 21
214.7461584892871
 31
0.0
 11
99.49444304455656
 21
214.7342188817978
 31
0.0
  0
SPLINE
  5
8E
330
2
100
AcDbEntity
  8
GAIKEI
  6
Continuous
 62
     1
100
AcDbSpline
210
0.0
220
0.0
230
1.0
 70
     8
 71
     3
 72
     9
 73
     5
 74
     3
 42
0.0000000001
 43
0.0000000001
 44
0.000001
 12
-0.3896843379679152
 22
-0.9209484875618766
 32
0.0
 13
0.1811790978866817
 23
-0.9834501179464915
 33
0.0
 40
0.0
 40
0.0
 40
0.0
 40
0.0
 40
0.0436293659994057
 40
0.1070993691145806
 40
0.1070993691145806
 40
0.1070993691145806
 40
0.1070993691145806
 10
99.49444304455656
 20
214.7342188817978
 30
0.0
 10
99.48877581768808
 20
214.7208254155877
 30
0.0
 10
99.48658571070213
 20
214.6839686560507
 30
0.0
 10
99.49060989858747
 20
214.6487265810227
 30
0.0
 10
99.49444304455656
 20
214.6279200536728
 30
0.0
 11
99.49444304455656
 21
214.7342188817978
 31
0.0
 11
99.48802357961078
 21
214.6910639924526
 31
0.0
 11
99.49444304455656
 21
214.6279200536728
 31
0.0
  0
SPLINE
  5
8F
330
2
100
AcDbEntity
  8
GAIKEI
  6
Continuous
 62
     1
100
AcDbSpline
210
0.0
220
0.0
230
1.0
 70
     8
 71
     3
 72
     9
 73
     5
 74
     3
 42
0.0000000001
 43
0.0000000001
 44
0.000001
 12
0.1809456865258911
 22
-0.9834930902287387
 32
0.0
 13
0.0194233923575108
 23
-0.9998113481198972
 33
0.0
 40
0.0
 40
0.0
 40
0.0
 40
0.0
 40
0.0379349179422688
 40
0.07774332782635
 40
0.07774332782635
 40
0.07774332782635
 40
0.07774332782635
 10
99.49444304455656
 20
214.6279200536728
 30
0.0
 10
99.49673109781336
 20
214.615483810448
 30
0.0
 10
99.50025978670801
 20
214.5897774649572
 30
0.0
 10
99.50180249393513
 20
214.5638798914174
 30
0.0
 10
99.50206023205657
 20
214.5506129247665
 30
0.0
 11
99.49444304455656
 21
214.6279200536728
 31
0.0
 11
99.49970092077391
 21
214.5903511983871
 31
0.0
 11
99.50206023205657
 21
214.5506129247665
 31
0.0
  0
LINE
  5
90
330
2
100
AcDbEntity
  8
GAIKEI
  6
Continuous
100
AcDbLine
 10
99.28819302411236
 20
185.1035792517459
 30
0.0
 11
99.28819302411236
 21
184.8952540517459
 31
0.0
  0
LINE
  5
91
330
2
100
AcDbEntity
  8
GAIKEI
  6
Continuous
 62
     1
100
AcDbLine
 10
99.29581022411241
 20
214.3752955517459
 30
0.0
 11
99.28819302411236
 21
214.3752955517459
 31
0.0
  0
LINE
  5
92
330
2
100
AcDbEntity
  8
GAIKEI
  6
Continuous
 62
     1
100
AcDbLine
 10
99.44248992411239
 20
214.5506007017459
 30
0.0
 11
99.50206022411242
 21
214.5506007017459
 31
0.0
  0
LINE
  5
93
330
2
100
AcDbEntity
  8
GAIKEI
  6
Continuous
 62
     1
100
AcDbLine
 10
99.44248992411239
 20
184.6582301017459
 30
0.0
 11
99.50206022411242
 21
184.6582301017459
 31
0.0
  0
LINE
  5
94
330
2
100
AcDbEntity
  8
GAIKEI
  6
Continuous
 62
     1
100
AcDbLine
 10
101.4356539741124
 20
214.6519313017459
 30
0.0
 11
101.4881930241124
 21
214.6519313017459
 31
0.0
  0
LINE
  5
95
330
2
100
AcDbEntity
  8
GAIKEI
  6
Continuous
 62
     1
100
AcDbLine
 10
101.4356539741124
 20
184.5568995517459
 30
0.0
 11
101.4881930241124
 21
184.5568995517459
 31
0.0
  0
LINE
  5
96
330
2
100
AcDbEntity
  8
GAIKEI
  6
Continuous
 62
     1
100
AcDbLine
 10
99.44248992411239
 20
184.6582301017459
 30
0.0
 11
99.44248992411239
 21
214.5506007017459
 31
0.0
  0
LINE
  5
97
330
2
100
AcDbEntity
  8
GAIKEI
  6
Continuous
 62
     1
100
AcDbLine
 10
99.29575037411236
 20
184.8335384017459
 30
0.0
 11
99.43603097411235
 21
184.6099919517459
 31
0.0
  0
LINE
  5
98
330
2
100
AcDbEntity
  8
GAIKEI
  6
Continuous
 62
     1
100
AcDbLine
 10
101.4356539741124
 20
184.5568995517459
 30
0.0
 11
101.4356539741124
 21
214.6519313017459
 31
0.0
  0
LINE
  5
99
330
2
100
AcDbEntity
  8
GAIKEI
  6
Continuous
 62
     1
100
AcDbLine
 10
99.50209192411236
 20
184.6582264517459
 30
0.0
 11
101.4355712741124
 21
184.5568971017459
 31
0.0
  0
LINE
  5
9A
330
2
100
AcDbEntity
  8
GAIKEI
  6
Continuous
 62
     1
100
AcDbLine
 10
99.50206022411242
 20
214.5506007017459
 30
0.0
 11
99.50206022411242
 21
184.6582301017459
 31
0.0
  0
LINE
  5
9B
330
2
100
AcDbEntity
  8
GAIKEI
  6
Continuous
 62
     1
100
AcDbLine
 10
99.43613372411235
 20
214.5987804517459
 30
0.0
 11
99.29585677411235
 21
214.3752397517459
 31
0.0
  0
LINE
  5
9C
330
2
100
AcDbEntity
  8
GAIKEI
  6
Continuous
 62
     1
100
AcDbLine
 10
101.4354857741124
 20
214.6519275017459
 30
0.0
 11
99.50200642411235
 21
214.5505981017459
 31
0.0
  0
ARC
  5
9D
330
2
100
AcDbEntity
  8
GAIKEI
  6
Continuous
100
AcDbCircle
 10
99.33819302411237
 20
214.4550318517459
 30
0.0
 40
0.05
100
AcDbArc
 50
147.8907859999996
 51
180.0
  0
ARC
  5
9E
330
2
100
AcDbEntity
  8
GAIKEI
  6
Continuous
100
AcDbCircle
 10
99.33819302411237
 20
184.7538111517459
 30
0.0
 40
0.05
100
AcDbArc
 50
180.0000170000011
 51
212.1092280000023
  0
ARC
  5
9F
330
2
100
AcDbEntity
  8
GAIKEI
  6
Continuous
100
AcDbCircle
 10
99.50596647411241
 20
214.6754298017459
 30
0.0
 40
0.075
100
AcDbArc
 50
93.00000100000298
 51
147.8907859999996
  0
ARC
  5
A0
330
2
100
AcDbEntity
  8
GAIKEI
  6
Continuous
100
AcDbCircle
 10
99.50596647411241
 20
184.5334010017459
 30
0.0
 40
0.075
100
AcDbArc
 50
212.1092280000023
 51
267.0000160000057
  0
ARC
  5
A1
330
2
100
AcDbEntity
  8
GAIKEI
  6
Continuous
100
AcDbCircle
 10
101.4381930241124
 20
214.8017359517459
 30
0.0
 40
0.05
100
AcDbArc
 50
0.0000359999984121
 51
93.00000100000298
  0
ARC
  5
A2
330
2
100
AcDbEntity
  8
GAIKEI
  6
Continuous
100
AcDbCircle
 10
101.4381930241124
 20
184.4071070517459
 30
0.0
 40
0.05
100
AcDbArc
 50
267.0000160000057
 51
0.0000359999984121
  0
LINE
  5
A3
330
2
100
AcDbEntity
  8
GAIKEI
  6
Continuous
100
AcDbLine
 10
99.43602632411236
 20
184.5036880517459
 30
0.0
 11
99.44239802411237
 21
184.4935343517459
 31
0.0
  0
LINE
  5
A4
330
2
100
AcDbEntity
  8
GAIKEI
  6
Continuous
 62
     7
100
AcDbLine
 10
99.29575282411239
 20
184.7272266017459
 30
0.0
 11
99.43602692411239
 21
184.5036904517459
 31
0.0
  0
LINE
  5
A5
330
2
100
AcDbEntity
  8
GAIKEI
  6
Continuous
100
AcDbLine
 10
99.28819302411236
 20
184.8335353017459
 30
0.0
 11
99.28819302411236
 21
184.7538111517459
 31
0.0
  0
LINE
  5
A6
330
2
100
AcDbEntity
  8
GAIKEI
  6
Continuous
100
AcDbLine
 10
99.28819302411236
 20
184.8952540517459
 30
0.0
 11
99.28819302411236
 21
184.8335353017459
 31
0.0
  0
LINE
  5
A7
330
2
100
AcDbEntity
  8
GAIKEI
  6
Continuous
100
AcDbLine
 10
99.28819302411236
 20
214.3752955517459
 30
0.0
 11
99.28819302411236
 21
185.1035792517459
 31
0.0
  0
LINE
  5
A8
330
2
100
AcDbEntity
  8
GAIKEI
  6
Continuous
100
AcDbLine
 10
99.28819302411236
 20
214.4550318517459
 30
0.0
 11
99.28819302411236
 21
214.3752955517459
 31
0.0
  0
LINE
  5
A9
330
2
100
AcDbEntity
  8
GAIKEI
  6
Continuous
100
AcDbLine
 10
99.50200227411237
 20
214.7503345017459
 30
0.0
 11
101.4354938241123
 21
214.8516645017459
 31
0.0
  0
LINE
  5
AA
330
2
100
AcDbEntity
  8
GAIKEI
  6
Continuous
100
AcDbLine
 10
99.43618517411236
 20
214.7050467017459
 30
0.0
 11
99.44255587411241
 21
214.7151988517459
 31
0.0
  0
LINE
  5
AB
330
2
100
AcDbEntity
  8
GAIKEI
  6
Continuous
100
AcDbLine
 10
99.29590807411237
 20
214.4815145517459
 30
0.0
 11
99.43618497411236
 21
214.7050552017459
 31
0.0
  0
LINE
  5
AC
330
2
100
AcDbEntity
  8
GAIKEI
  6
Continuous
100
AcDbLine
 10
101.4881930241124
 20
214.8017359517459
 30
0.0
 11
101.4881930241124
 21
214.6519313017459
 31
0.0
  0
LINE
  5
AD
330
2
100
AcDbEntity
  8
GAIKEI
  6
Continuous
100
AcDbLine
 10
101.4881930241124
 20
214.6519313017459
 30
0.0
 11
101.4881930241124
 21
184.5568995517459
 31
0.0
  0
LINE
  5
AE
330
2
100
AcDbEntity
  8
GAIKEI
  6
Continuous
100
AcDbLine
 10
101.4881930241124
 20
184.5568995517459
 30
0.0
 11
101.4881930241124
 21
184.4071070517459
 31
0.0
  0
LINE
  5
AF
330
2
100
AcDbEntity
  8
GAIKEI
  6
Continuous
100
AcDbLine
 10
99.50218592411236
 20
184.4584971517459
 30
0.0
 11
101.4356652741124
 21
184.3571678017459
 31
0.0
  0
ARC
  5
B0
330
2
100
AcDbEntity
  8
GAIKEI
  6
Continuous
100
AcDbCircle
 10
101.6731930741124
 20
212.9078028017459
 30
0.0
 40
0.05
100
AcDbArc
 50
87.9999999999964
 51
180.0
  0
ARC
  5
B1
330
2
100
AcDbEntity
  8
GAIKEI
  6
Continuous
100
AcDbCircle
 10
102.7360896241123
 20
212.7588747017459
 30
0.0
 40
0.15
100
AcDbArc
 50
7.830457000002258
 51
87.9999999999964
  0
LINE
  5
B2
330
2
100
AcDbEntity
  8
GAIKEI
  6
Continuous
100
AcDbLine
 10
102.0248732241124
 20
212.9338023517459
 30
0.0
 11
102.7413245741124
 21
212.9087833017459
 31
0.0
  0
LINE
  5
B3
330
2
100
AcDbEntity
  8
GAIKEI
  6
Continuous
100
AcDbLine
 10
102.0326839241124
 20
212.9452796017459
 30
0.0
 11
102.0323749241124
 21
212.9364299517459
 31
0.0
  0
ARC
  5
B4
330
2
100
AcDbEntity
  8
GAIKEI
  6
Continuous
 62
     1
100
AcDbCircle
 10
102.0781930741124
 20
212.7935989517459
 30
0.0
 40
0.15
100
AcDbArc
 50
107.7854970000014
 51
180.0
  0
LINE
  5
B5
330
2
100
AcDbEntity
  8
GAIKEI
  6
Continuous
100
AcDbLine
 10
101.6749380241124
 20
212.9577723517459
 30
0.0
 11
102.0326839241124
 21
212.9452796017459
 31
0.0
  0
ARC
  5
B6
330
2
100
AcDbEntity
  8
GAIKEI
  6
Continuous
100
AcDbCircle
 10
101.7281930741124
 20
212.8490712017459
 30
0.0
 40
0.15
100
AcDbArc
 50
87.9999999999964
 51
180.0
  0
LINE
  5
B7
330
2
100
AcDbEntity
  8
GAIKEI
  6
Continuous
100
AcDbLine
 10
101.7334279741124
 20
212.9989798517459
 30
0.0
 11
102.7864805741124
 21
212.9622064517459
 31
0.0
  0
LINE
  5
B8
330
2
100
AcDbEntity
  8
GAIKEI
  6
Continuous
100
AcDbLine
 10
101.5781930741124
 20
207.9597303017459
 30
0.0
 11
101.5781930741124
 21
212.8490712017459
 31
0.0
  0
LINE
  5
B9
330
2
100
AcDbEntity
  8
GAIKEI
  6
Continuous
100
AcDbLine
 10
103.6781930241124
 20
210.1770610517459
 30
0.0
 11
103.6781930241124
 21
210.6317405017459
 31
0.0
  0
ARC
  5
BA
330
2
100
AcDbEntity
  8
GAIKEI
  6
Continuous
100
AcDbCircle
 10
102.1781930241124
 20
210.6317405017459
 30
0.0
 40
1.044499999999999
100
AcDbArc
 50
0.0
 51
7.830457000002258
  0
ARC
  5
BB
330
2
100
AcDbEntity
  8
GAIKEI
  6
Continuous
100
AcDbCircle
 10
102.1781930241124
 20
210.6317405017459
 30
0.0
 40
0.9925
100
AcDbArc
 50
0.0
 51
7.830457000002258
  0
LINE
  5
BC
330
2
100
AcDbEntity
  8
GAIKEI
  6
Continuous
100
AcDbLine
 10
103.1706930741124
 20
210.1770610517459
 30
0.0
 11
103.1706930741124
 21
210.6317405017459
 31
0.0
  0
LINE
  5
BD
330
2
100
AcDbEntity
  8
GAIKEI
  6
Continuous
100
AcDbLine
 10
103.2226930741124
 20
210.1770610517459
 30
0.0
 11
103.2226930741124
 21
210.6317405017459
 31
0.0
  0
ARC
  5
BE
330
2
100
AcDbEntity
  8
GAIKEI
  6
Continuous
100
AcDbCircle
 10
102.1781930241124
 20
210.6317405017459
 30
0.0
 40
1.5
100
AcDbArc
 50
0.0
 51
7.830457000002258
  0
LINE
  5
BF
330
2
100
AcDbEntity
  8
GAIKEI
  6
Continuous
100
AcDbLine
 10
103.6642063741124
 20
210.8361038017459
 30
0.0
 11
103.5511142741124
 21
211.6584450017459
 31
0.0
  0
LINE
  5
C0
330
2
100
AcDbEntity
  8
GAIKEI
  6
Continuous
100
AcDbLine
 10
103.1614385241124
 20
210.7669608517459
 30
0.0
 11
102.8846909741124
 21
212.7793110017459
 31
0.0
  0
LINE
  5
C1
330
2
100
AcDbEntity
  8
GAIKEI
  6
Continuous
100
AcDbLine
 10
103.5511142741124
 20
211.6584450017459
 30
0.0
 11
103.3744155741124
 21
212.9432971017459
 31
0.0
  0
ARC
  5
C2
330
2
100
AcDbEntity
  8
GAIKEI
  6
Continuous
100
AcDbCircle
 10
102.7812429241124
 20
212.8122192017459
 30
0.0
 40
0.15
100
AcDbArc
 50
7.830457000002258
 51
87.9999999999964
  0
LINE
  5
C3
330
2
100
AcDbEntity
  8
GAIKEI
  6
Continuous
100
AcDbLine
 10
103.2129536741124
 20
210.7740454517459
 30
0.0
 11
102.9298442241124
 21
212.8326555017459
 31
0.0
  0
LINE
  5
C4
330
2
100
AcDbEntity
  8
GAIKEI
  6
Continuous
100
AcDbLine
 10
103.3744155741124
 20
212.9432971017459
 30
0.0
 11
103.3616286741124
 21
213.0362759017459
 31
0.0
  0
LINE
  5
C5
330
2
100
AcDbEntity
  8
GAIKEI
  6
Continuous
100
AcDbLine
 10
101.4881930241124
 20
213.6544007517459
 30
0.0
 11
101.5781930741124
 21
213.6544007517459
 31
0.0
  0
LINE
  5
C6
330
2
100
AcDbEntity
  8
GAIKEI
  6
Continuous
100
AcDbLine
 10
103.0882274241124
 20
213.3308219517459
 30
0.0
 11
101.5781930741124
 21
213.6544007517459
 31
0.0
  0
ARC
  5
C7
330
2
100
AcDbEntity
  8
GAIKEI
  6
Continuous
100
AcDbCircle
 10
103.0148922241124
 20
212.9885911017459
 30
0.0
 40
0.35
100
AcDbArc
 50
7.830457000002258
 51
77.90524300000431
  0
ELLIPSE
  5
C8
330
2
100
AcDbEntity
  8
GAIKEI
  6
Continuous
 62
     1
100
AcDbEllipse
 10
101.6059430741124
 20
212.5644007517459
 30
0.0
 11
0.0
 21
0.1249999999999999
 31
0.0
210
0.0
220
0.0
230
1.0
 40
0.0524
 41
0.0
 42
6.283185307179584
  0
ELLIPSE
  5
C9
330
2
100
AcDbEntity
  8
GAIKEI
  6
Continuous
 62
     1
100
AcDbEllipse
 10
101.6059430741124
 20
212.0244007517459
 30
0.0
 11
0.0
 21
0.1249999999999999
 31
0.0
210
0.0
220
0.0
230
1.0
 40
0.0524
 41
0.0
 42
6.283185307179584
  0
LINE
  5
CA
330
2
100
AcDbEntity
  8
GAIKEI
  6
Continuous
 62
     1
100
AcDbLine
 10
101.9281930741124
 20
208.0152026017459
 30
0.0
 11
101.9281930741124
 21
212.7935989517459
 31
0.0
  0
LINE
  5
CB
330
2
100
AcDbEntity
  8
GAIKEI
  6
Continuous
100
AcDbLine
 10
101.6231930741124
 20
207.9009987017459
 30
0.0
 11
101.6231930741124
 21
212.9078028017459
 31
0.0
  0
ARC
  5
CC
330
2
100
AcDbEntity
  8
GAIKEI
  6
Continuous
100
AcDbCircle
 10
101.6731930741124
 20
207.9009987017459
 30
0.0
 40
0.05
100
AcDbArc
 50
180.0
 51
272.0000000000036
  0
ARC
  5
CD
330
2
100
AcDbEntity
  8
GAIKEI
  6
Continuous
100
AcDbCircle
 10
102.7360896241123
 20
208.0499268517459
 30
0.0
 40
0.15
100
AcDbArc
 50
272.0000000000036
 51
352.1695429999978
  0
LINE
  5
CE
330
2
100
AcDbEntity
  8
GAIKEI
  6
Continuous
100
AcDbLine
 10
102.0248732241124
 20
207.8749992017459
 30
0.0
 11
102.7413245741124
 21
207.9000182017459
 31
0.0
  0
LINE
  5
CF
330
2
100
AcDbEntity
  8
GAIKEI
  6
Continuous
100
AcDbLine
 10
102.0326839241124
 20
207.8635219517459
 30
0.0
 11
102.0323749241124
 21
207.8723715517459
 31
0.0
  0
ARC
  5
D0
330
2
100
AcDbEntity
  8
GAIKEI
  6
Continuous
 62
     1
100
AcDbCircle
 10
102.0781930741124
 20
208.0152026017459
 30
0.0
 40
0.15
100
AcDbArc
 50
180.0
 51
252.2145029999985
  0
LINE
  5
D1
330
2
100
AcDbEntity
  8
GAIKEI
  6
Continuous
100
AcDbLine
 10
101.6749380241124
 20
207.8510291517459
 30
0.0
 11
102.0326839241124
 21
207.8635219517459
 31
0.0
  0
ARC
  5
D2
330
2
100
AcDbEntity
  8
GAIKEI
  6
Continuous
100
AcDbCircle
 10
101.7281930741124
 20
207.9597303017459
 30
0.0
 40
0.15
100
AcDbArc
 50
180.0
 51
272.0000000000036
  0
LINE
  5
D3
330
2
100
AcDbEntity
  8
GAIKEI
  6
Continuous
100
AcDbLine
 10
101.7334279741124
 20
207.8098217017459
 30
0.0
 11
102.7864805741124
 21
207.8465951017459
 31
0.0
  0
ARC
  5
D4
330
2
100
AcDbEntity
  8
GAIKEI
  6
Continuous
100
AcDbCircle
 10
102.1781930241124
 20
210.1770610517459
 30
0.0
 40
1.044499999999999
100
AcDbArc
 50
352.1695429999978
 51
0.0
  0
ARC
  5
D5
330
2
100
AcDbEntity
  8
GAIKEI
  6
Continuous
100
AcDbCircle
 10
102.1781930241124
 20
210.1770610517459
 30
0.0
 40
0.9925
100
AcDbArc
 50
352.1695429999978
 51
0.0
  0
ARC
  5
D6
330
2
100
AcDbEntity
  8
GAIKEI
  6
Continuous
100
AcDbCircle
 10
102.1781930241124
 20
210.1770610517459
 30
0.0
 40
1.5
100
AcDbArc
 50
352.1695429999978
 51
0.0
  0
LINE
  5
D7
330
2
100
AcDbEntity
  8
GAIKEI
  6
Continuous
100
AcDbLine
 10
103.6642063741124
 20
209.9726977517459
 30
0.0
 11
103.5511142741124
 21
209.1503565017459
 31
0.0
  0
LINE
  5
D8
330
2
100
AcDbEntity
  8
GAIKEI
  6
Continuous
100
AcDbLine
 10
103.1614385241124
 20
210.0418406517459
 30
0.0
 11
102.8846909741124
 21
208.0294905017459
 31
0.0
  0
LINE
  5
D9
330
2
100
AcDbEntity
  8
GAIKEI
  6
Continuous
100
AcDbLine
 10
103.5511142741124
 20
209.1503565017459
 30
0.0
 11
103.3744155741124
 21
207.8655044517459
 31
0.0
  0
ARC
  5
DA
330
2
100
AcDbEntity
  8
GAIKEI
  6
Continuous
100
AcDbCircle
 10
102.7812429241124
 20
207.9965823517459
 30
0.0
 40
0.15
100
AcDbArc
 50
272.0000000000036
 51
352.1695429999978
  0
LINE
  5
DB
330
2
100
AcDbEntity
  8
GAIKEI
  6
Continuous
100
AcDbLine
 10
103.2129536741124
 20
210.0347560517459
 30
0.0
 11
102.9298442241124
 21
207.9761460017459
 31
0.0
  0
LINE
  5
DC
330
2
100
AcDbEntity
  8
GAIKEI
  6
Continuous
100
AcDbLine
 10
103.3744155741124
 20
207.8655044517459
 30
0.0
 11
103.3616286741124
 21
207.7725256517459
 31
0.0
  0
LINE
  5
DD
330
2
100
AcDbEntity
  8
GAIKEI
  6
Continuous
100
AcDbLine
 10
101.4881930241124
 20
207.1544007517459
 30
0.0
 11
101.5781930741124
 21
207.1544007517459
 31
0.0
  0
LINE
  5
DE
330
2
100
AcDbEntity
  8
GAIKEI
  6
Continuous
100
AcDbLine
 10
103.0882274241124
 20
207.4779795517459
 30
0.0
 11
101.5781930741124
 21
207.1544007517459
 31
0.0
  0
ARC
  5
DF
330
2
100
AcDbEntity
  8
GAIKEI
  6
Continuous
100
AcDbCircle
 10
103.0148922241124
 20
207.8202104017459
 30
0.0
 40
0.35
100
AcDbArc
 50
282.0947569999957
 51
352.1695429999978
  0
ELLIPSE
  5
E0
330
2
100
AcDbEntity
  8
GAIKEI
  6
Continuous
 62
     1
100
AcDbEllipse
 10
101.6059430741124
 20
208.2444007517459
 30
0.0
 11
0.0
 21
-0.1249999999999999
 31
0.0
210
0.0
220
0.0
230
1.0
 40
0.0524
 41
0.0
 42
6.283185307179584
  0
ELLIPSE
  5
E1
330
2
100
AcDbEntity
  8
GAIKEI
  6
Continuous
 62
     1
100
AcDbEllipse
 10
101.6059430741124
 20
208.7844007517459
 30
0.0
 11
0.0
 21
-0.1249999999999999
 31
0.0
210
0.0
220
0.0
230
1.0
 40
0.0524
 41
0.0
 42
6.283185307179584
  0
SPLINE
  5
E2
330
2
100
AcDbEntity
  8
GAIKEI
  6
Continuous
 62
     1
100
AcDbSpline
210
0.0
220
0.0
230
1.0
 70
     8
 71
     3
 72
     9
 73
     5
 74
     3
 42
0.0000000001
 43
0.0000000001
 44
0.000001
 12
0.1645792369075682
 22
-0.9863638653047479
 32
0.0
 13
0.2978225556979947
 23
-0.9546212470490665
 33
0.0
 40
0.0
 40
0.0
 40
0.0
 40
0.0
 40
0.0035192682477466
 40
0.0063721167681007
 40
0.0063721167681007
 40
0.0063721167681007
 40
0.0063721167681007
 10
103.3917550729404
 20
206.1976161116005
 30
0.0
 10
103.3919481391013
 20
206.1964590185899
 30
0.0
 10
103.3923194449542
 20
206.1943677718832
 30
0.0
 10
103.3928146322454
 20
206.192298321896
 30
0.0
 10
103.3930978464579
 20
206.191390525292
 30
0.0
 11
103.3917550729404
 21
206.1976161116005
 31
0.0
 11
103.3923969634309
 21
206.1941561483781
 31
0.0
 11
103.3930978464579
 21
206.191390525292
 31
0.0
  0
SPLINE
  5
E3
330
2
100
AcDbEntity
  8
GAIKEI
  6
Continuous
 62
     1
100
AcDbSpline
210
0.0
220
0.0
230
1.0
 70
     8
 71
     3
 72
     9
 73
     5
 74
     3
 42
0.0000000001
 43
0.0000000001
 44
0.000001
 12
0.1008208793748643
 22
-0.994904593557633
 32
0.0
 13
0.1320556432458019
 23
-0.9912423049320167
 33
0.0
 40
0.0
 40
0.0
 40
0.0
 40
0.0
 40
0.0110438235455035
 40
0.021259480038441
 40
0.021259480038441
 40
0.021259480038441
 40
0.021259480038441
 10
103.3869332953092
 20
206.2344813481729
 30
0.0
 10
103.387304444643
 20
206.2308188312476
 30
0.0
 10
103.3880587058075
 20
206.2237723582213
 30
0.0
 10
103.3889250233416
 20
206.2167385798144
 30
0.0
 10
103.3893747017047
 20
206.2133631828516
 30
0.0
 11
103.3869332953092
 21
206.2344813481729
 31
0.0
 11
103.3881191638974
 21
206.2235015144371
 31
0.0
 11
103.3893747017047
 21
206.2133631828516
 31
0.0
  0
SPLINE
  5
E4
330
2
100
AcDbEntity
  8
GAIKEI
  6
Continuous
 62
     1
100
AcDbSpline
210
0.0
220
0.0
230
1.0
 70
     8
 71
     3
 72
     9
 73
     5
 74
     3
 42
0.0000000001
 43
0.0000000001
 44
0.000001
 12
0.0354014571428636
 22
-0.9993731719593847
 32
0.0
 13
0.0453932351704914
 23
-0.9989691958217514
 33
0.0
 40
0.0
 40
0.0
 40
0.0
 40
0.0
 40
0.0065510483115441
 40
0.0130121296136327
 40
0.0130121296136327
 40
0.0130121296136327
 40
0.0130121296136327
 10
103.3823556583175
 20
206.3043055710847
 30
0.0
 10
103.3824329638696
 20
206.3021232571077
 30
0.0
 10
103.3826093375767
 20
206.2977894121455
 30
0.0
 10
103.3828072116289
 20
206.2934565557594
 30
0.0
 10
103.3829049747566
 20
206.2913050820286
 30
0.0
 11
103.3823556583175
 21
206.3043055710847
 31
0.0
 11
103.3826159402481
 21
206.2977596656707
 31
0.0
 11
103.3829049747566
 21
206.2913050820286
 31
0.0
  0
SPLINE
  5
E5
330
2
100
AcDbEntity
  8
GAIKEI
  6
Continuous
 62
     1
100
AcDbSpline
210
0.0
220
0.0
230
1.0
 70
     8
 71
     3
 72
     9
 73
     5
 74
     3
 42
0.0000000001
 43
0.0000000001
 44
0.000001
 12
-0.0091614349012668
 22
-0.9999580331746678
 32
0.0
 13
0.0035961960669798
 23
-0.9999935336660172
 33
0.0
 40
0.0
 40
0.0
 40
0.0
 40
0.0
 40
0.0092713104754389
 40
0.0185548833565153
 40
0.0185548833565153
 40
0.0185548833565153
 40
0.0185548833565153
 10
103.3815622012391
 20
206.3677211022083
 30
0.0
 10
103.3815338884033
 20
206.364630795079
 30
0.0
 10
103.3814922398339
 20
206.35844594148
 30
0.0
 10
103.3814900375631
 20
206.3522609178859
 30
0.0
 10
103.3815011660792
 20
206.3491664136024
 30
0.0
 11
103.3815622012391
 21
206.3677211022083
 31
0.0
 11
103.3815021017529
 21
206.3584500014923
 31
0.0
 11
103.3815011660792
 21
206.3491664136024
 31
0.0
  0
SPLINE
  5
E6
330
2
100
AcDbEntity
  8
GAIKEI
  6
Continuous
 62
     1
100
AcDbSpline
210
0.0
220
0.0
230
1.0
 70
     8
 71
     3
 72
     9
 73
     5
 74
     3
 42
0.0000000001
 43
0.0000000001
 44
0.000001
 12
-0.0569611709790511
 22
-0.9983763944528615
 32
0.0
 13
-0.0342607908576336
 23
-0.9994129267774203
 33
0.0
 40
0.0
 40
0.0
 40
0.0
 40
0.0
 40
0.0140491508217502
 40
0.0285936597046662
 40
0.0285936597046662
 40
0.0285936597046662
 40
0.0285936597046662
 10
103.3835763615154
 20
206.4315028442913
 30
0.0
 10
103.383309609488
 20
206.4268273974438
 30
0.0
 10
103.382830876874
 20
206.4173079218808
 30
0.0
 10
103.3824607252833
 20
206.4077837128607
 30
0.0
 10
103.3822946231577
 20
206.4029383894637
 30
0.0
 11
103.3835763615154
 21
206.4315028442913
 31
0.0
 11
103.3828659299867
 21
206.4174716083263
 31
0.0
 11
103.3822946231577
 21
206.4029383894637
 31
0.0
  0
SPLINE
  5
E7
330
2
100
AcDbEntity
  8
GAIKEI
  6
Continuous
 62
     1
100
AcDbSpline
210
0.0
220
0.0
230
1.0
 70
     8
 71
     3
 72
     9
 73
     5
 74
     3
 42
0.0000000001
 43
0.0000000001
 44
0.000001
 12
-0.1261518379468331
 22
-0.9920109443865204
 32
0.0
 13
-0.1054039013669571
 23
-0.9944294935170741
 33
0.0
 40
0.0
 40
0.0
 40
0.0
 40
0.0
 40
0.0069138441175133
 40
0.0141952970833248
 40
0.0141952970833248
 40
0.0141952970833248
 40
0.0141952970833248
 10
103.3889474555855
 20
206.4919276525804
 30
0.0
 10
103.3886567242046
 20
206.4896414495696
 30
0.0
 10
103.3880815477951
 20
206.4849446925625
 30
0.0
 10
103.3875553374519
 20
206.4802421611744
 30
0.0
 10
103.3872995062685
 20
206.4778285306462
 30
0.0
 11
103.3889474555855
 21
206.4919276525804
 31
0.0
 11
103.3881079448358
 21
206.4850649786121
 31
0.0
 11
103.3872995062685
 21
206.4778285306462
 31
0.0
  0
SPLINE
  5
E8
330
2
100
AcDbEntity
  8
GAIKEI
  6
Continuous
 62
     1
100
AcDbSpline
210
0.0
220
0.0
230
1.0
 70
     8
 71
     3
 72
     9
 73
     5
 74
     3
 42
0.0000000001
 43
0.0000000001
 44
0.000001
 12
0.1646380104571948
 22
-0.9863540568744554
 32
0.0
 13
0.2982273181557149
 23
-0.9544948751594478
 33
0.0
 40
0.0
 40
0.0
 40
0.0
 40
0.0
 40
0.0034886175919137
 40
0.0063125319357813
 40
0.0063125319357813
 40
0.0063125319357813
 40
0.0063125319357813
 10
103.3917550729404
 20
192.7875811326126
 30
0.0
 10
103.3919465259603
 20
192.7864341285744
 30
0.0
 10
103.3923180080336
 20
192.7843628455454
 30
0.0
 10
103.3928171236574
 20
192.7823150520537
 30
0.0
 10
103.3930978464579
 20
192.781416581464
 30
0.0
 11
103.3917550729404
 21
192.7875811326126
 31
0.0
 11
103.3923969963765
 21
192.7841523724236
 31
0.0
 11
103.3930978464579
 21
192.781416581464
 31
0.0
  0
SPLINE
  5
E9
330
2
100
AcDbEntity
  8
GAIKEI
  6
Continuous
 62
     1
100
AcDbSpline
210
0.0
220
0.0
230
1.0
 70
     8
 71
     3
 72
     9
 73
     5
 74
     3
 42
0.0000000001
 43
0.0000000001
 44
0.000001
 12
0.1008215918041188
 22
-0.9949045213617655
 32
0.0
 13
0.1320410088821702
 23
-0.9912442544465914
 33
0.0
 40
0.0
 40
0.0
 40
0.0
 40
0.0
 40
0.0110434410635829
 40
0.0212594793642338
 40
0.0212594793642338
 40
0.0212594793642338
 40
0.0212594793642338
 10
103.3869332953092
 20
192.8245074043449
 30
0.0
 10
103.3873044344115
 20
192.8208450145297
 30
0.0
 10
103.3880587480393
 20
192.8137985471335
 30
0.0
 10
103.38892505637
 20
192.8067647687798
 30
0.0
 10
103.3893747017047
 20
192.8033892390236
 30
0.0
 11
103.3869332953092
 21
192.8245074043449
 31
0.0
 11
103.3881191927684
 21
192.8135279580393
 31
0.0
 11
103.3893747017047
 21
192.8033892390236
 31
0.0
  0
SPLINE
  5
EA
330
2
100
AcDbEntity
  8
GAIKEI
  6
Continuous
 62
     1
100
AcDbSpline
210
0.0
220
0.0
230
1.0
 70
     8
 71
     3
 72
     9
 73
     5
 74
     3
 42
0.0000000001
 43
0.0000000001
 44
0.000001
 12
0.035394893594903
 22
-0.9993734044427066
 32
0.0
 13
0.0453961719075586
 23
-0.9989690623718733
 33
0.0
 40
0.0
 40
0.0
 40
0.0
 40
0.0
 40
0.0065206358171076
 40
0.0129511489853088
 40
0.0129511489853088
 40
0.0129511489853088
 40
0.0129511489853088
 10
103.3823556583175
 20
192.8942705920968
 30
0.0
 10
103.3824325907212
 20
192.8920984087582
 30
0.0
 10
103.3826094291106
 20
192.8877849222601
 30
0.0
 10
103.3828076678628
 20
192.8834724327707
 30
0.0
 10
103.3829049747566
 20
192.8813311382006
 30
0.0
 11
103.3823556583175
 21
192.8942705920968
 31
0.0
 11
103.3826159126286
 21
192.8877551188138
 31
0.0
 11
103.3829049747566
 21
192.8813311382006
 31
0.0
  0
SPLINE
  5
EB
330
2
100
AcDbEntity
  8
GAIKEI
  6
Continuous
 62
     1
100
AcDbSpline
210
0.0
220
0.0
230
1.0
 70
     8
 71
     3
 72
     9
 73
     5
 74
     3
 42
0.0000000001
 43
0.0000000001
 44
0.000001
 12
-0.0091608177041735
 22
-0.9999580388291256
 32
0.0
 13
0.003597856109263
 23
-0.9999935276947631
 33
0.0
 40
0.0
 40
0.0
 40
0.0
 40
0.0
 40
0.0093018293768903
 40
0.0186159185134005
 40
0.0186159185134005
 40
0.0186159185134005
 40
0.0186159185134005
 10
103.3815622012391
 20
192.9577471583803
 30
0.0
 10
103.381533797118
 20
192.9546466786932
 30
0.0
 10
103.3814921067574
 20
192.9484414794846
 30
0.0
 10
103.3814899958283
 20
192.9422361108988
 30
0.0
 10
103.3815011660792
 20
192.9391314346145
 30
0.0
 11
103.3815622012391
 21
192.9577471583803
 31
0.0
 11
103.3815020968853
 21
192.9484455382217
 31
0.0
 11
103.3815011660792
 21
192.9391314346145
 31
0.0
  0
SPLINE
  5
EC
330
2
100
AcDbEntity
  8
GAIKEI
  6
Continuous
 62
     1
100
AcDbSpline
210
0.0
220
0.0
230
1.0
 70
     8
 71
     3
 72
     9
 73
     5
 74
     3
 42
0.0000000001
 43
0.0000000001
 44
0.000001
 12
-0.0569605106606471
 22
-0.9983764321263189
 32
0.0
 13
-0.0342601710533544
 23
-0.9994129480246865
 33
0.0
 40
0.0
 40
0.0
 40
0.0
 40
0.0
 40
0.0140186829178265
 40
0.0285326849080506
 40
0.0285326849080506
 40
0.0285326849080506
 40
0.0285326849080506
 10
103.3835763615154
 20
193.0214678653034
 30
0.0
 10
103.3833101910694
 20
193.0168025577585
 30
0.0
 10
103.3828311319894
 20
193.0073034582166
 30
0.0
 10
103.382460373888
 20
192.9977996061412
 30
0.0
 10
103.3822946231577
 20
192.9929644456357
 30
0.0
 11
103.3835763615154
 21
193.0214678653034
 31
0.0
 11
103.3828659296375
 21
193.007467143193
 31
0.0
 11
103.3822946231577
 21
192.9929644456357
 31
0.0
  0
SPLINE
  5
ED
330
2
100
AcDbEntity
  8
GAIKEI
  6
Continuous
 62
     1
100
AcDbSpline
210
0.0
220
0.0
230
1.0
 70
     8
 71
     3
 72
     9
 73
     5
 74
     3
 42
0.0000000001
 43
0.0000000001
 44
0.000001
 12
-0.1261500648611508
 22
-0.9920111698642951
 32
0.0
 13
-0.1054054122280503
 23
-0.9944293333731838
 33
0.0
 40
0.0
 40
0.0
 40
0.0
 40
0.0
 40
0.0069139016790427
 40
0.0141952970221553
 40
0.0141952970221553
 40
0.0141952970221553
 40
0.0141952970221553
 10
103.3889474555855
 20
193.0819537087524
 30
0.0
 10
103.3886567258704
 20
193.0796674861881
 30
0.0
 10
103.3880815533411
 20
193.074970728756
 30
0.0
 10
103.3875553390944
 20
193.0702681978572
 30
0.0
 10
103.3872995062685
 20
193.0678545868182
 30
0.0
 11
103.3889474555855
 21
193.0819537087524
 31
0.0
 11
103.3881079497252
 21
193.0750909762272
 31
0.0
 11
103.3872995062685
 21
193.0678545868182
 31
0.0
  0
SPLINE
  5
EE
330
2
100
AcDbEntity
  8
GAIKEI
  6
Continuous
 62
     1
100
AcDbSpline
210
0.0
220
0.0
230
1.0
 70
     8
 71
     3
 72
    43
 73
    39
 74
    37
 42
0.0000000001
 43
0.0000000001
 44
0.000001
 12
0.2770611746011754
 22
0.9608522808052324
 32
0.0
 13
-0.2770611746011753
 23
0.9608522808052324
 33
0.0
 40
0.0
 40
0.0
 40
0.0
 40
0.0
 40
0.0034298107286485
 40
0.0070027013734225
 40
0.0128036496248798
 40
0.0195021664477526
 40
0.0270601532254047
 40
0.0354384984689491
 40
0.0445975430124794
 40
0.0544973314294983
 40
0.0650977598421361
 40
0.0763586698565404
 40
0.0882399129626037
 40
0.1007013981864231
 40
0.1137031301480003
 40
0.1272052417757909
 40
0.1411680243593775
 40
0.1555519567543672
 40
0.1703177350618818
 40
0.1854263038352469
 40
0.2005341871667334
 40
0.2152980286112792
 40
0.2296789521908365
 40
0.2436378337148011
 40
0.2571353318569392
 40
0.2701319177250574
 40
0.2825879039717019
 40
0.2944634747607844
 40
0.3057187183951352
 40
0.316313665276114
 40
0.3262083354255759
 40
0.3353628026942064
 40
0.3437372883792689
 40
0.3512923084612315
 40
0.3579889238936013
 40
0.3637892033673785
 40
0.3673620940121525
 40
0.3707919047408558
 40
0.3707919047408558
 40
0.3707919047408558
 40
0.3707919047408558
 10
103.3976754834495
 20
206.1700892544911
 30
0.0
 10
103.3979922392459
 20
206.1711877683115
 30
0.0
 10
103.3986007390231
 20
206.1734416124255
 30
0.0
 10
103.3996379446917
 20
206.1775816894482
 30
0.0
 10
103.4008103618318
 20
206.1828102279957
 30
0.0
 10
103.4020757162772
 20
206.1893759816907
 30
0.0
 10
103.4033451615908
 20
206.1968138232952
 30
0.0
 10
103.4045989796616
 20
206.2050848818892
 30
0.0
 10
103.4058261113107
 20
206.2141482439541
 30
0.0
 10
103.4070130191072
 20
206.2239634673614
 30
0.0
 10
103.4081470834914
 20
206.2344898738383
 30
0.0
 10
103.4092155032852
 20
206.2456868062065
 30
0.0
 10
103.4102055947445
 20
206.257513571615
 30
0.0
 10
103.4111046824439
 20
206.2699294700908
 30
0.0
 10
103.4119001186414
 20
206.2828937930049
 30
0.0
 10
103.4125792693628
 20
206.2963658278021
 30
0.0
 10
103.4131295128931
 20
206.3103048593407
 30
0.0
 10
103.4135382363783
 20
206.3246701717913
 30
0.0
 10
103.4137928343658
 20
206.3394210482039
 30
0.0
 10
103.4138801153122
 20
206.3544152088732
 30
0.0
 10
103.4137928419649
 20
206.3694087240028
 30
0.0
 10
103.413538249533
 20
206.3841577233168
 30
0.0
 10
103.4131295299453
 20
206.3985200859495
 30
0.0
 10
103.4125792887267
 20
206.4124552736823
 30
0.0
 10
103.4119001388123
 20
206.4259227494289
 30
0.0
 10
103.4111047019415
 20
206.4388819768007
 30
0.0
 10
103.4102056120641
 20
206.4512924219963
 30
0.0
 10
103.4092155168338
 20
206.4631135551364
 30
0.0
 10
103.4081470914818
 20
206.4743048549782
 30
0.0
 10
103.4070130194965
 20
206.4848258073797
 30
0.0
 10
103.4058261013803
 20
206.4946359337615
 30
0.0
 10
103.404598956477
 20
206.5036947344782
 30
0.0
 10
103.4033451190092
 20
206.511961945283
 30
0.0
 10
103.4020756519203
 20
206.5193968315948
 30
0.0
 10
103.4008102515556
 20
206.5259606954953
 30
0.0
 10
103.3996378724949
 20
206.5311883620191
 30
0.0
 10
103.3986007429089
 20
206.5353282280534
 30
0.0
 10
103.3979922392459
 20
206.5375820712341
 30
0.0
 10
103.3976754834495
 20
206.5386805850546
 30
0.0
 11
103.3976754834495
 21
206.1700892544911
 31
0.0
 11
103.3985774506739
 21
206.173398332388
 31
0.0
 11
103.3994455030862
 21
206.1768641572386
 31
0.0
 11
103.400717369512
 21
206.1825239428484
 31
0.0
 11
103.4019984776158
 21
206.1890987947078
 31
0.0
 11
103.4032762299576
 21
206.196547974889
 31
0.0
 11
103.4045380290972
 21
206.2048307454642
 31
0.0
 11
103.4057712775945
 21
206.2139063685055
 31
0.0
 11
103.4069633780096
 21
206.223734106085
 31
0.0
 11
103.4081017329024
 21
206.2342732202748
 31
0.0
 11
103.4091737448327
 21
206.2454829731472
 31
0.0
 11
103.4101668163605
 21
206.2573226267742
 31
0.0
 11
103.4110683500459
 21
206.2697514432279
 31
0.0
 11
103.4118657484485
 21
206.2827286845806
 31
0.0
 11
103.4125464141285
 21
206.2962136129044
 31
0.0
 11
103.4130977496456
 21
206.3101654902714
 31
0.0
 11
103.41350715756
 21
206.3245435787536
 31
0.0
 11
103.4137620404314
 21
206.3393071404234
 31
0.0
 11
103.4138498008198
 21
206.3544154373527
 31
0.0
 11
103.4137620404319
 21
206.3695230488287
 31
0.0
 11
103.4135071575608
 21
206.3842846733473
 31
0.0
 11
103.4130977496465
 21
206.3986597517949
 31
0.0
 11
103.4125464141296
 21
206.4126077250574
 31
0.0
 11
103.4118657484497
 21
206.4260880340209
 31
0.0
 11
103.411068350047
 21
206.4390601195715
 31
0.0
 11
103.4101668163617
 21
206.4514834225953
 31
0.0
 11
103.4091737448337
 21
206.4633173839784
 31
0.0
 11
103.4081017329033
 21
206.4745214446068
 31
0.0
 11
103.4069633780104
 21
206.4850550453666
 31
0.0
 11
103.4057712775951
 21
206.4948776271441
 31
0.0
 11
103.4045380290975
 21
206.5039486308252
 31
0.0
 11
103.4032762299578
 21
206.5122274972959
 31
0.0
 11
103.4019984776159
 21
206.5196736674424
 31
0.0
 11
103.4007173695121
 21
206.5262465821507
 31
0.0
 11
103.3994455030862
 21
206.531905682307
 31
0.0
 11
103.3985774506739
 21
206.5353715071576
 31
0.0
 11
103.3976754834495
 21
206.5386805850546
 31
0.0
  0
SPLINE
  5
EF
330
2
100
AcDbEntity
  8
GAIKEI
  6
Continuous
 62
     1
100
AcDbSpline
210
0.0
220
0.0
230
1.0
 70
     8
 71
     3
 72
    43
 73
    39
 74
    37
 42
0.0000000001
 43
0.0000000001
 44
0.000001
 12
0.2770611746011754
 22
0.9608522808052324
 32
0.0
 13
-0.2770611746011753
 23
0.9608522808052324
 33
0.0
 40
0.0
 40
0.0
 40
0.0
 40
0.0
 40
0.0034003813441646
 40
0.0069436756808768
 40
0.0127446235585384
 40
0.0194431400989963
 40
0.0270011267011547
 40
0.0353794718312455
 40
0.0445385162965493
 40
0.0544383046566619
 40
0.0650387330257353
 40
0.07629964300543
 40
0.0881808860827161
 40
0.1006423712818222
 40
0.1136441032214954
 40
0.1271462148291474
 40
0.1411089973939174
 40
0.1554929297708034
 40
0.1702587080600627
 40
0.1853672768149823
 40
0.2004758455698705
 40
0.2152416238591246
 40
0.2296255562360054
 40
0.2435883388006573
 40
0.2570904504084171
 40
0.2700921823480973
 40
0.2825536675472236
 40
0.2944349106244992
 40
0.3056958206040914
 40
0.3162962489732573
 40
0.3261960373333673
 40
0.3353550817987676
 40
0.343733426928789
 40
0.351291413531074
 40
0.3579899300715374
 40
0.363790877949079
 40
0.3673341722857912
 40
0.3707345536300654
 40
0.3707345536300654
 40
0.3707345536300654
 40
0.3707345536300654
 10
103.3976754834495
 20
192.7601153106631
 30
0.0
 10
103.3979895213326
 20
192.7612043987198
 30
0.0
 10
103.3986018178866
 20
192.763436741665
 30
0.0
 10
103.3996430059473
 20
192.7675556492527
 30
0.0
 10
103.4008092772164
 20
192.7727755080417
 30
0.0
 10
103.4020760674047
 20
192.7793409198788
 30
0.0
 10
103.4033450512731
 20
192.7867788710677
 30
0.0
 10
103.4045990137066
 20
192.7950498951906
 30
0.0
 10
103.4058261010879
 20
192.8041132677014
 30
0.0
 10
103.4070130222028
 20
192.8139284878787
 30
0.0
 10
103.4081470826173
 20
192.8244548952535
 30
0.0
 10
103.4092155035664
 20
192.8356518273099
 30
0.0
 10
103.4102055946825
 20
192.8474785927697
 30
0.0
 10
103.411104682475
 20
192.8598944911975
 30
0.0
 10
103.4119001186415
 20
192.8728588140961
 30
0.0
 10
103.4125792693681
 20
192.8863308488713
 30
0.0
 10
103.413129512895
 20
192.9002698803911
 30
0.0
 10
103.4135382363768
 20
192.9146351928245
 30
0.0
 10
103.4137928343747
 20
192.9293860692141
 30
0.0
 10
103.4138801166075
 20
192.9443804583649
 30
0.0
 10
103.4137928343753
 20
192.9593748475156
 30
0.0
 10
103.4135382363776
 20
192.9741257239052
 30
0.0
 10
103.413129512896
 20
192.9884910363386
 30
0.0
 10
103.4125792693691
 20
193.0024300678584
 30
0.0
 10
103.4119001186428
 20
193.0159021026336
 30
0.0
 10
103.411104682476
 20
193.0288664255323
 30
0.0
 10
103.4102055946839
 20
193.0412823239601
 30
0.0
 10
103.4092155035674
 20
193.0531090894198
 30
0.0
 10
103.4081470826182
 20
193.0643060214763
 30
0.0
 10
103.4070130222037
 20
193.074832428851
 30
0.0
 10
103.4058261010885
 20
193.0846476490282
 30
0.0
 10
103.4045990137068
 20
193.0937110215391
 30
0.0
 10
103.4033450512733
 20
193.1019820456621
 30
0.0
 10
103.4020760674047
 20
193.1094199968509
 30
0.0
 10
103.4008092772166
 20
193.1159854086881
 30
0.0
 10
103.3996430059473
 20
193.121205267477
 30
0.0
 10
103.3986018178866
 20
193.1253241750647
 30
0.0
 10
103.3979895213326
 20
193.1275565180099
 30
0.0
 10
103.3976754834495
 20
193.1286456060667
 30
0.0
 11
103.3976754834495
 21
192.7601153106631
 31
0.0
 11
103.3985774506739
 21
192.76339387098
 31
0.0
 11
103.3994455030862
 21
192.7668291782507
 31
0.0
 11
103.400717369512
 21
192.7724889638605
 31
0.0
 11
103.4019984776158
 21
192.7790638157199
 31
0.0
 11
103.4032762299576
 21
192.7865129959011
 31
0.0
 11
103.4045380290972
 21
192.7947957664763
 31
0.0
 11
103.4057712775945
 21
192.8038713895175
 31
0.0
 11
103.4069633780096
 21
192.8136991270971
 31
0.0
 11
103.4081017329024
 21
192.8242382412868
 31
0.0
 11
103.4091737448327
 21
192.8354479941593
 31
0.0
 11
103.4101668163605
 21
192.8472876477863
 31
0.0
 11
103.4110683500459
 21
192.8597164642401
 31
0.0
 11
103.4118657484485
 21
192.8726937055928
 31
0.0
 11
103.4125464141285
 21
192.8861786339165
 31
0.0
 11
103.4130977496456
 21
192.9001305112835
 31
0.0
 11
103.41350715756
 21
192.9145085997658
 31
0.0
 11
103.4137620404314
 21
192.9292721614355
 31
0.0
 11
103.4138498008198
 21
192.9443804583649
 31
0.0
 11
103.4137620404319
 21
192.9594887552943
 31
0.0
 11
103.4135071575608
 21
192.974252316964
 31
0.0
 11
103.4130977496465
 21
192.9886304054463
 31
0.0
 11
103.4125464141296
 21
193.0025822828132
 31
0.0
 11
103.4118657484497
 21
193.016067211137
 31
0.0
 11
103.411068350047
 21
193.0290444524897
 31
0.0
 11
103.4101668163617
 21
193.0414732689435
 31
0.0
 11
103.4091737448337
 21
193.0533129225705
 31
0.0
 11
103.4081017329033
 21
193.0645226754428
 31
0.0
 11
103.4069633780104
 21
193.0750617896327
 31
0.0
 11
103.4057712775951
 21
193.0848895272121
 31
0.0
 11
103.4045380290975
 21
193.0939651502535
 31
0.0
 11
103.4032762299578
 21
193.1022479208286
 31
0.0
 11
103.4019984776159
 21
193.1096971010099
 31
0.0
 11
103.4007173695121
 21
193.1162719528693
 31
0.0
 11
103.3994455030862
 21
193.121931738479
 31
0.0
 11
103.3985774506739
 21
193.1253670457497
 31
0.0
 11
103.3976754834495
 21
193.1286456060667
 31
0.0
  0
SPLINE
  5
F0
330
2
100
AcDbEntity
  8
GAIKEI
  6
Continuous
100
AcDbSpline
210
0.0
220
0.0
230
1.0
 70
     8
 71
     3
 72
     9
 73
     5
 74
     3
 42
0.0000000001
 43
0.0000000001
 44
0.000001
 12
-0.3157010400653189
 22
-0.9488587109268038
 32
0.0
 13
-0.5936093330953858
 23
-0.8047533533089822
 33
0.0
 40
0.0
 40
0.0
 40
0.0
 40
0.0
 40
0.0090766684078032
 40
0.017304006212203
 40
0.017304006212203
 40
0.017304006212203
 40
0.017304006212203
 10
103.655671104296
 20
188.6907180954518
 30
0.0
 10
103.6547159330771
 20
188.6878472701568
 30
0.0
 10
103.6527041883316
 20
188.6824402136177
 30
0.0
 10
103.6499748266118
 20
188.6773000870828
 30
0.0
 10
103.6483468851094
 20
188.6750930945204
 30
0.0
 11
103.655671104296
 21
188.6907180954518
 31
0.0
 11
103.6524074480515
 21
188.6822490987957
 31
0.0
 11
103.6483468851094
 21
188.6750930945204
 31
0.0
  0
SPLINE
  5
F1
330
2
100
AcDbEntity
  8
GAIKEI
  6
Continuous
100
AcDbSpline
210
0.0
220
0.0
230
1.0
 70
     8
 71
     3
 72
     9
 73
     5
 74
     3
 42
0.0000000001
 43
0.0000000001
 44
0.000001
 12
-0.0126254316132282
 22
-0.999920296061931
 32
0.0
 13
-0.1660238152324452
 23
-0.9861217433844885
 33
0.0
 40
0.0
 40
0.0
 40
0.0
 40
0.0
 40
0.013550965719837
 40
0.0299519371208114
 40
0.0299519371208114
 40
0.0299519371208114
 40
0.0299519371208114
 10
103.6781320431348
 20
188.7955765001393
 30
0.0
 10
103.6780750142044
 20
188.7910598715879
 30
0.0
 10
103.6777706630343
 20
188.7810796131896
 30
0.0
 10
103.6767813928341
 20
188.7711214251245
 30
0.0
 10
103.6758737422189
 20
188.7657303069542
 30
0.0
 11
103.6781320431348
 21
188.7955765001393
 31
0.0
 11
103.6776586622683
 21
188.7820344208968
 31
0.0
 11
103.6758737422189
 21
188.7657303069542
 31
0.0
  0
SPLINE
  5
F2
330
2
100
AcDbEntity
  8
GAIKEI
  6
Continuous
100
AcDbSpline
210
0.0
220
0.0
230
1.0
 70
     8
 71
     3
 72
     9
 73
     5
 74
     3
 42
0.0000000001
 43
0.0000000001
 44
0.000001
 12
-0.9512628121061844
 22
-0.3083813585543628
 32
0.0
 13
-0.9560356348868982
 23
-0.2932505154750897
 33
0.0
 40
0.0
 40
0.0
 40
0.0
 40
0.0
 40
0.002315663836279
 40
0.0045951359213599
 40
0.0045951359213599
 40
0.0045951359213599
 40
0.0045951359213599
 10
103.4879464849238
 20
188.5374588089731
 30
0.0
 10
103.4872122166262
 20
188.5372207731198
 30
0.0
 10
103.4857469165988
 20
188.536774128157
 30
0.0
 10
103.4842783722592
 20
188.5363388542436
 30
0.0
 10
103.4835519534119
 20
188.5361160354556
 30
0.0
 11
103.4879464849238
 21
188.5374588089731
 31
0.0
 11
103.4857345925131
 21
188.5367730848517
 31
0.0
 11
103.4835519534119
 21
188.5361160354556
 31
0.0
  0
SPLINE
  5
F3
330
2
100
AcDbEntity
  8
GAIKEI
  6
Continuous
100
AcDbSpline
210
0.0
220
0.0
230
1.0
 70
     8
 71
     3
 72
     9
 73
     5
 74
     3
 42
0.0000000001
 43
0.0000000001
 44
0.000001
 12
-0.9421594453780514
 22
-0.3351650033713585
 32
0.0
 13
-0.8771292464302293
 23
-0.4802543961867901
 33
0.0
 40
0.0
 40
0.0
 40
0.0
 40
0.0
 40
0.0011591428798617
 40
0.002007827096508
 40
0.002007827096508
 40
0.002007827096508
 40
0.002007827096508
 10
103.4947824228313
 20
188.5398391802088
 30
0.0
 10
103.4944183903603
 20
188.5397096788331
 30
0.0
 10
103.4937918198555
 20
188.5394815625629
 30
0.0
 10
103.4931384681238
 20
188.539303654892
 30
0.0
 10
103.4928903328747
 20
188.53916779345
 30
0.0
 11
103.4947824228313
 21
188.5398391802088
 31
0.0
 11
103.4936864431823
 21
188.5394621224694
 31
0.0
 11
103.4928903328747
 21
188.53916779345
 31
0.0
  0
SPLINE
  5
F4
330
2
100
AcDbEntity
  8
GAIKEI
  6
Continuous
100
AcDbSpline
210
0.0
220
0.0
230
1.0
 70
     8
 71
     3
 72
     9
 73
     5
 74
     3
 42
0.0000000001
 43
0.0000000001
 44
0.000001
 12
-0.9564705885565075
 22
-0.2918287395483318
 32
0.0
 13
-0.9752593618868349
 23
-0.2210637397948462
 33
0.0
 40
0.0
 40
0.0
 40
0.0
 40
0.0
 40
0.0050183846228628
 40
0.0095840110870599
 40
0.0095840110870599
 40
0.0095840110870599
 40
0.0095840110870599
 10
103.4835519534119
 20
188.5361160354556
 30
0.0
 10
103.4819519743139
 20
188.5356278658359
 30
0.0
 10
103.478899014711
 20
188.534689126263
 30
0.0
 10
103.4758198675861
 20
188.5338279550673
 30
0.0
 10
103.4743356442688
 20
188.5334915235804
 30
0.0
 11
103.4835519534119
 21
188.5361160354556
 31
0.0
 11
103.4787474667167
 21
188.5346670365594
 31
0.0
 11
103.4743356442688
 21
188.5334915235804
 31
0.0
  0
SPLINE
  5
F5
330
2
100
AcDbEntity
  8
GAIKEI
  6
Continuous
 62
     1
100
AcDbSpline
210
0.0
220
0.0
230
1.0
 70
     8
 71
     3
 72
    13
 73
     9
 74
     7
 42
0.0000000001
 43
0.0000000001
 44
0.000001
 12
0.0171063064596899
 22
-0.9998536764343606
 32
0.0
 13
0.9062487129382525
 23
0.4227449234441038
 33
0.0
 40
0.0
 40
0.0
 40
0.0
 40
0.0
 40
0.1499071949143619
 40
0.2861535616704809
 40
0.4073301870035609
 40
0.4849560908470949
 40
0.5237979657206426
 40
0.5360583401268614
 40
0.5360583401268614
 40
0.5360583401268614
 40
0.5360583401268614
 10
103.1121530054935
 20
189.4067215560977
 30
0.0
 10
103.1130077916324
 20
189.356759802778
 30
0.0
 10
103.1142373106098
 20
189.2613209767283
 30
0.0
 10
103.1174660181302
 20
189.1258261395946
 30
0.0
 10
103.1073562108751
 20
189.013327679998
 30
0.0
 10
103.1111674972125
 20
188.936192430202
 30
0.0
 10
103.0891704260195
 20
188.8910472135086
 30
0.0
 10
103.1074117582668
 20
188.8761242253218
 30
0.0
 10
103.1111154077754
 20
188.8778518956684
 30
0.0
 11
103.1121530054935
 21
189.4067215560977
 31
0.0
 11
103.1145816296024
 21
189.2568348496331
 31
0.0
 11
103.1148385525286
 21
189.1205887265429
 31
0.0
 11
103.10945591446
 21
188.9995317195468
 31
0.0
 11
103.1021192773349
 21
188.9222533310405
 31
0.0
 11
103.1002114916184
 21
188.8834584325668
 31
0.0
 11
103.1111154077754
 21
188.8778518956684
 31
0.0
  0
SPLINE
  5
F6
330
2
100
AcDbEntity
  8
GAIKEI
  6
Continuous
 62
     1
100
AcDbSpline
210
0.0
220
0.0
230
1.0
 70
     8
 71
     3
 72
     9
 73
     5
 74
     3
 42
0.0000000001
 43
0.0000000001
 44
0.000001
 12
-0.3838936161508544
 22
0.9233773288740744
 32
0.0
 13
0.9065999430110529
 23
0.4219911649932447
 33
0.0
 40
0.0
 40
0.0
 40
0.0
 40
0.0
 40
0.1089050845402781
 40
0.1584584259988977
 40
0.1584584259988977
 40
0.1584584259988977
 40
0.1584584259988977
 10
102.9873361035225
 20
188.6505569602455
 30
0.0
 10
102.9734001146154
 20
188.6840771222668
 30
0.0
 10
102.9656332872723
 20
188.722804998326
 30
0.0
 10
102.9361672348615
 20
188.7962965728548
 30
0.0
 10
102.951142253709
 20
188.8032669302853
 30
0.0
 11
102.9873361035225
 21
188.6505569602455
 31
0.0
 11
102.9524752893172
 21
188.7537308910052
 31
0.0
 11
102.951142253709
 21
188.8032669302853
 31
0.0
  0
SPLINE
  5
F7
330
2
100
AcDbEntity
  8
GAIKEI
  6
Continuous
100
AcDbSpline
210
0.0
220
0.0
230
1.0
 70
     8
 71
     3
 72
     9
 73
     5
 74
     3
 42
0.0000000001
 43
0.0000000001
 44
0.000001
 12
-0.5706642736664941
 22
-0.8211834671744755
 32
0.0
 13
-0.5093037193375936
 23
-0.8605868471391447
 33
0.0
 40
0.0
 40
0.0
 40
0.0
 40
0.0
 40
0.0025620985913677
 40
0.0051314383267711
 40
0.0051314383267711
 40
0.0051314383267711
 40
0.0051314383267711
 10
103.416474312695
 20
189.0088943839479
 30
0.0
 10
103.4159869466511
 20
189.0081930662797
 30
0.0
 10
103.4150488824836
 20
189.0067618930863
 30
0.0
 10
103.4141639219278
 20
189.0052979342565
 30
0.0
 10
103.4137277305
 20
189.0045608875958
 30
0.0
 11
103.416474312695
 21
189.0088943839479
 31
0.0
 11
103.415063584174
 21
189.0067553222474
 31
0.0
 11
103.4137277305
 21
189.0045608875958
 31
0.0
  0
SPLINE
  5
F8
330
2
100
AcDbEntity
  8
GAIKEI
  6
Continuous
 62
     1
100
AcDbSpline
210
0.0
220
0.0
230
1.0
 70
     8
 71
     3
 72
     9
 73
     5
 74
     3
 42
0.0000000001
 43
0.0000000001
 44
0.000001
 12
0.0144628323544703
 22
0.9998954077703761
 32
0.0
 13
0.9053598185504306
 23
0.4246452624889761
 33
0.0
 40
0.0
 40
0.0
 40
0.0
 40
0.0
 40
0.058825672779929
 40
0.0800501390681189
 40
0.0800501390681189
 40
0.0800501390681189
 40
0.0800501390681189
 10
103.4465036113599
 20
188.9542068806883
 30
0.0
 10
103.4467872066411
 20
188.9738133873789
 30
0.0
 10
103.452724016874
 20
188.9948815673953
 30
0.0
 10
103.4400983517107
 20
189.0312196856153
 30
0.0
 10
103.4465036113599
 20
189.0342239753014
 30
0.0
 11
103.4465036113599
 21
188.9542068806883
 31
0.0
 11
103.4454893731924
 21
189.0130232180774
 31
0.0
 11
103.4465036113599
 21
189.0342239753014
 31
0.0
  0
SPLINE
  5
F9
330
2
100
AcDbEntity
  8
GAIKEI
  6
Continuous
 62
     1
100
AcDbSpline
210
0.0
220
0.0
230
1.0
 70
     8
 71
     3
 72
     9
 73
     5
 74
     3
 42
0.0000000001
 43
0.0000000001
 44
0.000001
 12
0.088371545246291
 22
0.9960875814860774
 32
0.0
 13
-0.9108295441416883
 23
-0.4127826807396893
 33
0.0
 40
0.0
 40
0.0
 40
0.0
 40
0.0
 40
0.082273246803333
 40
0.1113654689795273
 40
0.1113654689795273
 40
0.1113654689795273
 40
0.1113654689795273
 10
103.5193795922661
 20
188.9571365683629
 30
0.0
 10
103.5218031302502
 20
188.9844536881727
 30
0.0
 10
103.5144585511045
 20
189.0024877939938
 30
0.0
 10
103.5282733125802
 20
189.0722845163384
 30
0.0
 10
103.519440627426
 20
189.0682815945188
 30
0.0
 11
103.5193795922661
 21
188.9571365683629
 31
0.0
 11
103.5224990857047
 21
189.0393497539849
 31
0.0
 11
103.519440627426
 21
189.0682815945188
 31
0.0
  0
SPLINE
  5
FA
330
2
100
AcDbEntity
  8
GAIKEI
  6
Continuous
 62
     1
100
AcDbSpline
210
0.0
220
0.0
230
1.0
 70
     8
 71
     3
 72
    11
 73
     7
 74
     5
 42
0.0000000001
 43
0.0000000001
 44
0.000001
 12
0.5343295847045642
 22
0.8452762240294283
 32
0.0
 13
0.4235545341722595
 23
0.9058706069754778
 33
0.0
 40
0.0
 40
0.0
 40
0.0
 40
0.0
 40
0.0051026150698787
 40
0.010241829671313
 40
0.0907509768669066
 40
0.1712612797758865
 40
0.1712612797758865
 40
0.1712612797758865
 40
0.1712612797758865
 10
103.4465036113599
 20
188.6809524698698
 30
0.0
 10
103.4474124374236
 20
188.6823901762694
 30
0.0
 10
103.4490408862812
 20
188.6853984930245
 30
0.0
 10
103.4618032048338
 20
188.71282151193
 30
0.0
 10
103.4853122580625
 20
188.7629750985542
 30
0.0
 10
103.5080127576512
 20
188.8116101018373
 30
0.0
 10
103.5193795922661
 20
188.8359207408253
 30
0.0
 11
103.4465036113599
 21
188.6809524698698
 31
0.0
 11
103.4489875106287
 21
188.685409740262
 31
0.0
 11
103.4512033186713
 21
188.690046708693
 31
0.0
 11
103.4852908614629
 21
188.7629833929226
 31
0.0
 11
103.5193795922661
 21
188.8359207408253
 31
0.0
  0
SPLINE
  5
FB
330
2
100
AcDbEntity
  8
GAIKEI
  6
Continuous
 62
     1
100
AcDbSpline
210
0.0
220
0.0
230
1.0
 70
     8
 71
     3
 72
     9
 73
     5
 74
     3
 42
0.0000000001
 43
0.0000000001
 44
0.000001
 12
0.3837437811265501
 22
-0.9234396084458898
 32
0.0
 13
-0.9665308733465561
 23
-0.2565503281384446
 33
0.0
 40
0.0
 40
0.0
 40
0.0
 40
0.0
 40
0.1059178649118701
 40
0.1755777114824107
 40
0.1755777114824107
 40
0.1755777114824107
 40
0.1755777114824107
 10
103.4465036113599
 20
188.6809524698698
 30
0.0
 10
103.4600520520166
 20
188.6483495526359
 30
0.0
 10
103.4717014900248
 20
188.5907581693889
 30
0.0
 10
103.4413585165381
 20
188.5246170652262
 30
0.0
 10
103.4189157190905
 20
188.5186599797276
 30
0.0
 11
103.4465036113599
 21
188.6809524698698
 31
0.0
 11
103.4588254623793
 21
188.5757547768975
 31
0.0
 11
103.4189157190905
 21
188.5186599797276
 31
0.0
  0
SPLINE
  5
FC
330
2
100
AcDbEntity
  8
GAIKEI
  6
Continuous
100
AcDbSpline
210
0.0
220
0.0
230
1.0
 70
     8
 71
     3
 72
     9
 73
     5
 74
     3
 42
0.0000000001
 43
0.0000000001
 44
0.000001
 12
0.5797443213398604
 22
-0.8147984547568709
 32
0.0
 13
0.1755249561896888
 23
-0.9844749817819687
 33
0.0
 40
0.0
 40
0.0
 40
0.0
 40
0.0
 40
0.0609983285825953
 40
0.1219991254618549
 40
0.1219991254618549
 40
0.1219991254618549
 40
0.1219991254618549
 10
103.2794503787465
 20
213.3040008125178
 30
0.0
 10
103.2912381902821
 20
213.2874336978939
 30
0.0
 10
103.3110107560026
 20
213.2514535831461
 30
0.0
 10
103.3225121868343
 20
213.2120802487488
 30
0.0
 10
103.3260812409009
 20
213.1920623292833
 30
0.0
 11
103.2794503787465
 21
213.3040008125178
 31
0.0
 11
103.3089433436099
 21
213.2506053145165
 31
0.0
 11
103.3260812409009
 21
213.1920623292833
 31
0.0
  0
SPLINE
  5
FD
330
2
100
AcDbEntity
  8
GAIKEI
  6
Continuous
100
AcDbSpline
210
0.0
220
0.0
230
1.0
 70
     8
 71
     3
 72
     9
 73
     5
 74
     3
 42
0.0000000001
 43
0.0000000001
 44
0.000001
 12
0.7764249965061638
 22
-0.6302096673333438
 32
0.0
 13
0.737253800590099
 23
-0.675615891994449
 33
0.0
 40
0.0
 40
0.0
 40
0.0
 40
0.0
 40
0.0083503360266857
 40
0.0167047820409055
 40
0.0167047820409055
 40
0.0167047820409055
 40
0.0167047820409055
 10
103.2282418796005
 20
213.3587493509373
 30
0.0
 10
103.2304030161406
 20
213.3569951967742
 30
0.0
 10
103.2346677811903
 20
213.3534133780765
 30
0.0
 10
103.2388230420053
 20
213.3497055228161
 30
0.0
 10
103.2408761576973
 20
213.3478240573174
 30
0.0
 11
103.2282418796005
 21
213.3587493509373
 31
0.0
 11
103.2346394292776
 21
213.3533826103348
 31
0.0
 11
103.2408761576973
 21
213.3478240573174
 31
0.0
  0
SPLINE
  5
FE
330
2
100
AcDbEntity
  8
GAIKEI
  6
Continuous
100
AcDbSpline
210
0.0
220
0.0
230
1.0
 70
     8
 71
     3
 72
     9
 73
     5
 74
     3
 42
0.0000000001
 43
0.0000000001
 44
0.000001
 12
0.9654121897346719
 22
-0.2607284102504092
 32
0.0
 13
0.9022432926017431
 23
-0.4312273657308469
 33
0.0
 40
0.0
 40
0.0
 40
0.0
 40
0.0
 40
0.0246662016359253
 40
0.0503219312280147
 40
0.0503219312280147
 40
0.0503219312280147
 40
0.0503219312280147
 10
103.1265573032271
 20
213.4107513071619
 30
0.0
 10
103.1344949871383
 20
213.4086075806488
 30
0.0
 10
103.1504934554287
 20
213.4034804897696
 30
0.0
 10
103.1659605433468
 20
213.3969220338366
 30
0.0
 10
103.1736764466606
 20
213.393234216274
 30
0.0
 11
103.1265573032271
 21
213.4107513071619
 31
0.0
 11
103.1500521405705
 21
213.4032377138795
 31
0.0
 11
103.1736764466606
 21
213.393234216274
 31
0.0
  0
SPLINE
  5
FF
330
2
100
AcDbEntity
  8
GAIKEI
  6
Continuous
 62
     1
100
AcDbSpline
210
0.0
220
0.0
230
1.0
 70
     8
 71
     3
 72
     9
 73
     5
 74
     3
 42
0.0000000001
 43
0.0000000001
 44
0.000001
 12
0.1860620377725842
 22
-0.9825379982982406
 32
0.0
 13
-0.3863119893201843
 23
-0.9223681731865438
 33
0.0
 40
0.0
 40
0.0
 40
0.0
 40
0.0
 40
0.1196974472845352
 40
0.3243034073795372
 40
0.3243034073795372
 40
0.3243034073795372
 40
0.3243034073795372
 10
102.3517769836091
 20
208.1945644728154
 30
0.0
 10
102.359200700595
 20
208.1553620427299
 30
0.0
 10
102.3249495281434
 20
208.0464988714596
 30
0.0
 10
102.2918716056068
 20
207.9463102436833
 30
0.0
 10
102.2655243604498
 20
207.8834029018047
 30
0.0
 11
102.3517769836091
 21
208.1945644728154
 31
0.0
 11
102.3340759441906
 21
208.0761828113164
 31
0.0
 11
102.2655243604498
 21
207.8834029018047
 31
0.0
  0
SPLINE
  5
100
330
2
100
AcDbEntity
  8
GAIKEI
  6
Continuous
 62
     1
100
AcDbSpline
210
0.0
220
0.0
230
1.0
 70
     8
 71
     3
 72
     9
 73
     5
 74
     3
 42
0.0000000001
 43
0.0000000001
 44
0.000001
 12
0.9987434150041043
 22
-0.0501157758189905
 32
0.0
 13
0.0001977800506801
 23
0.9999999804415256
 33
0.0
 40
0.0
 40
0.0
 40
0.0
 40
0.0
 40
0.1293505015534386
 40
0.1867588245599918
 40
0.1867588245599918
 40
0.1867588245599918
 40
0.1867588245599918
 10
101.9281930508151
 20
212.6828325984856
 30
0.0
 10
101.9712557046997
 20
212.6806717649063
 30
0.0
 10
102.0195266688889
 20
212.6788954897604
 30
0.0
 10
102.1081818757558
 20
212.6942274629873
 30
0.0
 10
102.1081856604962
 20
212.7133635702818
 30
0.0
 11
101.9281930508151
 21
212.6828325984856
 31
0.0
 11
102.0574929074707
 21
212.6864184907665
 31
0.0
 11
102.1081856604962
 21
212.7133635702818
 31
0.0
  0
SPLINE
  5
101
330
2
100
AcDbEntity
  8
GAIKEI
  6
Continuous
100
AcDbSpline
210
0.0
220
0.0
230
1.0
 70
     8
 71
     3
 72
     9
 73
     5
 74
     3
 42
0.0000000001
 43
0.0000000001
 44
0.000001
 12
0.8295558649051782
 22
-0.5584237342748085
 32
0.0
 13
0.7181515903451525
 23
-0.6958866957233257
 33
0.0
 40
0.0
 40
0.0
 40
0.0
 40
0.0
 40
0.0468884831089459
 40
0.0937367770005502
 40
0.0937367770005502
 40
0.0937367770005502
 40
0.0937367770005502
 10
101.8759468771224
 20
213.6382293480644
 30
0.0
 10
101.8889124158422
 20
213.6295014674537
 30
0.0
 10
101.9140680905923
 20
213.6108910169618
 30
0.0
 10
101.9374860621212
 20
213.5901364184248
 30
0.0
 10
101.9487007877089
 20
213.5792693836126
 30
0.0
 11
101.8759468771224
 21
213.6382293480644
 31
0.0
 11
101.9136434383514
 21
213.6103457720358
 31
0.0
 11
101.9487007877089
 21
213.5792693836126
 31
0.0
  0
SPLINE
  5
102
330
2
100
AcDbEntity
  8
GAIKEI
  6
Continuous
100
AcDbSpline
210
0.0
220
0.0
230
1.0
 70
     8
 71
     3
 72
     9
 73
     5
 74
     3
 42
0.0000000001
 43
0.0000000001
 44
0.000001
 12
-0.1770699054458256
 22
0.9841982770689078
 32
0.0
 13
-0.9788794881764774
 23
0.2044381266480339
 33
0.0
 40
0.0
 40
0.0
 40
0.0
 40
0.0
 40
0.0810830638413386
 40
0.1015696684434331
 40
0.1015696684434331
 40
0.1015696684434331
 40
0.1015696684434331
 10
101.7283868828074
 20
213.6222163710135
 30
0.0
 10
101.7236010926582
 20
213.6488169749242
 30
0.0
 10
101.7143347943677
 20
213.6770998734779
 30
0.0
 10
101.6990377551885
 20
213.7145920607396
 30
0.0
 10
101.6923531161794
 20
213.7159881417617
 30
0.0
 11
101.7283868828074
 21
213.6222163710135
 31
0.0
 11
101.7049627879794
 21
213.6998414758739
 31
0.0
 11
101.6923531161794
 21
213.7159881417617
 31
0.0
  0
SPLINE
  5
103
330
2
100
AcDbEntity
  8
GAIKEI
  6
Continuous
100
AcDbSpline
210
0.0
220
0.0
230
1.0
 70
     8
 71
     3
 72
     9
 73
     5
 74
     3
 42
0.0000000001
 43
0.0000000001
 44
0.000001
 12
0.0554147012212912
 22
0.9984634249127781
 32
0.0
 13
0.9781883213327244
 23
-0.2077200231279278
 33
0.0
 40
0.0
 40
0.0
 40
0.0
 40
0.0
 40
0.0626277234781332
 40
0.0848015881153917
 40
0.0848015881153917
 40
0.0848015881153917
 40
0.0848015881153917
 10
101.5918958733178
 20
213.6514644444755
 30
0.0
 10
101.5930527055127
 20
213.6723082749017
 30
0.0
 10
101.5966267125792
 20
213.6901547692927
 30
0.0
 10
101.5991855392481
 20
213.7357729731266
 30
0.0
 10
101.6064156110571
 20
213.7342376545682
 30
0.0
 11
101.5918958733178
 21
213.6514644444755
 31
0.0
 11
101.5977783489169
 21
213.7138144030609
 31
0.0
 11
101.6064156110571
 21
213.7342376545682
 31
0.0
  0
SPLINE
  5
104
330
2
100
AcDbEntity
  8
GAIKEI
  6
Continuous
 62
     1
100
AcDbSpline
210
0.0
220
0.0
230
1.0
 70
     8
 71
     3
 72
     9
 73
     5
 74
     3
 42
0.0000000001
 43
0.0000000001
 44
0.000001
 12
0.6567232424679582
 22
-0.7541316747109695
 32
0.0
 13
0.7508528871760762
 23
-0.6604694859108565
 33
0.0
 40
0.0
 40
0.0
 40
0.0
 40
0.0
 40
0.0622959924961765
 40
0.1246752873558903
 40
0.1246752873558903
 40
0.1246752873558903
 40
0.1246752873558903
 10
101.9374319922888
 20
207.9633728162942
 30
0.0
 10
101.9510690676837
 20
207.9477130225778
 30
0.0
 10
101.9793950155444
 20
207.9172574815744
 30
0.0
 10
102.0096800020676
 20
207.888747029413
 30
0.0
 10
102.0252925599494
 20
207.8750138224772
 30
0.0
 11
101.9374319922888
 21
207.9633728162942
 31
0.0
 11
101.9798642265459
 21
207.9177632034142
 31
0.0
 11
102.0252925599494
 21
207.8750138224772
 31
0.0
  0
SPLINE
  5
105
330
2
100
AcDbEntity
  8
GAIKEI
  6
Continuous
 62
     1
100
AcDbSpline
210
0.0
220
0.0
230
1.0
 70
     8
 71
     3
 72
    11
 73
     7
 74
     5
 42
0.0000000001
 43
0.0000000001
 44
0.000001
 12
0.9206948447319934
 22
0.3902832341824724
 32
0.0
 13
0.3671367247417234
 23
-0.9301669878822405
 33
0.0
 40
0.0
 40
0.0
 40
0.0
 40
0.0
 40
0.0726826003241037
 40
0.1415657218736455
 40
0.2004100302421348
 40
0.2281680664201021
 40
0.2281680664201021
 40
0.2281680664201021
 40
0.2281680664201021
 10
103.1121530054935
 20
189.4067215560977
 30
0.0
 10
103.1344591706335
 20
189.4161771562054
 30
0.0
 10
103.1799035258488
 20
189.4306406363742
 30
0.0
 10
103.2459461990591
 20
189.438466666241
 30
0.0
 10
103.299674118419
 20
189.4357182462761
 30
0.0
 10
103.3239049459361
 20
189.4153280923981
 30
0.0
 10
103.3273019440987
 20
189.4067215560977
 30
0.0
 11
103.1121530054935
 21
189.4067215560977
 31
0.0
 11
103.1814405537398
 21
189.4286728592954
 31
0.0
 11
103.2498483262008
 21
189.4367508547626
 31
0.0
 11
103.3077858712383
 21
189.4264613705801
 31
0.0
 11
103.3273019440987
 21
189.4067215560977
 31
0.0
  0
SPLINE
  5
106
330
2
100
AcDbEntity
  8
GAIKEI
  6
Continuous
 62
     1
100
AcDbSpline
210
0.0
220
0.0
230
1.0
 70
     8
 71
     3
 72
     9
 73
     5
 74
     3
 42
0.0000000001
 43
0.0000000001
 44
0.000001
 12
0.0579129316284592
 22
-0.9983216377251357
 32
0.0
 13
-0.0189869989958103
 23
-0.9998197306860538
 33
0.0
 40
0.0
 40
0.0
 40
0.0
 40
0.0
 40
0.1056034001939803
 40
0.2027679800167066
 40
0.2027679800167066
 40
0.2027679800167066
 40
0.2027679800167066
 10
103.1070391015237
 20
207.4820106315923
 30
0.0
 10
103.1090777023554
 20
207.4468685784486
 30
0.0
 10
103.112098291564
 20
207.3793382727579
 30
0.0
 10
103.1127679600867
 20
207.311724604972
 30
0.0
 10
103.1121530054935
 20
207.2793422502952
 30
0.0
 11
103.1070391015237
 21
207.4820106315923
 31
0.0
 11
103.1115853414189
 21
207.3765052977498
 31
0.0
 11
103.1121530054935
 21
207.2793422502952
 31
0.0
  0
SPLINE
  5
107
330
2
100
AcDbEntity
  8
GAIKEI
  6
Continuous
 62
     1
100
AcDbSpline
210
0.0
220
0.0
230
1.0
 70
     8
 71
     3
 72
     9
 73
     5
 74
     3
 42
0.0000000001
 43
0.0000000001
 44
0.000001
 12
0.9038411592213025
 22
-0.4278681559750528
 32
0.0
 13
0.3435351878273928
 23
0.9391398057394852
 33
0.0
 40
0.0
 40
0.0
 40
0.0
 40
0.0
 40
0.1444206830774935
 40
0.2249124189691859
 40
0.2249124189691859
 40
0.2249124189691859
 40
0.2249124189691859
 10
103.1121530054935
 20
207.2793422502952
 30
0.0
 10
103.1556641246963
 20
207.2587445798442
 30
0.0
 10
103.2220462862917
 20
207.2395990087941
 30
0.0
 10
103.3180846962293
 20
207.2541445858922
 30
0.0
 10
103.3273019440987
 20
207.2793422502952
 30
0.0
 11
103.1121530054935
 21
207.2793422502952
 31
0.0
 11
103.2531415947797
 21
207.2480489661446
 31
0.0
 11
103.3273019440987
 21
207.2793422502952
 31
0.0
  0
SPLINE
  5
108
330
2
100
AcDbEntity
  8
GAIKEI
  6
Continuous
 62
     1
100
AcDbSpline
210
0.0
220
0.0
230
1.0
 70
     8
 71
     3
 72
    11
 73
     7
 74
     5
 42
0.0000000001
 43
0.0000000001
 44
0.000001
 12
0.9999999136648373
 22
-0.0004155361809812
 32
0.0
 13
-0.9999999982988994
 23
-0.0000583283907888
 33
0.0
 40
0.0
 40
0.0
 40
0.0
 40
0.0
 40
0.1068249115461763
 40
0.3305210750163937
 40
0.5542130927240585
 40
0.6610280755899166
 40
0.6610280755899166
 40
0.6610280755899166
 40
0.6610280755899166
 10
103.4093331989881
 20
206.6793666285963
 30
0.0
 10
103.4449414997625
 20
206.6793518320577
 30
0.0
 10
103.437181767571
 20
206.5098397006815
 30
0.0
 10
103.4644996174534
 20
206.354374409918
 30
0.0
 10
103.4371938474132
 20
206.1989306835235
 30
0.0
 10
103.4449381932161
 20
206.0294052877313
 30
0.0
 10
103.4093331989881
 20
206.0294032109493
 30
0.0
 11
103.4093331989881
 21
206.6793666285963
 31
0.0
 11
103.4424372795726
 21
206.5778000111106
 31
0.0
 11
103.4534747978023
 21
206.3543770372491
 31
0.0
 11
103.4424415166249
 21
206.1309580046494
 31
0.0
 11
103.4093331989881
 21
206.0294032109493
 31
0.0
  0
SPLINE
  5
109
330
2
100
AcDbEntity
  8
GAIKEI
  6
Continuous
 62
     1
100
AcDbSpline
210
0.0
220
0.0
230
1.0
 70
     8
 71
     3
 72
    37
 73
    33
 74
    31
 42
0.0000000001
 43
0.0000000001
 44
0.000001
 12
0.9531453210649695
 22
-0.3025128045752052
 32
0.0
 13
-0.8762670848182503
 23
-0.4818256905397689
 33
0.0
 40
0.0
 40
0.0
 40
0.0
 40
0.0
 40
0.0216846486234043
 40
0.0388575122374481
 40
0.0529157023987527
 40
0.067356989622557
 40
0.0824928601044429
 40
0.0985679969784963
 40
0.1157694184983491
 40
0.1342401711597605
 40
0.1540929449802824
 40
0.1754215541309997
 40
0.2114680121679922
 40
0.2507082762072557
 40
0.2924136372179768
 40
0.3358492439489788
 40
0.3802772139988654
 40
0.4249586442769794
 40
0.4691552257460789
 40
0.512130912806747
 40
0.5523086616665072
 40
0.5899218938620791
 40
0.6244980923253306
 40
0.6555772297282853
 40
0.6739429383479158
 40
0.6910080117361029
 40
0.7069992320486453
 40
0.7222522098516874
 40
0.7372958871657256
 40
0.7528982819897409
 40
0.7700215413947809
 40
0.7897003315789414
 40
0.7897003315789414
 40
0.7897003315789414
 40
0.7897003315789414
 10
103.3769845642475
 20
206.7265468071898
 30
0.0
 10
103.3838741047056
 20
206.7243601792327
 30
0.0
 10
103.3957100502735
 20
206.7182088798034
 30
0.0
 10
103.4077433941349
 20
206.7050574676601
 30
0.0
 10
103.415900814735
 20
206.6921648968666
 30
0.0
 10
103.4222545222314
 20
206.6790482549312
 30
0.0
 10
103.4274574309328
 20
206.6647254458571
 30
0.0
 10
103.4317535713134
 20
206.64915743125
 30
0.0
 10
103.4353384849183
 20
206.6322775236923
 30
0.0
 10
103.4384199443678
 20
206.6140238730761
 30
0.0
 10
103.4411768886058
 20
206.5943306671319
 30
0.0
 10
103.4444323304568
 20
206.5687943342767
 30
0.0
 10
103.4478462473195
 20
206.5367659283911
 30
0.0
 10
103.4508314580406
 20
206.4978784801532
 30
0.0
 10
103.4531077519993
 20
206.456477914244
 30
0.0
 10
103.454611227705
 20
206.4133116859061
 30
0.0
 10
103.4553309377813
 20
206.3691334339297
 30
0.0
 10
103.4552404376093
 20
206.3246957241617
 30
0.0
 10
103.4543277811591
 20
206.2807510413841
 30
0.0
 10
103.452559833622
 20
206.2383347637656
 30
0.0
 10
103.4500295870978
 20
206.1981552275572
 30
0.0
 10
103.4468132993686
 20
206.1608354222809
 30
0.0
 10
103.4429795745961
 20
206.1266182548486
 30
0.0
 10
103.4386555263772
 20
206.0989407916848
 30
0.0
 10
103.4348831030094
 20
206.0770950819122
 30
0.0
 10
103.4318902084021
 20
206.0602157883926
 30
0.0
 10
103.4282039183327
 20
206.0445250874161
 30
0.0
 10
103.4231868324549
 20
206.0298933399766
 30
0.0
 10
103.4161129219255
 20
206.0162469627886
 30
0.0
 10
103.4062960579453
 20
206.0035910450118
 30
0.0
 10
103.3931564055029
 20
205.991946821615
 30
0.0
 10
103.3827325229499
 20
205.9853836145791
 30
0.0
 10
103.3769845642475
 20
205.9822230323559
 30
0.0
 11
103.3769845642475
 21
206.7265468071898
 31
0.0
 11
103.3961498782611
 21
206.7164017928988
 31
0.0
 11
103.4079904254706
 21
206.7039637980312
 31
0.0
 11
103.4156030124013
 21
206.6921452112313
 31
0.0
 11
103.4219296750931
 21
206.6791635966759
 31
0.0
 11
103.4271645525984
 21
206.6649618723149
 31
0.0
 11
103.4315017839698
 21
206.6494829560982
 31
0.0
 11
103.4351355082597
 21
206.6326697659755
 31
0.0
 11
103.4382598645206
 21
206.6144652198967
 31
0.0
 11
103.4410689918048
 21
206.5948122358118
 31
0.0
 11
103.4437570291649
 21
206.5736537316704
 31
0.0
 11
103.4475630698343
 21
206.5378088358972
 31
0.0
 11
103.4506304017381
 21
206.498688708506
 31
0.0
 11
103.4529383369768
 21
206.457047330848
 31
0.0
 11
103.4544661876509
 21
206.4136386842745
 31
0.0
 11
103.4551932658607
 21
206.3692167501364
 31
0.0
 11
103.4550988837068
 21
206.3245355097851
 31
0.0
 11
103.4541623532894
 21
206.2803489445718
 31
0.0
 11
103.4523629867091
 21
206.2374110358475
 31
0.0
 11
103.4498156783664
 21
206.1973142077661
 31
0.0
 11
103.4465588045677
 21
206.1598423296538
 31
0.0
 11
103.4425876886164
 21
206.1254950124738
 31
0.0
 11
103.4378976538157
 21
206.0947718671893
 31
0.0
 11
103.434794319598
 21
206.0766703001788
 31
0.0
 11
103.4316673542746
 21
206.0598942190681
 31
0.0
 11
103.4278841731157
 21
206.0443570184296
 31
0.0
 11
103.4228121913916
 21
206.0299720928357
 31
0.0
 11
103.4158188243725
 21
206.016652836859
 31
0.0
 11
103.4062714873285
 21
206.0043126450718
 31
0.0
 11
103.3935375955302
 21
205.9928649120466
 31
0.0
 11
103.3769845642475
 21
205.9822230323559
 31
0.0
  0
SPLINE
  5
10A
330
2
100
AcDbEntity
  8
GAIKEI
  6
Continuous
 62
     1
100
AcDbSpline
210
0.0
220
0.0
230
1.0
 70
     8
 71
     3
 72
     9
 73
     5
 74
     3
 42
0.0000000001
 43
0.0000000001
 44
0.000001
 12
-0.999999999979706
 22
-0.0000063708878533
 32
0.0
 13
-0.9999999547234208
 23
-0.0003009205153209
 33
0.0
 40
0.0
 40
0.0
 40
0.0
 40
0.0
 40
0.0112191479162858
 40
0.0274452669226833
 40
0.0274452669226833
 40
0.0274452669226833
 40
0.0274452669226833
 10
103.3273019440987
 20
205.9816737159169
 30
0.0
 10
103.3235622281267
 20
205.9816736920916
 30
0.0
 10
103.314502547408
 20
205.9800805504931
 30
0.0
 10
103.3053668985594
 20
205.9793560074318
 30
0.0
 10
103.2999581924688
 20
205.9793543798411
 30
0.0
 11
103.3273019440987
 21
205.9816737159169
 31
0.0
 11
103.3161427266813
 21
205.9805153432047
 31
0.0
 11
103.2999581924688
 21
205.9793543798411
 31
0.0
  0
SPLINE
  5
10B
330
2
100
AcDbEntity
  8
GAIKEI
  6
Continuous
 62
     1
100
AcDbSpline
210
0.0
220
0.0
230
1.0
 70
     8
 71
     3
 72
     9
 73
     5
 74
     3
 42
0.0000000001
 43
0.0000000001
 44
0.000001
 12
-0.000035724576246
 22
-0.9999999993618773
 32
0.0
 13
-0.9530550976430763
 23
-0.3027969300645999
 33
0.0
 40
0.0
 40
0.0
 40
0.0
 40
0.0
 40
0.030270041882824
 40
0.0618468000996837
 40
0.0618468000996837
 40
0.0618468000996837
 40
0.0618468000996837
 10
103.4093331989881
 20
206.0294032109493
 30
0.0
 10
103.4093328385266
 20
206.0193131969948
 30
0.0
 10
103.4022963381584
 20
205.9984549722364
 30
0.0
 10
103.3846966916335
 20
205.9848608310667
 30
0.0
 10
103.3746652281717
 20
205.9816737159169
 30
0.0
 11
103.4093331989881
 21
206.0294032109493
 31
0.0
 11
103.399915569039
 21
206.0006354130013
 31
0.0
 11
103.3746652281717
 21
205.9816737159169
 31
0.0
  0
SPLINE
  5
10C
330
2
100
AcDbEntity
  8
GAIKEI
  6
Continuous
 62
     1
100
AcDbSpline
210
0.0
220
0.0
230
1.0
 70
     8
 71
     3
 72
     9
 73
     5
 74
     3
 42
0.0000000001
 43
0.0000000001
 44
0.000001
 12
-0.3081820727638415
 22
-0.951327393712061
 32
0.0
 13
-0.9999636457021694
 23
-0.0085268560458341
 33
0.0
 40
0.0
 40
0.0
 40
0.0
 40
0.0
 40
0.0551480243977863
 40
0.0898967511300387
 40
0.0898967511300387
 40
0.0898967511300387
 40
0.0898967511300387
 10
103.3637399345518
 20
206.0294032109493
 30
0.0
 10
103.3580747237292
 20
206.0119152688431
 30
0.0
 10
103.3322696264195
 20
205.9909034953103
 30
0.0
 10
103.3038502501452
 20
205.9794531456379
 30
0.0
 10
103.292267762323
 20
205.9793543798411
 30
0.0
 11
103.3637399345518
 21
206.0294032109493
 31
0.0
 11
103.3254294938738
 21
205.9897345797553
 31
0.0
 11
103.292267762323
 21
205.9793543798411
 31
0.0
  0
SPLINE
  5
10D
330
2
100
AcDbEntity
  8
GAIKEI
  6
Continuous
 62
     1
100
AcDbSpline
210
0.0
220
0.0
230
1.0
 70
     8
 71
     3
 72
     9
 73
     5
 74
     3
 42
0.0000000001
 43
0.0000000001
 44
0.000001
 12
0.999999983294575
 22
0.0001827863508696
 32
0.0
 13
0.9999999218844049
 23
0.0003952609063509
 33
0.0
 40
0.0
 40
0.0
 40
0.0
 40
0.0
 40
0.0162231530945494
 40
0.0274453021203541
 40
0.0274453021203541
 40
0.0274453021203541
 40
0.0274453021203541
 10
103.2999581924688
 20
206.7294154597045
 30
0.0
 10
103.3053659100766
 20
206.7294164481615
 30
0.0
 10
103.3145017565612
 20
206.7286917365258
 30
0.0
 10
103.323561228049
 20
206.7270946450697
 30
0.0
 10
103.3273019440987
 20
206.7270961236287
 30
0.0
 11
103.2999581924688
 21
206.7294154597045
 31
0.0
 11
103.3161398511062
 21
206.7282558613356
 31
0.0
 11
103.3273019440987
 21
206.7270961236287
 31
0.0
  0
SPLINE
  5
10E
330
2
100
AcDbEntity
  8
GAIKEI
  6
Continuous
 62
     1
100
AcDbSpline
210
0.0
220
0.0
230
1.0
 70
     8
 71
     3
 72
     9
 73
     5
 74
     3
 42
0.0000000001
 43
0.0000000001
 44
0.000001
 12
0.999997634612613
 22
0.0021750331443408
 32
0.0
 13
0.3094592465044053
 23
-0.9509127061686188
 33
0.0
 40
0.0
 40
0.0
 40
0.0
 40
0.0
 40
0.0469741725792022
 40
0.0914080190009394
 40
0.0914080190009394
 40
0.0914080190009394
 40
0.0914080190009394
 10
103.292267762323
 20
206.7294154597045
 30
0.0
 10
103.307925782812
 20
206.7294495164986
 30
0.0
 10
103.3388478463968
 20
206.719119251376
 30
0.0
 10
103.3591564463408
 20
206.6934508649784
 30
0.0
 10
103.3637399345518
 20
206.6793666285963
 30
0.0
 11
103.292267762323
 21
206.7294154597045
 31
0.0
 11
103.3369040871689
 21
206.7147825142544
 31
0.0
 11
103.3637399345518
 21
206.6793666285963
 31
0.0
  0
SPLINE
  5
10F
330
2
100
AcDbEntity
  8
GAIKEI
  6
Continuous
 62
     1
100
AcDbSpline
210
0.0
220
0.0
230
1.0
 70
     8
 71
     3
 72
     9
 73
     5
 74
     3
 42
0.0000000001
 43
0.0000000001
 44
0.000001
 12
0.9530395279038478
 22
-0.3028459315440954
 32
0.0
 13
0.0000357266035025
 23
-0.9999999993618049
 33
0.0
 40
0.0
 40
0.0
 40
0.0
 40
0.0
 40
0.0315772684263882
 40
0.0618464943306226
 40
0.0618464943306226
 40
0.0618464943306226
 40
0.0618464943306226
 10
103.3746652281717
 20
206.7270961236287
 30
0.0
 10
103.3846966898362
 20
206.7239084412046
 30
0.0
 10
103.4022957948541
 20
206.7103143032528
 30
0.0
 10
103.4093328385158
 20
206.689456370558
 30
0.0
 10
103.4093331989881
 20
206.6793666285963
 30
0.0
 11
103.3746652281717
 21
206.7270961236287
 31
0.0
 11
103.3999155597255
 21
206.7081335660022
 31
0.0
 11
103.4093331989881
 21
206.6793666285963
 31
0.0
  0
SPLINE
  5
110
330
2
100
AcDbEntity
  8
GAIKEI
  6
Continuous
 62
     1
100
AcDbSpline
210
0.0
220
0.0
230
1.0
 70
     8
 71
     3
 72
     9
 73
     5
 74
     3
 42
0.0000000001
 43
0.0000000001
 44
0.000001
 12
0.9999999662987061
 22
0.0002596200816618
 32
0.0
 13
0.9999999772895147
 23
0.0002131219603387
 33
0.0
 40
0.0
 40
0.0
 40
0.0
 40
0.0
 40
0.0162231051321206
 40
0.0274453233097682
 40
0.0274453233097682
 40
0.0274453233097682
 40
0.0274453233097682
 10
103.2999581924688
 20
193.3193804807166
 30
0.0
 10
103.3053658939972
 20
193.3193818846645
 30
0.0
 10
103.3145018613023
 20
193.3186574900434
 30
0.0
 10
103.3235612047911
 20
193.3170603474072
 30
0.0
 10
103.3273019440987
 20
193.3170611446409
 30
0.0
 11
103.2999581924688
 21
193.3193804807166
 31
0.0
 11
103.3161398511062
 21
193.3182215494165
 31
0.0
 11
103.3273019440987
 21
193.3170611446409
 31
0.0
  0
SPLINE
  5
111
330
2
100
AcDbEntity
  8
GAIKEI
  6
Continuous
 62
     1
100
AcDbSpline
210
0.0
220
0.0
230
1.0
 70
     8
 71
     3
 72
     9
 73
     5
 74
     3
 42
0.0000000001
 43
0.0000000001
 44
0.000001
 12
0.9999952281185336
 22
0.0030892944440435
 32
0.0
 13
0.3094499789294173
 23
-0.9509157221019027
 33
0.0
 40
0.0
 40
0.0
 40
0.0
 40
0.0
 40
0.0469640404398413
 40
0.0913762738213647
 40
0.0913762738213647
 40
0.0913762738213647
 40
0.0913762738213647
 10
103.292267762323
 20
193.3193804807166
 30
0.0
 10
103.3079223677673
 20
193.319428842633
 30
0.0
 10
103.338842495223
 20
193.3091225461741
 30
0.0
 10
103.3591588129904
 20
193.2834701150938
 30
0.0
 10
103.3637399345518
 20
193.2693926847684
 30
0.0
 11
103.292267762323
 21
193.3193804807166
 31
0.0
 11
103.3369046701769
 21
193.304781895651
 31
0.0
 11
103.3637399345518
 21
193.2693926847684
 31
0.0
  0
SPLINE
  5
112
330
2
100
AcDbEntity
  8
GAIKEI
  6
Continuous
 62
     1
100
AcDbSpline
210
0.0
220
0.0
230
1.0
 70
     8
 71
     3
 72
    11
 73
     7
 74
     5
 42
0.0000000001
 43
0.0000000001
 44
0.000001
 12
0.9999999669927422
 22
-0.000256932899469
 32
0.0
 13
-0.9999999802176745
 23
-0.0001989086489841
 33
0.0
 40
0.0
 40
0.0
 40
0.0
 40
0.0
 40
0.1068294229710643
 40
0.3305449959017431
 40
0.5542598125368292
 40
0.6610881456445533
 40
0.6610881456445533
 40
0.6610881456445533
 40
0.6610881456445533
 10
103.4093331989881
 20
193.2693926847684
 30
0.0
 10
103.4449430054697
 20
193.2693835354372
 30
0.0
 10
103.4371820688939
 20
193.0998477851301
 30
0.0
 10
103.4645017810298
 20
192.9443790005143
 30
0.0
 10
103.4371873767114
 20
192.7889124542034
 30
0.0
 10
103.4449426426529
 20
192.6193753149878
 30
0.0
 10
103.4093331989881
 20
192.6193682319614
 30
0.0
 11
103.4093331989881
 21
193.2693926847684
 31
0.0
 11
103.4424382281248
 21
193.1678216313136
 31
0.0
 11
103.4534748201541
 21
192.9443791784438
 31
0.0
 11
103.4424406016005
 21
192.7209373655345
 31
0.0
 11
103.4093331989881
 21
192.6193682319614
 31
0.0
  0
SPLINE
  5
113
330
2
100
AcDbEntity
  8
GAIKEI
  6
Continuous
 62
     1
100
AcDbSpline
210
0.0
220
0.0
230
1.0
 70
     8
 71
     3
 72
     9
 73
     5
 74
     3
 42
0.0000000001
 43
0.0000000001
 44
0.000001
 12
-0.0000357256246498
 22
0.99999999936184
 32
0.0
 13
-0.9530465585211443
 23
0.3028238056874048
 33
0.0
 40
0.0
 40
0.0
 40
0.0
 40
0.0
 40
0.0302405539324565
 40
0.0617993085690939
 40
0.0617993085690939
 40
0.0617993085690939
 40
0.0617993085690939
 10
103.4093331989881
 20
193.2693926847684
 30
0.0
 10
103.4093328388672
 20
193.2794728694061
 30
0.0
 10
103.4022942050846
 20
193.3003194745672
 30
0.0
 10
103.3846908823376
 20
193.3138755639136
 30
0.0
 10
103.3746652281717
 20
193.3170611446409
 30
0.0
 11
103.4093331989881
 21
193.2693926847684
 31
0.0
 11
103.3999155634514
 21
193.2981294938872
 31
0.0
 11
103.3746652281717
 21
193.3170611446409
 31
0.0
  0
SPLINE
  5
114
330
2
100
AcDbEntity
  8
GAIKEI
  6
Continuous
 62
     1
100
AcDbSpline
210
0.0
220
0.0
230
1.0
 70
     8
 71
     3
 72
    37
 73
    33
 74
    31
 42
0.0000000001
 43
0.0000000001
 44
0.000001
 12
0.9538209886631285
 22
-0.3003756341411404
 32
0.0
 13
-0.87625813006946
 23
-0.481841975638459
 33
0.0
 40
0.0
 40
0.0
 40
0.0
 40
0.0
 40
0.021684741759535
 40
0.0388601863366502
 40
0.0529205851151725
 40
0.067368089104622
 40
0.0825131310596541
 40
0.0985990564043719
 40
0.1158114287100309
 40
0.134291814116281
 40
0.1541514322147951
 40
0.175482644809812
 40
0.211526496828587
 40
0.2507598691006848
 40
0.2924554705105829
 40
0.3358798785307215
 40
0.3802966439638846
 40
0.4249682982657212
 40
0.4691579659935968
 40
0.5121310313402509
 40
0.5523087768958736
 40
0.5899220125419839
 40
0.6244982145289613
 40
0.655577348868619
 40
0.6739456141075764
 40
0.6910173742574534
 40
0.7070179464688949
 40
0.722281358262323
 40
0.737334878894754
 40
0.7529450153044084
 40
0.7700730053480766
 40
0.7897534112038191
 40
0.7897534112038191
 40
0.7897534112038191
 40
0.7897534112038191
 10
103.3769845642475
 20
193.3165728633618
 30
0.0
 10
103.3838790181888
 20
193.3144016740094
 30
0.0
 10
103.3957172584678
 20
193.3082416457764
 30
0.0
 10
103.4077420556899
 20
193.2950828434383
 30
0.0
 10
103.4159022425112
 20
193.2821875613663
 30
0.0
 10
103.4222548713634
 20
193.2690637476559
 30
0.0
 10
103.4274576072595
 20
193.25473164265
 30
0.0
 10
103.4317534803705
 20
193.2391528589081
 30
0.0
 10
103.4353382897497
 20
193.2222622564487
 30
0.0
 10
103.438419686831
 20
193.2039993288257
 30
0.0
 10
103.4411765735457
 20
193.1842996974994
 30
0.0
 10
103.4444319983356
 20
193.1587610662413
 30
0.0
 10
103.447846099689
 20
193.1267349966356
 30
0.0
 10
103.4508313800552
 20
193.087853991199
 30
0.0
 10
103.4531077333698
 20
193.0464627261944
 30
0.0
 10
103.4546112325389
 20
193.0033072252335
 30
0.0
 10
103.4553309446021
 20
192.9591397004337
 30
0.0
 10
103.4552404262846
 20
192.9147112881248
 30
0.0
 10
103.4543277146121
 20
192.8707730449264
 30
0.0
 10
103.4525597549057
 20
192.8283599517155
 30
0.0
 10
103.450029597278
 20
192.788181285353
 30
0.0
 10
103.4468132836954
 20
192.7508614824596
 30
0.0
 10
103.442979623271
 20
192.7166443028542
 30
0.0
 10
103.4386552634454
 20
192.6889660282852
 30
0.0
 10
103.434882696281
 20
192.6671172181833
 30
0.0
 10
103.4318898939639
 20
192.6502316194888
 30
0.0
 10
103.4282036831396
 20
192.6345318609817
 30
0.0
 10
103.4231868927904
 20
192.6198896257265
 30
0.0
 10
103.4161135809742
 20
192.6062324674274
 30
0.0
 10
103.4062973435735
 20
192.5935665805631
 30
0.0
 10
103.3931578846791
 20
192.5819148018219
 30
0.0
 10
103.3827329361255
 20
192.5753490019143
 30
0.0
 10
103.3769845642475
 20
192.572188053368
 30
0.0
 11
103.3769845642475
 21
193.3165728633618
 31
0.0
 11
103.3961538885364
 21
193.3064352282893
 31
0.0
 11
103.4079904254706
 21
193.2939898542032
 31
0.0
 11
103.4156030147275
 21
193.282168641487
 31
0.0
 11
103.4219296784605
 21
193.2691801119006
 31
0.0
 11
103.4271645560324
 21
193.2549686131688
 31
0.0
 11
103.4315017868057
 21
193.2394784930158
 31
0.0
 11
103.4351355101429
 21
193.2226540991661
 31
0.0
 11
103.4382598654068
 21
193.2044397793444
 31
0.0
 11
103.44106899196
 21
193.184779881275
 31
0.0
 11
103.4437570291649
 21
193.1636187526825
 31
0.0
 11
103.4475630698677
 21
193.1277764774814
 31
0.0
 11
103.4506304017408
 21
193.0886632629196
 31
0.0
 11
103.452938336912
 21
193.0470316597658
 31
0.0
 11
103.454466187509
 21
193.0036342187887
 31
0.0
 11
103.4551932656595
 21
192.9592234907568
 31
0.0
 11
103.4550988834912
 21
192.9145520264389
 31
0.0
 11
103.4541623531318
 21
192.8703723766036
 31
0.0
 11
103.4523629867091
 21
192.8274370920195
 31
0.0
 11
103.4498156786027
 21
192.7873402673917
 31
0.0
 11
103.4465588045912
 21
192.7498683859984
 31
0.0
 11
103.4425876884153
 21
192.7155210654511
 31
0.0
 11
103.4378976538157
 21
192.6847979233613
 31
0.0
 11
103.4347943167926
 21
192.6666937629751
 31
0.0
 11
103.431667352819
 21
192.6499108797626
 31
0.0
 11
103.4278841754883
 21
192.6343640532278
 31
0.0
 11
103.422812198394
 21
192.6199680628751
 31
0.0
 11
103.4158188351294
 21
192.6066376882085
 31
0.0
 11
103.4062714992878
 21
192.5942877087324
 31
0.0
 11
103.3935376044628
 21
192.5828329039508
 31
0.0
 11
103.3769845642475
 21
192.572188053368
 31
0.0
  0
SPLINE
  5
115
330
2
100
AcDbEntity
  8
GAIKEI
  6
Continuous
 62
     1
100
AcDbSpline
210
0.0
220
0.0
230
1.0
 70
     8
 71
     3
 72
     9
 73
     5
 74
     3
 42
0.0000000001
 43
0.0000000001
 44
0.000001
 12
-0.9999999845428636
 22
0.0001758245511382
 32
0.0
 13
-0.9999999621242039
 23
0.0002752300687916
 33
0.0
 40
0.0
 40
0.0
 40
0.0
 40
0.0
 40
0.0112193708006724
 40
0.0274453357060688
 40
0.0274453357060688
 40
0.0274453357060688
 40
0.0274453357060688
 10
103.3273019440987
 20
192.5716997720889
 30
0.0
 10
103.3235621538896
 20
192.5717004296358
 30
0.0
 10
103.3145028879881
 20
192.5701027405617
 30
0.0
 10
103.3053668472324
 20
192.5693789473886
 30
0.0
 10
103.2999581924688
 20
192.5693804360131
 30
0.0
 11
103.3273019440987
 21
192.5716997720889
 31
0.0
 11
103.3161427280782
 21
192.5705392305156
 31
0.0
 11
103.2999581924688
 21
192.5693804360131
 31
0.0
  0
SPLINE
  5
116
330
2
100
AcDbEntity
  8
GAIKEI
  6
Continuous
 62
     1
100
AcDbSpline
210
0.0
220
0.0
230
1.0
 70
     8
 71
     3
 72
     9
 73
     5
 74
     3
 42
0.0000000001
 43
0.0000000001
 44
0.000001
 12
-0.0000357254400997
 22
-0.9999999993618466
 32
0.0
 13
-0.9530480675327186
 23
-0.302819056487782
 33
0.0
 40
0.0
 40
0.0
 40
0.0
 40
0.0
 40
0.0302406313354627
 40
0.0617993382075577
 40
0.0617993382075577
 40
0.0617993382075577
 40
0.0617993382075577
 10
103.4093331989881
 20
192.6193682319614
 30
0.0
 10
103.4093328388681
 20
192.6092880215227
 30
0.0
 10
103.4022942581206
 20
192.5884413880729
 30
0.0
 10
103.3846908830378
 20
192.5748852980352
 30
0.0
 10
103.3746652281717
 20
192.5716997720889
 30
0.0
 11
103.4093331989881
 21
192.6193682319614
 31
0.0
 11
103.399915565314
 21
192.5906313408862
 31
0.0
 11
103.3746652281717
 21
192.5716997720889
 31
0.0
  0
SPLINE
  5
117
330
2
100
AcDbEntity
  8
GAIKEI
  6
Continuous
 62
     1
100
AcDbSpline
210
0.0
220
0.0
230
1.0
 70
     8
 71
     3
 72
     9
 73
     5
 74
     3
 42
0.0000000001
 43
0.0000000001
 44
0.000001
 12
-0.3081913340163683
 22
-0.9513243934837431
 32
0.0
 13
-0.9999695877579064
 23
0.0077989460366634
 33
0.0
 40
0.0
 40
0.0
 40
0.0
 40
0.0
 40
0.0551239720166047
 40
0.0898779466552034
 40
0.0898779466552034
 40
0.0898779466552034
 40
0.0898779466552034
 10
103.3637399345518
 20
192.6193682319614
 30
0.0
 10
103.3580770243944
 20
192.601887972213
 30
0.0
 10
103.3322939615541
 20
192.5809881337913
 30
0.0
 10
103.3038520682204
 20
192.5692900878889
 30
0.0
 10
103.292267762323
 20
192.5693804360131
 30
0.0
 11
103.3637399345518
 21
192.6193682319614
 31
0.0
 11
103.3254497464157
 21
192.5797135624141
 31
0.0
 11
103.292267762323
 21
192.5693804360131
 31
0.0
  0
SPLINE
  5
118
330
2
100
AcDbEntity
  8
GAIKEI
  6
Continuous
 62
     1
100
AcDbSpline
210
0.0
220
0.0
230
1.0
 70
     8
 71
     3
 72
    17
 73
    13
 74
    11
 42
0.0000000001
 43
0.0000000001
 44
0.000001
 12
-0.9062908520037618
 22
-0.4226545771363364
 32
0.0
 13
-0.0003835314305866
 23
-0.9999999264518182
 33
0.0
 40
0.0
 40
0.0
 40
0.0
 40
0.0
 40
0.08452998214988
 40
0.1692029274633906
 40
0.2946986072013862
 40
0.4143442631847815
 40
0.4839228813459167
 40
0.5519287181989597
 40
0.6202611840005094
 40
0.6900745335493824
 40
0.7419164228006591
 40
0.7965618430600085
 40
0.7965618430600085
 40
0.7965618430600085
 40
0.7965618430600085
 10
102.6953438986185
 20
189.2123245718545
 30
0.0
 10
102.669807648771
 20
189.2004155772342
 30
0.0
 10
102.6199647655408
 20
189.173872402865
 30
0.0
 10
102.5379714539749
 20
189.1190331422825
 30
0.0
 10
102.4670480421438
 20
189.0311166426637
 30
0.0
 10
102.4351062674809
 20
188.9292661319899
 30
0.0
 10
102.4266402786966
 20
188.8437579590263
 30
0.0
 10
102.4288697842799
 20
188.7749901201006
 30
0.0
 10
102.4372579569603
 20
188.7067423119178
 30
0.0
 10
102.447986060752
 20
188.6443248155067
 30
0.0
 10
102.4576996168477
 20
188.5863624825319
 30
0.0
 10
102.4603655191285
 20
188.5508521700888
 30
0.0
 10
102.4603585330498
 20
188.532637031342
 30
0.0
 11
102.6953438986185
 21
189.2123245718545
 31
0.0
 11
102.620696257085
 21
189.1726614819138
 31
0.0
 11
102.5514840267626
 21
189.1238846251768
 31
0.0
 11
102.4730839598259
 21
189.0258915729565
 31
0.0
 11
102.435212047176
 21
188.912397796165
 31
0.0
 11
102.4281265777154
 21
188.8431808268645
 31
0.0
 11
102.4298782271488
 21
188.7751975099146
 31
0.0
 11
102.4377300143394
 21
188.7073176279056
 31
0.0
 11
102.4489449581508
 21
188.6384109634278
 31
0.0
 11
102.4567854534903
 21
188.5871654218988
 31
0.0
 11
102.4603585330498
 21
188.532637031342
 31
0.0
  0
SPLINE
  5
119
330
2
100
AcDbEntity
  8
GAIKEI
  6
Continuous
 62
     1
100
AcDbSpline
210
0.0
220
0.0
230
1.0
 70
     8
 71
     3
 72
    11
 73
     7
 74
     5
 42
0.0000000001
 43
0.0000000001
 44
0.000001
 12
0.4074081346236131
 22
-0.9132461945403923
 32
0.0
 13
-0.9062446231407077
 23
-0.4227536907332174
 33
0.0
 40
0.0
 40
0.0
 40
0.0
 40
0.0
 40
0.1850918351636354
 40
0.3390809074839885
 40
0.4470239600372975
 40
0.4992594039218784
 40
0.4992594039218784
 40
0.4992594039218784
 40
0.4992594039218784
 10
102.6953438986185
 20
189.2123245718545
 30
0.0
 10
102.7204798717178
 20
189.1559797671533
 30
0.0
 10
102.7627470247896
 20
189.0523939236132
 30
0.0
 10
102.8071542129583
 20
188.9050869229386
 30
0.0
 10
102.8265580722607
 20
188.8121751297451
 30
0.0
 10
102.8238552023175
 20
188.7439164094241
 30
0.0
 10
102.8080758389316
 20
188.7365555005277
 30
0.0
 11
102.6953438986185
 21
189.2123245718545
 31
0.0
 11
102.7640657840838
 21
189.0404642189984
 31
0.0
 11
102.8083257966123
 21
188.8929729448861
 31
0.0
 11
102.8242778452223
 21
188.7862152164263
 31
0.0
 11
102.8080758389316
 21
188.7365555005277
 31
0.0
  0
SPLINE
  5
11A
330
2
100
AcDbEntity
  8
GAIKEI
  6
Continuous
100
AcDbSpline
210
0.0
220
0.0
230
1.0
 70
     8
 71
     3
 72
     9
 73
     5
 74
     3
 42
0.0000000001
 43
0.0000000001
 44
0.000001
 12
0.9319223686303319
 22
0.3626578261204795
 32
0.0
 13
0.7901977966068979
 23
0.6128518925789523
 33
0.0
 40
0.0
 40
0.0
 40
0.0
 40
0.0
 40
0.0140400081834893
 40
0.0281982700537454
 40
0.0281982700537454
 40
0.0281982700537454
 40
0.0281982700537454
 10
102.5246895915717
 20
185.5939771882154
 30
0.0
 10
102.529050990799
 20
185.5956744278309
 30
0.0
 10
102.5375803457263
 20
185.5997095431917
 30
0.0
 10
102.5454354149089
 20
185.6049398636491
 30
0.0
 10
102.5491646906868
 20
185.60783216951
 30
0.0
 11
102.5246895915717
 21
185.5939771882154
 31
0.0
 11
102.5373778565787
 21
185.5999880239819
 31
0.0
 11
102.5491646906868
 21
185.60783216951
 31
0.0
  0
SPLINE
  5
11B
330
2
100
AcDbEntity
  8
GAIKEI
  6
Continuous
100
AcDbSpline
210
0.0
220
0.0
230
1.0
 70
     8
 71
     3
 72
     9
 73
     5
 74
     3
 42
0.0000000001
 43
0.0000000001
 44
0.000001
 12
0.9899260579873061
 22
0.1415853089755879
 32
0.0
 13
0.8749269641730222
 23
0.4842548991625992
 33
0.0
 40
0.0
 40
0.0
 40
0.0
 40
0.0
 40
0.0103179590837635
 40
0.0207385676222697
 40
0.0207385676222697
 40
0.0207385676222697
 40
0.0207385676222697
 10
102.4784859755365
 20
185.576154921528
 30
0.0
 10
102.4818906477239
 20
185.5766418786697
 30
0.0
 10
102.4886649185736
 20
185.5782119570624
 30
0.0
 10
102.4950391713961
 20
185.5810036067238
 30
0.0
 10
102.4980782618606
 20
185.5826856836361
 30
0.0
 11
102.4784859755365
 21
185.576154921528
 31
0.0
 11
102.4885324936118
 21
185.5785055703005
 31
0.0
 11
102.4980782618606
 21
185.5826856836361
 31
0.0
  0
SPLINE
  5
11C
330
2
100
AcDbEntity
  8
GAIKEI
  6
Continuous
100
AcDbSpline
210
0.0
220
0.0
230
1.0
 70
     8
 71
     3
 72
     9
 73
     5
 74
     3
 42
0.0000000001
 43
0.0000000001
 44
0.000001
 12
0.9986285255378286
 22
0.0523552096943815
 32
0.0
 13
0.9722010928234167
 23
0.2341474644598021
 33
0.0
 40
0.0
 40
0.0
 40
0.0
 40
0.0
 40
0.020997120818175
 40
0.0425732994532694
 40
0.0425732994532694
 40
0.0425732994532694
 40
0.0425732994532694
 10
102.4172677101689
 20
185.5649854872686
 30
0.0
 10
102.4242571514366
 20
185.5653519234897
 30
0.0
 10
102.438407008481
 20
185.5666401028758
 30
0.0
 10
102.4523898423422
 20
185.5692218952711
 30
0.0
 10
102.4593819704916
 20
185.5709058977778
 30
0.0
 11
102.4172677101689
 21
185.5649854872686
 31
0.0
 11
102.438172990038
 21
185.5669368861786
 31
0.0
 11
102.4593819704916
 21
185.5709058977778
 31
0.0
  0
SPLINE
  5
11D
330
2
100
AcDbEntity
  8
GAIKEI
  6
Continuous
100
AcDbSpline
210
0.0
220
0.0
230
1.0
 70
     8
 71
     3
 72
     9
 73
     5
 74
     3
 42
0.0000000001
 43
0.0000000001
 44
0.000001
 12
-0.8336646498830011
 22
-0.5522709946533979
 32
0.0
 13
-0.9619339084121218
 23
-0.2732821908704988
 33
0.0
 40
0.0
 40
0.0
 40
0.0
 40
0.0
 40
0.0442365196427814
 40
0.0843931981845547
 40
0.0843931981845547
 40
0.0843931981845547
 40
0.0843931981845547
 10
102.5550240660361
 20
185.6103956462253
 30
0.0
 10
102.5427312584827
 20
185.6022521306576
 30
0.0
 10
102.5180145283737
 20
185.5885273139472
 30
0.0
 10
102.4914840694358
 20
185.5788363939999
 30
0.0
 10
102.4786080458563
 20
185.5751783589699
 30
0.0
 11
102.5550240660361
 21
185.6103956462253
 31
0.0
 11
102.5163217173447
 21
185.5889712359463
 31
0.0
 11
102.4786080458563
 21
185.5751783589699
 31
0.0
  0
SPLINE
  5
11E
330
2
100
AcDbEntity
  8
GAIKEI
  6
Continuous
 62
     1
100
AcDbSpline
210
0.0
220
0.0
230
1.0
 70
     8
 71
     3
 72
     9
 73
     5
 74
     3
 42
0.0000000001
 43
0.0000000001
 44
0.000001
 12
-0.9850337644152421
 22
-0.1723614892078195
 32
0.0
 13
-0.2957883009680813
 23
-0.9552535166176651
 33
0.0
 40
0.0
 40
0.0
 40
0.0
 40
0.0
 40
0.1574377602856739
 40
0.3287481786947698
 40
0.3287481786947698
 40
0.3287481786947698
 40
0.3287481786947698
 10
102.8564156855629
 20
186.108015304792
 30
0.0
 10
102.8047218490044
 20
186.0989699025185
 30
0.0
 10
102.7282347379917
 20
185.9949326125261
 30
0.0
 10
102.695510804009
 20
185.8955958086482
 30
0.0
 10
102.6786202648092
 20
185.841047515442
 30
0.0
 11
102.8564156855629
 21
186.108015304792
 31
0.0
 11
102.7414991920478
 21
186.0003998647443
 31
0.0
 11
102.6786202648092
 21
185.841047515442
 31
0.0
  0
SPLINE
  5
11F
330
2
100
AcDbEntity
  8
GAIKEI
  6
Continuous
 62
     1
100
AcDbSpline
210
0.0
220
0.0
230
1.0
 70
     8
 71
     3
 72
     9
 73
     5
 74
     3
 42
0.0000000001
 43
0.0000000001
 44
0.000001
 12
0.9978452281986013
 22
0.0656117410322368
 32
0.0
 13
-0.0584370804213165
 23
-0.9982910936354349
 33
0.0
 40
0.0
 40
0.0
 40
0.0
 40
0.0
 40
0.1116304529379694
 40
0.178607525337232
 40
0.178607525337232
 40
0.178607525337232
 40
0.178607525337232
 10
102.67819301869
 20
188.532637031342
 30
0.0
 10
102.7153229902852
 20
188.5350784541318
 30
0.0
 10
102.7550782411753
 20
188.5191921208016
 30
0.0
 10
102.8577203337516
 20
188.5666433203251
 30
0.0
 10
102.8564156855629
 20
188.5443557820405
 30
0.0
 11
102.67819301869
 21
188.532637031342
 31
0.0
 11
102.7895821854856
 21
188.5399612505285
 31
0.0
 11
102.8564156855629
 21
188.5443557820405
 31
0.0
  0
SPLINE
  5
120
330
2
100
AcDbEntity
  8
GAIKEI
  6
Continuous
 62
     1
100
AcDbSpline
210
0.0
220
0.0
230
1.0
 70
     8
 71
     3
 72
     9
 73
     5
 74
     3
 42
0.0000000001
 43
0.0000000001
 44
0.000001
 12
-0.9089599495712977
 22
-0.4168834490302344
 32
0.0
 13
-0.0584370804213165
 23
-0.9982910936354349
 33
0.0
 40
0.0
 40
0.0
 40
0.0
 40
0.0
 40
0.0693722202743051
 40
0.1993516640935895
 40
0.1993516640935895
 40
0.1993516640935895
 40
0.1993516640935895
 10
102.810578280487
 20
188.7377151685656
 30
0.0
 10
102.7895594238729
 20
188.7280751250806
 30
0.0
 10
102.8686282650775
 20
188.6427815143804
 30
0.0
 10
102.8589475586334
 20
188.5876082224139
 30
0.0
 10
102.8564156855629
 20
188.5443557820405
 30
0.0
 11
102.810578280487
 21
188.7377151685656
 31
0.0
 11
102.8338432945301
 21
188.6723597059076
 31
0.0
 11
102.8564156855629
 21
188.5443557820405
 31
0.0
  0
SPLINE
  5
121
330
2
100
AcDbEntity
  8
GAIKEI
  6
Continuous
 62
     1
100
AcDbSpline
210
0.0
220
0.0
230
1.0
 70
     8
 71
     3
 72
     9
 73
     5
 74
     3
 42
0.0000000001
 43
0.0000000001
 44
0.000001
 12
-0.8242199307060356
 22
-0.5662698171604572
 32
0.0
 13
-0.7635969288552222
 23
-0.6456932168165256
 33
0.0
 40
0.0
 40
0.0
 40
0.0
 40
0.0
 40
0.0842429341241195
 40
0.1686312615918267
 40
0.1686312615918267
 40
0.1686312615918267
 40
0.1686312615918267
 10
102.9873361035225
 20
188.6505569602455
 30
0.0
 10
102.9641912017471
 20
188.6346555499444
 30
0.0
 10
102.9200999790929
 20
188.5996182849499
 30
0.0
 10
102.877895241458
 20
188.5625187722486
 30
0.0
 10
102.8564156855629
 20
188.5443557820405
 30
0.0
 11
102.9873361035225
 21
188.6505569602455
 31
0.0
 11
102.9206080831837
 21
188.5991331262689
 31
0.0
 11
102.8564156855629
 21
188.5443557820405
 31
0.0
  0
SPLINE
  5
122
330
2
100
AcDbEntity
  8
GAIKEI
  6
Continuous
 62
     1
100
AcDbSpline
210
0.0
220
0.0
230
1.0
 70
     8
 71
     3
 72
    11
 73
     7
 74
     5
 42
0.0000000001
 43
0.0000000001
 44
0.000001
 12
0.050091494938014
 22
-0.9987446330944036
 32
0.0
 13
-0.9986242733284907
 23
-0.0524362538626057
 33
0.0
 40
0.0
 40
0.0
 40
0.0
 40
0.0
 40
0.1975606454138924
 40
0.3648945480850641
 40
0.4840003254776108
 40
0.5430360203226221
 40
0.5430360203226221
 40
0.5430360203226221
 40
0.5430360203226221
 10
102.8564156855629
 20
186.108015304792
 30
0.0
 10
102.8597143882528
 20
186.042244426686
 30
0.0
 10
102.8611726584165
 20
185.9216945938524
 30
0.0
 10
102.845922699666
 20
185.7561351983071
 30
0.0
 10
102.8270264420236
 20
185.6527755355167
 30
0.0
 10
102.7943410990946
 20
185.5847551515815
 30
0.0
 10
102.7746896064729
 20
185.5837232813543
 30
0.0
 11
102.8564156855629
 21
186.108015304792
 31
0.0
 11
102.8574952437893
 21
185.9104584547254
 31
0.0
 11
102.8421358851759
 21
185.7438309832518
 31
0.0
 11
102.8134849069835
 21
185.6282226666889
 31
0.0
 11
102.7746896064729
 21
185.5837232813543
 31
0.0
  0
SPLINE
  5
123
330
2
100
AcDbEntity
  8
GAIKEI
  6
Continuous
 62
     1
100
AcDbSpline
210
0.0
220
0.0
230
1.0
 70
     8
 71
     3
 72
    13
 73
     9
 74
     7
 42
0.0000000001
 43
0.0000000001
 44
0.000001
 12
-0.9958442137968301
 22
-0.091073057746918
 32
0.0
 13
-0.0021490968022977
 23
0.9999976906888008
 33
0.0
 40
0.0
 40
0.0
 40
0.0
 40
0.0
 40
0.0186237222847091
 40
0.0751802964371987
 40
0.1192815630829548
 40
0.1723092376012215
 40
0.3776468578457179
 40
0.5372602936856112
 40
0.5372602936856112
 40
0.5372602936856112
 40
0.5372602936856112
 10
103.1425485151177
 20
185.6030103918788
 30
0.0
 10
103.1363664064255
 20
185.6024450187672
 30
0.0
 10
103.1248241116528
 20
185.6342940071083
 30
0.0
 10
103.1080862237358
 20
185.6631561791974
 30
0.0
 10
103.0930908036438
 20
185.7142696432856
 30
0.0
 10
103.0640056596533
 20
185.8098171340104
 30
0.0
 10
103.0282084503172
 20
185.9441099576569
 30
0.0
 10
102.9874504450974
 20
186.0616468869519
 30
0.0
 10
102.9873361035225
 20
186.1148512426995
 30
0.0
 11
103.1425485151177
 21
185.6030103918788
 31
0.0
 11
103.1307091735055
 21
185.6173871361341
 31
0.0
 11
103.1076974388217
 21
185.6690504348777
 31
0.0
 11
103.0939905696377
 21
185.7109675004245
 31
0.0
 11
103.0787667730348
 21
185.7617628427474
 31
0.0
 11
103.0212850442462
 21
185.9588905316067
 31
0.0
 11
102.9873361035225
 21
186.1148512426995
 31
0.0
  0
SPLINE
  5
124
330
2
100
AcDbEntity
  8
GAIKEI
  6
Continuous
100
AcDbSpline
210
0.0
220
0.0
230
1.0
 70
     8
 71
     3
 72
     9
 73
     5
 74
     3
 42
0.0000000001
 43
0.0000000001
 44
0.000001
 12
-0.0388440392278802
 22
-0.9992452855112517
 32
0.0
 13
-0.2905979386519135
 23
-0.9568452529282144
 33
0.0
 40
0.0
 40
0.0
 40
0.0
 40
0.0
 40
0.0216767608425346
 40
0.0435609816913187
 40
0.0435609816913187
 40
0.0435609816913187
 40
0.0435609816913187
 10
103.4029855423597
 20
185.8670484935543
 30
0.0
 10
103.4027048713768
 20
185.8598283598619
 30
0.0
 10
103.4015410395872
 20
185.845329368422
 30
0.0
 10
103.398513581581
 20
185.8310596786041
 30
0.0
 10
103.3963937450918
 20
185.8240797409931
 30
0.0
 11
103.4029855423597
 21
185.8670484935543
 31
0.0
 11
103.4010855652647
 21
185.8454560875739
 31
0.0
 11
103.3963937450918
 21
185.8240797409931
 31
0.0
  0
SPLINE
  5
125
330
2
100
AcDbEntity
  8
GAIKEI
  6
Continuous
100
AcDbSpline
210
0.0
220
0.0
230
1.0
 70
     8
 71
     3
 72
     9
 73
     5
 74
     3
 42
0.0000000001
 43
0.0000000001
 44
0.000001
 12
-0.8772575866336344
 22
-0.4800199232258298
 32
0.0
 13
-0.9663992325400203
 23
-0.2570457611906102
 33
0.0
 40
0.0
 40
0.0
 40
0.0
 40
0.0
 40
0.025404278901392
 40
0.050494615994899
 40
0.050494615994899
 40
0.050494615994899
 40
0.050494615994899
 10
103.2482003768838
 20
185.6312086357471
 30
0.0
 10
103.240771678084
 20
185.6271437824111
 30
0.0
 10
103.2254135172947
 20
185.6201169257533
 30
0.0
 10
103.2093467664338
 20
185.6149868408864
 30
0.0
 10
103.20126433893
 20
185.6128370526208
 30
0.0
 11
103.2482003768838
 21
185.6312086357471
 31
0.0
 11
103.2251378054887
 21
185.6205528483863
 31
0.0
 11
103.20126433893
 21
185.6128370526208
 31
0.0
  0
SPLINE
  5
126
330
2
100
AcDbEntity
  8
GAIKEI
  6
Continuous
 62
     1
100
AcDbSpline
210
0.0
220
0.0
230
1.0
 70
     8
 71
     3
 72
    15
 73
    11
 74
     9
 42
0.0000000001
 43
0.0000000001
 44
0.000001
 12
-0.0109598631659733
 22
-0.9999399388960236
 32
0.0
 13
0.99863913019592
 23
0.0521525420429005
 33
0.0
 40
0.0
 40
0.0
 40
0.0
 40
0.0
 40
0.2060160328922451
 40
0.3971841297035357
 40
0.5696126666484915
 40
0.7194120619171134
 40
0.8427021069835383
 40
0.9356304494506348
 40
0.9944510323551334
 40
1.016340558256312
 40
1.016340558256312
 40
1.016340558256312
 40
1.016340558256312
 10
101.6064156110571
 20
186.5377638655633
 30
0.0
 10
101.6056629752136
 20
186.469095979116
 30
0.0
 10
101.6048081822292
 20
186.3367270310821
 30
0.0
 10
101.6053455236629
 20
186.1467507988646
 30
0.0
 10
101.6077053408817
 20
185.9759533911404
 30
0.0
 10
101.6113051933889
 20
185.8265209286709
 30
0.0
 10
101.6170891986652
 20
185.7073100878397
 30
0.0
 10
101.6217350446896
 20
185.6092749863773
 30
0.0
 10
101.631198186635
 20
185.5640540515893
 30
0.0
 10
101.6341021786374
 20
185.52395553931
 30
0.0
 10
101.6413887576729
 20
185.5243360707833
 30
0.0
 11
101.6064156110571
 21
186.5377638655633
 31
0.0
 11
101.6051076558801
 21
186.3317527492466
 31
0.0
 11
101.6057310267582
 21
186.1405856711235
 31
0.0
 11
101.6081314318786
 21
185.9681738466642
 31
0.0
 11
101.6121545794288
 21
185.8184284913388
 31
0.0
 11
101.617646177596
 21
185.6952608206176
 31
0.0
 11
101.6244519345675
 21
185.6025820499713
 31
0.0
 11
101.6324175585307
 21
185.5443033948697
 31
0.0
 11
101.6413887576729
 21
185.5243360707833
 31
0.0
  0
SPLINE
  5
127
330
2
100
AcDbEntity
  8
GAIKEI
  6
Continuous
 62
     1
100
AcDbSpline
210
0.0
220
0.0
230
1.0
 70
     8
 71
     3
 72
     9
 73
     5
 74
     3
 42
0.0000000001
 43
0.0000000001
 44
0.000001
 12
-0.0001282874902118
 22
-0.9999999917711598
 32
0.0
 13
-0.4029774593087211
 23
-0.9152099034041796
 33
0.0
 40
0.0
 40
0.0
 40
0.0
 40
0.0
 40
0.0545541254554331
 40
0.1148452902883872
 40
0.1148452902883872
 40
0.1148452902883872
 40
0.1148452902883872
 10
102.67819301869
 20
185.8396437067646
 30
0.0
 10
102.6781906858194
 20
185.8214589984291
 30
0.0
 10
102.6741121648856
 20
185.7831210236511
 30
0.0
 10
102.6625490016346
 20
185.746281352724
 30
0.0
 10
102.6544503414936
 20
185.7278883290097
 30
0.0
 11
102.67819301869
 21
185.8396437067646
 31
0.0
 11
102.672626030944
 21
185.7853744046188
 31
0.0
 11
102.6544503414936
 21
185.7278883290097
 31
0.0
  0
SPLINE
  5
128
330
2
100
AcDbEntity
  8
GAIKEI
  6
Continuous
 62
     1
100
AcDbSpline
210
0.0
220
0.0
230
1.0
 70
     8
 71
     3
 72
    13
 73
     9
 74
     7
 42
0.0000000001
 43
0.0000000001
 44
0.000001
 12
0.0012464214186471
 22
-0.9999992232165219
 32
0.0
 13
-0.9985877679209654
 23
-0.0531269212229018
 33
0.0
 40
0.0
 40
0.0
 40
0.0
 40
0.0
 40
0.2417826895644211
 40
0.517833612567438
 40
0.7481207083285336
 40
0.9035648525460061
 40
0.9917518536177677
 40
1.01990319277789
 40
1.01990319277789
 40
1.01990319277789
 40
1.01990319277789
 10
102.4603585330498
 20
186.5825026377612
 30
0.0
 10
102.4604589874241
 20
186.5019084705106
 30
0.0
 10
102.4617371215626
 20
186.329750188479
 30
0.0
 10
102.4624413309356
 20
186.0782449361322
 30
0.0
 10
102.4494251288693
 20
185.8637666700407
 30
0.0
 10
102.4464701188755
 20
185.6932184958526
 30
0.0
 10
102.4179555992949
 20
185.6247987907094
 30
0.0
 10
102.4269434136136
 20
185.5654840185945
 30
0.0
 10
102.4175728859683
 20
185.5649854872686
 30
0.0
 11
102.4603585330498
 21
186.5825026377612
 31
0.0
 11
102.4614794969126
 21
186.3407232959574
 31
0.0
 11
102.4593819704916
 21
186.0646803412716
 31
0.0
 11
102.4497992738344
 21
185.8345927117274
 31
0.0
 11
102.4362630562422
 21
185.6797390687819
 31
0.0
 11
102.423834024644
 21
185.5924323485805
 31
0.0
 11
102.4175728859683
 21
185.5649854872686
 31
0.0
  0
SPLINE
  5
129
330
2
100
AcDbEntity
  8
GAIKEI
  6
Continuous
 62
     1
100
AcDbSpline
210
0.0
220
0.0
230
1.0
 70
     8
 71
     3
 72
     9
 73
     5
 74
     3
 42
0.0000000001
 43
0.0000000001
 44
0.000001
 12
0.00441624400497
 22
0.999990248346897
 32
0.0
 13
-0.9988625858354369
 23
-0.0476815962206028
 33
0.0
 40
0.0
 40
0.0
 40
0.0
 40
0.0
 40
0.0619392336225013
 40
0.2180288114584723
 40
0.2180288114584723
 40
0.2180288114584723
 40
0.2180288114584723
 10
102.67819301869
 20
186.5825026377612
 30
0.0
 10
102.6782841982797
 20
186.603148847632
 30
0.0
 10
102.5590558145068
 20
186.5661972708687
 30
0.0
 10
102.5123292128295
 20
186.5849835045027
 30
0.0
 10
102.4603585330498
 20
186.5825026377612
 30
0.0
 11
102.67819301869
 21
186.5825026377612
 31
0.0
 11
102.6163921948864
 21
186.5866515862476
 31
0.0
 11
102.4603585330498
 21
186.5825026377612
 31
0.0
  0
SPLINE
  5
12A
330
2
100
AcDbEntity
  8
GAIKEI
  6
Continuous
 62
     1
100
AcDbSpline
210
0.0
220
0.0
230
1.0
 70
     8
 71
     3
 72
    11
 73
     7
 74
     5
 42
0.0000000001
 43
0.0000000001
 44
0.000001
 12
0.9987564980174209
 22
0.049854364583028
 32
0.0
 13
0.0002726581662577
 23
-0.9999999628287616
 33
0.0
 40
0.0
 40
0.0
 40
0.0
 40
0.0
 40
0.1661273401197677
 40
0.2978564361165676
 40
0.3847037589630269
 40
0.4165648482961606
 40
0.4165648482961606
 40
0.4165648482961606
 40
0.4165648482961606
 10
102.9873361035225
 20
186.1148512426995
 30
0.0
 10
103.0426430236702
 20
186.1176119670266
 30
0.0
 10
103.1386523169361
 20
186.1196146330727
 30
0.0
 10
103.2775914934868
 20
186.128326765078
 30
0.0
 10
103.3404463326558
 20
186.1144245771952
 30
0.0
 10
103.4031657521107
 20
186.1254716054158
 30
0.0
 10
103.4031686478394
 20
186.1148512426995
 30
0.0
 11
102.9873361035225
 21
186.1148512426995
 31
0.0
 11
103.1533366681219
 21
186.1213205803547
 31
0.0
 11
103.2850532216343
 21
186.1231376299216
 31
0.0
 11
103.3718693521701
 21
186.1208114858775
 31
0.0
 11
103.4031686478394
 21
186.1148512426995
 31
0.0
  0
SPLINE
  5
12B
330
2
100
AcDbEntity
  8
GAIKEI
  6
Continuous
 62
     1
100
AcDbSpline
210
0.0
220
0.0
230
1.0
 70
     8
 71
     3
 72
    13
 73
     9
 74
     7
 42
0.0000000001
 43
0.0000000001
 44
0.000001
 12
0.753073790038753
 22
0.6579360658579742
 32
0.0
 13
-1.0
 23
0.0000000000000001
 33
0.0
 40
0.0
 40
0.0
 40
0.0
 40
0.0
 40
0.0783056690111353
 40
0.1797051934013638
 40
0.3131113426639562
 40
0.4219399968709891
 40
0.4952544847326957
 40
0.5221143207126307
 40
0.5221143207126307
 40
0.5221143207126307
 40
0.5221143207126307
 10
102.9873361035225
 20
188.6505569602455
 30
0.0
 10
103.0069927525038
 20
188.6677303348467
 30
0.0
 10
103.054315488897
 20
188.7042406626497
 30
0.0
 10
103.1387853510166
 20
188.7674996997926
 30
0.0
 10
103.2243722216059
 20
188.8349912482073
 30
0.0
 10
103.3249287967828
 20
188.9033711501233
 30
0.0
 10
103.3480318948185
 20
188.9341458577459
 30
0.0
 10
103.4121219264994
 20
188.9662308071862
 30
0.0
 10
103.4031686478394
 20
188.9662308071862
 30
0.0
 11
102.9873361035225
 21
188.6505569602455
 31
0.0
 11
103.0484529012897
 21
188.699509624618
 31
0.0
 11
103.1292428502622
 21
188.7607864590032
 31
0.0
 11
103.235606781838
 21
188.8413092326873
 31
0.0
 11
103.3227116293139
 21
188.9065504946774
 31
0.0
 11
103.3815635366583
 21
188.9502708258761
 31
0.0
 11
103.4031686478394
 21
188.9662308071862
 31
0.0
  0
SPLINE
  5
12C
330
2
100
AcDbEntity
  8
GAIKEI
  6
Continuous
 62
     1
100
AcDbSpline
210
0.0
220
0.0
230
1.0
 70
     8
 71
     3
 72
    11
 73
     7
 74
     5
 42
0.0000000001
 43
0.0000000001
 44
0.000001
 12
-0.0010703563239132
 22
0.9999994271685059
 32
0.0
 13
-0.001070356323913
 23
0.9999994271685059
 33
0.0
 40
0.0
 40
0.0
 40
0.0
 40
0.0
 40
0.0842517119636117
 40
0.2610778965508385
 40
0.4379040811380085
 40
0.5221557931017623
 40
0.5221557931017623
 40
0.5221557931017623
 40
0.5221557931017623
 10
102.6925362812637
 20
187.4683669483753
 30
0.0
 10
102.6925062214794
 20
187.4964508362758
 30
0.0
 10
102.692557018144
 20
187.5834768331136
 30
0.0
 10
102.6925362812637
 20
187.7294448447961
 30
0.0
 10
102.6925155443834
 20
187.8754128564786
 30
0.0
 10
102.6925663410479
 20
187.9624388533164
 30
0.0
 10
102.6925362812637
 20
187.990522741217
 30
0.0
 11
102.6925362812637
 21
187.4683669483753
 31
0.0
 11
102.6925334289018
 21
187.5526186608168
 31
0.0
 11
102.6925362812637
 21
187.7294448447961
 31
0.0
 11
102.6925391336256
 21
187.9062710287754
 31
0.0
 11
102.6925362812637
 21
187.990522741217
 31
0.0
  0
SPLINE
  5
12D
330
2
100
AcDbEntity
  8
GAIKEI
  6
Continuous
100
AcDbSpline
210
0.0
220
0.0
230
1.0
 70
     8
 71
     3
 72
     9
 73
     5
 74
     3
 42
0.0000000001
 43
0.0000000001
 44
0.000001
 12
0.8216128654306011
 22
-0.5700458747845798
 32
0.0
 13
0.7561419739598785
 23
-0.6544076063250324
 33
0.0
 40
0.0
 40
0.0
 40
0.0
 40
0.0
 40
0.0283706002317306
 40
0.0567420865417371
 40
0.0567420865417371
 40
0.0567420865417371
 40
0.0567420865417371
 10
101.8820503931112
 20
213.634078957192
 30
0.0
 10
101.8898202764946
 20
213.6286881093163
 30
0.0
 10
101.9050697074831
 20
213.6174815517378
 30
0.0
 10
101.9196992432481
 20
213.6054777548706
 30
0.0
 10
101.926850200469
 20
213.5992889160559
 30
0.0
 11
101.8820503931112
 21
213.634078957192
 31
0.0
 11
101.9049147883639
 21
213.6172824138593
 31
0.0
 11
101.926850200469
 21
213.5992889160559
 31
0.0
  0
SPLINE
  5
12E
330
2
100
AcDbEntity
  8
GAIKEI
  6
Continuous
100
AcDbSpline
210
0.0
220
0.0
230
1.0
 70
     8
 71
     3
 72
     9
 73
     5
 74
     3
 42
0.0000000001
 43
0.0000000001
 44
0.000001
 12
0.974571587853388
 22
-0.2240763712418738
 32
0.0
 13
0.8019783848264074
 23
-0.5973530532869376
 33
0.0
 40
0.0
 40
0.0
 40
0.0
 40
0.0
 40
0.0374098602522108
 40
0.0749238911643856
 40
0.0749238911643856
 40
0.0749238911643856
 40
0.0749238911643856
 10
101.7806099573774
 20
213.6882781791725
 30
0.0
 10
101.7927628196798
 20
213.6854839572612
 30
0.0
 10
101.8160423821461
 20
213.6756827664046
 30
0.0
 10
101.8374760119748
 20
213.6627278646419
 30
0.0
 10
101.8475044926146
 20
213.6552581576731
 30
0.0
 11
101.7806099573774
 21
213.6882781791725
 31
0.0
 11
101.8155496136314
 21
213.6749091770439
 31
0.0
 11
101.8475044926146
 21
213.6552581576731
 31
0.0
  0
SPLINE
  5
12F
330
2
100
AcDbEntity
  8
GAIKEI
  6
Continuous
100
AcDbSpline
210
0.0
220
0.0
230
1.0
 70
     8
 71
     3
 72
     9
 73
     5
 74
     3
 42
0.0000000001
 43
0.0000000001
 44
0.000001
 12
0.9796871977183204
 22
-0.2005317795932211
 32
0.0
 13
0.7383676368651692
 23
-0.6743984229149308
 33
0.0
 40
0.0
 40
0.0
 40
0.0
 40
0.0
 40
0.0284893840296777
 40
0.0668705966584288
 40
0.0668705966584288
 40
0.0668705966584288
 40
0.0668705966584288
 10
101.6933296787376
 20
213.7157440011221
 30
0.0
 10
101.7026332403392
 20
213.7138396588291
 30
0.0
 10
101.7241779361134
 20
213.7103152437075
 30
0.0
 10
101.7476649390642
 20
213.7052680724993
 30
0.0
 10
101.7571114208205
 20
213.6966399960772
 30
0.0
 11
101.6933296787376
 21
213.7157440011221
 31
0.0
 11
101.7213426295657
 21
213.7105596784504
 31
0.0
 11
101.7571114208205
 21
213.6966399960772
 31
0.0
  0
SPLINE
  5
130
330
2
100
AcDbEntity
  8
GAIKEI
  6
Continuous
100
AcDbSpline
210
0.0
220
0.0
230
1.0
 70
     8
 71
     3
 72
     9
 73
     5
 74
     3
 42
0.0000000001
 43
0.0000000001
 44
0.000001
 12
0.9007582109122999
 22
-0.4343209014934379
 32
0.0
 13
0.8072984539028848
 23
-0.5901433777701925
 33
0.0
 40
0.0
 40
0.0
 40
0.0
 40
0.0
 40
0.0120400664915324
 40
0.0241674127353
 40
0.0241674127353
 40
0.0241674127353
 40
0.0241674127353
 10
101.8133248030773
 20
213.6738128462791
 30
0.0
 10
101.8169398659947
 20
213.6720697621016
 30
0.0
 10
101.8241399009105
 20
213.6684493850475
 30
0.0
 10
101.8309964002947
 20
213.6641745441398
 30
0.0
 10
101.8342598629189
 20
213.6617889197812
 30
0.0
 11
101.8133248030773
 21
213.6738128462791
 31
0.0
 11
101.8240278980188
 21
213.6683007010683
 31
0.0
 11
101.8342598629189
 21
213.6617889197812
 31
0.0
  0
SPLINE
  5
131
330
2
100
AcDbEntity
  8
GAIKEI
  6
Continuous
100
AcDbSpline
210
0.0
220
0.0
230
1.0
 70
     8
 71
     3
 72
     9
 73
     5
 74
     3
 42
0.0000000001
 43
0.0000000001
 44
0.000001
 12
0.9975914891662062
 22
-0.0693629637713897
 32
0.0
 13
0.8773045369304623
 23
-0.4799341095204911
 33
0.0
 40
0.0
 40
0.0
 40
0.0
 40
0.0
 40
0.0098074236358228
 40
0.0196844074863056
 40
0.0196844074863056
 40
0.0196844074863056
 40
0.0196844074863056
 10
101.7137764573
 20
213.7095794499734
 30
0.0
 10
101.7170377247499
 20
213.7093526926499
 30
0.0
 10
101.7235604708443
 20
213.7082474811265
 30
0.0
 10
101.7296869122977
 20
213.7057274212264
 30
0.0
 10
101.7325752865455
 20
213.7041473207434
 30
0.0
 11
101.7137764573
 21
213.7095794499734
 31
0.0
 11
101.7234390990882
 21
213.7079011685262
 31
0.0
 11
101.7325752865455
 21
213.7041473207434
 31
0.0
  0
SPLINE
  5
132
330
2
100
AcDbEntity
  8
GAIKEI
  6
Continuous
100
AcDbSpline
210
0.0
220
0.0
230
1.0
 70
     8
 71
     3
 72
     9
 73
     5
 74
     3
 42
0.0000000001
 43
0.0000000001
 44
0.000001
 12
0.9285769966303647
 22
-0.3711398137210988
 32
0.0
 13
0.8342620363354253
 23
-0.5513681662278567
 33
0.0
 40
0.0
 40
0.0
 40
0.0
 40
0.0
 40
0.0162320771835955
 40
0.0325811667064941
 40
0.0325811667064941
 40
0.0325811667064941
 40
0.0325811667064941
 10
101.8024605446173
 20
213.6781463426311
 30
0.0
 10
101.8074847891107
 20
213.6761382192637
 30
0.0
 10
101.8174127271813
 20
213.6716969904778
 30
0.0
 10
101.8268447354983
 20
213.6662585527884
 30
0.0
 10
101.8313912104042
 20
213.6632537636185
 30
0.0
 11
101.8024605446173
 21
213.6781463426311
 31
0.0
 11
101.817253401328
 21
213.6714662427065
 31
0.0
 11
101.8313912104042
 21
213.6632537636185
 31
0.0
  0
SPLINE
  5
133
330
2
100
AcDbEntity
  8
GAIKEI
  6
Continuous
100
AcDbSpline
210
0.0
220
0.0
230
1.0
 70
     8
 71
     3
 72
     9
 73
     5
 74
     3
 42
0.0000000001
 43
0.0000000001
 44
0.000001
 12
0.97199515865132
 22
-0.2350008756545293
 32
0.0
 13
0.9088829148800572
 23
-0.4170513721822898
 33
0.0
 40
0.0
 40
0.0
 40
0.0
 40
0.0
 40
0.0095490869334375
 40
0.0191512755968546
 40
0.0191512755968546
 40
0.0191512755968546
 40
0.0191512755968546
 10
101.7422188418078
 20
213.7019500549874
 30
0.0
 10
101.7453127305641
 20
213.7012020403904
 30
0.0
 10
101.7514467101684
 20
213.6993922661129
 30
0.0
 10
101.7573761607275
 20
213.6969983021717
 30
0.0
 10
101.7602852491347
 20
213.695663433519
 30
0.0
 11
101.7422188418078
 21
213.7019500549874
 31
0.0
 11
101.7513794150168
 21
213.6992528727059
 31
0.0
 11
101.7602852491347
 21
213.695663433519
 31
0.0
  0
SPLINE
  5
134
330
2
100
AcDbEntity
  8
GAIKEI
  6
Continuous
100
AcDbSpline
210
0.0
220
0.0
230
1.0
 70
     8
 71
     3
 72
     9
 73
     5
 74
     3
 42
0.0000000001
 43
0.0000000001
 44
0.000001
 12
0.9476067522711588
 22
-0.3194392634760274
 32
0.0
 13
0.9781595216317647
 23
-0.2078555994942579
 33
0.0
 40
0.0
 40
0.0
 40
0.0
 40
0.0
 40
0.0000303572916748
 40
0.0000610584875925
 40
0.0000610584875925
 40
0.0000610584875925
 40
0.0000610584875925
 10
101.6890572175454
 20
213.7166595285204
 30
0.0
 10
101.6890668064702
 20
213.7166562960834
 30
0.0
 10
101.6890878351314
 20
213.7166584237149
 30
0.0
 10
101.6891082424829
 20
213.7166616556589
 30
0.0
 10
101.6891182527053
 20
213.7166595285204
 30
0.0
 11
101.6890572175454
 21
213.7166595285204
 31
0.0
 11
101.6890877952816
 21
213.7166585633619
 31
0.0
 11
101.6891182527053
 21
213.7166595285204
 31
0.0
  0
SPLINE
  5
135
330
2
100
AcDbEntity
  8
GAIKEI
  6
Continuous
100
AcDbSpline
210
0.0
220
0.0
230
1.0
 70
     8
 71
     3
 72
     9
 73
     5
 74
     3
 42
0.0000000001
 43
0.0000000001
 44
0.000001
 12
0.0079263994431562
 22
0.9999685856025015
 32
0.0
 13
-0.9712813647251413
 23
0.2379338364707028
 33
0.0
 40
0.0
 40
0.0
 40
0.0
 40
0.0
 40
0.0716707874565762
 40
0.0906323653615384
 40
0.0906323653615384
 40
0.0906323653615384
 40
0.0906323653615384
 10
103.1197276949179
 20
213.3240719112755
 30
0.0
 10
103.1199170586811
 20
213.3479614232628
 30
0.0
 10
103.1119523104012
 20
213.3698282896851
 30
0.0
 10
103.1182920145818
 20
213.4126654091235
 30
0.0
 10
103.1121530054935
 20
213.4141692761156
 30
0.0
 11
103.1197276949179
 21
213.3240719112755
 31
0.0
 11
103.1162647245535
 21
213.3956582999182
 31
0.0
 11
103.1121530054935
 21
213.4141692761156
 31
0.0
  0
SPLINE
  5
136
330
2
100
AcDbEntity
  8
GAIKEI
  6
Continuous
100
AcDbSpline
210
0.0
220
0.0
230
1.0
 70
     8
 71
     3
 72
     9
 73
     5
 74
     3
 42
0.0000000001
 43
0.0000000001
 44
0.000001
 12
-0.228940221854976
 22
0.9734404834487799
 32
0.0
 13
-0.9781629580561469
 23
0.2078394271711907
 33
0.0
 40
0.0
 40
0.0
 40
0.0
 40
0.0
 40
0.0768003403863253
 40
0.1232767023991414
 40
0.1232767023991414
 40
0.1232767023991414
 40
0.1232767023991414
 10
102.5478841043244
 20
213.4466098235455
 30
0.0
 10
102.5420232086688
 20
213.4715300103704
 30
0.0
 10
102.5314127547254
 20
213.511089660357
 30
0.0
 10
102.4995602046277
 20
213.5443722621448
 30
0.0
 10
102.4844063860457
 20
213.5475921356307
 30
0.0
 11
102.5478841043244
 21
213.4466098235455
 31
0.0
 11
102.520558503213
 21
213.5183834434017
 31
0.0
 11
102.4844063860457
 21
213.5475921356307
 31
0.0
  0
SPLINE
  5
137
330
2
100
AcDbEntity
  8
GAIKEI
  6
Continuous
 62
     1
100
AcDbSpline
210
0.0
220
0.0
230
1.0
 70
     8
 71
     3
 72
    13
 73
     9
 74
     7
 42
0.0000000001
 43
0.0000000001
 44
0.000001
 12
-0.1863999512363903
 22
0.9824739478373313
 32
0.0
 13
0.4459120888327768
 23
0.8950767615309816
 33
0.0
 40
0.0
 40
0.0
 40
0.0
 40
0.0
 40
0.0301827171174304
 40
0.0732653686857246
 40
0.1318623522491252
 40
0.2017746703931862
 40
0.2956142245784404
 40
0.4260883385556492
 40
0.4260883385556492
 40
0.4260883385556492
 40
0.4260883385556492
 10
102.3517769836091
 20
208.366988799499
 30
0.0
 10
102.3499016312761
 20
208.3768733772466
 30
0.0
 10
102.3501804339246
 20
208.4016423182393
 30
0.0
 10
102.3578875584928
 20
208.4448938443237
 30
0.0
 10
102.371201339954
 20
208.5005894772272
 30
0.0
 10
102.3944023735115
 20
208.5710693345772
 30
0.0
 10
102.4325394622266
 20
208.661508421403
 30
0.0
 10
102.4650130578116
 20
208.7288785786825
 30
0.0
 10
102.4844063860457
 20
208.7678066944833
 30
0.0
 11
102.3517769836091
 21
208.366988799499
 31
0.0
 11
102.3508117645605
 21
208.3971562505628
 31
0.0
 11
102.3573311831589
 21
208.4397427100854
 31
0.0
 11
102.3710392477995
 21
208.4967137112305
 31
0.0
 11
102.3926610356324
 21
208.5631985315127
 31
0.0
 11
102.4283866979502
 21
208.6499714371807
 31
0.0
 11
102.4844063860457
 21
208.7678066944833
 31
0.0
  0
SPLINE
  5
138
330
2
100
AcDbEntity
  8
GAIKEI
  6
Continuous
 62
     1
100
AcDbSpline
210
0.0
220
0.0
230
1.0
 70
     8
 71
     3
 72
    11
 73
     7
 74
     5
 42
0.0000000001
 43
0.0000000001
 44
0.000001
 12
-0.0003823422944843
 22
-0.9999999269071825
 32
0.0
 13
0.8804453328006502
 23
-0.4741476731457748
 33
0.0
 40
0.0
 40
0.0
 40
0.0
 40
0.0
 40
0.1206607758104594
 40
0.2428295030391616
 40
0.3661144945035371
 40
0.4900228211764336
 40
0.4900228211764336
 40
0.4900228211764336
 40
0.4900228211764336
 10
102.1081856604962
 20
208.7678066944833
 30
0.0
 10
102.1081702825902
 20
208.7275864388196
 30
0.0
 10
102.1205034354308
 20
208.6462721845809
 30
0.0
 10
102.1707504481172
 20
208.5336496936756
 30
0.0
 10
102.2481699195746
 20
208.4362847154858
 30
0.0
 10
102.3154121476376
 20
208.3865724144241
 30
0.0
 10
102.3517769836091
 20
208.366988799499
 30
0.0
 11
102.1081856604962
 21
208.7678066944833
 31
0.0
 11
102.1256105481017
 21
208.6484097260726
 31
0.0
 11
102.1749974359088
 21
208.5366683544787
 31
0.0
 11
102.2518762667878
 21
208.4402916791411
 31
0.0
 11
102.3517769836091
 21
208.366988799499
 31
0.0
  0
SPLINE
  5
139
330
2
100
AcDbEntity
  8
GAIKEI
  6
Continuous
 62
     1
100
AcDbSpline
210
0.0
220
0.0
230
1.0
 70
     8
 71
     3
 72
    11
 73
     7
 74
     5
 42
0.0000000001
 43
0.0000000001
 44
0.000001
 12
-0.8942966538041691
 22
0.447474574690748
 32
0.0
 13
0.0000341928975867
 23
0.9999999994154229
 33
0.0
 40
0.0
 40
0.0
 40
0.0
 40
0.0
 40
0.1288141245563764
 40
0.2573806169544243
 40
0.3879065356552223
 40
0.5197115541306794
 40
0.5197115541306794
 40
0.5197115541306794
 40
0.5197115541306794
 10
102.3517769836091
 20
208.1945644728154
 30
0.0
 10
102.3133776367579
 20
208.2137781546821
 30
0.0
 10
102.2427576912344
 20
208.2656439822261
 30
0.0
 10
102.1658124078083
 20
208.371623108841
 30
0.0
 10
102.1189145459954
 20
208.4945976717482
 30
0.0
 10
102.108184158231
 20
208.5823921877302
 30
0.0
 10
102.1081856604962
 20
208.626327193863
 30
0.0
 11
102.3517769836091
 21
208.1945644728154
 31
0.0
 11
102.2475897175429
 21
208.2703163407506
 31
0.0
 11
102.1712010396986
 21
208.3737287739226
 31
0.0
 11
102.1242025030313
 21
208.4954997368029
 31
0.0
 11
102.1081856604962
 21
208.626327193863
 31
0.0
  0
SPLINE
  5
13A
330
2
100
AcDbEntity
  8
GAIKEI
  6
Continuous
 62
     1
100
AcDbSpline
210
0.0
220
0.0
230
1.0
 70
     8
 71
     3
 72
    13
 73
     9
 74
     7
 42
0.0000000001
 43
0.0000000001
 44
0.000001
 12
0.3596970176533543
 22
-0.933069159007671
 32
0.0
 13
0.8303267561068238
 23
-0.5572768415187546
 33
0.0
 40
0.0
 40
0.0
 40
0.0
 40
0.0
 40
0.0445009805043458
 40
0.08921318785725
 40
0.2326619285703769
 40
0.3562789295719519
 40
0.4044119270492163
 40
0.4898258576176153
 40
0.4898258576176153
 40
0.4898258576176153
 40
0.4898258576176153
 10
102.198321794505
 20
212.9277453914459
 30
0.0
 10
102.2036574178283
 20
212.9139045606278
 30
0.0
 10
102.2146195070976
 20
212.886264954381
 30
0.0
 10
102.2447452215489
 20
212.8147436124705
 30
0.0
 10
102.2906442714963
 20
212.7219618874111
 30
0.0
 10
102.3523878734472
 20
212.6336713627259
 30
0.0
 10
102.4238872635026
 20
212.5856485580618
 30
0.0
 10
102.4607658954139
 20
212.5608950011271
 30
0.0
 10
102.4844063860457
 20
212.5450285993108
 30
0.0
 11
102.198321794505
 21
212.9277453914459
 31
0.0
 11
102.2147393141966
 21
212.886383497215
 31
0.0
 11
102.2321480702287
 21
212.8451995156399
 31
0.0
 11
102.297313129763
 21
212.717406323423
 31
0.0
 11
102.3744820630874
 21
212.6208342678917
 31
0.0
 11
102.4134886818307
 21
212.5926337021641
 31
0.0
 11
102.4844063860457
 21
212.5450285993108
 31
0.0
  0
SPLINE
  5
13B
330
2
100
AcDbEntity
  8
GAIKEI
  6
Continuous
 62
     1
100
AcDbSpline
210
0.0
220
0.0
230
1.0
 70
     8
 71
     3
 72
     9
 73
     5
 74
     3
 42
0.0000000001
 43
0.0000000001
 44
0.000001
 12
-0.9985505398405583
 22
-0.0538221086927053
 32
0.0
 13
0.0009939570685328
 23
0.9999995060245511
 33
0.0
 40
0.0
 40
0.0
 40
0.0
 40
0.0
 40
0.0316465249667644
 40
0.0434022489457963
 40
0.0434022489457963
 40
0.0434022489457963
 40
0.0434022489457963
 10
103.4465036113599
 20
188.9542068806883
 30
0.0
 10
103.43597005983
 20
188.9536391197862
 30
0.0
 10
103.4267196896927
 20
188.9568698230075
 30
0.0
 10
103.4031647529444
 20
188.9502883079643
 30
0.0
 10
103.4031686478394
 20
188.9542068806883
 30
0.0
 11
103.4465036113599
 21
188.9542068806883
 31
0.0
 11
103.4148760478551
 21
188.9531343827023
 31
0.0
 11
103.4031686478394
 21
188.9542068806883
 31
0.0
  0
SPLINE
  5
13C
330
2
100
AcDbEntity
  8
GAIKEI
  6
Continuous
 62
     1
100
AcDbSpline
210
0.0
220
0.0
230
1.0
 70
     8
 71
     3
 72
    11
 73
     7
 74
     5
 42
0.0000000001
 43
0.0000000001
 44
0.000001
 12
-0.2462178745595128
 22
-0.9692145057970378
 32
0.0
 13
0.0022214769121426
 23
0.9999975325171202
 33
0.0
 40
0.0
 40
0.0
 40
0.0
 40
0.0
 40
0.0213790245570603
 40
0.0356970595796515
 40
0.057478994540785
 40
0.0752630840816371
 40
0.0752630840816371
 40
0.0752630840816371
 40
0.0752630840816371
 10
103.4465036113599
 20
188.6809524698698
 30
0.0
 10
103.4447489786977
 20
188.6740455162963
 30
0.0
 10
103.440629568559
 20
188.6619940947459
 30
0.0
 10
103.4196672328847
 20
188.6532889879249
 30
0.0
 10
103.40701812832
 20
188.6716147281018
 30
0.0
 10
103.4031554788579
 20
188.6838745528338
 30
0.0
 10
103.4031686478394
 20
188.6898025680535
 30
0.0
 11
103.4465036113599
 21
188.6809524698698
 31
0.0
 11
103.4366229882714
 21
188.6619928169221
 31
0.0
 11
103.4231271451228
 21
188.6572097926733
 31
0.0
 11
103.4077236350065
 21
188.6726108205642
 31
0.0
 11
103.4031686478394
 21
188.6898025680535
 31
0.0
  0
SPLINE
  5
13D
330
2
100
AcDbEntity
  8
GAIKEI
  6
Continuous
 62
     1
100
AcDbSpline
210
0.0
220
0.0
230
1.0
 70
     8
 71
     3
 72
    11
 73
     7
 74
     5
 42
0.0000000001
 43
0.0000000001
 44
0.000001
 12
0.0015222858712839
 22
0.9999988413221919
 32
0.0
 13
-0.4566484066018179
 23
-0.8896472518633556
 33
0.0
 40
0.0
 40
0.0
 40
0.0
 40
0.0
 40
0.0355010350953234
 40
0.072736913824321
 40
0.1352504283146189
 40
0.2154916644102622
 40
0.2154916644102622
 40
0.2154916644102622
 40
0.2154916644102622
 10
103.6781930782946
 20
188.8359207408253
 30
0.0
 10
103.6782110925359
 20
188.847754405479
 30
0.0
 10
103.6722234241829
 20
188.8732298321164
 30
0.0
 10
103.6331559989932
 20
188.9013275535724
 30
0.0
 10
103.5671489390737
 20
188.8987262597774
 30
0.0
 10
103.531593603135
 20
188.8597162058848
 30
0.0
 10
103.5193795922661
 20
188.8359207408253
 30
0.0
 11
103.6781930782946
 21
188.8359207408253
 31
0.0
 11
103.6687875757614
 21
188.8701541900301
 31
0.0
 11
103.6393747166059
 21
188.8929886153206
 31
0.0
 11
103.5768704899231
 21
188.8918981954185
 31
0.0
 11
103.5193795922661
 21
188.8359207408253
 31
0.0
  0
SPLINE
  5
13E
330
2
100
AcDbEntity
  8
GAIKEI
  6
Continuous
 62
     1
100
AcDbSpline
210
0.0
220
0.0
230
1.0
 70
     8
 71
     3
 72
    25
 73
    21
 74
    19
 42
0.0000000001
 43
0.0000000001
 44
0.000001
 12
0.9671989480162134
 22
0.2540200680189069
 32
0.0
 13
-0.0735875879962012
 23
0.9972887580299405
 33
0.0
 40
0.0
 40
0.0
 40
0.0
 40
0.0
 40
0.0016149715310627
 40
0.0050156123112006
 40
0.0107650426525207
 40
0.0189186835237417
 40
0.0295122406667814
 40
0.0427380812252195
 40
0.0589352567371004
 40
0.0785667383592905
 40
0.102190531104556
 40
0.1304316592072869
 40
0.1561908655718125
 40
0.1822189237706315
 40
0.2081491574787584
 40
0.2335745890526709
 40
0.2580611698629615
 40
0.2811576054949703
 40
0.3024037986515632
 40
0.3213412923670741
 40
0.3213412923670741
 40
0.3213412923670741
 40
0.3213412923670741
 10
103.4743356442688
 20
188.5334915235804
 30
0.0
 10
103.4748563105241
 20
188.5336282686398
 30
0.0
 10
103.4764417393198
 20
188.5341692858675
 30
0.0
 10
103.4797114590058
 20
188.5356635477141
 30
0.0
 10
103.4846448861795
 20
188.5386830660765
 30
0.0
 10
103.4910246778466
 20
188.5438185731182
 30
0.0
 10
103.4983449260336
 20
188.5516138038657
 30
0.0
 10
103.5060500761984
 20
188.562554805128
 30
0.0
 10
103.5135822392972
 20
188.5771221860299
 30
0.0
 10
103.5203921943652
 20
188.5957846701787
 30
0.0
 10
103.5259448360918
 20
188.6190093792796
 30
0.0
 10
103.5293512942382
 20
188.6446992358184
 30
0.0
 10
103.5308276311821
 20
188.6713500827636
 30
0.0
 10
103.53085578168
 20
188.6972659855859
 30
0.0
 10
103.5297956005446
 20
188.7230443705393
 30
0.0
 10
103.5279706824489
 20
188.7482620026313
 30
0.0
 10
103.5256981061396
 20
188.7724928174188
 30
0.0
 10
103.5232947808918
 20
188.795309845688
 30
0.0
 10
103.5210762627999
 20
188.8162858737872
 30
0.0
 10
103.5198441137612
 20
188.8296253576294
 30
0.0
 10
103.5193795922661
 20
188.8359207408253
 30
0.0
 11
103.4743356442688
 21
188.5334915235804
 31
0.0
 11
103.4758706758392
 21
188.5339937432086
 31
0.0
 11
103.4789743164203
 21
188.5353836135369
 31
0.0
 11
103.4839005665046
 21
188.5383480579021
 31
0.0
 11
103.4902773754068
 21
188.5434292004826
 31
0.0
 11
103.4975705327462
 21
188.5511124941116
 31
0.0
 11
103.5052458281427
 21
188.5618833916218
 31
0.0
 11
103.5127690512155
 21
188.5762273458463
 31
0.0
 11
103.5196059915844
 21
188.594629809618
 31
0.0
 11
103.5252224388688
 21
188.6175762357698
 31
0.0
 11
103.5290841826883
 21
188.6455520771347
 31
0.0
 11
103.5305905921735
 21
188.6712671934248
 31
0.0
 11
103.5306721042496
 21
188.6972951228409
 31
0.0
 11
103.5296526700087
 21
188.7232053112017
 31
0.0
 11
103.5278562405426
 21
188.7485672043256
 31
0.0
 11
103.5256067669434
 21
188.7729502480313
 31
0.0
 11
103.523228200303
 21
188.7959238881375
 31
0.0
 11
103.5210444917132
 21
188.8170575704626
 31
0.0
 11
103.5193795922661
 21
188.8359207408253
 31
0.0
  0
SPLINE
  5
13F
330
2
100
AcDbEntity
  8
GAIKEI
  6
Continuous
100
AcDbSpline
210
0.0
220
0.0
230
1.0
 70
     8
 71
     3
 72
     9
 73
     5
 74
     3
 42
0.0000000001
 43
0.0000000001
 44
0.000001
 12
-0.1740597242984542
 22
-0.9847350975654041
 32
0.0
 13
-0.5145281351077995
 23
-0.8574734970729359
 33
0.0
 40
0.0
 40
0.0
 40
0.0
 40
0.0
 40
0.0499205989765542
 40
0.0997612470801498
 40
0.0997612470801498
 40
0.0997612470801498
 40
0.0997612470801498
 10
103.6738595819426
 20
188.750593587302
 30
0.0
 10
103.6709631933777
 20
188.7342073986674
 30
0.0
 10
103.662003659827
 20
188.7019638420119
 30
0.0
 10
103.6474956090605
 20
188.6718216819079
 30
0.0
 10
103.6389474704867
 20
188.6575760036327
 30
0.0
 11
103.6738595819426
 21
188.750593587302
 31
0.0
 11
103.6606061363469
 21
188.7024643369317
 31
0.0
 11
103.6389474704867
 21
188.6575760036327
 31
0.0
  0
SPLINE
  5
140
330
2
100
AcDbEntity
  8
GAIKEI
  6
Continuous
100
AcDbSpline
210
0.0
220
0.0
230
1.0
 70
     8
 71
     3
 72
     9
 73
     5
 74
     3
 42
0.0000000001
 43
0.0000000001
 44
0.000001
 12
0.4369039627369132
 22
0.8995081585759978
 32
0.0
 13
-0.2131732998587373
 23
-0.9770144032855078
 33
0.0
 40
0.0
 40
0.0
 40
0.0
 40
0.0
 40
0.0014852975999389
 40
0.002374887417023
 40
0.002374887417023
 40
0.002374887417023
 40
0.002374887417023
 10
103.6495675883072
 20
189.1953567974057
 30
0.0
 10
103.6497838991096
 20
189.1958021431754
 30
0.0
 10
103.6499686113695
 20
189.1960497980293
 30
0.0
 10
103.6506683982909
 20
189.1977827420231
 30
0.0
 10
103.6506051860253
 20
189.1974930280017
 30
0.0
 11
103.6495675883072
 21
189.1953567974057
 31
0.0
 11
103.650216086881
 21
189.1966919415282
 31
0.0
 11
103.6506051860253
 21
189.1974930280017
 31
0.0
  0
SPLINE
  5
141
330
2
100
AcDbEntity
  8
GAIKEI
  6
Continuous
100
AcDbSpline
210
0.0
220
0.0
230
1.0
 70
     8
 71
     3
 72
    11
 73
     7
 74
     5
 42
0.0000000001
 43
0.0000000001
 44
0.000001
 12
-0.0015438828007261
 22
-0.9999988082122385
 32
0.0
 13
-0.441579470532206
 23
-0.8972221415037061
 33
0.0
 40
0.0
 40
0.0
 40
0.0
 40
0.0
 40
0.0182162166839685
 40
0.0591903801206287
 40
0.1030924941737742
 40
0.1266148240200665
 40
0.1266148240200665
 40
0.1266148240200665
 40
0.1266148240200665
 10
103.6781930782946
 20
189.3174881523415
 30
0.0
 10
103.6781837037267
 20
189.3114160873501
 30
0.0
 10
103.6786578554045
 20
189.2916342359606
 30
0.0
 10
103.6718741820591
 20
189.2577740140965
 30
0.0
 10
103.6635227998298
 20
189.2223737823636
 30
0.0
 10
103.6530299142936
 20
189.2023917157916
 30
0.0
 10
103.6495675883072
 20
189.1953567974057
 30
0.0
 11
103.6781930782946
 21
189.3174881523415
 31
0.0
 11
103.6780627452041
 21
189.2992723683154
 31
0.0
 11
103.6718454216663
 21
189.2587723285293
 31
0.0
 11
103.6597072720897
 21
189.2165815111228
 31
0.0
 11
103.6495675883072
 21
189.1953567974057
 31
0.0
  0
SPLINE
  5
142
330
2
100
AcDbEntity
  8
GAIKEI
  6
Continuous
100
AcDbSpline
210
0.0
220
0.0
230
1.0
 70
     8
 71
     3
 72
     9
 73
     5
 74
     3
 42
0.0000000001
 43
0.0000000001
 44
0.000001
 12
0.4618342237308737
 22
0.8869662619236999
 32
0.0
 13
0.4618342237308736
 23
0.8869662619236999
 33
0.0
 40
0.0
 40
0.0
 40
0.0
 40
0.0
 40
0.0013375615421897
 40
0.0026751230843664
 40
0.0026751230843664
 40
0.0026751230843664
 40
0.0026751230843664
 10
103.6459665138738
 20
189.1882767188586
 30
0.0
 10
103.6461724244393
 20
189.1886721761791
 30
0.0
 10
103.6465768654727
 20
189.1894669044765
 30
0.0
 10
103.646981306506
 20
189.1902616327739
 30
0.0
 10
103.6471872170716
 20
189.1906570900943
 30
0.0
 11
103.6459665138738
 21
189.1882767188586
 31
0.0
 11
103.6465768654727
 21
189.1894669044765
 31
0.0
 11
103.6471872170716
 21
189.1906570900943
 31
0.0
  0
SPLINE
  5
143
330
2
100
AcDbEntity
  8
GAIKEI
  6
Continuous
100
AcDbSpline
210
0.0
220
0.0
230
1.0
 70
     8
 71
     3
 72
     9
 73
     5
 74
     3
 42
0.0000000001
 43
0.0000000001
 44
0.000001
 12
0.4439066962705617
 22
0.8960730132116218
 32
0.0
 13
-0.452129027956589
 23
-0.8919525447460923
 33
0.0
 40
0.0
 40
0.0
 40
0.0
 40
0.0
 40
0.0004384415356942
 40
0.0038762570635363
 40
0.0038762570635363
 40
0.0038762570635363
 40
0.0038762570635363
 10
103.6500558695863
 20
189.1963333599639
 30
0.0
 10
103.6501207452975
 20
189.1964643185066
 30
0.0
 10
103.648964789375
 20
189.193991009859
 30
0.0
 10
103.6488649971737
 20
189.1938764786196
 30
0.0
 10
103.6483468851094
 20
189.1928543558502
 30
0.0
 11
103.6500558695863
 21
189.1963333599639
 31
0.0
 11
103.6498723299939
 21
189.1959340830931
 31
0.0
 11
103.6483468851094
 21
189.1928543558502
 31
0.0
  0
SPLINE
  5
144
330
2
100
AcDbEntity
  8
GAIKEI
  6
Continuous
100
AcDbSpline
210
0.0
220
0.0
230
1.0
 70
     8
 71
     3
 72
     9
 73
     5
 74
     3
 42
0.0000000001
 43
0.0000000001
 44
0.000001
 12
-0.5741370598084015
 22
-0.8187592054777548
 32
0.0
 13
-0.4232439726305973
 23
-0.9060157502118107
 33
0.0
 40
0.0
 40
0.0
 40
0.0
 40
0.0
 40
0.0001442083319198
 40
0.0007375073091659
 40
0.0007375073091659
 40
0.0007375073091659
 40
0.0007375073091659
 10
103.6524972759818
 20
189.2014603133945
 30
0.0
 10
103.6524696775325
 20
189.2014209560947
 30
0.0
 10
103.6523856111457
 20
189.2011864215104
 30
0.0
 10
103.6522758035878
 20
189.2009681060417
 30
0.0
 10
103.6521921001824
 20
189.2007889266357
 30
0.0
 11
103.6524972759818
 21
189.2014603133945
 31
0.0
 11
103.6524366824726
 21
189.2013293549826
 31
0.0
 11
103.6521921001824
 21
189.2007889266357
 31
0.0
  0
SPLINE
  5
145
330
2
100
AcDbEntity
  8
GAIKEI
  6
Continuous
100
AcDbSpline
210
0.0
220
0.0
230
1.0
 70
     8
 71
     3
 72
     9
 73
     5
 74
     3
 42
0.0000000001
 43
0.0000000001
 44
0.000001
 12
-0.6697753278810991
 22
-0.7425638088149505
 32
0.0
 13
0.1620782925170355
 23
-0.9867779016043895
 33
0.0
 40
0.0
 40
0.0
 40
0.0
 40
0.0
 40
0.0002864023018471
 40
0.0003617234366074
 40
0.0003617234366074
 40
0.0003617234366074
 40
0.0003617234366074
 10
103.6095285234207
 20
189.1359085516748
 30
0.0
 10
103.6094645816888
 20
189.1358376610134
 30
0.0
 10
103.6093800476791
 20
189.1357498921955
 30
0.0
 10
103.609341348634
 20
189.1356281509524
 30
0.0
 10
103.609345417941
 20
189.1356033758753
 30
0.0
 11
103.6095285234207
 21
189.1359085516748
 31
0.0
 11
103.6093604293507
 21
189.1356775917984
 31
0.0
 11
103.609345417941
 21
189.1356033758753
 31
0.0
  0
SPLINE
  5
146
330
2
100
AcDbEntity
  8
GAIKEI
  6
Continuous
100
AcDbSpline
210
0.0
220
0.0
230
1.0
 70
     8
 71
     3
 72
     9
 73
     5
 74
     3
 42
0.0000000001
 43
0.0000000001
 44
0.000001
 12
0.4947875962022489
 22
0.8690139438722489
 32
0.0
 13
0.4344739558854115
 23
0.9006843962550265
 33
0.0
 40
0.0
 40
0.0
 40
0.0
 40
0.0
 40
0.0048469645010128
 40
0.0096923590433309
 40
0.0096923590433309
 40
0.0096923590433309
 40
0.0096923590433309
 10
103.6459054787139
 20
189.1882767188586
 30
0.0
 10
103.6467048846853
 20
189.1896807454376
 30
0.0
 10
103.6482312470425
 20
189.1925296216095
 30
0.0
 10
103.6496593128075
 20
189.1954279526502
 30
0.0
 10
103.6503610453857
 20
189.1968826764029
 30
0.0
 11
103.6459054787139
 21
189.1882767188586
 31
0.0
 11
103.6482070696011
 21
189.1925429075929
 31
0.0
 11
103.6503610453857
 21
189.1968826764029
 31
0.0
  0
SPLINE
  5
147
330
2
100
AcDbEntity
  8
GAIKEI
  6
Continuous
100
AcDbSpline
210
0.0
220
0.0
230
1.0
 70
     8
 71
     3
 72
     9
 73
     5
 74
     3
 42
0.0000000001
 43
0.0000000001
 44
0.000001
 12
0.6530725087615257
 22
0.757295383783585
 32
0.0
 13
0.3984111868807301
 23
0.9172069156784024
 33
0.0
 40
0.0
 40
0.0
 40
0.0
 40
0.0
 40
0.0024128777328149
 40
0.0048209191597238
 40
0.0048209191597238
 40
0.0048209191597238
 40
0.0048209191597238
 10
103.6338205170561
 20
189.1677078699764
 30
0.0
 10
103.6343457784275
 20
189.1683169570326
 30
0.0
 10
103.6353281168962
 20
189.1695933309019
 30
0.0
 10
103.6361252320503
 20
189.1709999664456
 30
0.0
 10
103.6364450289313
 20
189.1717361905289
 30
0.0
 11
103.6338205170561
 21
189.1677078699764
 31
0.0
 11
103.6352817035894
 21
189.1696272440771
 31
0.0
 11
103.6364450289313
 21
189.1717361905289
 31
0.0
  0
SPLINE
  5
148
330
2
100
AcDbEntity
  8
GAIKEI
  6
Continuous
100
AcDbSpline
210
0.0
220
0.0
230
1.0
 70
     8
 71
     3
 72
     9
 73
     5
 74
     3
 42
0.0000000001
 43
0.0000000001
 44
0.000001
 12
0.7514248269581099
 22
0.6598187095187395
 32
0.0
 13
0.577493085193391
 23
0.8163955760253841
 33
0.0
 40
0.0
 40
0.0
 40
0.0
 40
0.0
 40
0.0333075433574399
 40
0.0644839933968994
 40
0.0644839933968994
 40
0.0644839933968994
 40
0.0644839933968994
 10
103.5833444398287
 20
189.1099686087224
 30
0.0
 10
103.5916871448299
 20
189.1172942554809
 30
0.0
 10
103.6072202239333
 20
189.1322206736428
 30
0.0
 10
103.6208000788961
 20
189.148969857819
 30
0.0
 10
103.626801473669
 20
189.1574539631152
 30
0.0
 11
103.5833444398287
 21
189.1099686087224
 31
0.0
 11
103.6072128846958
 21
189.1331993751219
 31
0.0
 11
103.626801473669
 21
189.1574539631152
 31
0.0
  0
SPLINE
  5
149
330
2
100
AcDbEntity
  8
GAIKEI
  6
Continuous
100
AcDbSpline
210
0.0
220
0.0
230
1.0
 70
     8
 71
     3
 72
     9
 73
     5
 74
     3
 42
0.0000000001
 43
0.0000000001
 44
0.000001
 12
0.2300685421109334
 22
-0.9731744272898616
 32
0.0
 13
-0.7756951449428287
 23
-0.6311077896145191
 33
0.0
 40
0.0
 40
0.0
 40
0.0
 40
0.0
 40
0.0040610244780178
 40
0.0135011642752817
 40
0.0135011642752817
 40
0.0135011642752817
 40
0.0135011642752817
 10
103.5857858462242
 20
189.1121658744783
 30
0.0
 10
103.5860972842179
 20
189.1108485127548
 30
0.0
 10
103.579982856618
 20
189.1086403429702
 30
0.0
 10
103.5780338647257
 20
189.1053016915483
 30
0.0
 10
103.575592974523
 20
189.1033157762946
 30
0.0
 11
103.5857858462242
 21
189.1121658744783
 31
0.0
 11
103.5827948681346
 21
189.1094181244121
 31
0.0
 11
103.575592974523
 21
189.1033157762946
 31
0.0
  0
SPLINE
  5
14A
330
2
100
AcDbEntity
  8
GAIKEI
  6
Continuous
100
AcDbSpline
210
0.0
220
0.0
230
1.0
 70
     8
 71
     3
 72
    11
 73
     7
 74
     5
 42
0.0000000001
 43
0.0000000001
 44
0.000001
 12
-1.0
 22
0.0000000000000001
 32
0.0
 13
-0.9029836121814568
 23
-0.4296749889529624
 33
0.0
 40
0.0
 40
0.0
 40
0.0
 40
0.0
 40
0.0166322880969562
 40
0.0411462676210703
 40
0.0587158155562912
 40
0.0664051299443973
 40
0.0664051299443973
 40
0.0664051299443973
 40
0.0664051299443973
 10
103.575592974523
 20
189.1033157762946
 30
0.0
 10
103.5700488784906
 20
189.1033157762946
 30
0.0
 10
103.5607169215595
 20
189.0897683341454
 30
0.0
 10
103.5438252933962
 20
189.0812155088396
 30
0.0
 10
103.5293379667938
 20
189.0728334715435
 30
0.0
 10
103.5216940338932
 20
189.0693218613839
 30
0.0
 10
103.5193795922661
 20
189.068220559359
 30
0.0
 11
103.575592974523
 21
189.1033157762946
 31
0.0
 11
103.5620954614495
 21
189.093596716844
 31
0.0
 11
103.541779495945
 21
189.0798782748975
 31
0.0
 11
103.5263212723463
 21
189.0715277099261
 31
0.0
 11
103.5193795922661
 21
189.068220559359
 31
0.0
  0
SPLINE
  5
14B
330
2
100
AcDbEntity
  8
GAIKEI
  6
Continuous
 62
     1
100
AcDbSpline
210
0.0
220
0.0
230
1.0
 70
     8
 71
     3
 72
    11
 73
     7
 74
     5
 42
0.0000000001
 43
0.0000000001
 44
0.000001
 12
0.9063167999938059
 22
0.4225989328535836
 32
0.0
 13
-0.0483793023056808
 23
0.9988290359758348
 33
0.0
 40
0.0
 40
0.0
 40
0.0
 40
0.0
 40
0.1438909576344345
 40
0.3064814847693966
 40
0.3973599290467504
 40
0.4865910886473074
 40
0.4865910886473074
 40
0.4865910886473074
 40
0.4865910886473074
 10
103.1111154077754
 20
188.8778518956684
 30
0.0
 10
103.1545856718658
 20
188.8981212840496
 30
0.0
 10
103.2414352245858
 20
188.9554730648896
 30
0.0
 10
103.3204770872831
 20
189.0669172032317
 30
0.0
 10
103.3525648985203
 20
189.1774393262855
 30
0.0
 10
103.3566950277424
 20
189.237913535672
 30
0.0
 10
103.3552560473273
 20
189.267622426713
 30
0.0
 11
103.1111154077754
 21
188.8778518956684
 31
0.0
 11
103.2304312198009
 21
188.9582781910935
 31
0.0
 11
103.3237619048252
 21
189.0914139201164
 31
0.0
 11
103.3494779053063
 21
189.1785779374178
 31
0.0
 11
103.3552560473273
 21
189.267622426713
 31
0.0
  0
SPLINE
  5
14C
330
2
100
AcDbEntity
  8
GAIKEI
  6
Continuous
100
AcDbSpline
210
0.0
220
0.0
230
1.0
 70
     8
 71
     3
 72
     9
 73
     5
 74
     3
 42
0.0000000001
 43
0.0000000001
 44
0.000001
 12
0.4340195517902083
 22
0.9009034513552641
 32
0.0
 13
-0.0007614355580964
 23
0.9999997101079035
 33
0.0
 40
0.0
 40
0.0
 40
0.0
 40
0.0
 40
0.0541594003094614
 40
0.1236629806979671
 40
0.1236629806979671
 40
0.1236629806979671
 40
0.1236629806979671
 10
103.6506051860253
 20
189.1974930280017
 30
0.0
 10
103.6584405989078
 20
189.2137571582224
 30
0.0
 10
103.6706437262759
 20
189.253348716533
 30
0.0
 10
103.6782107191271
 20
189.2943202989281
 30
0.0
 10
103.6781930782946
 20
189.3174881523415
 30
0.0
 11
103.6506051860253
 21
189.1974930280017
 31
0.0
 11
103.6682393289464
 21
189.2487010950141
 31
0.0
 11
103.6781930782946
 21
189.3174881523415
 31
0.0
  0
SPLINE
  5
14D
330
2
100
AcDbEntity
  8
GAIKEI
  6
Continuous
100
AcDbSpline
210
0.0
220
0.0
230
1.0
 70
     8
 71
     3
 72
     9
 73
     5
 74
     3
 42
0.0000000001
 43
0.0000000001
 44
0.000001
 12
0.9057694603986142
 22
0.4237707925390845
 32
0.0
 13
0.4351244737735739
 23
0.9003703084416269
 33
0.0
 40
0.0
 40
0.0
 40
0.0
 40
0.0
 40
0.1117053163413176
 40
0.1869950235717522
 40
0.1869950235717522
 40
0.1869950235717522
 40
0.1869950235717522
 10
103.5193795922661
 20
189.068220559359
 30
0.0
 10
103.5531060136348
 20
189.0839997095046
 30
0.0
 10
103.6055492494134
 20
189.1217417971797
 30
0.0
 10
103.6396850546122
 20
189.1748968223611
 30
0.0
 10
103.6506051860253
 20
189.1974930280017
 30
0.0
 11
103.5193795922661
 21
189.068220559359
 31
0.0
 11
103.6092299041326
 21
189.1345913168864
 31
0.0
 11
103.6506051860253
 21
189.1974930280017
 31
0.0
  0
SPLINE
  5
14E
330
2
100
AcDbEntity
  8
GAIKEI
  6
Continuous
 62
     1
100
AcDbSpline
210
0.0
220
0.0
230
1.0
 70
     8
 71
     3
 72
     9
 73
     5
 74
     3
 42
0.0000000001
 43
0.0000000001
 44
0.000001
 12
0.0924355776148119
 22
0.9957186670897639
 32
0.0
 13
-0.0933289346513915
 23
0.9956353298054645
 33
0.0
 40
0.0
 40
0.0
 40
0.0
 40
0.0
 40
0.1806356638308582
 40
0.3607769043862301
 40
0.3607769043862301
 40
0.3607769043862301
 40
0.3607769043862301
 10
103.3988351514874
 20
206.1743006805233
 30
0.0
 10
103.4044008721287
 20
206.2342547813295
 30
0.0
 10
103.4079777877306
 20
206.3546228892882
 30
0.0
 10
103.4043172111902
 20
206.4749893403377
 30
0.0
 10
103.3987130811676
 20
206.5347743348217
 30
0.0
 11
103.3988351514874
 21
206.1743006805233
 31
0.0
 11
103.4061673539715
 21
206.354787429963
 31
0.0
 11
103.3987130811676
 21
206.5347743348217
 31
0.0
  0
SPLINE
  5
14F
330
2
100
AcDbEntity
  8
GAIKEI
  6
Continuous
 62
     1
100
AcDbSpline
210
0.0
220
0.0
230
1.0
 70
     8
 71
     3
 72
     9
 73
     5
 74
     3
 42
0.0000000001
 43
0.0000000001
 44
0.000001
 12
0.0924292431579834
 22
0.9957192551162414
 32
0.0
 13
-0.0933330765008945
 23
0.9956349415477935
 33
0.0
 40
0.0
 40
0.0
 40
0.0
 40
0.0
 40
0.1806358391393296
 40
0.3607768975203455
 40
0.3607768975203455
 40
0.3607768975203455
 40
0.3607768975203455
 10
103.3988351514874
 20
192.7643267366953
 30
0.0
 10
103.4044004961203
 20
192.8242809310937
 30
0.0
 10
103.4079776858211
 20
192.9446489759654
 30
0.0
 10
103.4043174542285
 20
193.0650154802832
 30
0.0
 10
103.3987130811676
 20
193.1248003909937
 30
0.0
 11
103.3988351514874
 21
192.7643267366953
 31
0.0
 11
103.4061672701525
 21
192.9448136649489
 31
0.0
 11
103.3987130811676
 21
193.1248003909937
 31
0.0
  0
SPLINE
  5
150
330
2
100
AcDbEntity
  8
GAIKEI
  6
Continuous
 62
     1
100
AcDbSpline
210
0.0
220
0.0
230
1.0
 70
     8
 71
     3
 72
     9
 73
     5
 74
     3
 42
0.0000000001
 43
0.0000000001
 44
0.000001
 12
-0.0000099100994793
 22
0.9999999999508949
 32
0.0
 13
0.6038096629412589
 23
0.7971285284938455
 33
0.0
 40
0.0
 40
0.0
 40
0.0
 40
0.0
 40
0.0497997533669281
 40
0.0930673019124396
 40
0.0930673019124396
 40
0.0930673019124396
 40
0.0930673019124396
 10
103.3273019440987
 20
207.2793422502952
 30
0.0
 10
103.3273017795918
 20
207.2959421680833
 30
0.0
 10
103.3335918607422
 20
207.3263821733283
 30
0.0
 10
103.3429465182595
 20
207.3569569846303
 30
0.0
 10
103.351654972894
 20
207.3684535837315
 30
0.0
 11
103.3273019440987
 21
207.2793422502952
 31
0.0
 11
103.3349116884324
 21
207.3285568063165
 31
0.0
 11
103.351654972894
 21
207.3684535837315
 31
0.0
  0
SPLINE
  5
151
330
2
100
AcDbEntity
  8
GAIKEI
  6
Continuous
 62
     1
100
AcDbSpline
210
0.0
220
0.0
230
1.0
 70
     8
 71
     3
 72
     9
 73
     5
 74
     3
 42
0.0000000001
 43
0.0000000001
 44
0.000001
 12
-0.8178480872751793
 22
0.5754341892348168
 32
0.0
 13
-0.9966355735469212
 23
0.0819605608863135
 33
0.0
 40
0.0
 40
0.0
 40
0.0
 40
0.0
 40
0.002879662201498
 40
0.0054790397610524
 40
0.0054790397610524
 40
0.0054790397610524
 40
0.0054790397610524
 10
103.3797311464424
 20
206.7251429985123
 30
0.0
 10
103.3789461043679
 20
206.7256953505403
 30
0.0
 10
103.3773344927142
 20
206.7265990272193
 30
0.0
 10
103.37552877222
 20
206.7270251081478
 30
0.0
 10
103.3746652281717
 20
206.7270961236287
 30
0.0
 11
103.3797311464424
 21
206.7251429985123
 31
0.0
 11
103.3771992876648
 21
206.7265138430034
 31
0.0
 11
103.3746652281717
 21
206.7270961236287
 31
0.0
  0
SPLINE
  5
152
330
2
100
AcDbEntity
  8
GAIKEI
  6
Continuous
 62
     1
100
AcDbSpline
210
0.0
220
0.0
230
1.0
 70
     8
 71
     3
 72
     9
 73
     5
 74
     3
 42
0.0000000001
 43
0.0000000001
 44
0.000001
 12
0.9841315496067643
 22
0.1774403930016749
 32
0.0
 13
0.9496494122794063
 23
0.3133145284811707
 33
0.0
 40
0.0
 40
0.0
 40
0.0
 40
0.0
 40
0.0011814182485864
 40
0.0023849585304184
 40
0.0023849585304184
 40
0.0023849585304184
 40
0.0023849585304184
 10
103.3746652281717
 20
205.9816737159169
 30
0.0
 10
103.3750527851623
 20
205.981743593023
 30
0.0
 10
103.3758336779305
 20
205.9818932903645
 30
0.0
 10
103.376603583807
 20
205.982097336804
 30
0.0
 10
103.3769845642475
 20
205.9822230323559
 30
0.0
 11
103.3746652281717
 21
205.9816737159169
 31
0.0
 11
103.3758232758247
 21
205.9819043517526
 31
0.0
 11
103.3769845642475
 21
205.9822230323559
 31
0.0
  0
SPLINE
  5
153
330
2
100
AcDbEntity
  8
GAIKEI
  6
Continuous
 62
     1
100
AcDbSpline
210
0.0
220
0.0
230
1.0
 70
     8
 71
     3
 72
     9
 73
     5
 74
     3
 42
0.0000000001
 43
0.0000000001
 44
0.000001
 12
-0.8178480872751793
 22
0.5754341892348168
 32
0.0
 13
-0.9966781476583459
 23
0.081441205665979
 33
0.0
 40
0.0
 40
0.0
 40
0.0
 40
0.0
 40
0.0028650108098406
 40
0.0054580042543143
 40
0.0054580042543143
 40
0.0054580042543143
 40
0.0054580042543143
 10
103.3797311464424
 20
193.3151690546843
 30
0.0
 10
103.3789500985721
 20
193.3157185964084
 30
0.0
 10
103.3773299082684
 20
193.3166003054317
 30
0.0
 10
103.3755266881394
 20
193.3169907524701
 30
0.0
 10
103.3746652281717
 20
193.3170611446409
 30
0.0
 11
103.3797311464424
 21
193.3151690546843
 31
0.0
 11
103.3771992876648
 21
193.3165097151326
 31
0.0
 11
103.3746652281717
 21
193.3170611446409
 31
0.0
  0
SPLINE
  5
154
330
2
100
AcDbEntity
  8
GAIKEI
  6
Continuous
 62
     1
100
AcDbSpline
210
0.0
220
0.0
230
1.0
 70
     8
 71
     3
 72
     9
 73
     5
 74
     3
 42
0.0000000001
 43
0.0000000001
 44
0.000001
 12
0.9839337708855248
 22
0.1785338469618341
 32
0.0
 13
0.949971462887902
 23
0.3123367088553943
 33
0.0
 40
0.0
 40
0.0
 40
0.0
 40
0.0
 40
0.001176065526781
 40
0.0023716260303418
 40
0.0023716260303418
 40
0.0023716260303418
 40
0.0023716260303418
 10
103.3746652281717
 20
192.5716997720889
 30
0.0
 10
103.3750509517012
 20
192.5717697612565
 30
0.0
 10
103.3758320967669
 20
192.5718884348933
 30
0.0
 10
103.3766059814606
 20
192.5720635808903
 30
0.0
 10
103.3769845642475
 20
192.572188053368
 30
0.0
 11
103.3746652281717
 21
192.5716997720889
 31
0.0
 11
103.3758232758247
 21
192.5719005573972
 31
0.0
 11
103.3769845642475
 21
192.572188053368
 31
0.0
  0
SPLINE
  5
155
330
2
100
AcDbEntity
  8
GAIKEI
  6
Continuous
 62
     1
100
AcDbSpline
210
0.0
220
0.0
230
1.0
 70
     8
 71
     3
 72
     9
 73
     5
 74
     3
 42
0.0000000001
 43
0.0000000001
 44
0.000001
 12
-0.9318207203994109
 22
0.3629189234998955
 32
0.0
 13
0.0000044054683735
 23
0.9999999999902961
 33
0.0
 40
0.0
 40
0.0
 40
0.0
 40
0.0
 40
0.051283385893753
 40
0.1432513595647349
 40
0.1432513595647349
 40
0.1432513595647349
 40
0.1432513595647349
 10
103.3552560473273
 20
189.267622426713
 30
0.0
 10
103.3393270734646
 20
189.273826330447
 30
0.0
 10
103.3355294709429
 20
189.3352622934094
 30
0.0
 10
103.3273018090447
 20
189.3760655648743
 30
0.0
 10
103.3273019440987
 20
189.4067215560977
 30
0.0
 11
103.3552560473273
 21
189.267622426713
 31
0.0
 11
103.3360408817322
 21
189.3151704423551
 31
0.0
 11
103.3273019440987
 21
189.4067215560977
 31
0.0
  0
SPLINE
  5
156
330
2
100
AcDbEntity
  8
GAIKEI
  6
Continuous
 62
     1
100
AcDbSpline
210
0.0
220
0.0
230
1.0
 70
     8
 71
     3
 72
     9
 73
     5
 74
     3
 42
0.0000000001
 43
0.0000000001
 44
0.000001
 12
-0.9087758162825881
 22
-0.4172846938720804
 32
0.0
 13
-0.9320637417466125
 23
0.3622943296841729
 33
0.0
 40
0.0
 40
0.0
 40
0.0
 40
0.0
 40
0.1726111474600184
 40
0.3345727660555124
 40
0.3345727660555124
 40
0.3345727660555124
 40
0.3345727660555124
 10
103.6781930782946
 20
189.3187088555393
 30
0.0
 10
103.6259047994837
 20
189.294699525597
 30
0.0
 10
103.5250552767081
 20
189.2446152423106
 30
0.0
 10
103.4055755647431
 20
189.2480631680318
 30
0.0
 10
103.3552560473273
 20
189.267622426713
 30
0.0
 11
103.6781930782946
 21
189.3187088555393
 31
0.0
 11
103.5168873431056
 21
189.2572691905681
 31
0.0
 11
103.3552560473273
 21
189.267622426713
 31
0.0
  0
SPLINE
  5
157
330
2
100
AcDbEntity
  8
GAIKEI
  6
Continuous
 62
     1
100
AcDbSpline
210
0.0
220
0.0
230
1.0
 70
     8
 71
     3
 72
    11
 73
     7
 74
     5
 42
0.0000000001
 43
0.0000000001
 44
0.000001
 12
0.6038798991310501
 22
0.7970753210490668
 32
0.0
 13
0.0000274432937339
 23
0.9999999996234329
 33
0.0
 40
0.0
 40
0.0
 40
0.0
 40
0.0
 40
0.0851848422785983
 40
0.2307716396274694
 40
0.5599477241683989
 40
0.947590280805263
 40
0.947590280805263
 40
0.947590280805263
 40
0.947590280805263
 10
103.445343943322
 20
207.4921108176646
 30
0.0
 10
103.4624910813095
 20
207.5147437295006
 30
0.0
 10
103.4848878729704
 20
207.5909492126776
 30
0.0
 10
103.5188223800803
 20
207.7729029218143
 30
0.0
 10
103.5397634644769
 20
208.0612903837286
 30
0.0
 10
103.5458653055946
 20
208.2997863364481
 30
0.0
 10
103.5458688516575
 20
208.4290005219451
 30
0.0
 11
103.445343943322
 21
207.4921108176646
 31
0.0
 11
103.477878814649
 21
207.5708380136713
 31
0.0
 11
103.5060739274105
 21
207.713668448058
 31
0.0
 11
103.5359590625449
 21
208.0414850867163
 31
0.0
 11
103.5458688516575
 21
208.4290005219451
 31
0.0
  0
SPLINE
  5
158
330
2
100
AcDbEntity
  8
GAIKEI
  6
Continuous
 62
     1
100
AcDbSpline
210
0.0
220
0.0
230
1.0
 70
     8
 71
     3
 72
     9
 73
     5
 74
     3
 42
0.0000000001
 43
0.0000000001
 44
0.000001
 12
0.5393179490749111
 22
-0.8421022205205446
 32
0.0
 13
0.0255566981077921
 23
-0.9996733742487229
 33
0.0
 40
0.0
 40
0.0
 40
0.0
 40
0.0
 40
0.1433454388234899
 40
0.2847972682298721
 40
0.2847972682298721
 40
0.2847972682298721
 40
0.2847972682298721
 10
103.3600606401917
 20
207.7611236676229
 30
0.0
 10
103.3858302295502
 20
207.7208864968447
 30
0.0
 10
103.4271366864739
 20
207.6341341842645
 30
0.0
 10
103.4441389294217
 20
207.5392460268635
 30
0.0
 10
103.445343943322
 20
207.4921108176646
 30
0.0
 11
103.3600606401917
 21
207.7611236676229
 31
0.0
 11
103.4212540508076
 21
207.6314972589365
 31
0.0
 11
103.445343943322
 21
207.4921108176646
 31
0.0
  0
SPLINE
  5
159
330
2
100
AcDbEntity
  8
GAIKEI
  6
Continuous
 62
     1
100
AcDbSpline
210
0.0
220
0.0
230
1.0
 70
     8
 71
     3
 72
     9
 73
     5
 74
     3
 42
0.0000000001
 43
0.0000000001
 44
0.000001
 12
0.0026893436512621
 22
0.9999963837088239
 32
0.0
 13
-0.4703074679310343
 23
0.8825026264030601
 33
0.0
 40
0.0
 40
0.0
 40
0.0
 40
0.0
 40
0.1085986655622811
 40
0.2479505753779043
 40
0.2479505753779043
 40
0.2479505753779043
 40
0.2479505753779043
 10
103.351654972894
 20
207.3684535837315
 30
0.0
 10
103.3517523259379
 20
207.4046530080109
 30
0.0
 10
103.3431129906029
 20
207.4874773277623
 30
0.0
 10
103.3146392978025
 20
207.5664476483303
 30
0.0
 10
103.2927932165169
 20
207.6074404571325
 30
0.0
 11
103.351654972894
 21
207.3684535837315
 31
0.0
 11
103.340380185031
 21
207.4764644692327
 31
0.0
 11
103.2927932165169
 21
207.6074404571325
 31
0.0
  0
SPLINE
  5
15A
330
2
100
AcDbEntity
  8
GAIKEI
  6
Continuous
 62
     1
100
AcDbSpline
210
0.0
220
0.0
230
1.0
 70
     8
 71
     3
 72
     9
 73
     5
 74
     3
 42
0.0000000001
 43
0.0000000001
 44
0.000001
 12
0.0746315686445355
 22
0.9972111757103688
 32
0.0
 13
-0.0741686800374705
 23
0.9972457103951359
 33
0.0
 40
0.0
 40
0.0
 40
0.0
 40
0.0
 40
0.1521671957966605
 40
0.3267803505475093
 40
0.3267803505475093
 40
0.3267803505475093
 40
0.3267803505475093
 10
103.3930978464579
 20
206.1912684549722
 30
0.0
 10
103.3968833386307
 20
206.2418493977138
 30
0.0
 10
103.3999820954465
 20
206.3508112845152
 30
0.0
 10
103.3974758240195
 20
206.4598235223482
 30
0.0
 10
103.3931588816178
 20
206.5178675955328
 30
0.0
 11
103.3930978464579
 21
206.1912684549722
 31
0.0
 11
103.398552878774
 21
206.3433378054276
 31
0.0
 11
103.3931588816178
 21
206.5178675955328
 31
0.0
  0
SPLINE
  5
15B
330
2
100
AcDbEntity
  8
GAIKEI
  6
Continuous
 62
     1
100
AcDbSpline
210
0.0
220
0.0
230
1.0
 70
     8
 71
     3
 72
     9
 73
     5
 74
     3
 42
0.0000000001
 43
0.0000000001
 44
0.000001
 12
0.0746285580971607
 22
0.9972114010160225
 32
0.0
 13
-0.0741686835241313
 23
0.9972457101358205
 33
0.0
 40
0.0
 40
0.0
 40
0.0
 40
0.0
 40
0.1521680963250943
 40
0.326780339207279
 40
0.326780339207279
 40
0.326780339207279
 40
0.326780339207279
 10
103.3930978464579
 20
192.7812945111442
 30
0.0
 10
103.3968832083303
 20
192.8318757646529
 30
0.0
 10
103.3999818376312
 20
192.9408376390217
 30
0.0
 10
103.3974758016783
 20
193.0498498816543
 30
0.0
 10
103.3931588816178
 20
193.1078936517048
 30
0.0
 11
103.3930978464579
 21
192.7812945111442
 31
0.0
 11
103.398552711136
 21
192.9333647687078
 31
0.0
 11
103.3931588816178
 21
193.1078936517048
 31
0.0
  0
SPLINE
  5
15C
330
2
100
AcDbEntity
  8
GAIKEI
  6
Continuous
 62
     1
100
AcDbSpline
210
0.0
220
0.0
230
1.0
 70
     8
 71
     3
 72
     9
 73
     5
 74
     3
 42
0.0000000001
 43
0.0000000001
 44
0.000001
 12
0.1569133273070882
 22
-0.9876123772581117
 32
0.0
 13
-0.0000142460188216
 23
-0.9999999998985256
 33
0.0
 40
0.0
 40
0.0
 40
0.0
 40
0.0
 40
0.0141992118986457
 40
0.0282496522181708
 40
0.0282496522181708
 40
0.0282496522181708
 40
0.0282496522181708
 10
103.3518380783736
 20
207.4893642354697
 30
0.0
 10
103.3525807602349
 20
207.4846897963302
 30
0.0
 10
103.3537099473605
 20
207.4753307002783
 30
0.0
 10
103.3540964460104
 20
207.4659105068674
 30
0.0
 10
103.3540963792895
 20
207.4612270267614
 30
0.0
 11
103.3518380783736
 21
207.4893642354697
 31
0.0
 11
103.3535291685568
 21
207.4752663968982
 31
0.0
 11
103.3540963792895
 21
207.4612270267614
 31
0.0
  0
SPLINE
  5
15D
330
2
100
AcDbEntity
  8
GAIKEI
  6
Continuous
 62
     1
100
AcDbSpline
210
0.0
220
0.0
230
1.0
 70
     8
 71
     3
 72
     9
 73
     5
 74
     3
 42
0.0000000001
 43
0.0000000001
 44
0.000001
 12
-0.0000780189020072
 22
0.9999999969565253
 32
0.0
 13
-0.1478803268001294
 23
0.9890052623446889
 33
0.0
 40
0.0
 40
0.0
 40
0.0
 40
0.0
 40
0.038916100163246
 40
0.0793118631585372
 40
0.0793118631585372
 40
0.0793118631585372
 40
0.0793118631585372
 10
103.3833932560357
 20
207.4103237034148
 30
0.0
 10
103.3833922439719
 20
207.4232957367631
 30
0.0
 10
103.3824358659599
 20
207.4497412817162
 30
0.0
 10
103.3795251268975
 20
207.4760470280768
 30
0.0
 10
103.3775338806865
 20
207.4893642354697
 30
0.0
 11
103.3833932560357
 21
207.4103237034148
 31
0.0
 11
103.3819840591994
 21
207.4492137750834
 31
0.0
 11
103.3775338806865
 21
207.4893642354697
 31
0.0
  0
SPLINE
  5
15E
330
2
100
AcDbEntity
  8
GAIKEI
  6
Continuous
 62
     1
100
AcDbSpline
210
0.0
220
0.0
230
1.0
 70
     8
 71
     3
 72
     9
 73
     5
 74
     3
 42
0.0000000001
 43
0.0000000001
 44
0.000001
 12
0.203894072625902
 22
-0.9789929556171605
 32
0.0
 13
-0.0000213165802684
 23
-0.9999999997728018
 33
0.0
 40
0.0
 40
0.0
 40
0.0
 40
0.0
 40
0.0550352452616806
 40
0.1094195798242987
 40
0.1094195798242987
 40
0.1094195798242987
 40
0.1094195798242987
 10
103.3497018477775
 20
207.4893642354697
 30
0.0
 10
103.3534423012089
 20
207.4714045296624
 30
0.0
 10
103.3590137544752
 20
207.4352847013075
 30
0.0
 10
103.3608716684663
 20
207.3987887272259
 30
0.0
 10
103.360871282037
 20
207.3806606157092
 30
0.0
 11
103.3497018477775
 21
207.4893642354697
 31
0.0
 11
103.3581065511638
 21
207.4349742059714
 31
0.0
 11
103.360871282037
 21
207.3806606157092
 31
0.0
  0
SPLINE
  5
15F
330
2
100
AcDbEntity
  8
GAIKEI
  6
Continuous
 62
     1
100
AcDbSpline
210
0.0
220
0.0
230
1.0
 70
     8
 71
     3
 72
     9
 73
     5
 74
     3
 42
0.0000000001
 43
0.0000000001
 44
0.000001
 12
-0.9907447224773273
 22
-0.1357383324021754
 32
0.0
 13
-0.3611331329489518
 23
0.9325142681409623
 33
0.0
 40
0.0
 40
0.0
 40
0.0
 40
0.0
 40
0.0027039998097286
 40
0.0055898692070055
 40
0.0055898692070055
 40
0.0055898692070055
 40
0.0055898692070055
 10
102.6828316908415
 20
187.9993728394007
 30
0.0
 10
102.6819386996611
 20
187.9992504939257
 30
0.0
 10
102.6807785740224
 20
188.0015999520164
 30
0.0
 10
102.6802493975191
 20
188.0031144734225
 30
0.0
 10
102.6799020031669
 20
188.0040115115522
 30
0.0
 11
102.6828316908415
 21
187.9993728394007
 31
0.0
 11
102.6809639514502
 21
188.0013291384646
 31
0.0
 11
102.6799020031669
 21
188.0040115115522
 31
0.0
  0
SPLINE
  5
160
330
2
100
AcDbEntity
  8
GAIKEI
  6
Continuous
 62
     1
100
AcDbSpline
210
0.0
220
0.0
230
1.0
 70
     8
 71
     3
 72
     9
 73
     5
 74
     3
 42
0.0000000001
 43
0.0000000001
 44
0.000001
 12
0.0000000448385034
 22
-0.9999999999999989
 32
0.0
 13
0.9081584222605471
 23
-0.4186266595395399
 33
0.0
 40
0.0
 40
0.0
 40
0.0
 40
0.0
 40
0.0139027966926382
 40
0.0278033723757897
 40
0.0278033723757897
 40
0.0278033723757897
 40
0.0278033723757897
 10
102.67819301869
 20
188.0131057503755
 30
0.0
 10
102.6781930188978
 20
188.0084714848113
 30
0.0
 10
102.6810789314547
 20
187.9991022519121
 30
0.0
 10
102.6883283063034
 20
187.992462458405
 30
0.0
 10
102.6925362812637
 20
187.990522741217
 30
0.0
 11
102.67819301869
 21
188.0131057503755
 31
0.0
 11
102.6821692281733
 21
187.9997837444167
 31
0.0
 11
102.6925362812637
 21
187.990522741217
 31
0.0
  0
SPLINE
  5
161
330
2
100
AcDbEntity
  8
GAIKEI
  6
Continuous
 62
     1
100
AcDbSpline
210
0.0
220
0.0
230
1.0
 70
     8
 71
     3
 72
     9
 73
     5
 74
     3
 42
0.0000000001
 43
0.0000000001
 44
0.000001
 12
0.872683160010713
 22
0.4882869056545713
 32
0.0
 13
0.9060488313008754
 23
0.4231731504931732
 33
0.0
 40
0.0
 40
0.0
 40
0.0
 40
0.0
 40
0.000864728972121
 40
0.0017201373300696
 40
0.0017201373300696
 40
0.0017201373300696
 40
0.0017201373300696
 10
102.6910104022665
 20
187.4675124561369
 30
0.0
 10
102.6912619470705
 20
187.4676532014149
 30
0.0
 10
102.6917649809525
 20
187.4679284987172
 30
0.0
 10
102.692277934016
 20
187.4681852512655
 30
0.0
 10
102.6925362812637
 20
187.4683059132154
 30
0.0
 11
102.6910104022665
 21
187.4675124561369
 31
0.0
 11
102.6917702700302
 21
187.4679249914913
 31
0.0
 11
102.6925362812637
 21
187.4683059132154
 31
0.0
  0
SPLINE
  5
162
330
2
100
AcDbEntity
  8
GAIKEI
  6
Continuous
100
AcDbSpline
210
0.0
220
0.0
230
1.0
 70
     8
 71
     3
 72
     9
 73
     5
 74
     3
 42
0.0000000001
 43
0.0000000001
 44
0.000001
 12
0.1851928867955859
 22
0.9827021902287167
 32
0.0
 13
0.0002185501612885
 23
0.9999999761179132
 33
0.0
 40
0.0
 40
0.0
 40
0.0
 40
0.0
 40
0.0245916893650736
 40
0.0487685661491347
 40
0.0487685661491347
 40
0.0487685661491347
 40
0.0487685661491347
 10
103.6738595819426
 20
188.750593587302
 30
0.0
 10
103.6753776505908
 20
188.7586490229688
 30
0.0
 10
103.677534260779
 20
188.774793561831
 30
0.0
 10
103.6781913170078
 20
188.7910575806774
 30
0.0
 10
103.6781930782946
 20
188.7991165394129
 30
0.0
 11
103.6738595819426
 21
188.750593587302
 31
0.0
 11
103.6771711443505
 21
188.7749622492789
 31
0.0
 11
103.6781930782946
 21
188.7991165394129
 31
0.0
  0
SPLINE
  5
163
330
2
100
AcDbEntity
  8
GAIKEI
  6
Continuous
100
AcDbSpline
210
0.0
220
0.0
230
1.0
 70
     8
 71
     3
 72
     9
 73
     5
 74
     3
 42
0.0000000001
 43
0.0000000001
 44
0.000001
 12
0.5142335519141901
 22
0.8576501933106039
 32
0.0
 13
0.176385730569994
 23
0.9843211234405618
 33
0.0
 40
0.0
 40
0.0
 40
0.0
 40
0.0
 40
0.0506159141891842
 40
0.0997607587009825
 40
0.0997607587009825
 40
0.0997607587009825
 40
0.0997607587009825
 10
103.6389474704867
 20
188.6575760036327
 30
0.0
 10
103.6476236042656
 20
188.6720462531623
 30
0.0
 10
103.6621150119879
 20
188.7022104486515
 30
0.0
 10
103.6709700988416
 20
188.7344688177816
 30
0.0
 10
103.6738595819426
 20
188.750593587302
 30
0.0
 11
103.6389474704867
 21
188.6575760036327
 31
0.0
 11
103.6608786897773
 21
188.7031939816463
 31
0.0
 11
103.6738595819426
 21
188.750593587302
 31
0.0
  0
SPLINE
  5
164
330
2
100
AcDbEntity
  8
GAIKEI
  6
Continuous
100
AcDbSpline
210
0.0
220
0.0
230
1.0
 70
     8
 71
     3
 72
     9
 73
     5
 74
     3
 42
0.0000000001
 43
0.0000000001
 44
0.000001
 12
0.9659554725890357
 22
0.2587083782471926
 32
0.0
 13
0.5147026122524477
 23
0.8573687776800055
 33
0.0
 40
0.0
 40
0.0
 40
0.0
 40
0.0
 40
0.0769747054409927
 40
0.2100305177808845
 40
0.2100305177808845
 40
0.2100305177808845
 40
0.2100305177808845
 10
103.4743356442688
 20
188.5334915235804
 30
0.0
 10
103.499120356926
 20
188.5401295239839
 30
0.0
 10
103.5651151693454
 20
188.5661463811716
 30
0.0
 10
103.6161194124245
 20
188.6195500372363
 30
0.0
 10
103.6389474704867
 20
188.6575760036327
 30
0.0
 11
103.4743356442688
 21
188.5334915235804
 31
0.0
 11
103.5454804696317
 21
188.5628770864554
 31
0.0
 11
103.6389474704867
 21
188.6575760036327
 31
0.0
  0
SPLINE
  5
165
330
2
100
AcDbEntity
  8
GAIKEI
  6
Continuous
100
AcDbSpline
210
0.0
220
0.0
230
1.0
 70
     8
 71
     3
 72
     9
 73
     5
 74
     3
 42
0.0000000001
 43
0.0000000001
 44
0.000001
 12
0.5699514274070384
 22
0.821678386229478
 32
0.0
 13
0.9063077132477696
 23
0.4226184199814281
 33
0.0
 40
0.0
 40
0.0
 40
0.0
 40
0.0
 40
0.0202085111664601
 40
0.0396555940045519
 40
0.0396555940045519
 40
0.0396555940045519
 40
0.0396555940045519
 10
103.416474312695
 20
189.008833348788
 30
0.0
 10
103.4203136026233
 20
189.0143683144024
 30
0.0
 10
103.4294032546952
 20
189.0242007695043
 30
0.0
 10
103.4406285976344
 20
189.0314844101606
 30
0.0
 10
103.4465036113599
 20
189.0342239753014
 30
0.0
 11
103.416474312695
 21
189.008833348788
 31
0.0
 11
103.4301329898056
 21
189.0237268404968
 31
0.0
 11
103.4465036113599
 21
189.0342239753014
 31
0.0
  0
SPLINE
  5
166
330
2
100
AcDbEntity
  8
GAIKEI
  6
Continuous
100
AcDbSpline
210
0.0
220
0.0
230
1.0
 70
     8
 71
     3
 72
     9
 73
     5
 74
     3
 42
0.0000000001
 43
0.0000000001
 44
0.000001
 12
0.0000000268429086
 22
0.9999999999999998
 32
0.0
 13
0.509254609349274
 23
0.8606159090189528
 33
0.0
 40
0.0
 40
0.0
 40
0.0
 40
0.0
 40
0.0196586702455671
 40
0.0401001248289314
 40
0.0401001248289314
 40
0.0401001248289314
 40
0.0401001248289314
 10
103.4031686478394
 20
188.9662308071862
 30
0.0
 10
103.4031686480153
 20
188.972783697268
 30
0.0
 10
103.4050720913794
 20
188.9861844612557
 30
0.0
 10
103.4102577621772
 20
188.9986968072565
 30
0.0
 10
103.4137277305
 20
189.0045608875958
 30
0.0
 11
103.4031686478394
 21
188.9662308071862
 31
0.0
 11
103.4058247521683
 21
188.9857091704008
 31
0.0
 11
103.4137277305
 21
189.0045608875958
 31
0.0
  0
SPLINE
  5
167
330
2
100
AcDbEntity
  8
GAIKEI
  6
Continuous
100
AcDbSpline
210
0.0
220
0.0
230
1.0
 70
     8
 71
     3
 72
     9
 73
     5
 74
     3
 42
0.0000000001
 43
0.0000000001
 44
0.000001
 12
0.6698986207304117
 22
-0.7424525829596745
 32
0.0
 13
0.978147580946624
 23
-0.2079117839091086
 33
0.0
 40
0.0
 40
0.0
 40
0.0
 40
0.0
 40
0.0695597461715226
 40
0.1390132460895231
 40
0.1390132460895231
 40
0.1390132460895231
 40
0.1390132460895231
 10
101.4881930445565
 20
213.8041005286531
 30
0.0
 10
101.503725703896
 20
213.7868855909148
 30
0.0
 10
101.5398944679311
 20
213.7567415053421
 30
0.0
 10
101.5837703534127
 20
213.7390510549237
 30
0.0
 10
101.6064156110571
 20
213.7342376545682
 30
0.0
 11
101.4881930445565
 21
213.8041005286531
 31
0.0
 11
101.5418508450979
 21
213.7598365175589
 31
0.0
 11
101.6064156110571
 21
213.7342376545682
 31
0.0
  0
SPLINE
  5
168
330
2
100
AcDbEntity
  8
GAIKEI
  6
Continuous
100
AcDbSpline
210
0.0
220
0.0
230
1.0
 70
     8
 71
     3
 72
     9
 73
     5
 74
     3
 42
0.0000000001
 43
0.0000000001
 44
0.000001
 12
0.5770979100858434
 22
-0.816674967275569
 32
0.0
 13
0.1391936939879922
 23
-0.9902651743618864
 33
0.0
 40
0.0
 40
0.0
 40
0.0
 40
0.0
 40
0.0725628913700643
 40
0.1305860791436888
 40
0.1305860791436888
 40
0.1305860791436888
 40
0.1305860791436888
 10
103.2794503787465
 20
213.3040008125178
 30
0.0
 10
103.2934090097329
 20
213.2842473802061
 30
0.0
 10
103.3137970447119
 20
213.2451170587746
 30
0.0
 10
103.324609790151
 20
213.2026091524583
 30
0.0
 10
103.3273019440987
 20
213.1834563717391
 30
0.0
 11
103.2794503787465
 21
213.3040008125178
 31
0.0
 11
103.3131099608
 21
213.2397164896281
 31
0.0
 11
103.3273019440987
 21
213.1834563717391
 31
0.0
  0
SPLINE
  5
169
330
2
100
AcDbEntity
  8
GAIKEI
  6
Continuous
100
AcDbSpline
210
0.0
220
0.0
230
1.0
 70
     8
 71
     3
 72
     9
 73
     5
 74
     3
 42
0.0000000001
 43
0.0000000001
 44
0.000001
 12
0.7367973998811618
 22
-0.6761135936574263
 32
0.0
 13
0.5761966598679106
 23
-0.8173110846899504
 33
0.0
 40
0.0
 40
0.0
 40
0.0
 40
0.0
 40
0.0301178273881857
 40
0.0584659077415124
 40
0.0584659077415124
 40
0.0584659077415124
 40
0.0584659077415124
 10
103.2408761576973
 20
213.3478240573174
 30
0.0
 10
103.2482730700005
 20
213.3410363664812
 30
0.0
 10
103.2619305246677
 20
213.3270713480257
 30
0.0
 10
103.2740056890087
 20
213.3117238792853
 30
0.0
 10
103.2794503787465
 20
213.3040008125178
 30
0.0
 11
103.2408761576973
 21
213.3478240573174
 31
0.0
 11
103.261924764394
 21
213.3262824773382
 31
0.0
 11
103.2794503787465
 21
213.3040008125178
 31
0.0
  0
SPLINE
  5
16A
330
2
100
AcDbEntity
  8
GAIKEI
  6
Continuous
100
AcDbSpline
210
0.0
220
0.0
230
1.0
 70
     8
 71
     3
 72
     9
 73
     5
 74
     3
 42
0.0000000001
 43
0.0000000001
 44
0.000001
 12
0.9653983653387442
 22
-0.2607795931457843
 32
0.0
 13
0.7762688479035696
 23
-0.6304019953763352
 33
0.0
 40
0.0
 40
0.0
 40
0.0
 40
0.0
 40
0.0544112516253703
 40
0.1148354607442473
 40
0.1148354607442473
 40
0.1148354607442473
 40
0.1148354607442473
 10
103.1265573032271
 20
213.4107513071619
 30
0.0
 10
103.1440668143521
 20
213.4060215258081
 30
0.0
 10
103.1801148830226
 20
213.3923594048661
 30
0.0
 10
103.2126067358677
 20
213.3714465316032
 30
0.0
 10
103.2282418796005
 20
213.3587493509373
 30
0.0
 11
103.1265573032271
 21
213.4107513071619
 31
0.0
 11
103.1774291534568
 21
213.3914479282936
 31
0.0
 11
103.2282418796005
 21
213.3587493509373
 31
0.0
  0
SPLINE
  5
16B
330
2
100
AcDbEntity
  8
GAIKEI
  6
Continuous
100
AcDbSpline
210
0.0
220
0.0
230
1.0
 70
     8
 71
     3
 72
     9
 73
     5
 74
     3
 42
0.0000000001
 43
0.0000000001
 44
0.000001
 12
0.9780744726698767
 22
-0.2082554342905433
 32
0.0
 13
0.9656791930172921
 23
-0.2597377449918885
 33
0.0
 40
0.0
 40
0.0
 40
0.0
 40
0.0
 40
0.0073284994669988
 40
0.0148055604792204
 40
0.0148055604792204
 40
0.0148055604792204
 40
0.0148055604792204
 10
103.1121530054935
 20
213.4141692761156
 30
0.0
 10
103.114542278244
 20
213.4136605428359
 30
0.0
 10
103.1193609672828
 20
213.4125930389463
 30
0.0
 10
103.1241504891456
 20
213.4113986654841
 30
0.0
 10
103.1265573032271
 20
213.4107513071619
 30
0.0
 11
103.1121530054935
 21
213.4141692761156
 31
0.0
 11
103.119305257237
 21
213.4125731824935
 31
0.0
 11
103.1265573032271
 21
213.4107513071619
 31
0.0
  0
SPLINE
  5
16C
330
2
100
AcDbEntity
  8
GAIKEI
  6
Continuous
 62
     1
100
AcDbSpline
210
0.0
220
0.0
230
1.0
 70
     8
 71
     3
 72
     9
 73
     5
 74
     3
 42
0.0000000001
 43
0.0000000001
 44
0.000001
 12
-0.4031347934464675
 22
-0.9151406112247856
 32
0.0
 13
-0.9986239382571366
 23
-0.0524426347527165
 33
0.0
 40
0.0
 40
0.0
 40
0.0
 40
0.0
 40
0.158010363084639
 40
0.2974965161849998
 40
0.2974965161849998
 40
0.2974965161849998
 40
0.2974965161849998
 10
102.6544503414936
 20
185.7278883290097
 30
0.0
 10
102.633217183132
 20
185.6796877622587
 30
0.0
 10
102.5614759070698
 20
185.6024425944388
 30
0.0
 10
102.4640042898154
 20
185.5674238277286
 30
0.0
 10
102.4175728859683
 20
185.5649854872686
 30
0.0
 11
102.6544503414936
 21
185.7278883290097
 31
0.0
 11
102.549749432776
 21
185.6095456054762
 31
0.0
 11
102.4175728859683
 21
185.5649854872686
 31
0.0
  0
SPLINE
  5
16D
330
2
100
AcDbEntity
  8
GAIKEI
  6
Continuous
100
AcDbSpline
210
0.0
220
0.0
230
1.0
 70
     8
 71
     3
 72
     9
 73
     5
 74
     3
 42
0.0000000001
 43
0.0000000001
 44
0.000001
 12
-0.718003555664965
 22
0.6960394342653782
 32
0.0
 13
-0.9781988621469723
 23
0.2076703784711929
 33
0.0
 40
0.0
 40
0.0
 40
0.0
 40
0.0
 40
0.1541666528041907
 40
0.2933013943581419
 40
0.2933013943581419
 40
0.2933013943581419
 40
0.2933013943581419
 10
101.9487007877089
 20
213.5792693836126
 30
0.0
 10
101.9118033860828
 20
213.6150380735461
 30
0.0
 10
101.8307524819913
 20
213.6725140244958
 30
0.0
 10
101.7377202648038
 20
213.706356753616
 30
0.0
 10
101.6923531161794
 20
213.7159881417617
 30
0.0
 11
101.9487007877089
 21
213.5792693836126
 31
0.0
 11
101.8232877349465
 21
213.6689294802824
 31
0.0
 11
101.6923531161794
 21
213.7159881417617
 31
0.0
  0
SPLINE
  5
16E
330
2
100
AcDbEntity
  8
GAIKEI
  6
Continuous
100
AcDbSpline
210
0.0
220
0.0
230
1.0
 70
     8
 71
     3
 72
     9
 73
     5
 74
     3
 42
0.0000000001
 43
0.0000000001
 44
0.000001
 12
-0.0083024321297457
 22
0.9999655342164203
 32
0.0
 13
0.0082086445030465
 23
0.9999663085101532
 33
0.0
 40
0.0
 40
0.0
 40
0.0
 40
0.0
 40
0.0006085849801525
 40
0.0012207135976751
 40
0.0012207135976751
 40
0.0012207135976751
 40
0.0012207135976751
 10
103.6781930782946
 20
189.3174881523415
 30
0.0
 10
103.6781913940494
 20
189.3176910070097
 30
0.0
 10
103.6781897190213
 20
189.3180979133726
 30
0.0
 10
103.6781914033792
 20
189.3185048195413
 30
0.0
 10
103.6781930782946
 20
189.3187088555393
 30
0.0
 11
103.6781930782946
 21
189.3174881523415
 31
0.0
 11
103.6781905024587
 21
189.3180967322155
 31
0.0
 11
103.6781930782946
 21
189.3187088555393
 31
0.0
  0
SPLINE
  5
16F
330
2
100
AcDbEntity
  8
GAIKEI
  6
Continuous
100
AcDbSpline
210
0.0
220
0.0
230
1.0
 70
     8
 71
     3
 72
    11
 73
     7
 74
     5
 42
0.0000000001
 43
0.0000000001
 44
0.000001
 12
0.6795671808267717
 22
0.7336132814658919
 32
0.0
 13
0.9986295107058266
 23
0.0523364151183627
 33
0.0
 40
0.0
 40
0.0
 40
0.0
 40
0.0
 40
0.0012914770038503
 40
0.0025846277514715
 40
0.0904969255271655
 40
0.1722457679364995
 40
0.1722457679364995
 40
0.1722457679364995
 40
0.1722457679364995
 10
101.4881930445565
 20
185.4526877038356
 30
0.0
 10
101.4884855930187
 20
185.4530035187298
 30
0.0
 10
101.4890730342621
 20
185.4536337590537
 30
0.0
 10
101.5097758302097
 20
185.475571976762
 30
0.0
 10
101.5579617867521
 20
185.5089926342272
 30
0.0
 10
101.6141764888409
 20
185.522909923666
 30
0.0
 10
101.6413887576729
 20
185.5243360707833
 30
0.0
 11
101.4881930445565
 21
185.4526877038356
 31
0.0
 11
101.4890734563559
 21
185.4536324257253
 31
0.0
 11
101.4899605259908
 21
185.4545728830313
 31
0.0
 11
101.5619531930235
 21
185.5050296874381
 31
0.0
 11
101.6413887576729
 21
185.5243360707833
 31
0.0
  0
SPLINE
  5
170
330
2
100
AcDbEntity
  8
GAIKEI
  6
Continuous
100
AcDbSpline
210
0.0
220
0.0
230
1.0
 70
     8
 71
     3
 72
     9
 73
     5
 74
     3
 42
0.0000000001
 43
0.0000000001
 44
0.000001
 12
0.6846750867440869
 22
0.7288484242913455
 32
0.0
 13
0.9986280087922196
 23
0.0523650652218333
 33
0.0
 40
0.0
 40
0.0
 40
0.0
 40
0.0
 40
0.0886730334945874
 40
0.1722719318335434
 40
0.1722719318335434
 40
0.1722719318335434
 40
0.1722719318335434
 10
101.4881930445565
 20
185.4523457148625
 30
0.0
 10
101.5084304501897
 20
185.4738887817757
 30
0.0
 10
101.5565422414792
 20
185.5080387824866
 30
0.0
 10
101.6135606905444
 20
185.5228768501953
 30
0.0
 10
101.6413887576729
 20
185.5243360707833
 30
0.0
 11
101.4881930445565
 21
185.4523457148625
 31
0.0
 11
101.5603186349243
 21
185.5039271792503
 31
0.0
 11
101.6413887576729
 21
185.5243360707833
 31
0.0
  0
ELLIPSE
  5
171
330
2
100
AcDbEntity
  8
GAIKEI
  6
Continuous
 62
     1
100
AcDbEllipse
 10
103.4103097741124
 20
206.3544154517459
 30
0.0
 11
0.0
 21
-0.2050000104308135
 31
0.0
210
0.0
220
0.0
230
0.9999999999999998
 40
0.140541
 41
0.0
 42
6.283185307179584
  0
ELLIPSE
  5
172
330
2
100
AcDbEntity
  8
GAIKEI
  6
Continuous
 62
     1
100
AcDbEllipse
 10
103.4103097741124
 20
192.9443804517459
 30
0.0
 11
0.0
 21
-0.2050000104308135
 31
0.0
210
0.0
220
0.0
230
0.9999999999999998
 40
0.140541
 41
0.0
 42
6.283185307179584
  0
LINE
  5
173
330
2
100
AcDbEntity
  8
GAIKEI
  6
Continuous
 62
     1
100
AcDbLine
 10
103.5193795741124
 20
188.9571365517459
 30
0.0
 11
103.6781930741124
 21
188.9571365517459
 31
0.0
  0
LINE
  5
174
330
2
100
AcDbEntity
  8
GAIKEI
  6
Continuous
 62
     1
100
AcDbLine
 10
103.5194113241124
 20
188.9571317517459
 30
0.0
 11
103.4464727241124
 21
188.9541862017459
 31
0.0
  0
LINE
  5
175
330
2
100
AcDbEntity
  8
GAIKEI
  6
Continuous
 62
     1
100
AcDbLine
 10
103.5193795741124
 20
188.8359207517459
 30
0.0
 11
103.5193795741124
 21
188.9571365517459
 31
0.0
  0
LINE
  5
176
330
2
100
AcDbEntity
  8
GAIKEI
  6
Continuous
 62
     1
100
AcDbLine
 10
101.6064156241124
 20
186.5377638517459
 30
0.0
 11
101.4881930241124
 21
186.5377638517459
 31
0.0
  0
LINE
  5
177
330
2
100
AcDbEntity
  8
GAIKEI
  6
Continuous
 62
     1
100
AcDbLine
 10
103.5458688741124
 20
208.4290005017459
 30
0.0
 11
103.4519101241124
 21
208.4290005017459
 31
0.0
  0
LINE
  5
178
330
2
100
AcDbEntity
  8
GAIKEI
  6
Continuous
 62
     1
100
AcDbLine
 10
102.8390628241124
 20
207.9408556517459
 30
0.0
 11
102.3517406241124
 21
208.1945940517459
 31
0.0
  0
LINE
  5
179
330
2
100
AcDbEntity
  8
GAIKEI
  6
Continuous
 62
     1
100
AcDbLine
 10
102.1081856741124
 20
208.6263272017459
 30
0.0
 11
101.9281930741124
 21
208.6263272017459
 31
0.0
  0
LINE
  5
17A
330
2
100
AcDbEntity
  8
GAIKEI
  6
Continuous
 62
     1
100
AcDbLine
 10
102.8348765741124
 20
207.4236901017459
 30
0.0
 11
103.1121584241124
 21
207.2793153017459
 31
0.0
  0
LINE
  5
17B
330
2
100
AcDbEntity
  8
GAIKEI
  6
Continuous
 62
     1
100
AcDbLine
 10
103.1121213741124
 20
189.4067048517459
 30
0.0
 11
102.6953657741124
 21
189.2123685517459
 31
0.0
  0
LINE
  5
17C
330
2
100
AcDbEntity
  8
GAIKEI
  6
Continuous
 62
     1
100
AcDbLine
 10
103.3637399241124
 20
206.0294032017459
 30
0.0
 11
103.3637399241124
 21
206.6793666517459
 31
0.0
  0
LINE
  5
17D
330
2
100
AcDbEntity
  8
GAIKEI
  6
Continuous
 62
     1
100
AcDbLine
 10
103.1485909741124
 20
206.7294154517459
 30
0.0
 11
103.1485909741124
 21
205.9794154017459
 31
0.0
  0
LINE
  5
17E
330
2
100
AcDbEntity
  8
GAIKEI
  6
Continuous
 62
     1
100
AcDbLine
 10
103.1121530241124
 20
192.5693804517459
 30
0.0
 11
103.1121530241124
 21
189.4067215517459
 31
0.0
  0
LINE
  5
17F
330
2
100
AcDbEntity
  8
GAIKEI
  6
Continuous
 62
     1
100
AcDbLine
 10
103.1121530241124
 20
205.9794154017459
 30
0.0
 11
103.1121530241124
 21
193.3193805017459
 31
0.0
  0
LINE
  5
180
330
2
100
AcDbEntity
  8
GAIKEI
  6
Continuous
 62
     1
100
AcDbLine
 10
103.1121530241124
 20
207.2793422517459
 30
0.0
 11
103.1121530241124
 21
206.7294154517459
 31
0.0
  0
LINE
  5
181
330
2
100
AcDbEntity
  8
GAIKEI
  6
Continuous
 62
     1
100
AcDbLine
 10
103.4093331741124
 20
206.0294032017459
 30
0.0
 11
103.3637399241124
 21
206.0294032017459
 31
0.0
  0
LINE
  5
182
330
2
100
AcDbEntity
  8
GAIKEI
  6
Continuous
 62
     1
100
AcDbLine
 10
103.3637399241124
 20
206.6793666517459
 30
0.0
 11
103.4093331741124
 21
206.6793666517459
 31
0.0
  0
LINE
  5
183
330
2
100
AcDbEntity
  8
GAIKEI
  6
Continuous
 62
     1
100
AcDbLine
 10
103.3637399241124
 20
193.2693927017459
 30
0.0
 11
103.4093331741124
 21
193.2693927017459
 31
0.0
  0
LINE
  5
184
330
2
100
AcDbEntity
  8
GAIKEI
  6
Continuous
 62
     1
100
AcDbLine
 10
103.3637399241124
 20
192.6193682517459
 30
0.0
 11
103.3637399241124
 21
193.2693927017459
 31
0.0
  0
LINE
  5
185
330
2
100
AcDbEntity
  8
GAIKEI
  6
Continuous
 62
     1
100
AcDbLine
 10
103.1485909741124
 20
193.3193805017459
 30
0.0
 11
103.1485909741124
 21
192.5693804517459
 31
0.0
  0
LINE
  5
186
330
2
100
AcDbEntity
  8
GAIKEI
  6
Continuous
 62
     1
100
AcDbLine
 10
103.4093331741124
 20
192.6193682517459
 30
0.0
 11
103.3637399241124
 21
192.6193682517459
 31
0.0
  0
LINE
  5
187
330
2
100
AcDbEntity
  8
GAIKEI
  6
Continuous
 62
     1
100
AcDbLine
 10
102.8564156741124
 20
187.7004226017459
 30
0.0
 11
102.8564156741124
 21
186.1080153017459
 31
0.0
  0
LINE
  5
188
330
2
100
AcDbEntity
  8
GAIKEI
  6
Continuous
 62
     1
100
AcDbLine
 10
102.8564156741124
 20
188.5443558017459
 30
0.0
 11
102.8564156741124
 21
187.7570632517459
 31
0.0
  0
LINE
  5
189
330
2
100
AcDbEntity
  8
GAIKEI
  6
Continuous
 62
     1
100
AcDbLine
 10
102.8564230241124
 20
186.1079871517459
 30
0.0
 11
102.9873468741124
 21
186.1148486017459
 31
0.0
  0
LINE
  5
18A
330
2
100
AcDbEntity
  8
GAIKEI
  6
Continuous
 62
     1
100
AcDbLine
 10
102.4603808241124
 20
186.5824781017459
 30
0.0
 11
101.6063891741124
 21
186.5377223017459
 31
0.0
  0
LINE
  5
18B
330
2
100
AcDbEntity
  8
GAIKEI
  6
Continuous
 62
     1
100
AcDbLine
 10
102.4603585241124
 20
188.5326370517459
 30
0.0
 11
102.4603585241124
 21
186.5825026517459
 31
0.0
  0
LINE
  5
18C
330
2
100
AcDbEntity
  8
GAIKEI
  6
Continuous
 62
     1
100
AcDbLine
 10
102.4603585241124
 20
188.5326370517459
 30
0.0
 11
102.6781930241124
 21
188.5326370517459
 31
0.0
  0
LINE
  5
18D
330
2
100
AcDbEntity
  8
GAIKEI
  6
Continuous
 62
     1
100
AcDbLine
 10
102.9873361241124
 20
186.1148512517459
 30
0.0
 11
102.9873361241124
 21
188.6505569517459
 31
0.0
  0
LINE
  5
18E
330
2
100
AcDbEntity
  8
GAIKEI
  6
Continuous
100
AcDbLine
 10
103.1351022241124
 20
209.8503380517459
 30
0.0
 11
103.1351022241124
 21
210.9584634517459
 31
0.0
  0
LINE
  5
18F
330
2
100
AcDbEntity
  8
GAIKEI
  6
Continuous
 62
     1
100
AcDbLine
 10
102.9299395741124
 20
212.4502892517459
 30
0.0
 11
102.4843834241124
 21
212.5449951017459
 31
0.0
  0
LINE
  5
190
330
2
100
AcDbEntity
  8
GAIKEI
  6
Continuous
 62
     1
100
AcDbLine
 10
102.4844279741124
 20
208.7678036017459
 30
0.0
 11
102.9526962741124
 21
208.5239862017459
 31
0.0
  0
LINE
  5
191
330
2
100
AcDbEntity
  8
GAIKEI
  6
Continuous
 62
     1
100
AcDbLine
 10
102.3517709741124
 20
208.3669894017459
 30
0.0
 11
102.8923934741124
 21
208.0854987017459
 31
0.0
  0
LINE
  5
192
330
2
100
AcDbEntity
  8
GAIKEI
  6
Continuous
 62
     1
100
AcDbLine
 10
102.3517769741124
 20
208.1945644517459
 30
0.0
 11
102.3517769741124
 21
208.3669888017459
 31
0.0
  0
LINE
  5
193
330
2
100
AcDbEntity
  8
GAIKEI
  6
Continuous
 62
     1
100
AcDbLine
 10
102.4844063741124
 20
208.7678067017459
 30
0.0
 11
102.1081856741124
 21
208.7678067017459
 31
0.0
  0
LINE
  5
194
330
2
100
AcDbEntity
  8
GAIKEI
  6
Continuous
 62
     1
100
AcDbLine
 10
102.4844063741124
 20
212.5450286017459
 30
0.0
 11
102.4844063741124
 21
208.7678067017459
 31
0.0
  0
LINE
  5
195
330
2
100
AcDbEntity
  8
GAIKEI
  6
Continuous
 62
     1
100
AcDbLine
 10
103.4465036241124
 20
188.9542069017459
 30
0.0
 11
103.4465036241124
 21
188.6810135017459
 31
0.0
  0
LINE
  5
196
330
2
100
AcDbEntity
  8
GAIKEI
  6
Continuous
 62
     1
100
AcDbLine
 10
103.3273019241124
 20
206.7270961017459
 30
0.0
 11
103.3273019241124
 21
207.2793422517459
 31
0.0
  0
LINE
  5
197
330
2
100
AcDbEntity
  8
GAIKEI
  6
Continuous
 62
     1
100
AcDbLine
 10
103.3746652241124
 20
206.7270961017459
 30
0.0
 11
103.3273019241124
 21
206.7270961017459
 31
0.0
  0
LINE
  5
198
330
2
100
AcDbEntity
  8
GAIKEI
  6
Continuous
 62
     1
100
AcDbLine
 10
103.3273019241124
 20
205.9816737017459
 30
0.0
 11
103.3746652241124
 21
205.9816737017459
 31
0.0
  0
LINE
  5
199
330
2
100
AcDbEntity
  8
GAIKEI
  6
Continuous
 62
     1
100
AcDbLine
 10
103.3273019241124
 20
193.3170611517459
 30
0.0
 11
103.3273019241124
 21
205.9816737017459
 31
0.0
  0
LINE
  5
19A
330
2
100
AcDbEntity
  8
GAIKEI
  6
Continuous
 62
     1
100
AcDbLine
 10
103.3746652241124
 20
193.3170611517459
 30
0.0
 11
103.3273019241124
 21
193.3170611517459
 31
0.0
  0
LINE
  5
19B
330
2
100
AcDbEntity
  8
GAIKEI
  6
Continuous
 62
     1
100
AcDbLine
 10
103.3273019241124
 20
192.5716997517459
 30
0.0
 11
103.3746652241124
 21
192.5716997517459
 31
0.0
  0
LINE
  5
19C
330
2
100
AcDbEntity
  8
GAIKEI
  6
Continuous
 62
     1
100
AcDbLine
 10
103.3273019241124
 20
189.4067215517459
 30
0.0
 11
103.3273019241124
 21
192.5716997517459
 31
0.0
  0
LINE
  5
19D
330
2
100
AcDbEntity
  8
GAIKEI
  6
Continuous
 62
     1
100
AcDbLine
 10
103.3833586241124
 20
207.4103494517459
 30
0.0
 11
103.4453131241124
 21
207.4921130517459
 31
0.0
  0
LINE
  5
19E
330
2
100
AcDbEntity
  8
GAIKEI
  6
Continuous
 62
     1
100
AcDbLine
 10
103.3516325741124
 20
207.3684795017459
 30
0.0
 11
103.3608732241123
 21
207.3806747017459
 31
0.0
  0
LINE
  5
19F
330
2
100
AcDbEntity
  8
GAIKEI
  6
Continuous
 62
     1
100
AcDbLine
 10
103.3816232241124
 20
193.4543902517459
 30
0.0
 11
103.3816232241124
 21
193.6044147017459
 31
0.0
  0
LINE
  5
1A0
330
2
100
AcDbEntity
  8
GAIKEI
  6
Continuous
 62
     1
100
AcDbLine
 10
103.3626413241124
 20
193.6044147017459
 30
0.0
 11
103.3816232241124
 21
193.6044147017459
 31
0.0
  0
LINE
  5
1A1
330
2
100
AcDbEntity
  8
GAIKEI
  6
Continuous
 62
     1
100
AcDbLine
 10
103.3816004741124
 20
193.6044131517459
 30
0.0
 11
103.3833565741124
 21
193.7043733017459
 31
0.0
  0
LINE
  5
1A2
330
2
100
AcDbEntity
  8
GAIKEI
  6
Continuous
 62
     1
100
AcDbLine
 10
103.3608712741124
 20
193.7043902517459
 30
0.0
 11
103.3833932741124
 21
193.7043902517459
 31
0.0
  0
LINE
  5
1A3
330
2
100
AcDbEntity
  8
GAIKEI
  6
Continuous
 62
     1
100
AcDbLine
 10
103.3833932741124
 20
193.7043902517459
 30
0.0
 11
103.3833932741124
 21
194.0543658517459
 31
0.0
  0
LINE
  5
1A4
330
2
100
AcDbEntity
  8
GAIKEI
  6
Continuous
 62
     1
100
AcDbLine
 10
103.3608712741124
 20
194.0543658517459
 30
0.0
 11
103.3608712741124
 21
193.7043902517459
 31
0.0
  0
LINE
  5
1A5
330
2
100
AcDbEntity
  8
GAIKEI
  6
Continuous
 62
     1
100
AcDbLine
 10
103.3608655741124
 20
193.7043657017459
 30
0.0
 11
103.3626216741124
 21
193.6044055017459
 31
0.0
  0
LINE
  5
1A6
330
2
100
AcDbEntity
  8
GAIKEI
  6
Continuous
 62
     1
100
AcDbLine
 10
103.3626413241124
 20
193.6044147017459
 30
0.0
 11
103.3626413241124
 21
193.4543902517459
 31
0.0
  0
LINE
  5
1A7
330
2
100
AcDbEntity
  8
GAIKEI
  6
Continuous
 62
     1
100
AcDbLine
 10
103.3816232241124
 20
206.8893886017459
 30
0.0
 11
103.3816232241124
 21
207.0394130517459
 31
0.0
  0
LINE
  5
1A8
330
2
100
AcDbEntity
  8
GAIKEI
  6
Continuous
100
AcDbLine
 10
103.3626413241124
 20
207.0394130517459
 30
0.0
 11
103.3816232241124
 21
207.0394130517459
 31
0.0
  0
LINE
  5
1A9
330
2
100
AcDbEntity
  8
GAIKEI
  6
Continuous
 62
     1
100
AcDbLine
 10
103.3816228241124
 20
207.0394088517459
 30
0.0
 11
103.3833788741124
 21
207.1393690017459
 31
0.0
  0
LINE
  5
1AA
330
2
100
AcDbEntity
  8
GAIKEI
  6
Continuous
 62
     1
100
AcDbLine
 10
103.3608712741124
 20
207.1393886517459
 30
0.0
 11
103.3833932741124
 21
207.1393886517459
 31
0.0
  0
LINE
  5
1AB
330
2
100
AcDbEntity
  8
GAIKEI
  6
Continuous
 62
     1
100
AcDbLine
 10
103.3833932741124
 20
207.1393886517459
 30
0.0
 11
103.3833932741124
 21
207.4103237017459
 31
0.0
  0
LINE
  5
1AC
330
2
100
AcDbEntity
  8
GAIKEI
  6
Continuous
 62
     1
100
AcDbLine
 10
103.3608712741124
 20
207.3806606017459
 30
0.0
 11
103.3608712741124
 21
207.1393886517459
 31
0.0
  0
LINE
  5
1AD
330
2
100
AcDbEntity
  8
GAIKEI
  6
Continuous
 62
     1
100
AcDbLine
 10
103.3609042741124
 20
207.1393624517459
 30
0.0
 11
103.3626603741124
 21
207.0394023017459
 31
0.0
  0
LINE
  5
1AE
330
2
100
AcDbEntity
  8
GAIKEI
  6
Continuous
 62
     1
100
AcDbLine
 10
103.3626413241124
 20
207.0394130517459
 30
0.0
 11
103.3626413241124
 21
206.8893886017459
 31
0.0
  0
LINE
  5
1AF
330
2
100
AcDbEntity
  8
GAIKEI
  6
Continuous
100
AcDbLine
 10
103.4189168741124
 20
188.5186427517459
 30
0.0
 11
103.4743349741124
 21
188.5334920017459
 31
0.0
  0
LINE
  5
1B0
330
2
100
AcDbEntity
  8
GAIKEI
  6
Continuous
100
AcDbLine
 10
103.4031868741124
 20
188.5144183017459
 30
0.0
 11
103.4189869241124
 21
188.5186519517459
 31
0.0
  0
LINE
  5
1B1
330
2
100
AcDbEntity
  8
GAIKEI
  6
Continuous
 62
     1
100
AcDbLine
 10
102.6781930241124
 20
186.5825026517459
 30
0.0
 11
102.6781930241124
 21
185.8396437017459
 31
0.0
  0
LINE
  5
1B2
330
2
100
AcDbEntity
  8
GAIKEI
  6
Continuous
 62
     1
100
AcDbLine
 10
102.6781930241124
 20
188.5326370517459
 30
0.0
 11
102.6781930241124
 21
186.5825026517459
 31
0.0
  0
ARC
  5
1B3
330
2
100
AcDbEntity
  8
GAIKEI
  6
Continuous
 62
     1
100
AcDbCircle
 10
102.5695504241124
 20
187.7294143517459
 30
0.0
 40
0.28861095
100
AcDbArc
 50
295.2165659999993
 51
64.78345099999701
  0
LINE
  5
1B4
330
2
100
AcDbEntity
  8
GAIKEI
  6
Continuous
100
AcDbLine
 10
103.3347287741124
 20
213.1307340017459
 30
0.0
 11
103.3273142241124
 21
213.1834912517459
 31
0.0
  0
LINE
  5
1B5
330
2
100
AcDbEntity
  8
GAIKEI
  6
Continuous
 62
     1
100
AcDbLine
 10
103.1485909741124
 20
192.5693804517459
 30
0.0
 11
103.1121530241124
 21
192.5693804517459
 31
0.0
  0
LINE
  5
1B6
330
2
100
AcDbEntity
  8
GAIKEI
  6
Continuous
 62
     1
100
AcDbLine
 10
103.2922067241124
 20
192.5693804517459
 30
0.0
 11
103.2999581741124
 21
192.5693804517459
 31
0.0
  0
LINE
  5
1B7
330
2
100
AcDbEntity
  8
GAIKEI
  6
Continuous
 62
     1
100
AcDbLine
 10
103.1485909741124
 20
192.5693804517459
 30
0.0
 11
103.2922677741124
 21
192.5693804517459
 31
0.0
  0
LINE
  5
1B8
330
2
100
AcDbEntity
  8
GAIKEI
  6
Continuous
100
AcDbLine
 10
103.1111062741124
 20
188.8778438517459
 30
0.0
 11
102.8080817241124
 21
188.7365411517459
 31
0.0
  0
LINE
  5
1B9
330
2
100
AcDbEntity
  8
GAIKEI
  6
Continuous
100
AcDbLine
 10
103.5194097241124
 20
189.0682441017459
 30
0.0
 11
103.1111175741123
 21
188.8778543517459
 31
0.0
  0
LINE
  5
1BA
330
2
100
AcDbEntity
  8
GAIKEI
  6
Continuous
100
AcDbLine
 10
101.6922866741124
 20
213.7159831017459
 30
0.0
 11
101.6063763741124
 21
213.7342439017459
 31
0.0
  0
LINE
  5
1BB
330
2
100
AcDbEntity
  8
GAIKEI
  6
Continuous
100
AcDbLine
 10
102.4843846741124
 20
213.5476411017459
 30
0.0
 11
101.6923266241124
 21
213.7160000517459
 31
0.0
  0
LINE
  5
1BC
330
2
100
AcDbEntity
  8
GAIKEI
  6
Continuous
100
AcDbLine
 10
103.1121052741123
 20
213.4141914017459
 30
0.0
 11
102.4844048241124
 21
213.5476132517459
 31
0.0
  0
LINE
  5
1BD
330
2
100
AcDbEntity
  8
GAIKEI
  6
Continuous
 62
     1
100
AcDbLine
 10
102.1081856741124
 20
212.9308930017459
 30
0.0
 11
102.1081856741124
 21
212.7133635517459
 31
0.0
  0
LINE
  5
1BE
330
2
100
AcDbEntity
  8
GAIKEI
  6
Continuous
 62
     1
100
AcDbLine
 10
102.1081856741124
 20
212.7133635517459
 30
0.0
 11
102.1081856741124
 21
208.6263272017459
 31
0.0
  0
LINE
  5
1BF
330
2
100
AcDbEntity
  8
GAIKEI
  6
Continuous
 62
     1
100
AcDbLine
 10
103.1121530241124
 20
193.3193805017459
 30
0.0
 11
103.1485909741124
 21
193.3193805017459
 31
0.0
  0
LINE
  5
1C0
330
2
100
AcDbEntity
  8
GAIKEI
  6
Continuous
 62
     1
100
AcDbLine
 10
103.2922677741124
 20
193.3193805017459
 30
0.0
 11
103.1485909741124
 21
193.3193805017459
 31
0.0
  0
LINE
  5
1C1
330
2
100
AcDbEntity
  8
GAIKEI
  6
Continuous
 62
     1
100
AcDbLine
 10
103.2999581741124
 20
193.3193805017459
 30
0.0
 11
103.2922067241124
 21
193.3193805017459
 31
0.0
  0
LINE
  5
1C2
330
2
100
AcDbEntity
  8
GAIKEI
  6
Continuous
 62
     1
100
AcDbLine
 10
103.1485909741124
 20
205.9794154017459
 30
0.0
 11
103.1121530241124
 21
205.9794154017459
 31
0.0
  0
LINE
  5
1C3
330
2
100
AcDbEntity
  8
GAIKEI
  6
Continuous
 62
     1
100
AcDbLine
 10
103.2922067241124
 20
205.9794154017459
 30
0.0
 11
103.2999581741124
 21
205.9794154017459
 31
0.0
  0
LINE
  5
1C4
330
2
100
AcDbEntity
  8
GAIKEI
  6
Continuous
 62
     1
100
AcDbLine
 10
103.1485909741124
 20
205.9794154017459
 30
0.0
 11
103.2922677741124
 21
205.9794154017459
 31
0.0
  0
LINE
  5
1C5
330
2
100
AcDbEntity
  8
GAIKEI
  6
Continuous
 62
     1
100
AcDbLine
 10
103.1121530241124
 20
206.7294154517459
 30
0.0
 11
103.1485909741124
 21
206.7294154517459
 31
0.0
  0
LINE
  5
1C6
330
2
100
AcDbEntity
  8
GAIKEI
  6
Continuous
 62
     1
100
AcDbLine
 10
103.2922677741124
 20
206.7294154517459
 30
0.0
 11
103.1485909741124
 21
206.7294154517459
 31
0.0
  0
LINE
  5
1C7
330
2
100
AcDbEntity
  8
GAIKEI
  6
Continuous
 62
     1
100
AcDbLine
 10
103.2999581741124
 20
206.7294154517459
 30
0.0
 11
103.2922067241124
 21
206.7294154517459
 31
0.0
  0
ARC
  5
1C8
330
2
100
AcDbEntity
  8
GAIKEI
  6
Continuous
100
AcDbCircle
 10
102.9031686241124
 20
188.5326370517459
 30
0.0
 40
0.225
100
AcDbArc
 50
115.0000400000031
 51
180.0
  0
ARC
  5
1C9
330
2
100
AcDbEntity
  8
GAIKEI
  6
Continuous
100
AcDbCircle
 10
103.1281442241124
 20
185.8776075517459
 30
0.0
 40
0.2749998500000001
100
AcDbArc
 50
273.0000370000034
 51
0.0000359999984121
  0
LINE
  5
1CA
330
2
100
AcDbEntity
  8
GAIKEI
  6
Continuous
100
AcDbLine
 10
103.6781930741124
 20
210.0744010017459
 30
0.0
 11
103.6781930741124
 21
189.3187088517459
 31
0.0
  0
LINE
  5
1CB
330
2
100
AcDbEntity
  8
GAIKEI
  6
Continuous
100
AcDbLine
 10
103.6781930741124
 20
188.9571365517459
 30
0.0
 11
103.6781930741124
 21
189.3174881517459
 31
0.0
  0
LINE
  5
1CC
330
2
100
AcDbEntity
  8
GAIKEI
  6
Continuous
100
AcDbLine
 10
103.6781930741124
 20
188.8359207517459
 30
0.0
 11
103.6781930741124
 21
188.9571365517459
 31
0.0
  0
LINE
  5
1CD
330
2
100
AcDbEntity
  8
GAIKEI
  6
Continuous
100
AcDbLine
 10
103.6781930741124
 20
188.7991165517459
 30
0.0
 11
103.6781930741124
 21
188.8359207517459
 31
0.0
  0
LINE
  5
1CE
330
2
100
AcDbEntity
  8
GAIKEI
  6
Continuous
100
AcDbLine
 10
103.4031686241124
 20
186.1148512517459
 30
0.0
 11
103.4031686241124
 21
185.8776075517459
 31
0.0
  0
LINE
  5
1CF
330
2
100
AcDbEntity
  8
GAIKEI
  6
Continuous
100
AcDbLine
 10
103.4031686241124
 20
188.9662308017459
 30
0.0
 11
103.4031686241124
 21
186.1148512517459
 31
0.0
  0
LINE
  5
1D0
330
2
100
AcDbEntity
  8
GAIKEI
  6
Continuous
100
AcDbLine
 10
102.7747410241124
 20
185.5837066517459
 30
0.0
 11
103.1425833741124
 21
185.6029844517459
 31
0.0
  0
LINE
  5
1D1
330
2
100
AcDbEntity
  8
GAIKEI
  6
Continuous
100
AcDbLine
 10
102.4175662241123
 20
185.5650457017459
 30
0.0
 11
102.7746812241124
 21
185.5837600517459
 31
0.0
  0
LINE
  5
1D2
330
2
100
AcDbEntity
  8
GAIKEI
  6
Continuous
100
AcDbLine
 10
101.6414086241124
 20
185.5243112017459
 30
0.0
 11
102.4175651741124
 21
185.5649878517459
 31
0.0
  0
LINE
  5
1D3
330
2
100
AcDbEntity
  8
GAIKEI
  6
Continuous
 62
     1
100
AcDbLine
 10
103.3833932741124
 20
194.0543658517459
 30
0.0
 11
103.3608712741124
 21
194.0543658517459
 31
0.0
  0
LINE
  5
1D4
330
2
100
AcDbEntity
  8
GAIKEI
  6
Continuous
 62
     1
100
AcDbLine
 10
103.3626413241124
 20
193.4543902517459
 30
0.0
 11
103.3816232241124
 21
193.4543902517459
 31
0.0
  0
LINE
  5
1D5
330
2
100
AcDbEntity
  8
GAIKEI
  6
Continuous
 62
     1
100
AcDbLine
 10
103.3775338741124
 20
207.4893642517459
 30
0.0
 11
103.3497018241124
 21
207.4893642517459
 31
0.0
  0
LINE
  5
1D6
330
2
100
AcDbEntity
  8
GAIKEI
  6
Continuous
 62
     1
100
AcDbLine
 10
103.3626413241124
 20
206.8893886017459
 30
0.0
 11
103.3816232241124
 21
206.8893886017459
 31
0.0
  0
POINT
  5
1D7
330
2
100
AcDbEntity
  8
GAIKEI
  6
Continuous
100
AcDbPoint
 10
101.4881930241124
 20
184.3544149017459
 30
0.0
  0
POINT
  5
1D8
330
2
100
AcDbEntity
  8
GAIKEI
  6
Continuous
100
AcDbPoint
 10
101.4881930241124
 20
214.8544263517459
 30
0.0
  0
DIMENSION
  5
1D9
330
2
100
AcDbEntity
  8
SUNPO
100
AcDbDimension
  2
*D6
 10
103.7381930241123
 20
222.8541290073946
 30
0.0
 11
110.3215263574456
 21
224.6041290073946
 31
0.0
 70
    33
  1
89
 71
     5
 42
4.449999999999945
  3
STANDARD
100
AcDbAlignedDimension
 13
99.28819302411236
 23
214.8541290073946
 33
0.0
 14
103.7381930241123
 24
214.8541290073946
 34
0.0
1001
ACAD
1000
DSTYLE
1002
{
1070
    40
1040
1.0
1070
   140
1040
2.5
1070
   147
1040
0.5
1070
   172
1070
     1
1070
   279
1070
     0
1070
   288
1070
     0
1002
}
  0
DIMENSION
  5
1EA
330
2
100
AcDbEntity
  8
SUNPO
100
AcDbDimension
  2
*D5
 10
75.18041724462844
 20
222.8541290073946
 30
0.0
 11
50.13041724462845
 21
224.6041290073946
 31
0.0
 70
    33
  1
1020
 71
     5
 42
50.09999999999998
  3
STANDARD
100
AcDbAlignedDimension
 13
25.08041724462847
 23
214.8541290073946
 33
0.0
 14
75.18041724462844
 24
214.8541290073946
 34
0.0
1001
ACAD
1000
DSTYLE
1002
{
1070
    40
1040
1.0
1070
   140
1040
2.5
1070
   147
1040
0.5
1070
   172
1070
     1
1070
   279
1070
     0
1070
   288
1070
     0
1002
}
  0
DIMENSION
  5
1F7
330
2
100
AcDbEntity
  8
SUNPO
100
AcDbDimension
  2
*D4
 10
83.19074664663849
 20
214.8544154517459
 30
0.0
 11
81.44074664663845
 21
199.6044154517459
 31
0.0
 70
    33
  1
610
 71
     5
 42
30.5
  3
STANDARD
100
AcDbAlignedDimension
 13
75.19074664663849
 23
184.3544154517459
 33
0.0
 14
75.19074664663849
 24
214.8544154517459
 34
0.0
1001
ACAD
1000
DSTYLE
1002
{
1070
    40
1040
1.0
1070
   140
1040
2.5
1070
   147
1040
0.5
1070
   172
1070
     1
1070
   279
1070
     0
1070
   288
1070
     0
1002
}
  0
LINE
  5
205
330
2
100
AcDbEntity
  8
WAKU
 62
     4
100
AcDbLine
 10
126.9999999999997
 20
166.499214139642
 30
0.0
 11
126.9999999999997
 21
131.499214139642
 31
0.0
  0
TEXT
  5
207
330
2
100
AcDbEntity
  8
MOJI1
100
AcDbText
 10
4.499999999999971
 20
162.499214139642
 30
0.0
 40
3.0
  1
電  源
100
AcDbText
  0
TEXT
  5
208
330
2
100
AcDbEntity
  8
MOJI1
100
AcDbText
 10
4.499999999999971
 20
147.499214139642
 30
0.0
 40
3.0
  1
画素数
100
AcDbText
  0
TEXT
  5
209
330
2
100
AcDbEntity
  8
MOJI1
100
AcDbText
 10
4.499999999999971
 20
152.499214139642
 30
0.0
 40
3.0
  1
パネルサイズ
100
AcDbText
  0
TEXT
  5
20A
330
2
100
AcDbEntity
  8
MOJI1
100
AcDbText
 10
4.499999999999971
 20
157.499214139642
 30
0.0
 40
3.0
  1
消費電力
100
AcDbText
  0
TEXT
  5
20B
330
2
100
AcDbEntity
  8
MOJI1
100
AcDbText
 10
4.499999999999971
 20
142.499214139642
 30
0.0
 40
3.0
  1
音声最大出力
100
AcDbText
  0
TEXT
  5
20C
330
2
100
AcDbEntity
  8
MOJI1
100
AcDbText
 10
4.499999999999971
 20
137.499214139642
 30
0.0
 40
3.0
  1
接続端子
100
AcDbText
  0
LINE
  5
20D
330
2
100
AcDbEntity
  8
WAKU
 62
     4
100
AcDbLine
 10
1.999999999999744
 20
166.499214139642
 30
0.0
 11
1.999999999999971
 21
131.499214139642
 31
0.0
  0
LINE
  5
20E
330
2
100
AcDbEntity
  8
WAKU
 62
     4
100
AcDbLine
 10
41.99999999999974
 20
166.499214139642
 30
0.0
 11
41.99999999999974
 21
131.499214139642
 31
0.0
  0
LINE
  5
212
330
2
100
AcDbEntity
  8
WAKU
 62
     1
100
AcDbLine
 10
1.999999999999971
 20
156.499214139642
 30
0.0
 11
126.9999999999997
 21
156.499214139642
 31
0.0
  0
LINE
  5
213
330
2
100
AcDbEntity
  8
WAKU
 62
     1
100
AcDbLine
 10
1.999999999999971
 20
146.499214139642
 30
0.0
 11
126.9999999999997
 21
146.499214139642
 31
0.0
  0
LINE
  5
214
330
2
100
AcDbEntity
  8
WAKU
 62
     4
100
AcDbLine
 10
1.999999999999971
 20
166.499214139642
 30
0.0
 11
126.9999999999997
 21
166.499214139642
 31
0.0
  0
LINE
  5
215
330
2
100
AcDbEntity
  8
WAKU
 62
     1
100
AcDbLine
 10
1.999999999999971
 20
161.499214139642
 30
0.0
 11
126.9999999999997
 21
161.499214139642
 31
0.0
  0
LINE
  5
216
330
2
100
AcDbEntity
  8
WAKU
 62
     1
100
AcDbLine
 10
1.999999999999971
 20
151.499214139642
 30
0.0
 11
126.9999999999997
 21
151.499214139642
 31
0.0
  0
LINE
  5
217
330
2
100
AcDbEntity
  8
WAKU
 62
     1
100
AcDbLine
 10
1.999999999999971
 20
141.499214139642
 30
0.0
 11
126.9999999999997
 21
141.499214139642
 31
0.0
  0
LINE
  5
218
330
2
100
AcDbEntity
  8
WAKU
 62
     1
100
AcDbLine
 10
1.999999999999971
 20
136.499214139642
 30
0.0
 11
126.9999999999997
 21
136.499214139642
 31
0.0
  0
LINE
  5
219
330
2
100
AcDbEntity
  8
WAKU
 62
     4
100
AcDbLine
 10
126.9999999999997
 20
131.499214139642
 30
0.0
 11
1.999999999999971
 21
131.499214139642
 31
0.0
  0
TEXT
  5
233
330
2
100
AcDbEntity
  8
MOJI1
100
AcDbText
 10
44.49999999999974
 20
132.499214139642
 30
0.0
 40
3.0
  1
コンポーネントビデオ、シリアル
100
AcDbText
  0
TEXT
  5
234
330
2
100
AcDbEntity
  8
MOJI1
100
AcDbText
 10
44.49999999999974
 20
137.499214139642
 30
0.0
 40
3.0
  1
ビデオ／Ｓビデオ／ＰＣ／外部スピーカ
100
AcDbText
  0
TEXT
  5
235
330
2
100
AcDbEntity
  8
MOJI1
100
AcDbText
 10
44.49999999999974
 20
142.499214139642
 30
0.0
 40
3.0
  1
１６Ｗ（８Ｗ＋８Ｗ）
100
AcDbText
  0
TEXT
  5
236
330
2
100
AcDbEntity
  8
MOJI1
100
AcDbText
 10
44.49999999999974
 20
147.499214139642
 30
0.0
 40
3.0
  1
４０８９６０画素（水平８５２×垂直４８０）
100
AcDbText
  0
TEXT
  5
237
330
2
100
AcDbEntity
  8
MOJI1
100
AcDbText
 10
44.49999999999974
 20
152.499214139642
 30
0.0
 40
3.0
  1
４２Ｖ型（１６：９）
100
AcDbText
  0
TEXT
  5
238
330
2
100
AcDbEntity
  8
MOJI1
100
AcDbText
 10
44.49999999999974
 20
157.499214139642
 30
0.0
 40
3.0
  1
２４０Ｗ
100
AcDbText
  0
TEXT
  5
239
330
2
100
AcDbEntity
  8
MOJI1
100
AcDbText
 10
44.49999999999973
 20
162.499214139642
 30
0.0
 40
3.0
  1
ＡＣ１００Ｖ　５０Ｈｚ／６０Ｈｚ
100
AcDbText
  0
ENDSEC
  0
SECTION
  2
OBJECTS
  0
DICTIONARY
  5
9
330
0
100
AcDbDictionary
281
     1
  3
ACAD_COLOR
350
30
  3
ACAD_GROUP
350
2C
  3
ACAD_LAYOUT
350
D
  3
ACAD_MATERIAL
350
2F
  3
ACAD_MLINESTYLE
350
2D
  3
ACAD_PLOTSETTINGS
350
2E
  3
ACAD_PLOTSTYLENAME
350
8
  3
ACDBHEADERROUNDTRIPXREC
350
262
  3
AcDbVariableDictionary
350
225
  0
DICTIONARY
  5
15
330
14
100
AcDbDictionary
280
     1
281
     1
  3
ACAD_LAYERFILTERS
360
16
  0
DICTIONARY
  5
3
330
2
100
AcDbDictionary
280
     1
281
     1
  3
ACAD_LAYOUTSELFREF
360
4
  0
DICTIONARY
  5
F
330
E
100
AcDbDictionary
280
     1
281
     1
  3
ACAD_LAYOUTSELFREF
360
10
  0
DICTIONARY
  5
30
102
{ACAD_REACTORS
330
9
102
}
330
9
100
AcDbDictionary
281
     1
  0
DICTIONARY
  5
2C
102
{ACAD_REACTORS
330
9
102
}
330
9
100
AcDbDictionary
281
     1
  0
DICTIONARY
  5
D
102
{ACAD_REACTORS
330
9
102
}
330
9
100
AcDbDictionary
281
     1
  3
Model
350
C
  3
ﾚｲｱｳﾄ1
350
13
  0
DICTIONARY
  5
2F
102
{ACAD_REACTORS
330
9
102
}
330
9
100
AcDbDictionary
281
     1
  0
DICTIONARY
  5
2D
102
{ACAD_REACTORS
330
9
102
}
330
9
100
AcDbDictionary
281
     1
  3
STANDARD
350
32
  0
DICTIONARY
  5
2E
102
{ACAD_REACTORS
330
9
102
}
330
9
100
AcDbDictionary
281
     1
  0
ACDBDICTIONARYWDFLT
  5
8
102
{ACAD_REACTORS
330
9
102
}
330
9
100
AcDbDictionary
281
     1
  3
Normal
350
7
100
AcDbDictionaryWithDefault
340
7
  0
DICTIONARY
  5
262
102
{ACAD_REACTORS
330
9
102
}
330
9
100
AcDbDictionary
281
     1
  3
COLORDICT
350
264
  3
MATERIALDICT
350
263
  0
DICTIONARY
  5
225
102
{ACAD_REACTORS
330
9
102
}
330
9
100
AcDbDictionary
281
     1
  3
DIMASSOC
350
226
  3
PROJECTNAME
350
260
  0
DICTIONARY
  5
16
102
{ACAD_REACTORS
330
15
102
}
330
15
100
AcDbDictionary
280
     1
281
     1
  0
XRECORD
  5
4
102
{ACAD_REACTORS
330
3
102
}
330
3
100
AcDbXrecord
280
     1
340
2
  0
XRECORD
  5
10
102
{ACAD_REACTORS
330
F
102
}
330
F
100
AcDbXrecord
280
     1
340
E
  0
LAYOUT
  5
C
102
{ACAD_XDICTIONARY
360
265
102
}
102
{ACAD_REACTORS
330
D
102
}
330
D
100
AcDbPlotSettings
  1

  2
5FCNM08.pc3
  4
A4
  6

 40
5.873749732971191
 41
5.873747825622558
 42
5.873748779296875
 43
5.873748779296875
 44
209.9733276367188
 45
296.9259948730469
 46
5.429999999999999
 47
0.0
 48
0.0
 49
0.0
140
0.0
141
0.0
142
1.0
143
1.382787428462681
 70
 11956
 72
     1
 73
     0
 74
     1
  7
tmsacad.ctb
 75
     0
147
0.7231769536057705
148
0.5357280517396248
149
0.0489438322083515
100
AcDbLayout
  1
Model
 70
     1
 71
     0
 10
0.0
 20
0.0
 11
12.0
 21
9.0
 12
0.0
 22
0.0
 32
0.0
 14
0.0
 24
0.0
 34
0.0
 15
0.0
 25
0.0
 35
0.0
146
0.0
 13
0.0
 23
0.0
 33
0.0
 16
1.0
 26
0.0
 36
0.0
 17
0.0
 27
1.0
 37
0.0
 76
     0
330
2
  0
LAYOUT
  5
13
102
{ACAD_XDICTIONARY
360
267
102
}
102
{ACAD_REACTORS
330
D
102
}
330
D
100
AcDbPlotSettings
  1

  2
C:\Program Files\ACAD2000\plotters\DWF ePlot.pc3
  4

  6

 40
0.0
 41
0.0
 42
0.0
 43
0.0
 44
0.0
 45
0.0
 46
0.0
 47
0.0
 48
0.0
 49
0.0
140
0.0
141
0.0
142
1.0
143
1.0
 70
   688
 72
     0
 73
     0
 74
     5
  7
tmsacad.ctb
 75
    16
147
1.0
148
0.0
149
0.0
100
AcDbLayout
  1
ﾚｲｱｳﾄ1
 70
     1
 71
     1
 10
0.0
 20
0.0
 11
12.0
 21
9.0
 12
0.0
 22
0.0
 32
0.0
 14
1.000000000000000E+20
 24
1.000000000000000E+20
 34
1.000000000000000E+20
 15
-1.000000000000000E+20
 25
-1.000000000000000E+20
 35
-1.000000000000000E+20
146
0.0
 13
0.0
 23
0.0
 33
0.0
 16
1.0
 26
0.0
 36
0.0
 17
0.0
 27
1.0
 37
0.0
 76
     0
330
E
  0
MLINESTYLE
  5
32
102
{ACAD_REACTORS
330
2D
102
}
330
2D
100
AcDbMlineStyle
  2
STANDARD
 70
     0
  3

 62
   256
 51
90.0
 52
90.0
 71
     2
 49
0.5
 62
   256
  6
BYLAYER
 49
-0.5
 62
   256
  6
BYLAYER
  0
ACDBPLACEHOLDER
  5
7
102
{ACAD_REACTORS
330
8
102
}
330
8
  0
XRECORD
  5
264
102
{ACAD_REACTORS
330
262
102
}
330
262
100
AcDbXrecord
280
     1
340
30
  0
XRECORD
  5
263
102
{ACAD_REACTORS
330
262
102
}
330
262
100
AcDbXrecord
280
     1
340
2F
  0
DICTIONARYVAR
  5
226
102
{ACAD_REACTORS
330
225
102
}
330
225
100
DictionaryVariables
280
     0
  1
1
  0
DICTIONARYVAR
  5
260
102
{ACAD_REACTORS
330
225
102
}
330
225
100
DictionaryVariables
280
     0
  1

  0
DICTIONARY
  5
265
330
C
100
AcDbDictionary
280
     1
281
     1
  3
ACAD_XREC_ROUNDTRIP
360
266
  0
DICTIONARY
  5
267
330
13
100
AcDbDictionary
280
     1
281
     1
  3
ACAD_XREC_ROUNDTRIP
360
268
  0
XRECORD
  5
266
102
{ACAD_REACTORS
330
265
102
}
330
265
100
AcDbXrecord
280
     1
102
SHADEPLOT
 70
     0
102
SHADEPLOTRESLEVEL
 70
     2
102
SHADEPLOTCUSTOMDPI
 70
   300
  0
XRECORD
  5
268
102
{ACAD_REACTORS
330
267
102
}
330
267
100
AcDbXrecord
280
     1
102
SHADEPLOT
 70
     0
102
SHADEPLOTRESLEVEL
 70
     2
102
SHADEPLOTCUSTOMDPI
 70
   300
  0
ENDSEC
  0
EOF
