  0
SECTION
  2
HEADER
  9
$ACADVER
  1
AC1015
  9
$ACADMAINTVER
 70
    20
  9
$DWGCODEPAGE
  3
ANSI_932
  9
$INSBASE
 10
0.0
 20
246.4992141396417
 30
0.0
  9
$EXTMIN
 10
-53.32007229475038
 20
-65.33659666673156
 30
-0.0000000349181948
  9
$EXTMAX
 10
71.76573048963565
 20
47.86877266194733
 30
0.0000000814935747
  9
$LIMMIN
 10
-1101.784450318844
 20
-1579.160531687244
  9
$LIMMAX
 10
-508.2420711400536
 20
-1161.440814074914
  9
$ORTHOMODE
 70
     1
  9
$REGENMODE
 70
     1
  9
$FILLMODE
 70
     1
  9
$QTEXTMODE
 70
     0
  9
$MIRRTEXT
 70
     1
  9
$LTSCALE
 40
1.0
  9
$ATTMODE
 70
     1
  9
$TEXTSIZE
 40
3.0
  9
$TRACEWID
 40
0.5
  9
$TEXTSTYLE
  7
STANDARD
  9
$CLAYER
  8
0
  9
$CELTYPE
  6
BYLAYER
  9
$CECOLOR
 62
   256
  9
$CELTSCALE
 40
1.0
  9
$DISPSILH
 70
     0
  9
$DIMSCALE
 40
1.0
  9
$DIMASZ
 40
2.0
  9
$DIMEXO
 40
2.0
  9
$DIMDLI
 40
8.0
  9
$DIMRND
 40
0.0
  9
$DIMDLE
 40
0.0
  9
$DIMEXE
 40
2.0
  9
$DIMTP
 40
0.0
  9
$DIMTM
 40
0.0
  9
$DIMTXT
 40
2.5
  9
$DIMCEN
 40
0.0
  9
$DIMTSZ
 40
0.0
  9
$DIMTOL
 70
     0
  9
$DIMLIM
 70
     0
  9
$DIMTIH
 70
     0
  9
$DIMTOH
 70
     0
  9
$DIMSE1
 70
     0
  9
$DIMSE2
 70
     0
  9
$DIMTAD
 70
     3
  9
$DIMZIN
 70
     0
  9
$DIMBLK
  1

  9
$DIMASO
 70
     1
  9
$DIMSHO
 70
     1
  9
$DIMPOST
  1

  9
$DIMAPOST
  1

  9
$DIMALT
 70
     0
  9
$DIMALTD
 70
     2
  9
$DIMALTF
 40
25.4
  9
$DIMLFAC
 40
1.0
  9
$DIMTOFL
 70
     1
  9
$DIMTVP
 40
0.0
  9
$DIMTIX
 70
     0
  9
$DIMSOXD
 70
     0
  9
$DIMSAH
 70
     1
  9
$DIMBLK1
  1
OPEN30
  9
$DIMBLK2
  1
OPEN30
  9
$DIMSTYLE
  2
STANDARD
  9
$DIMCLRD
 70
     0
  9
$DIMCLRE
 70
     0
  9
$DIMCLRT
 70
     0
  9
$DIMTFAC
 40
1.0
  9
$DIMGAP
 40
0.5
  9
$DIMJUST
 70
     0
  9
$DIMSD1
 70
     0
  9
$DIMSD2
 70
     0
  9
$DIMTOLJ
 70
     1
  9
$DIMTZIN
 70
     0
  9
$DIMALTZ
 70
     0
  9
$DIMALTTZ
 70
     0
  9
$DIMUPT
 70
     0
  9
$DIMDEC
 70
     4
  9
$DIMTDEC
 70
     4
  9
$DIMALTU
 70
     2
  9
$DIMALTTD
 70
     2
  9
$DIMTXSTY
  7
STANDARD
  9
$DIMAUNIT
 70
     0
  9
$DIMADEC
 70
     0
  9
$DIMALTRND
 40
0.0
  9
$DIMAZIN
 70
     0
  9
$DIMDSEP
 70
    46
  9
$DIMATFIT
 70
     3
  9
$DIMFRAC
 70
     0
  9
$DIMLDRBLK
  1
OPEN30
  9
$DIMLUNIT
 70
     2
  9
$DIMLWD
 70
    -2
  9
$DIMLWE
 70
    -2
  9
$DIMTMOVE
 70
     0
  9
$LUNITS
 70
     2
  9
$LUPREC
 70
     4
  9
$SKETCHINC
 40
0.1
  9
$FILLETRAD
 40
0.0
  9
$AUNITS
 70
     0
  9
$AUPREC
 70
     0
  9
$MENU
  1
ACAD
  9
$ELEVATION
 40
0.0
  9
$PELEVATION
 40
0.0
  9
$THICKNESS
 40
0.0
  9
$LIMCHECK
 70
     0
  9
$CHAMFERA
 40
0.0
  9
$CHAMFERB
 40
0.0
  9
$CHAMFERC
 40
0.0
  9
$CHAMFERD
 40
0.0
  9
$SKPOLY
 70
     0
  9
$TDCREATE
 40
2451815.565532581
  9
$TDUCREATE
 40
2451815.190532581
  9
$TDUPDATE
 40
2453732.390395683
  9
$TDUUPDATE
 40
2453732.015395683
  9
$TDINDWG
 40
0.6787837384
  9
$TDUSRTIMER
 40
0.6787835648
  9
$USRTIMER
 70
     1
  9
$ANGBASE
 50
0.0
  9
$ANGDIR
 70
     0
  9
$PDMODE
 70
     0
  9
$PDSIZE
 40
0.0
  9
$PLINEWID
 40
0.0
  9
$SPLFRAME
 70
     0
  9
$SPLINETYPE
 70
     6
  9
$SPLINESEGS
 70
     8
  9
$HANDSEED
  5
389
  9
$SURFTAB1
 70
     6
  9
$SURFTAB2
 70
     6
  9
$SURFTYPE
 70
     6
  9
$SURFU
 70
     6
  9
$SURFV
 70
     6
  9
$UCSBASE
  2

  9
$UCSNAME
  2

  9
$UCSORG
 10
0.0
 20
0.0
 30
0.0
  9
$UCSXDIR
 10
1.0
 20
0.0
 30
0.0
  9
$UCSYDIR
 10
0.0
 20
1.0
 30
0.0
  9
$UCSORTHOREF
  2

  9
$UCSORTHOVIEW
 70
     0
  9
$UCSORGTOP
 10
0.0
 20
0.0
 30
0.0
  9
$UCSORGBOTTOM
 10
0.0
 20
0.0
 30
0.0
  9
$UCSORGLEFT
 10
0.0
 20
0.0
 30
0.0
  9
$UCSORGRIGHT
 10
0.0
 20
0.0
 30
0.0
  9
$UCSORGFRONT
 10
0.0
 20
0.0
 30
0.0
  9
$UCSORGBACK
 10
0.0
 20
0.0
 30
0.0
  9
$PUCSBASE
  2

  9
$PUCSNAME
  2

  9
$PUCSORG
 10
0.0
 20
0.0
 30
0.0
  9
$PUCSXDIR
 10
1.0
 20
0.0
 30
0.0
  9
$PUCSYDIR
 10
0.0
 20
1.0
 30
0.0
  9
$PUCSORTHOREF
  2

  9
$PUCSORTHOVIEW
 70
     0
  9
$PUCSORGTOP
 10
0.0
 20
0.0
 30
0.0
  9
$PUCSORGBOTTOM
 10
0.0
 20
0.0
 30
0.0
  9
$PUCSORGLEFT
 10
0.0
 20
0.0
 30
0.0
  9
$PUCSORGRIGHT
 10
0.0
 20
0.0
 30
0.0
  9
$PUCSORGFRONT
 10
0.0
 20
0.0
 30
0.0
  9
$PUCSORGBACK
 10
0.0
 20
0.0
 30
0.0
  9
$USERI1
 70
     0
  9
$USERI2
 70
     0
  9
$USERI3
 70
     0
  9
$USERI4
 70
     0
  9
$USERI5
 70
     0
  9
$USERR1
 40
0.0
  9
$USERR2
 40
0.0
  9
$USERR3
 40
0.0
  9
$USERR4
 40
0.0
  9
$USERR5
 40
0.0
  9
$WORLDVIEW
 70
     1
  9
$SHADEDGE
 70
     3
  9
$SHADEDIF
 70
    70
  9
$TILEMODE
 70
     1
  9
$MAXACTVP
 70
    48
  9
$PINSBASE
 10
0.0
 20
0.0
 30
0.0
  9
$PLIMCHECK
 70
     0
  9
$PEXTMIN
 10
1.000000000000000E+20
 20
1.000000000000000E+20
 30
1.000000000000000E+20
  9
$PEXTMAX
 10
-1.000000000000000E+20
 20
-1.000000000000000E+20
 30
-1.000000000000000E+20
  9
$PLIMMIN
 10
0.0
 20
0.0
  9
$PLIMMAX
 10
12.0
 20
9.0
  9
$UNITMODE
 70
     0
  9
$VISRETAIN
 70
     1
  9
$PLINEGEN
 70
     0
  9
$PSLTSCALE
 70
     1
  9
$TREEDEPTH
 70
  3020
  9
$CMLSTYLE
  2
STANDARD
  9
$CMLJUST
 70
     0
  9
$CMLSCALE
 40
1.0
  9
$PROXYGRAPHICS
 70
     1
  9
$MEASUREMENT
 70
     0
  9
$CELWEIGHT
370
    -1
  9
$ENDCAPS
280
     0
  9
$JOINSTYLE
280
     0
  9
$LWDISPLAY
290
     0
  9
$INSUNITS
 70
     0
  9
$HYPERLINKBASE
  1

  9
$STYLESHEET
  1

  9
$XEDIT
290
     1
  9
$CEPSNTYPE
380
     0
  9
$PSTYLEMODE
290
     1
  9
$FINGERPRINTGUID
  2
{1754B7AB-9B3C-11D4-AD9E-00104B1004F2}
  9
$VERSIONGUID
  2
{F53FE45A-C815-416C-8672-D3B37E3A710D}
  9
$EXTNAMES
290
     1
  9
$PSVPSCALE
 40
0.0
  9
$OLESTARTUP
290
     0
  0
ENDSEC
  0
SECTION
  2
CLASSES
  0
CLASS
  1
ACDBDICTIONARYWDFLT
  2
AcDbDictionaryWithDefault
  3
ObjectDBX Classes
 90
        0
280
     0
281
     0
  0
CLASS
  1
ACDBPLACEHOLDER
  2
AcDbPlaceHolder
  3
ObjectDBX Classes
 90
        0
280
     0
281
     0
  0
CLASS
  1
LAYOUT
  2
AcDbLayout
  3
ObjectDBX Classes
 90
        0
280
     0
281
     0
  0
CLASS
  1
DICTIONARYVAR
  2
AcDbDictionaryVar
  3
ObjectDBX Classes
 90
        0
280
     0
281
     0
  0
ENDSEC
  0
SECTION
  2
TABLES
  0
TABLE
  2
VPORT
  5
1F
330
0
100
AcDbSymbolTable
 70
     2
  0
VPORT
  5
381
330
1F
100
AcDbSymbolTableRecord
100
AcDbViewportTableRecord
  2
*Active
 70
     0
 10
0.0
 20
0.0
 11
1.0
 21
1.0
 12
9.222829097442609
 22
-8.733912002392116
 13
0.0
 23
0.0
 14
1.0
 24
1.0
 15
0.0
 25
0.0
 16
0.0
 26
0.0
 36
1.0
 17
0.0
 27
0.0
 37
0.0
 40
114.1757010657818
 41
1.589413447782546
 42
50.0
 43
0.0
 44
0.0
 50
0.0
 51
0.0
 71
     0
 72
 10000
 73
     1
 74
     0
 75
     0
 76
     1
 77
     0
 78
     0
281
     0
 65
     1
110
0.0
120
0.0
130
0.0
111
1.0
121
0.0
131
0.0
112
0.0
122
1.0
132
0.0
 79
     0
146
0.0
  0
ENDTAB
  0
TABLE
  2
LTYPE
  5
1A
330
0
100
AcDbSymbolTable
 70
     2
  0
LTYPE
  5
1B
330
1A
100
AcDbSymbolTableRecord
100
AcDbLinetypeTableRecord
  2
BYBLOCK
 70
     0
  3

 72
    65
 73
     0
 40
0.0
  0
LTYPE
  5
1C
330
1A
100
AcDbSymbolTableRecord
100
AcDbLinetypeTableRecord
  2
BYLAYER
 70
     0
  3

 72
    65
 73
     0
 40
0.0
  0
LTYPE
  5
A
330
1A
100
AcDbSymbolTableRecord
100
AcDbLinetypeTableRecord
  2
CONTINUOUS
 70
     0
  3
Solid line
 72
    65
 73
     0
 40
0.0
  0
LTYPE
  5
4F
330
1A
100
AcDbSymbolTableRecord
100
AcDbLinetypeTableRecord
  2
HIDDEN2
 70
     0
  3
Hidden (.5x) _ _ _ _ _ _ _ _ _ _ _ _ _ _ _ _ _
 72
    65
 73
     2
 40
1.399999999999999
 49
0.7
 74
     0
 49
-0.7
 74
     0
  0
ENDTAB
  0
TABLE
  2
LAYER
  5
14
102
{ACAD_XDICTIONARY
360
15
102
}
330
0
100
AcDbSymbolTable
 70
     7
  0
LAYER
  5
6
330
14
100
AcDbSymbolTableRecord
100
AcDbLayerTableRecord
  2
0
 70
     0
 62
     7
  6
CONTINUOUS
370
    -3
390
7
  0
LAYER
  5
42
330
14
100
AcDbSymbolTableRecord
100
AcDbLayerTableRecord
  2
DEFPOINTS
 70
     0
 62
     7
  6
CONTINUOUS
290
     0
370
    -3
390
7
  0
LAYER
  5
2DA
330
14
100
AcDbSymbolTableRecord
100
AcDbLayerTableRecord
  2
WAKU
 70
     0
 62
     4
  6
CONTINUOUS
370
    -3
390
7
  0
LAYER
  5
34
330
14
100
AcDbSymbolTableRecord
100
AcDbLayerTableRecord
  2
MOJI1
 70
     0
 62
     2
  6
CONTINUOUS
370
    -3
390
7
  0
LAYER
  5
2A
330
14
100
AcDbSymbolTableRecord
100
AcDbLayerTableRecord
  2
GAIKEI
 70
     0
 62
     7
  6
CONTINUOUS
370
    -3
390
7
  0
LAYER
  5
36
330
14
100
AcDbSymbolTableRecord
100
AcDbLayerTableRecord
  2
TOUROKU
 70
     0
 62
     1
  6
CONTINUOUS
370
    -3
390
7
  0
LAYER
  5
38
330
14
100
AcDbSymbolTableRecord
100
AcDbLayerTableRecord
  2
SUNPO
 70
     0
 62
     3
  6
CONTINUOUS
370
    -3
390
7
  0
ENDTAB
  0
TABLE
  2
STYLE
  5
17
330
0
100
AcDbSymbolTable
 70
     1
  0
STYLE
  5
18
330
17
100
AcDbSymbolTableRecord
100
AcDbTextStyleTableRecord
  2
STANDARD
 70
     0
 40
0.0
 41
1.0
 50
0.0
 71
     0
 42
3.0
  3
MONOTXT.shx
  4
BIGFONT.shx
  0
ENDTAB
  0
TABLE
  2
VIEW
  5
1D
330
0
100
AcDbSymbolTable
 70
     0
  0
ENDTAB
  0
TABLE
  2
UCS
  5
1E
330
0
100
AcDbSymbolTable
 70
     0
  0
ENDTAB
  0
TABLE
  2
APPID
  5
21
330
0
100
AcDbSymbolTable
 70
     1
  0
APPID
  5
22
330
21
100
AcDbSymbolTableRecord
100
AcDbRegAppTableRecord
  2
ACAD
 70
     0
  0
ENDTAB
  0
TABLE
  2
DIMSTYLE
  5
23
330
0
100
AcDbSymbolTable
 70
     1
100
AcDbDimStyleTable
 71
     1
340
32
  0
DIMSTYLE
105
32
102
{ACAD_REACTORS
330
125
330
118
330
10B
330
6A
330
37
102
}
330
23
100
AcDbSymbolTableRecord
100
AcDbDimStyleTableRecord
  2
STANDARD
 70
     0
 40
0.0
 41
2.0
 42
2.0
 43
8.0
 44
2.0
 73
     0
 74
     0
 77
     3
140
3.0
141
0.0
173
     1
279
     2
288
     1
340
18
341
2B
343
2B
344
2B
  0
ENDTAB
  0
TABLE
  2
BLOCK_RECORD
  5
1
330
0
100
AcDbSymbolTable
 70
    11
  0
BLOCK_RECORD
  5
2
102
{ACAD_XDICTIONARY
360
3
102
}
330
1
100
AcDbSymbolTableRecord
100
AcDbBlockTableRecord
  2
*MODEL_SPACE
340
C
  0
BLOCK_RECORD
  5
E
102
{ACAD_XDICTIONARY
360
F
102
}
330
1
100
AcDbSymbolTableRecord
100
AcDbBlockTableRecord
  2
*PAPER_SPACE
340
13
  0
BLOCK_RECORD
  5
2B
330
1
100
AcDbSymbolTableRecord
100
AcDbBlockTableRecord
  2
_OPEN30
340
0
102
{BLKREFS
331
111
331
112
331
11E
331
11F
331
12D
331
12E
331
70
331
71
331
3E
331
3F
331
357
331
358
331
360
331
361
331
369
331
36A
331
372
331
373
331
37B
331
37C
102
}
  0
BLOCK_RECORD
  5
2FC
330
1
100
AcDbSymbolTableRecord
100
AcDbBlockTableRecord
  2
*D6
340
0
  0
BLOCK_RECORD
  5
30A
330
1
100
AcDbSymbolTableRecord
100
AcDbBlockTableRecord
  2
*D7
340
0
  0
BLOCK_RECORD
  5
316
330
1
100
AcDbSymbolTableRecord
100
AcDbBlockTableRecord
  2
*D8
340
0
  0
BLOCK_RECORD
  5
322
330
1
100
AcDbSymbolTableRecord
100
AcDbBlockTableRecord
  2
*D9
340
0
  0
BLOCK_RECORD
  5
32E
330
1
100
AcDbSymbolTableRecord
100
AcDbBlockTableRecord
  2
*D10
340
0
  0
ENDTAB
  0
ENDSEC
  0
SECTION
  2
BLOCKS
  0
BLOCK
  5
5
330
2
100
AcDbEntity
  8
0
100
AcDbBlockBegin
  2
*MODEL_SPACE
 70
     0
 10
0.0
 20
0.0
 30
0.0
  3
*MODEL_SPACE
  1

  0
ENDBLK
  5
B
330
2
100
AcDbEntity
  8
0
100
AcDbBlockEnd
  0
BLOCK
  5
11
330
E
100
AcDbEntity
 67
     1
  8
0
100
AcDbBlockBegin
  2
*PAPER_SPACE
 70
     0
 10
0.0
 20
0.0
 30
0.0
  3
*PAPER_SPACE
  1

  0
ENDBLK
  5
12
330
E
100
AcDbEntity
 67
     1
  8
0
100
AcDbBlockEnd
  0
BLOCK
  5
2C
330
2B
100
AcDbEntity
  8
0
100
AcDbBlockBegin
  2
_OPEN30
 70
     0
 10
0.0
 20
0.0
 30
0.0
  3
_OPEN30
  1

  0
LINE
  5
2D
330
2B
100
AcDbEntity
  8
0
  6
ByBlock
 62
     0
100
AcDbLine
 10
-1.0
 20
0.26794919
 30
0.0
 11
0.0
 21
0.0
 31
0.0
  0
LINE
  5
2E
330
2B
100
AcDbEntity
  8
0
  6
ByBlock
 62
     0
100
AcDbLine
 10
0.0
 20
0.0
 30
0.0
 11
-1.0
 21
-0.26794919
 31
0.0
  0
LINE
  5
2F
330
2B
100
AcDbEntity
  8
0
  6
ByBlock
 62
     0
100
AcDbLine
 10
0.0
 20
0.0
 30
0.0
 11
-1.0
 21
0.0
 31
0.0
  0
ENDBLK
  5
30
330
2B
100
AcDbEntity
  8
0
100
AcDbBlockEnd
  0
BLOCK
  5
308
330
2FC
100
AcDbEntity
  8
0
100
AcDbBlockBegin
  2
*D6
 70
     1
 10
0.0
 20
0.0
 30
0.0
  3
*D6
  1

  0
LINE
  5
352
330
2FC
100
AcDbEntity
  8
SUNPO
 62
     0
370
    -2
100
AcDbLine
 10
37.98408447864242
 20
23.69070856975302
 30
0.0
 11
37.98408447864242
 21
31.69070856975302
 31
0.0
  0
LINE
  5
353
330
2FC
100
AcDbEntity
  8
SUNPO
 62
     0
370
    -2
100
AcDbLine
 10
42.43408447864236
 20
23.69070856975302
 30
0.0
 11
42.43408447864236
 21
31.69070856975302
 31
0.0
  0
LINE
  5
354
330
2FC
100
AcDbEntity
  8
SUNPO
 62
     0
370
    -2
100
AcDbLine
 10
35.98408447864243
 20
29.69070856975302
 30
0.0
 11
33.98408447864242
 21
29.69070856975302
 31
0.0
  0
LINE
  5
355
330
2FC
100
AcDbEntity
  8
SUNPO
 62
     0
370
    -2
100
AcDbLine
 10
44.43408447864237
 20
29.69070856975302
 30
0.0
 11
51.60075114530903
 21
29.69070856975302
 31
0.0
  0
LINE
  5
356
330
2FC
100
AcDbEntity
  8
SUNPO
 62
     0
370
    -2
100
AcDbLine
 10
37.98408447864242
 20
29.69070856975302
 30
0.0
 11
42.43408447864236
 21
29.69070856975302
 31
0.0
  0
INSERT
  5
357
330
2FC
100
AcDbEntity
  8
SUNPO
 62
     0
370
    -2
100
AcDbBlockReference
  2
_OPEN30
 10
37.98408447864242
 20
29.69070856975302
 30
0.0
 41
2.0
 42
2.0
 43
2.0
  0
INSERT
  5
358
330
2FC
100
AcDbEntity
  8
SUNPO
 62
     0
370
    -2
100
AcDbBlockReference
  2
_OPEN30
 10
42.43408447864236
 20
29.69070856975302
 30
0.0
 41
2.0
 42
2.0
 43
2.0
 50
180.0
  0
MTEXT
  5
359
330
2FC
100
AcDbEntity
  8
SUNPO
 62
     0
100
AcDbMText
 10
49.0174178119757
 20
31.44070856975302
 30
0.0
 40
2.5
 41
0.0
 71
     5
 72
     1
  1
\A1;89
 73
     1
 44
1.0
1001
ACAD
1000
MTEXTBEGIN
1070
    73
1070
     1
1070
    44
1040
1.0
1070
    74
1070
     0
1000
MTEXTEND
  0
POINT
  5
35A
330
2FC
100
AcDbEntity
  8
DEFPOINTS
 62
     0
100
AcDbPoint
 10
37.98408447864242
 20
21.69070856975301
 30
0.0
  0
POINT
  5
35B
330
2FC
100
AcDbEntity
  8
DEFPOINTS
 62
     0
100
AcDbPoint
 10
42.43408447864236
 20
21.69070856975301
 30
0.0
  0
POINT
  5
35C
330
2FC
100
AcDbEntity
  8
DEFPOINTS
 62
     0
100
AcDbPoint
 10
42.43408447864236
 20
29.69070856975302
 30
0.0
  0
ENDBLK
  5
309
330
2FC
100
AcDbEntity
  8
0
100
AcDbBlockEnd
  0
BLOCK
  5
314
330
30A
100
AcDbEntity
  8
0
100
AcDbBlockBegin
  2
*D7
 70
     1
 10
0.0
 20
0.0
 30
0.0
  3
*D7
  1

  0
LINE
  5
35D
330
30A
100
AcDbEntity
  8
SUNPO
 62
     0
370
    -2
100
AcDbLine
 10
-41.77534710857115
 20
23.69070856975304
 30
0.0
 11
-41.77534710857115
 21
31.69070856975304
 31
0.0
  0
LINE
  5
35E
330
30A
100
AcDbEntity
  8
SUNPO
 62
     0
370
    -2
100
AcDbLine
 10
8.32465289142884
 20
23.69070856975304
 30
0.0
 11
8.32465289142884
 21
31.69070856975304
 31
0.0
  0
LINE
  5
35F
330
30A
100
AcDbEntity
  8
SUNPO
 62
     0
370
    -2
100
AcDbLine
 10
-39.77534710857115
 20
29.69070856975304
 30
0.0
 11
6.32465289142884
 21
29.69070856975304
 31
0.0
  0
INSERT
  5
360
330
30A
100
AcDbEntity
  8
SUNPO
 62
     0
370
    -2
100
AcDbBlockReference
  2
_OPEN30
 10
-41.77534710857115
 20
29.69070856975304
 30
0.0
 41
2.0
 42
2.0
 43
2.0
 50
180.0
  0
INSERT
  5
361
330
30A
100
AcDbEntity
  8
SUNPO
 62
     0
370
    -2
100
AcDbBlockReference
  2
_OPEN30
 10
8.32465289142884
 20
29.69070856975304
 30
0.0
 41
2.0
 42
2.0
 43
2.0
  0
MTEXT
  5
362
330
30A
100
AcDbEntity
  8
SUNPO
 62
     0
100
AcDbMText
 10
-16.72534710857115
 20
31.44070856975304
 30
0.0
 40
2.5
 41
0.0
 71
     5
 72
     1
  1
\A1;1020
 73
     1
 44
1.0
1001
ACAD
1000
MTEXTBEGIN
1070
    73
1070
     1
1070
    44
1040
1.0
1070
    74
1070
     0
1000
MTEXTEND
  0
POINT
  5
363
330
30A
100
AcDbEntity
  8
DEFPOINTS
 62
     0
100
AcDbPoint
 10
-41.77534710857115
 20
21.69070856975304
 30
0.0
  0
POINT
  5
364
330
30A
100
AcDbEntity
  8
DEFPOINTS
 62
     0
100
AcDbPoint
 10
8.32465289142884
 20
21.69070856975304
 30
0.0
  0
POINT
  5
365
330
30A
100
AcDbEntity
  8
DEFPOINTS
 62
     0
100
AcDbPoint
 10
8.32465289142884
 20
29.69070856975304
 30
0.0
  0
ENDBLK
  5
315
330
30A
100
AcDbEntity
  8
0
100
AcDbBlockEnd
  0
BLOCK
  5
320
330
316
100
AcDbEntity
  8
0
100
AcDbBlockBegin
  2
*D8
 70
     1
 10
0.0
 20
0.0
 30
0.0
  3
*D8
  1

  0
LINE
  5
366
330
316
100
AcDbEntity
  8
SUNPO
 62
     0
370
    -2
100
AcDbLine
 10
10.33498229343887
 20
-8.809004985895626
 30
0.0
 11
18.33498229343886
 21
-8.809004985895628
 31
0.0
  0
LINE
  5
367
330
316
100
AcDbEntity
  8
SUNPO
 62
     0
370
    -2
100
AcDbLine
 10
10.33498229343887
 20
21.69099501410437
 30
0.0
 11
18.33498229343887
 21
21.69099501410437
 31
0.0
  0
LINE
  5
368
330
316
100
AcDbEntity
  8
SUNPO
 62
     0
370
    -2
100
AcDbLine
 10
16.33498229343886
 20
-6.809004985895628
 30
0.0
 11
16.33498229343887
 21
19.69099501410437
 31
0.0
  0
INSERT
  5
369
330
316
100
AcDbEntity
  8
SUNPO
 62
     0
370
    -2
100
AcDbBlockReference
  2
_OPEN30
 10
16.33498229343886
 20
-8.809004985895628
 30
0.0
 41
2.0
 42
2.0
 43
2.0
 50
270.0
  0
INSERT
  5
36A
330
316
100
AcDbEntity
  8
SUNPO
 62
     0
370
    -2
100
AcDbBlockReference
  2
_OPEN30
 10
16.33498229343887
 20
21.69099501410437
 30
0.0
 41
2.0
 42
2.0
 43
2.0
 50
90.0
  0
MTEXT
  5
36B
330
316
100
AcDbEntity
  8
SUNPO
 62
     0
100
AcDbMText
 10
14.58498229343886
 20
6.440995014104373
 30
0.0
 40
2.5
 41
0.0
 71
     5
 72
     1
  1
\A1;610
 11
0.0000000000000001
 21
1.0
 31
0.0
 73
     1
 44
1.0
1001
ACAD
1000
MTEXTBEGIN
1070
    73
1070
     1
1070
    44
1040
1.0
1070
    74
1070
     0
1000
MTEXTEND
  0
POINT
  5
36C
330
316
100
AcDbEntity
  8
DEFPOINTS
 62
     0
100
AcDbPoint
 10
8.334982293438869
 20
-8.809004985895626
 30
0.0
  0
POINT
  5
36D
330
316
100
AcDbEntity
  8
DEFPOINTS
 62
     0
100
AcDbPoint
 10
8.334982293438869
 20
21.69099501410437
 30
0.0
  0
POINT
  5
36E
330
316
100
AcDbEntity
  8
DEFPOINTS
 62
     0
100
AcDbPoint
 10
16.33498229343887
 20
21.69099501410437
 30
0.0
  0
ENDBLK
  5
321
330
316
100
AcDbEntity
  8
0
100
AcDbBlockEnd
  0
BLOCK
  5
32C
330
322
100
AcDbEntity
  8
0
100
AcDbBlockBegin
  2
*D9
 70
     1
 10
0.0
 20
0.0
 30
0.0
  3
*D9
  1

  0
LINE
  5
36F
330
322
100
AcDbEntity
  8
SUNPO
 62
     0
370
    -2
100
AcDbLine
 10
-34.3253471085711
 20
-13.93532898303991
 30
0.0
 11
-34.3253471085711
 21
-21.93532898303988
 31
0.0
  0
LINE
  5
370
330
322
100
AcDbEntity
  8
SUNPO
 62
     0
370
    -2
100
AcDbLine
 10
0.8746528914287308
 20
-13.93532898303991
 30
0.0
 11
0.8746528914287303
 21
-21.93532898303988
 31
0.0
  0
LINE
  5
371
330
322
100
AcDbEntity
  8
SUNPO
 62
     0
370
    -2
100
AcDbLine
 10
-32.32534710857109
 20
-19.93532898303988
 30
0.0
 11
-1.125347108571269
 21
-19.93532898303988
 31
0.0
  0
INSERT
  5
372
330
322
100
AcDbEntity
  8
SUNPO
 62
     0
370
    -2
100
AcDbBlockReference
  2
_OPEN30
 10
-34.3253471085711
 20
-19.93532898303988
 30
0.0
 41
2.0
 42
2.0
 43
2.0
 50
180.0
  0
INSERT
  5
373
330
322
100
AcDbEntity
  8
SUNPO
 62
     0
370
    -2
100
AcDbBlockReference
  2
_OPEN30
 10
0.8746528914287305
 20
-19.93532898303988
 30
0.0
 41
2.0
 42
2.0
 43
2.0
  0
MTEXT
  5
374
330
322
100
AcDbEntity
  8
SUNPO
 62
     0
100
AcDbMText
 10
-16.72534710857118
 20
-18.18532898303988
 30
0.0
 40
2.5
 41
0.0
 71
     5
 72
     1
  1
\A1;704
 73
     1
 44
1.0
1001
ACAD
1000
MTEXTBEGIN
1070
    73
1070
     1
1070
    44
1040
1.0
1070
    74
1070
     0
1000
MTEXTEND
  0
POINT
  5
375
330
322
100
AcDbEntity
  8
DEFPOINTS
 62
     0
100
AcDbPoint
 10
-34.3253471085711
 20
-11.93532898303991
 30
0.0
  0
POINT
  5
376
330
322
100
AcDbEntity
  8
DEFPOINTS
 62
     0
100
AcDbPoint
 10
0.8746528914287308
 20
-11.93532898303991
 30
0.0
  0
POINT
  5
377
330
322
100
AcDbEntity
  8
DEFPOINTS
 62
     0
100
AcDbPoint
 10
0.8746528914287305
 20
-19.93532898303988
 30
0.0
  0
ENDBLK
  5
32D
330
322
100
AcDbEntity
  8
0
100
AcDbBlockEnd
  0
BLOCK
  5
338
330
32E
100
AcDbEntity
  8
0
100
AcDbBlockBegin
  2
*D10
 70
     1
 10
0.0
 20
0.0
 30
0.0
  3
*D10
  1

  0
LINE
  5
378
330
32E
100
AcDbEntity
  8
SUNPO
 62
     0
370
    -2
100
AcDbLine
 10
30.41274153950335
 20
-13.93532898303991
 30
0.0
 11
30.41274153950335
 21
-21.93532898303988
 31
0.0
  0
LINE
  5
379
330
32E
100
AcDbEntity
  8
SUNPO
 62
     0
370
    -2
100
AcDbLine
 10
46.75750853950332
 20
-13.93532898303991
 30
0.0
 11
46.75750853950332
 21
-21.93532898303988
 31
0.0
  0
LINE
  5
37A
330
32E
100
AcDbEntity
  8
SUNPO
 62
     0
370
    -2
100
AcDbLine
 10
32.41274153950335
 20
-19.93532898303988
 30
0.0
 11
44.75750853950333
 21
-19.93532898303988
 31
0.0
  0
INSERT
  5
37B
330
32E
100
AcDbEntity
  8
SUNPO
 62
     0
370
    -2
100
AcDbBlockReference
  2
_OPEN30
 10
30.41274153950335
 20
-19.93532898303988
 30
0.0
 41
2.0
 42
2.0
 43
2.0
 50
180.0
  0
INSERT
  5
37C
330
32E
100
AcDbEntity
  8
SUNPO
 62
     0
370
    -2
100
AcDbBlockReference
  2
_OPEN30
 10
46.75750853950332
 20
-19.93532898303988
 30
0.0
 41
2.0
 42
2.0
 43
2.0
  0
MTEXT
  5
37D
330
32E
100
AcDbEntity
  8
SUNPO
 62
     0
100
AcDbMText
 10
38.58512503950334
 20
-18.18532898303988
 30
0.0
 40
2.5
 41
0.0
 71
     5
 72
     1
  1
\A1;327
 73
     1
 44
1.0
1001
ACAD
1000
MTEXTBEGIN
1070
    73
1070
     1
1070
    44
1040
1.0
1070
    74
1070
     0
1000
MTEXTEND
  0
POINT
  5
37E
330
32E
100
AcDbEntity
  8
DEFPOINTS
 62
     0
100
AcDbPoint
 10
30.41274153950335
 20
-11.93532898303991
 30
0.0
  0
POINT
  5
37F
330
32E
100
AcDbEntity
  8
DEFPOINTS
 62
     0
100
AcDbPoint
 10
46.75750853950332
 20
-11.93532898303991
 30
0.0
  0
POINT
  5
380
330
32E
100
AcDbEntity
  8
DEFPOINTS
 62
     0
100
AcDbPoint
 10
46.75750853950332
 20
-19.93532898303988
 30
0.0
  0
ENDBLK
  5
339
330
32E
100
AcDbEntity
  8
0
100
AcDbBlockEnd
  0
ENDSEC
  0
SECTION
  2
ENTITIES
  0
TEXT
  5
33
330
2
100
AcDbEntity
  8
MOJI1
100
AcDbText
 10
-26.25430010153235
 20
43.75158272111757
 30
0.0
 40
4.0
  1
プログレッシブワイドプラズマディスプレイ据置きスタンド
 41
0.75
100
AcDbText
  0
TEXT
  5
35
330
2
100
AcDbEntity
  8
TOUROKU
100
AcDbText
 10
31.74564993139517
 20
37.75158272111756
 30
0.0
 40
2.0
  1
ＴＨ４２ＰＷＤ８Ｓ＋ＴＹＳＴ０８Ｓ
 72
     2
 11
71.74564993139516
 21
37.75158272111756
 31
0.0
100
AcDbText
  0
DIMENSION
  5
37
330
2
100
AcDbEntity
  8
SUNPO
100
AcDbDimension
  2
*D10
 10
46.75750853950332
 20
-19.93532898303988
 30
0.0
 11
38.58512503950334
 21
-18.18532898303988
 31
0.0
 70
    33
  1
327
 71
     5
 42
16.34476699999997
  3
STANDARD
100
AcDbAlignedDimension
 13
30.41274153950335
 23
-11.93532898303991
 33
0.0
 14
46.75750853950332
 24
-11.93532898303991
 34
0.0
1001
ACAD
1000
DSTYLE
1002
{
1070
    40
1040
1.0
1070
   140
1040
2.5
1070
   147
1040
0.5
1070
   172
1070
     1
1070
   279
1070
     0
1070
   288
1070
     0
1002
}
  0
ARC
  5
46
330
2
100
AcDbEntity
  8
GAIKEI
100
AcDbCircle
 10
41.03665273557568
 20
-26.82546550615852
 30
0.0
 40
16.57827481891813
100
AcDbArc
 50
70.0616332233228
 51
82.83655129852879
  0
ARC
  5
47
330
2
100
AcDbEntity
  8
GAIKEI
100
AcDbCircle
 10
34.62925701605187
 20
-25.66929160041431
 30
0.0
 40
15.00936247034608
100
AcDbArc
 50
96.58693607677401
 51
106.0382372516389
  0
ARC
  5
48
330
2
100
AcDbEntity
  8
GAIKEI
  6
Continuous
100
AcDbCircle
 10
39.08708354377669
 20
-9.434002735895576
 30
0.0
 40
0.4
100
AcDbArc
 50
90.0
 51
176.9999942712111
  0
ARC
  5
49
330
2
100
AcDbEntity
  8
GAIKEI
 62
     1
100
AcDbCircle
 10
-16.98731091830191
 20
161.4859334998008
 30
0.0
 40
172.2451368622826
100
AcDbArc
 50
270.087141166115
 51
273.7439666659791
  0
LINE
  5
4A
330
2
100
AcDbEntity
  8
GAIKEI
  6
Continuous
 62
     1
100
AcDbLine
 10
-2.495347108571159
 20
-11.79400023589565
 30
0.0
 11
-5.495347108571158
 21
-11.79400023589565
 31
0.0
  0
LINE
  5
4B
330
2
100
AcDbEntity
  8
GAIKEI
  6
Continuous
 62
     1
100
AcDbLine
 10
-5.495347108571158
 20
-11.79400023589565
 30
0.0
 11
-5.495347108571158
 21
-11.70900498589563
 31
0.0
  0
LINE
  5
4C
330
2
100
AcDbEntity
  8
GAIKEI
  6
Continuous
 62
     1
100
AcDbLine
 10
-2.495347108571159
 20
-11.79400023589565
 30
0.0
 11
-2.495347108571159
 21
-11.70900498589563
 31
0.0
  0
LINE
  5
4D
330
2
100
AcDbEntity
  8
GAIKEI
  6
Continuous
 62
     1
100
AcDbLine
 10
-11.47534710857118
 20
-11.79400023589565
 30
0.0
 11
-11.47534710857118
 21
-11.70900498589563
 31
0.0
  0
ARC
  5
4E
330
2
100
AcDbEntity
  8
GAIKEI
  6
HIDDEN2
 62
     1
100
AcDbCircle
 10
-1.323070358571122
 20
-8.376780735895662
 30
0.0
 40
0.05
100
AcDbArc
 50
181.0000009999991
 51
270.0
  0
LINE
  5
50
330
2
100
AcDbEntity
  8
GAIKEI
  6
HIDDEN2
 62
     1
100
AcDbLine
 10
-1.373062858571265
 20
-8.377653235895619
 30
0.0
 11
-1.375958108571204
 21
-8.211780735895644
 31
0.0
  0
ARC
  5
51
330
2
100
AcDbEntity
  8
GAIKEI
  6
HIDDEN2
 62
     1
100
AcDbCircle
 10
-1.31923035857104
 20
-7.826780735895653
 30
0.0
 40
0.05
100
AcDbArc
 50
90.0
 51
178.9999999999982
  0
LINE
  5
52
330
2
100
AcDbEntity
  8
GAIKEI
  6
HIDDEN2
 62
     1
100
AcDbLine
 10
-1.375958108571204
 20
-8.211780735895644
 30
0.0
 11
-1.369222608571327
 21
-7.825907985895611
 31
0.0
  0
LINE
  5
53
330
2
100
AcDbEntity
  8
GAIKEI
  6
Continuous
100
AcDbLine
 10
-2.491763604598808
 20
-11.65900498589556
 30
0.0
 11
-2.269217608571088
 21
-11.65900498589562
 31
0.0
  0
LINE
  5
54
330
2
100
AcDbEntity
  8
GAIKEI
  6
Continuous
 62
     1
100
AcDbLine
 10
-2.492558108571266
 20
-11.70900498589563
 30
0.0
 11
-2.491763604598808
 21
-11.65900498589556
 31
0.0
  0
LINE
  5
55
330
2
100
AcDbEntity
  8
GAIKEI
  6
Continuous
100
AcDbLine
 10
-2.317477358571259
 20
-11.7090032358956
 30
0.0
 11
-2.316604608571388
 21
-11.65900398589568
 31
0.0
  0
LINE
  5
56
330
2
100
AcDbEntity
  8
GAIKEI
100
AcDbLine
 10
-9.239176200611801
 20
-10.33270638915857
 30
0.0
 11
-6.398600028736801
 21
-10.35432046386566
 31
0.0
  0
ARC
  5
57
330
2
100
AcDbEntity
  8
GAIKEI
100
AcDbCircle
 10
-9.313095397364314
 20
-31.89359453206882
 30
0.0
 40
21.79684751240989
100
AcDbArc
 50
71.33876240204347
 51
80.79333714661627
  0
ARC
  5
58
330
2
100
AcDbEntity
  8
GAIKEI
100
AcDbCircle
 10
-6.254123276939786
 20
-13.86890161154585
 30
0.0
 40
3.517549456004707
100
AcDbArc
 50
83.00403043973124
 51
92.35397894531805
  0
LINE
  5
59
330
2
100
AcDbEntity
  8
GAIKEI
100
AcDbLine
 10
-2.338712333424346
 20
-11.24267343017416
 30
0.0
 11
-2.287516044361801
 21
-11.30994409057459
 31
0.0
  0
LINE
  5
5A
330
2
100
AcDbEntity
  8
GAIKEI
100
AcDbLine
 10
-2.287516044361801
 20
-11.30994409057459
 30
0.0
 11
-2.269217608571088
 21
-11.65900498589562
 31
0.0
  0
LINE
  5
5B
330
2
100
AcDbEntity
  8
GAIKEI
100
AcDbLine
 10
-9.315911608571202
 20
-8.856389985895617
 30
0.0
 11
-9.23854010857118
 21
-10.33271148589566
 31
0.0
  0
LINE
  5
5C
330
2
100
AcDbEntity
  8
GAIKEI
100
AcDbLine
 10
-9.239176200611801
 20
-10.33270638915857
 30
0.0
 11
-9.307719029516851
 21
-10.49708306741823
 31
0.0
  0
LINE
  5
5D
330
2
100
AcDbEntity
  8
GAIKEI
100
AcDbLine
 10
-9.307719029516851
 20
-10.49708306741823
 30
0.0
 11
-7.651673846114285
 21
-10.5060228620097
 31
0.0
  0
ARC
  5
5E
330
2
100
AcDbEntity
  8
GAIKEI
 62
     1
100
AcDbCircle
 10
-16.72534737781273
 20
65.831352412882
 30
0.0
 40
75.22807432498495
100
AcDbArc
 50
264.3713243723748
 51
275.628676200609
  0
LINE
  5
5F
330
2
100
AcDbEntity
  8
GAIKEI
100
AcDbLine
 10
-24.10379085857127
 20
-9.034004985895618
 30
0.0
 11
-9.346903108571003
 21
-9.034004985895618
 31
0.0
  0
LINE
  5
60
330
2
100
AcDbEntity
  8
GAIKEI
100
AcDbLine
 10
-24.14297518762551
 20
-10.49708306741823
 30
0.0
 11
-25.79902037102807
 21
-10.5060228620097
 31
0.0
  0
LINE
  5
61
330
2
100
AcDbEntity
  8
GAIKEI
100
AcDbLine
 10
-24.21151801653055
 20
-10.33270638915857
 30
0.0
 11
-24.14297518762551
 21
-10.49708306741823
 31
0.0
  0
LINE
  5
62
330
2
100
AcDbEntity
  8
GAIKEI
100
AcDbLine
 10
-24.13478260857115
 20
-8.856389985895617
 30
0.0
 11
-24.21215410857118
 21
-10.33271148589566
 31
0.0
  0
LINE
  5
63
330
2
100
AcDbEntity
  8
GAIKEI
 62
     1
100
AcDbLine
 10
-31.10522371008934
 20
-11.24039224120932
 30
0.0
 11
-2.506656566335514
 21
-11.24039224120932
 31
0.0
  0
LINE
  5
64
330
2
100
AcDbEntity
  8
GAIKEI
100
AcDbLine
 10
-31.16317817278055
 20
-11.30994409057459
 30
0.0
 11
-31.18147660857128
 21
-11.65900498589562
 31
0.0
  0
LINE
  5
65
330
2
100
AcDbEntity
  8
GAIKEI
100
AcDbLine
 10
-31.11198188371802
 20
-11.24267343017416
 30
0.0
 11
-31.16317817278055
 21
-11.30994409057459
 31
0.0
  0
ARC
  5
66
330
2
100
AcDbEntity
  8
GAIKEI
100
AcDbCircle
 10
-27.19657094020257
 20
-13.86890161154585
 30
0.0
 40
3.517549456004707
100
AcDbArc
 50
87.64602105468195
 51
96.99596956026876
  0
ARC
  5
67
330
2
100
AcDbEntity
  8
GAIKEI
100
AcDbCircle
 10
-24.13759881977804
 20
-31.89359453206882
 30
0.0
 40
21.79684751240989
100
AcDbArc
 50
99.20666285338372
 51
108.6612375979565
  0
LINE
  5
68
330
2
100
AcDbEntity
  8
GAIKEI
100
AcDbLine
 10
-24.21151801653055
 20
-10.33270638915857
 30
0.0
 11
-27.05209418840555
 21
-10.35432046386566
 31
0.0
  0
ARC
  5
69
330
2
100
AcDbEntity
  8
GAIKEI
 62
     1
100
AcDbCircle
 10
-16.46338329884045
 20
161.4859334998008
 30
0.0
 40
172.2451368622826
100
AcDbArc
 50
266.2560333340209
 51
269.912858833885
  0
DIMENSION
  5
6A
330
2
100
AcDbEntity
  8
SUNPO
100
AcDbDimension
  2
*D9
 10
0.8746528914287305
 20
-19.93532898303988
 30
0.0
 11
-16.72534710857118
 21
-18.18532898303988
 31
0.0
 70
    33
  1
704
 71
     5
 42
35.19999999999983
  3
STANDARD
100
AcDbAlignedDimension
 13
-34.3253471085711
 23
-11.93532898303991
 33
0.0
 14
0.8746528914287308
 24
-11.93532898303991
 34
0.0
1001
ACAD
1000
DSTYLE
1002
{
1070
    40
1040
1.0
1070
   140
1040
2.5
1070
   147
1040
0.5
1070
   172
1070
     1
1070
   279
1070
     0
1070
   288
1070
     0
1002
}
  0
LINE
  5
77
330
2
100
AcDbEntity
  8
GAIKEI
  6
HIDDEN2
 62
     1
100
AcDbLine
 10
39.96899403950337
 20
-2.876780485895693
 30
0.0
 11
40.4112330395034
 21
-2.876780485895693
 31
0.0
  0
LINE
  5
78
330
2
100
AcDbEntity
  8
GAIKEI
  6
HIDDEN2
 62
     1
100
AcDbLine
 10
39.69709553950335
 20
-7.776780485895557
 30
0.0
 11
41.93313153950335
 21
-7.776780485895557
 31
0.0
  0
LINE
  5
79
330
2
100
AcDbEntity
  8
GAIKEI
  6
HIDDEN2
 62
     1
100
AcDbLine
 10
39.7512455395034
 20
-6.906780485895666
 30
0.0
 11
40.56511353950336
 21
-6.906780485895666
 31
0.0
  0
LINE
  5
7A
330
2
100
AcDbEntity
  8
GAIKEI
  6
HIDDEN2
 62
     1
100
AcDbLine
 10
39.75089653950337
 20
-6.926780485895648
 30
0.0
 11
40.58511353950335
 21
-6.926780485895648
 31
0.0
  0
LINE
  5
7B
330
2
100
AcDbEntity
  8
GAIKEI
  6
HIDDEN2
 62
     1
100
AcDbLine
 10
39.75526028950336
 20
-6.676780485895648
 30
0.0
 11
40.58511353950335
 21
-6.676780485895648
 31
0.0
  0
LINE
  5
7C
330
2
100
AcDbEntity
  8
GAIKEI
  6
HIDDEN2
 62
     1
100
AcDbLine
 10
39.75491128950333
 20
-6.696780485895629
 30
0.0
 11
40.56511353950336
 21
-6.696780485895629
 31
0.0
  0
LINE
  5
7D
330
2
100
AcDbEntity
  8
GAIKEI
  6
HIDDEN2
 62
     1
100
AcDbLine
 10
39.79418503950339
 20
-4.446780485895629
 30
0.0
 11
40.54011353950332
 21
-4.446780485895629
 31
0.0
  0
LINE
  5
7E
330
2
100
AcDbEntity
  8
GAIKEI
  6
HIDDEN2
 62
     1
100
AcDbLine
 10
39.79051953950332
 20
-4.656780485895666
 30
0.0
 11
40.54011353950332
 21
-4.656780485895666
 31
0.0
  0
LINE
  5
7F
330
2
100
AcDbEntity
  8
GAIKEI
  6
HIDDEN2
 62
     1
100
AcDbLine
 10
39.79017028950339
 20
-4.676780485895648
 30
0.0
 11
40.56011353950336
 21
-4.676780485895648
 31
0.0
  0
LINE
  5
80
330
2
100
AcDbEntity
  8
GAIKEI
  6
HIDDEN2
 62
     1
100
AcDbLine
 10
39.79453428950332
 20
-4.426780485895648
 30
0.0
 11
40.56011353950336
 21
-4.426780485895648
 31
0.0
  0
LINE
  5
81
330
2
100
AcDbEntity
  8
GAIKEI
  6
HIDDEN2
 62
     1
100
AcDbLine
 10
40.63988003950337
 20
-7.531143735895653
 30
0.0
 11
40.61973053950331
 21
-6.376780485895691
 31
0.0
  0
LINE
  5
82
330
2
100
AcDbEntity
  8
GAIKEI
  6
HIDDEN2
 62
     1
100
AcDbLine
 10
39.74034728950332
 20
-7.531143735895653
 30
0.0
 11
39.81901703950335
 21
-3.024162735895656
 31
0.0
  0
ARC
  5
83
330
2
100
AcDbEntity
  8
GAIKEI
  6
HIDDEN2
 62
     1
100
AcDbCircle
 10
40.41123303950342
 20
-3.026780485895556
 30
0.0
 40
0.15
100
AcDbArc
 50
0.9999999999757104
 51
90.0
  0
ARC
  5
84
330
2
100
AcDbEntity
  8
GAIKEI
  6
HIDDEN2
 62
     1
100
AcDbCircle
 10
39.9689940395034
 20
-3.026780485895556
 30
0.0
 40
0.15
100
AcDbArc
 50
90.0
 51
179.0000000000242
  0
LINE
  5
85
330
2
100
AcDbEntity
  8
GAIKEI
  6
HIDDEN2
 62
     1
100
AcDbLine
 10
40.49011353950336
 20
-3.130600485895597
 30
0.0
 11
40.56300153950339
 21
-3.126780485895693
 31
0.0
  0
LINE
  5
86
330
2
100
AcDbEntity
  8
GAIKEI
  6
HIDDEN2
 62
     1
100
AcDbLine
 10
40.49011353950336
 20
-4.122045985895424
 30
0.0
 11
40.49011353950336
 21
-3.130600485895597
 31
0.0
  0
LINE
  5
87
330
2
100
AcDbEntity
  8
GAIKEI
  6
HIDDEN2
 62
     1
100
AcDbLine
 10
40.49011353950336
 20
-4.122045985895424
 30
0.0
 11
40.58045653950339
 21
-4.126780485895693
 31
0.0
  0
LINE
  5
88
330
2
100
AcDbEntity
  8
GAIKEI
  6
HIDDEN2
 62
     1
100
AcDbLine
 10
40.49011353950336
 20
-4.982292735895639
 30
0.0
 11
40.59529328950335
 21
-4.976780485895601
 31
0.0
  0
LINE
  5
89
330
2
100
AcDbEntity
  8
GAIKEI
  6
HIDDEN2
 62
     1
100
AcDbLine
 10
40.56300153950339
 20
-3.126780485895693
 30
0.0
 11
40.56121028950335
 21
-3.024162735895656
 31
0.0
  0
LINE
  5
8A
330
2
100
AcDbEntity
  8
GAIKEI
  6
HIDDEN2
 62
     1
100
AcDbLine
 10
40.59529328950335
 20
-4.976780485895601
 30
0.0
 11
40.58045653950339
 21
-4.126780485895693
 31
0.0
  0
LINE
  5
8B
330
2
100
AcDbEntity
  8
GAIKEI
  6
HIDDEN2
 62
     1
100
AcDbLine
 10
40.56511353950336
 20
-6.696780485895629
 30
0.0
 11
40.62428328950338
 21
-6.637610985895578
 31
0.0
  0
LINE
  5
8C
330
2
100
AcDbEntity
  8
GAIKEI
  6
HIDDEN2
 62
     1
100
AcDbLine
 10
40.56511353950336
 20
-6.906780485895666
 30
0.0
 11
40.63011628950337
 21
-6.971783235895513
 31
0.0
  0
LINE
  5
8D
330
2
100
AcDbEntity
  8
GAIKEI
  6
HIDDEN2
 62
     1
100
AcDbLine
 10
40.56511353950336
 20
-6.906780485895666
 30
0.0
 11
40.56511353950336
 21
-6.696780485895629
 31
0.0
  0
LINE
  5
8E
330
2
100
AcDbEntity
  8
GAIKEI
  6
HIDDEN2
 62
     1
100
AcDbLine
 10
40.54011353950332
 20
-4.656780485895666
 30
0.0
 11
40.54011353950332
 21
-4.446780485895629
 31
0.0
  0
LINE
  5
8F
330
2
100
AcDbEntity
  8
GAIKEI
  6
HIDDEN2
 62
     1
100
AcDbLine
 10
40.54011353950332
 20
-4.446780485895629
 30
0.0
 11
40.58525428950335
 21
-4.401639985895741
 31
0.0
  0
LINE
  5
90
330
2
100
AcDbEntity
  8
GAIKEI
  6
HIDDEN2
 62
     1
100
AcDbLine
 10
40.54011353950332
 20
-4.656780485895666
 30
0.0
 11
40.59058878950335
 21
-4.707255735895528
 31
0.0
  0
LINE
  5
91
330
2
100
AcDbEntity
  8
GAIKEI
  6
HIDDEN2
 62
     1
100
AcDbLine
 10
41.94028828950334
 20
-8.186780485895639
 30
0.0
 11
41.93313153950335
 21
-7.776780735895641
 31
0.0
  0
LINE
  5
92
330
2
100
AcDbEntity
  8
GAIKEI
  6
HIDDEN2
 62
     1
100
AcDbLine
 10
39.68663778950335
 20
-8.375907985895679
 30
0.0
 11
39.69011353950336
 21
-8.176780485895648
 31
0.0
  0
ARC
  5
93
330
2
100
AcDbEntity
  8
GAIKEI
  6
HIDDEN2
 62
     1
100
AcDbCircle
 10
39.49038528950342
 20
-7.526780485895557
 30
0.0
 40
0.25
100
AcDbArc
 50
326.5828530000069
 51
359.0000000000243
  0
ARC
  5
94
330
2
100
AcDbEntity
  8
GAIKEI
  6
HIDDEN2
 62
     1
100
AcDbCircle
 10
40.88984178950339
 20
-7.526780485895557
 30
0.0
 40
0.25
100
AcDbArc
 50
180.9999999999757
 51
270.0
  0
LINE
  5
95
330
2
100
AcDbEntity
  8
GAIKEI
  6
HIDDEN2
 62
     1
100
AcDbLine
 10
39.73663028950332
 20
-8.426780485895648
 30
0.0
 11
39.94011353950336
 21
-8.426780485895648
 31
0.0
  0
LINE
  5
96
330
2
100
AcDbEntity
  8
GAIKEI
  6
HIDDEN2
 62
     1
100
AcDbLine
 10
39.91160728950335
 20
-8.377653235895563
 30
0.0
 11
39.91454628950336
 21
-8.209286985895602
 31
0.0
  0
LINE
  5
97
330
2
100
AcDbEntity
  8
GAIKEI
  6
HIDDEN2
 62
     1
100
AcDbLine
 10
39.69011353950336
 20
-8.176780485895648
 30
0.0
 11
39.69905603950335
 21
-7.664463235895624
 31
0.0
  0
ARC
  5
98
330
2
100
AcDbEntity
  8
GAIKEI
  6
HIDDEN2
 62
     1
100
AcDbCircle
 10
39.73663028950335
 20
-8.376780485895691
 30
0.0
 40
0.05
100
AcDbArc
 50
179.0000000000242
 51
270.0
  0
ARC
  5
99
330
2
100
AcDbEntity
  8
GAIKEI
  6
HIDDEN2
 62
     1
100
AcDbCircle
 10
39.86161503950336
 20
-8.376780485895691
 30
0.0
 40
0.05
100
AcDbArc
 50
270.0
 51
358.9999989999813
  0
LINE
  5
9A
330
2
100
AcDbEntity
  8
GAIKEI
  6
HIDDEN2
 62
     1
100
AcDbLine
 10
40.49011353950336
 20
-5.926780485895648
 30
0.0
 11
40.61973053950331
 21
-6.376780485895691
 31
0.0
  0
LINE
  5
9B
330
2
100
AcDbEntity
  8
GAIKEI
  6
HIDDEN2
 62
     1
100
AcDbLine
 10
40.49011353950336
 20
-5.926780485895648
 30
0.0
 11
40.49011353950336
 21
-4.982292735895639
 31
0.0
  0
LINE
  5
9C
330
2
100
AcDbEntity
  8
GAIKEI
  6
HIDDEN2
 62
     1
100
AcDbLine
 10
41.94011353950336
 20
-8.186780485895639
 30
0.0
 11
39.69011353950336
 21
-8.211780485895502
 31
0.0
  0
LINE
  5
9D
330
2
100
AcDbEntity
  8
GAIKEI
  6
HIDDEN2
 62
     1
100
AcDbLine
 10
39.94011353950336
 20
-8.209002735895552
 30
0.0
 11
39.94011353950336
 21
-8.509002735895506
 31
0.0
  0
LINE
  5
9E
330
2
100
AcDbEntity
  8
GAIKEI
  6
HIDDEN2
 62
     1
100
AcDbLine
 10
44.44011353950336
 20
-8.209002735895552
 30
0.0
 11
44.44011353950336
 21
-8.509002735895506
 31
0.0
  0
LINE
  5
9F
330
2
100
AcDbEntity
  8
GAIKEI
  6
HIDDEN2
 62
     1
100
AcDbLine
 10
39.94011353950336
 20
-8.209002735895552
 30
0.0
 11
44.44011353950336
 21
-8.209002735895552
 31
0.0
  0
LINE
  5
A0
330
2
100
AcDbEntity
  8
GAIKEI
  6
HIDDEN2
 62
     1
100
AcDbLine
 10
39.94011353950336
 20
-8.509002735895506
 30
0.0
 11
44.44011353950336
 21
-8.509002735895506
 31
0.0
  0
LINE
  5
A1
330
2
100
AcDbEntity
  8
GAIKEI
  6
Continuous
100
AcDbLine
 10
39.94011353950336
 20
-8.809002735895687
 30
0.0
 11
44.44011353950336
 21
-8.809002735895687
 31
0.0
  0
LINE
  5
A2
330
2
100
AcDbEntity
  8
GAIKEI
  6
HIDDEN2
 62
     1
100
AcDbLine
 10
39.94011353950336
 20
-8.509002735895506
 30
0.0
 11
39.94011353950336
 21
-8.809002735895687
 31
0.0
  0
LINE
  5
A3
330
2
100
AcDbEntity
  8
GAIKEI
  6
HIDDEN2
 62
     1
100
AcDbLine
 10
44.44011353950336
 20
-8.509002735895506
 30
0.0
 11
44.44011353950336
 21
-8.809002735895687
 31
0.0
  0
LINE
  5
A4
330
2
100
AcDbEntity
  8
GAIKEI
  6
HIDDEN2
 62
     1
100
AcDbLine
 10
-34.3253471085711
 20
-8.509004985895586
 30
0.0
 11
-34.3253471085711
 21
-8.209004985895631
 31
0.0
  0
LINE
  5
A5
330
2
100
AcDbEntity
  8
GAIKEI
  6
HIDDEN2
 62
     1
100
AcDbLine
 10
0.8746528914287308
 20
-8.509004985895586
 30
0.0
 11
0.8746528914287308
 21
-8.209004985895631
 31
0.0
  0
LINE
  5
A6
330
2
100
AcDbEntity
  8
GAIKEI
  6
HIDDEN2
 62
     1
100
AcDbLine
 10
-34.3253471085711
 20
-8.209004985895631
 30
0.0
 11
-1.375909608571155
 21
-8.209004985895631
 31
0.0
  0
LINE
  5
A7
330
2
100
AcDbEntity
  8
GAIKEI
  6
Continuous
100
AcDbLine
 10
41.20729178950338
 20
-10.40244798589575
 30
0.0
 11
34.21938753950334
 21
-10.70264498589554
 31
0.0
  0
LINE
  5
A8
330
2
100
AcDbEntity
  8
GAIKEI
  6
Continuous
100
AcDbLine
 10
42.32768203950334
 20
-10.35432298589572
 30
0.0
 11
41.20729178950338
 21
-10.40245223589559
 31
0.0
  0
LINE
  5
A9
330
2
100
AcDbEntity
  8
GAIKEI
  6
Continuous
100
AcDbLine
 10
42.83077278950336
 20
-10.33270798589561
 30
0.0
 11
42.32768453950334
 21
-10.35432273589563
 31
0.0
  0
SPLINE
  5
AA
330
2
100
AcDbEntity
  8
GAIKEI
  6
Continuous
100
AcDbSpline
210
0.0
220
0.0
230
1.0
 70
     8
 71
     3
 72
     9
 73
     5
 74
     3
 42
0.0000000001
 43
0.0000000001
 44
0.000001
 12
-0.9902076422500524
 22
0.1396023826071465
 32
0.0
 13
-0.9859473551062222
 23
0.1670563167289549
 33
0.0
 40
0.0
 40
0.0
 40
0.0
 40
0.0
 40
0.123345220349431
 40
0.2767125891643376
 40
0.2767125891643376
 40
0.2767125891643376
 40
0.2767125891643376
 10
43.10396854499404
 20
-10.37659316439283
 30
0.0
 10
43.06325608505236
 20
-10.37085340217817
 30
0.0
 10
42.97214475863348
 20
-10.35643109571273
 30
0.0
 10
42.8811670291354
 20
-10.34124921629596
 30
0.0
 10
42.83076297858784
 20
-10.33270888704908
 30
0.0
 11
43.10396854499404
 21
-10.37659316439283
 31
0.0
 11
42.98205662587711
 21
-10.35784393999836
 31
0.0
 11
42.83076297858784
 21
-10.33270888704908
 31
0.0
  0
LINE
  5
AB
330
2
100
AcDbEntity
  8
GAIKEI
  6
Continuous
100
AcDbLine
 10
38.62997753950336
 20
-10.51317373589555
 30
0.0
 11
38.687631731968
 21
-9.413068313458692
 31
0.0
  0
LINE
  5
AC
330
2
100
AcDbEntity
  8
GAIKEI
  6
Continuous
100
AcDbLine
 10
39.70749803950335
 20
-9.034006235895644
 30
0.0
 11
39.71680503950333
 21
-8.856393485895663
 31
0.0
  0
SPLINE
  5
AD
330
2
100
AcDbEntity
  8
GAIKEI
  6
Continuous
100
AcDbSpline
210
0.0
220
0.0
230
1.0
 70
     8
 71
     3
 72
     9
 73
     5
 74
     3
 42
0.0000000001
 43
0.0000000001
 44
0.000001
 12
0.0302589672827417
 22
0.999542092609902
 32
0.0
 13
0.9997531277520559
 23
-0.0222189907507327
 33
0.0
 40
0.0
 40
0.0
 40
0.0
 40
0.0
 40
0.0370349074766485
 40
0.0740697535800549
 40
0.0740697535800549
 40
0.0740697535800549
 40
0.0740697535800549
 10
39.71681034186904
 20
-8.856390527674077
 30
0.0
 10
39.71718388788693
 20
-8.844051211367803
 30
0.0
 10
39.72895302268055
 20
-8.819179721244982
 30
0.0
 10
39.75440740563689
 20
-8.808728540060659
 30
0.0
 10
39.76674930671279
 20
-8.809002832361668
 30
0.0
 11
39.71681034186904
 21
-8.856390527674077
 31
0.0
 11
39.73237366128294
 21
-8.822784058951015
 31
0.0
 11
39.76674930671279
 21
-8.809002832361668
 31
0.0
  0
LINE
  5
AE
330
2
100
AcDbEntity
  8
GAIKEI
  6
Continuous
100
AcDbLine
 10
39.76674928950334
 20
-8.809002735895687
 30
0.0
 11
45.49826778950332
 21
-8.809002735895687
 31
0.0
  0
SPLINE
  5
AF
330
2
100
AcDbEntity
  8
GAIKEI
  6
Continuous
100
AcDbSpline
210
0.0
220
0.0
230
1.0
 70
     8
 71
     3
 72
     9
 73
     5
 74
     3
 42
0.0000000001
 43
0.0000000001
 44
0.000001
 12
-0.999279299987914
 22
0.0379589332788036
 32
0.0
 13
0.0476309352692855
 23
-0.9988650028934708
 33
0.0
 40
0.0
 40
0.0
 40
0.0
 40
0.0
 40
0.0266148015956402
 40
0.061483106083506
 40
0.061483106083506
 40
0.061483106083506
 40
0.061483106083506
 10
42.75267459968151
 20
-8.809002832361668
 30
0.0
 10
42.74380939291223
 20
-8.808666075869002
 30
0.0
 10
42.72438766653031
 20
-8.823493495724454
 30
0.0
 10
42.72027285183238
 20
-8.844780951319689
 30
0.0
 10
42.72082645515038
 20
-8.856390527674077
 30
0.0
 11
42.75267459968151
 21
-8.809002832361668
 31
0.0
 11
42.72986252786646
 21
-8.822714373810297
 31
0.0
 11
42.72082645515038
 21
-8.856390527674077
 31
0.0
  0
LINE
  5
B0
330
2
100
AcDbEntity
  8
GAIKEI
  6
Continuous
100
AcDbLine
 10
42.72081428950335
 20
-8.856390485895557
 30
0.0
 11
39.71681028950334
 21
-8.856390485895557
 31
0.0
  0
LINE
  5
B1
330
2
100
AcDbEntity
  8
GAIKEI
  6
Continuous
100
AcDbLine
 10
43.04104128950339
 20
-8.856390485895557
 30
0.0
 11
42.72082653950341
 21
-8.856390485895557
 31
0.0
  0
SPLINE
  5
B2
330
2
100
AcDbEntity
  8
GAIKEI
  6
Continuous
100
AcDbSpline
210
0.0
220
0.0
230
1.0
 70
     8
 71
     3
 72
    11
 73
     7
 74
     5
 42
0.0000000001
 43
0.0000000001
 44
0.000001
 12
0.9999999995578146
 22
-0.0000297383728632
 32
0.0
 13
0.0413160348323966
 23
-0.9991461280842399
 33
0.0
 40
0.0
 40
0.0
 40
0.0
 40
0.0
 40
0.0144937194587617
 40
0.0311929113558428
 40
0.0494761076260462
 40
0.0674599294913198
 40
0.0674599294913198
 40
0.0674599294913198
 40
0.0674599294913198
 10
43.00160038093152
 20
-8.809002832361668
 30
0.0
 10
43.00643162074897
 20
-8.80900297603488
 30
0.0
 10
43.01691611724196
 20
-8.811654837198783
 30
0.0
 10
43.03005814897876
 20
-8.822414642056015
 30
0.0
 10
43.03846040934663
 20
-8.838353092550828
 30
0.0
 10
43.04079362549675
 20
-8.850401039012462
 30
0.0
 10
43.04104129890029
 20
-8.856390527674077
 30
0.0
 11
43.00160038093152
 21
-8.809002832361668
 31
0.0
 11
43.0157010349823
 21
-8.812359675703078
 31
0.0
 11
43.02878543952529
 21
-8.822735742517918
 31
0.0
 11
43.03763951585763
 21
-8.838732145566948
 31
0.0
 11
43.04104129890029
 21
-8.856390527674077
 31
0.0
  0
LINE
  5
B3
330
2
100
AcDbEntity
  8
GAIKEI
  6
Continuous
100
AcDbLine
 10
42.72081203950338
 20
-8.856389235895591
 30
0.0
 11
42.71482153950333
 21
-9.034010235895637
 31
0.0
  0
LINE
  5
B4
330
2
100
AcDbEntity
  8
GAIKEI
  6
Continuous
100
AcDbLine
 10
39.08708354377669
 20
-9.034002735895596
 30
0.0
 11
42.71482053950339
 21
-9.034002735895596
 31
0.0
  0
LINE
  5
B5
330
2
100
AcDbEntity
  8
GAIKEI
  6
Continuous
100
AcDbLine
 10
42.67757828950331
 20
-10.33929548589563
 30
0.0
 11
42.71482203950332
 21
-9.034003985895566
 31
0.0
  0
LINE
  5
B6
330
2
100
AcDbEntity
  8
GAIKEI
  6
Continuous
100
AcDbLine
 10
43.04103553950338
 20
-8.856386235895485
 30
0.0
 11
43.10396128950335
 21
-10.37659348589559
 31
0.0
  0
ARC
  5
B7
330
2
100
AcDbEntity
  8
GAIKEI
  6
Continuous
100
AcDbCircle
 10
45.49826778950335
 20
-8.859002735895641
 30
0.0
 40
0.05
100
AcDbArc
 50
2.99996500000379
 51
89.99996400000158
  0
LINE
  5
B8
330
2
100
AcDbEntity
  8
GAIKEI
  6
Continuous
100
AcDbLine
 10
45.54819453950331
 20
-8.856390485895557
 30
0.0
 11
43.04104128950339
 21
-8.856390485895557
 31
0.0
  0
LINE
  5
B9
330
2
100
AcDbEntity
  8
GAIKEI
  6
Continuous
100
AcDbLine
 10
45.54818878950331
 20
-8.856383485895463
 30
0.0
 11
45.6554790876608
 21
-10.9036050903384
 31
0.0
  0
LINE
  5
BA
330
2
100
AcDbEntity
  8
GAIKEI
  6
Continuous
100
AcDbLine
 10
30.61017578950336
 20
-11.79400023589565
 30
0.0
 11
33.65761603950332
 21
-11.79400023589565
 31
0.0
  0
LINE
  5
BB
330
2
100
AcDbEntity
  8
GAIKEI
  6
Continuous
100
AcDbLine
 10
41.89007503950338
 20
-11.79400023589565
 30
0.0
 11
46.56017578950335
 21
-11.79400023589565
 31
0.0
  0
LINE
  5
BC
330
2
100
AcDbEntity
  8
GAIKEI
  6
HIDDEN2
 62
     1
100
AcDbLine
 10
-34.3253471085711
 20
-8.509004985895586
 30
0.0
 11
0.8746528914287308
 21
-8.509004985895586
 31
0.0
  0
LINE
  5
BD
330
2
100
AcDbEntity
  8
GAIKEI
  6
HIDDEN2
 62
     1
100
AcDbLine
 10
-34.3253471085711
 20
-8.809004985895654
 30
0.0
 11
0.8746528914287308
 21
-8.809004985895654
 31
0.0
  0
LINE
  5
BE
330
2
100
AcDbEntity
  8
GAIKEI
  6
HIDDEN2
 62
     1
100
AcDbLine
 10
0.8746528914287308
 20
-8.809004985895654
 30
0.0
 11
0.8746528914287308
 21
-8.509004985895586
 31
0.0
  0
LINE
  5
BF
330
2
100
AcDbEntity
  8
GAIKEI
  6
HIDDEN2
 62
     1
100
AcDbLine
 10
-34.3253471085711
 20
-8.809004985895654
 30
0.0
 11
-34.3253471085711
 21
-8.509004985895586
 31
0.0
  0
ARC
  5
C0
330
2
100
AcDbEntity
  8
GAIKEI
  6
Continuous
100
AcDbCircle
 10
46.66150428950341
 20
-11.31027598589563
 30
0.0
 40
0.075
100
AcDbArc
 50
3.000001000016101
 51
67.68834699999034
  0
ARC
  5
C1
330
2
100
AcDbEntity
  8
GAIKEI
  6
Continuous
100
AcDbCircle
 10
46.66150428950341
 20
-11.31027598589563
 30
0.0
 40
0.07500475
100
AcDbArc
 50
3.000001000016101
 51
67.68834699999034
  0
LINE
  5
C2
330
2
100
AcDbEntity
  8
GAIKEI
  6
Continuous
100
AcDbLine
 10
46.75488828950332
 20
-11.65900473589559
 30
0.0
 11
46.73640653950335
 21
-11.30635198589553
 31
0.0
  0
LINE
  5
C3
330
2
100
AcDbEntity
  8
GAIKEI
  6
Continuous
100
AcDbLine
 10
46.70750378950335
 20
-11.65900523589553
 30
0.0
 11
46.70663103950338
 21
-11.70900523589571
 31
0.0
  0
LINE
  5
C4
330
2
100
AcDbEntity
  8
GAIKEI
  6
Continuous
100
AcDbLine
 10
30.45839678950333
 20
-11.70900573589543
 30
0.0
 11
30.45752403950334
 21
-11.65900573589548
 31
0.0
  0
LINE
  5
C5
330
2
100
AcDbEntity
  8
GAIKEI
  6
Continuous
100
AcDbLine
 10
30.42831578950333
 20
-11.31228848589549
 30
0.0
 11
30.41014503950336
 21
-11.65900473589559
 31
0.0
  0
ARC
  5
C6
330
2
100
AcDbEntity
  8
GAIKEI
  6
Continuous
100
AcDbCircle
 10
46.66150428950341
 20
-11.31027598589563
 30
0.0
 40
0.075
100
AcDbArc
 50
3.000001000016101
 51
67.68834699999034
  0
ARC
  5
C7
330
2
100
AcDbEntity
  8
GAIKEI
  6
Continuous
100
AcDbCircle
 10
30.50321278950335
 20
-11.31621298589553
 30
0.0
 40
0.075
100
AcDbArc
 50
106.0408529999929
 51
177.0000160000058
  0
LINE
  5
C8
330
2
100
AcDbEntity
  8
GAIKEI
  6
Continuous
100
AcDbLine
 10
34.21940378950339
 20
-10.70264923589562
 30
0.0
 11
32.90752328950336
 21
-10.75900673589549
 31
0.0
  0
LINE
  5
C9
330
2
100
AcDbEntity
  8
GAIKEI
  6
Continuous
100
AcDbLine
 10
30.45839678950333
 20
-11.70900473589554
 30
0.0
 11
46.70663103950338
 21
-11.70900473589554
 31
0.0
  0
LINE
  5
CA
330
2
100
AcDbEntity
  8
GAIKEI
  6
Continuous
100
AcDbLine
 10
30.41014478950334
 20
-11.65900473589559
 30
0.0
 11
46.75488803950336
 21
-11.65900473589559
 31
0.0
  0
LINE
  5
CB
330
2
100
AcDbEntity
  8
GAIKEI
  6
Continuous
100
AcDbLine
 10
-31.1332168585711
 20
-11.7090032358956
 30
0.0
 11
-31.13408960857097
 21
-11.65900398589568
 31
0.0
  0
LINE
  5
CC
330
2
100
AcDbEntity
  8
GAIKEI
  6
Continuous
 62
     1
100
AcDbLine
 10
-30.95813610857109
 20
-11.70900498589563
 30
0.0
 11
-30.95893061254355
 21
-11.65900498589556
 31
0.0
  0
LINE
  5
CD
330
2
100
AcDbEntity
  8
GAIKEI
  6
Continuous
100
AcDbLine
 10
-31.13322210857128
 20
-11.70900498589563
 30
0.0
 11
-2.495347108571159
 21
-11.70900498589563
 31
0.0
  0
LINE
  5
CE
330
2
100
AcDbEntity
  8
GAIKEI
  6
Continuous
100
AcDbLine
 10
-30.95893061254355
 20
-11.65900498589556
 30
0.0
 11
-31.18147660857128
 21
-11.65900498589562
 31
0.0
  0
LINE
  5
CF
330
2
100
AcDbEntity
  8
GAIKEI
  6
HIDDEN2
 62
     1
100
AcDbLine
 10
0.8746528914287308
 20
-8.201780735895653
 30
0.0
 11
-1.375347108571268
 21
-8.201780735895653
 31
0.0
  0
ARC
  5
D0
330
2
100
AcDbEntity
  8
GAIKEI
  6
HIDDEN2
 62
     1
100
AcDbCircle
 10
0.8217651414288765
 20
-8.376780735895662
 30
0.0
 40
0.05
100
AcDbArc
 50
270.0
 51
358.9999990000009
  0
ARC
  5
D1
330
2
100
AcDbEntity
  8
GAIKEI
  6
HIDDEN2
 62
     1
100
AcDbCircle
 10
-1.323070358571122
 20
-8.376780735895662
 30
0.0
 40
0.05
100
AcDbArc
 50
181.0000009999991
 51
270.0
  0
LINE
  5
D2
330
2
100
AcDbEntity
  8
GAIKEI
  6
HIDDEN2
 62
     1
100
AcDbLine
 10
-1.373062608571181
 20
-8.377653235895619
 30
0.0
 11
-1.375958108571204
 21
-8.211780735895644
 31
0.0
  0
LINE
  5
D3
330
2
100
AcDbEntity
  8
GAIKEI
  6
HIDDEN2
 62
     1
100
AcDbLine
 10
0.8717576414290205
 20
-8.377653235895619
 30
0.0
 11
0.8746528914287308
 21
-8.211780735895644
 31
0.0
  0
LINE
  5
D4
330
2
100
AcDbEntity
  8
GAIKEI
  6
HIDDEN2
 62
     1
100
AcDbLine
 10
0.8217651414288765
 20
-8.426780735895619
 30
0.0
 11
-1.323070358571122
 21
-8.426780735895619
 31
0.0
  0
ARC
  5
D5
330
2
100
AcDbEntity
  8
GAIKEI
  6
HIDDEN2
 62
     1
100
AcDbCircle
 10
0.8185361414287298
 20
-7.826780735895653
 30
0.0
 40
0.05
100
AcDbArc
 50
1.000000000001775
 51
90.0
  0
ARC
  5
D6
330
2
100
AcDbEntity
  8
GAIKEI
  6
HIDDEN2
 62
     1
100
AcDbCircle
 10
-1.319230108571182
 20
-7.826780735895653
 30
0.0
 40
0.05
100
AcDbArc
 50
90.0
 51
178.9999999999982
  0
LINE
  5
D7
330
2
100
AcDbEntity
  8
GAIKEI
  6
HIDDEN2
 62
     1
100
AcDbLine
 10
-1.375958108571204
 20
-8.211780735895644
 30
0.0
 11
-1.369222608571099
 21
-7.825907985895611
 31
0.0
  0
ARC
  5
D8
330
2
100
AcDbEntity
  8
GAIKEI
  6
HIDDEN2
 62
     1
100
AcDbCircle
 10
-0.3250753585709489
 20
-7.526780735895641
 30
0.0
 40
0.25
100
AcDbArc
 50
270.0
 51
358.9999999999982
  0
ARC
  5
D9
330
2
100
AcDbEntity
  8
GAIKEI
  6
HIDDEN2
 62
     1
100
AcDbCircle
 10
1.074381141428865
 20
-7.526780735895641
 30
0.0
 40
0.25
100
AcDbArc
 50
181.0000000000017
 51
213.4171470000081
  0
LINE
  5
DA
330
2
100
AcDbEntity
  8
GAIKEI
  6
HIDDEN2
 62
     1
100
AcDbLine
 10
0.8752638914288937
 20
-8.211780735895644
 30
0.0
 11
0.8657103914288555
 21
-7.664463235895624
 31
0.0
  0
CIRCLE
  5
DB
330
2
100
AcDbEntity
  8
GAIKEI
  6
HIDDEN2
 62
     1
100
AcDbCircle
 10
0.374652891428731
 20
-6.804697235895588
 30
0.0
 40
0.16708625
  0
CIRCLE
  5
DC
330
2
100
AcDbEntity
  8
GAIKEI
  6
HIDDEN2
 62
     1
100
AcDbCircle
 10
0.374652891428731
 20
-4.554884485895597
 30
0.0
 40
0.1778155
  0
CIRCLE
  5
DD
330
2
100
AcDbEntity
  8
GAIKEI
  6
HIDDEN2
 62
     1
100
AcDbCircle
 10
0.374652891428731
 20
-6.801780735895619
 30
0.0
 40
0.105
  0
CIRCLE
  5
DE
330
2
100
AcDbEntity
  8
GAIKEI
  6
HIDDEN2
 62
     1
100
AcDbCircle
 10
0.374652891428731
 20
-4.551780735895675
 30
0.0
 40
0.105
  0
CIRCLE
  5
DF
330
2
100
AcDbEntity
  8
GAIKEI
  6
HIDDEN2
 62
     1
100
AcDbCircle
 10
0.374652891428731
 20
-6.801780735895619
 30
0.0
 40
0.125
  0
CIRCLE
  5
E0
330
2
100
AcDbEntity
  8
GAIKEI
  6
HIDDEN2
 62
     1
100
AcDbCircle
 10
0.374652891428731
 20
-4.551780735895675
 30
0.0
 40
0.125
  0
LINE
  5
E1
330
2
100
AcDbEntity
  8
GAIKEI
  6
HIDDEN2
 62
     1
100
AcDbLine
 10
0.5957723914289446
 20
-2.876780735895663
 30
0.0
 11
0.1535333914287449
 21
-2.876780735895663
 31
0.0
  0
LINE
  5
E2
330
2
100
AcDbEntity
  8
GAIKEI
  6
HIDDEN2
 62
     1
100
AcDbLine
 10
0.8185361414287298
 20
-7.776780735895641
 30
0.0
 11
-1.319230108571182
 21
-7.776780735895641
 31
0.0
  0
LINE
  5
E3
330
2
100
AcDbEntity
  8
GAIKEI
  6
HIDDEN2
 62
     1
100
AcDbLine
 10
-0.0751133585710804
 20
-7.531143735895653
 30
0.0
 11
0.0035563914289369
 21
-3.024162735895656
 31
0.0
  0
LINE
  5
E4
330
2
100
AcDbEntity
  8
GAIKEI
  6
HIDDEN2
 62
     1
100
AcDbLine
 10
0.8244191414287698
 20
-7.531143735895653
 30
0.0
 11
0.7457496414288372
 21
-3.024162735895656
 31
0.0
  0
ARC
  5
E5
330
2
100
AcDbEntity
  8
GAIKEI
  6
HIDDEN2
 62
     1
100
AcDbCircle
 10
0.1535333914287449
 20
-3.02678073589564
 30
0.0
 40
0.15
100
AcDbArc
 50
90.0
 51
178.9999999999982
  0
ARC
  5
E6
330
2
100
AcDbEntity
  8
GAIKEI
  6
HIDDEN2
 62
     1
100
AcDbCircle
 10
0.5957723914289446
 20
-3.02678073589564
 30
0.0
 40
0.15
100
AcDbArc
 50
1.000000000001775
 51
90.0
  0
LINE
  5
E7
330
2
100
AcDbEntity
  8
GAIKEI
  6
HIDDEN2
 62
     1
100
AcDbLine
 10
-32.07473610857114
 20
-8.211780735895644
 30
0.0
 11
-32.08147160857104
 21
-7.825907985895611
 31
0.0
  0
LINE
  5
E8
330
2
100
AcDbEntity
  8
GAIKEI
  6
HIDDEN2
 62
     1
100
AcDbLine
 10
-34.32595810857102
 20
-8.211780735895644
 30
0.0
 11
-34.31640460857098
 21
-7.664463235895624
 31
0.0
  0
ARC
  5
E9
330
2
100
AcDbEntity
  8
GAIKEI
  6
HIDDEN2
 62
     1
100
AcDbCircle
 10
-34.0464666085713
 20
-3.02678073589564
 30
0.0
 40
0.15
100
AcDbArc
 50
90.0
 51
178.9999999999982
  0
ARC
  5
EA
330
2
100
AcDbEntity
  8
GAIKEI
  6
HIDDEN2
 62
     1
100
AcDbCircle
 10
-33.6042276085711
 20
-3.02678073589564
 30
0.0
 40
0.15
100
AcDbArc
 50
1.000000000001775
 51
90.0
  0
LINE
  5
EB
330
2
100
AcDbEntity
  8
GAIKEI
  6
HIDDEN2
 62
     1
100
AcDbLine
 10
-34.27511335857113
 20
-7.531143735895653
 30
0.0
 11
-34.19644360857111
 21
-3.024162735895656
 31
0.0
  0
LINE
  5
EC
330
2
100
AcDbEntity
  8
GAIKEI
  6
HIDDEN2
 62
     1
100
AcDbLine
 10
-33.37558085857128
 20
-7.531143735895653
 30
0.0
 11
-33.45425035857098
 21
-3.024162735895656
 31
0.0
  0
LINE
  5
ED
330
2
100
AcDbEntity
  8
GAIKEI
  6
HIDDEN2
 62
     1
100
AcDbLine
 10
-34.26923010857123
 20
-7.776780735895641
 30
0.0
 11
-32.13146385857132
 21
-7.776780735895641
 31
0.0
  0
LINE
  5
EE
330
2
100
AcDbEntity
  8
GAIKEI
  6
HIDDEN2
 62
     1
100
AcDbLine
 10
-34.0464666085713
 20
-2.876780735895663
 30
0.0
 11
-33.6042276085711
 21
-2.876780735895663
 31
0.0
  0
CIRCLE
  5
EF
330
2
100
AcDbEntity
  8
GAIKEI
  6
HIDDEN2
 62
     1
100
AcDbCircle
 10
-33.8253471085711
 20
-4.551780735895675
 30
0.0
 40
0.125
  0
CIRCLE
  5
F0
330
2
100
AcDbEntity
  8
GAIKEI
  6
HIDDEN2
 62
     1
100
AcDbCircle
 10
-33.8253471085711
 20
-6.801780735895619
 30
0.0
 40
0.125
  0
CIRCLE
  5
F1
330
2
100
AcDbEntity
  8
GAIKEI
  6
HIDDEN2
 62
     1
100
AcDbCircle
 10
-33.8253471085711
 20
-4.551780735895675
 30
0.0
 40
0.105
  0
CIRCLE
  5
F2
330
2
100
AcDbEntity
  8
GAIKEI
  6
HIDDEN2
 62
     1
100
AcDbCircle
 10
-33.8253471085711
 20
-6.801780735895619
 30
0.0
 40
0.105
  0
CIRCLE
  5
F3
330
2
100
AcDbEntity
  8
GAIKEI
  6
HIDDEN2
 62
     1
100
AcDbCircle
 10
-33.8253471085711
 20
-4.554884485895597
 30
0.0
 40
0.1778155
  0
CIRCLE
  5
F4
330
2
100
AcDbEntity
  8
GAIKEI
  6
HIDDEN2
 62
     1
100
AcDbCircle
 10
-33.8253471085711
 20
-6.804697235895588
 30
0.0
 40
0.16708625
  0
ARC
  5
F5
330
2
100
AcDbEntity
  8
GAIKEI
  6
HIDDEN2
 62
     1
100
AcDbCircle
 10
-34.525075358571
 20
-7.526780735895641
 30
0.0
 40
0.25
100
AcDbArc
 50
326.582852999992
 51
358.9999999999982
  0
ARC
  5
F6
330
2
100
AcDbEntity
  8
GAIKEI
  6
HIDDEN2
 62
     1
100
AcDbCircle
 10
-33.12561885857118
 20
-7.526780735895641
 30
0.0
 40
0.25
100
AcDbArc
 50
181.0000000000017
 51
270.0
  0
ARC
  5
F7
330
2
100
AcDbEntity
  8
GAIKEI
  6
HIDDEN2
 62
     1
100
AcDbCircle
 10
-32.13146385857132
 20
-7.826780735895653
 30
0.0
 40
0.05
100
AcDbArc
 50
1.000000000001775
 51
90.0
  0
ARC
  5
F8
330
2
100
AcDbEntity
  8
GAIKEI
  6
HIDDEN2
 62
     1
100
AcDbCircle
 10
-34.26923010857123
 20
-7.826780735895653
 30
0.0
 40
0.05
100
AcDbArc
 50
90.0
 51
178.9999999999982
  0
ARC
  5
F9
330
2
100
AcDbEntity
  8
GAIKEI
  6
HIDDEN2
 62
     1
100
AcDbCircle
 10
-34.27245935857101
 20
-8.376780735895662
 30
0.0
 40
0.05
100
AcDbArc
 50
181.0000009999991
 51
270.0
  0
LINE
  5
FA
330
2
100
AcDbEntity
  8
GAIKEI
  6
HIDDEN2
 62
     1
100
AcDbLine
 10
-32.07763135857109
 20
-8.377653235895619
 30
0.0
 11
-32.07473610857114
 21
-8.211780735895644
 31
0.0
  0
LINE
  5
FB
330
2
100
AcDbEntity
  8
GAIKEI
  6
HIDDEN2
 62
     1
100
AcDbLine
 10
-34.27245935857101
 20
-8.426780735895619
 30
0.0
 11
-32.12762385857124
 21
-8.426780735895619
 31
0.0
  0
ARC
  5
FC
330
2
100
AcDbEntity
  8
GAIKEI
  6
HIDDEN2
 62
     1
100
AcDbCircle
 10
-32.12762385857124
 20
-8.376780735895662
 30
0.0
 40
0.05
100
AcDbArc
 50
270.0
 51
358.9999990000009
  0
LINE
  5
FD
330
2
100
AcDbEntity
  8
GAIKEI
  6
HIDDEN2
 62
     1
100
AcDbLine
 10
-34.3253471085711
 20
-8.201780735895653
 30
0.0
 11
-32.07534710857109
 21
-8.201780735895653
 31
0.0
  0
LINE
  5
FE
330
2
100
AcDbEntity
  8
GAIKEI
  6
HIDDEN2
 62
     1
100
AcDbLine
 10
-34.32245185857115
 20
-8.377653235895619
 30
0.0
 11
-34.3253471085711
 21
-8.211780735895644
 31
0.0
  0
LINE
  5
FF
330
2
100
AcDbEntity
  8
GAIKEI
  6
Continuous
 62
     1
100
AcDbLine
 10
-21.97534710857118
 20
-11.79400023589565
 30
0.0
 11
-11.47534710857118
 21
-11.79400023589565
 31
0.0
  0
LINE
  5
100
330
2
100
AcDbEntity
  8
GAIKEI
  6
Continuous
 62
     1
100
AcDbLine
 10
-21.97534710857118
 20
-11.79400023589565
 30
0.0
 11
-21.97534710857118
 21
-11.70900498589563
 31
0.0
  0
LINE
  5
101
330
2
100
AcDbEntity
  8
GAIKEI
  6
Continuous
 62
     1
100
AcDbLine
 10
-30.9553471085712
 20
-11.79400023589565
 30
0.0
 11
-30.9553471085712
 21
-11.70900498589563
 31
0.0
  0
LINE
  5
102
330
2
100
AcDbEntity
  8
GAIKEI
  6
Continuous
 62
     1
100
AcDbLine
 10
-27.9553471085712
 20
-11.79400023589565
 30
0.0
 11
-27.9553471085712
 21
-11.70900498589563
 31
0.0
  0
LINE
  5
103
330
2
100
AcDbEntity
  8
GAIKEI
  6
Continuous
 62
     1
100
AcDbLine
 10
-30.9553471085712
 20
-11.79400023589565
 30
0.0
 11
-27.9553471085712
 21
-11.79400023589565
 31
0.0
  0
LINE
  5
104
330
2
100
AcDbEntity
  8
GAIKEI
  6
Continuous
100
AcDbLine
 10
44.89007503950339
 20
-11.70900473589554
 30
0.0
 11
44.89007503950339
 21
-11.79400023589565
 31
0.0
  0
LINE
  5
105
330
2
100
AcDbEntity
  8
GAIKEI
  6
Continuous
100
AcDbLine
 10
41.89007503950338
 20
-11.70900473589554
 30
0.0
 11
41.89007503950338
 21
-11.79400023589565
 31
0.0
  0
LINE
  5
106
330
2
100
AcDbEntity
  8
GAIKEI
  6
Continuous
100
AcDbLine
 10
46.56017578950335
 20
-11.70900473589554
 30
0.0
 11
46.56017578950335
 21
-11.79400023589565
 31
0.0
  0
LINE
  5
107
330
2
100
AcDbEntity
  8
GAIKEI
  6
Continuous
100
AcDbLine
 10
33.65761603950332
 20
-11.70900473589554
 30
0.0
 11
33.65761603950332
 21
-11.79400023589565
 31
0.0
  0
LINE
  5
108
330
2
100
AcDbEntity
  8
GAIKEI
  6
Continuous
100
AcDbLine
 10
30.61017578950336
 20
-11.70900473589554
 30
0.0
 11
30.61017578950336
 21
-11.79400023589565
 31
0.0
  0
POINT
  5
109
330
2
100
AcDbEntity
  8
GAIKEI
  6
HIDDEN2
 62
     1
100
AcDbPoint
 10
-33.8253471085711
 20
-4.554884485895597
 30
0.0
  0
POINT
  5
10A
330
2
100
AcDbEntity
  8
GAIKEI
  6
HIDDEN2
 62
     1
100
AcDbPoint
 10
-33.8253471085711
 20
-6.804697235895588
 30
0.0
  0
DIMENSION
  5
10B
330
2
100
AcDbEntity
  8
SUNPO
100
AcDbDimension
  2
*D8
 10
16.33498229343887
 20
21.69099501410437
 30
0.0
 11
14.58498229343886
 21
6.440995014104373
 31
0.0
 70
    33
  1
610
 71
     5
 42
30.5
  3
STANDARD
100
AcDbAlignedDimension
 13
8.334982293438869
 23
-8.809004985895626
 33
0.0
 14
8.334982293438869
 24
21.69099501410437
 34
0.0
1001
ACAD
1000
DSTYLE
1002
{
1070
    40
1040
1.0
1070
   140
1040
2.5
1070
   147
1040
0.5
1070
   172
1070
     1
1070
   279
1070
     0
1070
   288
1070
     0
1002
}
  0
DIMENSION
  5
118
330
2
100
AcDbEntity
  8
SUNPO
100
AcDbDimension
  2
*D7
 10
8.32465289142884
 20
29.69070856975304
 30
0.0
 11
-16.72534710857115
 21
31.44070856975304
 31
0.0
 70
    33
  1
1020
 71
     5
 42
50.09999999999998
  3
STANDARD
100
AcDbAlignedDimension
 13
-41.77534710857115
 23
21.69070856975304
 33
0.0
 14
8.32465289142884
 24
21.69070856975304
 34
0.0
1001
ACAD
1000
DSTYLE
1002
{
1070
    40
1040
1.0
1070
   140
1040
2.5
1070
   147
1040
0.5
1070
   172
1070
     1
1070
   279
1070
     0
1070
   288
1070
     0
1002
}
  0
DIMENSION
  5
125
330
2
100
AcDbEntity
  8
SUNPO
100
AcDbDimension
  2
*D6
 10
42.43408447864236
 20
29.69070856975302
 30
0.0
 11
49.0174178119757
 21
31.44070856975302
 31
0.0
 70
    33
  1
89
 71
     5
 42
4.449999999999945
  3
STANDARD
100
AcDbAlignedDimension
 13
37.98408447864242
 23
21.69070856975301
 33
0.0
 14
42.43408447864236
 24
21.69070856975301
 34
0.0
1001
ACAD
1000
DSTYLE
1002
{
1070
    40
1040
1.0
1070
   140
1040
2.5
1070
   147
1040
0.5
1070
   172
1070
     1
1070
   279
1070
     0
1070
   288
1070
     0
1002
}
  0
POINT
  5
134
330
2
100
AcDbEntity
  8
GAIKEI
  6
Continuous
100
AcDbPoint
 10
40.1840844786424
 20
21.69100591410435
 30
0.0
  0
POINT
  5
135
330
2
100
AcDbEntity
  8
GAIKEI
  6
Continuous
100
AcDbPoint
 10
40.1840844786424
 20
-8.809005535895662
 30
0.0
  0
LINE
  5
136
330
2
100
AcDbEntity
  8
GAIKEI
  6
Continuous
 62
     1
100
AcDbLine
 10
42.05853277864245
 20
13.72596816410433
 30
0.0
 11
42.07751467864243
 21
13.72596816410433
 31
0.0
  0
LINE
  5
137
330
2
100
AcDbEntity
  8
GAIKEI
  6
Continuous
 62
     1
100
AcDbLine
 10
42.07342532864247
 20
14.32594381410433
 30
0.0
 11
42.04559327864244
 21
14.32594381410433
 31
0.0
  0
LINE
  5
138
330
2
100
AcDbEntity
  8
GAIKEI
  6
Continuous
 62
     1
100
AcDbLine
 10
42.05853277864245
 20
0.2909698141043293
 30
0.0
 11
42.07751467864243
 21
0.2909698141043293
 31
0.0
  0
LINE
  5
139
330
2
100
AcDbEntity
  8
GAIKEI
  6
Continuous
 62
     1
100
AcDbLine
 10
42.07928472864242
 20
0.8909454141043227
 30
0.0
 11
42.05676272864245
 21
0.8909454141043227
 31
0.0
  0
LINE
  5
13A
330
2
100
AcDbEntity
  8
GAIKEI
  6
Continuous
100
AcDbLine
 10
40.33730007864241
 20
-7.639109235895658
 30
0.0
 11
41.11345662864241
 21
-7.598432585895664
 31
0.0
  0
LINE
  5
13B
330
2
100
AcDbEntity
  8
GAIKEI
  6
Continuous
100
AcDbLine
 10
41.11345767864239
 20
-7.598374735895646
 30
0.0
 11
41.47057267864243
 21
-7.579660385895663
 31
0.0
  0
LINE
  5
13C
330
2
100
AcDbEntity
  8
GAIKEI
  6
Continuous
100
AcDbLine
 10
41.47063247864245
 20
-7.579713785895678
 30
0.0
 11
41.83847482864243
 21
-7.560435985895651
 31
0.0
  0
LINE
  5
13D
330
2
100
AcDbEntity
  8
GAIKEI
  6
Continuous
100
AcDbLine
 10
42.09906007864247
 20
-4.197189635895654
 30
0.0
 11
42.09906007864247
 21
-7.048569185895672
 31
0.0
  0
LINE
  5
13E
330
2
100
AcDbEntity
  8
GAIKEI
  6
Continuous
100
AcDbLine
 10
42.09906007864247
 20
-7.048569185895672
 30
0.0
 11
42.09906007864247
 21
-7.285812885895666
 31
0.0
  0
LINE
  5
13F
330
2
100
AcDbEntity
  8
GAIKEI
  6
Continuous
100
AcDbLine
 10
42.37408452864245
 20
-4.364303885895651
 30
0.0
 11
42.37408452864245
 21
-4.327499685895674
 31
0.0
  0
LINE
  5
140
330
2
100
AcDbEntity
  8
GAIKEI
  6
Continuous
100
AcDbLine
 10
42.37408452864245
 20
-4.327499685895674
 30
0.0
 11
42.37408452864245
 21
-4.206283885895658
 31
0.0
  0
LINE
  5
141
330
2
100
AcDbEntity
  8
GAIKEI
  6
Continuous
100
AcDbLine
 10
42.37408452864245
 20
-4.206283885895658
 30
0.0
 11
42.37408452864245
 21
-3.845932285895656
 31
0.0
  0
LINE
  5
142
330
2
100
AcDbEntity
  8
GAIKEI
  6
Continuous
100
AcDbLine
 10
42.37408452864245
 20
16.91098056410433
 30
0.0
 11
42.37408452864245
 21
-3.844711585895651
 31
0.0
  0
ARC
  5
143
330
2
100
AcDbEntity
  8
GAIKEI
  6
Continuous
100
AcDbCircle
 10
41.82403567864246
 20
-7.285812885895666
 30
0.0
 40
0.27499985
100
AcDbArc
 50
273.0000370000033
 51
0.0000359999984121
  0
ARC
  5
144
330
2
100
AcDbEntity
  8
GAIKEI
  6
Continuous
100
AcDbCircle
 10
41.59906007864246
 20
-4.630783385895653
 30
0.0
 40
0.225
100
AcDbArc
 50
115.0000400000042
 51
180.0
  0
LINE
  5
145
330
2
100
AcDbEntity
  8
GAIKEI
  6
Continuous
 62
     1
100
AcDbLine
 10
41.99584962864245
 20
13.56599501410434
 30
0.0
 11
41.98809817864246
 21
13.56599501410434
 31
0.0
  0
LINE
  5
146
330
2
100
AcDbEntity
  8
GAIKEI
  6
Continuous
 62
     1
100
AcDbLine
 10
41.98815922864246
 20
13.56599501410434
 30
0.0
 11
41.84448242864242
 21
13.56599501410434
 31
0.0
  0
LINE
  5
147
330
2
100
AcDbEntity
  8
GAIKEI
  6
Continuous
 62
     1
100
AcDbLine
 10
41.80804447864242
 20
13.56599501410434
 30
0.0
 11
41.84448242864242
 21
13.56599501410434
 31
0.0
  0
LINE
  5
148
330
2
100
AcDbEntity
  8
GAIKEI
  6
Continuous
 62
     1
100
AcDbLine
 10
41.84448242864242
 20
12.81599496410433
 30
0.0
 11
41.98815922864246
 21
12.81599496410433
 31
0.0
  0
LINE
  5
149
330
2
100
AcDbEntity
  8
GAIKEI
  6
Continuous
 62
     1
100
AcDbLine
 10
41.98809817864246
 20
12.81599496410433
 30
0.0
 11
41.99584962864245
 21
12.81599496410433
 31
0.0
  0
LINE
  5
14A
330
2
100
AcDbEntity
  8
GAIKEI
  6
Continuous
 62
     1
100
AcDbLine
 10
41.84448242864242
 20
12.81599496410433
 30
0.0
 11
41.80804447864242
 21
12.81599496410433
 31
0.0
  0
LINE
  5
14B
330
2
100
AcDbEntity
  8
GAIKEI
  6
Continuous
 62
     1
100
AcDbLine
 10
41.99584962864245
 20
0.1559600641043346
 30
0.0
 11
41.98809817864246
 21
0.1559600641043346
 31
0.0
  0
LINE
  5
14C
330
2
100
AcDbEntity
  8
GAIKEI
  6
Continuous
 62
     1
100
AcDbLine
 10
41.98815922864246
 20
0.1559600641043346
 30
0.0
 11
41.84448242864242
 21
0.1559600641043346
 31
0.0
  0
LINE
  5
14D
330
2
100
AcDbEntity
  8
GAIKEI
  6
Continuous
 62
     1
100
AcDbLine
 10
41.80804447864242
 20
0.1559600641043346
 30
0.0
 11
41.84448242864242
 21
0.1559600641043346
 31
0.0
  0
LINE
  5
14E
330
2
100
AcDbEntity
  8
GAIKEI
  6
Continuous
 62
     1
100
AcDbLine
 10
40.80407712864245
 20
19.54994311410434
 30
0.0
 11
40.80407712864245
 21
15.46290676410436
 31
0.0
  0
LINE
  5
14F
330
2
100
AcDbEntity
  8
GAIKEI
  6
Continuous
 62
     1
100
AcDbLine
 10
40.80407712864245
 20
19.76747256410433
 30
0.0
 11
40.80407712864245
 21
19.54994311410434
 31
0.0
  0
LINE
  5
150
330
2
100
AcDbEntity
  8
GAIKEI
  6
Continuous
100
AcDbLine
 10
41.80799672864241
 20
20.25077096410433
 30
0.0
 11
41.18029627864244
 21
20.38419281410435
 31
0.0
  0
LINE
  5
151
330
2
100
AcDbEntity
  8
GAIKEI
  6
Continuous
100
AcDbLine
 10
41.18027612864243
 20
20.38422066410433
 30
0.0
 11
40.38821807864245
 21
20.55257961410433
 31
0.0
  0
LINE
  5
152
330
2
100
AcDbEntity
  8
GAIKEI
  6
Continuous
100
AcDbLine
 10
40.38817812864242
 20
20.55256266410433
 30
0.0
 11
40.30226782864246
 21
20.57082346410433
 31
0.0
  0
LINE
  5
153
330
2
100
AcDbEntity
  8
GAIKEI
  6
Continuous
100
AcDbLine
 10
42.21530117864243
 20
-4.095176335895671
 30
0.0
 11
41.80700902864241
 21
-4.285566085895651
 31
0.0
  0
LINE
  5
154
330
2
100
AcDbEntity
  8
GAIKEI
  6
Continuous
100
AcDbLine
 10
41.80699772864243
 20
-4.285576585895653
 30
0.0
 11
41.50397317864245
 21
-4.426879285895664
 31
0.0
  0
LINE
  5
155
330
2
100
AcDbEntity
  8
GAIKEI
  6
Continuous
 62
     1
100
AcDbLine
 10
41.84448242864242
 20
-0.5940399858956483
 30
0.0
 11
41.98815922864246
 21
-0.5940399858956483
 31
0.0
  0
LINE
  5
156
330
2
100
AcDbEntity
  8
GAIKEI
  6
Continuous
 62
     1
100
AcDbLine
 10
41.98809817864246
 20
-0.5940399858956483
 30
0.0
 11
41.99584962864245
 21
-0.5940399858956483
 31
0.0
  0
LINE
  5
157
330
2
100
AcDbEntity
  8
GAIKEI
  6
Continuous
 62
     1
100
AcDbLine
 10
41.84448242864242
 20
-0.5940399858956483
 30
0.0
 11
41.80804447864242
 21
-0.5940399858956483
 31
0.0
  0
LINE
  5
158
330
2
100
AcDbEntity
  8
GAIKEI
  6
Continuous
100
AcDbLine
 10
42.03062022864246
 20
19.96731356410433
 30
0.0
 11
42.02320567864243
 21
20.02007081410434
 31
0.0
  0
ARC
  5
159
330
2
100
AcDbEntity
  8
GAIKEI
  6
Continuous
 62
     1
100
AcDbCircle
 10
41.26544187864242
 20
-5.434006085895673
 30
0.0
 40
0.28861095
100
AcDbArc
 50
295.2165659999991
 51
64.78345099999656
  0
LINE
  5
15A
330
2
100
AcDbEntity
  8
GAIKEI
  6
Continuous
 62
     1
100
AcDbLine
 10
41.37408447864241
 20
-4.630783385895653
 30
0.0
 11
41.37408447864241
 21
-6.58091778589565
 31
0.0
  0
LINE
  5
15B
330
2
100
AcDbEntity
  8
GAIKEI
  6
Continuous
 62
     1
100
AcDbLine
 10
41.37408447864241
 20
-6.58091778589565
 30
0.0
 11
41.37408447864241
 21
-7.323776735895678
 31
0.0
  0
LINE
  5
15C
330
2
100
AcDbEntity
  8
GAIKEI
  6
Continuous
100
AcDbLine
 10
42.09907832864245
 20
-4.649002135895641
 30
0.0
 11
42.11487837864243
 21
-4.644768485895638
 31
0.0
  0
LINE
  5
15D
330
2
100
AcDbEntity
  8
GAIKEI
  6
Continuous
100
AcDbLine
 10
42.11480832864245
 20
-4.644777685895661
 30
0.0
 11
42.17022642864246
 21
-4.629928435895664
 31
0.0
  0
LINE
  5
15E
330
2
100
AcDbEntity
  8
GAIKEI
  6
Continuous
 62
     1
100
AcDbLine
 10
42.05853277864245
 20
13.87599261410435
 30
0.0
 11
42.05853277864245
 21
13.72596816410433
 31
0.0
  0
LINE
  5
15F
330
2
100
AcDbEntity
  8
GAIKEI
  6
Continuous
 62
     1
100
AcDbLine
 10
42.05679572864243
 20
13.97594201410433
 30
0.0
 11
42.05855182864246
 21
13.87598186410434
 31
0.0
  0
LINE
  5
160
330
2
100
AcDbEntity
  8
GAIKEI
  6
Continuous
 62
     1
100
AcDbLine
 10
42.05676272864245
 20
14.21724016410434
 30
0.0
 11
42.05676272864245
 21
13.97596821410434
 31
0.0
  0
LINE
  5
161
330
2
100
AcDbEntity
  8
GAIKEI
  6
Continuous
 62
     1
100
AcDbLine
 10
42.07928472864242
 20
13.97596821410434
 30
0.0
 11
42.07928472864242
 21
14.24690326410433
 31
0.0
  0
LINE
  5
162
330
2
100
AcDbEntity
  8
GAIKEI
  6
Continuous
 62
     1
100
AcDbLine
 10
42.05676272864245
 20
13.97596821410434
 30
0.0
 11
42.07928472864242
 21
13.97596821410434
 31
0.0
  0
LINE
  5
163
330
2
100
AcDbEntity
  8
GAIKEI
  6
Continuous
 62
     1
100
AcDbLine
 10
42.07751427864245
 20
13.87598841410434
 30
0.0
 11
42.07927032864243
 21
13.97594856410435
 31
0.0
  0
LINE
  5
164
330
2
100
AcDbEntity
  8
GAIKEI
  6
Continuous
100
AcDbLine
 10
42.05853277864245
 20
13.87599261410435
 30
0.0
 11
42.07751467864243
 21
13.87599261410435
 31
0.0
  0
LINE
  5
165
330
2
100
AcDbEntity
  8
GAIKEI
  6
Continuous
 62
     1
100
AcDbLine
 10
42.07751467864243
 20
13.72596816410433
 30
0.0
 11
42.07751467864243
 21
13.87599261410435
 31
0.0
  0
LINE
  5
166
330
2
100
AcDbEntity
  8
GAIKEI
  6
Continuous
 62
     1
100
AcDbLine
 10
42.05853277864245
 20
0.4409942641043473
 30
0.0
 11
42.05853277864245
 21
0.2909698141043293
 31
0.0
  0
LINE
  5
167
330
2
100
AcDbEntity
  8
GAIKEI
  6
Continuous
 62
     1
100
AcDbLine
 10
42.05675702864242
 20
0.5409452641043515
 30
0.0
 11
42.05851312864243
 21
0.4409850641043535
 31
0.0
  0
LINE
  5
168
330
2
100
AcDbEntity
  8
GAIKEI
  6
Continuous
 62
     1
100
AcDbLine
 10
42.05676272864245
 20
0.8909454141043227
 30
0.0
 11
42.05676272864245
 21
0.5409698141043294
 31
0.0
  0
LINE
  5
169
330
2
100
AcDbEntity
  8
GAIKEI
  6
Continuous
 62
     1
100
AcDbLine
 10
42.07928472864242
 20
0.5409698141043294
 30
0.0
 11
42.07928472864242
 21
0.8909454141043227
 31
0.0
  0
LINE
  5
16A
330
2
100
AcDbEntity
  8
GAIKEI
  6
Continuous
 62
     1
100
AcDbLine
 10
42.05676272864245
 20
0.5409698141043294
 30
0.0
 11
42.07928472864242
 21
0.5409698141043294
 31
0.0
  0
LINE
  5
16B
330
2
100
AcDbEntity
  8
GAIKEI
  6
Continuous
 62
     1
100
AcDbLine
 10
42.07749192864246
 20
0.4409927141043398
 30
0.0
 11
42.07924802864241
 21
0.5409528641043551
 31
0.0
  0
LINE
  5
16C
330
2
100
AcDbEntity
  8
GAIKEI
  6
Continuous
 62
     1
100
AcDbLine
 10
42.05853277864245
 20
0.4409942641043473
 30
0.0
 11
42.07751467864243
 21
0.4409942641043473
 31
0.0
  0
LINE
  5
16D
330
2
100
AcDbEntity
  8
GAIKEI
  6
Continuous
 62
     1
100
AcDbLine
 10
42.07751467864243
 20
0.2909698141043293
 30
0.0
 11
42.07751467864243
 21
0.4409942641043473
 31
0.0
  0
LINE
  5
16E
330
2
100
AcDbEntity
  8
GAIKEI
  6
Continuous
 62
     1
100
AcDbLine
 10
42.04752402864243
 20
14.20505906410435
 30
0.0
 11
42.05676467864241
 21
14.21725426410435
 31
0.0
  0
LINE
  5
16F
330
2
100
AcDbEntity
  8
GAIKEI
  6
Continuous
 62
     1
100
AcDbLine
 10
42.07925007864246
 20
14.24692901410432
 30
0.0
 11
42.14120457864241
 21
14.32869261410434
 31
0.0
  0
LINE
  5
170
330
2
100
AcDbEntity
  8
GAIKEI
  6
Continuous
 62
     1
100
AcDbLine
 10
42.02319337864246
 20
-3.756698885895644
 30
0.0
 11
42.02319337864246
 21
-0.5917206858956661
 31
0.0
  0
LINE
  5
171
330
2
100
AcDbEntity
  8
GAIKEI
  6
Continuous
 62
     1
100
AcDbLine
 10
42.02319337864246
 20
-0.5917206858956661
 30
0.0
 11
42.07055667864243
 21
-0.5917206858956661
 31
0.0
  0
LINE
  5
172
330
2
100
AcDbEntity
  8
GAIKEI
  6
Continuous
 62
     1
100
AcDbLine
 10
42.07055667864243
 20
0.1536407141043412
 30
0.0
 11
42.02319337864246
 21
0.1536407141043412
 31
0.0
  0
LINE
  5
173
330
2
100
AcDbEntity
  8
GAIKEI
  6
Continuous
 62
     1
100
AcDbLine
 10
42.02319337864246
 20
0.1536407141043412
 30
0.0
 11
42.02319337864246
 21
12.81825326410436
 31
0.0
  0
LINE
  5
174
330
2
100
AcDbEntity
  8
GAIKEI
  6
Continuous
 62
     1
100
AcDbLine
 10
42.02319337864246
 20
12.81825326410436
 30
0.0
 11
42.07055667864243
 21
12.81825326410436
 31
0.0
  0
LINE
  5
175
330
2
100
AcDbEntity
  8
GAIKEI
  6
Continuous
 62
     1
100
AcDbLine
 10
42.07055667864243
 20
13.56367566410435
 30
0.0
 11
42.02319337864246
 21
13.56367566410435
 31
0.0
  0
LINE
  5
176
330
2
100
AcDbEntity
  8
GAIKEI
  6
Continuous
 62
     1
100
AcDbLine
 10
42.02319337864246
 20
13.56367566410435
 30
0.0
 11
42.02319337864246
 21
14.11592181410432
 31
0.0
  0
LINE
  5
177
330
2
100
AcDbEntity
  8
GAIKEI
  6
Continuous
 62
     1
100
AcDbLine
 10
42.14239507864242
 20
-4.209213535895655
 30
0.0
 11
42.14239507864242
 21
-4.482406935895653
 31
0.0
  0
LINE
  5
178
330
2
100
AcDbEntity
  8
GAIKEI
  6
Continuous
 62
     1
100
AcDbLine
 10
41.18029782864242
 20
19.38160816410433
 30
0.0
 11
41.18029782864242
 21
15.60438626410433
 31
0.0
  0
LINE
  5
179
330
2
100
AcDbEntity
  8
GAIKEI
  6
Continuous
 62
     1
100
AcDbLine
 10
41.18029782864242
 20
15.60438626410433
 30
0.0
 11
40.80407712864245
 21
15.60438626410433
 31
0.0
  0
LINE
  5
17A
330
2
100
AcDbEntity
  8
GAIKEI
  6
Continuous
 62
     1
100
AcDbLine
 10
41.04766842864242
 20
15.03114401410434
 30
0.0
 11
41.04766842864242
 21
15.20356836410434
 31
0.0
  0
LINE
  5
17B
330
2
100
AcDbEntity
  8
GAIKEI
  6
Continuous
 62
     1
100
AcDbLine
 10
41.04766242864245
 20
15.20356896410433
 30
0.0
 11
41.58828492864244
 21
14.92207826410433
 31
0.0
  0
LINE
  5
17C
330
2
100
AcDbEntity
  8
GAIKEI
  6
Continuous
 62
     1
100
AcDbLine
 10
41.18031942864244
 20
15.60438316410435
 30
0.0
 11
41.64858772864241
 21
15.36056576410433
 31
0.0
  0
LINE
  5
17D
330
2
100
AcDbEntity
  8
GAIKEI
  6
Continuous
 62
     1
100
AcDbLine
 10
41.62583102864242
 20
19.28686881410434
 30
0.0
 11
41.18027487864245
 21
19.38157466410433
 31
0.0
  0
LINE
  5
17E
330
2
100
AcDbEntity
  8
GAIKEI
  6
Continuous
100
AcDbLine
 10
41.83099367864246
 20
16.68691761410434
 30
0.0
 11
41.83099367864246
 21
17.79504301410435
 31
0.0
  0
LINE
  5
17F
330
2
100
AcDbEntity
  8
GAIKEI
  6
Continuous
 62
     1
100
AcDbLine
 10
41.68322757864244
 20
-7.048569185895672
 30
0.0
 11
41.68322757864244
 21
-4.51286348589565
 31
0.0
  0
LINE
  5
180
330
2
100
AcDbEntity
  8
GAIKEI
  6
Continuous
 62
     1
100
AcDbLine
 10
41.15624997864244
 20
-4.630783385895653
 30
0.0
 11
41.37408447864241
 21
-4.630783385895653
 31
0.0
  0
LINE
  5
181
330
2
100
AcDbEntity
  8
GAIKEI
  6
Continuous
 62
     1
100
AcDbLine
 10
41.15624997864244
 20
-4.630783385895653
 30
0.0
 11
41.15624997864244
 21
-6.58091778589565
 31
0.0
  0
LINE
  5
182
330
2
100
AcDbEntity
  8
GAIKEI
  6
Continuous
 62
     1
100
AcDbLine
 10
41.15627227864243
 20
-6.580942335895656
 30
0.0
 11
40.30228062864242
 21
-6.625698135895646
 31
0.0
  0
LINE
  5
183
330
2
100
AcDbEntity
  8
GAIKEI
  6
Continuous
 62
     1
100
AcDbLine
 10
41.55231447864244
 20
-7.055433285895644
 30
0.0
 11
41.68323832864245
 21
-7.04857183589567
 31
0.0
  0
LINE
  5
184
330
2
100
AcDbEntity
  8
GAIKEI
  6
Continuous
 62
     1
100
AcDbLine
 10
41.55230712864241
 20
-4.619064635895653
 30
0.0
 11
41.55230712864241
 21
-5.406357185895643
 31
0.0
  0
LINE
  5
185
330
2
100
AcDbEntity
  8
GAIKEI
  6
Continuous
 62
     1
100
AcDbLine
 10
41.55230712864241
 20
-5.462997835895663
 30
0.0
 11
41.55230712864241
 21
-7.055405135895652
 31
0.0
  0
LINE
  5
186
330
2
100
AcDbEntity
  8
GAIKEI
  6
Continuous
 62
     1
100
AcDbLine
 10
42.10522462864246
 20
-0.5440521858956516
 30
0.0
 11
42.05963137864244
 21
-0.5440521858956516
 31
0.0
  0
LINE
  5
187
330
2
100
AcDbEntity
  8
GAIKEI
  6
Continuous
 62
     1
100
AcDbLine
 10
41.84448242864242
 20
0.1559600641043346
 30
0.0
 11
41.84448242864242
 21
-0.5940399858956483
 31
0.0
  0
LINE
  5
188
330
2
100
AcDbEntity
  8
GAIKEI
  6
Continuous
 62
     1
100
AcDbLine
 10
42.05963137864244
 20
-0.5440521858956516
 30
0.0
 11
42.05963137864244
 21
0.1059722641043379
 31
0.0
  0
LINE
  5
189
330
2
100
AcDbEntity
  8
GAIKEI
  6
Continuous
 62
     1
100
AcDbLine
 10
42.05963137864244
 20
0.1059722641043379
 30
0.0
 11
42.10522462864246
 21
0.1059722641043379
 31
0.0
  0
LINE
  5
18A
330
2
100
AcDbEntity
  8
GAIKEI
  6
Continuous
 62
     1
100
AcDbLine
 10
42.05963137864244
 20
13.51594621410433
 30
0.0
 11
42.10522462864246
 21
13.51594621410433
 31
0.0
  0
LINE
  5
18B
330
2
100
AcDbEntity
  8
GAIKEI
  6
Continuous
 62
     1
100
AcDbLine
 10
42.10522462864246
 20
12.86598276410436
 30
0.0
 11
42.05963137864244
 21
12.86598276410436
 31
0.0
  0
LINE
  5
18C
330
2
100
AcDbEntity
  8
GAIKEI
  6
Continuous
 62
     1
100
AcDbLine
 10
41.80804447864242
 20
14.11592181410432
 30
0.0
 11
41.80804447864242
 21
13.56599501410434
 31
0.0
  0
LINE
  5
18D
330
2
100
AcDbEntity
  8
GAIKEI
  6
Continuous
 62
     1
100
AcDbLine
 10
41.80804447864242
 20
12.81599496410433
 30
0.0
 11
41.80804447864242
 21
0.1559600641043346
 31
0.0
  0
LINE
  5
18E
330
2
100
AcDbEntity
  8
GAIKEI
  6
Continuous
 62
     1
100
AcDbLine
 10
41.80804447864242
 20
-0.5940399858956483
 30
0.0
 11
41.80804447864242
 21
-3.756698885895644
 31
0.0
  0
LINE
  5
18F
330
2
100
AcDbEntity
  8
GAIKEI
  6
Continuous
 62
     1
100
AcDbLine
 10
41.84448242864242
 20
13.56599501410434
 30
0.0
 11
41.84448242864242
 21
12.81599496410433
 31
0.0
  0
LINE
  5
190
330
2
100
AcDbEntity
  8
GAIKEI
  6
Continuous
 62
     1
100
AcDbLine
 10
42.05963137864244
 20
12.86598276410436
 30
0.0
 11
42.05963137864244
 21
13.51594621410433
 31
0.0
  0
LINE
  5
191
330
2
100
AcDbEntity
  8
GAIKEI
  6
Continuous
 62
     1
100
AcDbLine
 10
41.80801282864243
 20
-3.756715585895647
 30
0.0
 11
41.39125722864245
 21
-3.951051885895651
 31
0.0
  0
LINE
  5
192
330
2
100
AcDbEntity
  8
GAIKEI
  6
Continuous
 62
     1
100
AcDbLine
 10
41.53076802864243
 20
14.26026966410435
 30
0.0
 11
41.80804987864244
 21
14.11589486410434
 31
0.0
  0
LINE
  5
193
330
2
100
AcDbEntity
  8
GAIKEI
  6
Continuous
 62
     1
100
AcDbLine
 10
40.80407712864245
 20
15.46290676410436
 30
0.0
 11
40.62408452864246
 21
15.46290676410436
 31
0.0
  0
LINE
  5
194
330
2
100
AcDbEntity
  8
GAIKEI
  6
Continuous
 62
     1
100
AcDbLine
 10
41.53495427864242
 20
14.77743521410434
 30
0.0
 11
41.04763207864242
 21
15.03117361410434
 31
0.0
  0
LINE
  5
195
330
2
100
AcDbEntity
  8
GAIKEI
  6
Continuous
 62
     1
100
AcDbLine
 10
42.24176032864241
 20
15.26558006410434
 30
0.0
 11
42.14780157864246
 21
15.26558006410434
 31
0.0
  0
LINE
  5
196
330
2
100
AcDbEntity
  8
GAIKEI
  6
Continuous
 62
     1
100
AcDbLine
 10
40.30230707864244
 20
-6.625656585895653
 30
0.0
 11
40.1840844786424
 21
-6.625656585895653
 31
0.0
  0
LINE
  5
197
330
2
100
AcDbEntity
  8
GAIKEI
  6
Continuous
 62
     1
100
AcDbLine
 10
42.21527102864246
 20
-4.327499685895674
 30
0.0
 11
42.21527102864246
 21
-4.206283885895658
 31
0.0
  0
LINE
  5
198
330
2
100
AcDbEntity
  8
GAIKEI
  6
Continuous
 62
     1
100
AcDbLine
 10
42.21530277864245
 20
-4.206288685895656
 30
0.0
 11
42.14236417864245
 21
-4.20923423589565
 31
0.0
  0
LINE
  5
199
330
2
100
AcDbEntity
  8
GAIKEI
  6
Continuous
 62
     1
100
AcDbLine
 10
42.21527102864246
 20
-4.206283885895658
 30
0.0
 11
42.37408452864245
 21
-4.206283885895658
 31
0.0
  0
ELLIPSE
  5
19A
330
2
100
AcDbEntity
  8
GAIKEI
  6
Continuous
 62
     1
100
AcDbEllipse
 10
42.10620122864246
 20
-0.2190399858956482
 30
0.0
 11
0.0
 21
-0.2050000104308133
 31
0.0
210
0.0
220
0.0
230
0.9999999999999998
 40
0.140541
 41
0.0
 42
6.283185307179584
  0
ELLIPSE
  5
19B
330
2
100
AcDbEntity
  8
GAIKEI
  6
Continuous
 62
     1
100
AcDbEllipse
 10
42.10620122864246
 20
13.19099501410434
 30
0.0
 11
0.0
 21
-0.2050000104308133
 31
0.0
210
0.0
220
0.0
230
0.9999999999999998
 40
0.140541
 41
0.0
 42
6.283185307179584
  0
SPLINE
  5
19C
330
2
100
AcDbEntity
  8
GAIKEI
  6
Continuous
100
AcDbSpline
210
0.0
220
0.0
230
1.0
 70
     8
 71
     3
 72
     9
 73
     5
 74
     3
 42
0.0000000001
 43
0.0000000001
 44
0.000001
 12
0.684675086744087
 22
0.7288484242913455
 32
0.0
 13
0.9986280087922196
 23
0.0523650652218333
 33
0.0
 40
0.0
 40
0.0
 40
0.0
 40
0.0
 40
0.0886730334945953
 40
0.1722719318335454
 40
0.1722719318335454
 40
0.1722719318335454
 40
0.1722719318335454
 10
40.18408449908661
 20
-7.711074722779102
 30
0.0
 10
40.20432190471987
 20
-7.689531655865879
 30
0.0
 10
40.25243369600921
 20
-7.655381655154982
 30
0.0
 10
40.30945214507449
 20
-7.640543587446295
 30
0.0
 10
40.33728021220297
 20
-7.639084366858297
 30
0.0
 11
40.18408449908661
 21
-7.711074722779102
 31
0.0
 11
40.25621008945437
 21
-7.659493258391277
 31
0.0
 11
40.33728021220297
 21
-7.639084366858297
 31
0.0
  0
SPLINE
  5
19D
330
2
100
AcDbEntity
  8
GAIKEI
  6
Continuous
100
AcDbSpline
210
0.0
220
0.0
230
1.0
 70
     8
 71
     3
 72
    11
 73
     7
 74
     5
 42
0.0000000001
 43
0.0000000001
 44
0.000001
 12
0.6795671808267718
 22
0.7336132814658919
 32
0.0
 13
0.9986295107058266
 23
0.0523364151183627
 33
0.0
 40
0.0
 40
0.0
 40
0.0
 40
0.0
 40
0.0012914770037952
 40
0.0025846277514354
 40
0.0904969255271001
 40
0.1722457679364441
 40
0.1722457679364441
 40
0.1722457679364441
 40
0.1722457679364441
 10
40.18408449908661
 20
-7.710732733805911
 30
0.0
 10
40.18437704754879
 20
-7.71041691891168
 30
0.0
 10
40.18496448879226
 20
-7.709786678587793
 30
0.0
 10
40.20566728473899
 20
-7.687848460880476
 30
0.0
 10
40.25385324128253
 20
-7.65442780341391
 30
0.0
 10
40.31006794337097
 20
-7.640510513975558
 30
0.0
 10
40.33728021220297
 20
-7.639084366858297
 30
0.0
 11
40.18408449908661
 21
-7.710732733805911
 31
0.0
 11
40.18496491088597
 21
-7.709788011916231
 31
0.0
 11
40.18585198052089
 21
-7.708847554610258
 31
0.0
 11
40.25784464755354
 21
-7.658390750203466
 31
0.0
 11
40.33728021220297
 21
-7.639084366858297
 31
0.0
  0
SPLINE
  5
19E
330
2
100
AcDbEntity
  8
GAIKEI
  6
Continuous
100
AcDbSpline
210
0.0
220
0.0
230
1.0
 70
     8
 71
     3
 72
     9
 73
     5
 74
     3
 42
0.0000000001
 43
0.0000000001
 44
0.000001
 12
-0.0083024321297457
 22
0.9999655342164203
 32
0.0
 13
0.0082086445030465
 23
0.9999663085101532
 33
0.0
 40
0.0
 40
0.0
 40
0.0
 40
0.0
 40
0.0006085849801445
 40
0.0012207135976186
 40
0.0012207135976186
 40
0.0012207135976186
 40
0.0012207135976186
 10
42.37408453282471
 20
-3.845932285300051
 30
0.0
 10
42.37408284857955
 20
-3.845729430631788
 30
0.0
 10
42.37408117355143
 20
-3.84532252426888
 30
0.0
 10
42.3740828579093
 20
-3.844915618100273
 30
0.0
 10
42.37408453282471
 20
-3.844711582102291
 30
0.0
 11
42.37408453282471
 21
-3.845932285300051
 31
0.0
 11
42.37408195698871
 21
-3.845323705426038
 31
0.0
 11
42.37408453282471
 21
-3.844711582102291
 31
0.0
  0
SPLINE
  5
19F
330
2
100
AcDbEntity
  8
GAIKEI
  6
Continuous
100
AcDbSpline
210
0.0
220
0.0
230
1.0
 70
     8
 71
     3
 72
     9
 73
     5
 74
     3
 42
0.0000000001
 43
0.0000000001
 44
0.000001
 12
-0.718003555664965
 22
0.6960394342653782
 32
0.0
 13
-0.9781988621469723
 23
0.2076703784711929
 33
0.0
 40
0.0
 40
0.0
 40
0.0
 40
0.0
 40
0.1541666528041535
 40
0.2933013943581267
 40
0.2933013943581267
 40
0.2933013943581267
 40
0.2933013943581267
 10
40.64459224223893
 20
20.41584894597105
 30
0.0
 10
40.60769484061282
 20
20.45161763590451
 30
0.0
 10
40.52664393652135
 20
20.50909358685429
 30
0.0
 10
40.43361171933383
 20
20.54293631597445
 30
0.0
 10
40.38824457070943
 20
20.55256770412012
 30
0.0
 11
40.64459224223893
 21
20.41584894597105
 31
0.0
 11
40.51917918947656
 21
20.50550904264085
 31
0.0
 11
40.38824457070943
 21
20.55256770412012
 31
0.0
  0
SPLINE
  5
1A0
330
2
100
AcDbEntity
  8
GAIKEI
  6
Continuous
 62
     1
100
AcDbSpline
210
0.0
220
0.0
230
1.0
 70
     8
 71
     3
 72
     9
 73
     5
 74
     3
 42
0.0000000001
 43
0.0000000001
 44
0.000001
 12
-0.4031347934464675
 22
-0.9151406112247856
 32
0.0
 13
-0.9986239382571366
 23
-0.0524426347527165
 33
0.0
 40
0.0
 40
0.0
 40
0.0
 40
0.0
 40
0.1580103630845723
 40
0.2974965161849101
 40
0.2974965161849101
 40
0.2974965161849101
 40
0.2974965161849101
 10
41.35034179602364
 20
-7.435532108631888
 30
0.0
 10
41.32910863766214
 20
-7.48373267538291
 30
0.0
 10
41.25736736159995
 20
-7.560977843202766
 30
0.0
 10
41.15989574434552
 20
-7.595996609912869
 30
0.0
 10
41.11346434049838
 20
-7.598434950372903
 30
0.0
 11
41.35034179602364
 21
-7.435532108631888
 31
0.0
 11
41.24564088730607
 21
-7.553874832165347
 31
0.0
 11
41.11346434049838
 21
-7.598434950372903
 31
0.0
  0
SPLINE
  5
1A1
330
2
100
AcDbEntity
  8
GAIKEI
  6
Continuous
100
AcDbSpline
210
0.0
220
0.0
230
1.0
 70
     8
 71
     3
 72
     9
 73
     5
 74
     3
 42
0.0000000001
 43
0.0000000001
 44
0.000001
 12
0.9780744726698765
 22
-0.2082554342905432
 32
0.0
 13
0.9656791930172921
 23
-0.2597377449918885
 33
0.0
 40
0.0
 40
0.0
 40
0.0
 40
0.0
 40
0.0073284994669881
 40
0.0148055604791933
 40
0.0148055604791933
 40
0.0148055604791933
 40
0.0148055604791933
 10
41.80804446002359
 20
20.25074883847407
 30
0.0
 10
41.81043373277414
 20
20.25024010519434
 30
0.0
 10
41.81525242181296
 20
20.24917260130482
 30
0.0
 10
41.82004194367568
 20
20.2479782278425
 30
0.0
 10
41.82244875775714
 20
20.24733086952034
 30
0.0
 11
41.80804446002359
 21
20.25074883847407
 31
0.0
 11
41.81519671176707
 21
20.2491527448519
 31
0.0
 11
41.82244875775714
 21
20.24733086952034
 31
0.0
  0
SPLINE
  5
1A2
330
2
100
AcDbEntity
  8
GAIKEI
  6
Continuous
100
AcDbSpline
210
0.0
220
0.0
230
1.0
 70
     8
 71
     3
 72
     9
 73
     5
 74
     3
 42
0.0000000001
 43
0.0000000001
 44
0.000001
 12
0.9653983653387442
 22
-0.2607795931457843
 32
0.0
 13
0.7762688479035695
 23
-0.6304019953763352
 33
0.0
 40
0.0
 40
0.0
 40
0.0
 40
0.0
 40
0.0544112516253541
 40
0.1148354607441887
 40
0.1148354607441887
 40
0.1148354607441887
 40
0.1148354607441887
 10
41.82244875775714
 20
20.24733086952034
 30
0.0
 10
41.8399582688822
 20
20.24260108816653
 30
0.0
 10
41.87600633755272
 20
20.22893896722453
 30
0.0
 10
41.9084981903978
 20
20.20802609396163
 30
0.0
 10
41.92413333413052
 20
20.19532891329578
 30
0.0
 11
41.82244875775714
 21
20.24733086952034
 31
0.0
 11
41.87332060798683
 21
20.22802749065204
 31
0.0
 11
41.92413333413052
 21
20.19532891329578
 31
0.0
  0
SPLINE
  5
1A3
330
2
100
AcDbEntity
  8
GAIKEI
  6
Continuous
100
AcDbSpline
210
0.0
220
0.0
230
1.0
 70
     8
 71
     3
 72
     9
 73
     5
 74
     3
 42
0.0000000001
 43
0.0000000001
 44
0.000001
 12
0.7367973998811618
 22
-0.6761135936574263
 32
0.0
 13
0.5761966598679106
 23
-0.8173110846899504
 33
0.0
 40
0.0
 40
0.0
 40
0.0
 40
0.0
 40
0.0301178273881324
 40
0.0584659077415136
 40
0.0584659077415136
 40
0.0584659077415136
 40
0.0584659077415136
 10
41.93676761222734
 20
20.18440361967583
 30
0.0
 10
41.94416452453055
 20
20.17761592883965
 30
0.0
 10
41.95782197919783
 20
20.16365091038418
 30
0.0
 10
41.96989714353877
 20
20.14830344164377
 30
0.0
 10
41.97534183327653
 20
20.14058037487627
 30
0.0
 11
41.93676761222734
 21
20.18440361967583
 31
0.0
 11
41.95781621892403
 21
20.16286203969668
 31
0.0
 11
41.97534183327653
 21
20.14058037487627
 31
0.0
  0
SPLINE
  5
1A4
330
2
100
AcDbEntity
  8
GAIKEI
  6
Continuous
100
AcDbSpline
210
0.0
220
0.0
230
1.0
 70
     8
 71
     3
 72
     9
 73
     5
 74
     3
 42
0.0000000001
 43
0.0000000001
 44
0.000001
 12
0.5770979100858435
 22
-0.816674967275569
 32
0.0
 13
0.1391936939879922
 23
-0.9902651743618864
 33
0.0
 40
0.0
 40
0.0
 40
0.0
 40
0.0
 40
0.0725628913700613
 40
0.130586079143708
 40
0.130586079143708
 40
0.130586079143708
 40
0.130586079143708
 10
41.97534183327653
 20
20.14058037487627
 30
0.0
 10
41.98930046426301
 20
20.12082694256458
 30
0.0
 10
42.00968849924199
 20
20.0816966211331
 30
0.0
 10
42.02050124468098
 20
20.03918871481674
 30
0.0
 10
42.02319339862871
 20
20.02003593409751
 30
0.0
 11
41.97534183327653
 21
20.14058037487627
 31
0.0
 11
42.00900141533007
 21
20.07629605198656
 31
0.0
 11
42.02319339862871
 21
20.02003593409751
 31
0.0
  0
SPLINE
  5
1A5
330
2
100
AcDbEntity
  8
GAIKEI
  6
Continuous
100
AcDbSpline
210
0.0
220
0.0
230
1.0
 70
     8
 71
     3
 72
     9
 73
     5
 74
     3
 42
0.0000000001
 43
0.0000000001
 44
0.000001
 12
0.6698986207304117
 22
-0.7424525829596745
 32
0.0
 13
0.978147580946624
 23
-0.2079117839091086
 33
0.0
 40
0.0
 40
0.0
 40
0.0
 40
0.0
 40
0.0695597461715197
 40
0.1390132460895057
 40
0.1390132460895057
 40
0.1390132460895057
 40
0.1390132460895057
 10
40.18408449908661
 20
20.64068009101157
 30
0.0
 10
40.19961715842616
 20
20.62346515327321
 30
0.0
 10
40.23578592246117
 20
20.59332106770057
 30
0.0
 10
40.2796618079428
 20
20.57563061728219
 30
0.0
 10
40.30230706558715
 20
20.57081721692663
 30
0.0
 11
40.18408449908661
 21
20.64068009101157
 31
0.0
 11
40.23774229962797
 21
20.59641607991736
 31
0.0
 11
40.30230706558715
 21
20.57081721692663
 31
0.0
  0
SPLINE
  5
1A6
330
2
100
AcDbEntity
  8
GAIKEI
  6
Continuous
100
AcDbSpline
210
0.0
220
0.0
230
1.0
 70
     8
 71
     3
 72
     9
 73
     5
 74
     3
 42
0.0000000001
 43
0.0000000001
 44
0.000001
 12
0.0000000268429086
 22
0.9999999999999998
 32
0.0
 13
0.5092546093492742
 23
0.8606159090189528
 33
0.0
 40
0.0
 40
0.0
 40
0.0
 40
0.0
 40
0.0196586702455871
 40
0.0401001248289793
 40
0.0401001248289793
 40
0.0401001248289793
 40
0.0401001248289793
 10
42.09906010236948
 20
-4.197189630455368
 30
0.0
 10
42.09906010254537
 20
-4.190636740373506
 30
0.0
 10
42.10096354590936
 20
-4.17723597638589
 30
0.0
 10
42.10614921670729
 20
-4.164723630385037
 30
0.0
 10
42.10961918503008
 20
-4.158859550045718
 30
0.0
 11
42.09906010236948
 21
-4.197189630455368
 31
0.0
 11
42.10171620669835
 21
-4.177711267240738
 31
0.0
 11
42.10961918503008
 21
-4.158859550045718
 31
0.0
  0
SPLINE
  5
1A7
330
2
100
AcDbEntity
  8
GAIKEI
  6
Continuous
100
AcDbSpline
210
0.0
220
0.0
230
1.0
 70
     8
 71
     3
 72
     9
 73
     5
 74
     3
 42
0.0000000001
 43
0.0000000001
 44
0.000001
 12
0.5699514274070385
 22
0.8216783862294782
 32
0.0
 13
0.9063077132477696
 23
0.4226184199814281
 33
0.0
 40
0.0
 40
0.0
 40
0.0
 40
0.0
 40
0.0202085111664509
 40
0.0396555940045435
 40
0.0396555940045435
 40
0.0396555940045435
 40
0.0396555940045435
 10
42.11236576722504
 20
-4.15458708885356
 30
0.0
 10
42.1162050571534
 20
-4.14905212323911
 30
0.0
 10
42.12529470922527
 20
-4.139219668137189
 30
0.0
 10
42.13652005216449
 20
-4.131936027480922
 30
0.0
 10
42.14239506588993
 20
-4.129196462340161
 30
0.0
 11
42.11236576722504
 21
-4.15458708885356
 31
0.0
 11
42.12602444433564
 21
-4.139693597144712
 31
0.0
 11
42.14239506588993
 21
-4.129196462340161
 31
0.0
  0
SPLINE
  5
1A8
330
2
100
AcDbEntity
  8
GAIKEI
  6
Continuous
100
AcDbSpline
210
0.0
220
0.0
230
1.0
 70
     8
 71
     3
 72
     9
 73
     5
 74
     3
 42
0.0000000001
 43
0.0000000001
 44
0.000001
 12
0.9659554725890357
 22
0.2587083782471927
 32
0.0
 13
0.5147026122524477
 23
0.8573687776800053
 33
0.0
 40
0.0
 40
0.0
 40
0.0
 40
0.0
 40
0.0769747054409474
 40
0.2100305177808427
 40
0.2100305177808427
 40
0.2100305177808427
 40
0.2100305177808427
 10
42.17022709879886
 20
-4.629928914061138
 30
0.0
 10
42.19501181145606
 20
-4.623290913657577
 30
0.0
 10
42.26100662387543
 20
-4.597274056469979
 30
0.0
 10
42.3120108669545
 20
-4.543870400405236
 30
0.0
 10
42.33483892501674
 20
-4.505844434008877
 30
0.0
 11
42.17022709879886
 21
-4.629928914061138
 31
0.0
 11
42.24137192416171
 21
-4.600543351186131
 31
0.0
 11
42.33483892501674
 21
-4.505844434008877
 31
0.0
  0
SPLINE
  5
1A9
330
2
100
AcDbEntity
  8
GAIKEI
  6
Continuous
100
AcDbSpline
210
0.0
220
0.0
230
1.0
 70
     8
 71
     3
 72
     9
 73
     5
 74
     3
 42
0.0000000001
 43
0.0000000001
 44
0.000001
 12
0.5142335519141901
 22
0.8576501933106039
 32
0.0
 13
0.1763857305699941
 23
0.9843211234405618
 33
0.0
 40
0.0
 40
0.0
 40
0.0
 40
0.0
 40
0.0506159141892251
 40
0.0997607587009564
 40
0.0997607587009564
 40
0.0997607587009564
 40
0.0997607587009564
 10
42.33483892501674
 20
-4.505844434008877
 30
0.0
 10
42.34351505879571
 20
-4.491374184479217
 30
0.0
 10
42.35800646651787
 20
-4.461209988990003
 30
0.0
 10
42.36686155337166
 20
-4.428951619859963
 30
0.0
 10
42.36975103647266
 20
-4.412826850339597
 30
0.0
 11
42.33483892501674
 21
-4.505844434008877
 31
0.0
 11
42.35677014430732
 21
-4.46022645599524
 31
0.0
 11
42.36975103647266
 21
-4.412826850339597
 31
0.0
  0
SPLINE
  5
1AA
330
2
100
AcDbEntity
  8
GAIKEI
  6
Continuous
100
AcDbSpline
210
0.0
220
0.0
230
1.0
 70
     8
 71
     3
 72
     9
 73
     5
 74
     3
 42
0.0000000001
 43
0.0000000001
 44
0.000001
 12
0.1851928867955859
 22
0.9827021902287171
 32
0.0
 13
0.0002185501612885
 23
0.9999999761179132
 33
0.0
 40
0.0
 40
0.0
 40
0.0
 40
0.0
 40
0.0245916893651351
 40
0.0487685661491633
 40
0.0487685661491633
 40
0.0487685661491633
 40
0.0487685661491633
 10
42.36975103647266
 20
-4.412826850339597
 30
0.0
 10
42.37126910512089
 20
-4.40477141467275
 30
0.0
 10
42.373425715309
 20
-4.388626875810586
 30
0.0
 10
42.37408277153793
 20
-4.372362856964199
 30
0.0
 10
42.37408453282471
 20
-4.364303898228654
 30
0.0
 11
42.36975103647266
 21
-4.412826850339597
 31
0.0
 11
42.37306259888053
 21
-4.388458188362648
 31
0.0
 11
42.37408453282471
 21
-4.364303898228654
 31
0.0
  0
SPLINE
  5
1AB
330
2
100
AcDbEntity
  8
GAIKEI
  6
Continuous
 62
     1
100
AcDbSpline
210
0.0
220
0.0
230
1.0
 70
     8
 71
     3
 72
     9
 73
     5
 74
     3
 42
0.0000000001
 43
0.0000000001
 44
0.000001
 12
0.8726831600107129
 22
0.4882869056545715
 32
0.0
 13
0.9060488313008754
 23
0.4231731504931732
 33
0.0
 40
0.0
 40
0.0
 40
0.0
 40
0.0
 40
0.0008647289721358
 40
0.0017201373300833
 40
0.0017201373300833
 40
0.0017201373300833
 40
0.0017201373300833
 10
41.38690185679654
 20
-5.695907981504688
 30
0.0
 10
41.38715340160053
 20
-5.695767236226676
 30
0.0
 10
41.38765643548256
 20
-5.695491938924294
 30
0.0
 10
41.38816938854607
 20
-5.695235186376074
 30
0.0
 10
41.38842773579374
 20
-5.695114524426144
 30
0.0
 11
41.38690185679654
 21
-5.695907981504688
 31
0.0
 11
41.38766172456029
 21
-5.695495446150288
 31
0.0
 11
41.38842773579374
 21
-5.695114524426144
 31
0.0
  0
SPLINE
  5
1AC
330
2
100
AcDbEntity
  8
GAIKEI
  6
Continuous
 62
     1
100
AcDbSpline
210
0.0
220
0.0
230
1.0
 70
     8
 71
     3
 72
     9
 73
     5
 74
     3
 42
0.0000000001
 43
0.0000000001
 44
0.000001
 12
0.0000000448385034
 22
-0.9999999999999989
 32
0.0
 13
0.9081584222605471
 23
-0.41862665953954
 33
0.0
 40
0.0
 40
0.0
 40
0.0
 40
0.0
 40
0.0139027966926826
 40
0.0278033723757893
 40
0.0278033723757893
 40
0.0278033723757893
 40
0.0278033723757893
 10
41.37408447322006
 20
-5.150314687266045
 30
0.0
 10
41.37408447342785
 20
-5.154948952830273
 30
0.0
 10
41.37697038598489
 20
-5.164318185729499
 30
0.0
 10
41.38421976083344
 20
-5.170957979236632
 30
0.0
 10
41.38842773579374
 20
-5.172897696424597
 30
0.0
 11
41.37408447322006
 21
-5.150314687266045
 31
0.0
 11
41.37806068270338
 21
-5.163636693224901
 31
0.0
 11
41.38842773579374
 21
-5.172897696424597
 31
0.0
  0
SPLINE
  5
1AD
330
2
100
AcDbEntity
  8
GAIKEI
  6
Continuous
 62
     1
100
AcDbSpline
210
0.0
220
0.0
230
1.0
 70
     8
 71
     3
 72
     9
 73
     5
 74
     3
 42
0.0000000001
 43
0.0000000001
 44
0.000001
 12
-0.9907447224773274
 22
-0.1357383324021754
 32
0.0
 13
-0.3611331329489518
 23
0.9325142681409623
 33
0.0
 40
0.0
 40
0.0
 40
0.0
 40
0.0
 40
0.0027039998097139
 40
0.0055898692069792
 40
0.0055898692069792
 40
0.0055898692069792
 40
0.0055898692069792
 10
41.37872314537154
 20
-5.16404759824084
 30
0.0
 10
41.37783015419119
 20
-5.164169943715836
 30
0.0
 10
41.37667002855251
 20
-5.161820485625123
 30
0.0
 10
41.37614085204917
 20
-5.160305964219002
 30
0.0
 10
41.37579345769693
 20
-5.159408926089355
 30
0.0
 11
41.37872314537154
 21
-5.16404759824084
 31
0.0
 11
41.37685540598027
 21
-5.16209129917692
 31
0.0
 11
41.37579345769693
 21
-5.159408926089355
 31
0.0
  0
SPLINE
  5
1AE
330
2
100
AcDbEntity
  8
GAIKEI
  6
Continuous
 62
     1
100
AcDbSpline
210
0.0
220
0.0
230
1.0
 70
     8
 71
     3
 72
     9
 73
     5
 74
     3
 42
0.0000000001
 43
0.0000000001
 44
0.000001
 12
0.203894072625902
 22
-0.9789929556171605
 32
0.0
 13
-0.0000213165802684
 23
-0.9999999997728018
 33
0.0
 40
0.0
 40
0.0
 40
0.0
 40
0.0
 40
0.0550352452617224
 40
0.1094195798242724
 40
0.1094195798242724
 40
0.1094195798242724
 40
0.1094195798242724
 10
42.0455933023076
 20
14.32594379782816
 30
0.0
 10
42.04933375573906
 20
14.30798409202086
 30
0.0
 10
42.05490520900536
 20
14.27186426366599
 30
0.0
 10
42.05676312299645
 20
14.2353682895844
 30
0.0
 10
42.05676273656711
 20
14.21724017806767
 30
0.0
 11
42.0455933023076
 21
14.32594379782816
 31
0.0
 11
42.05399800569391
 21
14.27155376832982
 31
0.0
 11
42.05676273656711
 21
14.21724017806767
 31
0.0
  0
SPLINE
  5
1AF
330
2
100
AcDbEntity
  8
GAIKEI
  6
Continuous
 62
     1
100
AcDbSpline
210
0.0
220
0.0
230
1.0
 70
     8
 71
     3
 72
     9
 73
     5
 74
     3
 42
0.0000000001
 43
0.0000000001
 44
0.000001
 12
-0.0000780189020072
 22
0.9999999969565253
 32
0.0
 13
-0.1478803268001294
 23
0.9890052623446889
 33
0.0
 40
0.0
 40
0.0
 40
0.0
 40
0.0
 40
0.0389161001632881
 40
0.0793118631585777
 40
0.0793118631585777
 40
0.0793118631585777
 40
0.0793118631585777
 10
42.07928471056577
 20
14.24690326577322
 30
0.0
 10
42.07928369850196
 20
14.2598752991215
 30
0.0
 10
42.07832732049001
 20
14.28632084407455
 30
0.0
 10
42.07541658142756
 20
14.31262659043524
 30
0.0
 10
42.07342533521653
 20
14.32594379782816
 30
0.0
 11
42.07928471056577
 21
14.24690326577322
 31
0.0
 11
42.07787551372948
 21
14.28579333744184
 31
0.0
 11
42.07342533521653
 21
14.32594379782816
 31
0.0
  0
SPLINE
  5
1B0
330
2
100
AcDbEntity
  8
GAIKEI
  6
Continuous
 62
     1
100
AcDbSpline
210
0.0
220
0.0
230
1.0
 70
     8
 71
     3
 72
     9
 73
     5
 74
     3
 42
0.0000000001
 43
0.0000000001
 44
0.000001
 12
0.1569133273070882
 22
-0.9876123772581117
 32
0.0
 13
-0.0000142460188216
 23
-0.9999999998985256
 33
0.0
 40
0.0
 40
0.0
 40
0.0
 40
0.0
 40
0.014199211898675
 40
0.0282496522182217
 40
0.0282496522182217
 40
0.0282496522182217
 40
0.0282496522182217
 10
42.04772953290368
 20
14.32594379782816
 30
0.0
 10
42.04847221476507
 20
14.32126935868868
 30
0.0
 10
42.04960140189049
 20
14.31191026263668
 30
0.0
 10
42.04998790054047
 20
14.30249006922584
 30
0.0
 10
42.04998783381953
 20
14.2978065891198
 30
0.0
 11
42.04772953290368
 21
14.32594379782816
 31
0.0
 11
42.04942062308684
 21
14.31184595925663
 31
0.0
 11
42.04998783381953
 21
14.2978065891198
 31
0.0
  0
SPLINE
  5
1B1
330
2
100
AcDbEntity
  8
GAIKEI
  6
Continuous
 62
     1
100
AcDbSpline
210
0.0
220
0.0
230
1.0
 70
     8
 71
     3
 72
     9
 73
     5
 74
     3
 42
0.0000000001
 43
0.0000000001
 44
0.000001
 12
0.0746285580971607
 22
0.9972114010160227
 32
0.0
 13
-0.0741686835241313
 23
0.9972457101358205
 33
0.0
 40
0.0
 40
0.0
 40
0.0
 40
0.0
 40
0.1521680963251077
 40
0.3267803392072217
 40
0.3267803392072217
 40
0.3267803392072217
 40
0.3267803392072217
 10
42.08898930098796
 20
-0.3821259264973662
 30
0.0
 10
42.09277466286033
 20
-0.3315446729885989
 30
0.0
 10
42.09587329216123
 20
-0.2225827986198891
 30
0.0
 10
42.09336725620843
 20
-0.1135705559872523
 30
0.0
 10
42.08905033614785
 20
-0.0555267859367916
 30
0.0
 11
42.08898930098796
 21
-0.3821259264973662
 31
0.0
 11
42.09444416566603
 21
-0.2300556689337441
 31
0.0
 11
42.08905033614785
 21
-0.0555267859367916
 31
0.0
  0
SPLINE
  5
1B2
330
2
100
AcDbEntity
  8
GAIKEI
  6
Continuous
 62
     1
100
AcDbSpline
210
0.0
220
0.0
230
1.0
 70
     8
 71
     3
 72
     9
 73
     5
 74
     3
 42
0.0000000001
 43
0.0000000001
 44
0.000001
 12
0.0746315686445355
 22
0.9972111757103688
 32
0.0
 13
-0.0741686800374705
 23
0.9972457103951359
 33
0.0
 40
0.0
 40
0.0
 40
0.0
 40
0.0
 40
0.1521671957966504
 40
0.3267803505474887
 40
0.3267803505474887
 40
0.3267803505474887
 40
0.3267803505474887
 10
42.08898930098796
 20
13.02784801733062
 30
0.0
 10
42.09277479316081
 20
13.07842896007226
 30
0.0
 10
42.09587354997675
 20
13.18739084687361
 30
0.0
 10
42.09336727854952
 20
13.29640308470659
 30
0.0
 10
42.08905033614785
 20
13.3544471578912
 30
0.0
 11
42.08898930098796
 21
13.02784801733062
 31
0.0
 11
42.09444433330411
 21
13.179917367786
 31
0.0
 11
42.08905033614785
 21
13.3544471578912
 31
0.0
  0
SPLINE
  5
1B3
330
2
100
AcDbEntity
  8
GAIKEI
  6
Continuous
 62
     1
100
AcDbSpline
210
0.0
220
0.0
230
1.0
 70
     8
 71
     3
 72
     9
 73
     5
 74
     3
 42
0.0000000001
 43
0.0000000001
 44
0.000001
 12
0.0026893436512621
 22
0.9999963837088239
 32
0.0
 13
-0.4703074679310344
 23
0.8825026264030602
 33
0.0
 40
0.0
 40
0.0
 40
0.0
 40
0.0
 40
0.1085986655622496
 40
0.2479505753778916
 40
0.2479505753778916
 40
0.2479505753778916
 40
0.2479505753778916
 10
42.04754642742402
 20
14.20503314609007
 30
0.0
 10
42.04764378046794
 20
14.24123257036935
 30
0.0
 10
42.03900444513299
 20
14.3240568901208
 30
0.0
 10
42.01053075233249
 20
14.40302721068878
 30
0.0
 10
41.98868467104691
 20
14.44402001949098
 30
0.0
 11
42.04754642742402
 21
14.20503314609007
 31
0.0
 11
42.03627163956103
 21
14.31304403159115
 31
0.0
 11
41.98868467104691
 21
14.44402001949098
 31
0.0
  0
SPLINE
  5
1B4
330
2
100
AcDbEntity
  8
GAIKEI
  6
Continuous
 62
     1
100
AcDbSpline
210
0.0
220
0.0
230
1.0
 70
     8
 71
     3
 72
     9
 73
     5
 74
     3
 42
0.0000000001
 43
0.0000000001
 44
0.000001
 12
0.5393179490749111
 22
-0.8421022205205444
 32
0.0
 13
0.0255566981077921
 23
-0.9996733742487229
 33
0.0
 40
0.0
 40
0.0
 40
0.0
 40
0.0
 40
0.1433454388235301
 40
0.2847972682298941
 40
0.2847972682298941
 40
0.2847972682298941
 40
0.2847972682298941
 10
42.05595209472174
 20
14.59770322998136
 30
0.0
 10
42.08172168408025
 20
14.5574660592031
 30
0.0
 10
42.12302814100405
 20
14.47071374662305
 30
0.0
 10
42.14003038395175
 20
14.37582558922189
 30
0.0
 10
42.14123539785207
 20
14.32869038002312
 30
0.0
 11
42.05595209472174
 21
14.59770322998136
 31
0.0
 11
42.11714550533769
 21
14.46807682129494
 31
0.0
 11
42.14123539785207
 21
14.32869038002312
 31
0.0
  0
SPLINE
  5
1B5
330
2
100
AcDbEntity
  8
GAIKEI
  6
Continuous
 62
     1
100
AcDbSpline
210
0.0
220
0.0
230
1.0
 70
     8
 71
     3
 72
    11
 73
     7
 74
     5
 42
0.0000000001
 43
0.0000000001
 44
0.000001
 12
0.6038798991310502
 22
0.7970753210490668
 32
0.0
 13
0.0000274432937339
 23
0.9999999996234329
 33
0.0
 40
0.0
 40
0.0
 40
0.0
 40
0.0
 40
0.0851848422785649
 40
0.2307716396275137
 40
0.5599477241683627
 40
0.9475902808053177
 40
0.9475902808053177
 40
0.9475902808053177
 40
0.9475902808053177
 10
42.14123539785207
 20
14.32869038002312
 30
0.0
 10
42.15838253583963
 20
14.35132329185902
 30
0.0
 10
42.18077932750047
 20
14.42752877503598
 30
0.0
 10
42.21471383461045
 20
14.60948248417281
 30
0.0
 10
42.23565491900688
 20
14.89786994608699
 30
0.0
 10
42.24175676012472
 20
15.13636589880659
 30
0.0
 10
42.24176030618757
 20
15.26558008430359
 30
0.0
 11
42.14123539785207
 21
14.32869038002312
 31
0.0
 11
42.17377026917907
 21
14.40741757602973
 31
0.0
 11
42.20196538194061
 21
14.55024801041648
 31
0.0
 11
42.23185051707496
 21
14.87806464907473
 31
0.0
 11
42.24176030618757
 21
15.26558008430359
 31
0.0
  0
SPLINE
  5
1B6
330
2
100
AcDbEntity
  8
GAIKEI
  6
Continuous
 62
     1
100
AcDbSpline
210
0.0
220
0.0
230
1.0
 70
     8
 71
     3
 72
     9
 73
     5
 74
     3
 42
0.0000000001
 43
0.0000000001
 44
0.000001
 12
-0.9087758162825879
 22
-0.4172846938720804
 32
0.0
 13
-0.9320637417466123
 23
0.3622943296841729
 33
0.0
 40
0.0
 40
0.0
 40
0.0
 40
0.0
 40
0.1726111474600739
 40
0.3345727660554933
 40
0.3345727660554933
 40
0.3345727660554933
 40
0.3345727660554933
 10
42.37408453282471
 20
-3.844711582102291
 30
0.0
 10
42.32179625401387
 20
-3.868720912044553
 30
0.0
 10
42.22094673123822
 20
-3.918805195330954
 30
0.0
 10
42.1014670192732
 20
-3.915357269609726
 30
0.0
 10
42.05114750185741
 20
-3.895798010928529
 30
0.0
 11
42.37408453282471
 21
-3.844711582102291
 31
0.0
 11
42.21277879763565
 21
-3.906151247073495
 31
0.0
 11
42.05114750185741
 21
-3.895798010928529
 31
0.0
  0
SPLINE
  5
1B7
330
2
100
AcDbEntity
  8
GAIKEI
  6
Continuous
 62
     1
100
AcDbSpline
210
0.0
220
0.0
230
1.0
 70
     8
 71
     3
 72
     9
 73
     5
 74
     3
 42
0.0000000001
 43
0.0000000001
 44
0.000001
 12
-0.9318207203994109
 22
0.3629189234998956
 32
0.0
 13
0.0000044054683735
 23
0.9999999999902959
 33
0.0
 40
0.0
 40
0.0
 40
0.0
 40
0.0
 40
0.0512833858937554
 40
0.1432513595647621
 40
0.1432513595647621
 40
0.1432513595647621
 40
0.1432513595647621
 10
42.05114750185741
 20
-3.895798010928529
 30
0.0
 10
42.03521852799473
 20
-3.889594107194532
 30
0.0
 10
42.031420925473
 20
-3.828158144232094
 30
0.0
 10
42.0231932635747
 20
-3.787354872767197
 30
0.0
 10
42.02319339862871
 20
-3.756698881543826
 30
0.0
 11
42.05114750185741
 21
-3.895798010928529
 31
0.0
 11
42.03193233626227
 21
-3.848249995286464
 31
0.0
 11
42.02319339862871
 21
-3.756698881543826
 31
0.0
  0
SPLINE
  5
1B8
330
2
100
AcDbEntity
  8
GAIKEI
  6
Continuous
 62
     1
100
AcDbSpline
210
0.0
220
0.0
230
1.0
 70
     8
 71
     3
 72
     9
 73
     5
 74
     3
 42
0.0000000001
 43
0.0000000001
 44
0.000001
 12
0.9839337708855248
 22
0.1785338469618341
 32
0.0
 13
0.949971462887902
 23
0.3123367088553942
 33
0.0
 40
0.0
 40
0.0
 40
0.0
 40
0.0
 40
0.0011760655267612
 40
0.0023716260303066
 40
0.0023716260303066
 40
0.0023716260303066
 40
0.0023716260303066
 10
42.07055668270178
 20
-0.5917206655526856
 30
0.0
 10
42.0709424062313
 20
-0.591650676385095
 30
0.0
 10
42.07172355129698
 20
-0.5915320027482398
 30
0.0
 10
42.07249743599069
 20
-0.5913568567512199
 30
0.0
 10
42.07287601877753
 20
-0.5912323842735816
 30
0.0
 11
42.07055668270178
 21
-0.5917206655526856
 31
0.0
 11
42.07171473035474
 21
-0.5915198802443628
 31
0.0
 11
42.07287601877753
 21
-0.5912323842735816
 31
0.0
  0
SPLINE
  5
1B9
330
2
100
AcDbEntity
  8
GAIKEI
  6
Continuous
 62
     1
100
AcDbSpline
210
0.0
220
0.0
230
1.0
 70
     8
 71
     3
 72
     9
 73
     5
 74
     3
 42
0.0000000001
 43
0.0000000001
 44
0.000001
 12
-0.8178480872751791
 22
0.5754341892348167
 32
0.0
 13
-0.9966781476583459
 23
0.081441205665979
 33
0.0
 40
0.0
 40
0.0
 40
0.0
 40
0.0
 40
0.0028650108098508
 40
0.0054580042542976
 40
0.0054580042542976
 40
0.0054580042542976
 40
0.0054580042542976
 10
42.07562260097248
 20
0.1517486170427844
 30
0.0
 10
42.0748415531022
 20
0.1522981587669562
 30
0.0
 10
42.07322136279854
 20
0.1531798677903079
 30
0.0
 10
42.07141814266948
 20
0.1535703148285119
 30
0.0
 10
42.07055668270178
 20
0.1536407069993118
 30
0.0
 11
42.07562260097248
 21
0.1517486170427844
 31
0.0
 11
42.07309074219486
 21
0.1530892774911479
 31
0.0
 11
42.07055668270178
 21
0.1536407069993118
 31
0.0
  0
SPLINE
  5
1BA
330
2
100
AcDbEntity
  8
GAIKEI
  6
Continuous
 62
     1
100
AcDbSpline
210
0.0
220
0.0
230
1.0
 70
     8
 71
     3
 72
     9
 73
     5
 74
     3
 42
0.0000000001
 43
0.0000000001
 44
0.000001
 12
0.9841315496067643
 22
0.1774403930016749
 32
0.0
 13
0.9496494122794063
 23
0.3133145284811707
 33
0.0
 40
0.0
 40
0.0
 40
0.0
 40
0.0
 40
0.0011814182485669
 40
0.0023849585303753
 40
0.0023849585303753
 40
0.0023849585303753
 40
0.0023849585303753
 10
42.07055668270178
 20
12.81825327827531
 30
0.0
 10
42.07094423969235
 20
12.81832315538142
 30
0.0
 10
42.07172513246063
 20
12.81847285272295
 30
0.0
 10
42.0724950383371
 20
12.81867689916233
 30
0.0
 10
42.07287601877753
 20
12.8188025947143
 30
0.0
 11
42.07055668270178
 21
12.81825327827531
 31
0.0
 11
42.07171473035474
 21
12.818483914111
 31
0.0
 11
42.07287601877753
 21
12.8188025947143
 31
0.0
  0
SPLINE
  5
1BB
330
2
100
AcDbEntity
  8
GAIKEI
  6
Continuous
 62
     1
100
AcDbSpline
210
0.0
220
0.0
230
1.0
 70
     8
 71
     3
 72
     9
 73
     5
 74
     3
 42
0.0000000001
 43
0.0000000001
 44
0.000001
 12
-0.8178480872751791
 22
0.5754341892348167
 32
0.0
 13
-0.9966355735469214
 23
0.0819605608863135
 33
0.0
 40
0.0
 40
0.0
 40
0.0
 40
0.0
 40
0.0028796622015186
 40
0.0054790397610665
 40
0.0054790397610665
 40
0.0054790397610665
 40
0.0054790397610665
 10
42.07562260097248
 20
13.56172256087077
 30
0.0
 10
42.07483755889798
 20
13.56227491289883
 30
0.0
 10
42.07322594724431
 20
13.56317858957781
 30
0.0
 10
42.07142022675009
 20
13.56360467050627
 30
0.0
 10
42.07055668270178
 20
13.56367568598719
 30
0.0
 11
42.07562260097248
 21
13.56172256087077
 31
0.0
 11
42.07309074219486
 21
13.56309340536188
 31
0.0
 11
42.07055668270178
 21
13.56367568598719
 31
0.0
  0
SPLINE
  5
1BC
330
2
100
AcDbEntity
  8
GAIKEI
  6
Continuous
 62
     1
100
AcDbSpline
210
0.0
220
0.0
230
1.0
 70
     8
 71
     3
 72
     9
 73
     5
 74
     3
 42
0.0000000001
 43
0.0000000001
 44
0.000001
 12
-0.0000099100994793
 22
0.9999999999508949
 32
0.0
 13
0.6038096629412589
 23
0.7971285284938455
 33
0.0
 40
0.0
 40
0.0
 40
0.0
 40
0.0
 40
0.0497997533669788
 40
0.0930673019125001
 40
0.0930673019125001
 40
0.0930673019125001
 40
0.0930673019125001
 10
42.02319339862871
 20
14.11592181265362
 30
0.0
 10
42.02319323412187
 20
14.1325217304418
 30
0.0
 10
42.02948331527228
 20
14.16296173568672
 30
0.0
 10
42.0388379727895
 20
14.19353654698886
 30
0.0
 10
42.04754642742402
 20
14.20503314609007
 30
0.0
 11
42.02319339862871
 21
14.11592181265362
 31
0.0
 11
42.03080314296243
 21
14.16513636867498
 31
0.0
 11
42.04754642742402
 21
14.20503314609007
 31
0.0
  0
SPLINE
  5
1BD
330
2
100
AcDbEntity
  8
GAIKEI
  6
Continuous
 62
     1
100
AcDbSpline
210
0.0
220
0.0
230
1.0
 70
     8
 71
     3
 72
     9
 73
     5
 74
     3
 42
0.0000000001
 43
0.0000000001
 44
0.000001
 12
0.0924292431579833
 22
0.9957192551162414
 32
0.0
 13
-0.0933330765008945
 23
0.9956349415477935
 33
0.0
 40
0.0
 40
0.0
 40
0.0
 40
0.0
 40
0.1806358391393299
 40
0.3607768975203739
 40
0.3607768975203739
 40
0.3607768975203739
 40
0.3607768975203739
 10
42.09472660601742
 20
-0.3990937009462243
 30
0.0
 10
42.10029195065037
 20
-0.3391395065478541
 30
0.0
 10
42.10386914035119
 20
-0.2187714616761267
 30
0.0
 10
42.10020890875859
 20
-0.0984049573583443
 30
0.0
 10
42.09460453569764
 20
-0.0386200466478215
 30
0.0
 11
42.09472660601742
 21
-0.3990937009462243
 31
0.0
 11
42.10205872468252
 21
-0.218606772692624
 31
0.0
 11
42.09460453569764
 21
-0.0386200466478215
 31
0.0
  0
SPLINE
  5
1BE
330
2
100
AcDbEntity
  8
GAIKEI
  6
Continuous
 62
     1
100
AcDbSpline
210
0.0
220
0.0
230
1.0
 70
     8
 71
     3
 72
     9
 73
     5
 74
     3
 42
0.0000000001
 43
0.0000000001
 44
0.000001
 12
0.0924355776148119
 22
0.9957186670897639
 32
0.0
 13
-0.0933289346513915
 23
0.9956353298054645
 33
0.0
 40
0.0
 40
0.0
 40
0.0
 40
0.0
 40
0.180635663830764
 40
0.3607769043862341
 40
0.3607769043862341
 40
0.3607769043862341
 40
0.3607769043862341
 10
42.09472660601742
 20
13.01088024288177
 30
0.0
 10
42.10029232665877
 20
13.07083434368792
 30
0.0
 10
42.10386924226077
 20
13.19120245164675
 30
0.0
 10
42.10020866572025
 20
13.31156890269617
 30
0.0
 10
42.09460453569764
 20
13.37135389718017
 30
0.0
 11
42.09472660601742
 21
13.01088024288177
 31
0.0
 11
42.10205880850161
 21
13.1913669923214
 31
0.0
 11
42.09460453569764
 21
13.37135389718017
 31
0.0
  0
SPLINE
  5
1BF
330
2
100
AcDbEntity
  8
GAIKEI
  6
Continuous
100
AcDbSpline
210
0.0
220
0.0
230
1.0
 70
     8
 71
     3
 72
     9
 73
     5
 74
     3
 42
0.0000000001
 43
0.0000000001
 44
0.000001
 12
0.9057694603986139
 22
0.4237707925390845
 32
0.0
 13
0.4351244737735739
 23
0.9003703084416269
 33
0.0
 40
0.0
 40
0.0
 40
0.0
 40
0.0
 40
0.1117053163413023
 40
0.1869950235717971
 40
0.1869950235717971
 40
0.1869950235717971
 40
0.1869950235717971
 10
42.21527104679617
 20
-4.095199878282556
 30
0.0
 10
42.24899746816488
 20
-4.079420728136962
 30
0.0
 10
42.30144070394345
 20
-4.04167864046174
 30
0.0
 10
42.33557650914226
 20
-3.98852361528035
 30
0.0
 10
42.34649664055534
 20
-3.965927409639816
 30
0.0
 11
42.21527104679617
 21
-4.095199878282556
 31
0.0
 11
42.30512135866262
 21
-4.028829120755148
 31
0.0
 11
42.34649664055534
 21
-3.965927409639816
 31
0.0
  0
SPLINE
  5
1C0
330
2
100
AcDbEntity
  8
GAIKEI
  6
Continuous
100
AcDbSpline
210
0.0
220
0.0
230
1.0
 70
     8
 71
     3
 72
     9
 73
     5
 74
     3
 42
0.0000000001
 43
0.0000000001
 44
0.000001
 12
0.4340195517902086
 22
0.9009034513552641
 32
0.0
 13
-0.0007614355580964
 23
0.9999997101079035
 33
0.0
 40
0.0
 40
0.0
 40
0.0
 40
0.0
 40
0.0541594003094144
 40
0.123662980697932
 40
0.123662980697932
 40
0.123662980697932
 40
0.123662980697932
 10
42.34649664055534
 20
-3.965927409639816
 30
0.0
 10
42.35433205343785
 20
-3.949663279419122
 30
0.0
 10
42.36653518080603
 20
-3.910071721108491
 30
0.0
 10
42.37410217365722
 20
-3.869100138713377
 30
0.0
 10
42.37408453282471
 20
-3.845932285300051
 30
0.0
 11
42.34649664055534
 21
-3.965927409639816
 31
0.0
 11
42.36413078347651
 21
-3.914719342627478
 31
0.0
 11
42.37408453282471
 21
-3.845932285300051
 31
0.0
  0
SPLINE
  5
1C1
330
2
100
AcDbEntity
  8
GAIKEI
  6
Continuous
 62
     1
100
AcDbSpline
210
0.0
220
0.0
230
1.0
 70
     8
 71
     3
 72
    11
 73
     7
 74
     5
 42
0.0000000001
 43
0.0000000001
 44
0.000001
 12
0.9063167999938059
 22
0.4225989328535836
 32
0.0
 13
-0.0483793023056808
 23
0.9988290359758348
 33
0.0
 40
0.0
 40
0.0
 40
0.0
 40
0.0
 40
0.1438909576343716
 40
0.3064814847693495
 40
0.3973599290466759
 40
0.4865910886473029
 40
0.4865910886473029
 40
0.4865910886473029
 40
0.4865910886473029
 10
41.8070068623055
 20
-4.285568541973161
 30
0.0
 10
41.8504771263959
 20
-4.265299153591973
 30
0.0
 10
41.93732667911588
 20
-4.207947372751904
 30
0.0
 10
42.01636854181308
 20
-4.096503234409926
 30
0.0
 10
42.04845635305025
 20
-3.985981111356018
 30
0.0
 10
42.05258648227254
 20
-3.925506901969495
 30
0.0
 10
42.05114750185741
 20
-3.895798010928529
 30
0.0
 11
41.8070068623055
 21
-4.285568541973161
 31
0.0
 11
41.92632267433093
 21
-4.205142246548091
 31
0.0
 11
42.01965335935521
 21
-4.072006517525123
 31
0.0
 11
42.04536935983631
 21
-3.984842500223748
 31
0.0
 11
42.05114750185741
 21
-3.895798010928529
 31
0.0
  0
SPLINE
  5
1C2
330
2
100
AcDbEntity
  8
GAIKEI
  6
Continuous
100
AcDbSpline
210
0.0
220
0.0
230
1.0
 70
     8
 71
     3
 72
    11
 73
     7
 74
     5
 42
0.0000000001
 43
0.0000000001
 44
0.000001
 12
-1.0
 22
0.0000000000000001
 32
0.0
 13
-0.9029836121814568
 23
-0.4296749889529625
 33
0.0
 40
0.0
 40
0.0
 40
0.0
 40
0.0
 40
0.0166322880969383
 40
0.0411462676209861
 40
0.05871581555624
 40
0.0664051299443612
 40
0.0664051299443612
 40
0.0664051299443612
 40
0.0664051299443612
 10
42.27148442905302
 20
-4.060104661346969
 30
0.0
 10
42.26594033302071
 20
-4.060104661346969
 30
0.0
 10
42.25660837608946
 20
-4.073652103495979
 30
0.0
 10
42.23971674792632
 20
-4.082204928801939
 30
0.0
 10
42.22522942132391
 20
-4.090586966098101
 30
0.0
 10
42.2175854884233
 20
-4.094098576257632
 30
0.0
 10
42.21527104679617
 20
-4.095199878282556
 30
0.0
 11
42.27148442905302
 21
-4.060104661346969
 31
0.0
 11
42.2579869159795
 21
-4.069823720797528
 31
0.0
 11
42.23767095047508
 21
-4.083542162743952
 31
0.0
 11
42.22221272687639
 21
-4.091892727715475
 31
0.0
 11
42.21527104679617
 21
-4.095199878282556
 31
0.0
  0
SPLINE
  5
1C3
330
2
100
AcDbEntity
  8
GAIKEI
  6
Continuous
100
AcDbSpline
210
0.0
220
0.0
230
1.0
 70
     8
 71
     3
 72
     9
 73
     5
 74
     3
 42
0.0000000001
 43
0.0000000001
 44
0.000001
 12
0.2300685421109333
 22
-0.9731744272898612
 32
0.0
 13
-0.7756951449428287
 23
-0.6311077896145191
 33
0.0
 40
0.0
 40
0.0
 40
0.0
 40
0.0
 40
0.0040610244780653
 40
0.0135011642753664
 40
0.0135011642753664
 40
0.0135011642753664
 40
0.0135011642753664
 10
42.28167730075431
 20
-4.051254563163212
 30
0.0
 10
42.28198873874802
 20
-4.052571924886762
 30
0.0
 10
42.27587431114814
 20
-4.054780094671212
 30
0.0
 10
42.2739253192558
 20
-4.05811874609326
 30
0.0
 10
42.27148442905302
 20
-4.060104661346969
 30
0.0
 11
42.28167730075431
 21
-4.051254563163212
 31
0.0
 11
42.27868632266464
 21
-4.054002313229459
 31
0.0
 11
42.27148442905302
 21
-4.060104661346969
 31
0.0
  0
SPLINE
  5
1C4
330
2
100
AcDbEntity
  8
GAIKEI
  6
Continuous
100
AcDbSpline
210
0.0
220
0.0
230
1.0
 70
     8
 71
     3
 72
     9
 73
     5
 74
     3
 42
0.0000000001
 43
0.0000000001
 44
0.000001
 12
0.7514248269581099
 22
0.6598187095187395
 32
0.0
 13
0.5774930851933911
 23
0.8163955760253841
 33
0.0
 40
0.0
 40
0.0
 40
0.0
 40
0.0
 40
0.0333075433574777
 40
0.0644839933969342
 40
0.0644839933969342
 40
0.0644839933969342
 40
0.0644839933969342
 10
42.27923589435878
 20
-4.053451828919178
 30
0.0
 10
42.28757859936004
 20
-4.046126182160722
 30
0.0
 10
42.30311167846326
 20
-4.031199763998746
 30
0.0
 10
42.31669153342614
 20
-4.01445057982246
 30
0.0
 10
42.32269292819903
 20
-4.005966474526331
 30
0.0
 11
42.27923589435878
 21
-4.053451828919178
 31
0.0
 11
42.30310433922585
 21
-4.030221062519615
 31
0.0
 11
42.32269292819903
 21
-4.005966474526331
 31
0.0
  0
SPLINE
  5
1C5
330
2
100
AcDbEntity
  8
GAIKEI
  6
Continuous
100
AcDbSpline
210
0.0
220
0.0
230
1.0
 70
     8
 71
     3
 72
     9
 73
     5
 74
     3
 42
0.0000000001
 43
0.0000000001
 44
0.000001
 12
0.6530725087615257
 22
0.757295383783585
 32
0.0
 13
0.3984111868807301
 23
0.9172069156784024
 33
0.0
 40
0.0
 40
0.0
 40
0.0
 40
0.0
 40
0.002412877732886
 40
0.004820919159775
 40
0.004820919159775
 40
0.004820919159775
 40
0.004820919159775
 10
42.32971197158614
 20
-3.995712567665151
 30
0.0
 10
42.33023723295759
 20
-3.995103480608901
 30
0.0
 10
42.33121957142635
 20
-3.993827106739671
 30
0.0
 10
42.33201668658034
 20
-3.992420471195871
 30
0.0
 10
42.33233648346132
 20
-3.991684247112543
 30
0.0
 11
42.32971197158614
 21
-3.995712567665151
 31
0.0
 11
42.33117315811948
 21
-3.993793193564414
 31
0.0
 11
42.33233648346132
 21
-3.991684247112543
 31
0.0
  0
SPLINE
  5
1C6
330
2
100
AcDbEntity
  8
GAIKEI
  6
Continuous
100
AcDbSpline
210
0.0
220
0.0
230
1.0
 70
     8
 71
     3
 72
     9
 73
     5
 74
     3
 42
0.0000000001
 43
0.0000000001
 44
0.000001
 12
0.494787596202249
 22
0.8690139438722491
 32
0.0
 13
0.4344739558854116
 23
0.9006843962550265
 33
0.0
 40
0.0
 40
0.0
 40
0.0
 40
0.0
 40
0.0048469645010662
 40
0.0096923590433443
 40
0.0096923590433443
 40
0.0096923590433443
 40
0.0096923590433443
 10
42.34179693324397
 20
-3.975143718782901
 30
0.0
 10
42.34259633921542
 20
-3.973739692203941
 30
0.0
 10
42.34412270157265
 20
-3.970890816032033
 30
0.0
 10
42.34555076733759
 20
-3.967992484991339
 30
0.0
 10
42.34625249991579
 20
-3.966537761238696
 30
0.0
 11
42.34179693324397
 21
-3.975143718782901
 31
0.0
 11
42.34409852413118
 21
-3.970877530048624
 31
0.0
 11
42.34625249991579
 21
-3.966537761238696
 31
0.0
  0
SPLINE
  5
1C7
330
2
100
AcDbEntity
  8
GAIKEI
  6
Continuous
100
AcDbSpline
210
0.0
220
0.0
230
1.0
 70
     8
 71
     3
 72
     9
 73
     5
 74
     3
 42
0.0000000001
 43
0.0000000001
 44
0.000001
 12
-0.6697753278810991
 22
-0.7425638088149506
 32
0.0
 13
0.1620782925170355
 23
-0.9867779016043895
 33
0.0
 40
0.0
 40
0.0
 40
0.0
 40
0.0
 40
0.0002864023018136
 40
0.0003617234365455
 40
0.0003617234365455
 40
0.0003617234365455
 40
0.0003617234365455
 10
42.30541997795072
 20
-4.027511885966787
 30
0.0
 10
42.30535603621886
 20
-4.02758277662815
 30
0.0
 10
42.30527150220918
 20
-4.027670545446031
 30
0.0
 10
42.3052328031641
 20
-4.027792286689136
 30
0.0
 10
42.30523687247107
 20
-4.027817061766228
 30
0.0
 11
42.30541997795072
 21
-4.027511885966787
 31
0.0
 11
42.30525188388075
 21
-4.027742845843163
 31
0.0
 11
42.30523687247107
 21
-4.027817061766228
 31
0.0
  0
SPLINE
  5
1C8
330
2
100
AcDbEntity
  8
GAIKEI
  6
Continuous
100
AcDbSpline
210
0.0
220
0.0
230
1.0
 70
     8
 71
     3
 72
     9
 73
     5
 74
     3
 42
0.0000000001
 43
0.0000000001
 44
0.000001
 12
-0.5741370598084015
 22
-0.8187592054777548
 32
0.0
 13
-0.4232439726305972
 23
-0.9060157502118107
 33
0.0
 40
0.0
 40
0.0
 40
0.0
 40
0.0
 40
0.0001442083318678
 40
0.0007375073091605
 40
0.0007375073091605
 40
0.0007375073091605
 40
0.0007375073091605
 10
42.34838873051186
 20
-3.961960124247098
 30
0.0
 10
42.34836113206264
 20
-3.961999481546839
 30
0.0
 10
42.34827706567569
 20
-3.962234016131145
 30
0.0
 10
42.34816725811779
 20
-3.962452331599862
 30
0.0
 10
42.34808355471243
 20
-3.962631511005866
 30
0.0
 11
42.34838873051186
 21
-3.961960124247098
 31
0.0
 11
42.34832813700267
 21
-3.962091082658928
 31
0.0
 11
42.34808355471243
 21
-3.962631511005866
 31
0.0
  0
SPLINE
  5
1C9
330
2
100
AcDbEntity
  8
GAIKEI
  6
Continuous
100
AcDbSpline
210
0.0
220
0.0
230
1.0
 70
     8
 71
     3
 72
     9
 73
     5
 74
     3
 42
0.0000000001
 43
0.0000000001
 44
0.000001
 12
0.4439066962705617
 22
0.8960730132116218
 32
0.0
 13
-0.4521290279565891
 23
-0.8919525447460925
 33
0.0
 40
0.0
 40
0.0
 40
0.0
 40
0.0
 40
0.0004384415356962
 40
0.0038762570634212
 40
0.0038762570634212
 40
0.0038762570634212
 40
0.0038762570634212
 10
42.34594732411635
 20
-3.967087077677689
 30
0.0
 10
42.34601219982756
 20
-3.966956119135019
 30
0.0
 10
42.34485624390496
 20
-3.969429427782665
 30
0.0
 10
42.34475645170377
 20
-3.969543959021862
 30
0.0
 10
42.34423833963949
 20
-3.970566081791303
 30
0.0
 11
42.34594732411635
 21
-3.967087077677689
 31
0.0
 11
42.34576378452395
 21
-3.967486354548497
 31
0.0
 11
42.34423833963949
 21
-3.970566081791303
 31
0.0
  0
SPLINE
  5
1CA
330
2
100
AcDbEntity
  8
GAIKEI
  6
Continuous
100
AcDbSpline
210
0.0
220
0.0
230
1.0
 70
     8
 71
     3
 72
     9
 73
     5
 74
     3
 42
0.0000000001
 43
0.0000000001
 44
0.000001
 12
0.4618342237308737
 22
0.8869662619236999
 32
0.0
 13
0.4618342237308737
 23
0.8869662619237001
 33
0.0
 40
0.0
 40
0.0
 40
0.0
 40
0.0
 40
0.0013375615421731
 40
0.0026751230843527
 40
0.0026751230843527
 40
0.0026751230843527
 40
0.0026751230843527
 10
42.34185796840384
 20
-3.975143718782901
 30
0.0
 10
42.34206387896935
 20
-3.974748261462517
 30
0.0
 10
42.34246832000271
 20
-3.973953533165081
 30
0.0
 10
42.3428727610361
 20
-3.973158804867658
 30
0.0
 10
42.3430786716016
 20
-3.972763347547271
 30
0.0
 11
42.34185796840384
 21
-3.975143718782901
 31
0.0
 11
42.34246832000272
 21
-3.973953533165087
 31
0.0
 11
42.3430786716016
 21
-3.972763347547271
 31
0.0
  0
SPLINE
  5
1CB
330
2
100
AcDbEntity
  8
GAIKEI
  6
Continuous
100
AcDbSpline
210
0.0
220
0.0
230
1.0
 70
     8
 71
     3
 72
    11
 73
     7
 74
     5
 42
0.0000000001
 43
0.0000000001
 44
0.000001
 12
-0.0015438828007261
 22
-0.9999988082122385
 32
0.0
 13
-0.4415794705322062
 23
-0.8972221415037061
 33
0.0
 40
0.0
 40
0.0
 40
0.0
 40
0.0
 40
0.0182162166839594
 40
0.0591903801206783
 40
0.1030924941737476
 40
0.1266148240201233
 40
0.1266148240201233
 40
0.1266148240201233
 40
0.1266148240201233
 10
42.37408453282471
 20
-3.845932285300051
 30
0.0
 10
42.37407515825682
 20
-3.852004350291416
 30
0.0
 10
42.37454930993465
 20
-3.871786201680943
 30
0.0
 10
42.36776563658925
 20
-3.905646423544984
 30
0.0
 10
42.35941425435973
 20
-3.941046655277938
 30
0.0
 10
42.34892136882367
 20
-3.961028721849922
 30
0.0
 10
42.34545904283725
 20
-3.968063640235896
 30
0.0
 11
42.37408453282471
 21
-3.845932285300051
 31
0.0
 11
42.37395419973418
 21
-3.864148069326148
 31
0.0
 11
42.36773687619636
 21
-3.904648109112287
 31
0.0
 11
42.35559872661972
 21
-3.946838926518609
 31
0.0
 11
42.34545904283725
 21
-3.968063640235896
 31
0.0
  0
SPLINE
  5
1CC
330
2
100
AcDbEntity
  8
GAIKEI
  6
Continuous
100
AcDbSpline
210
0.0
220
0.0
230
1.0
 70
     8
 71
     3
 72
     9
 73
     5
 74
     3
 42
0.0000000001
 43
0.0000000001
 44
0.000001
 12
0.4369039627369132
 22
0.8995081585759978
 32
0.0
 13
-0.2131732998587373
 23
-0.9770144032855078
 33
0.0
 40
0.0
 40
0.0
 40
0.0
 40
0.0
 40
0.0014852975999896
 40
0.0023748874171319
 40
0.0023748874171319
 40
0.0023748874171319
 40
0.0023748874171319
 10
42.34545904283725
 20
-3.968063640235896
 30
0.0
 10
42.34567535363967
 20
-3.967618294466195
 30
0.0
 10
42.3458600658996
 20
-3.967370639612217
 30
0.0
 10
42.34655985282095
 20
-3.965637695618362
 30
0.0
 10
42.34649664055534
 20
-3.965927409639816
 30
0.0
 11
42.34545904283725
 21
-3.968063640235896
 31
0.0
 11
42.34610754141104
 21
-3.966728496113346
 31
0.0
 11
42.34649664055534
 21
-3.965927409639816
 31
0.0
  0
SPLINE
  5
1CD
330
2
100
AcDbEntity
  8
GAIKEI
  6
Continuous
100
AcDbSpline
210
0.0
220
0.0
230
1.0
 70
     8
 71
     3
 72
     9
 73
     5
 74
     3
 42
0.0000000001
 43
0.0000000001
 44
0.000001
 12
-0.1740597242984542
 22
-0.9847350975654041
 32
0.0
 13
-0.5145281351077995
 23
-0.8574734970729359
 33
0.0
 40
0.0
 40
0.0
 40
0.0
 40
0.0
 40
0.0499205989764403
 40
0.099761247080126
 40
0.099761247080126
 40
0.099761247080126
 40
0.099761247080126
 10
42.36975103647266
 20
-4.412826850339597
 30
0.0
 10
42.36685464790777
 20
-4.429213038974126
 30
0.0
 10
42.35789511435701
 20
-4.461456595629642
 30
0.0
 10
42.34338706359053
 20
-4.491598755733594
 30
0.0
 10
42.33483892501674
 20
-4.505844434008877
 30
0.0
 11
42.36975103647266
 21
-4.412826850339597
 31
0.0
 11
42.35649759087697
 21
-4.460956100709807
 31
0.0
 11
42.33483892501674
 21
-4.505844434008877
 31
0.0
  0
SPLINE
  5
1CE
330
2
100
AcDbEntity
  8
GAIKEI
  6
Continuous
 62
     1
100
AcDbSpline
210
0.0
220
0.0
230
1.0
 70
     8
 71
     3
 72
    25
 73
    21
 74
    19
 42
0.0000000001
 43
0.0000000001
 44
0.000001
 12
0.9671989480162134
 22
0.2540200680189069
 32
0.0
 13
-0.0735875879962012
 23
0.9972887580299406
 33
0.0
 40
0.0
 40
0.0
 40
0.0
 40
0.0
 40
0.001614971531049
 40
0.0050156123112065
 40
0.0107650426525201
 40
0.0189186835237209
 40
0.0295122406667506
 40
0.0427380812251612
 40
0.0589352567370904
 40
0.078566738359284
 40
0.1021905311045828
 40
0.1304316592073148
 40
0.1561908655718462
 40
0.1822189237706262
 40
0.2081491574787347
 40
0.2335745890526284
 40
0.2580611698629571
 40
0.2811576054949131
 40
0.302403798651569
 40
0.3213412923670975
 40
0.3213412923670975
 40
0.3213412923670975
 40
0.3213412923670975
 10
42.17022709879886
 20
-4.629928914061138
 30
0.0
 10
42.17074776505416
 20
-4.629792169001749
 30
0.0
 10
42.17233319384977
 20
-4.629251151774039
 30
0.0
 10
42.17560291353584
 20
-4.627756889927359
 30
0.0
 10
42.18053634070964
 20
-4.624737371565251
 30
0.0
 10
42.18691613237664
 20
-4.619601864523134
 30
0.0
 10
42.19423638056382
 20
-4.611806633775941
 30
0.0
 10
42.20194153072839
 20
-4.600865632513532
 30
0.0
 10
42.20947369382732
 20
-4.586298251611629
 30
0.0
 10
42.21628364889517
 20
-4.567635767462812
 30
0.0
 10
42.22183629062192
 20
-4.544411058361937
 30
0.0
 10
42.22524274876824
 20
-4.518721201823131
 30
0.0
 10
42.22671908571214
 20
-4.492070354877923
 30
0.0
 10
42.22674723621007
 20
-4.466154452055608
 30
0.0
 10
42.22568705507472
 20
-4.440376067102183
 30
0.0
 10
42.22386213697897
 20
-4.415158435010293
 30
0.0
 10
42.22158956066974
 20
-4.390927620222724
 30
0.0
 10
42.21918623542182
 20
-4.368110591953525
 30
0.0
 10
42.21696771732999
 20
-4.347134563854305
 30
0.0
 10
42.21573556829125
 20
-4.333795080012123
 30
0.0
 10
42.21527104679617
 20
-4.327499696816203
 30
0.0
 11
42.17022709879886
 21
-4.629928914061138
 31
0.0
 11
42.17176213036922
 21
-4.629426694432936
 31
0.0
 11
42.17486577095034
 21
-4.628036824104611
 31
0.0
 11
42.17979202103467
 21
-4.625072379739491
 31
0.0
 11
42.18616882993681
 21
-4.619991237158926
 31
0.0
 11
42.19346198727627
 21
-4.612307943529997
 31
0.0
 11
42.2011372826727
 21
-4.601537046019756
 31
0.0
 11
42.20866050574556
 21
-4.587193091795228
 31
0.0
 11
42.21549744611443
 21
-4.568790628023548
 31
0.0
 11
42.22111389339885
 21
-4.545844201871715
 31
0.0
 11
42.22497563721836
 21
-4.517868360506809
 31
0.0
 11
42.22648204670353
 21
-4.492153244216722
 31
0.0
 11
42.22656355877965
 21
-4.466125314800621
 31
0.0
 11
42.22554412453876
 21
-4.440215126439881
 31
0.0
 11
42.22374769507267
 21
-4.414853233315965
 31
0.0
 11
42.22149822147347
 21
-4.390470189610225
 31
0.0
 11
42.21911965483302
 21
-4.367496549504095
 31
0.0
 11
42.21693594624325
 21
-4.346362867178953
 31
0.0
 11
42.21527104679617
 21
-4.327499696816203
 31
0.0
  0
SPLINE
  5
1CF
330
2
100
AcDbEntity
  8
GAIKEI
  6
Continuous
 62
     1
100
AcDbSpline
210
0.0
220
0.0
230
1.0
 70
     8
 71
     3
 72
    11
 73
     7
 74
     5
 42
0.0000000001
 43
0.0000000001
 44
0.000001
 12
0.0015222858712839
 22
0.9999988413221919
 32
0.0
 13
-0.4566484066018179
 23
-0.8896472518633554
 33
0.0
 40
0.0
 40
0.0
 40
0.0
 40
0.0
 40
0.0355010350953154
 40
0.0727369138243387
 40
0.1352504283146229
 40
0.215491664410245
 40
0.215491664410245
 40
0.215491664410245
 40
0.215491664410245
 10
42.37408453282471
 20
-4.327499696816203
 30
0.0
 10
42.37410254706609
 20
-4.315666032162519
 30
0.0
 10
42.36811487871297
 20
-4.290190605525181
 30
0.0
 10
42.32904745352324
 20
-4.262092884069139
 30
0.0
 10
42.26304039360376
 20
-4.264694177864099
 30
0.0
 10
42.22748505766512
 20
-4.303704231756674
 30
0.0
 10
42.21527104679617
 20
-4.327499696816203
 30
0.0
 11
42.37408453282471
 21
-4.327499696816203
 31
0.0
 11
42.36467903029146
 21
-4.293266247611454
 31
0.0
 11
42.33526617113596
 21
-4.270431822320944
 31
0.0
 11
42.27276194445315
 21
-4.271522242223028
 31
0.0
 11
42.21527104679617
 21
-4.327499696816203
 31
0.0
  0
SPLINE
  5
1D0
330
2
100
AcDbEntity
  8
GAIKEI
  6
Continuous
 62
     1
100
AcDbSpline
210
0.0
220
0.0
230
1.0
 70
     8
 71
     3
 72
    11
 73
     7
 74
     5
 42
0.0000000001
 43
0.0000000001
 44
0.000001
 12
-0.2462178745595128
 22
-0.9692145057970378
 32
0.0
 13
0.0022214769121426
 23
0.9999975325171202
 33
0.0
 40
0.0
 40
0.0
 40
0.0
 40
0.0
 40
0.0213790245570708
 40
0.0356970595796195
 40
0.0574789945407021
 40
0.0752630840815693
 40
0.0752630840815693
 40
0.0752630840815693
 40
0.0752630840815693
 10
42.14239506588993
 20
-4.482467967771782
 30
0.0
 10
42.14064043322774
 20
-4.489374921345284
 30
0.0
 10
42.13652102308905
 20
-4.501426342895566
 30
0.0
 10
42.11555868741475
 20
-4.510131449716541
 30
0.0
 10
42.10290958285011
 20
-4.491805709539675
 30
0.0
 10
42.09904693338804
 20
-4.479545884807668
 30
0.0
 10
42.09906010236948
 20
-4.473617869588025
 30
0.0
 11
42.14239506588993
 21
-4.482467967771782
 31
0.0
 11
42.13251444280142
 21
-4.501427620719454
 31
0.0
 11
42.11901859965284
 21
-4.506210644968206
 31
0.0
 11
42.1036150895366
 21
-4.49080961707736
 31
0.0
 11
42.09906010236948
 21
-4.473617869588025
 31
0.0
  0
SPLINE
  5
1D1
330
2
100
AcDbEntity
  8
GAIKEI
  6
Continuous
 62
     1
100
AcDbSpline
210
0.0
220
0.0
230
1.0
 70
     8
 71
     3
 72
     9
 73
     5
 74
     3
 42
0.0000000001
 43
0.0000000001
 44
0.000001
 12
-0.9985505398405583
 22
-0.0538221086927053
 32
0.0
 13
0.0009939570685328
 23
0.9999995060245511
 33
0.0
 40
0.0
 40
0.0
 40
0.0
 40
0.0
 40
0.0316465249667487
 40
0.0434022489457552
 40
0.0434022489457552
 40
0.0434022489457552
 40
0.0434022489457552
 10
42.14239506588993
 20
-4.209213556953301
 30
0.0
 10
42.13186151436006
 20
-4.20978131785547
 30
0.0
 10
42.12261114422278
 20
-4.206550614633967
 30
0.0
 10
42.09905620747449
 20
-4.21313212967729
 30
0.0
 10
42.09906010236948
 20
-4.209213556953301
 30
0.0
 11
42.14239506588993
 21
-4.209213556953301
 31
0.0
 11
42.11076750238514
 21
-4.210286054939246
 31
0.0
 11
42.09906010236948
 21
-4.209213556953301
 31
0.0
  0
SPLINE
  5
1D2
330
2
100
AcDbEntity
  8
GAIKEI
  6
Continuous
 62
     1
100
AcDbSpline
210
0.0
220
0.0
230
1.0
 70
     8
 71
     3
 72
    13
 73
     9
 74
     7
 42
0.0000000001
 43
0.0000000001
 44
0.000001
 12
0.3596970176533544
 22
-0.933069159007671
 32
0.0
 13
0.8303267561068238
 23
-0.5572768415187546
 33
0.0
 40
0.0
 40
0.0
 40
0.0
 40
0.0
 40
0.0445009805043494
 40
0.0892131878572421
 40
0.2326619285703825
 40
0.3562789295719575
 40
0.4044119270491963
 40
0.4898258576175736
 40
0.4898258576175736
 40
0.4898258576175736
 40
0.4898258576175736
 10
40.89421324903502
 20
19.76432495380433
 30
0.0
 10
40.89954887235838
 20
19.75048412298626
 30
0.0
 10
40.91051096162784
 20
19.72284451673957
 30
0.0
 10
40.94063667607875
 20
19.65132317482884
 30
0.0
 10
40.98653572602652
 20
19.55854144976962
 30
0.0
 10
41.04827932797729
 20
19.47025092508433
 30
0.0
 10
41.11977871803264
 20
19.42222812042024
 30
0.0
 10
41.156657349944
 20
19.39747456348553
 30
0.0
 10
41.18029784057572
 20
19.38160816166925
 30
0.0
 11
40.89421324903502
 21
19.76432495380433
 31
0.0
 11
40.91063076872671
 21
19.72296305957346
 31
0.0
 11
40.92803952475871
 21
19.68177907799833
 31
0.0
 11
40.99320458429308
 21
19.55398588578146
 31
0.0
 11
41.07037351761747
 21
19.45741383025012
 31
0.0
 11
41.10938013636074
 21
19.4292132645225
 31
0.0
 11
41.18029784057572
 21
19.38160816166925
 31
0.0
  0
SPLINE
  5
1D3
330
2
100
AcDbEntity
  8
GAIKEI
  6
Continuous
 62
     1
100
AcDbSpline
210
0.0
220
0.0
230
1.0
 70
     8
 71
     3
 72
    11
 73
     7
 74
     5
 42
0.0000000001
 43
0.0000000001
 44
0.000001
 12
-0.8942966538041691
 22
0.447474574690748
 32
0.0
 13
0.0000341928975867
 23
0.9999999994154229
 33
0.0
 40
0.0
 40
0.0
 40
0.0
 40
0.0
 40
0.1288141245564171
 40
0.2573806169544791
 40
0.3879065356552104
 40
0.5197115541306588
 40
0.5197115541306588
 40
0.5197115541306588
 40
0.5197115541306588
 10
41.04766843813915
 20
15.03114403517386
 30
0.0
 10
41.00926909128797
 20
15.05035771704054
 30
0.0
 10
40.93864914576442
 20
15.10222354458464
 30
0.0
 10
40.86170386233837
 20
15.20820267119946
 30
0.0
 10
40.81480600052546
 20
15.33117723410662
 30
0.0
 10
40.80407561276106
 20
15.41897175008863
 30
0.0
 10
40.80407711502622
 20
15.46290675622143
 30
0.0
 11
41.04766843813915
 21
15.03114403517386
 31
0.0
 11
40.94348117207292
 21
15.10689590310906
 31
0.0
 11
40.86709249422861
 21
15.21030833628106
 31
0.0
 11
40.82009395756134
 21
15.33207929916136
 31
0.0
 11
40.80407711502622
 21
15.46290675622143
 31
0.0
  0
SPLINE
  5
1D4
330
2
100
AcDbEntity
  8
GAIKEI
  6
Continuous
 62
     1
100
AcDbSpline
210
0.0
220
0.0
230
1.0
 70
     8
 71
     3
 72
    11
 73
     7
 74
     5
 42
0.0000000001
 43
0.0000000001
 44
0.000001
 12
-0.0003823422944843
 22
-0.9999999269071825
 32
0.0
 13
0.8804453328006502
 23
-0.4741476731457748
 33
0.0
 40
0.0
 40
0.0
 40
0.0
 40
0.0
 40
0.1206607758104687
 40
0.2428295030391333
 40
0.3661144945035475
 40
0.4900228211764607
 40
0.4900228211764607
 40
0.4900228211764607
 40
0.4900228211764607
 10
40.80407711502622
 20
15.60438625684176
 30
0.0
 10
40.80406173712026
 20
15.56416600117808
 30
0.0
 10
40.81639488996081
 20
15.48285174693929
 30
0.0
 10
40.86664190264733
 20
15.37022925603415
 30
0.0
 10
40.94406137410479
 20
15.27286427784431
 30
0.0
 10
41.01130360216771
 20
15.22315197678251
 30
0.0
 10
41.04766843813915
 20
15.2035683618574
 30
0.0
 11
40.80407711502622
 21
15.60438625684176
 31
0.0
 11
40.82150200263172
 21
15.48498928843102
 31
0.0
 11
40.87088889043887
 21
15.37324791683718
 31
0.0
 11
40.9477677213179
 21
15.27687124149955
 31
0.0
 11
41.04766843813915
 21
15.2035683618574
 31
0.0
  0
SPLINE
  5
1D5
330
2
100
AcDbEntity
  8
GAIKEI
  6
Continuous
 62
     1
100
AcDbSpline
210
0.0
220
0.0
230
1.0
 70
     8
 71
     3
 72
    13
 73
     9
 74
     7
 42
0.0000000001
 43
0.0000000001
 44
0.000001
 12
-0.1863999512363903
 22
0.9824739478373313
 32
0.0
 13
0.4459120888327769
 23
0.8950767615309818
 33
0.0
 40
0.0
 40
0.0
 40
0.0
 40
0.0
 40
0.0301827171174544
 40
0.0732653686858095
 40
0.1318623522492082
 40
0.2017746703932685
 40
0.2956142245785363
 40
0.4260883385556884
 40
0.4260883385556884
 40
0.4260883385556884
 40
0.4260883385556884
 10
41.04766843813915
 20
15.2035683618574
 30
0.0
 10
41.04579308580619
 20
15.21345293960501
 30
0.0
 10
41.04607188845475
 20
15.23822188059774
 30
0.0
 10
41.05377901302282
 20
15.28147340668217
 30
0.0
 10
41.06709279448413
 20
15.33716903958567
 30
0.0
 10
41.09029382804162
 20
15.40764889693576
 30
0.0
 10
41.12843091675666
 20
15.49808798376146
 30
0.0
 10
41.16090451234167
 20
15.56545814104099
 30
0.0
 10
41.18029784057572
 20
15.60438625684176
 30
0.0
 11
41.04766843813915
 21
15.2035683618574
 31
0.0
 11
41.04670321909059
 21
15.23373581292125
 31
0.0
 11
41.05322263768896
 21
15.27632227244388
 31
0.0
 11
41.06693070232954
 21
15.33329327358899
 31
0.0
 11
41.08855249016247
 21
15.39977809387116
 31
0.0
 11
41.12427815248029
 21
15.48655099953916
 31
0.0
 11
41.18029784057572
 21
15.60438625684176
 31
0.0
  0
SPLINE
  5
1D6
330
2
100
AcDbEntity
  8
GAIKEI
  6
Continuous
100
AcDbSpline
210
0.0
220
0.0
230
1.0
 70
     8
 71
     3
 72
     9
 73
     5
 74
     3
 42
0.0000000001
 43
0.0000000001
 44
0.000001
 12
-0.228940221854976
 22
0.9734404834487799
 32
0.0
 13
-0.9781629580561467
 23
0.2078394271711907
 33
0.0
 40
0.0
 40
0.0
 40
0.0
 40
0.0
 40
0.076800340386298
 40
0.1232767023991631
 40
0.1232767023991631
 40
0.1232767023991631
 40
0.1232767023991631
 10
41.24377555885444
 20
20.28318938590397
 30
0.0
 10
41.23791466319891
 20
20.30810957272886
 30
0.0
 10
41.22730420925541
 20
20.34766922271541
 30
0.0
 10
41.19545165915779
 20
20.38095182450327
 30
0.0
 10
41.18029784057572
 20
20.38417169798919
 30
0.0
 11
41.24377555885444
 21
20.28318938590397
 31
0.0
 11
41.21644995774305
 21
20.35496300576014
 31
0.0
 11
41.18029784057572
 21
20.38417169798919
 31
0.0
  0
SPLINE
  5
1D7
330
2
100
AcDbEntity
  8
GAIKEI
  6
Continuous
100
AcDbSpline
210
0.0
220
0.0
230
1.0
 70
     8
 71
     3
 72
     9
 73
     5
 74
     3
 42
0.0000000001
 43
0.0000000001
 44
0.000001
 12
0.0079263994431562
 22
0.9999685856025015
 32
0.0
 13
-0.9712813647251413
 23
0.2379338364707028
 33
0.0
 40
0.0
 40
0.0
 40
0.0
 40
0.0
 40
0.0716707874566186
 40
0.0906323653615582
 40
0.0906323653615582
 40
0.0906323653615582
 40
0.0906323653615582
 10
41.81561914944801
 20
20.16065147363392
 30
0.0
 10
41.81580851321127
 20
20.18454098562126
 30
0.0
 10
41.80784376493111
 20
20.20640785204351
 30
0.0
 10
41.81418346911188
 20
20.24924497148192
 30
0.0
 10
41.80804446002359
 20
20.25074883847407
 30
0.0
 11
41.81561914944801
 21
20.16065147363392
 31
0.0
 11
41.81215617908353
 21
20.23223786227666
 31
0.0
 11
41.80804446002359
 21
20.25074883847407
 31
0.0
  0
SPLINE
  5
1D8
330
2
100
AcDbEntity
  8
GAIKEI
  6
Continuous
100
AcDbSpline
210
0.0
220
0.0
230
1.0
 70
     8
 71
     3
 72
     9
 73
     5
 74
     3
 42
0.0000000001
 43
0.0000000001
 44
0.000001
 12
0.9476067522711588
 22
-0.3194392634760274
 32
0.0
 13
0.9781595216317647
 23
-0.207855599494258
 33
0.0
 40
0.0
 40
0.0
 40
0.0
 40
0.0
 40
0.0000303572916962
 40
0.0000610584876069
 40
0.0000610584876069
 40
0.0000610584876069
 40
0.0000610584876069
 10
40.38494867207547
 20
20.55323909087889
 30
0.0
 10
40.38495826100033
 20
20.55323585844192
 30
0.0
 10
40.38497928966148
 20
20.55323798607342
 30
0.0
 10
40.38499969701299
 20
20.55324121801739
 30
0.0
 10
40.38500970723536
 20
20.55323909087889
 30
0.0
 11
40.38494867207547
 21
20.55323909087889
 31
0.0
 11
40.38497924981167
 21
20.55323812572033
 31
0.0
 11
40.38500970723536
 21
20.55323909087889
 31
0.0
  0
SPLINE
  5
1D9
330
2
100
AcDbEntity
  8
GAIKEI
  6
Continuous
100
AcDbSpline
210
0.0
220
0.0
230
1.0
 70
     8
 71
     3
 72
     9
 73
     5
 74
     3
 42
0.0000000001
 43
0.0000000001
 44
0.000001
 12
0.97199515865132
 22
-0.2350008756545292
 32
0.0
 13
0.9088829148800572
 23
-0.4170513721822898
 33
0.0
 40
0.0
 40
0.0
 40
0.0
 40
0.0
 40
0.0095490869333854
 40
0.0191512755967972
 40
0.0191512755967972
 40
0.0191512755967972
 40
0.0191512755967972
 10
40.4381102963379
 20
20.53852961734589
 30
0.0
 10
40.44120418509416
 20
20.53778160274887
 30
0.0
 10
40.44733816469846
 20
20.53597182847121
 30
0.0
 10
40.45326761525754
 20
20.53357786453011
 30
0.0
 10
40.45617670366475
 20
20.53224299587743
 30
0.0
 11
40.4381102963379
 21
20.53852961734589
 31
0.0
 11
40.44727086954684
 21
20.53583243506435
 31
0.0
 11
40.45617670366475
 21
20.53224299587743
 31
0.0
  0
SPLINE
  5
1DA
330
2
100
AcDbEntity
  8
GAIKEI
  6
Continuous
100
AcDbSpline
210
0.0
220
0.0
230
1.0
 70
     8
 71
     3
 72
     9
 73
     5
 74
     3
 42
0.0000000001
 43
0.0000000001
 44
0.000001
 12
0.9285769966303645
 22
-0.3711398137210987
 32
0.0
 13
0.8342620363354255
 23
-0.5513681662278568
 33
0.0
 40
0.0
 40
0.0
 40
0.0
 40
0.0
 40
0.0162320771835542
 40
0.0325811667065142
 40
0.0325811667065142
 40
0.0325811667065142
 40
0.0325811667065142
 10
40.49835199914734
 20
20.51472590498958
 30
0.0
 10
40.50337624364074
 20
20.51271778162218
 30
0.0
 10
40.51330418171141
 20
20.50827655283643
 30
0.0
 10
40.52273619002836
 20
20.50283811514684
 30
0.0
 10
40.52728266493424
 20
20.49983332597691
 30
0.0
 11
40.49835199914734
 21
20.51472590498958
 31
0.0
 11
40.51314485585804
 21
20.508045805065
 31
0.0
 11
40.52728266493424
 21
20.49983332597691
 31
0.0
  0
SPLINE
  5
1DB
330
2
100
AcDbEntity
  8
GAIKEI
  6
Continuous
100
AcDbSpline
210
0.0
220
0.0
230
1.0
 70
     8
 71
     3
 72
     9
 73
     5
 74
     3
 42
0.0000000001
 43
0.0000000001
 44
0.000001
 12
0.9975914891662062
 22
-0.0693629637713897
 32
0.0
 13
0.8773045369304625
 23
-0.4799341095204913
 33
0.0
 40
0.0
 40
0.0
 40
0.0
 40
0.0
 40
0.0098074236358286
 40
0.0196844074862848
 40
0.0196844074862848
 40
0.0196844074862848
 40
0.0196844074862848
 10
40.40966791183011
 20
20.54615901233189
 30
0.0
 10
40.41292917928003
 20
20.54593225500845
 30
0.0
 10
40.41945192537443
 20
20.54482704348487
 30
0.0
 10
40.42557836682787
 20
20.54230698358486
 30
0.0
 10
40.4284667410756
 20
20.54072688310185
 30
0.0
 11
40.40966791183011
 21
20.54615901233189
 31
0.0
 11
40.41933055361839
 21
20.5444807308846
 31
0.0
 11
40.4284667410756
 21
20.54072688310185
 31
0.0
  0
SPLINE
  5
1DC
330
2
100
AcDbEntity
  8
GAIKEI
  6
Continuous
100
AcDbSpline
210
0.0
220
0.0
230
1.0
 70
     8
 71
     3
 72
     9
 73
     5
 74
     3
 42
0.0000000001
 43
0.0000000001
 44
0.000001
 12
0.9007582109122999
 22
-0.4343209014934379
 32
0.0
 13
0.8072984539028846
 23
-0.5901433777701925
 33
0.0
 40
0.0
 40
0.0
 40
0.0
 40
0.0
 40
0.0120400664915421
 40
0.0241674127352776
 40
0.0241674127352776
 40
0.0241674127352776
 40
0.0241674127352776
 10
40.50921625760739
 20
20.51039240863753
 30
0.0
 10
40.51283132052479
 20
20.50864932445998
 30
0.0
 10
40.52003135544059
 20
20.50502894740592
 30
0.0
 10
40.5268878548248
 20
20.50075410649816
 30
0.0
 10
40.53015131744897
 20
20.4983684821396
 30
0.0
 11
40.50921625760739
 21
20.51039240863753
 31
0.0
 11
40.5199193525489
 21
20.50488026342674
 31
0.0
 11
40.53015131744897
 21
20.4983684821396
 31
0.0
  0
SPLINE
  5
1DD
330
2
100
AcDbEntity
  8
GAIKEI
  6
Continuous
100
AcDbSpline
210
0.0
220
0.0
230
1.0
 70
     8
 71
     3
 72
     9
 73
     5
 74
     3
 42
0.0000000001
 43
0.0000000001
 44
0.000001
 12
0.9796871977183204
 22
-0.2005317795932212
 32
0.0
 13
0.7383676368651692
 23
-0.6743984229149308
 33
0.0
 40
0.0
 40
0.0
 40
0.0
 40
0.0
 40
0.0284893840296728
 40
0.0668705966584571
 40
0.0668705966584571
 40
0.0668705966584571
 40
0.0668705966584571
 10
40.38922113326764
 20
20.55232356348057
 30
0.0
 10
40.39852469486922
 20
20.55041922118757
 30
0.0
 10
40.42006939064344
 20
20.54689480606584
 30
0.0
 10
40.44355639359433
 20
20.54184763485777
 30
0.0
 10
40.45300287535058
 20
20.53321955843563
 30
0.0
 11
40.38922113326764
 21
20.55232356348057
 31
0.0
 11
40.41723408409573
 21
20.5471392408088
 31
0.0
 11
40.45300287535058
 21
20.53321955843563
 31
0.0
  0
SPLINE
  5
1DE
330
2
100
AcDbEntity
  8
GAIKEI
  6
Continuous
100
AcDbSpline
210
0.0
220
0.0
230
1.0
 70
     8
 71
     3
 72
     9
 73
     5
 74
     3
 42
0.0000000001
 43
0.0000000001
 44
0.000001
 12
0.974571587853388
 22
-0.2240763712418738
 32
0.0
 13
0.8019783848264074
 23
-0.5973530532869376
 33
0.0
 40
0.0
 40
0.0
 40
0.0
 40
0.0
 40
0.037409860252169
 40
0.0749238911644015
 40
0.0749238911644015
 40
0.0749238911644015
 40
0.0749238911644015
 10
40.47650141190746
 20
20.52485774153098
 30
0.0
 10
40.4886542742099
 20
20.52206351961966
 30
0.0
 10
40.51193383667621
 20
20.51226232876308
 30
0.0
 10
40.53336746650489
 20
20.49930742700042
 30
0.0
 10
40.54339594714466
 20
20.49183772003158
 30
0.0
 11
40.47650141190746
 21
20.52485774153098
 31
0.0
 11
40.51144106816143
 21
20.51148873940238
 31
0.0
 11
40.54339594714466
 21
20.49183772003158
 31
0.0
  0
SPLINE
  5
1DF
330
2
100
AcDbEntity
  8
GAIKEI
  6
Continuous
100
AcDbSpline
210
0.0
220
0.0
230
1.0
 70
     8
 71
     3
 72
     9
 73
     5
 74
     3
 42
0.0000000001
 43
0.0000000001
 44
0.000001
 12
0.8216128654306013
 22
-0.5700458747845799
 32
0.0
 13
0.7561419739598785
 23
-0.6544076063250324
 33
0.0
 40
0.0
 40
0.0
 40
0.0
 40
0.0
 40
0.0283706002317302
 40
0.0567420865417502
 40
0.0567420865417502
 40
0.0567420865417502
 40
0.0567420865417502
 10
40.57794184764127
 20
20.47065851955045
 30
0.0
 10
40.58571173102473
 20
20.4652676716747
 30
0.0
 10
40.60096116201312
 20
20.45406111409627
 30
0.0
 10
40.61559069777816
 20
20.44205731722898
 30
0.0
 10
40.62274165499903
 20
20.43586847841431
 30
0.0
 11
40.57794184764127
 21
20.47065851955045
 31
0.0
 11
40.60080624289393
 21
20.45386197621772
 31
0.0
 11
40.62274165499903
 21
20.43586847841431
 31
0.0
  0
SPLINE
  5
1E0
330
2
100
AcDbEntity
  8
GAIKEI
  6
Continuous
 62
     1
100
AcDbSpline
210
0.0
220
0.0
230
1.0
 70
     8
 71
     3
 72
    11
 73
     7
 74
     5
 42
0.0000000001
 43
0.0000000001
 44
0.000001
 12
-0.0010703563239132
 22
0.9999994271685059
 32
0.0
 13
-0.001070356323913
 23
0.9999994271685059
 33
0.0
 40
0.0
 40
0.0
 40
0.0
 40
0.0
 40
0.0842517119636579
 40
0.2610778965508669
 40
0.4379040811380485
 40
0.5221557931017348
 40
0.5221557931017348
 40
0.5221557931017348
 40
0.5221557931017348
 10
41.38842773579374
 20
-5.695053489266257
 30
0.0
 10
41.3883976760095
 20
-5.666969601365716
 30
0.0
 10
41.38844847267419
 20
-5.579943604527935
 30
0.0
 10
41.38842773579365
 20
-5.433975592845436
 30
0.0
 10
41.38840699891354
 20
-5.28800758116293
 30
0.0
 10
41.38845779557797
 20
-5.200981584325148
 30
0.0
 10
41.38842773579374
 20
-5.172897696424597
 30
0.0
 11
41.38842773579374
 21
-5.695053489266257
 31
0.0
 11
41.38842488343191
 21
-5.610801776824728
 31
0.0
 11
41.38842773579374
 21
-5.433975592845428
 31
0.0
 11
41.38843058815568
 21
-5.257149408866155
 31
0.0
 11
41.38842773579374
 21
-5.172897696424597
 31
0.0
  0
SPLINE
  5
1E1
330
2
100
AcDbEntity
  8
GAIKEI
  6
Continuous
 62
     1
100
AcDbSpline
210
0.0
220
0.0
230
1.0
 70
     8
 71
     3
 72
    13
 73
     9
 74
     7
 42
0.0000000001
 43
0.0000000001
 44
0.000001
 12
0.753073790038753
 22
0.6579360658579742
 32
0.0
 13
-1.0
 23
0.0000000000000001
 33
0.0
 40
0.0
 40
0.0
 40
0.0
 40
0.0
 40
0.0783056690111598
 40
0.1797051934013711
 40
0.3131113426639831
 40
0.4219399968709653
 40
0.4952544847326477
 40
0.52211432071261
 40
0.52211432071261
 40
0.52211432071261
 40
0.52211432071261
 10
41.68322755805268
 20
-4.512863477395995
 30
0.0
 10
41.70288420703393
 20
-4.495690102794801
 30
0.0
 10
41.75020694342706
 20
-4.459179774991766
 30
0.0
 10
41.83467680554671
 20
-4.395920737848779
 30
0.0
 10
41.92026367613592
 20
-4.328429189434162
 30
0.0
 10
42.02082025131296
 20
-4.260049287518299
 30
0.0
 10
42.04392334934853
 20
-4.229274579895546
 30
0.0
 10
42.10801338102946
 20
-4.197189630455368
 30
0.0
 10
42.09906010236948
 20
-4.197189630455368
 30
0.0
 11
41.68322755805268
 21
-4.512863477395995
 31
0.0
 11
41.74434435581979
 21
-4.463910813023516
 31
0.0
 11
41.82513430479223
 21
-4.402633978638307
 31
0.0
 11
41.93149823636807
 21
-4.322111204954211
 31
0.0
 11
42.01860308384396
 21
-4.256869942964185
 31
0.0
 11
42.07745499118832
 21
-4.213149611765459
 31
0.0
 11
42.09906010236948
 21
-4.197189630455368
 31
0.0
  0
SPLINE
  5
1E2
330
2
100
AcDbEntity
  8
GAIKEI
  6
Continuous
 62
     1
100
AcDbSpline
210
0.0
220
0.0
230
1.0
 70
     8
 71
     3
 72
    11
 73
     7
 74
     5
 42
0.0000000001
 43
0.0000000001
 44
0.000001
 12
0.9987564980174209
 22
0.049854364583028
 32
0.0
 13
0.0002726581662577
 23
-0.9999999628287616
 33
0.0
 40
0.0
 40
0.0
 40
0.0
 40
0.0
 40
0.166127340119686
 40
0.297856436116535
 40
0.3847037589629945
 40
0.4165648482961413
 40
0.4165648482961413
 40
0.4165648482961413
 40
0.4165648482961413
 10
41.68322755805268
 20
-7.048569194942075
 30
0.0
 10
41.73853447820031
 20
-7.045808470614897
 30
0.0
 10
41.83454377146618
 20
-7.043805804568702
 30
0.0
 10
41.97348294801684
 20
-7.035093672563554
 30
0.0
 10
42.03633778718588
 20
-7.048995860446241
 30
0.0
 10
42.09905720664074
 20
-7.037948832225798
 30
0.0
 10
42.09906010236948
 20
-7.048569194942075
 30
0.0
 11
41.68322755805268
 21
-7.048569194942075
 31
0.0
 11
41.84922812265192
 21
-7.042099857286813
 31
0.0
 11
41.98094467616434
 21
-7.040282807719875
 31
0.0
 11
42.06776080670015
 21
-7.042608951764066
 31
0.0
 11
42.09906010236948
 21
-7.048569194942075
 31
0.0
  0
SPLINE
  5
1E3
330
2
100
AcDbEntity
  8
GAIKEI
  6
Continuous
 62
     1
100
AcDbSpline
210
0.0
220
0.0
230
1.0
 70
     8
 71
     3
 72
     9
 73
     5
 74
     3
 42
0.0000000001
 43
0.0000000001
 44
0.000001
 12
0.00441624400497
 22
0.999990248346897
 32
0.0
 13
-0.9988625858354369
 23
-0.0476815962206028
 33
0.0
 40
0.0
 40
0.0
 40
0.0
 40
0.0
 40
0.0619392336225048
 40
0.2180288114584842
 40
0.2180288114584842
 40
0.2180288114584842
 40
0.2180288114584842
 10
41.37408447322006
 20
-6.58091779988038
 30
0.0
 10
41.37417565280978
 20
-6.560271590009519
 30
0.0
 10
41.25494726903692
 20
-6.597223166772794
 30
0.0
 10
41.2082206673596
 20
-6.57843693313884
 30
0.0
 10
41.15624998757986
 20
-6.58091779988038
 30
0.0
 11
41.37408447322006
 21
-6.58091779988038
 31
0.0
 11
41.31228364941647
 21
-6.576768851393921
 31
0.0
 11
41.15624998757986
 21
-6.58091779988038
 31
0.0
  0
SPLINE
  5
1E4
330
2
100
AcDbEntity
  8
GAIKEI
  6
Continuous
 62
     1
100
AcDbSpline
210
0.0
220
0.0
230
1.0
 70
     8
 71
     3
 72
    13
 73
     9
 74
     7
 42
0.0000000001
 43
0.0000000001
 44
0.000001
 12
0.0012464214186471
 22
-0.9999992232165219
 32
0.0
 13
-0.9985877679209654
 23
-0.0531269212229018
 33
0.0
 40
0.0
 40
0.0
 40
0.0
 40
0.0
 40
0.2417826895643918
 40
0.5178336125674256
 40
0.7481207083284695
 40
0.9035648525459441
 40
0.9917518536177427
 40
1.019903192777798
 40
1.019903192777798
 40
1.019903192777798
 40
1.019903192777798
 10
41.15624998757986
 20
-6.58091779988038
 30
0.0
 10
41.15635044195417
 20
-6.661511967130912
 30
0.0
 10
41.15762857609268
 20
-6.833670249162522
 30
0.0
 10
41.15833278546566
 20
-7.085175501509286
 30
0.0
 10
41.1453165833993
 20
-7.299653767600741
 30
0.0
 10
41.14236157340566
 20
-7.470201941788898
 30
0.0
 10
41.11384705382499
 20
-7.538621646932063
 30
0.0
 10
41.12283486814366
 20
-7.597936419046944
 30
0.0
 10
41.11346434049838
 20
-7.598434950372903
 30
0.0
 11
41.15624998757986
 21
-6.58091779988038
 31
0.0
 11
41.15737095144264
 21
-6.822697141684129
 31
0.0
 11
41.15527342502165
 21
-7.098740096369994
 31
0.0
 11
41.14569072836443
 21
-7.328827725914122
 31
0.0
 11
41.13215451077228
 21
-7.483681368859634
 31
0.0
 11
41.11972547917404
 21
-7.570988089061045
 31
0.0
 11
41.11346434049838
 21
-7.598434950372903
 31
0.0
  0
SPLINE
  5
1E5
330
2
100
AcDbEntity
  8
GAIKEI
  6
Continuous
 62
     1
100
AcDbSpline
210
0.0
220
0.0
230
1.0
 70
     8
 71
     3
 72
     9
 73
     5
 74
     3
 42
0.0000000001
 43
0.0000000001
 44
0.000001
 12
-0.0001282874902118
 22
-0.9999999917711599
 32
0.0
 13
-0.4029774593087212
 23
-0.9152099034041798
 33
0.0
 40
0.0
 40
0.0
 40
0.0
 40
0.0
 40
0.0545541254554432
 40
0.1148452902883939
 40
0.1148452902883939
 40
0.1148452902883939
 40
0.1148452902883939
 10
41.37408447322006
 20
-7.323776730877
 30
0.0
 10
41.37408214034945
 20
-7.341961439212508
 30
0.0
 10
41.3700036194158
 20
-7.380299413990456
 30
0.0
 10
41.35844045616469
 20
-7.417139084917591
 30
0.0
 10
41.35034179602364
 20
-7.435532108631888
 30
0.0
 11
41.37408447322006
 21
-7.323776730877
 31
0.0
 11
41.36851748547409
 21
-7.378046033022798
 31
0.0
 11
41.35034179602364
 21
-7.435532108631888
 31
0.0
  0
SPLINE
  5
1E6
330
2
100
AcDbEntity
  8
GAIKEI
  6
Continuous
 62
     1
100
AcDbSpline
210
0.0
220
0.0
230
1.0
 70
     8
 71
     3
 72
    15
 73
    11
 74
     9
 42
0.0000000001
 43
0.0000000001
 44
0.000001
 12
-0.0109598631659733
 22
-0.9999399388960236
 32
0.0
 13
0.99863913019592
 23
0.0521525420429005
 33
0.0
 40
0.0
 40
0.0
 40
0.0
 40
0.0
 40
0.2060160328921503
 40
0.3971841297034693
 40
0.5696126666484791
 40
0.7194120619170672
 40
0.8427021069834472
 40
0.9356304494506685
 40
0.994451032355135
 40
1.01634055825636
 40
1.01634055825636
 40
1.01634055825636
 40
1.01634055825636
 10
40.30230706558715
 20
-6.625656572078269
 30
0.0
 10
40.30155442974365
 20
-6.694324458525528
 30
0.0
 10
40.30069963675923
 20
-6.826693406559425
 30
0.0
 10
40.3012369781929
 20
-7.016669638776825
 30
0.0
 10
40.3035967954118
 20
-7.187467046501142
 30
0.0
 10
40.30719664791904
 20
-7.336899508970562
 30
0.0
 10
40.3129806531952
 20
-7.456110349801912
 30
0.0
 10
40.31762649921971
 20
-7.554145451264234
 30
0.0
 10
40.32708964116499
 20
-7.599366386052357
 30
0.0
 10
40.3299936331675
 20
-7.639464898331585
 30
0.0
 10
40.33728021220297
 20
-7.639084366858297
 30
0.0
 11
40.30230706558715
 21
-6.625656572078269
 31
0.0
 11
40.30099911041013
 21
-6.831667688394816
 31
0.0
 11
40.30162248128822
 21
-7.022834766517945
 31
0.0
 11
40.30402288640867
 21
-7.195246590977347
 31
0.0
 11
40.30804603395885
 21
-7.344991946302712
 31
0.0
 11
40.31353763212602
 21
-7.468159617023815
 31
0.0
 11
40.32034338909753
 21
-7.560838387670286
 31
0.0
 11
40.32830901306072
 21
-7.619117042771875
 31
0.0
 11
40.33728021220297
 21
-7.639084366858297
 31
0.0
  0
SPLINE
  5
1E7
330
2
100
AcDbEntity
  8
GAIKEI
  6
Continuous
100
AcDbSpline
210
0.0
220
0.0
230
1.0
 70
     8
 71
     3
 72
     9
 73
     5
 74
     3
 42
0.0000000001
 43
0.0000000001
 44
0.000001
 12
-0.8772575866336344
 22
-0.4800199232258298
 32
0.0
 13
-0.9663992325400203
 23
-0.2570457611906102
 33
0.0
 40
0.0
 40
0.0
 40
0.0
 40
0.0
 40
0.0254042789014645
 40
0.0504946159949739
 40
0.0504946159949739
 40
0.0504946159949739
 40
0.0504946159949739
 10
41.9440918314139
 20
-7.532211801894447
 30
0.0
 10
41.93666313261414
 20
-7.536276655230411
 30
0.0
 10
41.92130497182477
 20
-7.54330351188824
 30
0.0
 10
41.90523822096381
 20
-7.548433596755151
 30
0.0
 10
41.89715579346003
 20
-7.550583385020727
 30
0.0
 11
41.9440918314139
 21
-7.532211801894447
 31
0.0
 11
41.92102926001875
 21
-7.54286758925528
 31
0.0
 11
41.89715579346003
 21
-7.550583385020727
 31
0.0
  0
SPLINE
  5
1E8
330
2
100
AcDbEntity
  8
GAIKEI
  6
Continuous
100
AcDbSpline
210
0.0
220
0.0
230
1.0
 70
     8
 71
     3
 72
     9
 73
     5
 74
     3
 42
0.0000000001
 43
0.0000000001
 44
0.000001
 12
-0.0388440392278802
 22
-0.9992452855112517
 32
0.0
 13
-0.2905979386519135
 23
-0.9568452529282144
 33
0.0
 40
0.0
 40
0.0
 40
0.0
 40
0.0
 40
0.0216767608425141
 40
0.0435609816912312
 40
0.0435609816912312
 40
0.0435609816912312
 40
0.0435609816912312
 10
42.09887699688981
 20
-7.296371944087297
 30
0.0
 10
42.09859632590698
 20
-7.303592077779643
 30
0.0
 10
42.09743249411734
 20
-7.318091069219537
 30
0.0
 10
42.09440503611111
 20
-7.33236075903739
 30
0.0
 10
42.09228519962191
 20
-7.339340696648433
 30
0.0
 11
42.09887699688981
 21
-7.296371944087297
 31
0.0
 11
42.09697701979478
 21
-7.317964350067682
 31
0.0
 11
42.09228519962191
 21
-7.339340696648433
 31
0.0
  0
SPLINE
  5
1E9
330
2
100
AcDbEntity
  8
GAIKEI
  6
Continuous
 62
     1
100
AcDbSpline
210
0.0
220
0.0
230
1.0
 70
     8
 71
     3
 72
    13
 73
     9
 74
     7
 42
0.0000000001
 43
0.0000000001
 44
0.000001
 12
-0.9958442137968301
 22
-0.091073057746918
 32
0.0
 13
-0.0021490968022977
 23
0.9999976906888008
 33
0.0
 40
0.0
 40
0.0
 40
0.0
 40
0.0
 40
0.018623722284741
 40
0.0751802964372107
 40
0.1192815630830399
 40
0.1723092376012862
 40
0.3776468578458124
 40
0.537260293685632
 40
0.537260293685632
 40
0.537260293685632
 40
0.537260293685632
 10
41.83843996964781
 20
-7.560410045762694
 30
0.0
 10
41.83225786095561
 20
-7.560975418874394
 30
0.0
 10
41.82071556618283
 20
-7.529126430533225
 30
0.0
 10
41.80397767826587
 20
-7.500264258444136
 30
0.0
 10
41.78898225817384
 20
-7.449150794356
 30
0.0
 10
41.75989711418352
 20
-7.353603303631006
 30
0.0
 10
41.72409990484736
 20
-7.219310479984716
 30
0.0
 10
41.68334189962753
 20
-7.101773550689649
 30
0.0
 10
41.68322755805268
 20
-7.048569194942075
 30
0.0
 11
41.83843996964781
 21
-7.560410045762694
 31
0.0
 11
41.82660062803556
 21
-7.546033301507463
 31
0.0
 11
41.80358889335177
 21
-7.494370002763901
 31
0.0
 11
41.78988202416774
 21
-7.452452937217032
 31
0.0
 11
41.77465822756487
 21
-7.401657594894061
 31
0.0
 11
41.7171764987763
 21
-7.204529906034821
 31
0.0
 11
41.68322755805268
 21
-7.048569194942075
 31
0.0
  0
SPLINE
  5
1EA
330
2
100
AcDbEntity
  8
GAIKEI
  6
Continuous
 62
     1
100
AcDbSpline
210
0.0
220
0.0
230
1.0
 70
     8
 71
     3
 72
    11
 73
     7
 74
     5
 42
0.0000000001
 43
0.0000000001
 44
0.000001
 12
0.050091494938014
 22
-0.9987446330944036
 32
0.0
 13
-0.9986242733284907
 23
-0.0524362538626057
 33
0.0
 40
0.0
 40
0.0
 40
0.0
 40
0.0
 40
0.19756064541399
 40
0.3648945480850964
 40
0.4840003254776654
 40
0.5430360203227021
 40
0.5430360203227021
 40
0.5430360203227021
 40
0.5430360203227021
 10
41.55230714009295
 20
-7.055405132849529
 30
0.0
 10
41.55560584278286
 20
-7.121176010955491
 30
0.0
 10
41.55706411294666
 20
-7.241725843789163
 30
0.0
 10
41.54181415419599
 20
-7.407285239334388
 30
0.0
 10
41.52291789655381
 20
-7.510644902124907
 30
0.0
 10
41.49023255362465
 20
-7.578665286060011
 30
0.0
 10
41.47058106100296
 20
-7.579697156287294
 30
0.0
 11
41.55230714009295
 21
-7.055405132849529
 31
0.0
 11
41.55338669831933
 21
-7.25296198291619
 31
0.0
 11
41.53802733970596
 21
-7.41958945438975
 31
0.0
 11
41.50937636151359
 21
-7.535197770952661
 31
0.0
 11
41.47058106100296
 21
-7.579697156287294
 31
0.0
  0
SPLINE
  5
1EB
330
2
100
AcDbEntity
  8
GAIKEI
  6
Continuous
 62
     1
100
AcDbSpline
210
0.0
220
0.0
230
1.0
 70
     8
 71
     3
 72
     9
 73
     5
 74
     3
 42
0.0000000001
 43
0.0000000001
 44
0.000001
 12
-0.8242199307060358
 22
-0.5662698171604573
 32
0.0
 13
-0.7635969288552223
 23
-0.6456932168165256
 33
0.0
 40
0.0
 40
0.0
 40
0.0
 40
0.0
 40
0.0842429341241039
 40
0.1686312615918374
 40
0.1686312615918374
 40
0.1686312615918374
 40
0.1686312615918374
 10
41.68322755805268
 20
-4.512863477395995
 30
0.0
 10
41.66008265627726
 20
-4.528764887697167
 30
0.0
 10
41.615991433623
 20
-4.563802152691596
 30
0.0
 10
41.57378669598815
 20
-4.600901665392942
 30
0.0
 10
41.55230714009295
 20
-4.619064655601079
 30
0.0
 11
41.68322755805268
 21
-4.512863477395995
 31
0.0
 11
41.61649953771379
 21
-4.564287311372623
 31
0.0
 11
41.55230714009295
 21
-4.619064655601079
 31
0.0
  0
SPLINE
  5
1EC
330
2
100
AcDbEntity
  8
GAIKEI
  6
Continuous
 62
     1
100
AcDbSpline
210
0.0
220
0.0
230
1.0
 70
     8
 71
     3
 72
     9
 73
     5
 74
     3
 42
0.0000000001
 43
0.0000000001
 44
0.000001
 12
-0.9089599495712977
 22
-0.4168834490302344
 32
0.0
 13
-0.0584370804213165
 23
-0.9982910936354349
 33
0.0
 40
0.0
 40
0.0
 40
0.0
 40
0.0
 40
0.0693722202742875
 40
0.1993516640935874
 40
0.1993516640935874
 40
0.1993516640935874
 40
0.1993516640935874
 10
41.50646973501709
 20
-4.425705269075961
 30
0.0
 10
41.48545087840303
 20
-4.435345312560905
 30
0.0
 10
41.5645197196076
 20
-4.520638923261148
 30
0.0
 10
41.55483901316348
 20
-4.57581221522758
 30
0.0
 10
41.55230714009295
 20
-4.619064655601079
 30
0.0
 11
41.50646973501709
 21
-4.425705269075961
 31
0.0
 11
41.52973474906017
 21
-4.491060731733938
 31
0.0
 11
41.55230714009295
 21
-4.619064655601079
 31
0.0
  0
SPLINE
  5
1ED
330
2
100
AcDbEntity
  8
GAIKEI
  6
Continuous
 62
     1
100
AcDbSpline
210
0.0
220
0.0
230
1.0
 70
     8
 71
     3
 72
     9
 73
     5
 74
     3
 42
0.0000000001
 43
0.0000000001
 44
0.000001
 12
0.9978452281986013
 22
0.0656117410322368
 32
0.0
 13
-0.0584370804213165
 23
-0.9982910936354349
 33
0.0
 40
0.0
 40
0.0
 40
0.0
 40
0.0
 40
0.111630452937947
 40
0.1786075253372267
 40
0.1786075253372267
 40
0.1786075253372267
 40
0.1786075253372267
 10
41.37408447322006
 20
-4.63078340629957
 30
0.0
 10
41.41121444481533
 20
-4.628341983509744
 30
0.0
 10
41.45096969570537
 20
-4.644228316839787
 30
0.0
 10
41.55361178828168
 20
-4.59677711731642
 30
0.0
 10
41.55230714009295
 20
-4.619064655601079
 30
0.0
 11
41.37408447322006
 21
-4.63078340629957
 31
0.0
 11
41.48547364001561
 21
-4.623459187113012
 31
0.0
 11
41.55230714009295
 21
-4.619064655601079
 31
0.0
  0
SPLINE
  5
1EE
330
2
100
AcDbEntity
  8
GAIKEI
  6
Continuous
 62
     1
100
AcDbSpline
210
0.0
220
0.0
230
1.0
 70
     8
 71
     3
 72
     9
 73
     5
 74
     3
 42
0.0000000001
 43
0.0000000001
 44
0.000001
 12
-0.9850337644152421
 22
-0.1723614892078195
 32
0.0
 13
-0.2957883009680813
 23
-0.9552535166176651
 33
0.0
 40
0.0
 40
0.0
 40
0.0
 40
0.0
 40
0.1574377602857156
 40
0.3287481786948201
 40
0.3287481786948201
 40
0.3287481786948201
 40
0.3287481786948201
 10
41.55230714009295
 20
-7.055405132849529
 30
0.0
 10
41.50061330353451
 20
-7.064450535122992
 30
0.0
 10
41.4241261925218
 20
-7.168487825115359
 30
0.0
 10
41.39140225853906
 20
-7.267824628993396
 30
0.0
 10
41.37451171933927
 20
-7.322372922199575
 30
0.0
 11
41.55230714009295
 21
-7.055405132849529
 31
0.0
 11
41.43739064657784
 21
-7.163020572897237
 31
0.0
 11
41.37451171933927
 21
-7.322372922199575
 31
0.0
  0
SPLINE
  5
1EF
330
2
100
AcDbEntity
  8
GAIKEI
  6
Continuous
100
AcDbSpline
210
0.0
220
0.0
230
1.0
 70
     8
 71
     3
 72
     9
 73
     5
 74
     3
 42
0.0000000001
 43
0.0000000001
 44
0.000001
 12
-0.8336646498830011
 22
-0.5522709946533979
 32
0.0
 13
-0.9619339084121218
 23
-0.2732821908704988
 33
0.0
 40
0.0
 40
0.0
 40
0.0
 40
0.0
 40
0.044236519642811
 40
0.0843931981844998
 40
0.0843931981844998
 40
0.0843931981844998
 40
0.0843931981844998
 10
41.25091552056612
 20
-7.553024791416246
 30
0.0
 10
41.23862271301276
 20
-7.56116830698396
 30
0.0
 10
41.21390598290374
 20
-7.574893123694411
 30
0.0
 10
41.18737552396585
 20
-7.584584043641627
 30
0.0
 10
41.17449950038636
 20
-7.588242078671612
 30
0.0
 11
41.25091552056612
 21
-7.553024791416246
 31
0.0
 11
41.21221317187472
 21
-7.5744492016953
 31
0.0
 11
41.17449950038636
 21
-7.588242078671612
 31
0.0
  0
SPLINE
  5
1F0
330
2
100
AcDbEntity
  8
GAIKEI
  6
Continuous
100
AcDbSpline
210
0.0
220
0.0
230
1.0
 70
     8
 71
     3
 72
     9
 73
     5
 74
     3
 42
0.0000000001
 43
0.0000000001
 44
0.000001
 12
0.9986285255378286
 22
0.0523552096943815
 32
0.0
 13
0.9722010928234167
 23
0.2341474644598021
 33
0.0
 40
0.0
 40
0.0
 40
0.0
 40
0.0
 40
0.0209971208181912
 40
0.0425732994532603
 40
0.0425732994532603
 40
0.0425732994532603
 40
0.0425732994532603
 10
41.11315916469895
 20
-7.598434950372903
 30
0.0
 10
41.12014860596668
 20
-7.598068514151765
 30
0.0
 10
41.13429846301102
 20
-7.596780334765758
 30
0.0
 10
41.14828129687233
 20
-7.594198542370482
 30
0.0
 10
41.15527342502165
 20
-7.592514539863771
 30
0.0
 11
41.11315916469895
 21
-7.598434950372903
 31
0.0
 11
41.13406444456805
 21
-7.596483551462966
 31
0.0
 11
41.15527342502165
 21
-7.592514539863771
 31
0.0
  0
SPLINE
  5
1F1
330
2
100
AcDbEntity
  8
GAIKEI
  6
Continuous
100
AcDbSpline
210
0.0
220
0.0
230
1.0
 70
     8
 71
     3
 72
     9
 73
     5
 74
     3
 42
0.0000000001
 43
0.0000000001
 44
0.000001
 12
0.9899260579873063
 22
0.1415853089755879
 32
0.0
 13
0.8749269641730222
 23
0.4842548991625992
 33
0.0
 40
0.0
 40
0.0
 40
0.0
 40
0.0
 40
0.0103179590836852
 40
0.0207385676221965
 40
0.0207385676221965
 40
0.0207385676221965
 40
0.0207385676221965
 10
41.1743774300666
 20
-7.587265516113403
 30
0.0
 10
41.17778210225399
 20
-7.586778558971782
 30
0.0
 10
41.18455637310368
 20
-7.58520848057899
 30
0.0
 10
41.19093062592616
 20
-7.582416830917734
 30
0.0
 10
41.19396971639064
 20
-7.580734754005391
 30
0.0
 11
41.1743774300666
 21
-7.587265516113403
 31
0.0
 11
41.18442394814183
 21
-7.584914867341041
 31
0.0
 11
41.19396971639064
 21
-7.580734754005391
 31
0.0
  0
SPLINE
  5
1F2
330
2
100
AcDbEntity
  8
GAIKEI
  6
Continuous
100
AcDbSpline
210
0.0
220
0.0
230
1.0
 70
     8
 71
     3
 72
     9
 73
     5
 74
     3
 42
0.0000000001
 43
0.0000000001
 44
0.000001
 12
0.9319223686303319
 22
0.3626578261204795
 32
0.0
 13
0.7901977966068979
 23
0.6128518925789523
 33
0.0
 40
0.0
 40
0.0
 40
0.0
 40
0.0
 40
0.0140400081835011
 40
0.0281982700537172
 40
0.0281982700537172
 40
0.0281982700537172
 40
0.0281982700537172
 10
41.2205810461018
 20
-7.569443249426115
 30
0.0
 10
41.22494244532911
 20
-7.567746009810601
 30
0.0
 10
41.2334718002564
 20
-7.563710894449771
 30
0.0
 10
41.24132686943898
 20
-7.558480573992474
 30
0.0
 10
41.24505614521686
 20
-7.555588268131543
 30
0.0
 11
41.2205810461018
 21
-7.569443249426115
 31
0.0
 11
41.2332693111088
 21
-7.563432413659626
 31
0.0
 11
41.24505614521686
 21
-7.555588268131543
 31
0.0
  0
SPLINE
  5
1F3
330
2
100
AcDbEntity
  8
GAIKEI
  6
Continuous
 62
     1
100
AcDbSpline
210
0.0
220
0.0
230
1.0
 70
     8
 71
     3
 72
    11
 73
     7
 74
     5
 42
0.0000000001
 43
0.0000000001
 44
0.000001
 12
0.4074081346236131
 22
-0.9132461945403923
 32
0.0
 13
-0.9062446231407076
 23
-0.4227536907332174
 33
0.0
 40
0.0
 40
0.0
 40
0.0
 40
0.0
 40
0.1850918351636832
 40
0.3390809074839981
 40
0.4470239600373512
 40
0.4992594039218354
 40
0.4992594039218354
 40
0.4992594039218354
 40
0.4992594039218354
 10
41.39123535314857
 20
-3.951095865787038
 30
0.0
 10
41.41637132624794
 20
-4.007440670488281
 30
0.0
 10
41.45863847931963
 20
-4.111026514028433
 30
0.0
 10
41.50304566748842
 20
-4.25833351470298
 30
0.0
 10
41.52244952679079
 20
-4.351245307896435
 30
0.0
 10
41.51974665684757
 20
-4.419504028217414
 30
0.0
 10
41.50396729346168
 20
-4.426864937113832
 30
0.0
 11
41.39123535314857
 21
-3.951095865787038
 31
0.0
 11
41.45995723861385
 21
-4.122956218643196
 31
0.0
 11
41.50421725114237
 21
-4.270447492755493
 31
0.0
 11
41.52016929975235
 21
-4.377205221215291
 31
0.0
 11
41.50396729346168
 21
-4.426864937113832
 31
0.0
  0
SPLINE
  5
1F4
330
2
100
AcDbEntity
  8
GAIKEI
  6
Continuous
 62
     1
100
AcDbSpline
210
0.0
220
0.0
230
1.0
 70
     8
 71
     3
 72
    17
 73
    13
 74
    11
 42
0.0000000001
 43
0.0000000001
 44
0.000001
 12
-0.9062908520037618
 22
-0.4226545771363364
 32
0.0
 13
-0.0003835314305866
 23
-0.9999999264518182
 33
0.0
 40
0.0
 40
0.0
 40
0.0
 40
0.0
 40
0.0845299821498576
 40
0.1692029274634148
 40
0.2946986072013471
 40
0.4143442631848466
 40
0.4839228813460125
 40
0.5519287181989858
 40
0.620261184000507
 40
0.6900745335493998
 40
0.7419164228007288
 40
0.7965618430600685
 40
0.7965618430600685
 40
0.7965618430600685
 40
0.7965618430600685
 10
41.39123535314857
 20
-3.951095865787038
 30
0.0
 10
41.36569910330109
 20
-3.963004860407334
 30
0.0
 10
41.31585622007089
 20
-3.989548034776601
 30
0.0
 10
41.23386290850493
 20
-4.044387295359002
 30
0.0
 10
41.16293949667393
 20
-4.132303794977833
 30
0.0
 10
41.13099772201095
 20
-4.234154305651532
 30
0.0
 10
41.12253173322672
 20
-4.319662478615281
 30
0.0
 10
41.12476123880988
 20
-4.388430317540935
 30
0.0
 10
41.13314941149044
 20
-4.456678125723632
 30
0.0
 10
41.14387751528211
 20
-4.51909562213486
 30
0.0
 10
41.15359107137769
 20
-4.577057955109575
 30
0.0
 10
41.15625697365859
 20
-4.612568267552814
 30
0.0
 10
41.15624998757986
 20
-4.63078340629957
 30
0.0
 11
41.39123535314857
 21
-3.951095865787038
 31
0.0
 11
41.3165877116151
 21
-3.990758955727756
 31
0.0
 11
41.24737548129261
 21
-4.03953581246472
 31
0.0
 11
41.16897541435597
 21
-4.137528864684924
 31
0.0
 11
41.13110350170602
 21
-4.251022641476565
 31
0.0
 11
41.12401803224546
 21
-4.320239610777092
 31
0.0
 11
41.12576968167881
 21
-4.388222927726957
 31
0.0
 11
41.13362146886946
 21
-4.456102809735938
 31
0.0
 11
41.14483641268082
 21
-4.525009474213703
 31
0.0
 11
41.15267690802031
 21
-4.576255015742758
 31
0.0
 11
41.15624998757986
 21
-4.63078340629957
 31
0.0
  0
SPLINE
  5
1F5
330
2
100
AcDbEntity
  8
GAIKEI
  6
Continuous
 62
     1
100
AcDbSpline
210
0.0
220
0.0
230
1.0
 70
     8
 71
     3
 72
     9
 73
     5
 74
     3
 42
0.0000000001
 43
0.0000000001
 44
0.000001
 12
-0.3081913340163683
 22
-0.9513243934837429
 32
0.0
 13
-0.9999695877579064
 23
0.0077989460366634
 33
0.0
 40
0.0
 40
0.0
 40
0.0
 40
0.0
 40
0.0551239720166018
 40
0.0898779466552062
 40
0.0898779466552062
 40
0.0898779466552062
 40
0.0898779466552062
 10
42.05963138908184
 20
-0.544052205680174
 30
0.0
 10
42.05396847892448
 20
-0.5615324654285435
 30
0.0
 10
42.02818541608419
 20
-0.5824323038501289
 30
0.0
 10
41.99974352275045
 20
-0.5941303497526841
 30
0.0
 10
41.98815921685302
 20
-0.5940400016284288
 30
0.0
 11
42.05963138908184
 21
-0.544052205680174
 31
0.0
 11
42.02134120094574
 21
-0.5837068752273922
 31
0.0
 11
41.98815921685302
 21
-0.5940400016284288
 31
0.0
  0
SPLINE
  5
1F6
330
2
100
AcDbEntity
  8
GAIKEI
  6
Continuous
 62
     1
100
AcDbSpline
210
0.0
220
0.0
230
1.0
 70
     8
 71
     3
 72
     9
 73
     5
 74
     3
 42
0.0000000001
 43
0.0000000001
 44
0.000001
 12
-0.0000357254400997
 22
-0.9999999993618466
 32
0.0
 13
-0.9530480675327188
 23
-0.302819056487782
 33
0.0
 40
0.0
 40
0.0
 40
0.0
 40
0.0
 40
0.0302406313354316
 40
0.0617993382075307
 40
0.0617993382075307
 40
0.0617993382075307
 40
0.0617993382075307
 10
42.10522465351815
 20
-0.544052205680174
 30
0.0
 10
42.1052242933982
 20
-0.5541324161188851
 30
0.0
 10
42.09818571265069
 20
-0.574979049568661
 30
0.0
 10
42.08058233756788
 20
-0.5885351396063578
 30
0.0
 10
42.07055668270178
 20
-0.5917206655526856
 30
0.0
 11
42.10522465351815
 21
-0.544052205680174
 31
0.0
 11
42.09580701984406
 21
-0.5727890967553435
 31
0.0
 11
42.07055668270178
 21
-0.5917206655526856
 31
0.0
  0
SPLINE
  5
1F7
330
2
100
AcDbEntity
  8
GAIKEI
  6
Continuous
 62
     1
100
AcDbSpline
210
0.0
220
0.0
230
1.0
 70
     8
 71
     3
 72
     9
 73
     5
 74
     3
 42
0.0000000001
 43
0.0000000001
 44
0.000001
 12
-0.9999999845428636
 22
0.0001758245511382
 32
0.0
 13
-0.9999999621242039
 23
0.0002752300687916
 33
0.0
 40
0.0
 40
0.0
 40
0.0
 40
0.0
 40
0.0112193708005719
 40
0.0274453357059674
 40
0.0274453357059674
 40
0.0274453357059674
 40
0.0274453357059674
 10
42.02319339862871
 20
-0.5917206655526856
 30
0.0
 10
42.01945360841966
 20
-0.5917200080057406
 30
0.0
 10
42.01039434251821
 20
-0.5933176970798569
 30
0.0
 10
42.0012583017625
 20
-0.5940414902529078
 30
0.0
 10
41.9958496469989
 20
-0.5940400016284288
 30
0.0
 11
42.02319339862871
 21
-0.5917206655526856
 31
0.0
 11
42.01203418260829
 21
-0.59288120712597
 31
0.0
 11
41.9958496469989
 21
-0.5940400016284288
 31
0.0
  0
SPLINE
  5
1F8
330
2
100
AcDbEntity
  8
GAIKEI
  6
Continuous
 62
     1
100
AcDbSpline
210
0.0
220
0.0
230
1.0
 70
     8
 71
     3
 72
    37
 73
    33
 74
    31
 42
0.0000000001
 43
0.0000000001
 44
0.000001
 12
0.9538209886631285
 22
-0.3003756341411404
 32
0.0
 13
-0.8762581300694602
 23
-0.481841975638459
 33
0.0
 40
0.0
 40
0.0
 40
0.0
 40
0.0
 40
0.0216847417595667
 40
0.0388601863365866
 40
0.0529205851152029
 40
0.0673680891045901
 40
0.0825131310597309
 40
0.0985990564044016
 40
0.1158114287100046
 40
0.134291814116277
 40
0.1541514322147278
 40
0.1754826448097872
 40
0.2115264968286384
 40
0.2507598691006438
 40
0.2924554705105767
 40
0.3358798785306928
 40
0.3802966439638114
 40
0.4249682982656756
 40
0.4691579659935455
 40
0.5121310313402335
 40
0.5523087768958198
 40
0.5899220125419889
 40
0.6244982145289653
 40
0.6555773488686386
 40
0.6739456141075033
 40
0.6910173742574642
 40
0.707017946468879
 40
0.7222813582623097
 40
0.7373348788947581
 40
0.7529450153044348
 40
0.7700730053481197
 40
0.7897534112038587
 40
0.7897534112038587
 40
0.7897534112038587
 40
0.7897534112038587
 10
42.07287601877753
 20
0.1531524257202079
 30
0.0
 10
42.07977047271887
 20
0.1509812363678023
 30
0.0
 10
42.09160871299788
 20
0.1448212081348851
 30
0.0
 10
42.10363351021998
 20
0.1316624057967315
 30
0.0
 10
42.11179369704123
 20
0.1187671237247419
 30
0.0
 10
42.11814632589361
 20
0.1056433100143223
 30
0.0
 10
42.12334906178954
 20
0.0913112050084752
 30
0.0
 10
42.12764493490054
 20
0.0757324212664022
 30
0.0
 10
42.13122974427992
 20
0.0588418188072104
 30
0.0
 10
42.13431114136106
 20
0.040578891184218
 30
0.0
 10
42.1370680280757
 20
0.0208792598579339
 30
0.0
 10
42.14032345286577
 20
-0.0046593714002367
 30
0.0
 10
42.14373755421894
 20
-0.0366854410059172
 30
0.0
 10
42.14672283458534
 20
-0.0755664464425494
 30
0.0
 10
42.14899918789989
 20
-0.1169577114471152
 30
0.0
 10
42.15050268706894
 20
-0.1601132124079665
 30
0.0
 10
42.15122239913218
 20
-0.2042807372078019
 30
0.0
 10
42.15113188081454
 20
-0.2487091495166716
 30
0.0
 10
42.15021916914224
 20
-0.2926473927150263
 30
0.0
 10
42.1484512094358
 20
-0.3350604859260584
 30
0.0
 10
42.14592105180799
 20
-0.3752391522885386
 30
0.0
 10
42.14270473822559
 20
-0.4125589551819317
 30
0.0
 10
42.13887107780109
 20
-0.4467761347874414
 30
0.0
 10
42.13454671797546
 20
-0.4744544093563075
 30
0.0
 10
42.13077415081104
 20
-0.4963032194581431
 30
0.0
 10
42.12778134849399
 20
-0.5131888181526305
 30
0.0
 10
42.12409513766973
 20
-0.5288885766598548
 30
0.0
 10
42.11907834732058
 20
-0.5435308119150461
 30
0.0
 10
42.1120050355042
 20
-0.5571879702141464
 30
0.0
 10
42.10218879810369
 20
-0.5698538570785312
 30
0.0
 10
42.0890493392091
 20
-0.5815056358196592
 30
0.0
 10
42.07862439065559
 20
-0.588071435727283
 30
0.0
 10
42.07287601877753
 20
-0.5912323842735816
 30
0.0
 11
42.07287601877753
 21
0.1531524257202079
 31
0.0
 11
42.09204534306649
 21
0.1430147906476975
 31
0.0
 11
42.10388188000061
 21
0.1305694165616558
 31
0.0
 11
42.11149446925758
 21
0.1187482038453993
 31
0.0
 11
42.11782113299061
 21
0.1057596742590761
 31
0.0
 11
42.12305601056248
 21
0.0915481755272083
 31
0.0
 11
42.12739324133575
 21
0.0760580553742045
 31
0.0
 11
42.13102696467301
 21
0.059233661524587
 31
0.0
 11
42.13415131993689
 21
0.0410193417028495
 31
0.0
 11
42.13696044649002
 21
0.0213594436334859
 31
0.0
 11
42.13964848369498
 21
0.000198315040933
 31
0.0
 11
42.14345452439776
 21
-0.0356439601601721
 31
0.0
 11
42.14652185627088
 21
-0.0747571747219524
 31
0.0
 11
42.14882979144208
 21
-0.1163887778757271
 31
0.0
 11
42.15035764203904
 21
-0.1597862188528722
 31
0.0
 11
42.15108472018953
 21
-0.2041969468847071
 31
0.0
 11
42.15099033802122
 21
-0.2488684112026078
 31
0.0
 11
42.15005380766188
 21
-0.293048061037922
 31
0.0
 11
42.14825444123919
 21
-0.3359833456220542
 31
0.0
 11
42.14570713313274
 21
-0.3760801702498213
 31
0.0
 11
42.14245025912127
 21
-0.4135520516431656
 31
0.0
 11
42.13847914294539
 21
-0.4478993721904773
 31
0.0
 11
42.13378910834573
 21
-0.4786225142802607
 31
0.0
 11
42.13068577132263
 21
-0.4967266746664052
 31
0.0
 11
42.12755880734906
 21
-0.5135095578789617
 31
0.0
 11
42.1237756300184
 21
-0.5290563844137353
 31
0.0
 11
42.11870365292411
 21
-0.5434523747664742
 31
0.0
 11
42.11171028965945
 21
-0.5567827494330402
 31
0.0
 11
42.1021629538179
 21
-0.5691327289091817
 31
0.0
 11
42.08942905899282
 21
-0.5805875336907606
 31
0.0
 11
42.07287601877753
 21
-0.5912323842735816
 31
0.0
  0
SPLINE
  5
1F9
330
2
100
AcDbEntity
  8
GAIKEI
  6
Continuous
 62
     1
100
AcDbSpline
210
0.0
220
0.0
230
1.0
 70
     8
 71
     3
 72
     9
 73
     5
 74
     3
 42
0.0000000001
 43
0.0000000001
 44
0.000001
 12
-0.0000357256246498
 22
0.99999999936184
 32
0.0
 13
-0.9530465585211443
 23
0.3028238056874048
 33
0.0
 40
0.0
 40
0.0
 40
0.0
 40
0.0
 40
0.0302405539324707
 40
0.061799308569092
 40
0.061799308569092
 40
0.061799308569092
 40
0.061799308569092
 10
42.10522465351815
 20
0.1059722471268003
 30
0.0
 10
42.10522429339726
 20
0.1160524317645244
 30
0.0
 10
42.09818565961468
 20
0.1368990369256423
 30
0.0
 10
42.08058233686766
 20
0.1504551262720395
 30
0.0
 10
42.07055668270178
 20
0.1536407069993118
 30
0.0
 11
42.10522465351815
 21
0.1059722471268003
 31
0.0
 11
42.09580701798146
 21
0.1347090562456117
 31
0.0
 11
42.07055668270178
 21
0.1536407069993118
 31
0.0
  0
SPLINE
  5
1FA
330
2
100
AcDbEntity
  8
GAIKEI
  6
Continuous
 62
     1
100
AcDbSpline
210
0.0
220
0.0
230
1.0
 70
     8
 71
     3
 72
    11
 73
     7
 74
     5
 42
0.0000000001
 43
0.0000000001
 44
0.000001
 12
0.9999999669927422
 22
-0.000256932899469
 32
0.0
 13
-0.9999999802176745
 23
-0.0001989086489841
 33
0.0
 40
0.0
 40
0.0
 40
0.0
 40
0.0
 40
0.1068294229709579
 40
0.3305449959016651
 40
0.5542598125367753
 40
0.6610881456445095
 40
0.6610881456445095
 40
0.6610881456445095
 40
0.6610881456445095
 10
42.10522465351815
 20
0.1059722471268003
 30
0.0
 10
42.14083445999976
 20
0.1059630977956695
 30
0.0
 10
42.13307352342396
 20
-0.0635726525114172
 30
0.0
 10
42.16039323555992
 20
-0.2190414371271707
 30
0.0
 10
42.13307883124143
 20
-0.3745079834380966
 30
0.0
 10
42.14083409718296
 20
-0.5440451226537034
 30
0.0
 10
42.10522465351815
 20
-0.544052205680174
 30
0.0
 11
42.10522465351815
 21
0.1059722471268003
 31
0.0
 11
42.13832968265482
 21
0.0044011936720949
 31
0.0
 11
42.14936627468413
 21
-0.2190412591977235
 31
0.0
 11
42.13833205613052
 21
-0.4424830721070238
 31
0.0
 11
42.10522465351815
 21
-0.544052205680174
 31
0.0
  0
SPLINE
  5
1FB
330
2
100
AcDbEntity
  8
GAIKEI
  6
Continuous
 62
     1
100
AcDbSpline
210
0.0
220
0.0
230
1.0
 70
     8
 71
     3
 72
     9
 73
     5
 74
     3
 42
0.0000000001
 43
0.0000000001
 44
0.000001
 12
0.9999952281185336
 22
0.0030892944440435
 32
0.0
 13
0.3094499789294173
 23
-0.9509157221019027
 33
0.0
 40
0.0
 40
0.0
 40
0.0
 40
0.0
 40
0.0469640404398748
 40
0.0913762738214268
 40
0.0913762738214268
 40
0.0913762738214268
 40
0.0913762738214268
 10
41.98815921685302
 20
0.1559600430750549
 30
0.0
 10
42.00381382229736
 20
0.1560084049914552
 30
0.0
 10
42.03473394975304
 20
0.1457021085325602
 30
0.0
 10
42.05505026752046
 20
0.1200496774521925
 30
0.0
 10
42.05963138908184
 20
0.1059722471268003
 30
0.0
 11
41.98815921685302
 21
0.1559600430750549
 31
0.0
 11
42.03279612470696
 21
0.1413614580094418
 31
0.0
 11
42.05963138908184
 21
0.1059722471268003
 31
0.0
  0
SPLINE
  5
1FC
330
2
100
AcDbEntity
  8
GAIKEI
  6
Continuous
 62
     1
100
AcDbSpline
210
0.0
220
0.0
230
1.0
 70
     8
 71
     3
 72
     9
 73
     5
 74
     3
 42
0.0000000001
 43
0.0000000001
 44
0.000001
 12
0.9999999662987059
 22
0.0002596200816618
 32
0.0
 13
0.9999999772895147
 23
0.0002131219603387
 33
0.0
 40
0.0
 40
0.0
 40
0.0
 40
0.0
 40
0.0162231051321018
 40
0.027445323309674
 40
0.027445323309674
 40
0.027445323309674
 40
0.027445323309674
 10
41.9958496469989
 20
0.1559600430750549
 30
0.0
 10
42.00125734852735
 20
0.1559614470230146
 30
0.0
 10
42.01039331583245
 20
0.1552370524018797
 30
0.0
 10
42.01945265932114
 20
0.1536399097655993
 30
0.0
 10
42.02319339862871
 20
0.1536407069993118
 30
0.0
 11
41.9958496469989
 21
0.1559600430750549
 31
0.0
 11
42.01203130563628
 21
0.1548011117749297
 31
0.0
 11
42.02319339862871
 21
0.1536407069993118
 31
0.0
  0
SPLINE
  5
1FD
330
2
100
AcDbEntity
  8
GAIKEI
  6
Continuous
 62
     1
100
AcDbSpline
210
0.0
220
0.0
230
1.0
 70
     8
 71
     3
 72
     9
 73
     5
 74
     3
 42
0.0000000001
 43
0.0000000001
 44
0.000001
 12
0.9530395279038478
 22
-0.3028459315440954
 32
0.0
 13
0.0000357266035025
 23
-0.999999999361805
 33
0.0
 40
0.0
 40
0.0
 40
0.0
 40
0.0
 40
0.0315772684264216
 40
0.0618464943306529
 40
0.0618464943306529
 40
0.0618464943306529
 40
0.0618464943306529
 10
42.07055668270178
 20
13.56367568598719
 30
0.0
 10
42.08058814436632
 20
13.56048800356311
 30
0.0
 10
42.09818724938422
 20
13.54689386561134
 30
0.0
 10
42.10522429304594
 20
13.52603593291642
 30
0.0
 10
42.10522465351815
 20
13.51594619095479
 30
0.0
 11
42.07055668270178
 21
13.56367568598719
 31
0.0
 11
42.09580701425561
 21
13.54471312836068
 31
0.0
 11
42.10522465351815
 21
13.51594619095479
 31
0.0
  0
SPLINE
  5
1FE
330
2
100
AcDbEntity
  8
GAIKEI
  6
Continuous
 62
     1
100
AcDbSpline
210
0.0
220
0.0
230
1.0
 70
     8
 71
     3
 72
     9
 73
     5
 74
     3
 42
0.0000000001
 43
0.0000000001
 44
0.000001
 12
0.9999976346126128
 22
0.0021750331443408
 32
0.0
 13
0.3094592465044053
 23
-0.9509127061686188
 33
0.0
 40
0.0
 40
0.0
 40
0.0
 40
0.0
 40
0.0469741725792378
 40
0.0914080190009438
 40
0.0914080190009438
 40
0.0914080190009438
 40
0.0914080190009438
 10
41.98815921685302
 20
13.56599502206293
 30
0.0
 10
42.00381723734206
 20
13.56602907885702
 30
0.0
 10
42.03473930092687
 20
13.55569881373454
 30
0.0
 10
42.05504790087085
 20
13.5300304273369
 30
0.0
 10
42.05963138908184
 20
13.51594619095479
 30
0.0
 11
41.98815921685302
 21
13.56599502206293
 31
0.0
 11
42.03279554169897
 21
13.55136207661286
 31
0.0
 11
42.05963138908184
 21
13.51594619095479
 31
0.0
  0
SPLINE
  5
1FF
330
2
100
AcDbEntity
  8
GAIKEI
  6
Continuous
 62
     1
100
AcDbSpline
210
0.0
220
0.0
230
1.0
 70
     8
 71
     3
 72
     9
 73
     5
 74
     3
 42
0.0000000001
 43
0.0000000001
 44
0.000001
 12
0.999999983294575
 22
0.0001827863508696
 32
0.0
 13
0.9999999218844049
 23
0.0003952609063509
 33
0.0
 40
0.0
 40
0.0
 40
0.0
 40
0.0
 40
0.0162231530945212
 40
0.0274453021202491
 40
0.0274453021202491
 40
0.0274453021202491
 40
0.0274453021202491
 10
41.9958496469989
 20
13.56599502206293
 30
0.0
 10
42.00125736460673
 20
13.56599601051991
 30
0.0
 10
42.01039321109131
 20
13.56527129888434
 30
0.0
 10
42.01945268257901
 20
13.56367420742826
 30
0.0
 10
42.02319339862871
 20
13.56367568598719
 30
0.0
 11
41.9958496469989
 21
13.56599502206293
 31
0.0
 11
42.01203130563628
 21
13.56483542369417
 31
0.0
 11
42.02319339862871
 21
13.56367568598719
 31
0.0
  0
SPLINE
  5
200
330
2
100
AcDbEntity
  8
GAIKEI
  6
Continuous
 62
     1
100
AcDbSpline
210
0.0
220
0.0
230
1.0
 70
     8
 71
     3
 72
     9
 73
     5
 74
     3
 42
0.0000000001
 43
0.0000000001
 44
0.000001
 12
-0.3081820727638415
 22
-0.951327393712061
 32
0.0
 13
-0.9999636457021694
 23
-0.0085268560458341
 33
0.0
 40
0.0
 40
0.0
 40
0.0
 40
0.0
 40
0.0551480243977718
 40
0.089896751130016
 40
0.089896751130016
 40
0.089896751130016
 40
0.089896751130016
 10
42.05963138908184
 20
12.8659827733077
 30
0.0
 10
42.05396617825926
 20
12.84849483120146
 30
0.0
 10
42.02816108094957
 20
12.82748305766869
 30
0.0
 10
41.99974170467525
 20
12.81603270799643
 30
0.0
 10
41.98815921685302
 20
12.81593394219956
 30
0.0
 11
42.05963138908184
 21
12.8659827733077
 31
0.0
 11
42.02132094840385
 21
12.82631414211374
 31
0.0
 11
41.98815921685302
 21
12.81593394219956
 31
0.0
  0
SPLINE
  5
201
330
2
100
AcDbEntity
  8
GAIKEI
  6
Continuous
 62
     1
100
AcDbSpline
210
0.0
220
0.0
230
1.0
 70
     8
 71
     3
 72
     9
 73
     5
 74
     3
 42
0.0000000001
 43
0.0000000001
 44
0.000001
 12
-0.000035724576246
 22
-0.9999999993618773
 32
0.0
 13
-0.9530550976430763
 23
-0.3027969300645998
 33
0.0
 40
0.0
 40
0.0
 40
0.0
 40
0.0
 40
0.0302700418828117
 40
0.0618468000996656
 40
0.0618468000996656
 40
0.0618468000996656
 40
0.0618468000996656
 10
42.10522465351815
 20
12.8659827733077
 30
0.0
 10
42.10522429305668
 20
12.8558927593532
 30
0.0
 10
42.09818779268848
 20
12.8350345345949
 30
0.0
 10
42.08058814616365
 20
12.82144039342513
 30
0.0
 10
42.07055668270178
 20
12.81825327827531
 30
0.0
 11
42.10522465351815
 21
12.8659827733077
 31
0.0
 11
42.09580702356906
 21
12.83721497535973
 31
0.0
 11
42.07055668270178
 21
12.81825327827531
 31
0.0
  0
SPLINE
  5
202
330
2
100
AcDbEntity
  8
GAIKEI
  6
Continuous
 62
     1
100
AcDbSpline
210
0.0
220
0.0
230
1.0
 70
     8
 71
     3
 72
     9
 73
     5
 74
     3
 42
0.0000000001
 43
0.0000000001
 44
0.000001
 12
-0.999999999979706
 22
-0.0000063708878533
 32
0.0
 13
-0.9999999547234208
 23
-0.0003009205153209
 33
0.0
 40
0.0
 40
0.0
 40
0.0
 40
0.0
 40
0.0112191479162605
 40
0.0274452669225772
 40
0.0274452669225772
 40
0.0274452669225772
 40
0.0274452669225772
 10
42.02319339862871
 20
12.81825327827531
 30
0.0
 10
42.0194536826567
 20
12.81825325445
 30
0.0
 10
42.01039400193802
 20
12.81666011285146
 30
0.0
 10
42.00125835308944
 20
12.81593556979026
 30
0.0
 10
41.9958496469989
 20
12.81593394219956
 30
0.0
 11
42.02319339862871
 21
12.81825327827531
 31
0.0
 11
42.01203418121131
 21
12.81709490556315
 31
0.0
 11
41.9958496469989
 21
12.81593394219956
 31
0.0
  0
SPLINE
  5
203
330
2
100
AcDbEntity
  8
GAIKEI
  6
Continuous
 62
     1
100
AcDbSpline
210
0.0
220
0.0
230
1.0
 70
     8
 71
     3
 72
    37
 73
    33
 74
    31
 42
0.0000000001
 43
0.0000000001
 44
0.000001
 12
0.9531453210649694
 22
-0.3025128045752051
 32
0.0
 13
-0.8762670848182503
 23
-0.481825690539769
 33
0.0
 40
0.0
 40
0.0
 40
0.0
 40
0.0
 40
0.0216846486234388
 40
0.0388575122373749
 40
0.0529157023987559
 40
0.0673569896225614
 40
0.0824928601044129
 40
0.0985679969784845
 40
0.1157694184982778
 40
0.1342401711596849
 40
0.1540929449803184
 40
0.1754215541310136
 40
0.2114680121679995
 40
0.250708276207253
 40
0.2924136372179346
 40
0.3358492439489772
 40
0.3802772139988226
 40
0.4249586442768959
 40
0.4691552257461151
 40
0.5121309128067412
 40
0.5523086616664854
 40
0.5899218938620791
 40
0.6244980923253161
 40
0.6555772297283161
 40
0.6739429383478807
 40
0.6910080117361028
 40
0.7069992320486227
 40
0.7222522098516352
 40
0.7372958871657316
 40
0.752898281989708
 40
0.7700215413947824
 40
0.7897003315789553
 40
0.7897003315789553
 40
0.7897003315789553
 40
0.7897003315789553
 10
42.07287601877753
 20
13.5631263695482
 30
0.0
 10
42.07976555923566
 20
13.5609397415911
 30
0.0
 10
42.09160150480364
 20
13.55478844216183
 30
0.0
 10
42.10363484866497
 20
13.54163703001853
 30
0.0
 10
42.11179226926504
 20
13.52874445922494
 30
0.0
 10
42.11814597676145
 20
13.51562781728958
 30
0.0
 10
42.12334888546297
 20
13.50130500821553
 30
0.0
 10
42.12764502584342
 20
13.48573699360839
 30
0.0
 10
42.13122993944847
 20
13.46885708605077
 30
0.0
 10
42.13431139889787
 20
13.45060343543454
 30
0.0
 10
42.13706834313593
 20
13.43091022949029
 30
0.0
 10
42.14032378498688
 20
13.40537389663507
 30
0.0
 10
42.14373770184955
 20
13.37334549074956
 30
0.0
 10
42.14672291257071
 20
13.33445804251165
 30
0.0
 10
42.14899920652942
 20
13.29305747660245
 30
0.0
 10
42.150502682235
 20
13.24989124826455
 30
0.0
 10
42.15122239231148
 20
13.2057129962881
 30
0.0
 10
42.15113189213932
 20
13.16127528652013
 30
0.0
 10
42.15021923568929
 20
13.11733060374257
 30
0.0
 10
42.14845128815213
 20
13.0749143261239
 30
0.0
 10
42.14592104162793
 20
13.0347347899157
 30
0.0
 10
42.14270475389871
 20
12.99741498463936
 30
0.0
 10
42.13887102912614
 20
12.96319781720698
 30
0.0
 10
42.13454698090727
 20
12.9355203540432
 30
0.0
 10
42.13077455753939
 20
12.91367464427069
 30
0.0
 10
42.12778166293226
 20
12.896795350751
 30
0.0
 10
42.12409537286284
 20
12.88110464977459
 30
0.0
 10
42.11907828698495
 20
12.86647290233507
 30
0.0
 10
42.11200437645557
 20
12.85282652514709
 30
0.0
 10
42.10218751247535
 20
12.84017060737023
 30
0.0
 10
42.08904786003289
 20
12.82852638397345
 30
0.0
 10
42.07862397748001
 20
12.82196317693746
 30
0.0
 10
42.07287601877753
 20
12.8188025947143
 30
0.0
 11
42.07287601877753
 21
13.5631263695482
 31
0.0
 11
42.09204133279118
 21
13.55298135525723
 31
0.0
 11
42.10388188000061
 21
13.54054336038965
 31
0.0
 11
42.11149446693132
 21
13.52872477358971
 31
0.0
 11
42.11782112962314
 21
13.51574315903431
 31
0.0
 11
42.1230560071285
 21
13.50154143467335
 31
0.0
 11
42.12739323849989
 21
13.4860625184566
 31
0.0
 11
42.13102696278979
 21
13.46924932833397
 31
0.0
 11
42.13415131905065
 21
13.45104478225519
 31
0.0
 11
42.13696044633489
 21
13.43139179817021
 31
0.0
 11
42.13964848369498
 21
13.41023329402881
 31
0.0
 11
42.14345452436434
 21
13.3743883982556
 31
0.0
 11
42.14652185626817
 21
13.33526827086444
 31
0.0
 11
42.14882979150688
 21
13.29362689320646
 31
0.0
 11
42.15035764218092
 21
13.2502182466329
 31
0.0
 11
42.15108472039081
 21
13.20579631249487
 31
0.0
 11
42.15099033823682
 21
13.16111507214358
 31
0.0
 11
42.1500538078195
 21
13.1169285069302
 31
0.0
 11
42.14825444123919
 21
13.07399059820594
 31
0.0
 11
42.14570713289649
 21
13.03389377012453
 31
0.0
 11
42.14245025909779
 21
12.99642189201225
 31
0.0
 11
42.13847914314645
 21
12.96207457483226
 31
0.0
 11
42.13378910834573
 21
12.93135142954773
 31
0.0
 11
42.13068577412802
 21
12.91324986253724
 31
0.0
 11
42.12755880880465
 21
12.89647378142652
 31
0.0
 11
42.12377562764578
 21
12.88093658078802
 31
0.0
 11
42.11870364592161
 21
12.86655165519417
 31
0.0
 11
42.11171027890252
 21
12.85323239921743
 31
0.0
 11
42.10216294185856
 21
12.84089220743024
 31
0.0
 11
42.08942905006021
 21
12.82944447440505
 31
0.0
 11
42.07287601877753
 21
12.8188025947143
 31
0.0
  0
SPLINE
  5
204
330
2
100
AcDbEntity
  8
GAIKEI
  6
Continuous
 62
     1
100
AcDbSpline
210
0.0
220
0.0
230
1.0
 70
     8
 71
     3
 72
    11
 73
     7
 74
     5
 42
0.0000000001
 43
0.0000000001
 44
0.000001
 12
0.9999999136648373
 22
-0.0004155361809812
 32
0.0
 13
-0.9999999982988994
 23
-0.0000583283907888
 33
0.0
 40
0.0
 40
0.0
 40
0.0
 40
0.0
 40
0.1068249115462545
 40
0.3305210750164605
 40
0.5542130927240167
 40
0.6610280755900091
 40
0.6610280755900091
 40
0.6610280755900091
 40
0.6610280755900091
 10
42.10522465351815
 20
13.51594619095479
 30
0.0
 10
42.14083295429266
 20
13.5159313944162
 30
0.0
 10
42.13307322210108
 20
13.34641926303992
 30
0.0
 10
42.16039107198354
 20
13.1909539722764
 30
0.0
 10
42.13308530194335
 20
13.03551024588199
 30
0.0
 10
42.14082964774624
 20
12.86598485008972
 30
0.0
 10
42.10522465351815
 20
12.8659827733077
 30
0.0
 11
42.10522465351815
 21
13.51594619095479
 31
0.0
 11
42.13832873410267
 21
13.414379573469
 31
0.0
 11
42.1493662523324
 21
13.19095659960751
 31
0.0
 11
42.13833297115501
 21
12.96753756700789
 31
0.0
 11
42.10522465351815
 21
12.8659827733077
 31
0.0
  0
SPLINE
  5
205
330
2
100
AcDbEntity
  8
GAIKEI
  6
Continuous
 62
     1
100
AcDbSpline
210
0.0
220
0.0
230
1.0
 70
     8
 71
     3
 72
     9
 73
     5
 74
     3
 42
0.0000000001
 43
0.0000000001
 44
0.000001
 12
0.9038411592213025
 22
-0.427868155975053
 32
0.0
 13
0.3435351878273928
 23
0.9391398057394852
 33
0.0
 40
0.0
 40
0.0
 40
0.0
 40
0.0
 40
0.1444206830774511
 40
0.2249124189690904
 40
0.2249124189690904
 40
0.2249124189690904
 40
0.2249124189690904
 10
41.80804446002359
 20
14.11592181265362
 30
0.0
 10
41.85155557922635
 20
14.09532414220262
 30
0.0
 10
41.91793774082172
 20
14.07617857115261
 30
0.0
 10
42.01397615075935
 20
14.09072414825065
 30
0.0
 10
42.02319339862871
 20
14.11592181265362
 30
0.0
 11
41.80804446002359
 21
14.11592181265362
 31
0.0
 11
41.94903304930976
 21
14.08462852850309
 31
0.0
 11
42.02319339862871
 21
14.11592181265362
 31
0.0
  0
SPLINE
  5
206
330
2
100
AcDbEntity
  8
GAIKEI
  6
Continuous
 62
     1
100
AcDbSpline
210
0.0
220
0.0
230
1.0
 70
     8
 71
     3
 72
     9
 73
     5
 74
     3
 42
0.0000000001
 43
0.0000000001
 44
0.000001
 12
0.0579129316284592
 22
-0.9983216377251357
 32
0.0
 13
-0.0189869989958103
 23
-0.9998197306860538
 33
0.0
 40
0.0
 40
0.0
 40
0.0
 40
0.0
 40
0.1056034001939841
 40
0.2027679800166839
 40
0.2027679800166839
 40
0.2027679800166839
 40
0.2027679800166839
 10
41.80293055605378
 20
14.31859019395074
 30
0.0
 10
41.80496915688551
 20
14.28344814080707
 30
0.0
 10
41.80798974609408
 20
14.21591783511635
 30
0.0
 10
41.80865941461677
 20
14.14830416733047
 30
0.0
 10
41.80804446002359
 20
14.11592181265362
 30
0.0
 11
41.80293055605378
 21
14.31859019395074
 31
0.0
 11
41.807476795949
 21
14.21308486010824
 31
0.0
 11
41.80804446002359
 21
14.11592181265362
 31
0.0
  0
SPLINE
  5
207
330
2
100
AcDbEntity
  8
GAIKEI
  6
Continuous
 62
     1
100
AcDbSpline
210
0.0
220
0.0
230
1.0
 70
     8
 71
     3
 72
    11
 73
     7
 74
     5
 42
0.0000000001
 43
0.0000000001
 44
0.000001
 12
0.9206948447319934
 22
0.3902832341824725
 32
0.0
 13
0.3671367247417234
 23
-0.9301669878822405
 33
0.0
 40
0.0
 40
0.0
 40
0.0
 40
0.0
 40
0.0726826003240876
 40
0.1415657218736197
 40
0.2004100302421387
 40
0.2281680664200468
 40
0.2281680664200468
 40
0.2281680664200468
 40
0.2281680664200468
 10
41.80804446002359
 20
-3.756698881543826
 30
0.0
 10
41.83035062516363
 20
-3.747243281436067
 30
0.0
 10
41.87579498037887
 20
-3.732779801267397
 30
0.0
 10
41.94183765358914
 20
-3.724953771400592
 30
0.0
 10
41.99556557294915
 20
-3.727702191365289
 30
0.0
 10
42.01979640046617
 20
-3.748092345243449
 30
0.0
 10
42.02319339862871
 20
-3.756698881543826
 30
0.0
 11
41.80804446002359
 21
-3.756698881543826
 31
0.0
 11
41.87733200826986
 21
-3.734747578346201
 31
0.0
 11
41.94573978073086
 21
-3.72666958287894
 31
0.0
 11
42.0036773257684
 21
-3.736959067061404
 31
0.0
 11
42.02319339862871
 21
-3.756698881543826
 31
0.0
  0
SPLINE
  5
208
330
2
100
AcDbEntity
  8
GAIKEI
  6
Continuous
 62
     1
100
AcDbSpline
210
0.0
220
0.0
230
1.0
 70
     8
 71
     3
 72
     9
 73
     5
 74
     3
 42
0.0000000001
 43
0.0000000001
 44
0.000001
 12
0.6567232424679582
 22
-0.7541316747109696
 32
0.0
 13
0.750852887176076
 23
-0.6604694859108565
 33
0.0
 40
0.0
 40
0.0
 40
0.0
 40
0.0
 40
0.0622959924961258
 40
0.1246752873558789
 40
0.1246752873558789
 40
0.1246752873558789
 40
0.1246752873558789
 10
40.63332344681889
 20
14.79995237865267
 30
0.0
 10
40.64696052221383
 20
14.78429258493637
 30
0.0
 10
40.67528647007445
 20
14.75383704393289
 30
0.0
 10
40.7055714565976
 20
14.72532659177148
 30
0.0
 10
40.72118401447942
 20
14.71159338483565
 30
0.0
 11
40.63332344681889
 21
14.79995237865267
 31
0.0
 11
40.67575568107591
 21
14.75434276577266
 31
0.0
 11
40.72118401447942
 21
14.71159338483565
 31
0.0
  0
SPLINE
  5
209
330
2
100
AcDbEntity
  8
GAIKEI
  6
Continuous
100
AcDbSpline
210
0.0
220
0.0
230
1.0
 70
     8
 71
     3
 72
     9
 73
     5
 74
     3
 42
0.0000000001
 43
0.0000000001
 44
0.000001
 12
0.0554147012212912
 22
0.9984634249127781
 32
0.0
 13
0.9781883213327244
 23
-0.2077200231279278
 33
0.0
 40
0.0
 40
0.0
 40
0.0
 40
0.0
 40
0.062627723478114
 40
0.0848015881153833
 40
0.0848015881153833
 40
0.0848015881153833
 40
0.0848015881153833
 10
40.28778732784785
 20
20.48804400683398
 30
0.0
 10
40.28894416004275
 20
20.50888783726013
 30
0.0
 10
40.29251816710934
 20
20.52673433165112
 30
0.0
 10
40.29507699377815
 20
20.57235253548506
 30
0.0
 10
40.30230706558715
 20
20.57081721692663
 30
0.0
 11
40.28778732784785
 21
20.48804400683398
 31
0.0
 11
40.293669803447
 21
20.55039396541937
 31
0.0
 11
40.30230706558715
 21
20.57081721692663
 31
0.0
  0
SPLINE
  5
20A
330
2
100
AcDbEntity
  8
GAIKEI
  6
Continuous
100
AcDbSpline
210
0.0
220
0.0
230
1.0
 70
     8
 71
     3
 72
     9
 73
     5
 74
     3
 42
0.0000000001
 43
0.0000000001
 44
0.000001
 12
-0.1770699054458256
 22
0.9841982770689078
 32
0.0
 13
-0.9788794881764774
 23
0.2044381266480339
 33
0.0
 40
0.0
 40
0.0
 40
0.0
 40
0.0
 40
0.0810830638413772
 40
0.1015696684434679
 40
0.1015696684434679
 40
0.1015696684434679
 40
0.1015696684434679
 10
40.42427833733743
 20
20.4587959333719
 30
0.0
 10
40.41949254718821
 20
20.48539653728262
 30
0.0
 10
40.41022624889797
 20
20.51367943583647
 30
0.0
 10
40.39492920971855
 20
20.55117162309805
 30
0.0
 10
40.38824457070943
 20
20.55256770412012
 30
0.0
 11
40.42427833733743
 21
20.4587959333719
 31
0.0
 11
40.40085424250951
 21
20.53642103823239
 31
0.0
 11
40.38824457070943
 21
20.55256770412012
 31
0.0
  0
SPLINE
  5
20B
330
2
100
AcDbEntity
  8
GAIKEI
  6
Continuous
100
AcDbSpline
210
0.0
220
0.0
230
1.0
 70
     8
 71
     3
 72
     9
 73
     5
 74
     3
 42
0.0000000001
 43
0.0000000001
 44
0.000001
 12
0.829555864905178
 22
-0.5584237342748085
 32
0.0
 13
0.7181515903451526
 23
-0.6958866957233258
 33
0.0
 40
0.0
 40
0.0
 40
0.0
 40
0.0
 40
0.0468884831089155
 40
0.093736777000498
 40
0.093736777000498
 40
0.093736777000498
 40
0.093736777000498
 10
40.57183833165247
 20
20.47480891042284
 30
0.0
 10
40.58480387037231
 20
20.46608102981212
 30
0.0
 10
40.60995954512242
 20
20.44747057932031
 30
0.0
 10
40.6333775166512
 20
20.42671598078321
 30
0.0
 10
40.64459224223893
 20
20.41584894597105
 30
0.0
 11
40.57183833165247
 21
20.47480891042284
 31
0.0
 11
40.60953489288145
 21
20.44692533439428
 31
0.0
 11
40.64459224223893
 21
20.41584894597105
 31
0.0
  0
SPLINE
  5
20C
330
2
100
AcDbEntity
  8
GAIKEI
  6
Continuous
 62
     1
100
AcDbSpline
210
0.0
220
0.0
230
1.0
 70
     8
 71
     3
 72
     9
 73
     5
 74
     3
 42
0.0000000001
 43
0.0000000001
 44
0.000001
 12
0.9987434150041043
 22
-0.0501157758189905
 32
0.0
 13
0.0001977800506801
 23
0.9999999804415256
 33
0.0
 40
0.0
 40
0.0
 40
0.0
 40
0.0
 40
0.1293505015534873
 40
0.1867588245599966
 40
0.1867588245599966
 40
0.1867588245599966
 40
0.1867588245599966
 10
40.62408450534511
 20
19.51941216084407
 30
0.0
 10
40.66714715922979
 20
19.51725132726476
 30
0.0
 10
40.71541812341896
 20
19.51547505211884
 30
0.0
 10
40.80407333028587
 20
19.53080702534572
 30
0.0
 10
40.80407711502622
 20
19.54994313264029
 30
0.0
 11
40.62408450534511
 21
19.51941216084407
 31
0.0
 11
40.75338436200079
 21
19.52299805312495
 31
0.0
 11
40.80407711502622
 21
19.54994313264029
 31
0.0
  0
SPLINE
  5
20D
330
2
100
AcDbEntity
  8
GAIKEI
  6
Continuous
 62
     1
100
AcDbSpline
210
0.0
220
0.0
230
1.0
 70
     8
 71
     3
 72
     9
 73
     5
 74
     3
 42
0.0000000001
 43
0.0000000001
 44
0.000001
 12
0.1860620377725842
 22
-0.9825379982982406
 32
0.0
 13
-0.3863119893201843
 23
-0.9223681731865438
 33
0.0
 40
0.0
 40
0.0
 40
0.0
 40
0.0
 40
0.1196974472846219
 40
0.3243034073795668
 40
0.3243034073795668
 40
0.3243034073795668
 40
0.3243034073795668
 10
41.04766843813915
 20
15.03114403517386
 30
0.0
 10
41.05509215512513
 20
14.99194160508838
 30
0.0
 10
41.0208409826735
 20
14.88307843381807
 30
0.0
 10
40.98776306013681
 20
14.78288980604176
 30
0.0
 10
40.9614158149798
 20
14.71998246416314
 30
0.0
 11
41.04766843813915
 21
15.03114403517386
 31
0.0
 11
41.02996739872064
 21
14.91276237367481
 31
0.0
 11
40.9614158149798
 21
14.71998246416314
 31
0.0
  0
SPLINE
  5
20E
330
2
100
AcDbEntity
  8
GAIKEI
  6
Continuous
100
AcDbSpline
210
0.0
220
0.0
230
1.0
 70
     8
 71
     3
 72
     9
 73
     5
 74
     3
 42
0.0000000001
 43
0.0000000001
 44
0.000001
 12
0.9654121897346719
 22
-0.2607284102504091
 32
0.0
 13
0.902243292601743
 23
-0.4312273657308471
 33
0.0
 40
0.0
 40
0.0
 40
0.0
 40
0.0
 40
0.0246662016358692
 40
0.050321931228023
 40
0.050321931228023
 40
0.050321931228023
 40
0.050321931228023
 10
41.82244875775714
 20
20.24733086952034
 30
0.0
 10
41.83038644166838
 20
20.24518714300719
 30
0.0
 10
41.84638490995877
 20
20.24006005212802
 30
0.0
 10
41.86185199787691
 20
20.23350159619513
 30
0.0
 10
41.86956790119068
 20
20.22981377863249
 30
0.0
 11
41.82244875775714
 21
20.24733086952034
 31
0.0
 11
41.84594359510053
 21
20.23981727623791
 31
0.0
 11
41.86956790119068
 21
20.22981377863249
 31
0.0
  0
SPLINE
  5
20F
330
2
100
AcDbEntity
  8
GAIKEI
  6
Continuous
100
AcDbSpline
210
0.0
220
0.0
230
1.0
 70
     8
 71
     3
 72
     9
 73
     5
 74
     3
 42
0.0000000001
 43
0.0000000001
 44
0.000001
 12
0.7764249965061636
 22
-0.6302096673333438
 32
0.0
 13
0.7372538005900991
 23
-0.6756158919944488
 33
0.0
 40
0.0
 40
0.0
 40
0.0
 40
0.0
 40
0.0083503360267535
 40
0.016704782040945
 40
0.016704782040945
 40
0.016704782040945
 40
0.016704782040945
 10
41.92413333413052
 20
20.19532891329578
 30
0.0
 10
41.92629447067065
 20
20.1935747591326
 30
0.0
 10
41.9305592357203
 20
20.18999294043493
 30
0.0
 10
41.93471449653541
 20
20.1862850851745
 30
0.0
 10
41.93676761222734
 20
20.18440361967583
 30
0.0
 11
41.92413333413052
 21
20.19532891329578
 31
0.0
 11
41.93053088380769
 21
20.18996217269327
 31
0.0
 11
41.93676761222734
 21
20.18440361967583
 31
0.0
  0
SPLINE
  5
210
330
2
100
AcDbEntity
  8
GAIKEI
  6
Continuous
100
AcDbSpline
210
0.0
220
0.0
230
1.0
 70
     8
 71
     3
 72
     9
 73
     5
 74
     3
 42
0.0000000001
 43
0.0000000001
 44
0.000001
 12
0.5797443213398605
 22
-0.8147984547568711
 32
0.0
 13
0.1755249561896888
 23
-0.9844749817819687
 33
0.0
 40
0.0
 40
0.0
 40
0.0
 40
0.0
 40
0.060998328582575
 40
0.1219991254618841
 40
0.1219991254618841
 40
0.1219991254618841
 40
0.1219991254618841
 10
41.97534183327653
 20
20.14058037487627
 30
0.0
 10
41.98712964481219
 20
20.12401326025232
 30
0.0
 10
42.00690221053256
 20
20.08803314550443
 30
0.0
 10
42.01840364136436
 20
20.04865981110719
 30
0.0
 10
42.02197269543096
 20
20.02864189164171
 30
0.0
 11
41.97534183327653
 21
20.14058037487627
 31
0.0
 11
42.00483479813992
 21
20.08718487687494
 31
0.0
 11
42.02197269543096
 21
20.02864189164171
 31
0.0
  0
SPLINE
  5
211
330
2
100
AcDbEntity
  8
GAIKEI
  6
Continuous
 62
     1
100
AcDbSpline
210
0.0
220
0.0
230
1.0
 70
     8
 71
     3
 72
     9
 73
     5
 74
     3
 42
0.0000000001
 43
0.0000000001
 44
0.000001
 12
0.3837437811265501
 22
-0.92343960844589
 32
0.0
 13
-0.9665308733465561
 23
-0.2565503281384446
 33
0.0
 40
0.0
 40
0.0
 40
0.0
 40
0.0
 40
0.1059178649118762
 40
0.1755777114823584
 40
0.1755777114823584
 40
0.1755777114823584
 40
0.1755777114823584
 10
42.14239506588993
 20
-4.482467967771782
 30
0.0
 10
42.15594350654664
 20
-4.515070885005664
 30
0.0
 10
42.16759294455484
 20
-4.572662268252642
 30
0.0
 10
42.13724997106822
 20
-4.638803372415341
 30
0.0
 10
42.11480717362056
 20
-4.644760457913918
 30
0.0
 11
42.14239506588993
 21
-4.482467967771782
 31
0.0
 11
42.15471691690935
 21
-4.587665660744079
 31
0.0
 11
42.11480717362056
 21
-4.644760457913918
 31
0.0
  0
SPLINE
  5
212
330
2
100
AcDbEntity
  8
GAIKEI
  6
Continuous
 62
     1
100
AcDbSpline
210
0.0
220
0.0
230
1.0
 70
     8
 71
     3
 72
    11
 73
     7
 74
     5
 42
0.0000000001
 43
0.0000000001
 44
0.000001
 12
0.5343295847045642
 22
0.8452762240294282
 32
0.0
 13
0.4235545341722595
 23
0.9058706069754776
 33
0.0
 40
0.0
 40
0.0
 40
0.0
 40
0.0
 40
0.0051026150699491
 40
0.0102418296713256
 40
0.0907509768669219
 40
0.1712612797759553
 40
0.1712612797759553
 40
0.1712612797759553
 40
0.1712612797759553
 10
42.14239506588993
 20
-4.482467967771782
 30
0.0
 10
42.14330389195367
 20
-4.481030261372114
 30
0.0
 10
42.14493234081134
 20
-4.478021944617052
 30
0.0
 10
42.15769465936324
 20
-4.450598925711407
 30
0.0
 10
42.18120371259296
 20
-4.40044533908738
 30
0.0
 10
42.20390421218127
 20
-4.351810335804198
 30
0.0
 10
42.21527104679617
 20
-4.327499696816203
 30
0.0
 11
42.14239506588993
 21
-4.482467967771782
 31
0.0
 11
42.14487896515878
 21
-4.478010697379516
 31
0.0
 11
42.14709477320131
 21
-4.473373728948472
 31
0.0
 11
42.18118231599297
 21
-4.400437044718898
 31
0.0
 11
42.21527104679617
 21
-4.327499696816203
 31
0.0
  0
SPLINE
  5
213
330
2
100
AcDbEntity
  8
GAIKEI
  6
Continuous
 62
     1
100
AcDbSpline
210
0.0
220
0.0
230
1.0
 70
     8
 71
     3
 72
     9
 73
     5
 74
     3
 42
0.0000000001
 43
0.0000000001
 44
0.000001
 12
0.088371545246291
 22
0.9960875814860774
 32
0.0
 13
-0.9108295441416883
 23
-0.4127826807396893
 33
0.0
 40
0.0
 40
0.0
 40
0.0
 40
0.0
 40
0.0822732468033978
 40
0.1113654689795836
 40
0.1113654689795836
 40
0.1113654689795836
 40
0.1113654689795836
 10
42.21527104679617
 20
-4.206283869278678
 30
0.0
 10
42.21769458478032
 20
-4.178966749468877
 30
0.0
 10
42.21035000563452
 20
-4.160932643647763
 30
0.0
 10
42.22416476711035
 20
-4.091135921303147
 30
0.0
 10
42.21533208195608
 20
-4.095138843122668
 30
0.0
 11
42.21527104679617
 21
-4.206283869278678
 31
0.0
 11
42.21839054023478
 21
-4.12407068365664
 31
0.0
 11
42.21533208195608
 21
-4.095138843122668
 31
0.0
  0
SPLINE
  5
214
330
2
100
AcDbEntity
  8
GAIKEI
  6
Continuous
 62
     1
100
AcDbSpline
210
0.0
220
0.0
230
1.0
 70
     8
 71
     3
 72
     9
 73
     5
 74
     3
 42
0.0000000001
 43
0.0000000001
 44
0.000001
 12
0.0144628323544703
 22
0.9998954077703759
 32
0.0
 13
0.9053598185504306
 23
0.4246452624889762
 33
0.0
 40
0.0
 40
0.0
 40
0.0
 40
0.0
 40
0.058825672780022
 40
0.0800501390682
 40
0.0800501390682
 40
0.0800501390682
 40
0.0800501390682
 10
42.14239506588993
 20
-4.209213556953301
 30
0.0
 10
42.14267866117111
 20
-4.189607050262718
 30
0.0
 10
42.14861547140418
 20
-4.168538870246273
 30
0.0
 10
42.13598980624077
 20
-4.132200752026204
 30
0.0
 10
42.14239506588993
 20
-4.129196462340161
 30
0.0
 11
42.14239506588993
 21
-4.209213556953301
 31
0.0
 11
42.1413808277225
 21
-4.150397219564154
 31
0.0
 11
42.14239506588993
 21
-4.129196462340161
 31
0.0
  0
SPLINE
  5
215
330
2
100
AcDbEntity
  8
GAIKEI
  6
Continuous
100
AcDbSpline
210
0.0
220
0.0
230
1.0
 70
     8
 71
     3
 72
     9
 73
     5
 74
     3
 42
0.0000000001
 43
0.0000000001
 44
0.000001
 12
-0.5706642736664941
 22
-0.8211834671744755
 32
0.0
 13
-0.5093037193375937
 23
-0.8605868471391449
 33
0.0
 40
0.0
 40
0.0
 40
0.0
 40
0.0
 40
0.0025620985913038
 40
0.0051314383267133
 40
0.0051314383267133
 40
0.0051314383267133
 40
0.0051314383267133
 10
42.11236576722504
 20
-4.154526053693671
 30
0.0
 10
42.11187840118115
 20
-4.155227371361821
 30
0.0
 10
42.11094033701373
 20
-4.156658544555202
 30
0.0
 10
42.11005537645791
 20
-4.15812250338501
 30
0.0
 10
42.10961918503008
 20
-4.158859550045718
 30
0.0
 11
42.11236576722504
 21
-4.154526053693671
 31
0.0
 11
42.11095503870409
 21
-4.156665115394133
 31
0.0
 11
42.10961918503008
 21
-4.158859550045718
 31
0.0
  0
SPLINE
  5
216
330
2
100
AcDbEntity
  8
GAIKEI
  6
Continuous
 62
     1
100
AcDbSpline
210
0.0
220
0.0
230
1.0
 70
     8
 71
     3
 72
     9
 73
     5
 74
     3
 42
0.0000000001
 43
0.0000000001
 44
0.000001
 12
-0.3838936161508544
 22
0.9233773288740744
 32
0.0
 13
0.9065999430110528
 23
0.4219911649932448
 33
0.0
 40
0.0
 40
0.0
 40
0.0
 40
0.0
 40
0.1089050845403508
 40
0.15845842599892
 40
0.15845842599892
 40
0.15845842599892
 40
0.15845842599892
 10
41.68322755805268
 20
-4.512863477395995
 30
0.0
 10
41.66929156914554
 20
-4.479343315374769
 30
0.0
 10
41.66152474180225
 20
-4.440615439315542
 30
0.0
 10
41.63205868939164
 20
-4.367123864786742
 30
0.0
 10
41.6470337082391
 20
-4.360153507356272
 30
0.0
 11
41.68322755805268
 21
-4.512863477395995
 31
0.0
 11
41.64836674384722
 21
-4.409689546636342
 31
0.0
 11
41.6470337082391
 21
-4.360153507356272
 31
0.0
  0
SPLINE
  5
217
330
2
100
AcDbEntity
  8
GAIKEI
  6
Continuous
 62
     1
100
AcDbSpline
210
0.0
220
0.0
230
1.0
 70
     8
 71
     3
 72
    13
 73
     9
 74
     7
 42
0.0000000001
 43
0.0000000001
 44
0.000001
 12
0.0171063064596899
 22
-0.9998536764343608
 32
0.0
 13
0.9062487129382523
 23
0.4227449234441039
 33
0.0
 40
0.0
 40
0.0
 40
0.0
 40
0.0
 40
0.1499071949144117
 40
0.2861535616705502
 40
0.4073301870035555
 40
0.4849560908471046
 40
0.5237979657206552
 40
0.5360583401269707
 40
0.5360583401269707
 40
0.5360583401269707
 40
0.5360583401269707
 10
41.80804446002359
 20
-3.756698881543826
 30
0.0
 10
41.8088992461625
 20
-3.806660634863538
 30
0.0
 10
41.81012876513976
 20
-3.902099460913286
 30
0.0
 10
41.81335747266035
 20
-4.037594298046929
 30
0.0
 10
41.80324766540517
 20
-4.150092757643603
 30
0.0
 10
41.80705895174262
 20
-4.227228007439475
 30
0.0
 10
41.78506188054952
 20
-4.272373224132872
 30
0.0
 10
41.80330321279687
 20
-4.287296212319759
 30
0.0
 10
41.8070068623055
 20
-4.285568541973161
 30
0.0
 11
41.80804446002359
 21
-3.756698881543826
 31
0.0
 11
41.81047308413245
 21
-3.906585588008481
 31
0.0
 11
41.81073000705866
 21
-4.042831711098671
 31
0.0
 11
41.80534736899004
 21
-4.163888718094709
 31
0.0
 11
41.79801073186495
 21
-4.241167106601011
 31
0.0
 11
41.79610294614842
 21
-4.279962005074736
 31
0.0
 11
41.8070068623055
 21
-4.285568541973161
 31
0.0
  0
SPLINE
  5
218
330
2
100
AcDbEntity
  8
GAIKEI
  6
Continuous
100
AcDbSpline
210
0.0
220
0.0
230
1.0
 70
     8
 71
     3
 72
     9
 73
     5
 74
     3
 42
0.0000000001
 43
0.0000000001
 44
0.000001
 12
-0.9564705885565075
 22
-0.2918287395483318
 32
0.0
 13
-0.9752593618868349
 23
-0.2210637397948462
 33
0.0
 40
0.0
 40
0.0
 40
0.0
 40
0.0
 40
0.0050183846228515
 40
0.0095840110870378
 40
0.0095840110870378
 40
0.0095840110870378
 40
0.0095840110870378
 10
42.17944340794193
 20
-4.627304402185956
 30
0.0
 10
42.17784342884399
 20
-4.627792571805641
 30
0.0
 10
42.17479046924107
 20
-4.628731311378547
 30
0.0
 10
42.17171132211621
 20
-4.629592482574245
 30
0.0
 10
42.17022709879886
 20
-4.629928914061138
 30
0.0
 11
42.17944340794193
 21
-4.627304402185956
 31
0.0
 11
42.17463892124674
 21
-4.62875340108212
 31
0.0
 11
42.17022709879886
 21
-4.629928914061138
 31
0.0
  0
SPLINE
  5
219
330
2
100
AcDbEntity
  8
GAIKEI
  6
Continuous
100
AcDbSpline
210
0.0
220
0.0
230
1.0
 70
     8
 71
     3
 72
     9
 73
     5
 74
     3
 42
0.0000000001
 43
0.0000000001
 44
0.000001
 12
-0.9421594453780514
 22
-0.3351650033713585
 32
0.0
 13
-0.8771292464302293
 23
-0.4802543961867901
 33
0.0
 40
0.0
 40
0.0
 40
0.0
 40
0.0
 40
0.0011591428797774
 40
0.0020078270964196
 40
0.0020078270964196
 40
0.0020078270964196
 40
0.0020078270964196
 10
42.19067387736132
 20
-4.623581257432789
 30
0.0
 10
42.19030984489042
 20
-4.623710758808525
 30
0.0
 10
42.18968327438558
 20
-4.623938875078564
 30
0.0
 10
42.18902992265394
 20
-4.62411678274955
 30
0.0
 10
42.18878178740481
 20
-4.624252644191556
 30
0.0
 11
42.19067387736132
 21
-4.623581257432789
 31
0.0
 11
42.1895778977124
 21
-4.623958315172103
 31
0.0
 11
42.18878178740481
 21
-4.624252644191556
 31
0.0
  0
SPLINE
  5
21A
330
2
100
AcDbEntity
  8
GAIKEI
  6
Continuous
100
AcDbSpline
210
0.0
220
0.0
230
1.0
 70
     8
 71
     3
 72
     9
 73
     5
 74
     3
 42
0.0000000001
 43
0.0000000001
 44
0.000001
 12
-0.9512628121061844
 22
-0.3083813585543628
 32
0.0
 13
-0.9560356348868982
 23
-0.2932505154750895
 33
0.0
 40
0.0
 40
0.0
 40
0.0
 40
0.0
 40
0.0023156638362493
 40
0.0045951359214108
 40
0.0045951359214108
 40
0.0045951359214108
 40
0.0045951359214108
 10
42.18383793945386
 20
-4.625961628668419
 30
0.0
 10
42.18310367115628
 20
-4.626199664521679
 30
0.0
 10
42.18163837112889
 20
-4.626646309484417
 30
0.0
 10
42.18016982678931
 20
-4.627081583397961
 30
0.0
 10
42.17944340794193
 20
-4.627304402185956
 30
0.0
 11
42.18383793945386
 21
-4.625961628668419
 31
0.0
 11
42.18162604704319
 21
-4.626647352789831
 31
0.0
 11
42.17944340794193
 21
-4.627304402185956
 31
0.0
  0
SPLINE
  5
21B
330
2
100
AcDbEntity
  8
GAIKEI
  6
Continuous
100
AcDbSpline
210
0.0
220
0.0
230
1.0
 70
     8
 71
     3
 72
     9
 73
     5
 74
     3
 42
0.0000000001
 43
0.0000000001
 44
0.000001
 12
-0.0126254316132282
 22
-0.999920296061931
 32
0.0
 13
-0.1660238152324452
 23
-0.9861217433844885
 33
0.0
 40
0.0
 40
0.0
 40
0.0
 40
0.0
 40
0.0135509657198269
 40
0.0299519371208404
 40
0.0299519371208404
 40
0.0299519371208404
 40
0.0299519371208404
 10
42.37402349766481
 20
-4.367843937502158
 30
0.0
 10
42.37396646873448
 20
-4.372360566053655
 30
0.0
 10
42.37366211756449
 20
-4.382340824451901
 30
0.0
 10
42.37267284736413
 20
-4.39229901251699
 30
0.0
 10
42.37176519674895
 20
-4.397690130687379
 30
0.0
 11
42.37402349766481
 21
-4.367843937502158
 31
0.0
 11
42.3735501167984
 21
-4.381386016744754
 31
0.0
 11
42.37176519674895
 21
-4.397690130687379
 31
0.0
  0
SPLINE
  5
21C
330
2
100
AcDbEntity
  8
GAIKEI
  6
Continuous
100
AcDbSpline
210
0.0
220
0.0
230
1.0
 70
     8
 71
     3
 72
     9
 73
     5
 74
     3
 42
0.0000000001
 43
0.0000000001
 44
0.000001
 12
-0.3157010400653189
 22
-0.9488587109268038
 32
0.0
 13
-0.5936093330953858
 23
-0.8047533533089822
 33
0.0
 40
0.0
 40
0.0
 40
0.0
 40
0.0
 40
0.0090766684078252
 40
0.0173040062121875
 40
0.0173040062121875
 40
0.0173040062121875
 40
0.0173040062121875
 10
42.35156255882603
 20
-4.472702342189704
 30
0.0
 10
42.35060738760714
 20
-4.475573167484691
 30
0.0
 10
42.34859564286175
 20
-4.480980224023788
 30
0.0
 10
42.34586628114189
 20
-4.486120350558739
 30
0.0
 10
42.34423833963949
 20
-4.488327343121028
 30
0.0
 11
42.35156255882603
 21
-4.472702342189704
 31
0.0
 11
42.34829890258156
 21
-4.481171338845853
 31
0.0
 11
42.34423833963949
 21
-4.488327343121028
 31
0.0
  0
SPLINE
  5
21D
330
2
100
AcDbEntity
  8
GAIKEI
  6
Continuous
 62
     1
100
AcDbSpline
210
0.0
220
0.0
230
1.0
 70
     8
 71
     3
 72
    43
 73
    39
 74
    37
 42
0.0000000001
 43
0.0000000001
 44
0.000001
 12
0.2770611746011755
 22
0.9608522808052324
 32
0.0
 13
-0.2770611746011753
 23
0.9608522808052324
 33
0.0
 40
0.0
 40
0.0
 40
0.0
 40
0.0
 40
0.0034003813442528
 40
0.0069436756809746
 40
0.0127446235585731
 40
0.0194431400990716
 40
0.0270011267012113
 40
0.03537947183129
 40
0.0445385162966202
 40
0.0544383046567002
 40
0.0650387330258563
 40
0.0762996430054521
 40
0.0881808860827621
 40
0.100642371281843
 40
0.1136441032215269
 40
0.1271462148292198
 40
0.1411089973939656
 40
0.1554929297708134
 40
0.1702587080601509
 40
0.1853672768149825
 40
0.2004758455698683
 40
0.2152416238591715
 40
0.2296255562360429
 40
0.2435883388007541
 40
0.2570904504084432
 40
0.2700921823481313
 40
0.2825536675472397
 40
0.2944349106245604
 40
0.3056958206041428
 40
0.3162962489733117
 40
0.3261960373334473
 40
0.3353550817987996
 40
0.3437334269288695
 40
0.3512914135310551
 40
0.3579899300715394
 40
0.3637908779491195
 40
0.3673341722858688
 40
0.3707345536300942
 40
0.3707345536300942
 40
0.3707345536300942
 40
0.3707345536300942
 10
42.09356693797956
 20
-0.403305126978495
 30
0.0
 10
42.09388097586267
 20
-0.4022160389217506
 30
0.0
 10
42.09449327241666
 20
-0.3999836959764784
 30
0.0
 10
42.09553446047746
 20
-0.3958647883888462
 30
0.0
 10
42.09670073174655
 20
-0.390644929599795
 30
0.0
 10
42.09796752193479
 20
-0.3840795177627347
 30
0.0
 10
42.09923650580317
 20
-0.3766415665738272
 30
0.0
 10
42.1004904682366
 20
-0.3683705424509085
 30
0.0
 10
42.10171755561803
 20
-0.359307169940053
 30
0.0
 10
42.10290447673299
 20
-0.3494919497627836
 30
0.0
 10
42.10403853714732
 20
-0.3389655423880868
 30
0.0
 10
42.10510695809657
 20
-0.3277686103315638
 30
0.0
 10
42.10609704921271
 20
-0.3159418448718084
 30
0.0
 10
42.10699613700504
 20
-0.303525946444057
 30
0.0
 10
42.10779157317158
 20
-0.2905616235454106
 30
0.0
 10
42.10847072389806
 20
-0.2770895887702019
 30
0.0
 10
42.10902096742517
 20
-0.2631505572503872
 30
0.0
 10
42.10942969090676
 20
-0.2487852448169969
 30
0.0
 10
42.10968428890487
 20
-0.2340343684273888
 30
0.0
 10
42.10977157113759
 20
-0.2190399792766693
 30
0.0
 10
42.10968428890534
 20
-0.2040455901259583
 30
0.0
 10
42.10942969090758
 20
-0.1892947137363286
 30
0.0
 10
42.10902096742612
 20
-0.1749294013029496
 30
0.0
 10
42.1084707238992
 20
-0.1609903697831333
 30
0.0
 10
42.10779157317283
 20
-0.147518335007929
 30
0.0
 10
42.10699613700613
 20
-0.1345540121092834
 30
0.0
 10
42.1060970492139
 20
-0.1221381136815105
 30
0.0
 10
42.10510695809759
 20
-0.1103113482217596
 30
0.0
 10
42.10403853714818
 20
-0.0991144161652513
 30
0.0
 10
42.10290447673377
 20
-0.0885880087905424
 30
0.0
 10
42.10171755561853
 20
-0.0787727886132762
 30
0.0
 10
42.10049046823694
 20
-0.0697094161024175
 30
0.0
 10
42.09923650580338
 20
-0.0614383919794995
 30
0.0
 10
42.09796752193489
 20
-0.0540004407906018
 30
0.0
 10
42.09670073174662
 20
-0.0474350289535498
 30
0.0
 10
42.09553446047744
 20
-0.0422151701645158
 30
0.0
 10
42.09449327241667
 20
-0.0380962625768827
 30
0.0
 10
42.09388097586267
 20
-0.0358639196316143
 30
0.0
 10
42.09356693797956
 20
-0.0347748315748788
 30
0.0
 11
42.09356693797956
 21
-0.403305126978495
 31
0.0
 11
42.09446890520397
 21
-0.4000265666615235
 31
0.0
 11
42.0953369576163
 21
-0.3965912593908172
 31
0.0
 11
42.09660882404209
 21
-0.3909314737810518
 31
0.0
 11
42.09788993214589
 21
-0.3843566219216257
 31
0.0
 11
42.09916768448764
 21
-0.3769074417404283
 31
0.0
 11
42.10042948362722
 21
-0.3686246711652359
 31
0.0
 11
42.1016627321246
 21
-0.3595490481239665
 31
0.0
 11
42.1028548325397
 21
-0.3497213105444814
 31
0.0
 11
42.10399318743245
 21
-0.3391821963546135
 31
0.0
 11
42.10506519936278
 21
-0.3279724434822526
 31
0.0
 11
42.1060582708906
 21
-0.3161327898552315
 31
0.0
 11
42.10695980457596
 21
-0.3037039734014684
 31
0.0
 11
42.10775720297855
 21
-0.2907267320487676
 31
0.0
 11
42.10843786865853
 21
-0.277241803725019
 31
0.0
 11
42.10898920417569
 21
-0.2632899263580555
 31
0.0
 11
42.10939861209003
 21
-0.2489118378757951
 31
0.0
 11
42.10965349496148
 21
-0.2341482762060139
 31
0.0
 11
42.10974125534987
 21
-0.2190399792766868
 31
0.0
 11
42.10965349496193
 21
-0.203931682347303
 31
0.0
 11
42.10939861209083
 21
-0.1891681206775502
 31
0.0
 11
42.10898920417665
 21
-0.1747900321952613
 31
0.0
 11
42.10843786865965
 21
-0.1608381548283262
 31
0.0
 11
42.10775720297974
 21
-0.1473532265045776
 31
0.0
 11
42.10695980457709
 21
-0.1343759851518769
 31
0.0
 11
42.10605827089175
 21
-0.1219471686980853
 31
0.0
 11
42.10506519936379
 21
-0.1101075150710642
 31
0.0
 11
42.10399318743331
 21
-0.0988977621987317
 31
0.0
 11
42.10285483254043
 21
-0.0883586480088639
 31
0.0
 11
42.10166273212511
 21
-0.0785309104293504
 31
0.0
 11
42.10042948362756
 21
-0.0694552873880809
 31
0.0
 11
42.09916768448787
 21
-0.0611725168129169
 31
0.0
 11
42.097889932146
 21
-0.0537233366316912
 31
0.0
 11
42.09660882404214
 21
-0.0471484847722934
 31
0.0
 11
42.0953369576163
 21
-0.0414886991625565
 31
0.0
 11
42.09446890520397
 21
-0.0380533918918218
 31
0.0
 11
42.09356693797956
 21
-0.0347748315748788
 31
0.0
  0
SPLINE
  5
21E
330
2
100
AcDbEntity
  8
GAIKEI
  6
Continuous
 62
     1
100
AcDbSpline
210
0.0
220
0.0
230
1.0
 70
     8
 71
     3
 72
    43
 73
    39
 74
    37
 42
0.0000000001
 43
0.0000000001
 44
0.000001
 12
0.2770611746011755
 22
0.9608522808052324
 32
0.0
 13
-0.2770611746011753
 23
0.9608522808052324
 33
0.0
 40
0.0
 40
0.0
 40
0.0
 40
0.0
 40
0.003429810728652
 40
0.0070027013734692
 40
0.0128036496248558
 40
0.0195021664477658
 40
0.0270601532254176
 40
0.0354384984689781
 40
0.0445975430124458
 40
0.0544973314294637
 40
0.0650977598421451
 40
0.0763586698565369
 40
0.088239912962635
 40
0.1007013981864508
 40
0.1137031301480533
 40
0.1272052417758063
 40
0.1411680243593875
 40
0.1555519567544574
 40
0.1703177350619088
 40
0.1854263038353254
 40
0.2005341871667056
 40
0.2152980286113205
 40
0.2296789521908302
 40
0.2436378337148008
 40
0.2571353318569098
 40
0.2701319177250621
 40
0.2825879039717198
 40
0.2944634747607662
 40
0.305718718395197
 40
0.3163136652761873
 40
0.3262083354256446
 40
0.33536280269419
 40
0.3437372883792384
 40
0.3512923084612149
 40
0.3579889238936452
 40
0.3637892033673821
 40
0.3673620940121991
 40
0.3707919047408546
 40
0.3707919047408546
 40
0.3707919047408546
 40
0.3707919047408546
 10
42.09356693797956
 20
13.0066688168495
 30
0.0
 10
42.09388369377594
 20
13.00776733066995
 30
0.0
 10
42.09449219355321
 20
13.01002117478399
 30
0.0
 10
42.09552939922178
 20
13.01416125180659
 30
0.0
 10
42.09670181636188
 20
13.01938979035409
 30
0.0
 10
42.09796717080731
 20
13.02595554404912
 30
0.0
 10
42.09923661612084
 20
13.0333933856537
 30
0.0
 10
42.10049043419166
 20
13.04166444424767
 30
0.0
 10
42.10171756584087
 20
13.05072780631248
 30
0.0
 10
42.10290447363736
 20
13.06054302971981
 30
0.0
 10
42.10403853802143
 20
13.07106943619666
 30
0.0
 10
42.10510695781528
 20
13.08226636856494
 30
0.0
 10
42.10609704927464
 20
13.09409313397344
 30
0.0
 10
42.10699613697397
 20
13.10650903244922
 30
0.0
 10
42.10779157317152
 20
13.11947335536336
 30
0.0
 10
42.10847072389284
 20
13.13294539016055
 30
0.0
 10
42.10902096742325
 20
13.14688442169912
 30
0.0
 10
42.10942969090837
 20
13.16124973414981
 30
0.0
 10
42.10968428889596
 20
13.17600061056239
 30
0.0
 10
42.10977156984223
 20
13.19099477123152
 30
0.0
 10
42.10968429649496
 20
13.20598828636127
 30
0.0
 10
42.10942970406308
 20
13.2207372856752
 30
0.0
 10
42.1090209844754
 20
13.23509964830803
 30
0.0
 10
42.10847074325677
 20
13.24903483604058
 30
0.0
 10
42.10779159334236
 20
13.26250231178737
 30
0.0
 10
42.10699615647166
 20
13.27546153915912
 30
0.0
 10
42.10609706659415
 20
13.28787198435468
 30
0.0
 10
42.10510697136403
 20
13.29969311749489
 30
0.0
 10
42.10403854601184
 20
13.31088441733663
 30
0.0
 10
42.10290447402661
 20
13.32140536973815
 30
0.0
 10
42.10171755591031
 20
13.33121549611999
 30
0.0
 10
42.10049041100716
 20
13.34027429683664
 30
0.0
 10
42.09923657353924
 20
13.34854150764138
 30
0.0
 10
42.09796710645039
 20
13.35597639395311
 30
0.0
 10
42.09670170608565
 20
13.36254025785371
 30
0.0
 10
42.09552932702503
 20
13.36776792437755
 30
0.0
 10
42.09449219743899
 20
13.37190779041189
 30
0.0
 10
42.09388369377594
 20
13.37416163359255
 30
0.0
 10
42.09356693797956
 20
13.375260147413
 30
0.0
 11
42.09356693797956
 21
13.0066688168495
 31
0.0
 11
42.09446890520397
 21
13.00997789474641
 31
0.0
 11
42.0953369576163
 21
13.01344371959706
 31
0.0
 11
42.09660882404209
 21
13.0191035052068
 31
0.0
 11
42.09788993214589
 21
13.02567835706623
 31
0.0
 11
42.09916768448764
 21
13.03312753724745
 31
0.0
 11
42.10042948362722
 21
13.04141030782264
 31
0.0
 11
42.1016627321246
 21
13.05048593086391
 31
0.0
 11
42.1028548325397
 21
13.0603136684434
 31
0.0
 11
42.10399318743245
 21
13.07085278263324
 31
0.0
 11
42.10506519936278
 21
13.08206253550563
 31
0.0
 11
42.1060582708906
 21
13.09390218913262
 31
0.0
 11
42.10695980457596
 21
13.10633100558638
 31
0.0
 11
42.10775720297855
 21
13.11930824693908
 31
0.0
 11
42.10843786865853
 21
13.13279317526286
 31
0.0
 11
42.10898920417569
 21
13.14674505262982
 31
0.0
 11
42.10939861209003
 21
13.16112314111208
 31
0.0
 11
42.10965349496148
 21
13.17588670278184
 31
0.0
 11
42.10974125534987
 21
13.19099499971119
 31
0.0
 11
42.10965349496193
 21
13.2061026111871
 31
0.0
 11
42.10939861209083
 21
13.22086423570579
 31
0.0
 11
42.10898920417665
 21
13.23523931415332
 31
0.0
 11
42.10843786865965
 21
13.24918728741582
 31
0.0
 11
42.10775720297974
 21
13.26266759637931
 31
0.0
 11
42.10695980457709
 21
13.27563968192993
 31
0.0
 11
42.10605827089175
 21
13.28806298495377
 31
0.0
 11
42.10506519936379
 21
13.29989694633684
 31
0.0
 11
42.10399318743331
 21
13.31110100696529
 31
0.0
 11
42.10285483254043
 21
13.32163460772517
 31
0.0
 11
42.10166273212511
 21
13.33145718950257
 31
0.0
 11
42.10042948362756
 21
13.34052819318361
 31
0.0
 11
42.09916768448787
 21
13.34880705965432
 31
0.0
 11
42.097889932146
 21
13.35625322980081
 31
0.0
 11
42.09660882404214
 21
13.36282614450917
 31
0.0
 11
42.0953369576163
 21
13.36848524466544
 31
0.0
 11
42.09446890520397
 21
13.37195106951609
 31
0.0
 11
42.09356693797956
 21
13.375260147413
 31
0.0
  0
SPLINE
  5
21F
330
2
100
AcDbEntity
  8
GAIKEI
  6
Continuous
 62
     1
100
AcDbSpline
210
0.0
220
0.0
230
1.0
 70
     8
 71
     3
 72
     9
 73
     5
 74
     3
 42
0.0000000001
 43
0.0000000001
 44
0.000001
 12
-0.1261500648611508
 22
-0.9920111698642951
 32
0.0
 13
-0.1054054122280503
 23
-0.9944293333731838
 33
0.0
 40
0.0
 40
0.0
 40
0.0
 40
0.0
 40
0.0069139016790098
 40
0.0141952970220688
 40
0.0141952970220688
 40
0.0141952970220688
 40
0.0141952970220688
 10
42.08483891011558
 20
-0.0814667288891826
 30
0.0
 10
42.08454818040049
 20
-0.0837529514534897
 30
0.0
 10
42.08397300787124
 20
-0.0884497088854794
 30
0.0
 10
42.08344679362451
 20
-0.0931522397842975
 30
0.0
 10
42.0831909607986
 20
-0.0955658508233057
 30
0.0
 11
42.08483891011558
 21
-0.0814667288891826
 31
0.0
 11
42.08399940425525
 21
-0.0883294614143608
 31
0.0
 11
42.0831909607986
 21
-0.0955658508233057
 31
0.0
  0
SPLINE
  5
220
330
2
100
AcDbEntity
  8
GAIKEI
  6
Continuous
 62
     1
100
AcDbSpline
210
0.0
220
0.0
230
1.0
 70
     8
 71
     3
 72
     9
 73
     5
 74
     3
 42
0.0000000001
 43
0.0000000001
 44
0.000001
 12
-0.0569605106606471
 22
-0.9983764321263189
 32
0.0
 13
-0.0342601710533544
 23
-0.9994129480246865
 33
0.0
 40
0.0
 40
0.0
 40
0.0
 40
0.0
 40
0.0140186829178103
 40
0.0285326849080197
 40
0.0285326849080197
 40
0.0285326849080197
 40
0.0285326849080197
 10
42.07946781604543
 20
-0.1419525723381696
 30
0.0
 10
42.0792016455995
 20
-0.1466178798830342
 30
0.0
 10
42.07872258651948
 20
-0.1561169794249275
 30
0.0
 10
42.07835182841806
 20
-0.1656208315002986
 30
0.0
 10
42.07818607768778
 20
-0.1704559920058557
 30
0.0
 11
42.07946781604543
 21
-0.1419525723381696
 31
0.0
 11
42.07875738416753
 21
-0.1559532944484658
 31
0.0
 11
42.07818607768778
 21
-0.1704559920058557
 31
0.0
  0
SPLINE
  5
221
330
2
100
AcDbEntity
  8
GAIKEI
  6
Continuous
 62
     1
100
AcDbSpline
210
0.0
220
0.0
230
1.0
 70
     8
 71
     3
 72
     9
 73
     5
 74
     3
 42
0.0000000001
 43
0.0000000001
 44
0.000001
 12
-0.0091608177041735
 22
-0.9999580388291256
 32
0.0
 13
0.003597856109263
 23
-0.9999935276947631
 33
0.0
 40
0.0
 40
0.0
 40
0.0
 40
0.0
 40
0.0093018293769116
 40
0.0186159185134003
 40
0.0186159185134003
 40
0.0186159185134003
 40
0.0186159185134003
 10
42.07745365576913
 20
-0.2056732792612195
 30
0.0
 10
42.07742525164805
 20
-0.208773758948306
 30
0.0
 10
42.07738356128752
 20
-0.2149789581568336
 30
0.0
 10
42.07738145035841
 20
-0.221184326742766
 30
0.0
 10
42.07739262060925
 20
-0.224289003027053
 30
0.0
 11
42.07745365576913
 21
-0.2056732792612195
 31
0.0
 11
42.07739355141534
 21
-0.2149748994198433
 31
0.0
 11
42.07739262060925
 21
-0.224289003027053
 31
0.0
  0
SPLINE
  5
222
330
2
100
AcDbEntity
  8
GAIKEI
  6
Continuous
 62
     1
100
AcDbSpline
210
0.0
220
0.0
230
1.0
 70
     8
 71
     3
 72
     9
 73
     5
 74
     3
 42
0.0000000001
 43
0.0000000001
 44
0.000001
 12
0.035394893594903
 22
-0.9993734044427066
 32
0.0
 13
0.0453961719075586
 23
-0.9989690623718733
 33
0.0
 40
0.0
 40
0.0
 40
0.0
 40
0.0
 40
0.0065206358170769
 40
0.0129511489853356
 40
0.0129511489853356
 40
0.0129511489853356
 40
0.0129511489853356
 10
42.07824711284767
 20
-0.2691498455447174
 30
0.0
 10
42.0783240452513
 20
-0.2713220288832651
 30
0.0
 10
42.07850088364067
 20
-0.2756355153813454
 30
0.0
 10
42.0786991223929
 20
-0.2799480048708804
 30
0.0
 10
42.07879642928666
 20
-0.2820892994409689
 30
0.0
 11
42.07824711284767
 21
-0.2691498455447174
 31
0.0
 11
42.07850736715868
 21
-0.2756653188276061
 31
0.0
 11
42.07879642928666
 21
-0.2820892994409689
 31
0.0
  0
SPLINE
  5
223
330
2
100
AcDbEntity
  8
GAIKEI
  6
Continuous
 62
     1
100
AcDbSpline
210
0.0
220
0.0
230
1.0
 70
     8
 71
     3
 72
     9
 73
     5
 74
     3
 42
0.0000000001
 43
0.0000000001
 44
0.000001
 12
0.1008215918041188
 22
-0.9949045213617655
 32
0.0
 13
0.1320410088821702
 23
-0.9912442544465914
 33
0.0
 40
0.0
 40
0.0
 40
0.0
 40
0.0
 40
0.0110434410635833
 40
0.0212594793641782
 40
0.0212594793641782
 40
0.0212594793641782
 40
0.0212594793641782
 10
42.08282474983927
 20
-0.3389130332966772
 30
0.0
 10
42.08319588894162
 20
-0.3425754231118609
 30
0.0
 10
42.08395020256941
 20
-0.3496218905080261
 30
0.0
 10
42.08481651090012
 20
-0.3566556688616942
 30
0.0
 10
42.08526615623479
 20
-0.3600311986179179
 30
0.0
 11
42.08282474983927
 21
-0.3389130332966772
 31
0.0
 11
42.08401064729847
 21
-0.3498924796022607
 31
0.0
 11
42.08526615623479
 21
-0.3600311986179179
 31
0.0
  0
SPLINE
  5
224
330
2
100
AcDbEntity
  8
GAIKEI
  6
Continuous
 62
     1
100
AcDbSpline
210
0.0
220
0.0
230
1.0
 70
     8
 71
     3
 72
     9
 73
     5
 74
     3
 42
0.0000000001
 43
0.0000000001
 44
0.000001
 12
0.1646380104571948
 22
-0.9863540568744554
 32
0.0
 13
0.2982273181557149
 23
-0.9544948751594478
 33
0.0
 40
0.0
 40
0.0
 40
0.0
 40
0.0
 40
0.003488617591907
 40
0.0063125319358737
 40
0.0063125319358737
 40
0.0063125319358737
 40
0.0063125319358737
 10
42.08764652747041
 20
-0.3758393050289044
 30
0.0
 10
42.08783798049028
 20
-0.3769863090671248
 30
0.0
 10
42.08820946256372
 20
-0.3790575920961321
 30
0.0
 10
42.08870857818745
 20
-0.3811053855878551
 30
0.0
 10
42.08898930098796
 20
-0.3820038561775902
 30
0.0
 11
42.08764652747041
 21
-0.3758393050289044
 31
0.0
 11
42.08828845090653
 21
-0.3792680652179285
 31
0.0
 11
42.08898930098796
 21
-0.3820038561775902
 31
0.0
  0
SPLINE
  5
225
330
2
100
AcDbEntity
  8
GAIKEI
  6
Continuous
 62
     1
100
AcDbSpline
210
0.0
220
0.0
230
1.0
 70
     8
 71
     3
 72
     9
 73
     5
 74
     3
 42
0.0000000001
 43
0.0000000001
 44
0.000001
 12
-0.1261518379468331
 22
-0.9920109443865204
 32
0.0
 13
-0.1054039013669571
 23
-0.9944294935170741
 33
0.0
 40
0.0
 40
0.0
 40
0.0
 40
0.0
 40
0.0069138441174392
 40
0.0141952970832086
 40
0.0141952970832086
 40
0.0141952970832086
 40
0.0141952970832086
 10
42.08483891011558
 20
13.32850721493881
 30
0.0
 10
42.08454817873468
 20
13.32622101192805
 30
0.0
 10
42.08397300232527
 20
13.32152425492094
 30
0.0
 10
42.08344679198201
 20
13.31682172353296
 30
0.0
 10
42.0831909607986
 20
13.31440809300469
 30
0.0
 11
42.08483891011558
 21
13.32850721493881
 31
0.0
 11
42.08399939936582
 21
13.32164454097054
 31
0.0
 11
42.0831909607986
 21
13.31440809300469
 31
0.0
  0
SPLINE
  5
226
330
2
100
AcDbEntity
  8
GAIKEI
  6
Continuous
 62
     1
100
AcDbSpline
210
0.0
220
0.0
230
1.0
 70
     8
 71
     3
 72
     9
 73
     5
 74
     3
 42
0.0000000001
 43
0.0000000001
 44
0.000001
 12
-0.0569611709790511
 22
-0.9983763944528615
 32
0.0
 13
-0.0342607908576336
 23
-0.9994129267774203
 33
0.0
 40
0.0
 40
0.0
 40
0.0
 40
0.0
 40
0.0140491508217509
 40
0.0285936597046122
 40
0.0285936597046122
 40
0.0285936597046122
 40
0.0285936597046122
 10
42.07946781604543
 20
13.26808240664971
 30
0.0
 10
42.07920106401807
 20
13.26340695980219
 30
0.0
 10
42.07872233140416
 20
13.25388748423925
 30
0.0
 10
42.07835217981343
 20
13.24436327521918
 30
0.0
 10
42.07818607768778
 20
13.23951795182213
 30
0.0
 11
42.07946781604543
 21
13.26808240664971
 31
0.0
 11
42.07875738451678
 21
13.25405117068473
 31
0.0
 11
42.07818607768778
 21
13.23951795182213
 31
0.0
  0
SPLINE
  5
227
330
2
100
AcDbEntity
  8
GAIKEI
  6
Continuous
 62
     1
100
AcDbSpline
210
0.0
220
0.0
230
1.0
 70
     8
 71
     3
 72
     9
 73
     5
 74
     3
 42
0.0000000001
 43
0.0000000001
 44
0.000001
 12
-0.0091614349012668
 22
-0.9999580331746678
 32
0.0
 13
0.0035961960669798
 23
-0.9999935336660172
 33
0.0
 40
0.0
 40
0.0
 40
0.0
 40
0.0
 40
0.0092713104755028
 40
0.0185548833565473
 40
0.0185548833565473
 40
0.0185548833565473
 40
0.0185548833565473
 10
42.07745365576913
 20
13.20430066456677
 30
0.0
 10
42.07742534293334
 20
13.20121035743742
 30
0.0
 10
42.07738369436397
 20
13.19502550383848
 30
0.0
 10
42.07738149209315
 20
13.18884048024427
 30
0.0
 10
42.07739262060925
 20
13.18574597596082
 30
0.0
 11
42.07745365576913
 21
13.20430066456677
 31
0.0
 11
42.07739355628295
 21
13.19502956385071
 31
0.0
 11
42.07739262060925
 21
13.18574597596082
 31
0.0
  0
SPLINE
  5
228
330
2
100
AcDbEntity
  8
GAIKEI
  6
Continuous
 62
     1
100
AcDbSpline
210
0.0
220
0.0
230
1.0
 70
     8
 71
     3
 72
     9
 73
     5
 74
     3
 42
0.0000000001
 43
0.0000000001
 44
0.000001
 12
0.0354014571428636
 22
-0.9993731719593847
 32
0.0
 13
0.0453932351704914
 23
-0.9989691958217512
 33
0.0
 40
0.0
 40
0.0
 40
0.0
 40
0.0
 40
0.0065510483115566
 40
0.0130121296136613
 40
0.0130121296136613
 40
0.0130121296136613
 40
0.0130121296136613
 10
42.07824711284767
 20
13.14088513344316
 30
0.0
 10
42.07832441839967
 20
13.13870281946623
 30
0.0
 10
42.07850079210678
 20
13.13436897450401
 30
0.0
 10
42.07869866615898
 20
13.13003611811785
 30
0.0
 10
42.07879642928666
 20
13.12788464438702
 30
0.0
 11
42.07824711284767
 21
13.14088513344316
 31
0.0
 11
42.0785073947782
 21
13.13433922802917
 31
0.0
 11
42.07879642928666
 21
13.12788464438702
 31
0.0
  0
SPLINE
  5
229
330
2
100
AcDbEntity
  8
GAIKEI
  6
Continuous
 62
     1
100
AcDbSpline
210
0.0
220
0.0
230
1.0
 70
     8
 71
     3
 72
     9
 73
     5
 74
     3
 42
0.0000000001
 43
0.0000000001
 44
0.000001
 12
0.1008208793748643
 22
-0.994904593557633
 32
0.0
 13
0.1320556432458019
 23
-0.9912423049320167
 33
0.0
 40
0.0
 40
0.0
 40
0.0
 40
0.0
 40
0.0110438235454909
 40
0.021259480038357
 40
0.021259480038357
 40
0.021259480038357
 40
0.021259480038357
 10
42.08282474983927
 20
13.07106091053131
 30
0.0
 10
42.08319589917311
 20
13.06739839360603
 30
0.0
 10
42.08395016033763
 20
13.06035192057967
 30
0.0
 10
42.08481647787167
 20
13.05331814217286
 30
0.0
 10
42.08526615623479
 20
13.04994274521007
 30
0.0
 11
42.08282474983927
 21
13.07106091053131
 31
0.0
 11
42.08401061842748
 21
13.06008107679551
 31
0.0
 11
42.08526615623479
 21
13.04994274521007
 31
0.0
  0
SPLINE
  5
22A
330
2
100
AcDbEntity
  8
GAIKEI
  6
Continuous
 62
     1
100
AcDbSpline
210
0.0
220
0.0
230
1.0
 70
     8
 71
     3
 72
     9
 73
     5
 74
     3
 42
0.0000000001
 43
0.0000000001
 44
0.000001
 12
0.1645792369075682
 22
-0.9863638653047479
 32
0.0
 13
0.2978225556979947
 23
-0.9546212470490665
 33
0.0
 40
0.0
 40
0.0
 40
0.0
 40
0.0
 40
0.0035192682478067
 40
0.00637211676819
 40
0.00637211676819
 40
0.00637211676819
 40
0.00637211676819
 10
42.08764652747041
 20
13.03419567395897
 30
0.0
 10
42.08783959363131
 20
13.03303858094832
 30
0.0
 10
42.08821089948426
 20
13.03094733424161
 30
0.0
 10
42.08870608677551
 20
13.02887788425445
 30
0.0
 10
42.08898930098796
 20
13.0279700876504
 30
0.0
 11
42.08764652747041
 21
13.03419567395897
 31
0.0
 11
42.08828841796097
 21
13.03073571073653
 31
0.0
 11
42.08898930098796
 21
13.0279700876504
 31
0.0
  0
ELLIPSE
  5
22B
330
2
100
AcDbEntity
  8
GAIKEI
  6
Continuous
 62
     1
100
AcDbEllipse
 10
40.30183452864245
 20
15.62098031410434
 30
0.0
 11
0.0
 21
-0.1249999999999998
 31
0.0
210
0.0
220
0.0
230
1.0
 40
0.0524
 41
0.0
 42
6.283185307179584
  0
ELLIPSE
  5
22C
330
2
100
AcDbEntity
  8
GAIKEI
  6
Continuous
 62
     1
100
AcDbEllipse
 10
40.30183452864245
 20
15.08098031410432
 30
0.0
 11
0.0
 21
-0.1249999999999998
 31
0.0
210
0.0
220
0.0
230
1.0
 40
0.0524
 41
0.0
 42
6.283185307179584
  0
ARC
  5
22D
330
2
100
AcDbEntity
  8
GAIKEI
  6
Continuous
100
AcDbCircle
 10
41.71078367864247
 20
14.65678996410435
 30
0.0
 40
0.35
100
AcDbArc
 50
282.0947569999952
 51
352.1695429999986
  0
LINE
  5
22E
330
2
100
AcDbEntity
  8
GAIKEI
  6
Continuous
100
AcDbLine
 10
41.78411887864244
 20
14.31455911410435
 30
0.0
 11
40.27408452864243
 21
13.99098031410435
 31
0.0
  0
LINE
  5
22F
330
2
100
AcDbEntity
  8
GAIKEI
  6
Continuous
100
AcDbLine
 10
40.1840844786424
 20
13.99098031410435
 30
0.0
 11
40.27408452864243
 21
13.99098031410435
 31
0.0
  0
LINE
  5
230
330
2
100
AcDbEntity
  8
GAIKEI
  6
Continuous
100
AcDbLine
 10
42.07030702864243
 20
14.70208401410434
 30
0.0
 11
42.05752012864245
 21
14.60910521410434
 31
0.0
  0
LINE
  5
231
330
2
100
AcDbEntity
  8
GAIKEI
  6
Continuous
100
AcDbLine
 10
41.90884512864243
 20
16.87133561410434
 30
0.0
 11
41.62573567864244
 21
14.81272556410434
 31
0.0
  0
ARC
  5
232
330
2
100
AcDbEntity
  8
GAIKEI
  6
Continuous
100
AcDbCircle
 10
41.47713437864243
 20
14.83316191410435
 30
0.0
 40
0.15
100
AcDbArc
 50
272.0000000000035
 51
352.1695429999986
  0
LINE
  5
233
330
2
100
AcDbEntity
  8
GAIKEI
  6
Continuous
100
AcDbLine
 10
42.24700572864246
 20
15.98693606410435
 30
0.0
 11
42.07030702864243
 21
14.70208401410434
 31
0.0
  0
LINE
  5
234
330
2
100
AcDbEntity
  8
GAIKEI
  6
Continuous
100
AcDbLine
 10
41.85732997864241
 20
16.87842021410435
 30
0.0
 11
41.58058242864243
 21
14.86607006410435
 31
0.0
  0
LINE
  5
235
330
2
100
AcDbEntity
  8
GAIKEI
  6
Continuous
100
AcDbLine
 10
42.36009782864242
 20
16.80927731410435
 30
0.0
 11
42.24700572864246
 21
15.98693606410435
 31
0.0
  0
ARC
  5
236
330
2
100
AcDbEntity
  8
GAIKEI
  6
Continuous
100
AcDbCircle
 10
40.8740844786424
 20
17.01364061410433
 30
0.0
 40
1.5
100
AcDbArc
 50
352.1695429999986
 51
0.0
  0
ARC
  5
237
330
2
100
AcDbEntity
  8
GAIKEI
  6
Continuous
100
AcDbCircle
 10
40.8740844786424
 20
17.01364061410433
 30
0.0
 40
0.9925
100
AcDbArc
 50
352.1695429999986
 51
0.0
  0
ARC
  5
238
330
2
100
AcDbEntity
  8
GAIKEI
  6
Continuous
100
AcDbCircle
 10
40.8740844786424
 20
17.01364061410433
 30
0.0
 40
1.044499999999998
100
AcDbArc
 50
352.1695429999986
 51
0.0
  0
LINE
  5
239
330
2
100
AcDbEntity
  8
GAIKEI
  6
Continuous
100
AcDbLine
 10
40.42931942864246
 20
14.64640126410435
 30
0.0
 11
41.4823720286424
 21
14.68317466410434
 31
0.0
  0
ARC
  5
23A
330
2
100
AcDbEntity
  8
GAIKEI
  6
Continuous
100
AcDbCircle
 10
40.42408452864246
 20
14.79630986410436
 30
0.0
 40
0.15
100
AcDbArc
 50
180.0
 51
272.0000000000035
  0
LINE
  5
23B
330
2
100
AcDbEntity
  8
GAIKEI
  6
Continuous
100
AcDbLine
 10
40.37082947864244
 20
14.68760871410436
 30
0.0
 11
40.72857537864243
 21
14.70010151410434
 31
0.0
  0
ARC
  5
23C
330
2
100
AcDbEntity
  8
GAIKEI
  6
Continuous
 62
     1
100
AcDbCircle
 10
40.77408452864243
 20
14.85178216410435
 30
0.0
 40
0.15
100
AcDbArc
 50
180.0
 51
252.2145029999985
  0
LINE
  5
23D
330
2
100
AcDbEntity
  8
GAIKEI
  6
Continuous
100
AcDbLine
 10
40.72857537864243
 20
14.70010151410434
 30
0.0
 11
40.72826637864243
 21
14.70895111410434
 31
0.0
  0
LINE
  5
23E
330
2
100
AcDbEntity
  8
GAIKEI
  6
Continuous
100
AcDbLine
 10
40.72076467864245
 20
14.71157876410436
 30
0.0
 11
41.43721602864245
 21
14.73659776410434
 31
0.0
  0
ARC
  5
23F
330
2
100
AcDbEntity
  8
GAIKEI
  6
Continuous
100
AcDbCircle
 10
41.43198107864241
 20
14.88650641410433
 30
0.0
 40
0.15
100
AcDbArc
 50
272.0000000000035
 51
352.1695429999986
  0
ARC
  5
240
330
2
100
AcDbEntity
  8
GAIKEI
  6
Continuous
100
AcDbCircle
 10
40.36908452864246
 20
14.73757826410434
 30
0.0
 40
0.05
100
AcDbArc
 50
180.0
 51
272.0000000000035
  0
LINE
  5
241
330
2
100
AcDbEntity
  8
GAIKEI
  6
Continuous
100
AcDbLine
 10
40.31908452864246
 20
14.73757826410434
 30
0.0
 11
40.31908452864246
 21
19.74438236410435
 31
0.0
  0
LINE
  5
242
330
2
100
AcDbEntity
  8
GAIKEI
  6
Continuous
 62
     1
100
AcDbLine
 10
40.62408452864246
 20
14.85178216410435
 30
0.0
 11
40.62408452864246
 21
19.63017851410436
 31
0.0
  0
ELLIPSE
  5
243
330
2
100
AcDbEntity
  8
GAIKEI
  6
Continuous
 62
     1
100
AcDbEllipse
 10
40.30183452864245
 20
18.86098031410435
 30
0.0
 11
0.0
 21
0.1249999999999998
 31
0.0
210
0.0
220
0.0
230
1.0
 40
0.0524
 41
0.0
 42
6.283185307179584
  0
ELLIPSE
  5
244
330
2
100
AcDbEntity
  8
GAIKEI
  6
Continuous
 62
     1
100
AcDbEllipse
 10
40.30183452864245
 20
19.40098031410434
 30
0.0
 11
0.0
 21
0.1249999999999998
 31
0.0
210
0.0
220
0.0
230
1.0
 40
0.0524
 41
0.0
 42
6.283185307179584
  0
ARC
  5
245
330
2
100
AcDbEntity
  8
GAIKEI
  6
Continuous
100
AcDbCircle
 10
41.71078367864247
 20
19.82517066410435
 30
0.0
 40
0.35
100
AcDbArc
 50
7.83045700000142
 51
77.90524300000477
  0
LINE
  5
246
330
2
100
AcDbEntity
  8
GAIKEI
  6
Continuous
100
AcDbLine
 10
41.78411887864244
 20
20.16740151410434
 30
0.0
 11
40.27408452864243
 21
20.49098031410435
 31
0.0
  0
LINE
  5
247
330
2
100
AcDbEntity
  8
GAIKEI
  6
Continuous
100
AcDbLine
 10
40.1840844786424
 20
20.49098031410435
 30
0.0
 11
40.27408452864243
 21
20.49098031410435
 31
0.0
  0
LINE
  5
248
330
2
100
AcDbEntity
  8
GAIKEI
  6
Continuous
100
AcDbLine
 10
42.07030702864243
 20
19.77987666410433
 30
0.0
 11
42.05752012864245
 21
19.87285546410433
 31
0.0
  0
LINE
  5
249
330
2
100
AcDbEntity
  8
GAIKEI
  6
Continuous
100
AcDbLine
 10
41.90884512864243
 20
17.61062501410433
 30
0.0
 11
41.62573567864244
 21
19.66923506410435
 31
0.0
  0
ARC
  5
24A
330
2
100
AcDbEntity
  8
GAIKEI
  6
Continuous
100
AcDbCircle
 10
41.47713437864243
 20
19.64879876410433
 30
0.0
 40
0.15
100
AcDbArc
 50
7.83045700000142
 51
87.99999999999647
  0
LINE
  5
24B
330
2
100
AcDbEntity
  8
GAIKEI
  6
Continuous
100
AcDbLine
 10
42.24700572864246
 20
18.49502456410434
 30
0.0
 11
42.07030702864243
 21
19.77987666410433
 31
0.0
  0
LINE
  5
24C
330
2
100
AcDbEntity
  8
GAIKEI
  6
Continuous
100
AcDbLine
 10
41.85732997864241
 20
17.60354041410434
 30
0.0
 11
41.58058242864243
 21
19.61589056410435
 31
0.0
  0
LINE
  5
24D
330
2
100
AcDbEntity
  8
GAIKEI
  6
Continuous
100
AcDbLine
 10
42.36009782864242
 20
17.67268336410436
 30
0.0
 11
42.24700572864246
 21
18.49502456410434
 31
0.0
  0
ARC
  5
24E
330
2
100
AcDbEntity
  8
GAIKEI
  6
Continuous
100
AcDbCircle
 10
40.8740844786424
 20
17.46832006410435
 30
0.0
 40
1.5
100
AcDbArc
 50
0.0
 51
7.83045700000142
  0
LINE
  5
24F
330
2
100
AcDbEntity
  8
GAIKEI
  6
Continuous
100
AcDbLine
 10
41.91858452864241
 20
17.01364061410433
 30
0.0
 11
41.91858452864241
 21
17.46832006410435
 31
0.0
  0
LINE
  5
250
330
2
100
AcDbEntity
  8
GAIKEI
  6
Continuous
100
AcDbLine
 10
41.86658452864246
 20
17.01364061410433
 30
0.0
 11
41.86658452864246
 21
17.46832006410435
 31
0.0
  0
ARC
  5
251
330
2
100
AcDbEntity
  8
GAIKEI
  6
Continuous
100
AcDbCircle
 10
40.8740844786424
 20
17.46832006410435
 30
0.0
 40
0.9925
100
AcDbArc
 50
0.0
 51
7.83045700000142
  0
ARC
  5
252
330
2
100
AcDbEntity
  8
GAIKEI
  6
Continuous
100
AcDbCircle
 10
40.8740844786424
 20
17.46832006410435
 30
0.0
 40
1.044499999999998
100
AcDbArc
 50
0.0
 51
7.83045700000142
  0
LINE
  5
253
330
2
100
AcDbEntity
  8
GAIKEI
  6
Continuous
100
AcDbLine
 10
42.37408447864241
 20
17.01364061410433
 30
0.0
 11
42.37408447864241
 21
17.46832006410435
 31
0.0
  0
LINE
  5
254
330
2
100
AcDbEntity
  8
GAIKEI
  6
Continuous
100
AcDbLine
 10
40.27408452864243
 20
14.79630986410436
 30
0.0
 11
40.27408452864243
 21
19.68565076410434
 31
0.0
  0
LINE
  5
255
330
2
100
AcDbEntity
  8
GAIKEI
  6
Continuous
100
AcDbLine
 10
40.42931942864246
 20
19.83555941410435
 30
0.0
 11
41.4823720286424
 21
19.79878601410433
 31
0.0
  0
ARC
  5
256
330
2
100
AcDbEntity
  8
GAIKEI
  6
Continuous
100
AcDbCircle
 10
40.42408452864246
 20
19.68565076410434
 30
0.0
 40
0.15
100
AcDbArc
 50
87.99999999999647
 51
180.0
  0
LINE
  5
257
330
2
100
AcDbEntity
  8
GAIKEI
  6
Continuous
100
AcDbLine
 10
40.37082947864244
 20
19.79435191410434
 30
0.0
 11
40.72857537864243
 21
19.78185916410433
 31
0.0
  0
ARC
  5
258
330
2
100
AcDbEntity
  8
GAIKEI
  6
Continuous
 62
     1
100
AcDbCircle
 10
40.77408452864243
 20
19.63017851410436
 30
0.0
 40
0.15
100
AcDbArc
 50
107.7854970000014
 51
180.0
  0
LINE
  5
259
330
2
100
AcDbEntity
  8
GAIKEI
  6
Continuous
100
AcDbLine
 10
40.72857537864243
 20
19.78185916410433
 30
0.0
 11
40.72826637864243
 21
19.77300951410436
 31
0.0
  0
LINE
  5
25A
330
2
100
AcDbEntity
  8
GAIKEI
  6
Continuous
100
AcDbLine
 10
40.72076467864245
 20
19.77038191410435
 30
0.0
 11
41.43721602864245
 21
19.74536286410435
 31
0.0
  0
ARC
  5
25B
330
2
100
AcDbEntity
  8
GAIKEI
  6
Continuous
100
AcDbCircle
 10
41.43198107864241
 20
19.59545426410435
 30
0.0
 40
0.15
100
AcDbArc
 50
7.83045700000142
 51
87.99999999999647
  0
ARC
  5
25C
330
2
100
AcDbEntity
  8
GAIKEI
  6
Continuous
100
AcDbCircle
 10
40.36908452864246
 20
19.74438236410435
 30
0.0
 40
0.05
100
AcDbArc
 50
87.99999999999647
 51
180.0
  0
LINE
  5
25D
330
2
100
AcDbEntity
  8
GAIKEI
  6
Continuous
100
AcDbLine
 10
38.19807737864243
 20
-8.70492328589566
 30
0.0
 11
40.13155672864245
 21
-8.806252635895674
 31
0.0
  0
LINE
  5
25E
330
2
100
AcDbEntity
  8
GAIKEI
  6
Continuous
100
AcDbLine
 10
40.1840844786424
 20
-8.606520885895662
 30
0.0
 11
40.1840844786424
 21
-8.756313385895651
 31
0.0
  0
LINE
  5
25F
330
2
100
AcDbEntity
  8
GAIKEI
  6
Continuous
100
AcDbLine
 10
40.1840844786424
 20
21.48851086410434
 30
0.0
 11
40.1840844786424
 21
-8.606520885895662
 31
0.0
  0
LINE
  5
260
330
2
100
AcDbEntity
  8
GAIKEI
  6
Continuous
100
AcDbLine
 10
40.1840844786424
 20
21.63831551410433
 30
0.0
 11
40.1840844786424
 21
21.48851086410434
 31
0.0
  0
LINE
  5
261
330
2
100
AcDbEntity
  8
GAIKEI
  6
Continuous
100
AcDbLine
 10
37.99179952864243
 20
21.31809411410436
 30
0.0
 11
38.13207642864244
 21
21.54163476410435
 31
0.0
  0
LINE
  5
262
330
2
100
AcDbEntity
  8
GAIKEI
  6
Continuous
100
AcDbLine
 10
38.13207662864242
 20
21.54162626410434
 30
0.0
 11
38.13844732864247
 21
21.55177841410435
 31
0.0
  0
LINE
  5
263
330
2
100
AcDbEntity
  8
GAIKEI
  6
Continuous
100
AcDbLine
 10
38.19789372864243
 20
21.58691406410435
 30
0.0
 11
40.1313852786424
 21
21.68824406410434
 31
0.0
  0
LINE
  5
264
330
2
100
AcDbEntity
  8
GAIKEI
  6
Continuous
100
AcDbLine
 10
37.98408447864243
 20
21.29161141410435
 30
0.0
 11
37.98408447864243
 21
21.21187511410434
 31
0.0
  0
LINE
  5
265
330
2
100
AcDbEntity
  8
GAIKEI
  6
Continuous
100
AcDbLine
 10
37.98408447864243
 20
21.21187511410434
 30
0.0
 11
37.98408447864243
 21
-8.059841185895662
 31
0.0
  0
LINE
  5
266
330
2
100
AcDbEntity
  8
GAIKEI
  6
Continuous
100
AcDbLine
 10
37.98408447864243
 20
-8.268166385895652
 30
0.0
 11
37.98408447864243
 21
-8.329885135895636
 31
0.0
  0
LINE
  5
267
330
2
100
AcDbEntity
  8
GAIKEI
  6
Continuous
100
AcDbLine
 10
37.98408447864243
 20
-8.329885135895636
 30
0.0
 11
37.98408447864243
 21
-8.409609285895642
 31
0.0
  0
LINE
  5
268
330
2
100
AcDbEntity
  8
GAIKEI
  6
Continuous
 62
     7
100
AcDbLine
 10
37.99164427864246
 20
-8.436193835895663
 30
0.0
 11
38.13191837864245
 21
-8.659729985895666
 31
0.0
  0
LINE
  5
269
330
2
100
AcDbEntity
  8
GAIKEI
  6
Continuous
100
AcDbLine
 10
38.13191777864243
 20
-8.659732385895663
 30
0.0
 11
38.13828947864242
 21
-8.669886085895655
 31
0.0
  0
ARC
  5
26A
330
2
100
AcDbEntity
  8
GAIKEI
  6
Continuous
100
AcDbCircle
 10
40.13408447864246
 20
-8.756313385895651
 30
0.0
 40
0.05
100
AcDbArc
 50
267.0000160000055
 51
0.0000359999984121
  0
ARC
  5
26B
330
2
100
AcDbEntity
  8
GAIKEI
  6
Continuous
100
AcDbCircle
 10
40.13408447864246
 20
21.63831551410433
 30
0.0
 40
0.05
100
AcDbArc
 50
0.0000359999984121
 51
93.00000100000287
  0
ARC
  5
26C
330
2
100
AcDbEntity
  8
GAIKEI
  6
Continuous
100
AcDbCircle
 10
38.20185792864247
 20
-8.630019435895661
 30
0.0
 40
0.075
100
AcDbArc
 50
212.1092280000036
 51
267.0000160000055
  0
ARC
  5
26D
330
2
100
AcDbEntity
  8
GAIKEI
  6
Continuous
100
AcDbCircle
 10
38.20185792864247
 20
21.51200936410433
 30
0.0
 40
0.075
100
AcDbArc
 50
93.00000100000287
 51
147.8907859999988
  0
ARC
  5
26E
330
2
100
AcDbEntity
  8
GAIKEI
  6
Continuous
100
AcDbCircle
 10
38.03408447864244
 20
-8.409609285895642
 30
0.0
 40
0.05
100
AcDbArc
 50
180.0000170000011
 51
212.1092280000036
  0
ARC
  5
26F
330
2
100
AcDbEntity
  8
GAIKEI
  6
Continuous
100
AcDbCircle
 10
38.03408447864244
 20
21.29161141410435
 30
0.0
 40
0.05
100
AcDbArc
 50
147.8907859999988
 51
180.0
  0
LINE
  5
270
330
2
100
AcDbEntity
  8
GAIKEI
  6
Continuous
 62
     1
100
AcDbLine
 10
40.13137722864246
 20
21.48850706410434
 30
0.0
 11
38.19789787864242
 21
21.38717766410434
 31
0.0
  0
LINE
  5
271
330
2
100
AcDbEntity
  8
GAIKEI
  6
Continuous
 62
     1
100
AcDbLine
 10
38.13202517864242
 20
21.43536001410433
 30
0.0
 11
37.99174822864245
 21
21.21181931410433
 31
0.0
  0
LINE
  5
272
330
2
100
AcDbEntity
  8
GAIKEI
  6
Continuous
 62
     1
100
AcDbLine
 10
38.19795167864247
 20
21.38718026410433
 30
0.0
 11
38.19795167864247
 21
-8.505190335895662
 31
0.0
  0
LINE
  5
273
330
2
100
AcDbEntity
  8
GAIKEI
  6
Continuous
 62
     1
100
AcDbLine
 10
38.19798337864244
 20
-8.505193985895656
 30
0.0
 11
40.13146272864246
 21
-8.606523335895673
 31
0.0
  0
LINE
  5
274
330
2
100
AcDbEntity
  8
GAIKEI
  6
Continuous
 62
     1
100
AcDbLine
 10
40.13154542864246
 20
-8.606520885895662
 30
0.0
 11
40.13154542864246
 21
21.48851086410434
 31
0.0
  0
LINE
  5
275
330
2
100
AcDbEntity
  8
GAIKEI
  6
Continuous
 62
     1
100
AcDbLine
 10
37.99164182864244
 20
-8.329882035895677
 30
0.0
 11
38.13192242864243
 21
-8.553428485895636
 31
0.0
  0
LINE
  5
276
330
2
100
AcDbEntity
  8
GAIKEI
  6
Continuous
 62
     1
100
AcDbLine
 10
38.13838137864246
 20
-8.505190335895662
 30
0.0
 11
38.13838137864246
 21
21.38718026410433
 31
0.0
  0
LINE
  5
277
330
2
100
AcDbEntity
  8
GAIKEI
  6
Continuous
 62
     1
100
AcDbLine
 10
40.13154542864246
 20
-8.606520885895662
 30
0.0
 11
40.1840844786424
 21
-8.606520885895662
 31
0.0
  0
LINE
  5
278
330
2
100
AcDbEntity
  8
GAIKEI
  6
Continuous
 62
     1
100
AcDbLine
 10
40.13154542864246
 20
21.48851086410434
 30
0.0
 11
40.1840844786424
 21
21.48851086410434
 31
0.0
  0
LINE
  5
279
330
2
100
AcDbEntity
  8
GAIKEI
  6
Continuous
 62
     1
100
AcDbLine
 10
38.13838137864246
 20
-8.505190335895662
 30
0.0
 11
38.19795167864247
 21
-8.505190335895662
 31
0.0
  0
LINE
  5
27A
330
2
100
AcDbEntity
  8
GAIKEI
  6
Continuous
 62
     1
100
AcDbLine
 10
38.13838137864246
 20
21.38718026410433
 30
0.0
 11
38.19795167864247
 21
21.38718026410433
 31
0.0
  0
LINE
  5
27B
330
2
100
AcDbEntity
  8
GAIKEI
  6
Continuous
 62
     1
100
AcDbLine
 10
37.99170167864246
 20
21.21187511410434
 30
0.0
 11
37.98408447864243
 21
21.21187511410434
 31
0.0
  0
LINE
  5
27C
330
2
100
AcDbEntity
  8
GAIKEI
  6
Continuous
100
AcDbLine
 10
37.98408447864243
 20
-8.059841185895662
 30
0.0
 11
37.98408447864243
 21
-8.268166385895652
 31
0.0
  0
SPLINE
  5
27D
330
2
100
AcDbEntity
  8
GAIKEI
  6
Continuous
 62
     1
100
AcDbSpline
210
0.0
220
0.0
230
1.0
 70
     8
 71
     3
 72
     9
 73
     5
 74
     3
 42
0.0000000001
 43
0.0000000001
 44
0.000001
 12
0.1809456865258911
 22
-0.9834930902287387
 32
0.0
 13
0.0194233923575108
 23
-0.9998113481198972
 33
0.0
 40
0.0
 40
0.0
 40
0.0
 40
0.0
 40
0.0379349179422125
 40
0.0777433278263
 40
0.0777433278263
 40
0.0777433278263
 40
0.0777433278263
 10
38.19033449908663
 20
21.46449961603125
 30
0.0
 10
38.19262255234342
 20
21.4520633728064
 30
0.0
 10
38.1961512412381
 20
21.42635702731568
 30
0.0
 10
38.19769394846519
 20
21.4004594537759
 30
0.0
 10
38.19795168658662
 20
21.38719248712499
 30
0.0
 11
38.19033449908663
 21
21.46449961603125
 31
0.0
 11
38.19559237530397
 21
21.42693076074559
 31
0.0
 11
38.19795168658662
 21
21.38719248712499
 31
0.0
  0
SPLINE
  5
27E
330
2
100
AcDbEntity
  8
GAIKEI
  6
Continuous
 62
     1
100
AcDbSpline
210
0.0
220
0.0
230
1.0
 70
     8
 71
     3
 72
     9
 73
     5
 74
     3
 42
0.0000000001
 43
0.0000000001
 44
0.000001
 12
-0.3896843379679151
 22
-0.9209484875618764
 32
0.0
 13
0.1811790978866817
 23
-0.9834501179464915
 33
0.0
 40
0.0
 40
0.0
 40
0.0
 40
0.0
 40
0.0436293659993132
 40
0.1070993691145723
 40
0.1070993691145723
 40
0.1070993691145723
 40
0.1070993691145723
 10
38.19033449908663
 20
21.57079844415625
 30
0.0
 10
38.18466727221816
 20
21.55740497794613
 30
0.0
 10
38.18247716523222
 20
21.5205482184091
 30
0.0
 10
38.18650135311754
 20
21.48530614338117
 30
0.0
 10
38.19033449908663
 20
21.46449961603125
 30
0.0
 11
38.19033449908663
 21
21.57079844415625
 31
0.0
 11
38.18391503414085
 21
21.52764355481108
 31
0.0
 11
38.19033449908663
 21
21.46449961603125
 31
0.0
  0
SPLINE
  5
27F
330
2
100
AcDbEntity
  8
GAIKEI
  6
Continuous
 62
     1
100
AcDbSpline
210
0.0
220
0.0
230
1.0
 70
     8
 71
     3
 72
     9
 73
     5
 74
     3
 42
0.0000000001
 43
0.0000000001
 44
0.000001
 12
-0.9989303325859209
 22
-0.0462405735234906
 32
0.0
 13
-0.3891051082920194
 23
-0.9211933644469308
 33
0.0
 40
0.0
 40
0.0
 40
0.0
 40
0.0
 40
0.0047938543373698
 40
0.0178404975019821
 40
0.0178404975019821
 40
0.0178404975019821
 40
0.0178404975019821
 10
38.19795168658662
 20
21.58691172540625
 30
0.0
 10
38.19635544441742
 20
21.58683783521493
 30
0.0
 10
38.19520783245237
 20
21.57861893339349
 30
0.0
 10
38.19202667092044
 20
21.57480460452676
 30
0.0
 10
38.19033449908663
 20
21.57079844415625
 30
0.0
 11
38.19795168658662
 21
21.58691172540625
 31
0.0
 11
38.19559237530397
 21
21.58273805164558
 31
0.0
 11
38.19033449908663
 21
21.57079844415625
 31
0.0
  0
SPLINE
  5
280
330
2
100
AcDbEntity
  8
GAIKEI
  6
Continuous
 62
     1
100
AcDbSpline
210
0.0
220
0.0
230
1.0
 70
     8
 71
     3
 72
     9
 73
     5
 74
     3
 42
0.0000000001
 43
0.0000000001
 44
0.000001
 12
-0.013160041142413
 22
0.999913402909037
 32
0.0
 13
0.9982350858631345
 23
0.0593861377075533
 33
0.0
 40
0.0
 40
0.0
 40
0.0
 40
0.0
 40
0.1406210867696389
 40
0.1997324418876169
 40
0.1997324418876169
 40
0.1997324418876169
 40
0.1997324418876169
 10
40.13154543658662
 20
21.48852305353125
 30
0.0
 10
40.13092857682416
 20
21.53539268999545
 30
0.0
 10
40.15255503526609
 20
21.57993638761799
 30
0.0
 10
40.11187642703606
 20
21.68707216012078
 30
0.0
 10
40.13154543658662
 20
21.68824229181248
 30
0.0
 11
40.13154543658662
 21
21.48852305353125
 31
0.0
 11
40.13049785589742
 21
21.62913953605078
 31
0.0
 11
40.13154543658662
 21
21.68824229181248
 31
0.0
  0
SPLINE
  5
281
330
2
100
AcDbEntity
  8
GAIKEI
  6
Continuous
 62
     1
100
AcDbSpline
210
0.0
220
0.0
230
1.0
 70
     8
 71
     3
 72
    11
 73
     7
 74
     5
 42
0.0000000001
 43
0.0000000001
 44
0.000001
 12
-0.5290666453914412
 22
-0.8485802759516905
 32
0.0
 13
0.0727207652946618
 23
-0.9973523400959958
 33
0.0
 40
0.0
 40
0.0
 40
0.0
 40
0.0
 40
0.004249999789236
 40
0.0119006040293132
 40
0.0517105994362832
 40
0.1067147985146896
 40
0.1067147985146896
 40
0.1067147985146896
 40
0.1067147985146896
 10
37.99170168658661
 20
21.31818613946874
 30
0.0
 10
37.99095217554281
 20
21.31698398413742
 30
0.0
 10
37.98989851424242
 20
21.31306394488021
 30
0.0
 10
37.98777752299019
 20
21.2960246899092
 30
0.0
 10
37.98898498951721
 20
21.26165361764328
 30
0.0
 10
37.99036837076947
 20
21.23016129320115
 30
0.0
 10
37.99170168658661
 20
21.2118751043125
 30
0.0
 11
37.99170168658661
 21
21.31818613946874
 31
0.0
 11
37.99027261009387
 21
21.31418345809419
 31
0.0
 11
37.98916262408663
 21
21.30661387384376
 31
0.0
 11
37.98885378662661
 21
21.26680514306884
 31
0.0
 11
37.99170168658661
 21
21.2118751043125
 31
0.0
  0
SPLINE
  5
282
330
2
100
AcDbEntity
  8
GAIKEI
  6
Continuous
 62
     1
100
AcDbSpline
210
0.0
220
0.0
230
1.0
 70
     8
 71
     3
 72
     9
 73
     5
 74
     3
 42
0.0000000001
 43
0.0000000001
 44
0.000001
 12
-0.3179591382001075
 22
0.9481044174747024
 32
0.0
 13
0.5314035119872484
 23
0.8471188272300517
 33
0.0
 40
0.0
 40
0.0
 40
0.0
 40
0.0
 40
0.0618382027209336
 40
0.1086021855636582
 40
0.1086021855636582
 40
0.1086021855636582
 40
0.1086021855636582
 10
38.13193606158665
 20
21.43542246759375
 30
0.0
 10
38.12538205437166
 20
21.45496549198322
 30
0.0
 10
38.11743481817605
 20
21.49057212317475
 30
0.0
 10
38.12365254668094
 20
21.52851641228465
 30
0.0
 10
38.13193606158665
 20
21.54172129571876
 30
0.0
 11
38.13193606158665
 21
21.43542246759375
 31
0.0
 11
38.12092471888234
 21
21.49627142489393
 31
0.0
 11
38.13193606158665
 21
21.54172129571876
 31
0.0
  0
SPLINE
  5
283
330
2
100
AcDbEntity
  8
GAIKEI
  6
Continuous
 62
     1
100
AcDbSpline
210
0.0
220
0.0
230
1.0
 70
     8
 71
     3
 72
     9
 73
     5
 74
     3
 42
0.0000000001
 43
0.0000000001
 44
0.000001
 12
0.2677112637034975
 22
0.9634991848913399
 32
0.0
 13
-0.0002033617628701
 23
0.9999999793219965
 33
0.0
 40
0.0
 40
0.0
 40
0.0
 40
0.0
 40
0.0238903823885098
 40
0.0487795518660783
 40
0.0487795518660783
 40
0.0487795518660783
 40
0.0487795518660783
 10
38.13193606158665
 20
-8.553432512874991
 30
0.0
 10
38.13406796973985
 20
-8.545759724888966
 30
0.0
 10
38.13727364495376
 20
-8.529762007697691
 30
0.0
 10
38.13838306125509
 20
-8.513486715029328
 30
0.0
 10
38.13838137408662
 20
-8.505190325375025
 30
0.0
 11
38.13193606158665
 21
-8.553432512874991
 31
0.0
 11
38.13670422798855
 21
-8.530022693644554
 31
0.0
 11
38.13838137408662
 21
-8.505190325375025
 31
0.0
  0
SPLINE
  5
284
330
2
100
AcDbEntity
  8
GAIKEI
  6
Continuous
 62
     1
100
AcDbSpline
210
0.0
220
0.0
230
1.0
 70
     8
 71
     3
 72
     9
 73
     5
 74
     3
 42
0.0000000001
 43
0.0000000001
 44
0.000001
 12
0.0002033799686629
 22
0.999999979318294
 32
0.0
 13
-0.2676862784602433
 23
0.9635061267704038
 33
0.0
 40
0.0
 40
0.0
 40
0.0
 40
0.0
 40
0.0248819631699201
 40
0.048767461585825
 40
0.048767461585825
 40
0.048767461585825
 40
0.048767461585825
 10
38.13838137408662
 20
21.38719248712499
 30
0.0
 10
38.13838306091759
 20
21.39548647467676
 30
0.0
 10
38.13727379032328
 20
21.4117578142458
 30
0.0
 10
38.13406733498002
 20
21.42775119290552
 30
0.0
 10
38.13193606158665
 20
21.43542246759375
 30
0.0
 11
38.13838137408662
 21
21.38719248712499
 31
0.0
 11
38.13670422798877
 21
21.41201763280173
 31
0.0
 11
38.13193606158665
 21
21.43542246759375
 31
0.0
  0
SPLINE
  5
285
330
2
100
AcDbEntity
  8
GAIKEI
  6
Continuous
100
AcDbSpline
210
0.0
220
0.0
230
1.0
 70
     8
 71
     3
 72
     9
 73
     5
 74
     3
 42
0.0000000001
 43
0.0000000001
 44
0.000001
 12
0.389300517660971
 22
-0.9211108005820474
 32
0.0
 13
0.9983154509840366
 23
-0.0580194823015479
 33
0.0
 40
0.0
 40
0.0
 40
0.0
 40
0.0
 40
0.0130424241073424
 40
0.0178402923890609
 40
0.0178402923890609
 40
0.0178402923890609
 40
0.0178402923890609
 10
38.19033449908663
 20
-8.688808489437491
 30
0.0
 10
38.19202697323881
 20
-8.692812995341173
 30
0.0
 10
38.19521020862202
 20
-8.696651414480946
 30
0.0
 10
38.19635509124081
 20
-8.704828980742872
 30
0.0
 10
38.19795168658662
 20
-8.704921770687491
 30
0.0
 11
38.19033449908663
 21
-8.688808489437491
 31
0.0
 11
38.19559237530397
 21
-8.700743492402551
 31
0.0
 11
38.19795168658662
 21
-8.704921770687491
 31
0.0
  0
SPLINE
  5
286
330
2
100
AcDbEntity
  8
GAIKEI
  6
Continuous
 62
     1
100
AcDbSpline
210
0.0
220
0.0
230
1.0
 70
     8
 71
     3
 72
     9
 73
     5
 74
     3
 42
0.0000000001
 43
0.0000000001
 44
0.000001
 12
-0.9984630479128485
 22
0.0554214935975616
 32
0.0
 13
0.0131614812355851
 23
0.9999133839546729
 33
0.0
 40
0.0
 40
0.0
 40
0.0
 40
0.0
 40
0.0591053775879486
 40
0.1997446953722922
 40
0.1997446953722922
 40
0.1997446953722922
 40
0.1997446953722922
 10
40.13154543658662
 20
-8.80625233709375
 30
0.0
 10
40.11187392476845
 20
-8.805160434325227
 30
0.0
 10
40.15255879594659
 20
-8.697848625150838
 30
0.0
 10
40.13092842933928
 20
-8.653396603835529
 30
0.0
 10
40.13154543658662
 20
-8.606520891781256
 30
0.0
 11
40.13154543658662
 21
-8.80625233709375
 31
0.0
 11
40.13049602938763
 21
-8.747155590760797
 31
0.0
 11
40.13154543658662
 21
-8.606520891781256
 31
0.0
  0
SPLINE
  5
287
330
2
100
AcDbEntity
  8
GAIKEI
  6
Continuous
 62
     1
100
AcDbSpline
210
0.0
220
0.0
230
1.0
 70
     8
 71
     3
 72
     9
 73
     5
 74
     3
 42
0.0000000001
 43
0.0000000001
 44
0.000001
 12
-0.0194223067410764
 22
-0.9998113692096403
 32
0.0
 13
-0.180956661794664
 23
-0.983491070906153
 33
0.0
 40
0.0
 40
0.0
 40
0.0
 40
0.0
 40
0.0398095287014392
 40
0.0777433366760423
 40
0.0777433366760423
 40
0.0777433366760423
 40
0.0777433366760423
 10
38.19795168658662
 20
-8.505190325375025
 30
0.0
 10
38.1976939556274
 20
-8.518457665174551
 30
0.0
 10
38.19615134687183
 20
-8.544355246323553
 30
0.0
 10
38.19262262417338
 20
-8.570061600471754
 30
0.0
 10
38.19033449908663
 20
-8.582497454281252
 30
0.0
 11
38.19795168658662
 21
-8.505190325375025
 31
0.0
 11
38.19559237530397
 21
-8.544929719562928
 31
0.0
 11
38.19033449908663
 21
-8.582497454281252
 31
0.0
  0
SPLINE
  5
288
330
2
100
AcDbEntity
  8
GAIKEI
  6
Continuous
 62
     1
100
AcDbSpline
210
0.0
220
0.0
230
1.0
 70
     8
 71
     3
 72
     9
 73
     5
 74
     3
 42
0.0000000001
 43
0.0000000001
 44
0.000001
 12
-0.1811677688426682
 22
-0.983452205006715
 32
0.0
 13
0.3894822046516699
 23
-0.9210339908275235
 33
0.0
 40
0.0
 40
0.0
 40
0.0
 40
0.0
 40
0.0634735287711602
 40
0.1071114425331635
 40
0.1071114425331635
 40
0.1071114425331635
 40
0.1071114425331635
 10
38.19033449908663
 20
-8.582497454281252
 30
0.0
 10
38.18650137989062
 20
-8.60330518155777
 30
0.0
 10
38.182475954009
 20
-8.638552017080121
 30
0.0
 10
38.18466910213383
 20
-8.675411155482956
 30
0.0
 10
38.19033449908663
 20
-8.688808489437491
 30
0.0
 11
38.19033449908663
 21
-8.582497454281252
 31
0.0
 11
38.18391511944997
 21
-8.645644945497933
 31
0.0
 11
38.19033449908663
 21
-8.688808489437491
 31
0.0
  0
SPLINE
  5
289
330
2
100
AcDbEntity
  8
GAIKEI
  6
Continuous
 62
     1
100
AcDbSpline
210
0.0
220
0.0
230
1.0
 70
     8
 71
     3
 72
     9
 73
     5
 74
     3
 42
0.0000000001
 43
0.0000000001
 44
0.000001
 12
-0.5314527441063981
 22
0.8470879415868104
 32
0.0
 13
0.3179393013820943
 23
0.9481110697785709
 33
0.0
 40
0.0
 40
0.0
 40
0.0
 40
0.0
 40
0.0467623854969506
 40
0.1086022182816904
 40
0.1086022182816904
 40
0.1086022182816904
 40
0.1086022182816904
 10
38.13193606158665
 20
-8.659731341000025
 30
0.0
 10
38.12365206222221
 20
-8.646527390041924
 30
0.0
 10
38.11743497954241
 20
-8.608582436739846
 30
0.0
 10
38.12538229050893
 20
-8.572976189547146
 30
0.0
 10
38.13193606158665
 20
-8.553432512874991
 30
0.0
 11
38.13193606158665
 21
-8.659731341000025
 31
0.0
 11
38.12092468833498
 21
-8.614283121223849
 31
0.0
 11
38.13193606158665
 21
-8.553432512874991
 31
0.0
  0
SPLINE
  5
28A
330
2
100
AcDbEntity
  8
GAIKEI
  6
Continuous
 62
     1
100
AcDbSpline
210
0.0
220
0.0
230
1.0
 70
     8
 71
     3
 72
     9
 73
     5
 74
     3
 42
0.0000000001
 43
0.0000000001
 44
0.000001
 12
0.5315659660105952
 22
-0.8470168969856638
 32
0.0
 13
0.9993596112734818
 23
0.0357822212182991
 33
0.0
 40
0.0
 40
0.0
 40
0.0
 40
0.0
 40
0.0328730912400981
 40
0.067442336162786
 40
0.067442336162786
 40
0.067442336162786
 40
0.067442336162786
 10
38.13193606158665
 20
-8.659731341000025
 30
0.0
 10
38.13776080042025
 20
-8.669012695578864
 30
0.0
 10
38.15582033215616
 20
-8.684460681556229
 30
0.0
 10
38.17881879669732
 20
-8.689220810893882
 30
0.0
 10
38.19033449908663
 20
-8.688808489437491
 30
0.0
 11
38.13193606158665
 21
-8.659731341000025
 31
0.0
 11
38.15654006509054
 21
-8.681533769667424
 31
0.0
 11
38.19033449908663
 21
-8.688808489437491
 31
0.0
  0
SPLINE
  5
28B
330
2
100
AcDbEntity
  8
GAIKEI
  6
Continuous
 62
     1
100
AcDbSpline
210
0.0
220
0.0
230
1.0
 70
     8
 71
     3
 72
     9
 73
     5
 74
     3
 42
0.0000000001
 43
0.0000000001
 44
0.000001
 12
0.7133260416388183
 22
-0.7008323325303243
 32
0.0
 13
0.9674089049294847
 23
-0.253219293623403
 33
0.0
 40
0.0
 40
0.0
 40
0.0
 40
0.0
 40
0.0295599238169171
 40
0.0656531631158801
 40
0.0656531631158801
 40
0.0656531631158801
 40
0.0656531631158801
 10
38.13193606158665
 20
-8.553432512874991
 30
0.0
 10
38.13896468273581
 20
-8.560338029661
 30
0.0
 10
38.15820780954733
 20
-8.571642250318168
 30
0.0
 10
38.17869552538478
 20
-8.579450952761298
 30
0.0
 10
38.19033449908663
 20
-8.582497454281252
 30
0.0
 11
38.13193606158665
 21
-8.553432512874991
 31
0.0
 11
38.15654593056012
 21
-8.569808069463164
 31
0.0
 11
38.19033449908663
 21
-8.582497454281252
 31
0.0
  0
SPLINE
  5
28C
330
2
100
AcDbEntity
  8
GAIKEI
  6
Continuous
 62
     1
100
AcDbSpline
210
0.0
220
0.0
230
1.0
 70
     8
 71
     3
 72
     9
 73
     5
 74
     3
 42
0.0000000001
 43
0.0000000001
 44
0.000001
 12
0.7133538227200053
 22
0.7008040550758503
 32
0.0
 13
0.9673999115770403
 23
0.2532536496888728
 33
0.0
 40
0.0
 40
0.0
 40
0.0
 40
0.0
 40
0.0295629239674443
 40
0.065658552990325
 40
0.065658552990325
 40
0.065658552990325
 40
0.065658552990325
 10
38.13193606158665
 20
21.43542246759375
 30
0.0
 10
38.13896566986097
 20
21.44232840659251
 30
0.0
 10
38.15820677290204
 20
21.45363780477122
 30
0.0
 10
38.17869486297828
 20
21.4614524994353
 30
0.0
 10
38.19033449908663
 20
21.46449961603125
 30
0.0
 11
38.13193606158665
 21
21.43542246759375
 31
0.0
 11
38.15654592683483
 21
21.45180344336171
 31
0.0
 11
38.19033449908663
 21
21.46449961603125
 31
0.0
  0
SPLINE
  5
28D
330
2
100
AcDbEntity
  8
GAIKEI
  6
Continuous
 62
     1
100
AcDbSpline
210
0.0
220
0.0
230
1.0
 70
     8
 71
     3
 72
     9
 73
     5
 74
     3
 42
0.0000000001
 43
0.0000000001
 44
0.000001
 12
0.5315847197080427
 22
0.8470051273592869
 32
0.0
 13
0.9993540111673828
 23
-0.035938285485854
 33
0.0
 40
0.0
 40
0.0
 40
0.0
 40
0.0
 40
0.0328737966681572
 40
0.0674428314280189
 40
0.0674428314280189
 40
0.0674428314280189
 40
0.0674428314280189
 10
38.13193606158665
 20
21.54172129571876
 30
0.0
 10
38.13776113091584
 20
21.55100272049666
 30
0.0
 10
38.15581949379618
 20
21.56645163393218
 30
0.0
 10
38.17881893123681
 20
21.5712125614363
 30
0.0
 10
38.19033449908663
 20
21.57079844415625
 30
0.0
 11
38.13193606158665
 21
21.54172129571876
 31
0.0
 11
38.1565400453465
 21
21.56352480965637
 31
0.0
 11
38.19033449908663
 21
21.57079844415625
 31
0.0
  0
LINE
  5
28E
330
2
100
AcDbEntity
  8
GAIKEI
  6
Continuous
 62
     1
100
AcDbLine
 10
-39.72534710857118
 20
-6.509004985895642
 30
0.0
 11
6.274652891428813
 21
-6.509004985895642
 31
0.0
  0
LINE
  5
28F
330
2
100
AcDbEntity
  8
GAIKEI
  6
Continuous
 62
     1
100
AcDbLine
 10
-39.72534710857118
 20
19.39099501410433
 30
0.0
 11
6.274652891428813
 21
19.39099501410433
 31
0.0
  0
LINE
  5
290
330
2
100
AcDbEntity
  8
GAIKEI
  6
Continuous
 62
     1
100
AcDbLine
 10
-39.72534710857118
 20
-6.509004985895642
 30
0.0
 11
-39.72534710857118
 21
19.39099501410433
 31
0.0
  0
LINE
  5
291
330
2
100
AcDbEntity
  8
GAIKEI
  6
Continuous
 62
     1
100
AcDbLine
 10
6.274652891428813
 20
-6.509004985895642
 30
0.0
 11
6.274652891428813
 21
19.39099501410433
 31
0.0
  0
ARC
  5
292
330
2
100
AcDbEntity
  8
GAIKEI
  6
Continuous
100
AcDbCircle
 10
-42.02534710857114
 20
-8.609004985895666
 30
0.0
 40
0.2
100
AcDbArc
 50
180.0
 51
270.0
  0
LINE
  5
293
330
2
100
AcDbEntity
  8
GAIKEI
  6
Continuous
 62
     1
100
AcDbLine
 10
-39.28534710857119
 20
-8.284004985895677
 30
0.0
 11
-39.28534710857119
 21
-7.984004985895666
 31
0.0
  0
LINE
  5
294
330
2
100
AcDbEntity
  8
GAIKEI
  6
Continuous
 62
     1
100
AcDbLine
 10
-39.31034710857117
 20
-8.309004985895652
 30
0.0
 11
-39.61034710857119
 21
-8.309004985895652
 31
0.0
  0
LINE
  5
295
330
2
100
AcDbEntity
  8
GAIKEI
  6
Continuous
 62
     1
100
AcDbLine
 10
-41.13534710857114
 20
-8.094004985895679
 30
0.0
 11
-41.21534710857118
 21
-8.094004985895679
 31
0.0
  0
LINE
  5
296
330
2
100
AcDbEntity
  8
GAIKEI
  6
Continuous
 62
     1
100
AcDbLine
 10
-41.13534710857114
 20
-8.174004985895662
 30
0.0
 11
-41.21534710857118
 21
-8.174004985895662
 31
0.0
  0
LINE
  5
297
330
2
100
AcDbEntity
  8
GAIKEI
  6
Continuous
 62
     1
100
AcDbLine
 10
-41.13534710857114
 20
-8.174004985895662
 30
0.0
 11
-41.13534710857114
 21
-8.094004985895679
 31
0.0
  0
LINE
  5
298
330
2
100
AcDbEntity
  8
GAIKEI
  6
Continuous
 62
     1
100
AcDbLine
 10
-41.21534710857118
 20
-8.174004985895662
 30
0.0
 11
-41.21534710857118
 21
-8.094004985895679
 31
0.0
  0
LINE
  5
299
330
2
100
AcDbEntity
  8
GAIKEI
  6
Continuous
 62
     1
100
AcDbLine
 10
-39.31034710857117
 20
-7.959004985895659
 30
0.0
 11
-39.61034710857119
 21
-7.959004985895659
 31
0.0
  0
LINE
  5
29A
330
2
100
AcDbEntity
  8
GAIKEI
  6
Continuous
 62
     1
100
AcDbLine
 10
-39.63534710857116
 20
-8.284004985895677
 30
0.0
 11
-39.63534710857116
 21
-7.984004985895666
 31
0.0
  0
ARC
  5
29B
330
2
100
AcDbEntity
  8
GAIKEI
  6
Continuous
 62
     1
100
AcDbCircle
 10
-39.61034710857119
 20
-7.984004985895666
 30
0.0
 40
0.025
100
AcDbArc
 50
90.0
 51
180.0
  0
ARC
  5
29C
330
2
100
AcDbEntity
  8
GAIKEI
  6
Continuous
 62
     1
100
AcDbCircle
 10
-39.31034710857117
 20
-7.984004985895666
 30
0.0
 40
0.025
100
AcDbArc
 50
0.0
 51
90.0
  0
ARC
  5
29D
330
2
100
AcDbEntity
  8
GAIKEI
  6
Continuous
 62
     1
100
AcDbCircle
 10
-39.61034710857119
 20
-8.284004985895677
 30
0.0
 40
0.025
100
AcDbArc
 50
180.0
 51
270.0
  0
ARC
  5
29E
330
2
100
AcDbEntity
  8
GAIKEI
  6
Continuous
 62
     1
100
AcDbCircle
 10
-39.31034710857117
 20
-8.284004985895677
 30
0.0
 40
0.025
100
AcDbArc
 50
270.0
 51
0.0
  0
ARC
  5
29F
330
2
100
AcDbEntity
  8
GAIKEI
  6
Continuous
 62
     1
100
AcDbCircle
 10
-41.64034710857115
 20
-8.224004985895673
 30
0.0
 40
0.2
100
AcDbArc
 50
180.0
 51
270.0
  0
ARC
  5
2A0
330
2
100
AcDbEntity
  8
GAIKEI
  6
Continuous
100
AcDbCircle
 10
-42.02534710857114
 20
-8.609004985895666
 30
0.0
 40
0.2
100
AcDbArc
 50
180.0
 51
270.0
  0
ARC
  5
2A1
330
2
100
AcDbEntity
  8
GAIKEI
  6
Continuous
 62
     1
100
AcDbCircle
 10
-40.72534710857119
 20
-7.309004985895652
 30
0.0
 40
0.1
100
AcDbArc
 50
180.0
 51
270.0
  0
ARC
  5
2A2
330
2
100
AcDbEntity
  8
GAIKEI
  6
Continuous
 62
     1
100
AcDbCircle
 10
-40.72534710857119
 20
-7.309004985895652
 30
0.0
 40
0.18
100
AcDbArc
 50
180.0
 51
270.0
  0
ARC
  5
2A3
330
2
100
AcDbEntity
  8
GAIKEI
  6
Continuous
 62
     1
100
AcDbCircle
 10
-41.91922135857121
 20
-8.502879235895674
 30
0.0
 40
0.2
100
AcDbArc
 50
180.0
 51
270.0
  0
ARC
  5
2A4
330
2
100
AcDbEntity
  8
GAIKEI
  6
Continuous
 62
     1
100
AcDbCircle
 10
-40.72534710857119
 20
-7.309004985895652
 30
0.0
 40
0.10628895
100
AcDbArc
 50
180.0
 51
270.0
  0
LINE
  5
2A5
330
2
100
AcDbEntity
  8
GAIKEI
  6
Continuous
 62
     1
100
AcDbLine
 10
-40.72534710857119
 20
-7.489004985895661
 30
0.0
 11
7.274652891428813
 21
-7.489004985895661
 31
0.0
  0
LINE
  5
2A6
330
2
100
AcDbEntity
  8
GAIKEI
  6
Continuous
 62
     1
100
AcDbLine
 10
-41.91922135857121
 20
-8.702879235895665
 30
0.0
 11
8.468527141428834
 21
-8.702879235895665
 31
0.0
  0
LINE
  5
2A7
330
2
100
AcDbEntity
  8
GAIKEI
  6
Continuous
 62
     1
100
AcDbLine
 10
-40.72534710857119
 20
-7.415293935895673
 30
0.0
 11
7.274652891428813
 21
-7.415293935895673
 31
0.0
  0
LINE
  5
2A8
330
2
100
AcDbEntity
  8
GAIKEI
  6
Continuous
 62
     1
100
AcDbLine
 10
-41.64034710857115
 20
-8.424004985895662
 30
0.0
 11
8.189652891428835
 21
-8.424004985895662
 31
0.0
  0
ARC
  5
2A9
330
2
100
AcDbEntity
  8
GAIKEI
  6
Continuous
100
AcDbCircle
 10
8.574652891428826
 20
-8.609004985895666
 30
0.0
 40
0.2
100
AcDbArc
 50
270.0
 51
0.0
  0
ARC
  5
2AA
330
2
100
AcDbEntity
  8
GAIKEI
  6
Continuous
 62
     1
100
AcDbCircle
 10
7.274652891428813
 20
-7.309004985895652
 30
0.0
 40
0.10628895
100
AcDbArc
 50
270.0
 51
0.0
  0
ARC
  5
2AB
330
2
100
AcDbEntity
  8
GAIKEI
  6
Continuous
 62
     1
100
AcDbCircle
 10
7.274652891428813
 20
-7.309004985895652
 30
0.0
 40
0.18
100
AcDbArc
 50
270.0
 51
0.0
  0
ARC
  5
2AC
330
2
100
AcDbEntity
  8
GAIKEI
  6
Continuous
 62
     1
100
AcDbCircle
 10
7.274652891428813
 20
-7.309004985895652
 30
0.0
 40
0.1
100
AcDbArc
 50
270.0
 51
0.0
  0
ARC
  5
2AD
330
2
100
AcDbEntity
  8
GAIKEI
  6
Continuous
100
AcDbCircle
 10
8.574652891428826
 20
-8.609004985895666
 30
0.0
 40
0.2
100
AcDbArc
 50
270.0
 51
0.0
  0
ARC
  5
2AE
330
2
100
AcDbEntity
  8
GAIKEI
  6
Continuous
 62
     1
100
AcDbCircle
 10
8.189652891428835
 20
-8.224004985895673
 30
0.0
 40
0.2
100
AcDbArc
 50
270.0
 51
0.0
  0
ARC
  5
2AF
330
2
100
AcDbEntity
  8
GAIKEI
  6
Continuous
 62
     1
100
AcDbCircle
 10
8.468527141428834
 20
-8.502879235895674
 30
0.0
 40
0.2
100
AcDbArc
 50
270.0
 51
0.0
  0
LINE
  5
2B0
330
2
100
AcDbEntity
  8
GAIKEI
  6
Continuous
100
AcDbLine
 10
-42.02534710857114
 20
-8.809004985895681
 30
0.0
 11
8.574652891428826
 21
-8.809004985895654
 31
0.0
  0
LINE
  5
2B1
330
2
100
AcDbEntity
  8
GAIKEI
  6
Continuous
 62
     1
100
AcDbLine
 10
7.274652891428813
 20
-7.409004985895677
 30
0.0
 11
-40.72534710857119
 21
-7.409004985895677
 31
0.0
  0
ARC
  5
2B2
330
2
100
AcDbEntity
  8
GAIKEI
  6
Continuous
100
AcDbCircle
 10
8.574652891428826
 20
21.49099501410436
 30
0.0
 40
0.2
100
AcDbArc
 50
0.0
 51
90.0
  0
ARC
  5
2B3
330
2
100
AcDbEntity
  8
GAIKEI
  6
Continuous
 62
     1
100
AcDbCircle
 10
7.274652891428813
 20
20.19099501410435
 30
0.0
 40
0.10628895
100
AcDbArc
 50
0.0
 51
90.0
  0
ARC
  5
2B4
330
2
100
AcDbEntity
  8
GAIKEI
  6
Continuous
 62
     1
100
AcDbCircle
 10
7.274652891428813
 20
20.19099501410435
 30
0.0
 40
0.18
100
AcDbArc
 50
0.0
 51
90.0
  0
ARC
  5
2B5
330
2
100
AcDbEntity
  8
GAIKEI
  6
Continuous
 62
     1
100
AcDbCircle
 10
7.274652891428813
 20
20.19099501410435
 30
0.0
 40
0.1
100
AcDbArc
 50
0.0
 51
90.0
  0
ARC
  5
2B6
330
2
100
AcDbEntity
  8
GAIKEI
  6
Continuous
100
AcDbCircle
 10
8.574652891428826
 20
21.49099501410436
 30
0.0
 40
0.2
100
AcDbArc
 50
0.0
 51
90.0
  0
ARC
  5
2B7
330
2
100
AcDbEntity
  8
GAIKEI
  6
Continuous
 62
     1
100
AcDbCircle
 10
8.189652891428835
 20
21.10599501410434
 30
0.0
 40
0.2
100
AcDbArc
 50
0.0
 51
90.0
  0
ARC
  5
2B8
330
2
100
AcDbEntity
  8
GAIKEI
  6
Continuous
 62
     1
100
AcDbCircle
 10
8.468527141428834
 20
21.38486926410434
 30
0.0
 40
0.2
100
AcDbArc
 50
0.0
 51
90.0
  0
LINE
  5
2B9
330
2
100
AcDbEntity
  8
GAIKEI
  6
Continuous
 62
     1
100
AcDbLine
 10
-16.72534710857117
 20
21.30599501410435
 30
0.0
 11
8.189652891428835
 21
21.30599501410435
 31
0.0
  0
LINE
  5
2BA
330
2
100
AcDbEntity
  8
GAIKEI
  6
Continuous
100
AcDbLine
 10
-42.02534710857114
 20
21.69099501410435
 30
0.0
 11
8.574652891428826
 21
21.69099501410435
 31
0.0
  0
LINE
  5
2BB
330
2
100
AcDbEntity
  8
GAIKEI
  6
Continuous
 62
     1
100
AcDbLine
 10
7.274652891428813
 20
20.29099501410434
 30
0.0
 11
-16.72534710857117
 21
20.29099501410434
 31
0.0
  0
LINE
  5
2BC
330
2
100
AcDbEntity
  8
GAIKEI
  6
Continuous
 62
     1
100
AcDbLine
 10
7.274652891428813
 20
20.37099501410435
 30
0.0
 11
-16.72534710857117
 21
20.37099501410435
 31
0.0
  0
LINE
  5
2BD
330
2
100
AcDbEntity
  8
GAIKEI
  6
Continuous
 62
     1
100
AcDbLine
 10
-16.72534710857117
 20
20.29728396410434
 30
0.0
 11
7.274652891428813
 21
20.29728396410434
 31
0.0
  0
LINE
  5
2BE
330
2
100
AcDbEntity
  8
GAIKEI
  6
Continuous
 62
     1
100
AcDbLine
 10
8.389652891428822
 20
21.10599501410434
 30
0.0
 11
8.389652891428822
 21
-8.224004985895673
 31
0.0
  0
LINE
  5
2BF
330
2
100
AcDbEntity
  8
GAIKEI
  6
Continuous
100
AcDbLine
 10
8.774652891428813
 20
21.49099501410436
 30
0.0
 11
8.774652891428813
 21
-8.609004985895666
 31
0.0
  0
LINE
  5
2C0
330
2
100
AcDbEntity
  8
GAIKEI
  6
Continuous
 62
     1
100
AcDbLine
 10
7.374652891428837
 20
20.19099501410435
 30
0.0
 11
7.374652891428837
 21
-7.309004985895652
 31
0.0
  0
LINE
  5
2C1
330
2
100
AcDbEntity
  8
GAIKEI
  6
Continuous
 62
     1
100
AcDbLine
 10
7.45465289142882
 20
20.19099501410435
 30
0.0
 11
7.45465289142882
 21
-7.309004985895652
 31
0.0
  0
LINE
  5
2C2
330
2
100
AcDbEntity
  8
GAIKEI
  6
Continuous
 62
     1
100
AcDbLine
 10
8.668527141428825
 20
21.38486926410434
 30
0.0
 11
8.668527141428825
 21
-8.502879235895674
 31
0.0
  0
LINE
  5
2C3
330
2
100
AcDbEntity
  8
GAIKEI
  6
Continuous
 62
     1
100
AcDbLine
 10
7.380941841428835
 20
20.19099501410435
 30
0.0
 11
7.380941841428835
 21
-7.309004985895652
 31
0.0
  0
ARC
  5
2C4
330
2
100
AcDbEntity
  8
GAIKEI
  6
Continuous
100
AcDbCircle
 10
-42.02534710857114
 20
21.49099501410436
 30
0.0
 40
0.2
100
AcDbArc
 50
90.0
 51
180.0
  0
ARC
  5
2C5
330
2
100
AcDbEntity
  8
GAIKEI
  6
Continuous
 62
     1
100
AcDbCircle
 10
-40.72534710857119
 20
20.19099501410435
 30
0.0
 40
0.10628895
100
AcDbArc
 50
90.0
 51
180.0
  0
ARC
  5
2C6
330
2
100
AcDbEntity
  8
GAIKEI
  6
Continuous
 62
     1
100
AcDbCircle
 10
-40.72534710857119
 20
20.19099501410435
 30
0.0
 40
0.18
100
AcDbArc
 50
90.0
 51
180.0
  0
ARC
  5
2C7
330
2
100
AcDbEntity
  8
GAIKEI
  6
Continuous
 62
     1
100
AcDbCircle
 10
-40.72534710857119
 20
20.19099501410435
 30
0.0
 40
0.1
100
AcDbArc
 50
90.0
 51
180.0
  0
ARC
  5
2C8
330
2
100
AcDbEntity
  8
GAIKEI
  6
Continuous
100
AcDbCircle
 10
-42.02534710857114
 20
21.49099501410436
 30
0.0
 40
0.2
100
AcDbArc
 50
90.0
 51
180.0
  0
ARC
  5
2C9
330
2
100
AcDbEntity
  8
GAIKEI
  6
Continuous
 62
     1
100
AcDbCircle
 10
-41.64034710857115
 20
21.10599501410434
 30
0.0
 40
0.2
100
AcDbArc
 50
90.0
 51
180.0
  0
ARC
  5
2CA
330
2
100
AcDbEntity
  8
GAIKEI
  6
Continuous
 62
     1
100
AcDbCircle
 10
-41.91922135857121
 20
21.38486926410434
 30
0.0
 40
0.2
100
AcDbArc
 50
90.0
 51
180.0
  0
LINE
  5
2CB
330
2
100
AcDbEntity
  8
GAIKEI
  6
Continuous
 62
     1
100
AcDbLine
 10
-42.11922135857114
 20
21.38486926410434
 30
0.0
 11
-42.11922135857114
 21
-8.502879235895674
 31
0.0
  0
LINE
  5
2CC
330
2
100
AcDbEntity
  8
GAIKEI
  6
Continuous
100
AcDbLine
 10
-42.22534710857117
 20
-8.609004985895666
 30
0.0
 11
-42.22534710857117
 21
21.49099501410436
 31
0.0
  0
LINE
  5
2CD
330
2
100
AcDbEntity
  8
GAIKEI
  6
Continuous
 62
     1
100
AcDbLine
 10
-41.91922135857121
 20
21.58486926410436
 30
0.0
 11
8.468527141428834
 21
21.58486926410436
 31
0.0
  0
LINE
  5
2CE
330
2
100
AcDbEntity
  8
GAIKEI
  6
Continuous
 62
     1
100
AcDbLine
 10
-16.72534710857117
 20
21.30599501410435
 30
0.0
 11
-41.64034710857115
 21
21.30599501410435
 31
0.0
  0
LINE
  5
2CF
330
2
100
AcDbEntity
  8
GAIKEI
  6
Continuous
 62
     1
100
AcDbLine
 10
-40.72534710857119
 20
20.29099501410434
 30
0.0
 11
-16.72534710857117
 21
20.29099501410434
 31
0.0
  0
LINE
  5
2D0
330
2
100
AcDbEntity
  8
GAIKEI
  6
Continuous
 62
     1
100
AcDbLine
 10
-40.72534710857119
 20
20.37099501410435
 30
0.0
 11
-16.72534710857117
 21
20.37099501410435
 31
0.0
  0
LINE
  5
2D1
330
2
100
AcDbEntity
  8
GAIKEI
  6
Continuous
 62
     1
100
AcDbLine
 10
-16.72534710857117
 20
20.29728396410434
 30
0.0
 11
-40.72534710857119
 21
20.29728396410434
 31
0.0
  0
LINE
  5
2D2
330
2
100
AcDbEntity
  8
GAIKEI
  6
Continuous
 62
     1
100
AcDbLine
 10
-41.84034710857118
 20
21.10599501410434
 30
0.0
 11
-41.84034710857118
 21
-8.224004985895673
 31
0.0
  0
LINE
  5
2D3
330
2
100
AcDbEntity
  8
GAIKEI
  6
Continuous
 62
     1
100
AcDbLine
 10
-40.8253471085712
 20
20.19099501410435
 30
0.0
 11
-40.8253471085712
 21
-7.309004985895652
 31
0.0
  0
LINE
  5
2D4
330
2
100
AcDbEntity
  8
GAIKEI
  6
Continuous
 62
     1
100
AcDbLine
 10
-40.90534710857113
 20
20.19099501410435
 30
0.0
 11
-40.90534710857113
 21
-7.309004985895652
 31
0.0
  0
LINE
  5
2D5
330
2
100
AcDbEntity
  8
GAIKEI
  6
Continuous
 62
     1
100
AcDbLine
 10
-40.8316360585712
 20
20.19099501410435
 30
0.0
 11
-40.8316360585712
 21
-7.309004985895652
 31
0.0
  0
LINE
  5
2D9
330
2
100
AcDbEntity
  8
WAKU
 62
     4
100
AcDbLine
 10
71.74569989846762
 20
-65.24841727888224
 30
0.0
 11
-53.25430010153215
 21
-65.24841727888224
 31
0.0
  0
LINE
  5
2DB
330
2
100
AcDbEntity
  8
WAKU
 62
     1
100
AcDbLine
 10
-53.25430010153215
 20
-60.24841727888224
 30
0.0
 11
71.74569989846762
 21
-60.24841727888224
 31
0.0
  0
LINE
  5
2DC
330
2
100
AcDbEntity
  8
WAKU
 62
     1
100
AcDbLine
 10
-53.25430010153215
 20
-55.24841727888224
 30
0.0
 11
71.74569989846762
 21
-55.24841727888224
 31
0.0
  0
LINE
  5
2DD
330
2
100
AcDbEntity
  8
WAKU
 62
     1
100
AcDbLine
 10
-53.25430010153215
 20
-45.24841727888224
 30
0.0
 11
71.74569989846762
 21
-45.24841727888224
 31
0.0
  0
LINE
  5
2DE
330
2
100
AcDbEntity
  8
WAKU
 62
     1
100
AcDbLine
 10
-53.25430010153215
 20
-35.24841727888225
 30
0.0
 11
71.74569989846762
 21
-35.24841727888225
 31
0.0
  0
LINE
  5
2DF
330
2
100
AcDbEntity
  8
WAKU
 62
     4
100
AcDbLine
 10
-53.25430010153215
 20
-30.24841727888225
 30
0.0
 11
71.74569989846762
 21
-30.24841727888225
 31
0.0
  0
LINE
  5
2E0
330
2
100
AcDbEntity
  8
WAKU
 62
     1
100
AcDbLine
 10
-53.25430010153215
 20
-50.24841727888224
 30
0.0
 11
71.74569989846762
 21
-50.24841727888224
 31
0.0
  0
LINE
  5
2E1
330
2
100
AcDbEntity
  8
WAKU
 62
     1
100
AcDbLine
 10
-53.25430010153215
 20
-40.24841727888224
 30
0.0
 11
71.74569989846762
 21
-40.24841727888224
 31
0.0
  0
LINE
  5
2E5
330
2
100
AcDbEntity
  8
WAKU
 62
     4
100
AcDbLine
 10
-13.25430010153238
 20
-30.24841727888225
 30
0.0
 11
-13.25430010153238
 21
-65.24841727888224
 31
0.0
  0
LINE
  5
2E6
330
2
100
AcDbEntity
  8
WAKU
 62
     4
100
AcDbLine
 10
-53.25430010153238
 20
-30.24841727888225
 30
0.0
 11
-53.25430010153215
 21
-65.24841727888224
 31
0.0
  0
TEXT
  5
2E7
330
2
100
AcDbEntity
  8
MOJI1
100
AcDbText
 10
-50.75430010153215
 20
-59.24841727888225
 30
0.0
 40
3.0
  1
接続端子
100
AcDbText
  0
TEXT
  5
2E8
330
2
100
AcDbEntity
  8
MOJI1
100
AcDbText
 10
-50.75430010153215
 20
-54.24841727888225
 30
0.0
 40
3.0
  1
音声最大出力
100
AcDbText
  0
TEXT
  5
2E9
330
2
100
AcDbEntity
  8
MOJI1
100
AcDbText
 10
-50.75430010153215
 20
-39.24841727888225
 30
0.0
 40
3.0
  1
消費電力
100
AcDbText
  0
TEXT
  5
2EA
330
2
100
AcDbEntity
  8
MOJI1
100
AcDbText
 10
-50.75430010153215
 20
-44.24841727888224
 30
0.0
 40
3.0
  1
パネルサイズ
100
AcDbText
  0
TEXT
  5
2EB
330
2
100
AcDbEntity
  8
MOJI1
100
AcDbText
 10
-50.75430010153215
 20
-49.24841727888225
 30
0.0
 40
3.0
  1
画素数
100
AcDbText
  0
TEXT
  5
2EC
330
2
100
AcDbEntity
  8
MOJI1
100
AcDbText
 10
-50.75430010153215
 20
-34.24841727888225
 30
0.0
 40
3.0
  1
電  源
100
AcDbText
  0
LINE
  5
2ED
330
2
100
AcDbEntity
  8
WAKU
 62
     4
100
AcDbLine
 10
71.74569989846762
 20
-30.24841727888225
 30
0.0
 11
71.74569989846762
 21
-65.24841727888224
 31
0.0
  0
TEXT
  5
34B
330
2
100
AcDbEntity
  8
MOJI1
100
AcDbText
 10
-10.75430010153238
 20
-64.24841727888225
 30
0.0
 40
3.0
  1
コンポーネントビデオ、シリアル
100
AcDbText
  0
TEXT
  5
34C
330
2
100
AcDbEntity
  8
MOJI1
100
AcDbText
 10
-10.75430010153238
 20
-59.24841727888225
 30
0.0
 40
3.0
  1
ビデオ／Ｓビデオ／ＰＣ／外部スピーカ
100
AcDbText
  0
TEXT
  5
34D
330
2
100
AcDbEntity
  8
MOJI1
100
AcDbText
 10
-10.75430010153238
 20
-54.24841727888225
 30
0.0
 40
3.0
  1
１６Ｗ（８Ｗ＋８Ｗ）
100
AcDbText
  0
TEXT
  5
34E
330
2
100
AcDbEntity
  8
MOJI1
100
AcDbText
 10
-10.75430010153238
 20
-49.24841727888225
 30
0.0
 40
3.0
  1
４０８９６０画素（水平８５２×垂直４８０）
100
AcDbText
  0
TEXT
  5
34F
330
2
100
AcDbEntity
  8
MOJI1
100
AcDbText
 10
-10.75430010153238
 20
-44.24841727888225
 30
0.0
 40
3.0
  1
４２Ｖ型（１６：９）
100
AcDbText
  0
TEXT
  5
350
330
2
100
AcDbEntity
  8
MOJI1
100
AcDbText
 10
-10.75430010153238
 20
-39.24841727888225
 30
0.0
 40
3.0
  1
２４０Ｗ
100
AcDbText
  0
TEXT
  5
351
330
2
100
AcDbEntity
  8
MOJI1
100
AcDbText
 10
-10.75430010153238
 20
-34.24841727888225
 30
0.0
 40
3.0
  1
ＡＣ１００Ｖ　５０Ｈｚ／６０Ｈｚ
100
AcDbText
  0
ENDSEC
  0
SECTION
  2
OBJECTS
  0
DICTIONARY
  5
9
330
0
100
AcDbDictionary
281
     1
  3
ACAD_COLOR
350
29
  3
ACAD_GROUP
350
25
  3
ACAD_LAYOUT
350
D
  3
ACAD_MATERIAL
350
28
  3
ACAD_MLINESTYLE
350
26
  3
ACAD_PLOTSETTINGS
350
27
  3
ACAD_PLOTSTYLENAME
350
8
  3
ACDBHEADERROUNDTRIPXREC
350
382
  3
AcDbVariableDictionary
350
33A
  0
DICTIONARY
  5
15
330
14
100
AcDbDictionary
280
     1
281
     1
  3
ACAD_LAYERFILTERS
360
16
  0
DICTIONARY
  5
3
330
2
100
AcDbDictionary
280
     1
281
     1
  3
ACAD_LAYOUTSELFREF
360
4
  0
DICTIONARY
  5
F
330
E
100
AcDbDictionary
280
     1
281
     1
  3
ACAD_LAYOUTSELFREF
360
10
  0
DICTIONARY
  5
29
102
{ACAD_REACTORS
330
9
102
}
330
9
100
AcDbDictionary
281
     1
  0
DICTIONARY
  5
25
102
{ACAD_REACTORS
330
9
102
}
330
9
100
AcDbDictionary
281
     1
  0
DICTIONARY
  5
D
102
{ACAD_REACTORS
330
9
102
}
330
9
100
AcDbDictionary
281
     1
  3
Model
350
C
  3
ﾚｲｱｳﾄ1
350
13
  0
DICTIONARY
  5
28
102
{ACAD_REACTORS
330
9
102
}
330
9
100
AcDbDictionary
281
     1
  0
DICTIONARY
  5
26
102
{ACAD_REACTORS
330
9
102
}
330
9
100
AcDbDictionary
281
     1
  3
STANDARD
350
31
  0
DICTIONARY
  5
27
102
{ACAD_REACTORS
330
9
102
}
330
9
100
AcDbDictionary
281
     1
  0
ACDBDICTIONARYWDFLT
  5
8
102
{ACAD_REACTORS
330
9
102
}
330
9
100
AcDbDictionary
281
     1
  3
Normal
350
7
100
AcDbDictionaryWithDefault
340
7
  0
DICTIONARY
  5
382
102
{ACAD_REACTORS
330
9
102
}
330
9
100
AcDbDictionary
281
     1
  3
COLORDICT
350
384
  3
MATERIALDICT
350
383
  0
DICTIONARY
  5
33A
102
{ACAD_REACTORS
330
9
102
}
330
9
100
AcDbDictionary
281
     1
  3
DIMASSOC
350
33C
  3
HIDETEXT
350
33B
  3
PROJECTNAME
350
33D
  0
DICTIONARY
  5
16
102
{ACAD_REACTORS
330
15
102
}
330
15
100
AcDbDictionary
280
     1
281
     1
  0
XRECORD
  5
4
102
{ACAD_REACTORS
330
3
102
}
330
3
100
AcDbXrecord
280
     1
340
2
  0
XRECORD
  5
10
102
{ACAD_REACTORS
330
F
102
}
330
F
100
AcDbXrecord
280
     1
340
E
  0
LAYOUT
  5
C
102
{ACAD_XDICTIONARY
360
385
102
}
102
{ACAD_REACTORS
330
D
102
}
330
D
100
AcDbPlotSettings
  1

  2
\\Uranus\5FCNM08
  4
A4
  6

 40
5.873749732971191
 41
5.873747825622557
 42
5.873748779296875
 43
5.873748779296875
 44
209.9733276367186
 45
296.9259948730469
 46
5.4
 47
0.0
 48
0.0
 49
0.0
140
0.0
141
0.0
142
1.0
143
1.382669210069356
 70
 11956
 72
     1
 73
     0
 74
     1
  7
tmsacad.ctb
 75
     0
147
0.7232387853272862
148
0.6008072166987404
149
0.0333900090327006
100
AcDbLayout
  1
Model
 70
     1
 71
     0
 10
0.0
 20
0.0
 11
12.0
 21
9.0
 12
0.0
 22
0.0
 32
0.0
 14
0.0
 24
0.0
 34
0.0
 15
0.0
 25
0.0
 35
0.0
146
0.0
 13
0.0
 23
0.0
 33
0.0
 16
1.0
 26
0.0
 36
0.0
 17
0.0
 27
1.0
 37
0.0
 76
     0
330
2
  0
LAYOUT
  5
13
102
{ACAD_XDICTIONARY
360
387
102
}
102
{ACAD_REACTORS
330
D
102
}
330
D
100
AcDbPlotSettings
  1

  2
C:\Program Files\ACAD2000\plotters\DWF ePlot.pc3
  4

  6

 40
0.0
 41
0.0
 42
0.0
 43
0.0
 44
0.0
 45
0.0
 46
0.0
 47
0.0
 48
0.0
 49
0.0
140
0.0
141
0.0
142
1.0
143
1.0
 70
   688
 72
     0
 73
     0
 74
     5
  7
tmsacad.ctb
 75
    16
147
1.0
148
0.0
149
0.0
100
AcDbLayout
  1
ﾚｲｱｳﾄ1
 70
     1
 71
     1
 10
0.0
 20
0.0
 11
12.0
 21
9.0
 12
0.0
 22
0.0
 32
0.0
 14
1.000000000000000E+20
 24
1.000000000000000E+20
 34
1.000000000000000E+20
 15
-1.000000000000000E+20
 25
-1.000000000000000E+20
 35
-1.000000000000000E+20
146
0.0
 13
0.0
 23
0.0
 33
0.0
 16
1.0
 26
0.0
 36
0.0
 17
0.0
 27
1.0
 37
0.0
 76
     0
330
E
  0
MLINESTYLE
  5
31
102
{ACAD_REACTORS
330
26
102
}
330
26
100
AcDbMlineStyle
  2
STANDARD
 70
     0
  3

 62
   256
 51
90.0
 52
90.0
 71
     2
 49
0.5
 62
   256
  6
BYLAYER
 49
-0.5
 62
   256
  6
BYLAYER
  0
ACDBPLACEHOLDER
  5
7
102
{ACAD_REACTORS
330
8
102
}
330
8
  0
XRECORD
  5
384
102
{ACAD_REACTORS
330
382
102
}
330
382
100
AcDbXrecord
280
     1
340
29
  0
XRECORD
  5
383
102
{ACAD_REACTORS
330
382
102
}
330
382
100
AcDbXrecord
280
     1
340
28
  0
DICTIONARYVAR
  5
33C
102
{ACAD_REACTORS
330
33A
102
}
330
33A
100
DictionaryVariables
280
     0
  1
1
  0
DICTIONARYVAR
  5
33B
102
{ACAD_REACTORS
330
33A
102
}
330
33A
100
DictionaryVariables
280
     0
  1
1
  0
DICTIONARYVAR
  5
33D
102
{ACAD_REACTORS
330
33A
102
}
330
33A
100
DictionaryVariables
280
     0
  1

  0
DICTIONARY
  5
385
330
C
100
AcDbDictionary
280
     1
281
     1
  3
ACAD_XREC_ROUNDTRIP
360
386
  0
DICTIONARY
  5
387
330
13
100
AcDbDictionary
280
     1
281
     1
  3
ACAD_XREC_ROUNDTRIP
360
388
  0
XRECORD
  5
386
102
{ACAD_REACTORS
330
385
102
}
330
385
100
AcDbXrecord
280
     1
102
SHADEPLOT
 70
     0
102
SHADEPLOTRESLEVEL
 70
     2
102
SHADEPLOTCUSTOMDPI
 70
   300
  0
XRECORD
  5
388
102
{ACAD_REACTORS
330
387
102
}
330
387
100
AcDbXrecord
280
     1
102
SHADEPLOT
 70
     0
102
SHADEPLOTRESLEVEL
 70
     2
102
SHADEPLOTCUSTOMDPI
 70
   300
  0
ENDSEC
  0
EOF
