  0
SECTION
  2
HEADER
  9
$ACADVER
  1
AC1015
  9
$ACADMAINTVER
 70
    20
  9
$DWGCODEPAGE
  3
ANSI_932
  9
$INSBASE
 10
0.4999999440410648
 20
246.5008351249344
 30
0.0
  9
$EXTMIN
 10
-69.80346590024817
 20
-54.2780908023451
 30
-0.0015258207003583
  9
$EXTMAX
 10
55.23010309230324
 20
58.7465061514481
 30
0.0000000349246037
  9
$LIMMIN
 10
0.0
 20
0.0
  9
$LIMMAX
 10
420.0
 20
297.0
  9
$ORTHOMODE
 70
     1
  9
$REGENMODE
 70
     0
  9
$FILLMODE
 70
     1
  9
$QTEXTMODE
 70
     0
  9
$MIRRTEXT
 70
     0
  9
$LTSCALE
 40
1.0
  9
$ATTMODE
 70
     1
  9
$TEXTSIZE
 40
2.5
  9
$TRACEWID
 40
1.0
  9
$TEXTSTYLE
  7
Standard
  9
$CLAYER
  8
GAIKEI
  9
$CELTYPE
  6
ByLayer
  9
$CECOLOR
 62
   256
  9
$CELTSCALE
 40
1.0
  9
$DISPSILH
 70
     0
  9
$DIMSCALE
 40
1.0
  9
$DIMASZ
 40
2.0
  9
$DIMEXO
 40
2.0
  9
$DIMDLI
 40
8.0
  9
$DIMRND
 40
0.0
  9
$DIMDLE
 40
0.0
  9
$DIMEXE
 40
2.0
  9
$DIMTP
 40
0.0
  9
$DIMTM
 40
0.0
  9
$DIMTXT
 40
2.5
  9
$DIMCEN
 40
0.0
  9
$DIMTSZ
 40
0.0
  9
$DIMTOL
 70
     0
  9
$DIMLIM
 70
     0
  9
$DIMTIH
 70
     0
  9
$DIMTOH
 70
     0
  9
$DIMSE1
 70
     0
  9
$DIMSE2
 70
     0
  9
$DIMTAD
 70
     3
  9
$DIMZIN
 70
     0
  9
$DIMBLK
  1

  9
$DIMASO
 70
     1
  9
$DIMSHO
 70
     1
  9
$DIMPOST
  1

  9
$DIMAPOST
  1

  9
$DIMALT
 70
     0
  9
$DIMALTD
 70
     2
  9
$DIMALTF
 40
25.4
  9
$DIMLFAC
 40
1.0
  9
$DIMTOFL
 70
     1
  9
$DIMTVP
 40
0.0
  9
$DIMTIX
 70
     0
  9
$DIMSOXD
 70
     0
  9
$DIMSAH
 70
     1
  9
$DIMBLK1
  1
OPEN30
  9
$DIMBLK2
  1
OPEN30
  9
$DIMSTYLE
  2
STANDARD
  9
$DIMCLRD
 70
     0
  9
$DIMCLRE
 70
     0
  9
$DIMCLRT
 70
     0
  9
$DIMTFAC
 40
1.0
  9
$DIMGAP
 40
0.5
  9
$DIMJUST
 70
     0
  9
$DIMSD1
 70
     0
  9
$DIMSD2
 70
     0
  9
$DIMTOLJ
 70
     1
  9
$DIMTZIN
 70
     0
  9
$DIMALTZ
 70
     0
  9
$DIMALTTZ
 70
     0
  9
$DIMUPT
 70
     0
  9
$DIMDEC
 70
     4
  9
$DIMTDEC
 70
     4
  9
$DIMALTU
 70
     2
  9
$DIMALTTD
 70
     2
  9
$DIMTXSTY
  7
Standard
  9
$DIMAUNIT
 70
     0
  9
$DIMADEC
 70
     0
  9
$DIMALTRND
 40
0.0
  9
$DIMAZIN
 70
     0
  9
$DIMDSEP
 70
    46
  9
$DIMATFIT
 70
     3
  9
$DIMFRAC
 70
     0
  9
$DIMLDRBLK
  1
OPEN30
  9
$DIMLUNIT
 70
     2
  9
$DIMLWD
 70
    -2
  9
$DIMLWE
 70
    -2
  9
$DIMTMOVE
 70
     0
  9
$LUNITS
 70
     2
  9
$LUPREC
 70
     4
  9
$SKETCHINC
 40
1.0
  9
$FILLETRAD
 40
1.0
  9
$AUNITS
 70
     0
  9
$AUPREC
 70
     0
  9
$MENU
  1
.
  9
$ELEVATION
 40
0.0
  9
$PELEVATION
 40
0.0
  9
$THICKNESS
 40
0.0
  9
$LIMCHECK
 70
     0
  9
$CHAMFERA
 40
0.0
  9
$CHAMFERB
 40
0.0
  9
$CHAMFERC
 40
0.0
  9
$CHAMFERD
 40
0.0
  9
$SKPOLY
 70
     0
  9
$TDCREATE
 40
2454349.434269746
  9
$TDUCREATE
 40
2454349.059269746
  9
$TDUPDATE
 40
2455552.323552986
  9
$TDUUPDATE
 40
2455551.948552986
  9
$TDINDWG
 40
0.5443954282
  9
$TDUSRTIMER
 40
0.5443954282
  9
$USRTIMER
 70
     1
  9
$ANGBASE
 50
0.0
  9
$ANGDIR
 70
     0
  9
$PDMODE
 70
     0
  9
$PDSIZE
 40
0.0
  9
$PLINEWID
 40
0.0
  9
$SPLFRAME
 70
     0
  9
$SPLINETYPE
 70
     6
  9
$SPLINESEGS
 70
     8
  9
$HANDSEED
  5
2D7
  9
$SURFTAB1
 70
     6
  9
$SURFTAB2
 70
     6
  9
$SURFTYPE
 70
     6
  9
$SURFU
 70
     6
  9
$SURFV
 70
     6
  9
$UCSBASE
  2

  9
$UCSNAME
  2

  9
$UCSORG
 10
0.0
 20
0.0
 30
0.0
  9
$UCSXDIR
 10
1.0
 20
0.0
 30
0.0
  9
$UCSYDIR
 10
0.0
 20
1.0
 30
0.0
  9
$UCSORTHOREF
  2

  9
$UCSORTHOVIEW
 70
     0
  9
$UCSORGTOP
 10
0.0
 20
0.0
 30
0.0
  9
$UCSORGBOTTOM
 10
0.0
 20
0.0
 30
0.0
  9
$UCSORGLEFT
 10
0.0
 20
0.0
 30
0.0
  9
$UCSORGRIGHT
 10
0.0
 20
0.0
 30
0.0
  9
$UCSORGFRONT
 10
0.0
 20
0.0
 30
0.0
  9
$UCSORGBACK
 10
0.0
 20
0.0
 30
0.0
  9
$PUCSBASE
  2

  9
$PUCSNAME
  2

  9
$PUCSORG
 10
0.0
 20
0.0
 30
0.0
  9
$PUCSXDIR
 10
1.0
 20
0.0
 30
0.0
  9
$PUCSYDIR
 10
0.0
 20
1.0
 30
0.0
  9
$PUCSORTHOREF
  2

  9
$PUCSORTHOVIEW
 70
     0
  9
$PUCSORGTOP
 10
0.0
 20
0.0
 30
0.0
  9
$PUCSORGBOTTOM
 10
0.0
 20
0.0
 30
0.0
  9
$PUCSORGLEFT
 10
0.0
 20
0.0
 30
0.0
  9
$PUCSORGRIGHT
 10
0.0
 20
0.0
 30
0.0
  9
$PUCSORGFRONT
 10
0.0
 20
0.0
 30
0.0
  9
$PUCSORGBACK
 10
0.0
 20
0.0
 30
0.0
  9
$USERI1
 70
     0
  9
$USERI2
 70
     0
  9
$USERI3
 70
     0
  9
$USERI4
 70
     0
  9
$USERI5
 70
     0
  9
$USERR1
 40
0.0
  9
$USERR2
 40
0.0
  9
$USERR3
 40
0.0
  9
$USERR4
 40
0.0
  9
$USERR5
 40
0.0
  9
$WORLDVIEW
 70
     1
  9
$SHADEDGE
 70
     3
  9
$SHADEDIF
 70
    70
  9
$TILEMODE
 70
     1
  9
$MAXACTVP
 70
    64
  9
$PINSBASE
 10
0.0
 20
0.0
 30
0.0
  9
$PLIMCHECK
 70
     0
  9
$PEXTMIN
 10
0.0
 20
0.0
 30
0.0
  9
$PEXTMAX
 10
0.0
 20
0.0
 30
0.0
  9
$PLIMMIN
 10
0.0
 20
0.0
  9
$PLIMMAX
 10
12.0
 20
9.0
  9
$UNITMODE
 70
     0
  9
$VISRETAIN
 70
     1
  9
$PLINEGEN
 70
     0
  9
$PSLTSCALE
 70
     1
  9
$TREEDEPTH
 70
  3020
  9
$CMLSTYLE
  2
Standard
  9
$CMLJUST
 70
     0
  9
$CMLSCALE
 40
20.0
  9
$PROXYGRAPHICS
 70
     1
  9
$MEASUREMENT
 70
     1
  9
$CELWEIGHT
370
    -1
  9
$ENDCAPS
280
     0
  9
$JOINSTYLE
280
     0
  9
$LWDISPLAY
290
     0
  9
$INSUNITS
 70
     4
  9
$HYPERLINKBASE
  1

  9
$STYLESHEET
  1

  9
$XEDIT
290
     1
  9
$CEPSNTYPE
380
     0
  9
$PSTYLEMODE
290
     1
  9
$FINGERPRINTGUID
  2
{FDEAD578-A652-11D2-9A35-0060089B3A3F}
  9
$VERSIONGUID
  2
{5D3318C9-8719-455C-9F19-1F602B3F37EE}
  9
$EXTNAMES
290
     1
  9
$PSVPSCALE
 40
0.0
  9
$OLESTARTUP
290
     0
  0
ENDSEC
  0
SECTION
  2
CLASSES
  0
CLASS
  1
ACDBDICTIONARYWDFLT
  2
AcDbDictionaryWithDefault
  3
ObjectDBX Classes
 90
        0
280
     0
281
     0
  0
CLASS
  1
ACDBPLACEHOLDER
  2
AcDbPlaceHolder
  3
ObjectDBX Classes
 90
        0
280
     0
281
     0
  0
CLASS
  1
LAYOUT
  2
AcDbLayout
  3
ObjectDBX Classes
 90
        0
280
     0
281
     0
  0
CLASS
  1
DICTIONARYVAR
  2
AcDbDictionaryVar
  3
ObjectDBX Classes
 90
        0
280
     0
281
     0
  0
ENDSEC
  0
SECTION
  2
TABLES
  0
TABLE
  2
VPORT
  5
1B
330
0
100
AcDbSymbolTable
 70
     3
  0
VPORT
  5
2CF
330
1B
100
AcDbSymbolTableRecord
100
AcDbViewportTableRecord
  2
*Active
 70
     0
 10
0.0
 20
0.0
 11
1.0
 21
1.0
 12
-7.286681403972465
 22
2.234207674551498
 13
0.0
 23
0.0
 14
10.0
 24
10.0
 15
10.0
 25
10.0
 16
0.0
 26
0.0
 36
1.0
 17
0.0
 27
0.0
 37
0.0
 40
113.8786871070964
 41
2.182849936948297
 42
50.0
 43
0.0
 44
0.0
 50
0.0
 51
0.0
 71
     0
 72
  1000
 73
     1
 74
     2
 75
     0
 76
     0
 77
     0
 78
     0
281
     0
 65
     1
110
0.0
120
0.0
130
0.0
111
1.0
121
0.0
131
0.0
112
0.0
122
1.0
132
0.0
 79
     0
146
0.0
  0
ENDTAB
  0
TABLE
  2
LTYPE
  5
16
330
0
100
AcDbSymbolTable
 70
     1
  0
LTYPE
  5
17
330
16
100
AcDbSymbolTableRecord
100
AcDbLinetypeTableRecord
  2
ByBlock
 70
     0
  3

 72
    65
 73
     0
 40
0.0
  0
LTYPE
  5
18
330
16
100
AcDbSymbolTableRecord
100
AcDbLinetypeTableRecord
  2
ByLayer
 70
     0
  3

 72
    65
 73
     0
 40
0.0
  0
LTYPE
  5
8
330
16
100
AcDbSymbolTableRecord
100
AcDbLinetypeTableRecord
  2
Continuous
 70
     0
  3
Solid line
 72
    65
 73
     0
 40
0.0
  0
ENDTAB
  0
TABLE
  2
LAYER
  5
10
102
{ACAD_XDICTIONARY
360
11
102
}
330
0
100
AcDbSymbolTable
 70
     7
  0
LAYER
  5
4
330
10
100
AcDbSymbolTableRecord
100
AcDbLayerTableRecord
  2
0
 70
     0
 62
     7
  6
Continuous
370
    -3
390
5
  0
LAYER
  5
24B
330
10
100
AcDbSymbolTableRecord
100
AcDbLayerTableRecord
  2
WAKU
 70
     0
 62
     4
  6
Continuous
370
    -3
390
5
  0
LAYER
  5
30
330
10
100
AcDbSymbolTableRecord
100
AcDbLayerTableRecord
  2
MOJI1
 70
     0
 62
     2
  6
Continuous
370
    -3
390
5
  0
LAYER
  5
32
330
10
100
AcDbSymbolTableRecord
100
AcDbLayerTableRecord
  2
TOUROKU
 70
     0
 62
     1
  6
Continuous
370
    -3
390
5
  0
LAYER
  5
272
330
10
100
AcDbSymbolTableRecord
100
AcDbLayerTableRecord
  2
Defpoints
 70
     0
 62
     7
  6
Continuous
290
     0
370
    -3
390
5
  0
LAYER
  5
2D
330
10
100
AcDbSymbolTableRecord
100
AcDbLayerTableRecord
  2
GAIKEI
 70
     0
 62
     7
  6
Continuous
370
    -3
390
5
  0
LAYER
  5
268
330
10
100
AcDbSymbolTableRecord
100
AcDbLayerTableRecord
  2
SUNPO
 70
     0
 62
     3
  6
Continuous
370
    -3
390
5
  0
ENDTAB
  0
TABLE
  2
STYLE
  5
13
330
0
100
AcDbSymbolTable
 70
     1
  0
STYLE
  5
14
330
13
100
AcDbSymbolTableRecord
100
AcDbTextStyleTableRecord
  2
Standard
 70
     0
 40
0.0
 41
1.0
 50
0.0
 71
     0
 42
2.5
  3
MONOTXT.shx
  4
BIGFONT.shx
  0
ENDTAB
  0
TABLE
  2
VIEW
  5
19
330
0
100
AcDbSymbolTable
 70
     0
  0
ENDTAB
  0
TABLE
  2
UCS
  5
1A
330
0
100
AcDbSymbolTable
 70
     0
  0
ENDTAB
  0
TABLE
  2
APPID
  5
1D
330
0
100
AcDbSymbolTable
 70
     1
  0
APPID
  5
1E
330
1D
100
AcDbSymbolTableRecord
100
AcDbRegAppTableRecord
  2
ACAD
 70
     0
  0
ENDTAB
  0
TABLE
  2
DIMSTYLE
  5
1F
330
0
100
AcDbSymbolTable
 70
     1
100
AcDbDimStyleTable
 71
     1
340
20
  0
DIMSTYLE
105
20
102
{ACAD_REACTORS
330
283
330
276
330
267
102
}
330
1F
100
AcDbSymbolTableRecord
100
AcDbDimStyleTableRecord
  2
STANDARD
 70
     0
 40
0.0
 41
2.0
 42
2.0
 43
8.0
 44
2.0
 73
     0
 74
     0
 77
     3
140
3.0
141
0.0
173
     1
279
     2
288
     1
340
14
341
21
343
21
344
21
  0
ENDTAB
  0
TABLE
  2
BLOCK_RECORD
  5
1
330
0
100
AcDbSymbolTable
 70
     7
  0
BLOCK_RECORD
  5
2
330
1
100
AcDbSymbolTableRecord
100
AcDbBlockTableRecord
  2
*Model_Space
340
A
  0
BLOCK_RECORD
  5
C
330
1
100
AcDbSymbolTableRecord
100
AcDbBlockTableRecord
  2
*Paper_Space
340
F
  0
BLOCK_RECORD
  5
21
330
1
100
AcDbSymbolTableRecord
100
AcDbBlockTableRecord
  2
_OPEN30
340
0
102
{BLKREFS
331
28A
331
28B
331
27C
331
27D
331
26E
331
26F
331
2AB
331
2AC
331
2B7
331
2B8
331
2C3
331
2C4
102
}
  0
BLOCK_RECORD
  5
284
330
1
100
AcDbSymbolTableRecord
100
AcDbBlockTableRecord
  2
*D1
340
0
  0
BLOCK_RECORD
  5
277
330
1
100
AcDbSymbolTableRecord
100
AcDbBlockTableRecord
  2
*D2
340
0
  0
BLOCK_RECORD
  5
269
330
1
100
AcDbSymbolTableRecord
100
AcDbBlockTableRecord
  2
*D3
340
0
  0
BLOCK_RECORD
  5
2A6
330
1
100
AcDbSymbolTableRecord
100
AcDbBlockTableRecord
  2
*D4
340
0
  0
BLOCK_RECORD
  5
2B3
330
1
100
AcDbSymbolTableRecord
100
AcDbBlockTableRecord
  2
*D5
340
0
  0
BLOCK_RECORD
  5
2BF
330
1
100
AcDbSymbolTableRecord
100
AcDbBlockTableRecord
  2
*D6
340
0
  0
ENDTAB
  0
ENDSEC
  0
SECTION
  2
BLOCKS
  0
BLOCK
  5
3
330
2
100
AcDbEntity
  8
0
100
AcDbBlockBegin
  2
*Model_Space
 70
     0
 10
0.0
 20
0.0
 30
0.0
  3
*Model_Space
  1

  0
ENDBLK
  5
9
330
2
100
AcDbEntity
  8
0
100
AcDbBlockEnd
  0
BLOCK
  5
D
330
C
100
AcDbEntity
 67
     1
  8
0
100
AcDbBlockBegin
  2
*Paper_Space
 70
     0
 10
0.0
 20
0.0
 30
0.0
  3
*Paper_Space
  1

  0
ENDBLK
  5
E
330
C
100
AcDbEntity
 67
     1
  8
0
100
AcDbBlockEnd
  0
BLOCK
  5
22
330
21
100
AcDbEntity
  8
0
100
AcDbBlockBegin
  2
_OPEN30
 70
     0
 10
0.0
 20
0.0
 30
0.0
  3
_OPEN30
  1

  0
LINE
  5
23
330
21
100
AcDbEntity
  8
0
  6
ByBlock
 62
     0
100
AcDbLine
 10
-1.0
 20
0.26794919
 30
0.0
 11
0.0
 21
0.0
 31
0.0
  0
LINE
  5
24
330
21
100
AcDbEntity
  8
0
  6
ByBlock
 62
     0
100
AcDbLine
 10
0.0
 20
0.0
 30
0.0
 11
-1.0
 21
-0.26794919
 31
0.0
  0
LINE
  5
25
330
21
100
AcDbEntity
  8
0
  6
ByBlock
 62
     0
100
AcDbLine
 10
0.0
 20
0.0
 30
0.0
 11
-1.0
 21
0.0
 31
0.0
  0
ENDBLK
  5
26
330
21
100
AcDbEntity
  8
0
100
AcDbBlockEnd
  0
BLOCK
  5
285
330
284
100
AcDbEntity
  8
0
100
AcDbBlockBegin
  2
*D1
 70
     1
 10
0.0
 20
0.0
 30
0.0
  3
*D1
  1

  0
LINE
  5
286
330
284
100
AcDbEntity
  8
SUNPO
 62
     0
370
    -2
100
AcDbLine
 10
100.1707261050669
 20
221.4170631338449
 30
0.0
 11
100.1707261050669
 21
229.4170631338449
 31
0.0
  0
LINE
  5
287
330
284
100
AcDbEntity
  8
SUNPO
 62
     0
370
    -2
100
AcDbLine
 10
105.2207273936562
 20
221.4170631338449
 30
0.0
 11
105.2207273936562
 21
229.4170631338449
 31
0.0
  0
LINE
  5
288
330
284
100
AcDbEntity
  8
SUNPO
 62
     0
370
    -2
100
AcDbLine
 10
102.1707261050669
 20
227.4170631338449
 30
0.0
 11
103.2207273936562
 21
227.4170631338449
 31
0.0
  0
LINE
  5
289
330
284
100
AcDbEntity
  8
SUNPO
 62
     0
370
    -2
100
AcDbLine
 10
105.2207273936562
 20
227.4170631338449
 30
0.0
 11
114.4707273936562
 21
227.4170631338449
 31
0.0
  0
INSERT
  5
28A
330
284
100
AcDbEntity
  8
SUNPO
 62
     0
370
    -2
100
AcDbBlockReference
  2
_OPEN30
 10
100.1707261050669
 20
227.4170631338449
 30
0.0
 41
2.0
 42
2.0
 43
2.0
 50
180.0
  0
INSERT
  5
28B
330
284
100
AcDbEntity
  8
SUNPO
 62
     0
370
    -2
100
AcDbBlockReference
  2
_OPEN30
 10
105.2207273936562
 20
227.4170631338449
 30
0.0
 41
2.0
 42
2.0
 43
2.0
  0
MTEXT
  5
28C
330
284
100
AcDbEntity
  8
SUNPO
 62
     0
100
AcDbMText
 10
110.8457273936562
 20
229.1670631338449
 30
0.0
 40
2.5
 41
0.0
 71
     5
 72
     1
  1
\A1;101
 73
     1
 44
1.0
1001
ACAD
1000
MTEXTBEGIN
1070
    73
1070
     1
1070
    44
1040
1.0
1070
    74
1070
     0
1000
MTEXTEND
  0
POINT
  5
28D
330
284
100
AcDbEntity
  8
Defpoints
 62
     0
100
AcDbPoint
 10
100.1707261050669
 20
219.4170631338449
 30
0.0
  0
POINT
  5
28E
330
284
100
AcDbEntity
  8
Defpoints
 62
     0
100
AcDbPoint
 10
105.2207273936562
 20
219.4170631338449
 30
0.0
  0
POINT
  5
28F
330
284
100
AcDbEntity
  8
Defpoints
 62
     0
100
AcDbPoint
 10
105.2207273936562
 20
227.4170631338449
 30
0.0
  0
ENDBLK
  5
290
330
284
100
AcDbEntity
  8
0
100
AcDbBlockEnd
  0
BLOCK
  5
278
330
277
100
AcDbEntity
  8
0
100
AcDbBlockBegin
  2
*D2
 70
     1
 10
0.0
 20
0.0
 30
0.0
  3
*D2
  1

  0
LINE
  5
279
330
277
100
AcDbEntity
  8
SUNPO
 62
     0
370
    -2
100
AcDbLine
 10
79.72143178327897
 20
188.2250385056204
 30
0.0
 11
87.72143178327896
 21
188.2250385056204
 31
0.0
  0
LINE
  5
27A
330
277
100
AcDbEntity
  8
SUNPO
 62
     0
370
    -2
100
AcDbLine
 10
79.72143178327897
 20
219.4173495781963
 30
0.0
 11
87.72143178327896
 21
219.4173495781963
 31
0.0
  0
LINE
  5
27B
330
277
100
AcDbEntity
  8
SUNPO
 62
     0
370
    -2
100
AcDbLine
 10
85.72143178327896
 20
190.2250385056204
 30
0.0
 11
85.72143178327896
 21
217.4173495781963
 31
0.0
  0
INSERT
  5
27C
330
277
100
AcDbEntity
  8
SUNPO
 62
     0
370
    -2
100
AcDbBlockReference
  2
_OPEN30
 10
85.72143178327896
 20
188.2250385056204
 30
0.0
 41
2.0
 42
2.0
 43
2.0
 50
270.0
  0
INSERT
  5
27D
330
277
100
AcDbEntity
  8
SUNPO
 62
     0
370
    -2
100
AcDbBlockReference
  2
_OPEN30
 10
85.72143178327896
 20
219.4173495781963
 30
0.0
 41
2.0
 42
2.0
 43
2.0
 50
90.0
  0
MTEXT
  5
27E
330
277
100
AcDbEntity
  8
SUNPO
 62
     0
100
AcDbMText
 10
83.97143178327892
 20
203.8211940419084
 30
0.0
 40
2.5
 41
0.0
 71
     5
 72
     1
  1
\A1;624
 11
0.0000000000000001
 21
1.0
 31
0.0
 73
     1
 44
1.0
1001
ACAD
1000
MTEXTBEGIN
1070
    73
1070
     1
1070
    44
1040
1.0
1070
    74
1070
     0
1000
MTEXTEND
  0
POINT
  5
27F
330
277
100
AcDbEntity
  8
Defpoints
 62
     0
100
AcDbPoint
 10
77.72143178327898
 20
188.2250385056204
 30
0.0
  0
POINT
  5
280
330
277
100
AcDbEntity
  8
Defpoints
 62
     0
100
AcDbPoint
 10
77.72143178327898
 20
219.4173495781963
 30
0.0
  0
POINT
  5
281
330
277
100
AcDbEntity
  8
Defpoints
 62
     0
100
AcDbPoint
 10
85.72143178327896
 20
219.4173495781963
 30
0.0
  0
ENDBLK
  5
282
330
277
100
AcDbEntity
  8
0
100
AcDbBlockEnd
  0
BLOCK
  5
26A
330
269
100
AcDbEntity
  8
0
100
AcDbBlockBegin
  2
*D3
 70
     1
 10
0.0
 20
0.0
 30
0.0
  3
*D3
  1

  0
LINE
  5
26B
330
269
100
AcDbEntity
  8
SUNPO
 62
     0
370
    -2
100
AcDbLine
 10
23.77610492045369
 20
221.4170631338449
 30
0.0
 11
23.77610492045369
 21
229.4170631338449
 31
0.0
  0
LINE
  5
26C
330
269
100
AcDbEntity
  8
SUNPO
 62
     0
370
    -2
100
AcDbLine
 10
77.72614673694042
 20
221.4170631338449
 30
0.0
 11
77.72614673694042
 21
229.4170631338449
 31
0.0
  0
LINE
  5
26D
330
269
100
AcDbEntity
  8
SUNPO
 62
     0
370
    -2
100
AcDbLine
 10
25.77610492045369
 20
227.4170631338449
 30
0.0
 11
75.72614673694042
 21
227.4170631338449
 31
0.0
  0
INSERT
  5
26E
330
269
100
AcDbEntity
  8
SUNPO
 62
     0
370
    -2
100
AcDbBlockReference
  2
_OPEN30
 10
23.77610492045369
 20
227.4170631338449
 30
0.0
 41
2.0
 42
2.0
 43
2.0
 50
180.0
  0
INSERT
  5
26F
330
269
100
AcDbEntity
  8
SUNPO
 62
     0
370
    -2
100
AcDbBlockReference
  2
_OPEN30
 10
77.72614673694042
 20
227.4170631338449
 30
0.0
 41
2.0
 42
2.0
 43
2.0
  0
MTEXT
  5
270
330
269
100
AcDbEntity
  8
SUNPO
 62
     0
100
AcDbMText
 10
50.75112582869706
 20
229.1670631338449
 30
0.0
 40
2.5
 41
0.0
 71
     5
 72
     1
  1
\A1;1079
 73
     1
 44
1.0
1001
ACAD
1000
MTEXTBEGIN
1070
    73
1070
     1
1070
    44
1040
1.0
1070
    74
1070
     0
1000
MTEXTEND
  0
POINT
  5
271
330
269
100
AcDbEntity
  8
Defpoints
 62
     0
100
AcDbPoint
 10
23.77610492045369
 20
219.4170631338449
 30
0.0
  0
POINT
  5
273
330
269
100
AcDbEntity
  8
Defpoints
 62
     0
100
AcDbPoint
 10
77.72614673694042
 20
219.4170631338449
 30
0.0
  0
POINT
  5
274
330
269
100
AcDbEntity
  8
Defpoints
 62
     0
100
AcDbPoint
 10
77.72614673694042
 20
227.4170631338449
 30
0.0
  0
ENDBLK
  5
275
330
269
100
AcDbEntity
  8
0
100
AcDbBlockEnd
  0
BLOCK
  5
2B1
330
2A6
100
AcDbEntity
  8
0
100
AcDbBlockBegin
  2
*D4
 70
     1
 10
0.0
 20
0.0
 30
0.0
  3
*D4
  1

  0
LINE
  5
2A7
330
2A6
100
AcDbEntity
  8
SUNPO
 62
     0
370
    -2
100
AcDbLine
 10
27.8763816910946
 20
35.65847964170308
 30
0.0
 11
27.8763816910946
 21
43.65847964170308
 31
0.0
  0
LINE
  5
2A8
330
2A6
100
AcDbEntity
  8
SUNPO
 62
     0
370
    -2
100
AcDbLine
 10
32.9263829796839
 20
35.65847964170308
 30
0.0
 11
32.9263829796839
 21
43.65847964170308
 31
0.0
  0
LINE
  5
2A9
330
2A6
100
AcDbEntity
  8
SUNPO
 62
     0
370
    -2
100
AcDbLine
 10
29.87638169109459
 20
41.65847964170308
 30
0.0
 11
30.92638297968389
 21
41.65847964170308
 31
0.0
  0
LINE
  5
2AA
330
2A6
100
AcDbEntity
  8
SUNPO
 62
     0
370
    -2
100
AcDbLine
 10
32.9263829796839
 20
41.65847964170308
 30
0.0
 11
42.17638297968389
 21
41.65847964170308
 31
0.0
  0
INSERT
  5
2AB
330
2A6
100
AcDbEntity
  8
SUNPO
 62
     0
370
    -2
100
AcDbBlockReference
  2
_OPEN30
 10
27.8763816910946
 20
41.65847964170308
 30
0.0
 41
2.0
 42
2.0
 43
2.0
 50
180.0
  0
INSERT
  5
2AC
330
2A6
100
AcDbEntity
  8
SUNPO
 62
     0
370
    -2
100
AcDbBlockReference
  2
_OPEN30
 10
32.9263829796839
 20
41.65847964170308
 30
0.0
 41
2.0
 42
2.0
 43
2.0
  0
MTEXT
  5
2AD
330
2A6
100
AcDbEntity
  8
SUNPO
 62
     0
100
AcDbMText
 10
38.5513829796839
 20
43.40847964170308
 30
0.0
 40
2.5
 41
0.0
 71
     5
 72
     1
  1
\A1;101
 73
     1
 44
1.0
1001
ACAD
1000
MTEXTBEGIN
1070
    73
1070
     1
1070
    44
1040
1.0
1070
    74
1070
     0
1000
MTEXTEND
  0
POINT
  5
2AE
330
2A6
100
AcDbEntity
  8
Defpoints
 62
     0
100
AcDbPoint
 10
27.8763816910946
 20
33.65847964170308
 30
0.0
  0
POINT
  5
2AF
330
2A6
100
AcDbEntity
  8
Defpoints
 62
     0
100
AcDbPoint
 10
32.9263829796839
 20
33.65847964170308
 30
0.0
  0
POINT
  5
2B0
330
2A6
100
AcDbEntity
  8
Defpoints
 62
     0
100
AcDbPoint
 10
32.9263829796839
 20
41.65847964170308
 30
0.0
  0
ENDBLK
  5
2B2
330
2A6
100
AcDbEntity
  8
0
100
AcDbBlockEnd
  0
BLOCK
  5
2BD
330
2B3
100
AcDbEntity
  8
0
100
AcDbBlockBegin
  2
*D5
 70
     1
 10
0.0
 20
0.0
 30
0.0
  3
*D5
  1

  0
LINE
  5
2B4
330
2B3
100
AcDbEntity
  8
SUNPO
 62
     0
370
    -2
100
AcDbLine
 10
7.427087369306633
 20
2.466455013478622
 30
0.0
 11
15.42708736930661
 21
2.466455013478619
 31
0.0
  0
LINE
  5
2B5
330
2B3
100
AcDbEntity
  8
SUNPO
 62
     0
370
    -2
100
AcDbLine
 10
7.427087369306633
 20
33.65876608605442
 30
0.0
 11
15.42708736930662
 21
33.65876608605442
 31
0.0
  0
LINE
  5
2B6
330
2B3
100
AcDbEntity
  8
SUNPO
 62
     0
370
    -2
100
AcDbLine
 10
13.42708736930661
 20
4.46645501347862
 30
0.0
 11
13.42708736930662
 21
31.65876608605441
 31
0.0
  0
INSERT
  5
2B7
330
2B3
100
AcDbEntity
  8
SUNPO
 62
     0
370
    -2
100
AcDbBlockReference
  2
_OPEN30
 10
13.42708736930661
 20
2.46645501347862
 30
0.0
 41
2.0
 42
2.0
 43
2.0
 50
270.0
  0
INSERT
  5
2B8
330
2B3
100
AcDbEntity
  8
SUNPO
 62
     0
370
    -2
100
AcDbBlockReference
  2
_OPEN30
 10
13.42708736930662
 20
33.65876608605442
 30
0.0
 41
2.0
 42
2.0
 43
2.0
 50
90.0
  0
MTEXT
  5
2B9
330
2B3
100
AcDbEntity
  8
SUNPO
 62
     0
100
AcDbMText
 10
11.67708736930661
 20
18.06261054976651
 30
0.0
 40
2.5
 41
0.0
 71
     5
 72
     1
  1
\A1;624
 11
0.0000000000000001
 21
1.0
 31
0.0
 73
     1
 44
1.0
1001
ACAD
1000
MTEXTBEGIN
1070
    73
1070
     1
1070
    44
1040
1.0
1070
    74
1070
     0
1000
MTEXTEND
  0
POINT
  5
2BA
330
2B3
100
AcDbEntity
  8
Defpoints
 62
     0
100
AcDbPoint
 10
5.427087369306633
 20
2.466455013478622
 30
0.0
  0
POINT
  5
2BB
330
2B3
100
AcDbEntity
  8
Defpoints
 62
     0
100
AcDbPoint
 10
5.427087369306633
 20
33.65876608605442
 30
0.0
  0
POINT
  5
2BC
330
2B3
100
AcDbEntity
  8
Defpoints
 62
     0
100
AcDbPoint
 10
13.42708736930662
 20
33.65876608605442
 30
0.0
  0
ENDBLK
  5
2BE
330
2B3
100
AcDbEntity
  8
0
100
AcDbBlockEnd
  0
BLOCK
  5
2C9
330
2BF
100
AcDbEntity
  8
0
100
AcDbBlockBegin
  2
*D6
 70
     1
 10
0.0
 20
0.0
 30
0.0
  3
*D6
  1

  0
LINE
  5
2C0
330
2BF
100
AcDbEntity
  8
SUNPO
 62
     0
370
    -2
100
AcDbLine
 10
-48.51823949351865
 20
35.65847964170306
 30
0.0
 11
-48.51823949351865
 21
43.65847964170305
 31
0.0
  0
LINE
  5
2C1
330
2BF
100
AcDbEntity
  8
SUNPO
 62
     0
370
    -2
100
AcDbLine
 10
5.431802322968081
 20
35.65847964170308
 30
0.0
 11
5.431802322968082
 21
43.65847964170305
 31
0.0
  0
LINE
  5
2C2
330
2BF
100
AcDbEntity
  8
SUNPO
 62
     0
370
    -2
100
AcDbLine
 10
-46.51823949351864
 20
41.65847964170305
 30
0.0
 11
3.431802322968082
 21
41.65847964170305
 31
0.0
  0
INSERT
  5
2C3
330
2BF
100
AcDbEntity
  8
SUNPO
 62
     0
370
    -2
100
AcDbBlockReference
  2
_OPEN30
 10
-48.51823949351865
 20
41.65847964170305
 30
0.0
 41
2.0
 42
2.0
 43
2.0
 50
180.0
  0
INSERT
  5
2C4
330
2BF
100
AcDbEntity
  8
SUNPO
 62
     0
370
    -2
100
AcDbBlockReference
  2
_OPEN30
 10
5.431802322968082
 20
41.65847964170305
 30
0.0
 41
2.0
 42
2.0
 43
2.0
  0
MTEXT
  5
2C5
330
2BF
100
AcDbEntity
  8
SUNPO
 62
     0
100
AcDbMText
 10
-21.54321858527528
 20
43.40847964170305
 30
0.0
 40
2.5
 41
0.0
 71
     5
 72
     1
  1
\A1;1079
 73
     1
 44
1.0
1001
ACAD
1000
MTEXTBEGIN
1070
    73
1070
     1
1070
    44
1040
1.0
1070
    74
1070
     0
1000
MTEXTEND
  0
POINT
  5
2C6
330
2BF
100
AcDbEntity
  8
Defpoints
 62
     0
100
AcDbPoint
 10
-48.51823949351865
 20
33.65847964170305
 30
0.0
  0
POINT
  5
2C7
330
2BF
100
AcDbEntity
  8
Defpoints
 62
     0
100
AcDbPoint
 10
5.431802322968081
 20
33.65847964170308
 30
0.0
  0
POINT
  5
2C8
330
2BF
100
AcDbEntity
  8
Defpoints
 62
     0
100
AcDbPoint
 10
5.431802322968082
 20
41.65847964170305
 30
0.0
  0
ENDBLK
  5
2CA
330
2BF
100
AcDbEntity
  8
0
100
AcDbBlockEnd
  0
ENDSEC
  0
SECTION
  2
ENTITIES
  0
TEXT
  5
2F
330
2
100
AcDbEntity
  8
MOJI1
100
AcDbText
 10
-42.79434446993138
 20
54.74225163279314
 30
0.0
 40
4.0
  1
ハイビジョン液晶ディスプレイ
100
AcDbText
  0
TEXT
  5
31
330
2
100
AcDbEntity
  8
TOUROKU
100
AcDbText
 10
34.67227222966267
 20
48.74225163279266
 30
0.0
 40
2.0
  1
ＴＨ４７ＬＦ２０Ｊ
 72
     2
 11
55.20560556299601
 21
48.74225163279266
 31
0.0
100
AcDbText
  0
SPLINE
  5
33
330
2
100
AcDbEntity
  8
GAIKEI
  6
Continuous
 62
     1
100
AcDbSpline
210
0.0
220
0.0
230
1.0
 70
     8
 71
     3
 72
    12
 73
     8
 74
     6
 42
0.0000000001
 43
0.0000000001
 44
0.0000000001
 12
-0.9999915288320064
 22
0.0041160981799009
 32
0.0
 13
0.0032401417480053
 23
-0.9999947507269489
 33
0.0
 40
0.0
 40
0.0
 40
0.0
 40
0.0
 40
0.0168168111866886
 40
0.034273543885107
 40
0.0505375988598695
 40
0.0644673761557604
 40
0.0782336495472946
 40
0.0782336495472946
 40
0.0782336495472946
 40
0.0782336495472946
 10
-47.55540584869629
 20
32.7535600347012
 30
0.0
 10
-47.56101140493917
 20
32.75358310791651
 30
0.0
 10
-47.57253962007683
 20
32.75169527103719
 30
0.0
 10
-47.58752962436195
 20
32.74327802051999
 30
0.0
 10
-47.59818595862099
 20
32.73109955720611
 30
0.0
 10
-47.60411224850901
 20
32.71749793927896
 30
0.0
 10
-47.60535939461924
 20
32.7082119591179
 30
0.0
 10
-47.60534452639354
 20
32.70362322540837
 30
0.0
 11
-47.55540584869629
 21
32.7535600347012
 31
0.0
 11
-47.57199639897192
 21
32.75081071114062
 31
0.0
 11
-47.58722389617924
 21
32.74227485469237
 31
0.0
 11
-47.59792982008753
 21
32.73003137979788
 31
0.0
 11
-47.60350528510843
 21
32.71726607974995
 31
0.0
 11
-47.60534452639354
 21
32.70362322540837
 31
0.0
  0
SPLINE
  5
34
330
2
100
AcDbEntity
  8
GAIKEI
  6
Continuous
 62
     1
100
AcDbSpline
210
0.0
220
0.0
230
1.0
 70
     8
 71
     3
 72
    12
 73
     8
 74
     6
 42
0.0000000001
 43
0.0000000001
 44
0.0000000001
 12
-0.0041161429783455
 22
-0.999991528647609
 32
0.0
 13
0.9999947507198845
 23
0.0032401439282748
 33
0.0
 40
0.0
 40
0.0
 40
0.0
 40
0.0
 40
0.0168168109303536
 40
0.0342735436097695
 40
0.0505375986729832
 40
0.0644673759660292
 40
0.0782336493308305
 40
0.0782336493308305
 40
0.0782336493308305
 40
0.0782336493308305
 10
-47.60534359205621
 20
3.429288658051063
 30
0.0
 10
-47.60536666552229
 20
3.423683101894653
 30
0.0
 10
-47.60347882836891
 20
3.412154886839601
 30
0.0
 10
-47.59506157809457
 20
3.397164882584206
 30
0.0
 10
-47.58288311488023
 20
3.386508548142387
 30
0.0
 10
-47.56928149690416
 20
3.380582258223256
 30
0.0
 10
-47.55999551672409
 20
3.379335112368124
 30
0.0
 10
-47.5554067830235
 20
3.379349980603819
 30
0.0
 11
-47.60534359205621
 21
3.429288658051063
 31
0.0
 11
-47.60259426861568
 21
3.412698108015376
 31
0.0
 11
-47.59405841227748
 21
3.397470610768152
 31
0.0
 11
-47.58181493742301
 21
3.386764686679725
 31
0.0
 11
-47.56904963736508
 21
3.381189221688828
 31
0.0
 11
-47.5554067830235
 21
3.379349980603819
 31
0.0
  0
SPLINE
  5
35
330
2
100
AcDbEntity
  8
GAIKEI
  6
Continuous
 62
     1
100
AcDbSpline
210
0.0
220
0.0
230
1.0
 70
     8
 71
     3
 72
    16
 73
    12
 74
    10
 42
0.0000000001
 43
0.0000000001
 44
0.0000000001
 12
-0.9992013962140152
 22
0.0399570995439185
 32
0.0
 13
-0.0419541424882103
 23
0.9991195373568064
 33
0.0
 40
0.0
 40
0.0
 40
0.0
 40
0.0
 40
0.0238883021970335
 40
0.045381439146564
 40
0.0646144202066612
 40
0.0823988326311436
 40
0.0997733083443997
 40
0.1177203560790017
 40
0.1371599354234449
 40
0.1590099568513504
 40
0.1836267393967793
 40
0.1836267393967793
 40
0.1836267393967793
 40
0.1836267393967793
 10
-47.56106853629268
 20
3.305727550170217
 30
0.0
 10
-47.56902494459549
 20
3.306045719259827
 30
0.0
 10
-47.58412508571638
 20
3.308186037695577
 30
0.0
 10
-47.60459088285883
 20
3.315231583584704
 30
0.0
 10
-47.62181140571271
 20
3.32454722650624
 30
0.0
 10
-47.63641794934381
 20
3.335380732185683
 30
0.0
 10
-47.64908995998162
 20
3.347829390904848
 30
0.0
 10
-47.66005932044662
 20
3.362509683324589
 30
0.0
 10
-47.66933465736914
 20
3.38003259681659
 30
0.0
 10
-47.67639587401522
 20
3.40093863505703
 30
0.0
 10
-47.67862269815963
 20
3.416390179845279
 30
0.0
 10
-47.67896695682714
 20
3.424588549307941
 30
0.0
 11
-47.56106853629268
 21
3.305727550170217
 31
0.0
 11
-47.58472084405309
 21
3.309077075429627
 31
0.0
 11
-47.60505242238752
 21
3.316047144178355
 31
0.0
 11
-47.62198020499238
 21
3.325177189990995
 31
0.0
 11
-47.63625883136649
 21
3.335779366850147
 31
0.0
 11
-47.64862596720905
 21
3.347982905573076
 31
0.0
 11
-47.65938358376433
 21
3.362348496700406
 31
0.0
 11
-47.66850472645967
 21
3.379515383460102
 31
0.0
 11
-47.67549101550383
 21
3.40021840743708
 31
0.0
 11
-47.67896695682714
 21
3.424588549307941
 31
0.0
  0
SPLINE
  5
36
330
2
100
AcDbEntity
  8
GAIKEI
  6
Continuous
 62
     1
100
AcDbSpline
210
0.0
220
0.0
230
1.0
 70
     8
 71
     3
 72
    20
 73
    16
 74
    14
 42
0.0000000001
 43
0.0000000001
 44
0.0000000001
 12
0.0396402679143128
 22
0.9992140156941763
 32
0.0
 13
0.9991518486730665
 23
0.0411774609852729
 33
0.0
 40
0.0
 40
0.0
 40
0.0
 40
0.0
 40
0.017409615563862
 40
0.0332912255859579
 40
0.0476045429766544
 40
0.0605774483677099
 40
0.0726452460357844
 40
0.0842816402632968
 40
0.0959220131282015
 40
0.1079259764578617
 40
0.1205760604633211
 40
0.1341562832856485
 40
0.1490084980695304
 40
0.165452332426552
 40
0.183737333146455
 40
0.183737333146455
 40
0.183737333146455
 40
0.183737333146455
 10
-47.67896695682714
 20
32.7092849786776
 30
0.0
 10
-47.67873691621872
 20
32.71508362263737
 30
0.0
 10
-47.67747971627382
 20
32.72615790757408
 30
0.0
 10
-47.67348266691293
 20
32.74155995393698
 30
0.0
 10
-47.66815199036769
 20
32.75496116859961
 30
0.0
 10
-47.66199149352148
 20
32.7665678629997
 30
0.0
 10
-47.65523706530401
 20
32.77677957186796
 30
0.0
 10
-47.64784650892278
 20
32.78597543247497
 30
0.0
 10
-47.63965698646016
 20
32.79444038034041
 30
0.0
 10
-47.63040012776434
 20
32.80226256812551
 30
0.0
 10
-47.61984182202544
 20
32.80944433871221
 30
0.0
 10
-47.60771689583088
 20
32.8158680168612
 30
0.0
 10
-47.5937759759656
 20
32.82138333266824
 30
0.0
 10
-47.57774215677227
 20
32.82555929748514
 30
0.0
 10
-47.56619579707794
 20
32.82693242257741
 30
0.0
 10
-47.56010596632052
 20
32.827183399212
 30
0.0
 11
-47.67896695682714
 21
32.7092849786776
 31
0.0
 11
-47.67700139333999
 21
32.7265832813186
 31
0.0
 11
-47.67302083696302
 21
32.74195795880542
 31
0.0
 11
-47.66773829556086
 21
32.75526080854002
 31
0.0
 11
-47.66166418396506
 21
32.76672385536915
 31
0.0
 11
-47.65500438843235
 21
32.77678759543039
 31
0.0
 11
-47.64771340388216
 21
32.78585662045555
 31
0.0
 11
-47.6396100111935
 21
32.79421325299308
 31
0.0
 11
-47.63044160550714
 21
32.80196150910593
 31
0.0
 11
-47.61998283551394
 21
32.8090776004189
 31
0.0
 11
-47.60799166113042
 21
32.81545209559954
 31
0.0
 11
-47.59418066381875
 21
32.8209151201504
 31
0.0
 11
-47.57826682194263
 21
32.82505629451322
 31
0.0
 11
-47.56010596632052
 21
32.827183399212
 31
0.0
  0
SPLINE
  5
37
330
2
100
AcDbEntity
  8
GAIKEI
  6
Continuous
 62
     1
100
AcDbSpline
210
0.0
220
0.0
230
1.0
 70
     8
 71
     3
 72
    16
 73
    12
 74
    10
 42
0.0000000001
 43
0.0000000001
 44
0.0000000001
 12
0.9992013952802539
 22
-0.0399571228943483
 32
0.0
 13
0.0419488242457009
 23
-0.9991197606615552
 33
0.0
 40
0.0
 40
0.0
 40
0.0
 40
0.0
 40
0.0238881735307024
 40
0.0453815971910507
 40
0.0646158380630256
 40
0.0824015765441368
 40
0.0997768049421294
 40
0.1177236941469768
 40
0.137162283201903
 40
0.1590107494679478
 40
0.1836267475992017
 40
0.1836267475992017
 40
0.1836267475992017
 40
0.1836267475992017
 10
4.474590083045256
 20
32.827183399212
 30
0.0
 10
4.482546448486118
 20
32.82686523165017
 30
0.0
 10
4.497646642176349
 20
32.82472491325189
 30
0.0
 10
4.518112887463445
 20
32.81767920570473
 30
0.0
 10
4.535334213915973
 20
32.80836300348841
 30
0.0
 10
4.549941472749836
 20
32.79752857836917
 30
0.0
 10
4.562613666726619
 20
32.78507917315883
 30
0.0
 10
4.573582428752558
 20
32.77039860450722
 30
0.0
 10
4.582857043694076
 20
32.75287634724865
 30
0.0
 10
4.589917591719427
 20
32.7319712732251
 30
0.0
 10
4.592144299519915
 20
32.71652051012811
 30
0.0
 10
4.592488503579659
 20
32.70832240007434
 30
0.0
 11
4.474590083045256
 21
32.827183399212
 31
0.0
 11
4.498242264989812
 21
32.82383390314624
 31
0.0
 11
4.51857411366825
 21
32.81686373887556
 31
0.0
 11
4.535502950745353
 21
32.80773299426528
 31
0.0
 11
4.549782466581063
 21
32.79712979093722
 31
0.0
 11
4.562149834702836
 21
32.7849254159994
 31
0.0
 11
4.572906906139678
 21
32.77055961472576
 31
0.0
 11
4.582027234412862
 21
32.75339341664244
 31
0.0
 11
4.589012767382143
 21
32.73269177884941
 31
0.0
 11
4.592488503579659
 21
32.70832240007434
 31
0.0
  0
SPLINE
  5
38
330
2
100
AcDbEntity
  8
GAIKEI
  6
Continuous
 62
     1
100
AcDbSpline
210
0.0
220
0.0
230
1.0
 70
     8
 71
     3
 72
    19
 73
    15
 74
    13
 42
0.0000000001
 43
0.0000000001
 44
0.0000000001
 12
-0.0396317605961365
 22
-0.9992143531555431
 32
0.0
 13
-0.9991506682290928
 23
-0.0412060939347247
 33
0.0
 40
0.0
 40
0.0
 40
0.0
 40
0.0
 40
0.0187687571625151
 40
0.0357604246173942
 40
0.0509422749073104
 40
0.0646613800184309
 40
0.0775107165665888
 40
0.0900762598133796
 40
0.1028742923358093
 40
0.1162918652677886
 40
0.1306738941142103
 40
0.146447385429608
 40
0.1640244904582698
 40
0.1837186050359757
 40
0.1837186050359757
 40
0.1837186050359757
 40
0.1837186050359757
 10
4.592488503579659
 20
3.42362597070462
 30
0.0
 10
4.592240557282806
 20
3.417374633522058
 30
0.0
 10
4.590820911299076
 20
3.405478417776862
 30
0.0
 10
4.586275332489663
 20
3.38906154393976
 30
0.0
 10
4.580270405961073
 20
3.374949648962115
 30
0.0
 10
4.573381769694918
 20
3.362827171096512
 30
0.0
 10
4.5657967852881
 20
3.3521883798266
 30
0.0
 10
4.557399681987334
 20
3.342581969678946
 30
0.0
 10
4.547905088679783
 20
3.333773043217604
 30
0.0
 10
4.53700453280507
 20
3.325703141435155
 30
0.0
 10
4.524359056990789
 20
3.318490077921836
 30
0.0
 10
4.509666153660077
 20
3.312280346405231
 30
0.0
 10
4.492578262354768
 20
3.307544216733816
 30
0.0
 10
4.480186642569933
 20
3.305998056015312
 30
0.0
 10
4.473627513323094
 20
3.305727550170217
 30
0.0
 11
4.592488503579659
 21
3.42362597070462
 31
0.0
 11
4.590262444633196
 21
3.404989691381956
 31
0.0
 11
4.585740379502681
 21
3.38861081199866
 31
0.0
 11
4.579806668865728
 21
3.374636562240539
 31
0.0
 11
4.573034063226543
 21
3.362705692284578
 31
0.0
 11
4.565573365529189
 21
3.352244170426047
 31
0.0
 11
4.557294644168621
 21
3.342791358689794
 31
0.0
 11
4.54790883693073
 21
3.334090998988131
 31
0.0
 11
4.537122892040542
 21
3.326110105791826
 31
0.0
 11
4.524642129159019
 21
3.318963546365466
 31
0.0
 11
4.510114472234249
 21
3.312819426204441
 31
0.0
 11
4.493174607303274
 21
3.308129479796548
 31
0.0
 11
4.473627513323094
 21
3.305727550170217
 31
0.0
  0
SPLINE
  5
39
330
2
100
AcDbEntity
  8
GAIKEI
  6
Continuous
 62
     1
100
AcDbSpline
210
0.0
220
0.0
230
1.0
 70
     8
 71
     3
 72
    12
 73
     8
 74
     6
 42
0.0000000001
 43
0.0000000001
 44
0.0000000001
 12
0.9999915287474262
 22
-0.0041161187283067
 32
0.0
 13
-0.0032401108023091
 23
0.9999947508272175
 33
0.0
 40
0.0
 40
0.0
 40
0.0
 40
0.0
 40
0.0168154299224893
 40
0.034270679583382
 40
0.0505363825370114
 40
0.0644693644037036
 40
0.0782336577342745
 40
0.0782336577342745
 40
0.0782336577342745
 40
0.0782336577342745
 10
4.468927395698869
 20
3.379350914681026
 30
0.0
 10
4.474532491523788
 20
3.379327843245675
 30
0.0
 10
4.486059727259402
 20
3.381215360317696
 30
0.0
 10
4.501049681991901
 20
3.38963171229949
 30
0.0
 10
4.511707324985366
 20
3.401810633853159
 30
0.0
 10
4.517633932453719
 20
3.415413285260171
 30
0.0
 10
4.518880939091289
 20
3.424699650280729
 30
0.0
 10
4.518866073146114
 20
3.429287723973857
 30
0.0
 11
4.468927395698869
 21
3.379350914681026
 31
0.0
 11
4.485516621808415
 21
3.382099780004125
 31
0.0
 11
4.500743197339943
 21
3.39063424766806
 31
0.0
 11
4.511450716928607
 21
3.402878516402211
 31
0.0
 11
4.517027367968353
 21
3.415646795333941
 31
0.0
 11
4.518866073146114
 21
3.429287723973857
 31
0.0
  0
SPLINE
  5
3A
330
2
100
AcDbEntity
  8
GAIKEI
  6
Continuous
 62
     1
100
AcDbSpline
210
0.0
220
0.0
230
1.0
 70
     8
 71
     3
 72
    12
 73
     8
 74
     6
 42
0.0000000001
 43
0.0000000001
 44
0.0000000001
 12
0.0041160965812024
 22
0.9999915288385867
 32
0.0
 13
-0.9999947507198845
 23
-0.0032401439282748
 33
0.0
 40
0.0
 40
0.0
 40
0.0
 40
0.0
 40
0.0168168109302971
 40
0.0342735436634961
 40
0.0505375987567974
 40
0.0644673760498434
 40
0.0782336494060666
 40
0.0782336494060666
 40
0.0782336494060666
 40
0.0782336494060666
 10
4.51886513906885
 20
32.70362229134117
 30
0.0
 10
4.518888212274845
 20
32.70922784749862
 30
0.0
 10
4.517000375354612
 20
32.72075606255584
 30
0.0
 10
4.508583124844193
 20
32.73574606677684
 30
0.0
 10
4.496404661636944
 20
32.74640240122375
 30
0.0
 10
4.48280304364755
 20
32.75232869114376
 30
0.0
 10
4.473517063473806
 20
32.75357583701407
 30
0.0
 10
4.468928329776076
 20
32.7535609687784
 30
0.0
 11
4.51886513906885
 21
32.70362229134117
 31
0.0
 11
4.516115815508271
 21
32.7202128413569
 31
0.0
 11
4.50757995906008
 21
32.73544033860412
 31
0.0
 11
4.495336484165591
 21
32.74614626269249
 31
0.0
 11
4.482571184107655
 21
32.75172172768339
 31
0.0
 11
4.468928329776076
 21
32.7535609687784
 31
0.0
  0
SPLINE
  5
3B
330
2
100
AcDbEntity
  8
GAIKEI
  6
Continuous
 62
     1
100
AcDbSpline
210
0.0
220
0.0
230
1.0
 70
     8
 71
     3
 72
    14
 73
    10
 74
     8
 42
0.0000000001
 43
0.0000000001
 44
0.0000000001
 12
-0.9999992582342994
 22
-0.001218002812416
 32
0.0
 13
-0.0012178730421222
 23
-0.9999992583923516
 33
0.0
 40
0.0
 40
0.0
 40
0.0
 40
0.0
 40
0.0018676934875786
 40
0.0038939558139355
 40
0.0060658088504202
 40
0.0083674082870888
 40
0.0107649874798047
 40
0.0132120484296848
 40
0.0156606404386085
 40
0.0156606404386085
 40
0.0156606404386085
 40
0.0156606404386085
 10
2.113429980313753
 20
3.044436097241657
 30
0.0
 10
2.112807416279693
 20
3.044435338956361
 30
0.0
 10
2.111506450060005
 20
3.044311819478053
 30
0.0
 10
2.109555970065628
 20
3.043730233336646
 30
0.0
 10
2.107639244907787
 20
3.042683615156022
 30
0.0
 10
2.105907718594664
 20
3.041153641536652
 30
0.0
 10
2.104526132766267
 20
3.039184634424572
 30
0.0
 10
2.103639706041576
 20
3.036895804442764
 30
0.0
 10
2.10343581192302
 20
3.035257131297214
 30
0.0
 10
2.103434817898289
 20
3.034440934566191
 30
0.0
 11
2.113429980313753
 21
3.044436097241657
 31
0.0
 11
2.111570666409818
 21
3.044259374944886
 31
0.0
 11
2.109628858023711
 21
3.043680480129864
 31
0.0
 11
2.107722730735247
 21
3.042639507328942
 31
0.0
 11
2.105998048046103
 21
3.04111542413284
 31
0.0
 11
2.104620880566415
 21
3.039152824907773
 31
0.0
 11
2.103737613085854
 21
3.036870732479712
 31
0.0
 11
2.103434817898289
 21
3.034440934566191
 31
0.0
  0
SPLINE
  5
3C
330
2
100
AcDbEntity
  8
GAIKEI
  6
Continuous
 62
     1
100
AcDbSpline
210
0.0
220
0.0
230
1.0
 70
     8
 71
     3
 72
    14
 73
    10
 74
     8
 42
0.0000000001
 43
0.0000000001
 44
0.0000000001
 12
-0.001218002812416
 22
0.9999992582342994
 32
0.0
 13
-0.9999992580041975
 23
0.0012181917148141
 33
0.0
 40
0.0
 40
0.0
 40
0.0
 40
0.0
 40
0.0018676936269504
 40
0.0038939558459616
 40
0.0060658088026257
 40
0.0083674083971667
 40
0.0107649874227306
 40
0.0132120483079257
 40
0.0156606403502951
 40
0.0156606403502951
 40
0.0156606403502951
 40
0.0156606403502951
 10
2.211035038339275
 20
3.034440934566191
 30
0.0
 10
2.211034280053908
 20
3.035063498646707
 30
0.0
 10
2.210910760602658
 20
3.036364464882439
 30
0.0
 10
2.210329174442847
 20
3.03831494484865
 30
0.0
 10
2.209282556403906
 20
3.040231670067214
 30
0.0
 10
2.207752582807557
 20
3.041963196380805
 30
0.0
 10
2.205783575703023
 20
3.04334478216819
 30
0.0
 10
2.203494745750319
 20
3.044231208824612
 30
0.0
 10
2.201856072665648
 20
3.044435102956811
 30
0.0
 10
2.201039875923811
 20
3.044436097241657
 30
0.0
 11
2.211035038339275
 21
3.034440934566191
 31
0.0
 11
2.210858316042561
 21
3.036300248610132
 31
0.0
 11
2.2102794212675
 21
3.038242056896137
 31
0.0
 11
2.209238448596579
 21
3.04014818416465
 31
0.0
 11
2.207714365320498
 21
3.041872866993799
 31
0.0
 11
2.205751766215428
 21
3.043250034353491
 31
0.0
 11
2.203469673837389
 21
3.044133301784086
 31
0.0
 11
2.201039875923811
 21
3.044436097241657
 31
0.0
  0
SPLINE
  5
3D
330
2
100
AcDbEntity
  8
GAIKEI
  6
Continuous
 62
     1
100
AcDbSpline
210
0.0
220
0.0
230
1.0
 70
     8
 71
     3
 72
    14
 73
    10
 74
     8
 42
0.0000000001
 43
0.0000000001
 44
0.0000000001
 12
0.9999992582342994
 22
0.001218002812416
 32
0.0
 13
0.0012178734302255
 23
0.9999992583918791
 33
0.0
 40
0.0
 40
0.0
 40
0.0
 40
0.0
 40
0.0018676936260038
 40
0.0038939558565731
 40
0.0060658088754697
 40
0.0083674083830166
 40
0.0107649873677127
 40
0.0132120483218614
 40
0.0156606402723928
 40
0.0156606402723928
 40
0.0156606402723928
 40
0.0156606402723928
 10
2.201039875923811
 20
2.936835876540612
 30
0.0
 10
2.201662440004014
 20
2.936836634825965
 30
0.0
 10
2.202963406243
 20
2.936960154259281
 30
0.0
 10
2.204913886240149
 20
2.937541740450512
 30
0.0
 10
2.206830611347044
 20
2.938588358662627
 30
0.0
 10
2.208562137755208
 20
2.940118332095778
 30
0.0
 10
2.209943723540732
 20
2.942087339204391
 30
0.0
 10
2.210830150156596
 20
2.944376169125035
 30
0.0
 10
2.211034044314246
 20
2.946014842244466
 30
0.0
 10
2.211035038339275
 20
2.94683103895602
 30
0.0
 11
2.201039875923811
 21
2.936835876540612
 31
0.0
 11
2.202899189967752
 21
2.937012598827323
 31
0.0
 11
2.204840998253871
 21
2.937591493642457
 31
0.0
 11
2.206747125522326
 21
2.938632466443323
 31
0.0
 11
2.208471808341471
 21
2.94015654959935
 31
0.0
 11
2.20984897570122
 21
2.942119148654455
 31
0.0
 11
2.210732243141762
 21
2.944401241102582
 31
0.0
 11
2.211035038339275
 21
2.94683103895602
 31
0.0
  0
SPLINE
  5
3E
330
2
100
AcDbEntity
  8
GAIKEI
  6
Continuous
 62
     1
100
AcDbSpline
210
0.0
220
0.0
230
1.0
 70
     8
 71
     3
 72
    14
 73
    10
 74
     8
 42
0.0000000001
 43
0.0000000001
 44
0.0000000001
 12
0.001218002812416
 22
-0.9999992582342994
 32
0.0
 13
0.9999992583918968
 23
-0.001217873415448
 33
0.0
 40
0.0
 40
0.0
 40
0.0
 40
0.0
 40
0.0018676934856287
 40
0.0038939558005146
 40
0.0060658087747122
 40
0.0083674082709237
 40
0.0107649873654461
 40
0.0132120483246767
 40
0.0156606402840115
 40
0.0156606402840115
 40
0.0156606402840115
 40
0.0156606402840115
 10
2.103434817898289
 20
2.94683103895602
 30
0.0
 10
2.103435576183599
 20
2.946208474922599
 30
0.0
 10
2.103559095634977
 20
2.944907508702641
 30
0.0
 10
2.104140681764647
 20
2.942957028743052
 30
0.0
 10
2.105187299760913
 20
2.941040303476739
 30
0.0
 10
2.106717273508664
 20
2.939308777315943
 30
0.0
 10
2.108686280503249
 20
2.937927191363002
 30
0.0
 10
2.11097511047636
 20
2.937040764702373
 30
0.0
 10
2.112613783599272
 20
2.936836870565628
 30
0.0
 10
2.113429980313753
 20
2.936835876540612
 30
0.0
 11
2.103434817898289
 21
2.94683103895602
 31
0.0
 11
2.103611540175052
 21
2.944971725052141
 31
0.0
 11
2.104190434950112
 21
2.943029916666091
 31
0.0
 11
2.105231407620976
 21
2.94112378937757
 31
0.0
 11
2.106755490907062
 21
2.939399106688483
 31
0.0
 11
2.108718090012132
 21
2.938021939208738
 31
0.0
 11
2.111000182450197
 21
2.937138671728121
 31
0.0
 11
2.113429980313753
 21
2.936835876540612
 31
0.0
  0
SPLINE
  5
3F
330
2
100
AcDbEntity
  8
GAIKEI
  6
Continuous
 62
     1
100
AcDbSpline
210
0.0
220
0.0
230
1.0
 70
     8
 71
     3
 72
     9
 73
     5
 74
     3
 42
0.0000000001
 43
0.0000000001
 44
0.0000000001
 12
0.6977784587812689
 22
0.7163136341441766
 32
0.0
 13
0.999999999999998
 23
-0.0000000616438413
 33
0.0
 40
0.0
 40
0.0
 40
0.0
 40
0.0
 40
0.0763950260750383
 40
0.1508855877486175
 40
0.1508855877486175
 40
0.1508855877486175
 40
0.1508855877486175
 10
30.00479982600666
 20
14.74022228635863
 30
0.0
 10
30.02256876052439
 20
14.75846321927807
 30
0.0
 10
30.06543898210609
 20
14.78763174154432
 30
0.0
 10
30.116200772535
 20
14.79782481216688
 30
0.0
 10
30.14103095975952
 20
14.79782481063625
 30
0.0
 11
30.00479982600666
 21
14.74022228635863
 31
0.0
 11
30.06800309606763
 21
14.78313553212968
 31
0.0
 11
30.14103095975952
 21
14.79782481063625
 31
0.0
  0
SPLINE
  5
40
330
2
100
AcDbEntity
  8
GAIKEI
  6
Continuous
 62
     1
100
AcDbSpline
210
0.0
220
0.0
230
1.0
 70
     8
 71
     3
 72
    11
 73
     7
 74
     5
 42
0.0000000001
 43
0.0000000001
 44
0.0000000001
 12
-0.6910153121972773
 22
0.7228401194655009
 32
0.0
 13
0.6977784626363393
 23
0.7163136303888591
 33
0.0
 40
0.0
 40
0.0
 40
0.0
 40
0.0
 40
0.0724381571189445
 40
0.1432661781846292
 40
0.214930730448827
 40
0.2897465057261699
 40
0.2897465057261699
 40
0.2897465057261699
 40
0.2897465057261699
 10
30.0036892194575
 20
14.47649037939931
 30
0.0
 10
29.98700392753865
 20
14.49394411478121
 30
0.0
 10
29.96035208000537
 20
14.53525392328481
 30
0.0
 10
29.94652548012636
 20
14.60720716793432
 30
0.0
 10
29.95997240459687
 20
14.6801025758501
 30
0.0
 10
29.98739821378867
 20
14.72235843315886
 30
0.0
 10
30.00479982600666
 20
14.74022228635863
 30
0.0
 11
30.0036892194575
 21
14.47649037939931
 31
0.0
 11
29.96450993902897
 21
14.53741878485925
 31
0.0
 11
29.95102265570989
 21
14.60695080451029
 31
0.0
 11
29.96417244733738
 21
14.67739859391054
 31
0.0
 11
30.00479982600666
 21
14.74022228635863
 31
0.0
  0
SPLINE
  5
41
330
2
100
AcDbEntity
  8
GAIKEI
  6
Continuous
 62
     1
100
AcDbSpline
210
0.0
220
0.0
230
1.0
 70
     8
 71
     3
 72
     9
 73
     5
 74
     3
 42
0.0000000001
 43
0.0000000001
 44
0.0000000001
 12
-0.9968044670587319
 22
0.0798802506991387
 32
0.0
 13
-0.6910153109804766
 23
0.722840120628729
 33
0.0
 40
0.0
 40
0.0
 40
0.0
 40
0.0
 40
0.0617031397594488
 40
0.1377256669661733
 40
0.1377256669661733
 40
0.1377256669661733
 40
0.1377256669661733
 10
30.12605752167406
 20
14.41837852933679
 30
0.0
 10
30.10555553322614
 20
14.42002148342777
 30
0.0
 10
30.06011479511208
 20
14.43108766145781
 30
0.0
 10
30.02120012955059
 20
14.45817300182042
 30
0.0
 10
30.0036892194575
 20
14.47649037939931
 30
0.0
 11
30.12605752167406
 21
14.41837852933679
 31
0.0
 11
30.06614918062121
 21
14.43315242958249
 31
0.0
 11
30.0036892194575
 21
14.47649037939931
 31
0.0
  0
SPLINE
  5
42
330
2
100
AcDbEntity
  8
GAIKEI
  6
Continuous
 62
     1
100
AcDbSpline
210
0.0
220
0.0
230
1.0
 70
     8
 71
     3
 72
     8
 73
     4
 74
     2
 42
0.0000000001
 43
0.0000000001
 44
0.0000000001
 12
-0.9999999999999676
 22
-0.0000002547541845
 32
0.0
 13
-0.9968044691905543
 23
0.0798802240966905
 33
0.0
 40
0.0
 40
0.0
 40
0.0
 40
0.0
 40
0.0149855110944372
 40
0.0149855110944372
 40
0.0149855110944372
 40
0.0149855110944372
 10
30.14103095975952
 20
14.41777711877626
 30
0.0
 10
30.13603578939471
 20
14.4177771175037
 30
0.0
 10
30.13103672981806
 20
14.41797951400863
 30
0.0
 10
30.12605752167406
 20
14.41837852933679
 30
0.0
 11
30.14103095975952
 21
14.41777711877626
 31
0.0
 11
30.12605752167406
 21
14.41837852933679
 31
0.0
  0
SPLINE
  5
43
330
2
100
AcDbEntity
  8
GAIKEI
  6
Continuous
 62
     1
100
AcDbSpline
210
0.0
220
0.0
230
1.0
 70
     8
 71
     3
 72
     9
 73
     5
 74
     3
 42
0.0000000001
 43
0.0000000001
 44
0.0000000001
 12
-0.6977784587812689
 22
-0.7163136341441766
 32
0.0
 13
-0.999999999999998
 23
0.0000000616438413
 33
0.0
 40
0.0
 40
0.0
 40
0.0
 40
0.0
 40
0.0763950260750383
 40
0.1508855877486175
 40
0.1508855877486175
 40
0.1508855877486175
 40
0.1508855877486175
 10
30.27726209351238
 20
14.47537964305388
 30
0.0
 10
30.25949315899465
 20
14.45713871013444
 30
0.0
 10
30.21662293741292
 20
14.42797018786811
 30
0.0
 10
30.16586114698404
 20
14.41777711724563
 30
0.0
 10
30.14103095975952
 20
14.41777711877626
 30
0.0
 11
30.27726209351238
 21
14.47537964305388
 31
0.0
 11
30.21405882345141
 21
14.43246639728284
 31
0.0
 11
30.14103095975952
 21
14.41777711877626
 31
0.0
  0
SPLINE
  5
44
330
2
100
AcDbEntity
  8
GAIKEI
  6
Continuous
 62
     1
100
AcDbSpline
210
0.0
220
0.0
230
1.0
 70
     8
 71
     3
 72
    11
 73
     7
 74
     5
 42
0.0000000001
 43
0.0000000001
 44
0.0000000001
 12
0.6910153124435041
 22
-0.7228401192301149
 32
0.0
 13
-0.6977784626363393
 23
-0.7163136303888591
 33
0.0
 40
0.0
 40
0.0
 40
0.0
 40
0.0
 40
0.0724381572072323
 40
0.1432661782082843
 40
0.2149307304523554
 40
0.2897465058111416
 40
0.2897465058111416
 40
0.2897465058111416
 40
0.2897465058111416
 10
30.27837270006159
 20
14.73911155001315
 30
0.0
 10
30.29505799200672
 20
14.72165781461567
 30
0.0
 10
30.32170983959529
 20
14.68034800611667
 30
0.0
 10
30.33553643937205
 20
14.60839476147635
 30
0.0
 10
30.32208951515435
 20
14.53549935349181
 30
0.0
 10
30.29466370574932
 20
14.49324349627309
 30
0.0
 10
30.27726209351238
 20
14.47537964305388
 30
0.0
 11
30.27837270006159
 21
14.73911155001315
 31
0.0
 11
30.3175519805601
 21
14.67818314449323
 31
0.0
 11
30.33103926384922
 21
14.60865112490222
 31
0.0
 11
30.31788947233173
 21
14.53820333550192
 31
0.0
 11
30.27726209351238
 21
14.47537964305388
 31
0.0
  0
SPLINE
  5
45
330
2
100
AcDbEntity
  8
GAIKEI
  6
Continuous
 62
     1
100
AcDbSpline
210
0.0
220
0.0
230
1.0
 70
     8
 71
     3
 72
     9
 73
     5
 74
     3
 42
0.0000000001
 43
0.0000000001
 44
0.0000000001
 12
0.9968044670587319
 22
-0.0798802506991387
 32
0.0
 13
0.6910153109804766
 23
-0.722840120628729
 33
0.0
 40
0.0
 40
0.0
 40
0.0
 40
0.0
 40
0.0617031397593936
 40
0.1377256669661506
 40
0.1377256669661506
 40
0.1377256669661506
 40
0.1377256669661506
 10
30.1560043978451
 20
14.79722340007572
 30
0.0
 10
30.176506386293
 20
14.79558044598477
 30
0.0
 10
30.22194712440705
 20
14.78451426795473
 30
0.0
 10
30.2608617899685
 20
14.75742892759203
 30
0.0
 10
30.27837270006159
 20
14.73911155001315
 30
0.0
 11
30.1560043978451
 21
14.79722340007572
 31
0.0
 11
30.21591273889788
 21
14.78244949983002
 31
0.0
 11
30.27837270006159
 21
14.73911155001315
 31
0.0
  0
SPLINE
  5
46
330
2
100
AcDbEntity
  8
GAIKEI
  6
Continuous
 62
     1
100
AcDbSpline
210
0.0
220
0.0
230
1.0
 70
     8
 71
     3
 72
     8
 73
     4
 74
     2
 42
0.0000000001
 43
0.0000000001
 44
0.0000000001
 12
0.9999999999999676
 22
0.0000002547541845
 32
0.0
 13
0.9968044688591275
 23
-0.0798802282324791
 33
0.0
 40
0.0
 40
0.0
 40
0.0
 40
0.0
 40
0.0149855110945508
 40
0.0149855110945508
 40
0.0149855110945508
 40
0.0149855110945508
 10
30.14103095975952
 20
14.79782481063625
 30
0.0
 10
30.14602613012437
 20
14.79782481190881
 30
0.0
 10
30.1510251897027
 20
14.79762241542451
 30
0.0
 10
30.1560043978451
 20
14.79722340007572
 30
0.0
 11
30.14103095975952
 21
14.79782481063625
 31
0.0
 11
30.1560043978451
 21
14.79722340007572
 31
0.0
  0
SPLINE
  5
47
330
2
100
AcDbEntity
  8
GAIKEI
  6
Continuous
 62
     1
100
AcDbSpline
210
0.0
220
0.0
230
1.0
 70
     8
 71
     3
 72
     9
 73
     5
 74
     3
 42
0.0000000001
 43
0.0000000001
 44
0.0000000001
 12
0.6977784587812689
 22
0.7163136341441766
 32
0.0
 13
0.999999999999998
 23
-0.0000000612461391
 33
0.0
 40
0.0
 40
0.0
 40
0.0
 40
0.0
 40
0.0763950260750383
 40
0.1508855877505903
 40
0.1508855877505903
 40
0.1508855877505903
 40
0.1508855877505903
 10
30.00479982600666
 20
21.54107572027863
 30
0.0
 10
30.02256876052439
 20
21.55931665319807
 30
0.0
 10
30.06543898210768
 20
21.5884851754648
 30
0.0
 10
30.11620077253434
 20
21.59867824608702
 30
0.0
 10
30.14103095975952
 20
21.59867824456626
 30
0.0
 11
30.00479982600666
 21
21.54107572027863
 31
0.0
 11
30.06800309606763
 21
21.58398896604968
 31
0.0
 11
30.14103095975952
 21
21.59867824456626
 31
0.0
  0
SPLINE
  5
48
330
2
100
AcDbEntity
  8
GAIKEI
  6
Continuous
 62
     1
100
AcDbSpline
210
0.0
220
0.0
230
1.0
 70
     8
 71
     3
 72
    11
 73
     7
 74
     5
 42
0.0000000001
 43
0.0000000001
 44
0.0000000001
 12
-0.6910153070565581
 22
0.7228401243798873
 32
0.0
 13
0.6977784626363393
 23
0.7163136303888591
 33
0.0
 40
0.0
 40
0.0
 40
0.0
 40
0.0
 40
0.0724381571693857
 40
0.1432661781663207
 40
0.2149307304305743
 40
0.2897465057079173
 40
0.2897465057079173
 40
0.2897465057079173
 40
0.2897465057079173
 10
30.0036892194575
 20
21.27734381332931
 30
0.0
 10
29.98700392765116
 20
21.29479754884204
 30
0.0
 10
29.96035207998128
 20
21.33610735719293
 30
0.0
 10
29.9465254801344
 20
21.40806060188834
 30
0.0
 10
29.95997240459573
 20
21.48095600976674
 30
0.0
 10
29.98739821378867
 20
21.52321186707886
 30
0.0
 10
30.00479982600666
 20
21.54107572027863
 30
0.0
 11
30.0036892194575
 21
21.27734381332931
 31
0.0
 11
29.96450993902897
 21
21.33827221884923
 31
0.0
 11
29.95102265570989
 21
21.40780423843023
 31
0.0
 11
29.96417244733738
 21
21.47825202783053
 31
0.0
 11
30.00479982600666
 21
21.54107572027863
 31
0.0
  0
SPLINE
  5
49
330
2
100
AcDbEntity
  8
GAIKEI
  6
Continuous
 62
     1
100
AcDbSpline
210
0.0
220
0.0
230
1.0
 70
     8
 71
     3
 72
     9
 73
     5
 74
     3
 42
0.0000000001
 43
0.0000000001
 44
0.0000000001
 12
-0.9968044670183592
 22
0.0798802512029401
 32
0.0
 13
-0.6910153109804766
 23
0.722840120628729
 33
0.0
 40
0.0
 40
0.0
 40
0.0
 40
0.0
 40
0.0617031397618442
 40
0.1377256669685687
 40
0.1377256669685687
 40
0.1377256669685687
 40
0.1377256669685687
 10
30.12605752167406
 20
21.21923196325679
 30
0.0
 10
30.10555553322617
 20
21.22087491735817
 30
0.0
 10
30.06011479511369
 20
21.23194109538681
 30
0.0
 10
30.02120012955059
 20
21.25902643575043
 30
0.0
 10
30.0036892194575
 20
21.27734381332931
 30
0.0
 11
30.12605752167406
 21
21.21923196325679
 31
0.0
 11
30.06614918062121
 21
21.23400586351249
 31
0.0
 11
30.0036892194575
 21
21.27734381332931
 31
0.0
  0
SPLINE
  5
4A
330
2
100
AcDbEntity
  8
GAIKEI
  6
Continuous
 62
     1
100
AcDbSpline
210
0.0
220
0.0
230
1.0
 70
     8
 71
     3
 72
     8
 73
     4
 74
     2
 42
0.0000000001
 43
0.0000000001
 44
0.0000000001
 12
-0.9999999999999792
 22
-0.000000204605723
 32
0.0
 13
-0.9968044691905543
 23
0.0798802240966905
 33
0.0
 40
0.0
 40
0.0
 40
0.0
 40
0.0
 40
0.0149855110944372
 40
0.0149855110944372
 40
0.0149855110944372
 40
0.0149855110944372
 10
30.14103095975952
 20
21.21863055269626
 30
0.0
 10
30.13603578939471
 20
21.21863055167421
 30
0.0
 10
30.13103672981806
 20
21.21883294792863
 30
0.0
 10
30.12605752167406
 20
21.21923196325679
 30
0.0
 11
30.14103095975952
 21
21.21863055269626
 31
0.0
 11
30.12605752167406
 21
21.21923196325679
 31
0.0
  0
SPLINE
  5
4B
330
2
100
AcDbEntity
  8
GAIKEI
  6
Continuous
 62
     1
100
AcDbSpline
210
0.0
220
0.0
230
1.0
 70
     8
 71
     3
 72
     9
 73
     5
 74
     3
 42
0.0000000001
 43
0.0000000001
 44
0.0000000001
 12
-0.6977784587812689
 22
-0.7163136341441766
 32
0.0
 13
-0.999999999999998
 23
0.0000000616438413
 33
0.0
 40
0.0
 40
0.0
 40
0.0
 40
0.0
 40
0.0763950260750383
 40
0.1508855877486062
 40
0.1508855877486062
 40
0.1508855877486062
 40
0.1508855877486062
 10
30.27726209351238
 20
21.27623307697382
 30
0.0
 10
30.25949315899465
 20
21.25799214405438
 30
0.0
 10
30.21662293741294
 20
21.22882362178811
 30
0.0
 10
30.16586114698404
 20
21.21863055116563
 30
0.0
 10
30.14103095975952
 20
21.21863055269626
 30
0.0
 11
30.27726209351238
 21
21.27623307697382
 31
0.0
 11
30.21405882345141
 21
21.23331983120278
 31
0.0
 11
30.14103095975952
 21
21.21863055269626
 31
0.0
  0
SPLINE
  5
4C
330
2
100
AcDbEntity
  8
GAIKEI
  6
Continuous
 62
     1
100
AcDbSpline
210
0.0
220
0.0
230
1.0
 70
     8
 71
     3
 72
    11
 73
     7
 74
     5
 42
0.0000000001
 43
0.0000000001
 44
0.0000000001
 12
0.6910153177898521
 22
-0.7228401141191529
 32
0.0
 13
-0.6977784626363393
 23
-0.7163136303888591
 33
0.0
 40
0.0
 40
0.0
 40
0.0
 40
0.0
 40
0.0724381571567434
 40
0.1432661781774939
 40
0.2149307303133846
 40
0.2897465057981836
 40
0.2897465057981836
 40
0.2897465057981836
 40
0.2897465057981836
 10
30.27837270006159
 20
21.53996498393315
 30
0.0
 10
30.29505799212419
 20
21.52251124867124
 30
0.0
 10
30.3217098395522
 20
21.48120144002886
 30
0.0
 10
30.33553643939655
 20
21.40924819548442
 30
0.0
 10
30.32208951508593
 20
21.33635278750575
 30
0.0
 10
30.29466370577862
 20
21.2940969302231
 30
0.0
 10
30.27726209351238
 20
21.27623307697382
 30
0.0
 11
30.27837270006159
 21
21.53996498393315
 31
0.0
 11
30.3175519805601
 21
21.47903657847326
 31
0.0
 11
30.33103926384922
 21
21.40950455886218
 31
0.0
 11
30.31788947233173
 21
21.33905676957192
 31
0.0
 11
30.27726209351238
 21
21.27623307697382
 31
0.0
  0
SPLINE
  5
4D
330
2
100
AcDbEntity
  8
GAIKEI
  6
Continuous
 62
     1
100
AcDbSpline
210
0.0
220
0.0
230
1.0
 70
     8
 71
     3
 72
     9
 73
     5
 74
     3
 42
0.0000000001
 43
0.0000000001
 44
0.0000000001
 12
0.9968044670587319
 22
-0.0798802506991387
 32
0.0
 13
0.6910153109804766
 23
-0.722840120628729
 33
0.0
 40
0.0
 40
0.0
 40
0.0
 40
0.0
 40
0.06170313975938
 40
0.1377256669661369
 40
0.1377256669661369
 40
0.1377256669661369
 40
0.1377256669661369
 10
30.1560043978451
 20
21.59807683399566
 30
0.0
 10
30.176506386293
 20
21.59643387990471
 30
0.0
 10
30.22194712440705
 20
21.58536770187479
 30
0.0
 10
30.2608617899685
 20
21.55828236151203
 30
0.0
 10
30.27837270006159
 20
21.53996498393315
 30
0.0
 11
30.1560043978451
 21
21.59807683399566
 31
0.0
 11
30.21591273889788
 21
21.58330293375002
 31
0.0
 11
30.27837270006159
 21
21.53996498393315
 31
0.0
  0
SPLINE
  5
4E
330
2
100
AcDbEntity
  8
GAIKEI
  6
Continuous
 62
     1
100
AcDbSpline
210
0.0
220
0.0
230
1.0
 70
     8
 71
     3
 72
     8
 73
     4
 74
     2
 42
0.0000000001
 43
0.0000000001
 44
0.0000000001
 12
0.9999999999999676
 22
0.0000002547541845
 32
0.0
 13
0.9968044687000586
 23
-0.0798802302174571
 33
0.0
 40
0.0
 40
0.0
 40
0.0
 40
0.0
 40
0.0149855110949546
 40
0.0149855110949546
 40
0.0149855110949546
 40
0.0149855110949546
 10
30.14103095975952
 20
21.59867824456626
 30
0.0
 10
30.1460261301245
 20
21.59867824583881
 30
0.0
 10
30.15102518970336
 20
21.5984758493544
 30
0.0
 10
30.1560043978451
 20
21.59807683399566
 30
0.0
 11
30.14103095975952
 21
21.59867824456626
 31
0.0
 11
30.1560043978451
 21
21.59807683399566
 31
0.0
  0
SPLINE
  5
4F
330
2
100
AcDbEntity
  8
GAIKEI
  6
Continuous
 62
     1
100
AcDbSpline
210
0.0
220
0.0
230
1.0
 70
     8
 71
     3
 72
     9
 73
     5
 74
     3
 42
0.0000000001
 43
0.0000000001
 44
0.0000000001
 12
-0.6977784587812689
 22
-0.7163136341441766
 32
0.0
 13
-0.999999999999998
 23
0.0000000616438413
 33
0.0
 40
0.0
 40
0.0
 40
0.0
 40
0.0
 40
0.0763950260750383
 40
0.1508855877486062
 40
0.1508855877486062
 40
0.1508855877486062
 40
0.1508855877486062
 10
30.27726209351238
 20
29.47726221799383
 30
0.0
 10
30.25949315899465
 20
29.45902128507439
 30
0.0
 10
30.21662293741294
 20
29.42985276280808
 30
0.0
 10
30.16586114698404
 20
29.41965969218563
 30
0.0
 10
30.14103095975952
 20
29.41965969371626
 30
0.0
 11
30.27726209351238
 21
29.47726221799383
 31
0.0
 11
30.21405882345141
 21
29.43434897222278
 31
0.0
 11
30.14103095975952
 21
29.41965969371626
 31
0.0
  0
SPLINE
  5
50
330
2
100
AcDbEntity
  8
GAIKEI
  6
Continuous
 62
     1
100
AcDbSpline
210
0.0
220
0.0
230
1.0
 70
     8
 71
     3
 72
    11
 73
     7
 74
     5
 42
0.0000000001
 43
0.0000000001
 44
0.0000000001
 12
0.6910153177898521
 22
-0.7228401141191529
 32
0.0
 13
-0.6977784626363393
 23
-0.7163136303888591
 33
0.0
 40
0.0
 40
0.0
 40
0.0
 40
0.0
 40
0.0724381571567912
 40
0.1432661781774859
 40
0.2149307303232671
 40
0.2897465057996652
 40
0.2897465057996652
 40
0.2897465057996652
 40
0.2897465057996652
 10
30.27837270006159
 20
29.7409941249532
 30
0.0
 10
30.2950579921242
 20
29.72354038969127
 30
0.0
 10
30.32170983955265
 20
29.68223058104872
 30
0.0
 10
30.33553643939558
 20
29.61027733650164
 30
0.0
 10
30.32208951509087
 20
29.53738192852
 30
0.0
 10
30.29466370577667
 20
29.49512607124112
 30
0.0
 10
30.27726209351238
 20
29.47726221799383
 30
0.0
 11
30.27837270006159
 21
29.7409941249532
 31
0.0
 11
30.3175519805601
 21
29.68006571949326
 31
0.0
 11
30.33103926384922
 21
29.61053369988224
 31
0.0
 11
30.31788947233173
 21
29.54008591058192
 31
0.0
 11
30.27726209351238
 21
29.47726221799383
 31
0.0
  0
SPLINE
  5
51
330
2
100
AcDbEntity
  8
GAIKEI
  6
Continuous
 62
     1
100
AcDbSpline
210
0.0
220
0.0
230
1.0
 70
     8
 71
     3
 72
     9
 73
     5
 74
     3
 42
0.0000000001
 43
0.0000000001
 44
0.0000000001
 12
0.9968044670587319
 22
-0.0798802506991387
 32
0.0
 13
0.6910153109804766
 23
-0.722840120628729
 33
0.0
 40
0.0
 40
0.0
 40
0.0
 40
0.0
 40
0.0617031397593936
 40
0.1377256669660857
 40
0.1377256669660857
 40
0.1377256669660857
 40
0.1377256669660857
 10
30.1560043978451
 20
29.79910597501567
 30
0.0
 10
30.176506386293
 20
29.79746302092471
 30
0.0
 10
30.22194712440701
 20
29.78639684289465
 30
0.0
 10
30.26086178996852
 20
29.75931150253206
 30
0.0
 10
30.27837270006159
 20
29.7409941249532
 30
0.0
 11
30.1560043978451
 21
29.79910597501567
 31
0.0
 11
30.21591273889788
 21
29.78433207476996
 31
0.0
 11
30.27837270006159
 21
29.7409941249532
 31
0.0
  0
SPLINE
  5
52
330
2
100
AcDbEntity
  8
GAIKEI
  6
Continuous
 62
     1
100
AcDbSpline
210
0.0
220
0.0
230
1.0
 70
     8
 71
     3
 72
     8
 73
     4
 74
     2
 42
0.0000000001
 43
0.0000000001
 44
0.0000000001
 12
0.9999999999999676
 22
0.0000002547541845
 32
0.0
 13
0.9968044688591275
 23
-0.0798802282324791
 33
0.0
 40
0.0
 40
0.0
 40
0.0
 40
0.0
 40
0.0149855110945531
 40
0.0149855110945531
 40
0.0149855110945531
 40
0.0149855110945531
 10
30.14103095975952
 20
29.79970738557625
 30
0.0
 10
30.14602613012437
 20
29.79970738684881
 30
0.0
 10
30.1510251897027
 20
29.79950499036446
 30
0.0
 10
30.1560043978451
 20
29.79910597501567
 30
0.0
 11
30.14103095975952
 21
29.79970738557625
 31
0.0
 11
30.1560043978451
 21
29.79910597501567
 31
0.0
  0
SPLINE
  5
53
330
2
100
AcDbEntity
  8
GAIKEI
  6
Continuous
 62
     1
100
AcDbSpline
210
0.0
220
0.0
230
1.0
 70
     8
 71
     3
 72
     9
 73
     5
 74
     3
 42
0.0000000001
 43
0.0000000001
 44
0.0000000001
 12
0.6977784587812689
 22
0.7163136341441766
 32
0.0
 13
0.999999999999998
 23
-0.0000000616438413
 33
0.0
 40
0.0
 40
0.0
 40
0.0
 40
0.0
 40
0.0763950260750383
 40
0.1508855877486175
 40
0.1508855877486175
 40
0.1508855877486175
 40
0.1508855877486175
 10
30.00479982600666
 20
29.74210486129863
 30
0.0
 10
30.02256876052439
 20
29.76034579421807
 30
0.0
 10
30.06543898210609
 20
29.78951431648437
 30
0.0
 10
30.116200772535
 20
29.79970738710688
 30
0.0
 10
30.14103095975952
 20
29.79970738557625
 30
0.0
 11
30.00479982600666
 21
29.74210486129863
 31
0.0
 11
30.06800309606763
 21
29.78501810706968
 31
0.0
 11
30.14103095975952
 21
29.79970738557625
 31
0.0
  0
SPLINE
  5
54
330
2
100
AcDbEntity
  8
GAIKEI
  6
Continuous
 62
     1
100
AcDbSpline
210
0.0
220
0.0
230
1.0
 70
     8
 71
     3
 72
    11
 73
     7
 74
     5
 42
0.0000000001
 43
0.0000000001
 44
0.0000000001
 12
-0.6910153068509294
 22
0.7228401245764628
 32
0.0
 13
0.6977784626363393
 23
0.7163136303888591
 33
0.0
 40
0.0
 40
0.0
 40
0.0
 40
0.0
 40
0.0724381571693857
 40
0.1432661781761979
 40
0.2149307304404515
 40
0.2897465057177468
 40
0.2897465057177468
 40
0.2897465057177468
 40
0.2897465057177468
 10
30.0036892194575
 20
29.47837295433931
 30
0.0
 10
29.98700392765613
 20
29.49582668985679
 30
0.0
 10
29.96035207997682
 20
29.53713649820353
 30
0.0
 10
29.94652548013553
 20
29.60908974290589
 30
0.0
 10
29.95997240459519
 20
29.6819851507866
 30
0.0
 10
29.98739821378868
 20
29.72424100809888
 30
0.0
 10
30.00479982600666
 20
29.74210486129863
 30
0.0
 11
30.0036892194575
 21
29.47837295433931
 31
0.0
 11
29.96450993902897
 21
29.53930135985923
 31
0.0
 11
29.95102265570989
 21
29.60883337945029
 31
0.0
 11
29.96417244733738
 21
29.6792811688506
 31
0.0
 11
30.00479982600666
 21
29.74210486129863
 31
0.0
  0
SPLINE
  5
55
330
2
100
AcDbEntity
  8
GAIKEI
  6
Continuous
 62
     1
100
AcDbSpline
210
0.0
220
0.0
230
1.0
 70
     8
 71
     3
 72
     9
 73
     5
 74
     3
 42
0.0000000001
 43
0.0000000001
 44
0.0000000001
 12
-0.9968044670587319
 22
0.0798802506991387
 32
0.0
 13
-0.6910153109804766
 23
0.722840120628729
 33
0.0
 40
0.0
 40
0.0
 40
0.0
 40
0.0
 40
0.0617031397594488
 40
0.1377256669661733
 40
0.1377256669661733
 40
0.1377256669661733
 40
0.1377256669661733
 10
30.12605752167406
 20
29.42026110427679
 30
0.0
 10
30.10555553322614
 20
29.42190405836777
 30
0.0
 10
30.06011479511208
 20
29.43297023639775
 30
0.0
 10
30.02120012955059
 20
29.46005557676043
 30
0.0
 10
30.0036892194575
 20
29.47837295433931
 30
0.0
 11
30.12605752167406
 21
29.42026110427679
 31
0.0
 11
30.06614918062121
 21
29.43503500452249
 31
0.0
 11
30.0036892194575
 21
29.47837295433931
 31
0.0
  0
SPLINE
  5
56
330
2
100
AcDbEntity
  8
GAIKEI
  6
Continuous
 62
     1
100
AcDbSpline
210
0.0
220
0.0
230
1.0
 70
     8
 71
     3
 72
     8
 73
     4
 74
     2
 42
0.0000000001
 43
0.0000000001
 44
0.0000000001
 12
-0.9999999999999676
 22
-0.0000002547541845
 32
0.0
 13
-0.9968044691905543
 23
0.0798802240966905
 33
0.0
 40
0.0
 40
0.0
 40
0.0
 40
0.0
 40
0.0149855110944372
 40
0.0149855110944372
 40
0.0149855110944372
 40
0.0149855110944372
 10
30.14103095975952
 20
29.41965969371626
 30
0.0
 10
30.13603578939471
 20
29.4196596924437
 30
0.0
 10
30.13103672981806
 20
29.41986208894864
 30
0.0
 10
30.12605752167406
 20
29.42026110427679
 30
0.0
 11
30.14103095975952
 21
29.41965969371626
 31
0.0
 11
30.12605752167406
 21
29.42026110427679
 31
0.0
  0
SPLINE
  5
57
330
2
100
AcDbEntity
  8
GAIKEI
  6
Continuous
 62
     1
100
AcDbSpline
210
0.0
220
0.0
230
1.0
 70
     8
 71
     3
 72
     9
 73
     5
 74
     3
 42
0.0000000001
 43
0.0000000001
 44
0.0000000001
 12
-0.6977784587812689
 22
-0.7163136341441766
 32
0.0
 13
-0.999999999999998
 23
0.0000000616438413
 33
0.0
 40
0.0
 40
0.0
 40
0.0
 40
0.0
 40
0.0763950260750383
 40
0.1508855877486175
 40
0.1508855877486175
 40
0.1508855877486175
 40
0.1508855877486175
 10
30.27726209351238
 20
6.276495502033867
 30
0.0
 10
30.25949315899465
 20
6.258254569114427
 30
0.0
 10
30.21662293741292
 20
6.229086046848124
 30
0.0
 10
30.16586114698404
 20
6.218892976225617
 30
0.0
 10
30.14103095975952
 20
6.21889297775624
 30
0.0
 11
30.27726209351238
 21
6.276495502033867
 31
0.0
 11
30.21405882345141
 21
6.23358225626282
 31
0.0
 11
30.14103095975952
 21
6.21889297775624
 31
0.0
  0
SPLINE
  5
58
330
2
100
AcDbEntity
  8
GAIKEI
  6
Continuous
 62
     1
100
AcDbSpline
210
0.0
220
0.0
230
1.0
 70
     8
 71
     3
 72
    11
 73
     7
 74
     5
 42
0.0000000001
 43
0.0000000001
 44
0.0000000001
 12
0.6910153124435041
 22
-0.7228401192301149
 32
0.0
 13
-0.6977784626363393
 23
-0.7163136303888591
 33
0.0
 40
0.0
 40
0.0
 40
0.0
 40
0.0
 40
0.0724381572072323
 40
0.1432661782082843
 40
0.2149307304523554
 40
0.2897465058111416
 40
0.2897465058111416
 40
0.2897465058111416
 40
0.2897465058111416
 10
30.27837270006159
 20
6.540227408993132
 30
0.0
 10
30.29505799200672
 20
6.522773673595651
 30
0.0
 10
30.32170983959529
 20
6.481463865096714
 30
0.0
 10
30.33553643937205
 20
6.409510620456302
 30
0.0
 10
30.32208951515435
 20
6.336615212471826
 30
0.0
 10
30.29466370574932
 20
6.294359355253078
 30
0.0
 10
30.27726209351238
 20
6.276495502033867
 30
0.0
 11
30.27837270006159
 21
6.540227408993132
 31
0.0
 11
30.3175519805601
 21
6.479299003473215
 31
0.0
 11
30.33103926384922
 21
6.409766983882207
 31
0.0
 11
30.31788947233173
 21
6.339319194481902
 31
0.0
 11
30.27726209351238
 21
6.276495502033867
 31
0.0
  0
SPLINE
  5
59
330
2
100
AcDbEntity
  8
GAIKEI
  6
Continuous
 62
     1
100
AcDbSpline
210
0.0
220
0.0
230
1.0
 70
     8
 71
     3
 72
     9
 73
     5
 74
     3
 42
0.0000000001
 43
0.0000000001
 44
0.0000000001
 12
0.9968044670587319
 22
-0.0798802506991387
 32
0.0
 13
0.6910153109804766
 23
-0.722840120628729
 33
0.0
 40
0.0
 40
0.0
 40
0.0
 40
0.0
 40
0.0617031397593936
 40
0.1377256669661506
 40
0.1377256669661506
 40
0.1377256669661506
 40
0.1377256669661506
 10
30.1560043978451
 20
6.598339259055705
 30
0.0
 10
30.176506386293
 20
6.596696304964751
 30
0.0
 10
30.22194712440705
 20
6.585630126934717
 30
0.0
 10
30.2608617899685
 20
6.558544786572014
 30
0.0
 10
30.27837270006159
 20
6.540227408993132
 30
0.0
 11
30.1560043978451
 21
6.598339259055705
 31
0.0
 11
30.21591273889788
 21
6.583565358810005
 31
0.0
 11
30.27837270006159
 21
6.540227408993132
 31
0.0
  0
SPLINE
  5
5A
330
2
100
AcDbEntity
  8
GAIKEI
  6
Continuous
 62
     1
100
AcDbSpline
210
0.0
220
0.0
230
1.0
 70
     8
 71
     3
 72
     8
 73
     4
 74
     2
 42
0.0000000001
 43
0.0000000001
 44
0.0000000001
 12
0.9999999999999676
 22
0.0000002547541845
 32
0.0
 13
0.9968044687000586
 23
-0.0798802302174571
 33
0.0
 40
0.0
 40
0.0
 40
0.0
 40
0.0
 40
0.0149855110949523
 40
0.0149855110949523
 40
0.0149855110949523
 40
0.0149855110949523
 10
30.14103095975952
 20
6.598940669626244
 30
0.0
 10
30.1460261301245
 20
6.598940670898798
 30
0.0
 10
30.15102518970336
 20
6.598738274414444
 30
0.0
 10
30.1560043978451
 20
6.598339259055705
 30
0.0
 11
30.14103095975952
 21
6.598940669626244
 31
0.0
 11
30.1560043978451
 21
6.598339259055705
 31
0.0
  0
SPLINE
  5
5B
330
2
100
AcDbEntity
  8
GAIKEI
  6
Continuous
 62
     1
100
AcDbSpline
210
0.0
220
0.0
230
1.0
 70
     8
 71
     3
 72
     9
 73
     5
 74
     3
 42
0.0000000001
 43
0.0000000001
 44
0.0000000001
 12
0.6977784587812689
 22
0.7163136341441766
 32
0.0
 13
0.999999999999998
 23
-0.0000000612461391
 33
0.0
 40
0.0
 40
0.0
 40
0.0
 40
0.0
 40
0.0763950260750383
 40
0.1508855877505903
 40
0.1508855877505903
 40
0.1508855877505903
 40
0.1508855877505903
 10
30.00479982600666
 20
6.541338145338613
 30
0.0
 10
30.02256876052439
 20
6.559579078258053
 30
0.0
 10
30.06543898210768
 20
6.588747600524783
 30
0.0
 10
30.11620077253434
 20
6.598940671147005
 30
0.0
 10
30.14103095975952
 20
6.598940669626244
 30
0.0
 11
30.00479982600666
 21
6.541338145338613
 31
0.0
 11
30.06800309606763
 21
6.58425139110966
 31
0.0
 11
30.14103095975952
 21
6.598940669626244
 31
0.0
  0
SPLINE
  5
5C
330
2
100
AcDbEntity
  8
GAIKEI
  6
Continuous
 62
     1
100
AcDbSpline
210
0.0
220
0.0
230
1.0
 70
     8
 71
     3
 72
    11
 73
     7
 74
     5
 42
0.0000000001
 43
0.0000000001
 44
0.0000000001
 12
-0.6910153121972773
 22
0.7228401194655009
 32
0.0
 13
0.6977784626363393
 23
0.7163136303888591
 33
0.0
 40
0.0
 40
0.0
 40
0.0
 40
0.0
 40
0.0724381571188967
 40
0.14326617817476
 40
0.2149307304390136
 40
0.2897465057163089
 40
0.2897465057163089
 40
0.2897465057163089
 40
0.2897465057163089
 10
30.0036892194575
 20
6.277606238389353
 30
0.0
 10
29.98700392753867
 20
6.295059973771259
 30
0.0
 10
29.96035208000751
 20
6.336369782271901
 30
0.0
 10
29.94652548012588
 20
6.408323026917457
 30
0.0
 10
29.95997240459717
 20
6.481218434830168
 30
0.0
 10
29.98739821378868
 20
6.523474292138871
 30
0.0
 10
30.00479982600666
 20
6.541338145338613
 30
0.0
 11
30.0036892194575
 21
6.277606238389353
 31
0.0
 11
29.96450993902897
 21
6.338534643849243
 31
0.0
 11
29.95102265570989
 21
6.408066663490274
 31
0.0
 11
29.96417244733738
 21
6.478514452890578
 31
0.0
 11
30.00479982600666
 21
6.541338145338613
 31
0.0
  0
SPLINE
  5
5D
330
2
100
AcDbEntity
  8
GAIKEI
  6
Continuous
 62
     1
100
AcDbSpline
210
0.0
220
0.0
230
1.0
 70
     8
 71
     3
 72
     9
 73
     5
 74
     3
 42
0.0000000001
 43
0.0000000001
 44
0.0000000001
 12
-0.9968044670183592
 22
0.0798802512029401
 32
0.0
 13
-0.6910153109804766
 23
0.722840120628729
 33
0.0
 40
0.0
 40
0.0
 40
0.0
 40
0.0
 40
0.0617031397618442
 40
0.1377256669686012
 40
0.1377256669686012
 40
0.1377256669686012
 40
0.1377256669686012
 10
30.12605752167406
 20
6.219494388316775
 30
0.0
 10
30.10555553322617
 20
6.22113734241816
 30
0.0
 10
30.06011479511369
 20
6.232203520446773
 30
0.0
 10
30.02120012955059
 20
6.259288860810471
 30
0.0
 10
30.0036892194575
 20
6.277606238389353
 30
0.0
 11
30.12605752167406
 21
6.219494388316775
 31
0.0
 11
30.06614918062121
 21
6.234268288572479
 31
0.0
 11
30.0036892194575
 21
6.277606238389353
 31
0.0
  0
SPLINE
  5
5E
330
2
100
AcDbEntity
  8
GAIKEI
  6
Continuous
 62
     1
100
AcDbSpline
210
0.0
220
0.0
230
1.0
 70
     8
 71
     3
 72
     8
 73
     4
 74
     2
 42
0.0000000001
 43
0.0000000001
 44
0.0000000001
 12
-0.9999999999999676
 22
-0.0000002547541845
 32
0.0
 13
-0.9968044691905543
 23
0.0798802240966905
 33
0.0
 40
0.0
 40
0.0
 40
0.0
 40
0.0
 40
0.0149855110944372
 40
0.0149855110944372
 40
0.0149855110944372
 40
0.0149855110944372
 10
30.14103095975952
 20
6.21889297775624
 30
0.0
 10
30.13603578939471
 20
6.218892976483687
 30
0.0
 10
30.13103672981806
 20
6.219095372988618
 30
0.0
 10
30.12605752167406
 20
6.219494388316775
 30
0.0
 11
30.14103095975952
 21
6.21889297775624
 31
0.0
 11
30.12605752167406
 21
6.219494388316775
 31
0.0
  0
SPLINE
  5
5F
330
2
100
AcDbEntity
  8
GAIKEI
  6
Continuous
 62
     1
100
AcDbSpline
210
0.0
220
0.0
230
1.0
 70
     8
 71
     3
 72
     8
 73
     4
 74
     2
 42
0.0000000001
 43
0.0000000001
 44
0.0000000001
 12
0.7136572473771134
 22
0.7004950629848305
 32
0.0
 13
0.9997848074665297
 23
-0.0207446079527686
 33
0.0
 40
0.0
 40
0.0
 40
0.0
 40
0.0
 40
0.0230351933173075
 40
0.0230351933173075
 40
0.0230351933173075
 40
0.0230351933173075
 10
31.33749501631724
 20
27.14763638609429
 30
0.0
 10
31.34297476053578
 20
27.15301506582552
 30
0.0
 10
31.35063525151594
 20
27.15765840171244
 30
0.0
 10
31.35831199695451
 20
27.15749911636095
 30
0.0
 11
31.33749501631724
 21
27.14763638609429
 31
0.0
 11
31.35831199695451
 21
27.15749911636095
 31
0.0
  0
SPLINE
  5
60
330
2
100
AcDbEntity
  8
GAIKEI
  6
Continuous
 62
     1
100
AcDbSpline
210
0.0
220
0.0
230
1.0
 70
     8
 71
     3
 72
     8
 73
     4
 74
     2
 42
0.0000000001
 43
0.0000000001
 44
0.0000000001
 12
0.5102978376119451
 22
0.8599977423973699
 32
0.0
 13
0.7136572309111822
 23
0.7004950797601535
 33
0.0
 40
0.0
 40
0.0
 40
0.0
 40
0.0
 40
0.0131336816949472
 40
0.0131336816949472
 40
0.0131336816949472
 40
0.0131336816949472
 10
31.32944281926302
 20
27.13726065877211
 30
0.0
 10
31.33167684905263
 20
27.14102563764112
 30
0.0
 10
31.33437070068054
 20
27.14456969295881
 30
0.0
 10
31.33749501631724
 20
27.14763638609429
 30
0.0
 11
31.32944281926302
 21
27.13726065877211
 31
0.0
 11
31.33749501631724
 21
27.14763638609429
 31
0.0
  0
SPLINE
  5
61
330
2
100
AcDbEntity
  8
GAIKEI
  6
Continuous
 62
     1
100
AcDbSpline
210
0.0
220
0.0
230
1.0
 70
     8
 71
     3
 72
     8
 73
     4
 74
     2
 42
0.0000000001
 43
0.0000000001
 44
0.0000000001
 12
0.7136572473771134
 22
0.7004950629848305
 32
0.0
 13
0.9997848074395152
 23
-0.0207446092547266
 33
0.0
 40
0.0
 40
0.0
 40
0.0
 40
0.0
 40
0.0230351933129996
 40
0.0230351933129996
 40
0.0230351933129996
 40
0.0230351933129996
 10
31.33749501631724
 20
26.29752970682432
 30
0.0
 10
31.34297476053476
 20
26.30290838655455
 30
0.0
 10
31.35063525151759
 20
26.30755172244239
 30
0.0
 10
31.35831199695451
 20
26.30739243708092
 30
0.0
 11
31.33749501631724
 21
26.29752970682432
 31
0.0
 11
31.35831199695451
 21
26.30739243708092
 31
0.0
  0
SPLINE
  5
62
330
2
100
AcDbEntity
  8
GAIKEI
  6
Continuous
 62
     1
100
AcDbSpline
210
0.0
220
0.0
230
1.0
 70
     8
 71
     3
 72
     8
 73
     4
 74
     2
 42
0.0000000001
 43
0.0000000001
 44
0.0000000001
 12
0.5102978376119451
 22
0.8599977423973699
 32
0.0
 13
0.7136572309111822
 23
0.7004950797601535
 33
0.0
 40
0.0
 40
0.0
 40
0.0
 40
0.0
 40
0.0131336816949921
 40
0.0131336816949921
 40
0.0131336816949921
 40
0.0131336816949921
 10
31.32944281926302
 20
26.28715397950208
 30
0.0
 10
31.33167684905264
 20
26.2909189583711
 30
0.0
 10
31.33437070068052
 20
26.29446301368884
 30
0.0
 10
31.33749501631724
 20
26.29752970682432
 30
0.0
 11
31.32944281926302
 21
26.28715397950208
 31
0.0
 11
31.33749501631724
 21
26.29752970682432
 31
0.0
  0
SPLINE
  5
63
330
2
100
AcDbEntity
  8
GAIKEI
  6
Continuous
 62
     1
100
AcDbSpline
210
0.0
220
0.0
230
1.0
 70
     8
 71
     3
 72
     8
 73
     4
 74
     2
 42
0.0000000001
 43
0.0000000001
 44
0.0000000001
 12
0.713657263704485
 22
0.7004950463506699
 32
0.0
 13
0.9997848074395152
 23
-0.0207446092547266
 33
0.0
 40
0.0
 40
0.0
 40
0.0
 40
0.0
 40
0.023035193205961
 40
0.023035193205961
 40
0.023035193205961
 40
0.023035193205961
 10
31.33749501631724
 20
25.44742302780435
 30
0.0
 10
31.34297476063466
 20
25.45280170738184
 30
0.0
 10
31.35063525155326
 20
25.45744504317168
 30
0.0
 10
31.35831199695451
 20
25.45728575781095
 30
0.0
 11
31.33749501631724
 21
25.44742302780435
 31
0.0
 11
31.35831199695451
 21
25.45728575781095
 31
0.0
  0
SPLINE
  5
64
330
2
100
AcDbEntity
  8
GAIKEI
  6
Continuous
 62
     1
100
AcDbSpline
210
0.0
220
0.0
230
1.0
 70
     8
 71
     3
 72
     8
 73
     4
 74
     2
 42
0.0000000001
 43
0.0000000001
 44
0.0000000001
 12
0.5102978376119451
 22
0.8599977423973699
 32
0.0
 13
0.7136572309111822
 23
0.7004950797601535
 33
0.0
 40
0.0
 40
0.0
 40
0.0
 40
0.0
 40
0.0131336818925372
 40
0.0131336818925372
 40
0.0131336818925372
 40
0.0131336818925372
 10
31.32944281926302
 20
25.43704730023205
 30
0.0
 10
31.33167684908624
 20
25.44081227915771
 30
0.0
 10
31.33437070063354
 20
25.44435633462274
 30
0.0
 10
31.33749501631724
 20
25.44742302780435
 30
0.0
 11
31.32944281926302
 21
25.43704730023205
 31
0.0
 11
31.33749501631724
 21
25.44742302780435
 31
0.0
  0
SPLINE
  5
65
330
2
100
AcDbEntity
  8
GAIKEI
  6
Continuous
 62
     1
100
AcDbSpline
210
0.0
220
0.0
230
1.0
 70
     8
 71
     3
 72
     8
 73
     4
 74
     2
 42
0.0000000001
 43
0.0000000001
 44
0.0000000001
 12
0.713657263704485
 22
0.7004950463506699
 32
0.0
 13
0.9997848081148752
 23
-0.0207445767057769
 33
0.0
 40
0.0
 40
0.0
 40
0.0
 40
0.0
 40
0.0230351933129996
 40
0.0230351933129996
 40
0.0230351933129996
 40
0.0230351933129996
 10
31.33749501631724
 20
24.59731634853438
 30
0.0
 10
31.34297476066013
 20
24.60269502813688
 30
0.0
 10
31.3506352515124
 20
24.60733836390253
 30
0.0
 10
31.35831199695451
 20
24.60717907879098
 30
0.0
 11
31.33749501631724
 21
24.59731634853438
 31
0.0
 11
31.35831199695451
 21
24.60717907879098
 31
0.0
  0
SPLINE
  5
66
330
2
100
AcDbEntity
  8
GAIKEI
  6
Continuous
 62
     1
100
AcDbSpline
210
0.0
220
0.0
230
1.0
 70
     8
 71
     3
 72
     8
 73
     4
 74
     2
 42
0.0000000001
 43
0.0000000001
 44
0.0000000001
 12
0.5102978376119451
 22
0.8599977423973699
 32
0.0
 13
0.7136572309111822
 23
0.7004950797601535
 33
0.0
 40
0.0
 40
0.0
 40
0.0
 40
0.0
 40
0.0131336818925372
 40
0.0131336818925372
 40
0.0131336818925372
 40
0.0131336818925372
 10
31.32944281926302
 20
24.58694062096208
 30
0.0
 10
31.33167684908624
 20
24.59070559988774
 30
0.0
 10
31.33437070063354
 20
24.59424965535277
 30
0.0
 10
31.33749501631724
 20
24.59731634853438
 30
0.0
 11
31.32944281926302
 21
24.58694062096208
 31
0.0
 11
31.33749501631724
 21
24.59731634853438
 31
0.0
  0
SPLINE
  5
67
330
2
100
AcDbEntity
  8
GAIKEI
  6
Continuous
 62
     1
100
AcDbSpline
210
0.0
220
0.0
230
1.0
 70
     8
 71
     3
 72
     8
 73
     4
 74
     2
 42
0.0000000001
 43
0.0000000001
 44
0.0000000001
 12
0.713657263704485
 22
0.7004950463506699
 32
0.0
 13
0.9997848081418897
 23
-0.0207445754038189
 33
0.0
 40
0.0
 40
0.0
 40
0.0
 40
0.0
 40
0.023035193313024
 40
0.023035193313024
 40
0.023035193313024
 40
0.023035193313024
 10
31.33749501631724
 20
23.74720966926429
 30
0.0
 10
31.34297476066013
 20
23.75258834886679
 30
0.0
 10
31.35063525151219
 20
23.7572316846225
 30
0.0
 10
31.35831199695451
 20
23.75707239952095
 30
0.0
 11
31.33749501631724
 21
23.74720966926429
 31
0.0
 11
31.35831199695451
 21
23.75707239952095
 31
0.0
  0
SPLINE
  5
68
330
2
100
AcDbEntity
  8
GAIKEI
  6
Continuous
 62
     1
100
AcDbSpline
210
0.0
220
0.0
230
1.0
 70
     8
 71
     3
 72
     8
 73
     4
 74
     2
 42
0.0000000001
 43
0.0000000001
 44
0.0000000001
 12
0.5102978628629736
 22
0.8599977274141378
 32
0.0
 13
0.7136572309111822
 23
0.7004950797601535
 33
0.0
 40
0.0
 40
0.0
 40
0.0
 40
0.0
 40
0.0131336816949472
 40
0.0131336816949472
 40
0.0131336816949472
 40
0.0131336816949472
 10
31.32944281926302
 20
23.73683394194211
 30
0.0
 10
31.33167684916318
 20
23.74059892074553
 30
0.0
 10
31.33437070068054
 20
23.74414297612881
 30
0.0
 10
31.33749501631724
 20
23.74720966926429
 30
0.0
 11
31.32944281926302
 21
23.73683394194211
 31
0.0
 11
31.33749501631724
 21
23.74720966926429
 31
0.0
  0
SPLINE
  5
69
330
2
100
AcDbEntity
  8
GAIKEI
  6
Continuous
 62
     1
100
AcDbSpline
210
0.0
220
0.0
230
1.0
 70
     8
 71
     3
 72
     8
 73
     4
 74
     2
 42
0.0000000001
 43
0.0000000001
 44
0.0000000001
 12
0.7054325261617571
 22
-0.7087770813401362
 32
0.0
 13
0.99802083515447
 23
-0.062884120392783
 33
0.0
 40
0.0
 40
0.0
 40
0.0
 40
0.0
 40
0.02405102515375
 40
0.02405102515375
 40
0.02405102515375
 40
0.02405102515375
 10
31.30478713573984
 20
27.74723602801396
 30
0.0
 10
31.31044259421684
 20
27.74155375621007
 30
0.0
 10
31.31821972092867
 20
27.736829296357
 30
0.0
 10
31.32622086233209
 20
27.73632515383656
 30
0.0
 11
31.30478713573984
 21
27.74723602801396
 31
0.0
 11
31.32622086233209
 21
27.73632515383656
 31
0.0
  0
SPLINE
  5
6A
330
2
100
AcDbEntity
  8
GAIKEI
  6
Continuous
 62
     1
100
AcDbSpline
210
0.0
220
0.0
230
1.0
 70
     8
 71
     3
 72
     8
 73
     4
 74
     2
 42
0.0000000001
 43
0.0000000001
 44
0.0000000001
 12
0.4960847882284866
 22
-0.8682740828150393
 32
0.0
 13
0.7054325290187481
 23
-0.7087770784966266
 33
0.0
 40
0.0
 40
0.0
 40
0.0
 40
0.0
 40
0.0137341298435648
 40
0.0137341298435648
 40
0.0137341298435648
 40
0.0137341298435648
 10
31.29653014097574
 20
27.75821092482556
 30
0.0
 10
31.29880123860738
 20
27.75423592849449
 30
0.0
 10
31.30155763509004
 20
27.75048084015603
 30
0.0
 10
31.30478713573984
 20
27.74723602801396
 30
0.0
 11
31.29653014097574
 21
27.75821092482556
 31
0.0
 11
31.30478713573984
 21
27.74723602801396
 31
0.0
  0
SPLINE
  5
6B
330
2
100
AcDbEntity
  8
GAIKEI
  6
Continuous
 62
     1
100
AcDbSpline
210
0.0
220
0.0
230
1.0
 70
     8
 71
     3
 72
     9
 73
     5
 74
     3
 42
0.0000000001
 43
0.0000000001
 44
0.0000000001
 12
0.6522266979454902
 22
0.7580239669608887
 32
0.0
 13
0.017314227960156
 23
0.9998500975196952
 33
0.0
 40
0.0
 40
0.0
 40
0.0
 40
0.0
 40
0.0294565317813606
 40
0.0700301302574239
 40
0.0700301302574239
 40
0.0700301302574239
 40
0.0700301302574239
 10
31.73310428189746
 20
27.74976767617858
 30
0.0
 10
31.73950839404968
 20
27.75721059520319
 30
0.0
 10
31.74902798491316
 20
27.77939305773484
 30
0.0
 10
31.75207249676555
 20
27.80268202445521
 30
0.0
 10
31.75230666360994
 20
27.81620452991956
 30
0.0
 11
31.73310428189746
 21
27.74976767617858
 31
0.0
 11
31.74637116498866
 21
27.77606743050501
 31
0.0
 11
31.75230666360994
 21
27.81620452991956
 31
0.0
  0
SPLINE
  5
6C
330
2
100
AcDbEntity
  8
GAIKEI
  6
Continuous
 62
     1
100
AcDbSpline
210
0.0
220
0.0
230
1.0
 70
     8
 71
     3
 72
     9
 73
     5
 74
     3
 42
0.0000000001
 43
0.0000000001
 44
0.0000000001
 12
0.9980208351693741
 22
0.062884120156245
 32
0.0
 13
0.652226608769841
 23
0.7580240436902993
 33
0.0
 40
0.0
 40
0.0
 40
0.0
 40
0.0
 40
0.0240510252074058
 40
0.0274998563879453
 40
0.0274998563879453
 40
0.0274998563879453
 40
0.0274998563879453
 10
31.70932850611314
 20
27.73632515383656
 30
0.0
 10
31.71732964753453
 20
27.73682929635624
 30
0.0
 10
31.72617343434696
 20
27.74219326994697
 30
0.0
 10
31.73235447540908
 20
27.74889624385941
 30
0.0
 10
31.73310428189746
 20
27.74976767617858
 30
0.0
 11
31.70932850611314
 21
27.73632515383656
 31
0.0
 11
31.73076223275541
 21
27.74723602803397
 31
0.0
 11
31.73310428189746
 21
27.74976767617858
 31
0.0
  0
SPLINE
  5
6D
330
2
100
AcDbEntity
  8
GAIKEI
  6
Continuous
 62
     1
100
AcDbSpline
210
0.0
220
0.0
230
1.0
 70
     8
 71
     3
 72
    10
 73
     6
 74
     4
 42
0.0000000001
 43
0.0000000001
 44
0.0000000001
 12
-0.0173142279747896
 22
0.9998500975194417
 32
0.0
 13
-0.9980208351584961
 23
0.0628841203288877
 33
0.0
 40
0.0
 40
0.0
 40
0.0
 40
0.0
 40
0.0405735983529109
 40
0.073359091307934
 40
0.097410116407756
 40
0.097410116407756
 40
0.097410116407756
 40
0.097410116407756
 10
31.75230666360994
 20
28.60281113544295
 30
0.0
 10
31.75207249676606
 20
28.61633364086623
 30
0.0
 10
31.74882799521711
 20
28.64078239076406
 30
0.0
 10
31.73535032695847
 20
28.67138133942911
 30
0.0
 10
31.71732964749866
 20
28.68218636899715
 30
0.0
 10
31.70932850611314
 20
28.68269051151595
 30
0.0
 11
31.75230666360994
 21
28.60281113544295
 31
0.0
 11
31.74637116501867
 21
28.64294823473745
 31
0.0
 11
31.73076223267543
 21
28.67177963739857
 31
0.0
 11
31.70932850611314
 21
28.68269051151595
 31
0.0
  0
SPLINE
  5
6E
330
2
100
AcDbEntity
  8
GAIKEI
  6
Continuous
 62
     1
100
AcDbSpline
210
0.0
220
0.0
230
1.0
 70
     8
 71
     3
 72
     9
 73
     5
 74
     3
 42
0.0000000001
 43
0.0000000001
 44
0.0000000001
 12
-0.9980208351529668
 22
-0.062884120416642
 32
0.0
 13
-0.4963327104043851
 23
-0.8681323865532473
 33
0.0
 40
0.0
 40
0.0
 40
0.0
 40
0.0
 40
0.024051025037327
 40
0.0377677579409087
 40
0.0377677579409087
 40
0.0377677579409087
 40
0.0377677579409087
 10
31.32622086233209
 20
28.68269051151595
 30
0.0
 10
31.31821972096742
 20
28.68218636899775
 30
0.0
 10
31.30619847208303
 20
28.67494053870152
 30
0.0
 10
31.2988081967343
 20
28.66478927852453
 30
0.0
 10
31.29653884232766
 20
28.66081996516744
 30
0.0
 11
31.32622086233209
 21
28.68269051151595
 31
0.0
 11
31.30478713582977
 21
28.67177963741852
 31
0.0
 11
31.29653884232766
 21
28.66081996516744
 31
0.0
  0
SPLINE
  5
6F
330
2
100
AcDbEntity
  8
GAIKEI
  6
Continuous
 62
     1
100
AcDbSpline
210
0.0
220
0.0
230
1.0
 70
     8
 71
     3
 72
    10
 73
     6
 74
     4
 42
0.0000000001
 43
0.0000000001
 44
0.0000000001
 12
0.9997848081570115
 22
0.0207445746750244
 32
0.0
 13
-0.0027357156506482
 23
-0.9999962579229377
 33
0.0
 40
0.0
 40
0.0
 40
0.0
 40
0.0
 40
0.0230351934828833
 40
0.0576976553859486
 40
0.0975742157546347
 40
0.0975742157546347
 40
0.0975742157546347
 40
0.0975742157546347
 10
31.60663687506735
 20
23.75707239952095
 30
0.0
 10
31.61431362056641
 20
23.75723168461806
 30
0.0
 10
31.63299488859514
 20
23.74609832923622
 30
0.0
 10
31.64574028665722
 20
23.71525725576063
 30
0.0
 10
31.64965139645758
 20
23.69048516049708
 30
0.0
 10
31.64961503281416
 20
23.6771930234479
 30
0.0
 11
31.60663687506735
 21
23.75707239952095
 31
0.0
 11
31.6274538558547
 21
23.74720966918431
 31
0.0
 11
31.64379948459532
 21
23.71664323847586
 31
0.0
 11
31.64961503281416
 21
23.6771930234479
 31
0.0
  0
SPLINE
  5
70
330
2
100
AcDbEntity
  8
GAIKEI
  6
Continuous
 62
     1
100
AcDbSpline
210
0.0
220
0.0
230
1.0
 70
     8
 71
     3
 72
     9
 73
     5
 74
     3
 42
0.0000000001
 43
0.0000000001
 44
0.0000000001
 12
-0.9997848074377218
 22
-0.0207446093411659
 32
0.0
 13
-0.5093503994889746
 23
0.860559219659183
 33
0.0
 40
0.0
 40
0.0
 40
0.0
 40
0.0
 40
0.023035193166481
 40
0.0362332275040064
 40
0.0362332275040064
 40
0.0362332275040064
 40
0.0362332275040064
 10
31.35831199695451
 20
23.26076351902157
 30
0.0
 10
31.35063525156643
 20
23.26060423366044
 30
0.0
 10
31.33883097166884
 20
23.26769783870159
 30
0.0
 10
31.33165056224453
 20
23.27727187418182
 30
0.0
 10
31.32940975422378
 20
23.281057770892
 30
0.0
 11
31.35831199695451
 21
23.26076351902157
 31
0.0
 11
31.33749501642723
 21
23.27062624916812
 31
0.0
 11
31.32940975422378
 21
23.281057770892
 31
0.0
  0
SPLINE
  5
71
330
2
100
AcDbEntity
  8
GAIKEI
  6
Continuous
 62
     1
100
AcDbSpline
210
0.0
220
0.0
230
1.0
 70
     8
 71
     3
 72
    10
 73
     6
 74
     4
 42
0.0000000001
 43
0.0000000001
 44
0.0000000001
 12
0.0027357155970905
 22
-0.9999962579230842
 32
0.0
 13
-0.9997848074533582
 23
0.0207446085875774
 33
0.0
 40
0.0
 40
0.0
 40
0.0
 40
0.0
 40
0.0398765604873434
 40
0.0745390224874532
 40
0.0975742158718405
 40
0.0975742158718405
 40
0.0975742158718405
 40
0.0975742158718405
 10
31.64961503281416
 20
23.34064289509456
 30
0.0
 10
31.64965139645699
 20
23.32735075800582
 30
0.0
 10
31.64574028661912
 20
23.30257866266115
 30
0.0
 10
31.63299488871847
 20
23.27173758917061
 30
0.0
 10
31.61431362052816
 20
23.26060423366474
 30
0.0
 10
31.60663687506735
 20
23.26076351902157
 30
0.0
 11
31.64961503281416
 21
23.34064289509456
 31
0.0
 11
31.64379948459532
 21
23.30119267994667
 31
0.0
 11
31.6274538558547
 21
23.27062624912816
 31
0.0
 11
31.60663687506735
 21
23.26076351902157
 31
0.0
  0
SPLINE
  5
72
330
2
100
AcDbEntity
  8
GAIKEI
  6
Continuous
 62
     1
100
AcDbSpline
210
0.0
220
0.0
230
1.0
 70
     8
 71
     3
 72
    10
 73
     6
 74
     4
 42
0.0000000001
 43
0.0000000001
 44
0.0000000001
 12
0.9997848081293756
 22
0.0207445760069373
 32
0.0
 13
-0.0027357156486854
 23
-0.9999962579229432
 33
0.0
 40
0.0
 40
0.0
 40
0.0
 40
0.0
 40
0.0230351934914503
 40
0.0576976555003823
 40
0.0975742157305037
 40
0.0975742157305037
 40
0.0975742157305037
 40
0.0975742157305037
 10
31.60663687506735
 20
24.60717907879098
 30
0.0
 10
31.61431362056905
 20
24.60733836389838
 30
0.0
 10
31.63299488863169
 20
24.59620500845361
 30
0.0
 10
31.64574028660178
 20
24.56536393496174
 30
0.0
 10
31.64965139645743
 20
24.54059183972092
 30
0.0
 10
31.64961503281416
 20
24.52729970271793
 30
0.0
 11
31.60663687506735
 21
24.60717907879098
 31
0.0
 11
31.6274538558547
 21
24.59731634843433
 31
0.0
 11
31.64379948459532
 21
24.56674991760582
 31
0.0
 11
31.64961503281416
 21
24.52729970271793
 31
0.0
  0
SPLINE
  5
73
330
2
100
AcDbEntity
  8
GAIKEI
  6
Continuous
 62
     1
100
AcDbSpline
210
0.0
220
0.0
230
1.0
 70
     8
 71
     3
 72
     9
 73
     5
 74
     3
 42
0.0000000001
 43
0.0000000001
 44
0.0000000001
 12
-0.9997848074664766
 22
-0.0207446079553303
 32
0.0
 13
-0.5093503994889746
 23
0.860559219659183
 33
0.0
 40
0.0
 40
0.0
 40
0.0
 40
0.0
 40
0.0230351931665297
 40
0.0362332275040102
 40
0.0362332275040102
 40
0.0362332275040102
 40
0.0362332275040102
 10
31.35831199695451
 20
24.11087019829154
 30
0.0
 10
31.35063525156619
 20
24.11071091294108
 30
0.0
 10
31.33883097166896
 20
24.11780451796861
 30
0.0
 10
31.33165056224453
 20
24.12737855345188
 30
0.0
 10
31.32940975422378
 20
24.13116445016203
 30
0.0
 11
31.35831199695451
 21
24.11087019829154
 31
0.0
 11
31.33749501642723
 21
24.1207329284382
 31
0.0
 11
31.32940975422378
 21
24.13116445016203
 31
0.0
  0
SPLINE
  5
74
330
2
100
AcDbEntity
  8
GAIKEI
  6
Continuous
 62
     1
100
AcDbSpline
210
0.0
220
0.0
230
1.0
 70
     8
 71
     3
 72
    10
 73
     6
 74
     4
 42
0.0000000001
 43
0.0000000001
 44
0.0000000001
 12
0.0027357156506482
 22
-0.9999962579229377
 32
0.0
 13
-0.9997848074809938
 23
0.0207446072556645
 33
0.0
 40
0.0
 40
0.0
 40
0.0
 40
0.0
 40
0.0398765602301214
 40
0.0745390222390033
 40
0.097574215623415
 40
0.097574215623415
 40
0.097574215623415
 40
0.097574215623415
 10
31.64961503281416
 20
24.19074957411453
 30
0.0
 10
31.64965139645746
 20
24.17745743711154
 30
0.0
 10
31.64574028657155
 20
24.15268534186225
 30
0.0
 10
31.63299488872373
 20
24.12184426843444
 30
0.0
 10
31.6143136205284
 20
24.11071091294494
 30
0.0
 10
31.60663687506735
 20
24.11087019829154
 30
0.0
 11
31.64961503281416
 21
24.19074957411453
 31
0.0
 11
31.64379948459532
 21
24.15129935922664
 31
0.0
 11
31.6274538558547
 21
24.12073292839818
 31
0.0
 11
31.60663687506735
 21
24.11087019829154
 31
0.0
  0
SPLINE
  5
75
330
2
100
AcDbEntity
  8
GAIKEI
  6
Continuous
 62
     1
100
AcDbSpline
210
0.0
220
0.0
230
1.0
 70
     8
 71
     3
 72
    10
 73
     6
 74
     4
 42
0.0000000001
 43
0.0000000001
 44
0.0000000001
 12
0.9997848074533582
 22
0.0207446085875774
 32
0.0
 13
-0.0027357156486854
 23
-0.9999962579229432
 33
0.0
 40
0.0
 40
0.0
 40
0.0
 40
0.0
 40
0.0230351933801281
 40
0.05769765538901
 40
0.0975742156290289
 40
0.0975742156290289
 40
0.0975742156290289
 40
0.0975742156290289
 10
31.60663687506735
 20
25.45728575781095
 30
0.0
 10
31.61431362052676
 20
25.45744504316775
 30
0.0
 10
31.63299488872737
 20
25.44631168767543
 30
0.0
 10
31.64574028657206
 20
25.41547061424763
 30
0.0
 10
31.64965139645744
 20
25.39069851899424
 30
0.0
 10
31.64961503281416
 20
25.37740638198795
 30
0.0
 11
31.60663687506735
 21
25.45728575781095
 31
0.0
 11
31.6274538558547
 21
25.44742302771431
 31
0.0
 11
31.64379948459532
 21
25.41685659688585
 31
0.0
 11
31.64961503281416
 21
25.37740638198795
 31
0.0
  0
SPLINE
  5
76
330
2
100
AcDbEntity
  8
GAIKEI
  6
Continuous
 62
     1
100
AcDbSpline
210
0.0
220
0.0
230
1.0
 70
     8
 71
     3
 72
     9
 73
     5
 74
     3
 42
0.0000000001
 43
0.0000000001
 44
0.0000000001
 12
-0.9997848081393383
 22
-0.0207445755267768
 32
0.0
 13
-0.5093503985216775
 23
0.8605592202317096
 33
0.0
 40
0.0
 40
0.0
 40
0.0
 40
0.0
 40
0.0230351932735684
 40
0.0362332276189562
 40
0.0362332276189562
 40
0.0362332276189562
 40
0.0362332276189562
 10
31.35831199695451
 20
24.96097687731151
 30
0.0
 10
31.35063525152536
 20
24.96081759220931
 30
0.0
 10
31.33883097171905
 20
24.96791119719944
 30
0.0
 10
31.33165056224162
 20
24.97748523272705
 30
0.0
 10
31.32940975422378
 20
24.98127112944201
 30
0.0
 11
31.35831199695451
 21
24.96097687731151
 31
0.0
 11
31.33749501642723
 21
24.97083960770817
 31
0.0
 11
31.32940975422378
 21
24.98127112944201
 31
0.0
  0
SPLINE
  5
77
330
2
100
AcDbEntity
  8
GAIKEI
  6
Continuous
 62
     1
100
AcDbSpline
210
0.0
220
0.0
230
1.0
 70
     8
 71
     3
 72
    10
 73
     6
 74
     4
 42
0.0000000001
 43
0.0000000001
 44
0.0000000001
 12
0.0027357156506482
 22
-0.9999962579229377
 32
0.0
 13
-0.9997848081570115
 23
0.0207445746750244
 33
0.0
 40
0.0
 40
0.0
 40
0.0
 40
0.0
 40
0.0398765602301214
 40
0.0745390222390535
 40
0.0975742157305037
 40
0.0975742157305037
 40
0.0975742157305037
 40
0.0975742157305037
 10
31.64961503281416
 20
25.04085625338456
 30
0.0
 10
31.64965139645746
 20
25.02756411638157
 30
0.0
 10
31.64574028660182
 20
25.00279202114354
 30
0.0
 10
31.63299488863155
 20
24.97195094764166
 30
0.0
 10
31.61431362056925
 20
24.96081759221434
 30
0.0
 10
31.60663687506735
 20
24.96097687731151
 30
0.0
 11
31.64961503281416
 21
25.04085625338456
 31
0.0
 11
31.64379948459532
 21
25.00140603849667
 31
0.0
 11
31.6274538558547
 21
24.97083960766815
 31
0.0
 11
31.60663687506735
 21
24.96097687731151
 31
0.0
  0
SPLINE
  5
78
330
2
100
AcDbEntity
  8
GAIKEI
  6
Continuous
 62
     1
100
AcDbSpline
210
0.0
220
0.0
230
1.0
 70
     8
 71
     3
 72
    10
 73
     6
 74
     4
 42
0.0000000001
 43
0.0000000001
 44
0.0000000001
 12
0.9997848074533582
 22
0.0207446085875774
 32
0.0
 13
-0.0027357155970905
 23
-0.9999962579230842
 33
0.0
 40
0.0
 40
0.0
 40
0.0
 40
0.0
 40
0.0230351933801038
 40
0.0576976553890358
 40
0.0975742158763792
 40
0.0975742158763792
 40
0.0975742158763792
 40
0.0975742158763792
 10
31.60663687506735
 20
26.30739243708092
 30
0.0
 10
31.61431362052674
 20
26.30755172243772
 30
0.0
 10
31.63299488872549
 20
26.29641836694515
 30
0.0
 10
31.64574028661519
 20
26.26557729344074
 30
0.0
 10
31.64965139645699
 20
26.24080519809667
 30
0.0
 10
31.64961503281416
 20
26.22751306100793
 30
0.0
 11
31.60663687506735
 21
26.30739243708092
 31
0.0
 11
31.6274538558547
 21
26.29752970698433
 31
0.0
 11
31.64379948459532
 21
26.26696327615582
 31
0.0
 11
31.64961503281416
 21
26.22751306100793
 31
0.0
  0
SPLINE
  5
79
330
2
100
AcDbEntity
  8
GAIKEI
  6
Continuous
 62
     1
100
AcDbSpline
210
0.0
220
0.0
230
1.0
 70
     8
 71
     3
 72
     9
 73
     5
 74
     3
 42
0.0000000001
 43
0.0000000001
 44
0.0000000001
 12
-0.9997848081393383
 22
-0.0207445755267768
 32
0.0
 13
-0.5093503994889746
 23
0.860559219659183
 33
0.0
 40
0.0
 40
0.0
 40
0.0
 40
0.0
 40
0.0230351932735441
 40
0.0362332276189768
 40
0.0362332276189768
 40
0.0362332276189768
 40
0.0362332276189768
 10
31.35831199695451
 20
25.81108355658154
 30
0.0
 10
31.35063525152536
 20
25.81092427147934
 30
0.0
 10
31.3388309717153
 20
25.8180178764672
 30
0.0
 10
31.33165056224588
 20
25.82759191199958
 30
0.0
 10
31.32940975422378
 20
25.83137780871203
 30
0.0
 11
31.35831199695451
 21
25.81108355658154
 31
0.0
 11
31.33749501642723
 21
25.82094628697814
 31
0.0
 11
31.32940975422378
 21
25.83137780871203
 31
0.0
  0
SPLINE
  5
7A
330
2
100
AcDbEntity
  8
GAIKEI
  6
Continuous
 62
     1
100
AcDbSpline
210
0.0
220
0.0
230
1.0
 70
     8
 71
     3
 72
    10
 73
     6
 74
     4
 42
0.0000000001
 43
0.0000000001
 44
0.0000000001
 12
0.0027357156506482
 22
-0.9999962579229377
 32
0.0
 13
-0.9997848081570115
 23
0.0207445746750244
 33
0.0
 40
0.0
 40
0.0
 40
0.0
 40
0.0
 40
0.0398765603686861
 40
0.0745390222717515
 40
0.0975742157546347
 40
0.0975742157546347
 40
0.0975742157546347
 40
0.0975742157546347
 10
31.64961503281416
 20
25.89096293265459
 30
0.0
 10
31.64965139645758
 20
25.87767079560541
 30
0.0
 10
31.6457402866572
 20
25.85289870034197
 30
0.0
 10
31.63299488859514
 20
25.82205762686618
 30
0.0
 10
31.61431362056641
 20
25.81092427148443
 30
0.0
 10
31.60663687506735
 20
25.81108355658154
 30
0.0
 11
31.64961503281416
 21
25.89096293265459
 31
0.0
 11
31.64379948459532
 21
25.85151271762664
 31
0.0
 11
31.6274538558547
 21
25.82094628691817
 31
0.0
 11
31.60663687506735
 21
25.81108355658154
 31
0.0
  0
SPLINE
  5
7B
330
2
100
AcDbEntity
  8
GAIKEI
  6
Continuous
 62
     1
100
AcDbSpline
210
0.0
220
0.0
230
1.0
 70
     8
 71
     3
 72
    10
 73
     6
 74
     4
 42
0.0000000001
 43
0.0000000001
 44
0.0000000001
 12
0.9997848074809938
 22
0.0207446072556645
 32
0.0
 13
-0.0027357155970905
 23
-0.9999962579230842
 33
0.0
 40
0.0
 40
0.0
 40
0.0
 40
0.0
 40
0.0230351933843873
 40
0.0576976553933193
 40
0.0975742158807189
 40
0.0975742158807189
 40
0.0975742158807189
 40
0.0975742158807189
 10
31.60663687506735
 20
27.15749911636095
 30
0.0
 10
31.61431362052838
 20
27.15765840170755
 30
0.0
 10
31.63299488872186
 20
27.14652504621785
 30
0.0
 10
31.64574028661639
 20
27.1156839727102
 30
0.0
 10
31.64965139645699
 20
27.09091187736664
 30
0.0
 10
31.64961503281416
 20
27.0776197402779
 30
0.0
 11
31.60663687506735
 21
27.15749911636095
 31
0.0
 11
31.6274538558547
 21
27.14763638625437
 31
0.0
 11
31.64379948459532
 21
27.11706995542585
 31
0.0
 11
31.64961503281416
 21
27.0776197402779
 31
0.0
  0
SPLINE
  5
7C
330
2
100
AcDbEntity
  8
GAIKEI
  6
Continuous
 62
     1
100
AcDbSpline
210
0.0
220
0.0
230
1.0
 70
     8
 71
     3
 72
     9
 73
     5
 74
     3
 42
0.0000000001
 43
0.0000000001
 44
0.0000000001
 12
-0.9997848081393383
 22
-0.0207445755267768
 32
0.0
 13
-0.5093503994889746
 23
0.860559219659183
 33
0.0
 40
0.0
 40
0.0
 40
0.0
 40
0.0
 40
0.02303519322645
 40
0.0362332276587738
 40
0.0362332276587738
 40
0.0362332276587738
 40
0.0362332276587738
 10
31.35831199695451
 20
26.66119023585157
 30
0.0
 10
31.35063525154107
 20
26.66103095074968
 30
0.0
 10
31.33883097162145
 20
26.66812455559628
 30
0.0
 10
31.33165056226064
 20
26.67769859124462
 30
0.0
 10
31.32940975422378
 20
26.68148448798201
 30
0.0
 11
31.35831199695451
 21
26.66119023585157
 31
0.0
 11
31.33749501642723
 21
26.67105296613818
 31
0.0
 11
31.32940975422378
 21
26.68148448798201
 31
0.0
  0
SPLINE
  5
7D
330
2
100
AcDbEntity
  8
GAIKEI
  6
Continuous
 62
     1
100
AcDbSpline
210
0.0
220
0.0
230
1.0
 70
     8
 71
     3
 72
    10
 73
     6
 74
     4
 42
0.0000000001
 43
0.0000000001
 44
0.0000000001
 12
0.0027357156486854
 22
-0.9999962579229432
 32
0.0
 13
-0.9997848081570115
 23
0.0207445746750244
 33
0.0
 40
0.0
 40
0.0
 40
0.0
 40
0.0
 40
0.0398765603785836
 40
0.0745390222815988
 40
0.0975742157644821
 40
0.0975742157644821
 40
0.0975742157644821
 40
0.0975742157644821
 10
31.64961503281416
 20
26.74106961193456
 30
0.0
 10
31.64965139645757
 20
26.72777747488209
 30
0.0
 10
31.64574028665891
 20
26.70300537961492
 30
0.0
 10
31.6329948885951
 20
26.6721643061363
 30
0.0
 10
31.61431362056641
 20
26.66103095075445
 30
0.0
 10
31.60663687506735
 20
26.66119023585157
 30
0.0
 11
31.64961503281416
 21
26.74106961193456
 31
0.0
 11
31.64379948459532
 21
26.7016193968966
 31
0.0
 11
31.6274538558547
 21
26.6710529661882
 31
0.0
 11
31.60663687506735
 21
26.66119023585157
 31
0.0
  0
SPLINE
  5
7E
330
2
100
AcDbEntity
  8
GAIKEI
  6
Continuous
 62
     1
100
AcDbSpline
210
0.0
220
0.0
230
1.0
 70
     8
 71
     3
 72
     9
 73
     5
 74
     3
 42
0.0000000001
 43
0.0000000001
 44
0.0000000001
 12
0.0
 22
-1.0
 32
0.0
 13
0.0
 23
-1.0
 33
0.0
 40
0.0
 40
0.0
 40
0.0
 40
0.0
 40
0.1154244627993535
 40
0.2308466090636587
 40
0.2308466090636587
 40
0.2308466090636587
 40
0.2308466090636587
 10
32.13430638875911
 20
28.99710666779373
 30
0.0
 10
32.13430638875911
 20
28.95863184686061
 30
0.0
 10
32.13547715767706
 20
28.88167110065112
 30
0.0
 10
32.13196489767711
 20
28.80475786005127
 30
0.0
 10
32.13196489767711
 20
28.76628381129649
 30
0.0
 11
32.13430638875911
 21
28.99710666779373
 31
0.0
 11
32.13430638869909
 21
28.88168220499438
 31
0.0
 11
32.13196489767711
 21
28.76628381129649
 31
0.0
  0
SPLINE
  5
7F
330
2
100
AcDbEntity
  8
GAIKEI
  6
Continuous
 62
     1
100
AcDbSpline
210
0.0
220
0.0
230
1.0
 70
     8
 71
     3
 72
    11
 73
     7
 74
     5
 42
0.0000000001
 43
0.0000000001
 44
0.0000000001
 12
1.0
 22
0.0
 32
0.0
 13
0.2844328570621675
 23
-0.9586959631830378
 33
0.0
 40
0.0
 40
0.0
 40
0.0
 40
0.0
 40
0.0125971378859424
 40
0.02482684550707
 40
0.0376400341001203
 40
0.0522708021591079
 40
0.0522708021591079
 40
0.0522708021591079
 40
0.0522708021591079
 10
32.0900578983692
 20
28.76627643091035
 30
0.0
 10
32.09425694433118
 20
28.76627643091035
 30
0.0
 10
32.10258209020026
 20
28.76529782593642
 30
0.0
 10
32.11432942248578
 20
28.76041640037485
 30
0.0
 10
32.12452287523564
 20
28.75157859487936
 30
0.0
 10
32.12876835513537
 20
28.74315460293838
 30
0.0
 10
32.13015551218871
 20
28.73847911684624
 30
0.0
 11
32.0900578983692
 21
28.76627643091035
 31
0.0
 11
32.10255680838804
 21
28.76470635726298
 31
0.0
 11
32.11381785783874
 21
28.75993618810799
 31
0.0
 11
32.12344427354037
 21
28.75147983412649
 31
0.0
 11
32.13015551218871
 21
28.73847911684624
 31
0.0
  0
SPLINE
  5
80
330
2
100
AcDbEntity
  8
GAIKEI
  6
Continuous
 62
     7
100
AcDbSpline
210
0.0
220
0.0
230
1.0
 70
     8
 71
     3
 72
     8
 73
     4
 74
     2
 42
0.0000000001
 43
0.0000000001
 44
0.0000000001
 12
0.7278565460093934
 22
0.6857294280044251
 32
0.0
 13
0.4018397367025453
 23
0.9157100119616629
 33
0.0
 40
0.0
 40
0.0
 40
0.0
 40
0.0
 40
0.0374608372597946
 40
0.0374608372597946
 40
0.0374608372597946
 40
0.0374608372597946
 10
30.45764257943438
 20
2.502096417101711
 30
0.0
 10
30.46673128464056
 20
2.51065908327061
 30
0.0
 10
30.47425175999808
 20
2.521249414178782
 30
0.0
 10
30.4792695109918
 20
2.532683835423881
 30
0.0
 11
30.45764257943438
 21
2.502096417101711
 31
0.0
 11
30.4792695109918
 21
2.532683835423881
 31
0.0
  0
SPLINE
  5
81
330
2
100
AcDbEntity
  8
GAIKEI
  6
Continuous
 62
     7
100
AcDbSpline
210
0.0
220
0.0
230
1.0
 70
     8
 71
     3
 72
     8
 73
     4
 74
     2
 42
0.0000000001
 43
0.0000000001
 44
0.0000000001
 12
0.9363933365012451
 22
0.3509523035343488
 32
0.0
 13
0.7278565294650087
 23
0.6857294455651974
 33
0.0
 40
0.0
 40
0.0
 40
0.0
 40
0.0
 40
0.0378278324167678
 40
0.0378278324167678
 40
0.0378278324167678
 40
0.0378278324167678
 10
30.42550578334192
 20
2.482142188420482
 30
0.0
 10
30.43731302674503
 20
2.486567443395273
 30
0.0
 10
30.44846483449436
 20
2.493449864251687
 30
0.0
 10
30.45764257943438
 20
2.502096417101711
 30
0.0
 11
30.42550578334192
 21
2.482142188420482
 31
0.0
 11
30.45764257943438
 21
2.502096417101711
 31
0.0
  0
SPLINE
  5
82
330
2
100
AcDbEntity
  8
GAIKEI
  6
Continuous
 62
     7
100
AcDbSpline
210
0.0
220
0.0
230
1.0
 70
     8
 71
     3
 72
     8
 73
     4
 74
     2
 42
0.0000000001
 43
0.0000000001
 44
0.0000000001
 12
0.999673045784438
 22
-0.0255695430554574
 32
0.0
 13
0.9363933372125686
 23
0.3509523016364312
 33
0.0
 40
0.0
 40
0.0
 40
0.0
 40
0.0
 40
0.0383435132104241
 40
0.0383435132104241
 40
0.0383435132104241
 40
0.0383435132104241
 10
30.38768723888114
 20
2.47581900091842
 30
0.0
 10
30.40046423109352
 20
2.475492192214431
 30
0.0
 10
30.41353757991007
 20
2.477656607015802
 30
0.0
 10
30.42550578334192
 20
2.482142188420482
 30
0.0
 11
30.38768723888114
 21
2.47581900091842
 31
0.0
 11
30.42550578334192
 21
2.482142188420482
 31
0.0
  0
SPLINE
  5
83
330
2
100
AcDbEntity
  8
GAIKEI
  6
Continuous
 62
     1
100
AcDbSpline
210
0.0
220
0.0
230
1.0
 70
     8
 71
     3
 72
    13
 73
     9
 74
     7
 42
0.0000000001
 43
0.0000000001
 44
0.0000000001
 12
-0.0312532931407326
 22
-0.9995114965161027
 32
0.0
 13
-0.401848488187048
 23
-0.9157061715101542
 33
0.0
 40
0.0
 40
0.0
 40
0.0
 40
0.0
 40
0.0568501234497771
 40
0.118836126611905
 40
0.1860909079272796
 40
0.2591643089515307
 40
0.3385482029201424
 40
0.4248647367909264
 40
0.4248647367909264
 40
0.4248647367909264
 40
0.4248647367909264
 10
32.5427441712103
 20
7.388732557238256
 30
0.0
 10
32.54215192001921
 20
7.36979177324946
 30
0.0
 10
32.53875041056385
 20
7.330254539461776
 30
0.0
 10
32.52826180467541
 20
7.269064431685563
 30
0.0
 10
32.51234394390977
 20
7.203485639589644
 30
0.0
 10
32.49100416286197
 20
7.133390398805545
 30
0.0
 10
32.46402189765928
 20
7.058481529880936
 30
0.0
 10
32.442915577515
 20
7.007415584472312
 30
0.0
 10
32.43135352130116
 20
6.981068723549356
 30
0.0
 11
32.5427441712103
 21
7.388732557238256
 31
0.0
 11
32.53814300404326
 21
7.332068937543112
 31
0.0
 11
32.52789532091924
 21
7.270935889372708
 31
0.0
 11
32.5122071369708
 21
7.205536451346233
 31
0.0
 11
32.49106098304571
 21
7.135589599298214
 31
0.0
 11
32.46425868856591
 21
7.060867182098036
 31
0.0
 11
32.43135352130116
 21
6.981068723549356
 31
0.0
  0
SPLINE
  5
84
330
2
100
AcDbEntity
  8
GAIKEI
  6
Continuous
 62
     1
100
AcDbSpline
210
0.0
220
0.0
230
1.0
 70
     8
 71
     3
 72
    10
 73
     6
 74
     4
 42
0.0000000001
 43
0.0000000001
 44
0.0000000001
 12
0.2337703380409024
 22
0.9722918435594541
 32
0.0
 13
-0.7716601679391772
 23
0.636035050304683
 33
0.0
 40
0.0
 40
0.0
 40
0.0
 40
0.0
 40
0.1206935048250321
 40
0.231289540073756
 40
0.3349281519076547
 40
0.3349281519076547
 40
0.3349281519076547
 40
0.3349281519076547
 10
32.13430638875911
 20
31.92186458661274
 30
0.0
 10
32.14371124256654
 20
31.9609810233834
 30
0.0
 10
32.15138608112521
 20
32.03917895115228
 30
0.0
 10
32.12394366961085
 20
32.14995155441213
 30
0.0
 10
32.07872599407102
 20
32.20859479664281
 30
0.0
 10
32.05206806453344
 20
32.23056739320657
 30
0.0
 11
32.13430638875911
 21
31.92186458661274
 31
0.0
 11
32.14447085694065
 21
32.04212931832382
 31
0.0
 11
32.11600103003338
 21
32.1489981723862
 31
0.0
 11
32.05206806453344
 21
32.23056739320657
 31
0.0
  0
SPLINE
  5
85
330
2
100
AcDbEntity
  8
GAIKEI
  6
Continuous
 62
     1
100
AcDbSpline
210
0.0
220
0.0
230
1.0
 70
     8
 71
     3
 72
     8
 73
     4
 74
     2
 42
0.0000000001
 43
0.0000000001
 44
0.0000000001
 12
0.7732940262597894
 22
0.6340475920235989
 32
0.0
 13
-0.770210934158068
 23
0.6377892417588715
 33
0.0
 40
0.0
 40
0.0
 40
0.0
 40
0.0
 40
0.0157005520209795
 40
0.0157005520209795
 40
0.0157005520209795
 40
0.0157005520209795
 10
30.47574945704287
 20
33.51193516460785
 30
0.0
 10
30.47979650473847
 20
33.51525346367529
 30
0.0
 10
30.48280724959341
 20
33.52400329957101
 30
0.0
 10
30.47877633731378
 20
33.52734118062722
 30
0.0
 11
30.47574945704287
 21
33.51193516460785
 31
0.0
 11
30.47877633731378
 21
33.52734118062722
 31
0.0
  0
SPLINE
  5
86
330
2
100
AcDbEntity
  8
GAIKEI
  6
Continuous
 62
     1
100
AcDbSpline
210
0.0
220
0.0
230
1.0
 70
     8
 71
     3
 72
    11
 73
     7
 74
     5
 42
0.0000000001
 43
0.0000000001
 44
0.0000000001
 12
-0.0844370753735307
 22
0.9964288134645467
 32
0.0
 13
0.7738158995452654
 23
0.6334105727022178
 33
0.0
 40
0.0
 40
0.0
 40
0.0
 40
0.0
 40
0.0167588470496678
 40
0.0316327106953353
 40
0.0439202766624383
 40
0.0582094993796746
 40
0.0582094993796746
 40
0.0582094993796746
 40
0.0582094993796746
 10
30.47711097264846
 20
33.45410895153964
 30
0.0
 10
30.47663928330462
 20
33.45967528423321
 30
0.0
 10
30.4756970711664
 20
33.47010850477912
 30
0.0
 10
30.47407661293288
 20
33.48492738583479
 30
0.0
 10
30.47347498464713
 20
33.49791543390711
 30
0.0
 10
30.47206371446595
 20
33.50891818302625
 30
0.0
 10
30.47574945704287
 20
33.51193516460785
 30
0.0
 11
30.47711097264846
 21
33.45410895153964
 31
0.0
 11
30.47557780209206
 21
33.4707975207557
 31
0.0
 11
30.4741634861806
 21
33.48560398995847
 31
0.0
 11
30.4732848207675
 21
33.49786009963845
 31
0.0
 11
30.47574945704287
 21
33.51193516460785
 31
0.0
  0
SPLINE
  5
87
330
2
100
AcDbEntity
  8
GAIKEI
  6
Continuous
 62
     1
100
AcDbSpline
210
0.0
220
0.0
230
1.0
 70
     8
 71
     3
 72
     8
 73
     4
 74
     2
 42
0.0000000001
 43
0.0000000001
 44
0.0000000001
 12
-0.0692950814326496
 22
0.9975962067335874
 32
0.0
 13
-0.0844371265047553
 23
0.9964288091317012
 33
0.0
 40
0.0
 40
0.0
 40
0.0
 40
0.0
 40
0.0180095444903962
 40
0.0180095444903962
 40
0.0180095444903962
 40
0.0180095444903962
 10
30.47850542145682
 20
33.43615347312016
 30
0.0
 10
30.47808943050615
 20
33.4421422242097
 30
0.0
 10
30.47761786404393
 20
33.44812720854978
 30
0.0
 10
30.47711097264846
 20
33.45410895153964
 30
0.0
 11
30.47850542145682
 21
33.43615347312016
 31
0.0
 11
30.47711097264846
 21
33.45410895153964
 31
0.0
  0
SPLINE
  5
88
330
2
100
AcDbEntity
  8
GAIKEI
  6
Continuous
 62
     1
100
AcDbSpline
210
0.0
220
0.0
230
1.0
 70
     8
 71
     3
 72
    12
 73
     8
 74
     6
 42
0.0000000001
 43
0.0000000001
 44
0.0000000001
 12
0.0039894889547335
 22
0.9999920419572749
 32
0.0
 13
-0.0692950705878886
 23
0.9975962074868867
 33
0.0
 40
0.0
 40
0.0
 40
0.0
 40
0.0
 40
0.0338354594412898
 40
0.0640553722955348
 40
0.090189682022466
 40
0.1123888356608642
 40
0.131858082021376
 40
0.131858082021376
 40
0.131858082021376
 40
0.131858082021376
 10
30.48113184307448
 20
33.30435472669421
 30
0.0
 10
30.48117683847173
 20
33.31563312341996
 30
0.0
 10
30.48131566970025
 20
33.33698448719241
 30
0.0
 10
30.48121739704451
 20
33.3670485145241
 30
0.0
 10
30.4806837513167
 20
33.39322916449757
 30
0.0
 10
30.47977818986368
 20
33.41581328027388
 30
0.0
 10
30.4789551290571
 20
33.42967932434286
 30
0.0
 10
30.47850542145682
 20
33.43615347312016
 30
0.0
 11
30.48113184307448
 21
33.30435472669421
 31
0.0
 11
30.48126529500127
 21
33.33818992295767
 31
0.0
 11
30.48112051298267
 21
33.36840948898839
 31
0.0
 11
30.48056428442198
 21
33.39453787881041
 31
0.0
 11
30.47966607613648
 21
33.41671885363428
 31
0.0
 11
30.47850542145682
 21
33.43615347312016
 31
0.0
  0
SPLINE
  5
89
330
2
100
AcDbEntity
  8
GAIKEI
  6
Continuous
 62
     1
100
AcDbSpline
210
0.0
220
0.0
230
1.0
 70
     8
 71
     3
 72
     8
 73
     4
 74
     2
 42
0.0000000001
 43
0.0000000001
 44
0.0000000001
 12
0.0523657202963042
 22
0.9986279744418585
 32
0.0
 13
0.0038756822217355
 23
0.9999924895154544
 33
0.0
 40
0.0
 40
0.0
 40
0.0
 40
0.0
 40
0.0194326693274501
 40
0.0194326693274501
 40
0.0194326693274501
 40
0.0194326693274501
 10
30.48058771289197
 20
33.28492967689931
 30
0.0
 10
30.48092691480085
 20
33.29139834596879
 30
0.0
 10
30.48110673812414
 20
33.29787721890131
 30
0.0
 10
30.48113184307448
 20
33.30435472669421
 30
0.0
 11
30.48058771289197
 21
33.28492967689931
 31
0.0
 11
30.48113184307448
 21
33.30435472669421
 31
0.0
  0
SPLINE
  5
8A
330
2
100
AcDbEntity
  8
GAIKEI
  6
Continuous
 62
     1
100
AcDbSpline
210
0.0
220
0.0
230
1.0
 70
     8
 71
     3
 72
     8
 73
     4
 74
     2
 42
0.0000000001
 43
0.0000000001
 44
0.0000000001
 12
-0.8377183482650925
 22
0.5461025260699725
 32
0.0
 13
-0.9505899743694774
 23
0.3104491917016961
 33
0.0
 40
0.0
 40
0.0
 40
0.0
 40
0.0
 40
0.0576577070338562
 40
0.0576577070338562
 40
0.0576577070338562
 40
0.0576577070338562
 10
32.82460193450976
 20
10.55418793369529
 30
0.0
 10
32.80850162814271
 20
10.56468360684815
 30
0.0
 10
32.79088415606147
 20
10.57315569807815
 30
0.0
 10
32.77261454331096
 20
10.57912229425949
 30
0.0
 11
32.82460193450976
 21
10.55418793369529
 31
0.0
 11
32.77261454331096
 21
10.57912229425949
 31
0.0
  0
SPLINE
  5
8B
330
2
100
AcDbEntity
  8
GAIKEI
  6
Continuous
 62
     1
100
AcDbSpline
210
0.0
220
0.0
230
1.0
 70
     8
 71
     3
 72
     8
 73
     4
 74
     2
 42
0.0000000001
 43
0.0000000001
 44
0.0000000001
 12
-0.8101484876996996
 22
0.5862247247241366
 32
0.0
 13
-0.8377183288750343
 23
0.5461025558142172
 33
0.0
 40
0.0
 40
0.0
 40
0.0
 40
0.0
 40
0.0107207174421586
 40
0.0107207174421586
 40
0.0107207174421586
 40
0.0107207174421586
 10
32.8334379232914
 20
10.54811676537895
 30
0.0
 10
32.83054279895046
 20
10.55021168192274
 30
0.0
 10
32.82759558167642
 20
10.55223639663018
 30
0.0
 10
32.82460193450976
 20
10.55418793369529
 30
0.0
 11
32.8334379232914
 21
10.54811676537895
 31
0.0
 11
32.82460193450976
 21
10.55418793369529
 31
0.0
  0
SPLINE
  5
8C
330
2
100
AcDbEntity
  8
GAIKEI
  6
Continuous
 62
     1
100
AcDbSpline
210
0.0
220
0.0
230
1.0
 70
     8
 71
     3
 72
     9
 73
     5
 74
     3
 42
0.0000000001
 43
0.0000000001
 44
0.0000000001
 12
-0.3197360681434029
 22
0.9475066473266545
 32
0.0
 13
-0.8101484928660493
 23
0.5862247175843654
 33
0.0
 40
0.0
 40
0.0
 40
0.0
 40
0.0
 40
0.0701166285202549
 40
0.1383846862876745
 40
0.1383846862876745
 40
0.1383846862876745
 40
0.1383846862876745
 10
32.91439203000152
 20
10.43792038054721
 30
0.0
 10
32.90691909163002
 20
10.46006570441756
 30
0.0
 10
32.88522309066583
 20
10.50173340545251
 30
0.0
 10
32.85187367799512
 20
10.53477662441736
 30
0.0
 10
32.8334379232914
 20
10.54811676537895
 30
0.0
 11
32.91439203000152
 21
10.43792038054721
 31
0.0
 11
32.88194156396685
 21
10.50007590201698
 31
0.0
 11
32.8334379232914
 21
10.54811676537895
 31
0.0
  0
SPLINE
  5
8D
330
2
100
AcDbEntity
  8
GAIKEI
  6
Continuous
 62
     1
100
AcDbSpline
210
0.0
220
0.0
230
1.0
 70
     8
 71
     3
 72
     8
 73
     4
 74
     2
 42
0.0000000001
 43
0.0000000001
 44
0.0000000001
 12
-0.0001135609057048
 22
0.9999999935519603
 32
0.0
 13
-0.3197360693113857
 23
0.9475066469325186
 33
0.0
 40
0.0
 40
0.0
 40
0.0
 40
0.0
 40
0.0739744382188075
 40
0.0739744382188075
 40
0.0739744382188075
 40
0.0739744382188075
 10
32.92638049115453
 20
10.36492384426657
 30
0.0
 10
32.92637769095313
 20
10.38958199018051
 30
0.0
 10
32.92227612870339
 20
10.41455662324207
 30
0.0
 10
32.91439203000152
 20
10.43792038054721
 30
0.0
 11
32.92638049115453
 21
10.36492384426657
 31
0.0
 11
32.91439203000152
 21
10.43792038054721
 31
0.0
  0
SPLINE
  5
8E
330
2
100
AcDbEntity
  8
GAIKEI
  6
Continuous
 62
     1
100
AcDbSpline
210
0.0
220
0.0
230
1.0
 70
     8
 71
     3
 72
     9
 73
     5
 74
     3
 42
0.0000000001
 43
0.0000000001
 44
0.0000000001
 12
1.0
 22
0.0
 32
0.0
 13
0.9999935631391091
 23
-0.0035879911299411
 33
0.0
 40
0.0
 40
0.0
 40
0.0
 40
0.0
 40
0.0156264121653268
 40
0.0312434605558466
 40
0.0312434605558466
 40
0.0312434605558466
 40
0.0312434605558466
 10
32.11326362153801
 20
29.00127385753126
 30
0.0
 10
32.11847242559313
 20
29.00127385753126
 30
0.0
 10
32.12888690855924
 20
29.00126215884674
 30
0.0
 10
32.1393013819215
 20
29.00124119436217
 30
0.0
 10
32.14450703121008
 20
29.00122251641846
 30
0.0
 11
32.11326362153801
 21
29.00127385753126
 31
0.0
 11
32.12889002741395
 21
29.00125983750189
 31
0.0
 11
32.14450703121008
 21
29.00122251641846
 31
0.0
  0
SPLINE
  5
8F
330
2
100
AcDbEntity
  8
GAIKEI
  6
Continuous
 62
     1
100
AcDbSpline
210
0.0
220
0.0
230
1.0
 70
     8
 71
     3
 72
     9
 73
     5
 74
     3
 42
0.0000000001
 43
0.0000000001
 44
0.0000000001
 12
1.0
 22
0.0
 32
0.0
 13
0.9999935633113882
 23
0.0035879431144863
 33
0.0
 40
0.0
 40
0.0
 40
0.0
 40
0.0
 40
0.0156264121653717
 40
0.0312434605557719
 40
0.0312434605557719
 40
0.0312434605557719
 40
0.0312434605557719
 10
32.11326362153801
 20
29.21796771677123
 30
0.0
 10
32.11847242559314
 20
29.21796771677123
 30
0.0
 10
32.12888690855959
 20
29.21797941543076
 30
0.0
 10
32.13930138192065
 20
29.21800038019026
 30
0.0
 10
32.14450703121008
 20
29.21801905788402
 30
0.0
 11
32.11326362153801
 21
29.21796771677123
 31
0.0
 11
32.12889002741395
 21
29.21798173685062
 31
0.0
 11
32.14450703121008
 21
29.21801905788402
 31
0.0
  0
SPLINE
  5
90
330
2
100
AcDbEntity
  8
GAIKEI
  6
Continuous
 62
     1
100
AcDbSpline
210
0.0
220
0.0
230
1.0
 70
     8
 71
     3
 72
     9
 73
     5
 74
     3
 42
0.0000000001
 43
0.0000000001
 44
0.0000000001
 12
-0.1071705994499272
 22
-0.994240646228841
 32
0.0
 13
0.000109780542405
 23
-0.9999999939741162
 33
0.0
 40
0.0
 40
0.0
 40
0.0
 40
0.0
 40
0.0175432171391515
 40
0.0363559943481768
 40
0.0363559943481768
 40
0.0363559943481768
 40
0.0363559943481768
 10
32.5446875409923
 20
10.41605752120335
 30
0.0
 10
32.54406083529327
 20
10.41024346135489
 30
0.0
 10
32.54308593794981
 20
10.39815806121981
 30
0.0
 10
32.54274729047246
 20
10.38603716088559
 30
0.0
 10
32.54274797889809
 20
10.37976623518705
 30
0.0
 11
32.5446875409923
 21
10.41605752120335
 31
0.0
 11
32.54326812903139
 21
10.39857182026583
 31
0.0
 11
32.54274797889809
 21
10.37976623518705
 31
0.0
  0
SPLINE
  5
91
330
2
100
AcDbEntity
  8
GAIKEI
  6
Continuous
 62
     1
100
AcDbSpline
210
0.0
220
0.0
230
1.0
 70
     8
 71
     3
 72
    27
 73
    23
 74
    21
 42
0.0000000001
 43
0.0000000001
 44
0.0000000001
 12
-0.9505383284345677
 22
0.3106072860974413
 32
0.0
 13
-0.1071705547632277
 23
-0.9942406510456821
 33
0.0
 40
0.0
 40
0.0
 40
0.0
 40
0.0
 40
0.0229553349740704
 40
0.037132625140377
 40
0.0523310574798696
 40
0.0678957141819937
 40
0.0834293750629166
 40
0.0988624741512967
 40
0.1142071280765757
 40
0.1295448334225534
 40
0.1450388560119407
 40
0.1607648125836053
 40
0.17660423934116
 40
0.1926008918865265
 40
0.2089767956125083
 40
0.2257864183562909
 40
0.2430358250794315
 40
0.2606883787205158
 40
0.2785363748968961
 40
0.296147183588598
 40
0.3132620820052419
 40
0.3302054277302905
 40
0.3302054277302905
 40
0.3302054277302905
 40
0.3302054277302905
 10
32.77261454331096
 20
10.57912229425949
 30
0.0
 10
32.76534123473266
 20
10.58149899235874
 30
0.0
 10
32.75313780447664
 20
10.58398978357232
 30
0.0
 10
32.73580591778182
 20
10.58592224269466
 30
0.0
 10
32.72084805971515
 20
10.58686813522223
 30
0.0
 10
32.70541606883518
 20
10.58721595922054
 30
0.0
 10
32.68990259663893
 20
10.58682556151055
 30
0.0
 10
32.67451322031366
 20
10.58544506717575
 30
0.0
 10
32.65935272791592
 20
10.58276533877034
 30
0.0
 10
32.64453472163113
 20
10.57847400664144
 30
0.0
 10
32.63023983030118
 20
10.57231859661289
 30
0.0
 10
32.61675550563931
 20
10.56420871648268
 30
0.0
 10
32.60434753471596
 20
10.55426829895523
 30
0.0
 10
32.59312370097051
 20
10.54271418816643
 30
0.0
 10
32.58307507897705
 20
10.52972152045532
 30
0.0
 10
32.57416839109055
 20
10.51543313405892
 30
0.0
 10
32.5663955787391
 20
10.50002450556937
 30
0.0
 10
32.55976652543971
 20
10.48371989859066
 30
0.0
 10
32.55431038578175
 20
10.46686284820609
 30
0.0
 10
32.55002027502655
 20
10.44985962381335
 30
0.0
 10
32.54680293402361
 20
10.43293091740887
 30
0.0
 10
32.54529281691259
 20
10.42167277556487
 30
0.0
 10
32.5446875409923
 20
10.41605752120335
 30
0.0
 11
32.77261454331096
 21
10.57912229425949
 31
0.0
 11
32.75021672620574
 21
10.5841507326545
 31
0.0
 11
32.73613288971564
 21
10.58577588070306
 31
0.0
 11
32.72096627440845
 21
10.58675879763859
 31
0.0
 11
32.70540519122977
 21
10.58709230710042
 31
0.0
 11
32.68987760798495
 21
10.58665782011701
 31
0.0
 11
32.67451131195003
 21
10.58522342350562
 31
0.0
 11
32.65941068998427
 21
10.58249769051542
 31
0.0
 11
32.64469066565948
 21
10.57818885202255
 31
0.0
 11
32.63046865923059
 21
10.5720407410007
 31
0.0
 11
32.61698904716411
 21
10.56394100220052
 31
0.0
 11
32.60460982311463
 21
10.55405959278988
 31
0.0
 11
32.59343717392721
 21
10.54261123907451
 31
0.0
 11
32.58338767090265
 21
10.5296815170434
 31
0.0
 11
32.57446413815518
 21
10.51543602722756
 31
0.0
 11
32.56666624684362
 21
10.50004983460582
 31
0.0
 11
32.55999243944257
 21
10.48370746804448
 31
0.0
 11
32.5544758300274
 21
10.46673342939505
 31
0.0
 11
32.55015247913332
 21
10.44966154549718
 31
0.0
 11
32.54694645095123
 21
10.43284961131019
 31
0.0
 11
32.5446875409923
 21
10.41605752120335
 31
0.0
  0
SPLINE
  5
92
330
2
100
AcDbEntity
  8
GAIKEI
  6
Continuous
 62
     1
100
AcDbSpline
210
0.0
220
0.0
230
1.0
 70
     8
 71
     3
 72
     9
 73
     5
 74
     3
 42
0.0000000001
 43
0.0000000001
 44
0.0000000001
 12
1.0
 22
0.0
 32
0.0
 13
0.9999935633113882
 23
-0.0035879431144863
 33
0.0
 40
0.0
 40
0.0
 40
0.0
 40
0.0
 40
0.0156264121652012
 40
0.0312434605554341
 40
0.0312434605554341
 40
0.0312434605554341
 40
0.0312434605554341
 10
32.11326362153801
 20
29.90138681187125
 30
0.0
 10
32.11847242559308
 20
29.90138681187125
 30
0.0
 10
32.12888690855955
 20
29.90137511346166
 30
0.0
 10
32.13930138192071
 20
29.90135414871227
 30
0.0
 10
32.14450703121008
 20
29.90133547101851
 30
0.0
 11
32.11326362153801
 21
29.90138681187125
 31
0.0
 11
32.12889002741395
 21
29.90137279198189
 31
0.0
 11
32.14450703121008
 21
29.90133547101851
 31
0.0
  0
SPLINE
  5
93
330
2
100
AcDbEntity
  8
GAIKEI
  6
Continuous
 62
     1
100
AcDbSpline
210
0.0
220
0.0
230
1.0
 70
     8
 71
     3
 72
     9
 73
     5
 74
     3
 42
0.0000000001
 43
0.0000000001
 44
0.0000000001
 12
0.3257716112623443
 22
-0.945448495316131
 32
0.0
 13
-0.9530635958495373
 23
-0.3027701806095666
 33
0.0
 40
0.0
 40
0.0
 40
0.0
 40
0.0
 40
0.0194697494219188
 40
0.0262046588073696
 40
0.0262046588073696
 40
0.0262046588073696
 40
0.0262046588073696
 10
32.13196489767711
 20
28.76628381129649
 30
0.0
 10
32.13407912822379
 20
28.76014792953146
 30
0.0
 10
32.1395037068106
 20
28.74885779019442
 30
0.0
 10
32.13073790515165
 20
28.74406061724858
 30
0.0
 10
32.12859830616611
 20
28.74338090733824
 30
0.0
 11
32.13196489767711
 21
28.76628381129649
 31
0.0
 11
32.13430638869909
 21
28.74695537208515
 31
0.0
 11
32.12859830616611
 21
28.74338090733824
 31
0.0
  0
SPLINE
  5
94
330
2
100
AcDbEntity
  8
GAIKEI
  6
Continuous
 62
     1
100
AcDbSpline
210
0.0
220
0.0
230
1.0
 70
     8
 71
     3
 72
     8
 73
     4
 74
     2
 42
0.0000000001
 43
0.0000000001
 44
0.0000000001
 12
0.285814192092163
 22
-0.9582850555021217
 32
0.0
 13
0.0
 23
-1.0
 33
0.0
 40
0.0
 40
0.0
 40
0.0
 40
0.0
 40
0.0125003580983143
 40
0.0125003580983143
 40
0.0125003580983143
 40
0.0125003580983143
 10
32.1301592868424
 20
28.73847911684624
 30
0.0
 10
32.13135021342598
 20
28.73448614806156
 30
0.0
 10
32.13196329854645
 20
28.73027640432986
 30
0.0
 10
32.13196329854645
 20
28.72610961829707
 30
0.0
 11
32.1301592868424
 21
28.73847911684624
 31
0.0
 11
32.13196329854645
 21
28.72610961829707
 31
0.0
  0
SPLINE
  5
95
330
2
100
AcDbEntity
  8
GAIKEI
  6
Continuous
 62
     1
100
AcDbSpline
210
0.0
220
0.0
230
1.0
 70
     8
 71
     3
 72
     8
 73
     4
 74
     2
 42
0.0000000001
 43
0.0000000001
 44
0.0000000001
 12
0.705685386436447
 22
0.7085253244380491
 32
0.0
 13
0.9216958918182076
 23
0.3879132415959001
 33
0.0
 40
0.0
 40
0.0
 40
0.0
 40
0.0
 40
0.0090928545731119
 40
0.0090928545731119
 40
0.0090928545731119
 40
0.0090928545731119
 10
31.84824804450193
 20
28.759846802011
 30
0.0
 10
31.85038694269967
 20
28.76199430792315
 30
0.0
 10
31.85291930708557
 20
28.76386293390502
 30
0.0
 10
31.85571292265388
 20
28.76503868013595
 30
0.0
 11
31.84824804450193
 21
28.759846802011
 31
0.0
 11
31.85571292265388
 21
28.76503868013595
 31
0.0
  0
SPLINE
  5
96
330
2
100
AcDbEntity
  8
GAIKEI
  6
Continuous
 62
     1
100
AcDbSpline
210
0.0
220
0.0
230
1.0
 70
     8
 71
     3
 72
     9
 73
     5
 74
     3
 42
0.0000000001
 43
0.0000000001
 44
0.0000000001
 12
0.0
 22
1.0
 32
0.0
 13
0.7056853819307513
 23
0.7085253289256848
 33
0.0
 40
0.0
 40
0.0
 40
0.0
 40
0.0
 40
0.024754576486741
 40
0.0444894234667338
 40
0.0444894234667338
 40
0.0444894234667338
 40
0.0444894234667338
 10
31.83539304581774
 20
28.7179740782143
 30
0.0
 10
31.83539304581774
 20
28.72622560370988
 30
0.0
 10
31.83728224216466
 20
28.7409973659465
 30
0.0
 10
31.84360584682579
 20
28.75518592236173
 30
0.0
 10
31.84824804450193
 20
28.759846802011
 30
0.0
 11
31.83539304581774
 21
28.7179740782143
 31
0.0
 11
31.83886828140249
 21
28.74248350078335
 31
0.0
 11
31.84824804450193
 21
28.759846802011
 31
0.0
  0
SPLINE
  5
97
330
2
100
AcDbEntity
  8
GAIKEI
  6
Continuous
 62
     1
100
AcDbSpline
210
0.0
220
0.0
230
1.0
 70
     8
 71
     3
 72
     8
 73
     4
 74
     2
 42
0.0000000001
 43
0.0000000001
 44
0.0000000001
 12
0.2859460359504625
 22
-0.9582457224137328
 32
0.0
 13
0.4960848079630504
 23
-0.8682740715397779
 33
0.0
 40
0.0
 40
0.0
 40
0.0
 40
0.0
 40
0.0193107686771378
 40
0.0193107686771378
 40
0.0193107686771378
 40
0.0193107686771378
 10
31.28917820337654
 20
27.77606743065508
 30
0.0
 10
31.29101881596134
 20
27.76989927682794
 30
0.0
 10
31.29333688131879
 20
27.76379993807351
 30
0.0
 10
31.29653014097574
 20
27.75821092482556
 30
0.0
 11
31.28917820337654
 21
27.77606743065508
 31
0.0
 11
31.29653014097574
 21
27.75821092482556
 31
0.0
  0
SPLINE
  5
98
330
2
100
AcDbEntity
  8
GAIKEI
  6
Continuous
 62
     1
100
AcDbSpline
210
0.0
220
0.0
230
1.0
 70
     8
 71
     3
 72
     8
 73
     4
 74
     2
 42
0.0000000001
 43
0.0000000001
 44
0.0000000001
 12
0.0173142271884802
 22
-0.9998500975330582
 32
0.0
 13
0.2859460425526459
 23
-0.9582457204436034
 33
0.0
 40
0.0
 40
0.0
 40
0.0
 40
0.0
 40
0.0405735983144392
 40
0.0405735983144392
 40
0.0405735983144392
 40
0.0405735983144392
 10
31.28324270484529
 20
27.81620452991956
 30
0.0
 10
31.28347687167832
 20
27.8026820245089
 30
0.0
 10
31.28531091675316
 20
27.78902725630434
 30
0.0
 10
31.28917820337654
 20
27.77606743065508
 30
0.0
 11
31.28324270484529
 21
27.81620452991956
 31
0.0
 11
31.28917820337654
 21
27.77606743065508
 31
0.0
  0
SPLINE
  5
99
330
2
100
AcDbEntity
  8
GAIKEI
  6
Continuous
 62
     1
100
AcDbSpline
210
0.0
220
0.0
230
1.0
 70
     8
 71
     3
 72
     8
 73
     4
 74
     2
 42
0.0000000001
 43
0.0000000001
 44
0.0000000001
 12
0.2796864637838631
 22
0.9600913925122325
 32
0.0
 13
0.5102978090168355
 23
0.8599977593648819
 33
0.0
 40
0.0
 40
0.0
 40
0.0
 40
0.0
 40
0.0218276318179974
 40
0.0218276318179974
 40
0.0218276318179974
 40
0.0218276318179974
 10
31.32114938769655
 20
23.71664323854588
 30
0.0
 10
31.32318435208187
 20
23.72362874568836
 30
0.0
 10
31.3257299550321
 20
23.7305767037902
 30
0.0
 10
31.32944281926302
 20
23.73683394194211
 30
0.0
 11
31.32114938769655
 21
23.71664323854588
 31
0.0
 11
31.32944281926302
 21
23.73683394194211
 31
0.0
  0
SPLINE
  5
9A
330
2
100
AcDbEntity
  8
GAIKEI
  6
Continuous
 62
     1
100
AcDbSpline
210
0.0
220
0.0
230
1.0
 70
     8
 71
     3
 72
     8
 73
     4
 74
     2
 42
0.0000000001
 43
0.0000000001
 44
0.0000000001
 12
0.1587972483249303
 22
0.9873112143212143
 32
0.0
 13
0.2796864373480949
 23
0.9600914002132975
 33
0.0
 40
0.0
 40
0.0
 40
0.0
 40
0.0
 40
0.0185775593827556
 40
0.0185775593827556
 40
0.0185775593827556
 40
0.0185775593827556
 10
31.31704534088277
 20
23.69852467038032
 30
0.0
 10
31.3180286959863
 20
23.70463861461809
 30
0.0
 10
31.3194174238971
 20
23.71069785354578
 30
0.0
 10
31.32114938769655
 20
23.71664323854588
 30
0.0
 11
31.31704534088277
 21
23.69852467038032
 31
0.0
 11
31.32114938769655
 21
23.71664323854588
 31
0.0
  0
SPLINE
  5
9B
330
2
100
AcDbEntity
  8
GAIKEI
  6
Continuous
 62
     1
100
AcDbSpline
210
0.0
220
0.0
230
1.0
 70
     8
 71
     3
 72
     8
 73
     4
 74
     2
 42
0.0000000001
 43
0.0000000001
 44
0.0000000001
 12
-0.0027357148286433
 22
0.9999962579251867
 32
0.0
 13
0.1587972645490587
 23
0.987311211711756
 33
0.0
 40
0.0
 40
0.0
 40
0.0
 40
0.0
 40
0.0214001962127301
 40
0.0214001962127301
 40
0.0214001962127301
 40
0.0214001962127301
 10
31.31533383946771
 20
23.6771930234479
 30
0.0
 10
31.315314324523
 20
23.68432639549175
 30
0.0
 10
31.31591257667631
 20
23.6914817858291
 30
0.0
 10
31.31704534088277
 20
23.69852467038032
 30
0.0
 11
31.31533383946771
 21
23.6771930234479
 31
0.0
 11
31.31704534088277
 21
23.69852467038032
 31
0.0
  0
SPLINE
  5
9C
330
2
100
AcDbEntity
  8
GAIKEI
  6
Continuous
 62
     1
100
AcDbSpline
210
0.0
220
0.0
230
1.0
 70
     8
 71
     3
 72
     8
 73
     4
 74
     2
 42
0.0000000001
 43
0.0000000001
 44
0.0000000001
 12
0.2796864546027904
 22
0.9600913951867923
 32
0.0
 13
0.5102978090168355
 23
0.8599977593648819
 33
0.0
 40
0.0
 40
0.0
 40
0.0
 40
0.0
 40
0.0218276318179974
 40
0.0218276318179974
 40
0.0218276318179974
 40
0.0218276318179974
 10
31.32114938769655
 20
24.56674991756586
 30
0.0
 10
31.32318435201506
 20
24.57373542472777
 30
0.0
 10
31.3257299550321
 20
24.58068338281018
 30
0.0
 10
31.32944281926302
 20
24.58694062096208
 30
0.0
 11
31.32114938769655
 21
24.56674991756586
 31
0.0
 11
31.32944281926302
 21
24.58694062096208
 31
0.0
  0
SPLINE
  5
9D
330
2
100
AcDbEntity
  8
GAIKEI
  6
Continuous
 62
     1
100
AcDbSpline
210
0.0
220
0.0
230
1.0
 70
     8
 71
     3
 72
     8
 73
     4
 74
     2
 42
0.0000000001
 43
0.0000000001
 44
0.0000000001
 12
0.158797248070871
 22
0.9873112143620767
 32
0.0
 13
0.2796864481358033
 23
0.9600913970707052
 33
0.0
 40
0.0
 40
0.0
 40
0.0
 40
0.0
 40
0.0185775591388794
 40
0.0185775591388794
 40
0.0185775591388794
 40
0.0185775591388794
 10
31.31704534088277
 20
24.54863134965035
 30
0.0
 10
31.31802869597182
 20
24.55474529380811
 30
0.0
 10
31.31941742385303
 20
24.56080453266324
 30
0.0
 10
31.32114938769655
 20
24.56674991756586
 30
0.0
 11
31.31704534088277
 21
24.54863134965035
 31
0.0
 11
31.32114938769655
 21
24.56674991756586
 31
0.0
  0
SPLINE
  5
9E
330
2
100
AcDbEntity
  8
GAIKEI
  6
Continuous
 62
     1
100
AcDbSpline
210
0.0
220
0.0
230
1.0
 70
     8
 71
     3
 72
     8
 73
     4
 74
     2
 42
0.0000000001
 43
0.0000000001
 44
0.0000000001
 12
-0.002735714928305
 22
0.9999962579249141
 32
0.0
 13
0.1587972647681103
 23
0.9873112116765243
 33
0.0
 40
0.0
 40
0.0
 40
0.0
 40
0.0
 40
0.0214001962127301
 40
0.0214001962127301
 40
0.0214001962127301
 40
0.0214001962127301
 10
31.31533383946771
 20
24.52729970271793
 30
0.0
 10
31.31531432452229
 20
24.53443307476178
 30
0.0
 10
31.31591257667475
 20
24.54158846509938
 30
0.0
 10
31.31704534088277
 20
24.54863134965035
 30
0.0
 11
31.31533383946771
 21
24.52729970271793
 31
0.0
 11
31.31704534088277
 21
24.54863134965035
 31
0.0
  0
SPLINE
  5
9F
330
2
100
AcDbEntity
  8
GAIKEI
  6
Continuous
 62
     1
100
AcDbSpline
210
0.0
220
0.0
230
1.0
 70
     8
 71
     3
 72
     8
 73
     4
 74
     2
 42
0.0000000001
 43
0.0000000001
 44
0.0000000001
 12
0.2796864542355477
 22
0.9600913952937746
 32
0.0
 13
0.5102978090168355
 23
0.8599977593648819
 33
0.0
 40
0.0
 40
0.0
 40
0.0
 40
0.0
 40
0.0218276318179974
 40
0.0218276318179974
 40
0.0218276318179974
 40
0.0218276318179974
 10
31.32114938769655
 20
25.41685659683583
 30
0.0
 10
31.32318435201239
 20
25.42384210399854
 30
0.0
 10
31.3257299550321
 20
25.43079006208015
 30
0.0
 10
31.32944281926302
 20
25.43704730023205
 30
0.0
 11
31.32114938769655
 21
25.41685659683583
 31
0.0
 11
31.32944281926302
 21
25.43704730023205
 31
0.0
  0
SPLINE
  5
A0
330
2
100
AcDbEntity
  8
GAIKEI
  6
Continuous
 62
     1
100
AcDbSpline
210
0.0
220
0.0
230
1.0
 70
     8
 71
     3
 72
     8
 73
     4
 74
     2
 42
0.0000000001
 43
0.0000000001
 44
0.0000000001
 12
0.1587972483249303
 22
0.9873112143212143
 32
0.0
 13
0.2796864485673116
 23
0.9600913969450015
 33
0.0
 40
0.0
 40
0.0
 40
0.0
 40
0.0
 40
0.0185775591291222
 40
0.0185775591291222
 40
0.0185775591291222
 40
0.0185775591291222
 10
31.31704534088277
 20
25.39873802893032
 30
0.0
 10
31.31802869597287
 20
25.40485197308462
 30
0.0
 10
31.31941742385127
 20
25.41091121193713
 30
0.0
 10
31.32114938769655
 20
25.41685659683583
 30
0.0
 11
31.31704534088277
 21
25.39873802893032
 31
0.0
 11
31.32114938769655
 21
25.41685659683583
 31
0.0
  0
SPLINE
  5
A1
330
2
100
AcDbEntity
  8
GAIKEI
  6
Continuous
 62
     1
100
AcDbSpline
210
0.0
220
0.0
230
1.0
 70
     8
 71
     3
 72
     8
 73
     4
 74
     2
 42
0.0000000001
 43
0.0000000001
 44
0.0000000001
 12
-0.0027357149244719
 22
0.9999962579249244
 32
0.0
 13
0.1587972645490587
 23
0.987311211711756
 33
0.0
 40
0.0
 40
0.0
 40
0.0
 40
0.0
 40
0.0214001962226458
 40
0.0214001962226458
 40
0.0214001962226458
 40
0.0214001962226458
 10
31.31533383946771
 20
25.37740638198795
 30
0.0
 10
31.31531432452232
 20
25.38453975403513
 30
0.0
 10
31.31591257667579
 20
25.39169514437583
 30
0.0
 10
31.31704534088277
 20
25.39873802893032
 30
0.0
 11
31.31533383946771
 21
25.37740638198795
 31
0.0
 11
31.31704534088277
 21
25.39873802893032
 31
0.0
  0
SPLINE
  5
A2
330
2
100
AcDbEntity
  8
GAIKEI
  6
Continuous
 62
     1
100
AcDbSpline
210
0.0
220
0.0
230
1.0
 70
     8
 71
     3
 72
     8
 73
     4
 74
     2
 42
0.0000000001
 43
0.0000000001
 44
0.0000000001
 12
0.2796864542355477
 22
0.9600913952937746
 32
0.0
 13
0.5102978090168355
 23
0.8599977593648819
 33
0.0
 40
0.0
 40
0.0
 40
0.0
 40
0.0
 40
0.0218276318180499
 40
0.0218276318180499
 40
0.0218276318180499
 40
0.0218276318180499
 10
31.32114938769655
 20
26.2669632761058
 30
0.0
 10
31.3231843520124
 20
26.27394878326851
 30
0.0
 10
31.3257299550321
 20
26.28089674135015
 30
0.0
 10
31.32944281926302
 20
26.28715397950208
 30
0.0
 11
31.32114938769655
 21
26.2669632761058
 31
0.0
 11
31.32944281926302
 21
26.28715397950208
 31
0.0
  0
SPLINE
  5
A3
330
2
100
AcDbEntity
  8
GAIKEI
  6
Continuous
 62
     1
100
AcDbSpline
210
0.0
220
0.0
230
1.0
 70
     8
 71
     3
 72
     8
 73
     4
 74
     2
 42
0.0000000001
 43
0.0000000001
 44
0.0000000001
 12
0.1587972483249303
 22
0.9873112143212143
 32
0.0
 13
0.2796864485673116
 23
0.9600913969450015
 33
0.0
 40
0.0
 40
0.0
 40
0.0
 40
0.0
 40
0.0185775591291222
 40
0.0185775591291222
 40
0.0185775591291222
 40
0.0185775591291222
 10
31.31704534088277
 20
26.2488447082003
 30
0.0
 10
31.31802869597287
 20
26.25495865235459
 30
0.0
 10
31.31941742385127
 20
26.2610178912071
 30
0.0
 10
31.32114938769655
 20
26.2669632761058
 30
0.0
 11
31.31704534088277
 21
26.2488447082003
 31
0.0
 11
31.32114938769655
 21
26.2669632761058
 31
0.0
  0
SPLINE
  5
A4
330
2
100
AcDbEntity
  8
GAIKEI
  6
Continuous
 62
     1
100
AcDbSpline
210
0.0
220
0.0
230
1.0
 70
     8
 71
     3
 72
     8
 73
     4
 74
     2
 42
0.0000000001
 43
0.0000000001
 44
0.0000000001
 12
-0.0027357148286433
 22
0.9999962579251867
 32
0.0
 13
0.1587972645490587
 23
0.987311211711756
 33
0.0
 40
0.0
 40
0.0
 40
0.0
 40
0.0
 40
0.0214001964718424
 40
0.0214001964718424
 40
0.0214001964718424
 40
0.0214001964718424
 10
31.31533383946771
 20
26.22751306100793
 30
0.0
 10
31.31531432452277
 20
26.23464643313815
 30
0.0
 10
31.3159125766626
 20
26.24180182356381
 30
0.0
 10
31.31704534088277
 20
26.2488447082003
 30
0.0
 11
31.31533383946771
 21
26.22751306100793
 31
0.0
 11
31.31704534088277
 21
26.2488447082003
 31
0.0
  0
SPLINE
  5
A5
330
2
100
AcDbEntity
  8
GAIKEI
  6
Continuous
 62
     1
100
AcDbSpline
210
0.0
220
0.0
230
1.0
 70
     8
 71
     3
 72
     8
 73
     4
 74
     2
 42
0.0000000001
 43
0.0000000001
 44
0.0000000001
 12
0.2796864542355477
 22
0.9600913952937746
 32
0.0
 13
0.5102978090168355
 23
0.8599977593648819
 33
0.0
 40
0.0
 40
0.0
 40
0.0
 40
0.0
 40
0.0218276318180499
 40
0.0218276318180499
 40
0.0218276318180499
 40
0.0218276318180499
 10
31.32114938769655
 20
27.11706995537582
 30
0.0
 10
31.3231843520124
 20
27.12405546253854
 30
0.0
 10
31.3257299550321
 20
27.13100342062018
 30
0.0
 10
31.32944281926302
 20
27.13726065877211
 30
0.0
 11
31.32114938769655
 21
27.11706995537582
 31
0.0
 11
31.32944281926302
 21
27.13726065877211
 31
0.0
  0
SPLINE
  5
A6
330
2
100
AcDbEntity
  8
GAIKEI
  6
Continuous
 62
     1
100
AcDbSpline
210
0.0
220
0.0
230
1.0
 70
     8
 71
     3
 72
     8
 73
     4
 74
     2
 42
0.0000000001
 43
0.0000000001
 44
0.0000000001
 12
0.1587972483249303
 22
0.9873112143212143
 32
0.0
 13
0.2796864485673116
 23
0.9600913969450015
 33
0.0
 40
0.0
 40
0.0
 40
0.0
 40
0.0
 40
0.0185775591291222
 40
0.0185775591291222
 40
0.0185775591291222
 40
0.0185775591291222
 10
31.31704534088277
 20
27.09895138747032
 30
0.0
 10
31.31802869597287
 20
27.10506533162462
 30
0.0
 10
31.31941742385127
 20
27.11112457047713
 30
0.0
 10
31.32114938769655
 20
27.11706995537582
 30
0.0
 11
31.31704534088277
 21
27.09895138747032
 31
0.0
 11
31.32114938769655
 21
27.11706995537582
 31
0.0
  0
SPLINE
  5
A7
330
2
100
AcDbEntity
  8
GAIKEI
  6
Continuous
 62
     1
100
AcDbSpline
210
0.0
220
0.0
230
1.0
 70
     8
 71
     3
 72
     8
 73
     4
 74
     2
 42
0.0000000001
 43
0.0000000001
 44
0.0000000001
 12
-0.0027357148286433
 22
0.9999962579251867
 32
0.0
 13
0.1587972645490587
 23
0.987311211711756
 33
0.0
 40
0.0
 40
0.0
 40
0.0
 40
0.0
 40
0.021400196471899
 40
0.021400196471899
 40
0.021400196471899
 40
0.021400196471899
 10
31.31533383946771
 20
27.0776197402779
 30
0.0
 10
31.31531432452277
 20
27.08475311240815
 30
0.0
 10
31.31591257666258
 20
27.09190850283381
 30
0.0
 10
31.31704534088277
 20
27.09895138747032
 30
0.0
 11
31.31533383946771
 21
27.0776197402779
 31
0.0
 11
31.31704534088277
 21
27.09895138747032
 31
0.0
  0
SPLINE
  5
A8
330
2
100
AcDbEntity
  8
GAIKEI
  6
Continuous
 62
     1
100
AcDbSpline
210
0.0
220
0.0
230
1.0
 70
     8
 71
     3
 72
    11
 73
     7
 74
     5
 42
0.0000000001
 43
0.0000000001
 44
0.0000000001
 12
1.0
 22
0.0
 32
0.0
 13
-1.0
 23
0.0
 33
0.0
 40
0.0
 40
0.0
 40
0.0
 40
0.0
 40
0.0272685631070147
 40
0.0630021926669592
 40
0.0987358223617123
 40
0.1260043854859268
 40
0.1260043854859268
 40
0.1260043854859268
 40
0.1260043854859268
 10
31.85881807496708
 20
27.35940115353628
 30
0.0
 10
31.86790759600275
 20
27.35940115353628
 30
0.0
 10
31.8861329697512
 20
27.37667024848213
 30
0.0
 10
31.89361820072955
 20
27.40940742869009
 30
0.0
 10
31.88613296977858
 20
27.44214460890808
 30
0.0
 10
31.86790759600848
 20
27.45941370392626
 30
0.0
 10
31.85881807496708
 20
27.45941370392626
 30
0.0
 11
31.85881807496708
 21
27.35940115353628
 31
0.0
 11
31.88116472179104
 21
27.37502811452191
 31
0.0
 11
31.89090920955954
 21
27.40940742864621
 31
0.0
 11
31.88116472179104
 21
27.44378674291062
 31
0.0
 11
31.85881807496708
 21
27.45941370392626
 31
0.0
  0
SPLINE
  5
A9
330
2
100
AcDbEntity
  8
GAIKEI
  6
Continuous
 62
     1
100
AcDbSpline
210
0.0
220
0.0
230
1.0
 70
     8
 71
     3
 72
     8
 73
     4
 74
     2
 42
0.0000000001
 43
0.0000000001
 44
0.0000000001
 12
-0.1106690269827251
 22
0.9938573169558582
 32
0.0
 13
0.0027357238770312
 23
0.9999962579004327
 33
0.0
 40
0.0
 40
0.0
 40
0.0
 40
0.0
 40
0.01470904266305
 40
0.01470904266305
 40
0.01470904266305
 40
0.01470904266305
 10
31.31614040312286
 20
26.72638269969497
 30
0.0
 10
31.31559779130974
 20
26.73125559625368
 30
0.0
 10
31.31532042617464
 20
26.73616661606113
 30
0.0
 10
31.31533383946771
 20
26.74106961193456
 30
0.0
 11
31.31614040312286
 21
26.72638269969497
 31
0.0
 11
31.31533383946771
 21
26.74106961193456
 31
0.0
  0
SPLINE
  5
AA
330
2
100
AcDbEntity
  8
GAIKEI
  6
Continuous
 62
     1
100
AcDbSpline
210
0.0
220
0.0
230
1.0
 70
     8
 71
     3
 72
     8
 73
     4
 74
     2
 42
0.0000000001
 43
0.0000000001
 44
0.0000000001
 12
-0.1860490898667866
 22
0.9825404501391993
 32
0.0
 13
-0.1106689530411967
 23
0.9938573251894686
 33
0.0
 40
0.0
 40
0.0
 40
0.0
 40
0.0
 40
0.0106574008110522
 40
0.0106574008110522
 40
0.0106574008110522
 40
0.0106574008110522
 10
31.31772724856489
 20
26.71584409857383
 30
0.0
 10
31.31706631532448
 20
26.71933454103723
 30
0.0
 10
31.31653355091949
 20
26.72285205440713
 30
0.0
 10
31.31614040312286
 20
26.72638269969497
 30
0.0
 11
31.31772724856489
 21
26.71584409857383
 31
0.0
 11
31.31614040312286
 21
26.72638269969497
 31
0.0
  0
SPLINE
  5
AB
330
2
100
AcDbEntity
  8
GAIKEI
  6
Continuous
 62
     1
100
AcDbSpline
210
0.0
220
0.0
230
1.0
 70
     8
 71
     3
 72
     8
 73
     4
 74
     2
 42
0.0000000001
 43
0.0000000001
 44
0.0000000001
 12
-0.279686463692517
 22
0.9600913925388427
 32
0.0
 13
-0.1860491047611548
 23
0.9825404473188738
 33
0.0
 40
0.0
 40
0.0
 40
0.0
 40
0.0
 40
0.014630556235102
 40
0.014630556235102
 40
0.014630556235102
 40
0.014630556235102
 10
31.32114938769655
 20
26.70161939683663
 30
0.0
 10
31.31978539818481
 20
26.70630162053976
 30
0.0
 10
31.31863458252812
 20
26.71105239415124
 30
0.0
 10
31.31772724856489
 20
26.71584409857383
 30
0.0
 11
31.32114938769655
 21
26.70161939683663
 31
0.0
 11
31.31772724856489
 21
26.71584409857383
 31
0.0
  0
SPLINE
  5
AC
330
2
100
AcDbEntity
  8
GAIKEI
  6
Continuous
 62
     1
100
AcDbSpline
210
0.0
220
0.0
230
1.0
 70
     8
 71
     3
 72
     8
 73
     4
 74
     2
 42
0.0000000001
 43
0.0000000001
 44
0.0000000001
 12
-0.5093504470536694
 22
0.8605591915064454
 32
0.0
 13
-0.279686441451376
 23
0.9600913990179613
 33
0.0
 40
0.0
 40
0.0
 40
0.0
 40
0.0
 40
0.0217634604267871
 40
0.0217634604267871
 40
0.0217634604267871
 40
0.0217634604267871
 10
31.32940975422378
 20
26.68148448798201
 30
0.0
 10
31.3257146781245
 20
26.6877274032851
 30
0.0
 10
31.3231783692967
 20
26.6946544264471
 30
0.0
 10
31.32114938769655
 20
26.70161939683663
 30
0.0
 11
31.32940975422378
 21
26.68148448798201
 31
0.0
 11
31.32114938769655
 21
26.70161939683663
 31
0.0
  0
SPLINE
  5
AD
330
2
100
AcDbEntity
  8
GAIKEI
  6
Continuous
 62
     1
100
AcDbSpline
210
0.0
220
0.0
230
1.0
 70
     8
 71
     3
 72
     8
 73
     4
 74
     2
 42
0.0000000001
 43
0.0000000001
 44
0.0000000001
 12
-0.1106690269827251
 22
0.9938573169558582
 32
0.0
 13
0.0027357238826079
 23
0.9999962579004174
 33
0.0
 40
0.0
 40
0.0
 40
0.0
 40
0.0
 40
0.0147090426531174
 40
0.0147090426531174
 40
0.0147090426531174
 40
0.0147090426531174
 10
31.31614040312286
 20
25.87627602042494
 30
0.0
 10
31.3155977913101
 20
25.88114891698035
 30
0.0
 10
31.31532042617462
 20
25.88605993678445
 30
0.0
 10
31.31533383946771
 20
25.89096293265459
 30
0.0
 11
31.31614040312286
 21
25.87627602042494
 31
0.0
 11
31.31533383946771
 21
25.89096293265459
 31
0.0
  0
SPLINE
  5
AE
330
2
100
AcDbEntity
  8
GAIKEI
  6
Continuous
 62
     1
100
AcDbSpline
210
0.0
220
0.0
230
1.0
 70
     8
 71
     3
 72
     8
 73
     4
 74
     2
 42
0.0000000001
 43
0.0000000001
 44
0.0000000001
 12
-0.1860491027045945
 22
0.9825404477082942
 32
0.0
 13
-0.1106689530411967
 23
0.9938573251894686
 33
0.0
 40
0.0
 40
0.0
 40
0.0
 40
0.0
 40
0.0106574005637854
 40
0.0106574005637854
 40
0.0106574005637854
 40
0.0106574005637854
 10
31.31772724856489
 20
25.86573741955386
 30
0.0
 10
31.31706631529421
 20
25.86922786192764
 30
0.0
 10
31.31653355091037
 20
25.87274537521901
 30
0.0
 10
31.31614040312286
 20
25.87627602042494
 30
0.0
 11
31.31772724856489
 21
25.86573741955386
 31
0.0
 11
31.31614040312286
 21
25.87627602042494
 31
0.0
  0
SPLINE
  5
AF
330
2
100
AcDbEntity
  8
GAIKEI
  6
Continuous
 62
     1
100
AcDbSpline
210
0.0
220
0.0
230
1.0
 70
     8
 71
     3
 72
     8
 73
     4
 74
     2
 42
0.0000000001
 43
0.0000000001
 44
0.0000000001
 12
-0.279686463692517
 22
0.9600913925388427
 32
0.0
 13
-0.1860491047611548
 23
0.9825404473188738
 33
0.0
 40
0.0
 40
0.0
 40
0.0
 40
0.0
 40
0.0146305564782197
 40
0.0146305564782197
 40
0.0146305564782197
 40
0.0146305564782197
 10
31.32114938769655
 20
25.85151271756661
 30
0.0
 10
31.31978539816214
 20
25.85619494134753
 30
0.0
 10
31.3186345825432
 20
25.86094571505163
 30
0.0
 10
31.31772724856489
 20
25.86573741955386
 30
0.0
 11
31.32114938769655
 21
25.85151271756661
 31
0.0
 11
31.31772724856489
 21
25.86573741955386
 31
0.0
  0
SPLINE
  5
B0
330
2
100
AcDbEntity
  8
GAIKEI
  6
Continuous
 62
     1
100
AcDbSpline
210
0.0
220
0.0
230
1.0
 70
     8
 71
     3
 72
     8
 73
     4
 74
     2
 42
0.0000000001
 43
0.0000000001
 44
0.0000000001
 12
-0.5093504470536694
 22
0.8605591915064454
 32
0.0
 13
-0.2796864410830377
 23
0.9600913991252626
 33
0.0
 40
0.0
 40
0.0
 40
0.0
 40
0.0
 40
0.0217634604267345
 40
0.0217634604267345
 40
0.0217634604267345
 40
0.0217634604267345
 10
31.32940975422378
 20
25.83137780871203
 30
0.0
 10
31.32571467812451
 20
25.8376207240151
 30
0.0
 10
31.32317836929401
 20
25.84454774717631
 30
0.0
 10
31.32114938769655
 20
25.85151271756661
 30
0.0
 11
31.32940975422378
 21
25.83137780871203
 31
0.0
 11
31.32114938769655
 21
25.85151271756661
 31
0.0
  0
SPLINE
  5
B1
330
2
100
AcDbEntity
  8
GAIKEI
  6
Continuous
 62
     1
100
AcDbSpline
210
0.0
220
0.0
230
1.0
 70
     8
 71
     3
 72
     8
 73
     4
 74
     2
 42
0.0000000001
 43
0.0000000001
 44
0.0000000001
 12
-0.1106690213818658
 22
0.9938573175795307
 32
0.0
 13
0.0027357238826079
 23
0.9999962579004174
 33
0.0
 40
0.0
 40
0.0
 40
0.0
 40
0.0
 40
0.0147090426530607
 40
0.0147090426530607
 40
0.0147090426530607
 40
0.0147090426530607
 10
31.31614040312286
 20
25.02616934115497
 30
0.0
 10
31.31559779133757
 20
25.03104223771342
 30
0.0
 10
31.31532042617462
 20
25.03595325751445
 30
0.0
 10
31.31533383946771
 20
25.04085625338456
 30
0.0
 11
31.31614040312286
 21
25.02616934115497
 31
0.0
 11
31.31533383946771
 21
25.04085625338456
 31
0.0
  0
SPLINE
  5
B2
330
2
100
AcDbEntity
  8
GAIKEI
  6
Continuous
 62
     1
100
AcDbSpline
210
0.0
220
0.0
230
1.0
 70
     8
 71
     3
 72
     8
 73
     4
 74
     2
 42
0.0000000001
 43
0.0000000001
 44
0.0000000001
 12
-0.1860491032181069
 22
0.982540447611058
 32
0.0
 13
-0.1106689530411967
 23
0.9938573251894686
 33
0.0
 40
0.0
 40
0.0
 40
0.0
 40
0.0
 40
0.0106574005638416
 40
0.0106574005638416
 40
0.0106574005638416
 40
0.0106574005638416
 10
31.31772724856489
 20
25.01563074028382
 30
0.0
 10
31.31706631529238
 20
25.01912118265727
 30
0.0
 10
31.31653355091038
 20
25.02263869594901
 30
0.0
 10
31.31614040312286
 20
25.02616934115497
 30
0.0
 11
31.31772724856489
 21
25.01563074028382
 31
0.0
 11
31.31614040312286
 21
25.02616934115497
 31
0.0
  0
SPLINE
  5
B3
330
2
100
AcDbEntity
  8
GAIKEI
  6
Continuous
 62
     1
100
AcDbSpline
210
0.0
220
0.0
230
1.0
 70
     8
 71
     3
 72
     8
 73
     4
 74
     2
 42
0.0000000001
 43
0.0000000001
 44
0.0000000001
 12
-0.2796864779545112
 22
0.9600913883841478
 32
0.0
 13
-0.1860491047611548
 23
0.9825404473188738
 33
0.0
 40
0.0
 40
0.0
 40
0.0
 40
0.0
 40
0.014630556235102
 40
0.014630556235102
 40
0.014630556235102
 40
0.014630556235102
 10
31.32114938769655
 20
25.00140603854664
 30
0.0
 10
31.31978539811524
 20
25.0060882622295
 30
0.0
 10
31.31863458252812
 20
25.01083903586124
 30
0.0
 10
31.31772724856489
 20
25.01563074028382
 30
0.0
 11
31.32114938769655
 21
25.00140603854664
 31
0.0
 11
31.31772724856489
 21
25.01563074028382
 31
0.0
  0
SPLINE
  5
B4
330
2
100
AcDbEntity
  8
GAIKEI
  6
Continuous
 62
     1
100
AcDbSpline
210
0.0
220
0.0
230
1.0
 70
     8
 71
     3
 72
     8
 73
     4
 74
     2
 42
0.0000000001
 43
0.0000000001
 44
0.0000000001
 12
-0.5093504470536694
 22
0.8605591915064454
 32
0.0
 13
-0.279686431874579
 23
0.9600914018077999
 33
0.0
 40
0.0
 40
0.0
 40
0.0
 40
0.0
 40
0.0217634606580772
 40
0.0217634606580772
 40
0.0217634606580772
 40
0.0217634606580772
 10
31.32940975422378
 20
24.98127112944201
 30
0.0
 10
31.32571467808523
 20
24.98751404481144
 30
0.0
 10
31.32317836924878
 20
24.99444106806283
 30
0.0
 10
31.32114938769655
 20
25.00140603854664
 30
0.0
 11
31.32940975422378
 21
24.98127112944201
 31
0.0
 11
31.32114938769655
 21
25.00140603854664
 31
0.0
  0
SPLINE
  5
B5
330
2
100
AcDbEntity
  8
GAIKEI
  6
Continuous
 62
     1
100
AcDbSpline
210
0.0
220
0.0
230
1.0
 70
     8
 71
     3
 72
     8
 73
     4
 74
     2
 42
0.0000000001
 43
0.0000000001
 44
0.0000000001
 12
-0.1106690213818658
 22
0.9938573175795307
 32
0.0
 13
0.002735724022026
 23
0.999996257900036
 33
0.0
 40
0.0
 40
0.0
 40
0.0
 40
0.0
 40
0.0147090426530607
 40
0.0147090426530607
 40
0.0147090426530607
 40
0.0147090426530607
 10
31.31614040312286
 20
24.17606266188494
 30
0.0
 10
31.31559779133757
 20
24.1809355584434
 30
0.0
 10
31.31532042617394
 20
24.18584657824442
 30
0.0
 10
31.31533383946771
 20
24.19074957411453
 30
0.0
 11
31.31614040312286
 21
24.17606266188494
 31
0.0
 11
31.31533383946771
 21
24.19074957411453
 31
0.0
  0
SPLINE
  5
B6
330
2
100
AcDbEntity
  8
GAIKEI
  6
Continuous
 62
     1
100
AcDbSpline
210
0.0
220
0.0
230
1.0
 70
     8
 71
     3
 72
     8
 73
     4
 74
     2
 42
0.0000000001
 43
0.0000000001
 44
0.0000000001
 12
-0.1860491032181069
 22
0.982540447611058
 32
0.0
 13
-0.1106689530411967
 23
0.9938573251894686
 33
0.0
 40
0.0
 40
0.0
 40
0.0
 40
0.0
 40
0.0106574005638416
 40
0.0106574005638416
 40
0.0106574005638416
 40
0.0106574005638416
 10
31.31772724856489
 20
24.1655240610138
 30
0.0
 10
31.31706631529238
 20
24.16901450338725
 30
0.0
 10
31.31653355091038
 20
24.17253201667899
 30
0.0
 10
31.31614040312286
 20
24.17606266188494
 30
0.0
 11
31.31772724856489
 21
24.1655240610138
 31
0.0
 11
31.31614040312286
 21
24.17606266188494
 31
0.0
  0
SPLINE
  5
B7
330
2
100
AcDbEntity
  8
GAIKEI
  6
Continuous
 62
     1
100
AcDbSpline
210
0.0
220
0.0
230
1.0
 70
     8
 71
     3
 72
     8
 73
     4
 74
     2
 42
0.0000000001
 43
0.0000000001
 44
0.0000000001
 12
-0.2796864779545112
 22
0.9600913883841478
 32
0.0
 13
-0.1860491047611548
 23
0.9825404473188738
 33
0.0
 40
0.0
 40
0.0
 40
0.0
 40
0.0
 40
0.0146305562350467
 40
0.0146305562350467
 40
0.0146305562350467
 40
0.0146305562350467
 10
31.32114938769655
 20
24.15129935927666
 30
0.0
 10
31.31978539811526
 20
24.1559815829595
 30
0.0
 10
31.31863458252812
 20
24.16073235659124
 30
0.0
 10
31.31772724856489
 20
24.1655240610138
 30
0.0
 11
31.32114938769655
 21
24.15129935927666
 31
0.0
 11
31.31772724856489
 21
24.1655240610138
 31
0.0
  0
SPLINE
  5
B8
330
2
100
AcDbEntity
  8
GAIKEI
  6
Continuous
 62
     1
100
AcDbSpline
210
0.0
220
0.0
230
1.0
 70
     8
 71
     3
 72
     8
 73
     4
 74
     2
 42
0.0000000001
 43
0.0000000001
 44
0.0000000001
 12
-0.5093504464487833
 22
0.8605591918644675
 32
0.0
 13
-0.279686431874579
 23
0.9600914018077999
 33
0.0
 40
0.0
 40
0.0
 40
0.0
 40
0.0
 40
0.021763460667333
 40
0.021763460667333
 40
0.021763460667333
 40
0.021763460667333
 10
31.32940975422378
 20
24.13116445016203
 30
0.0
 10
31.32571467808805
 20
24.13740736553672
 30
0.0
 10
31.32317836924965
 20
24.1443343887899
 30
0.0
 10
31.32114938769655
 20
24.15129935927666
 30
0.0
 11
31.32940975422378
 21
24.13116445016203
 31
0.0
 11
31.32114938769655
 21
24.15129935927666
 31
0.0
  0
SPLINE
  5
B9
330
2
100
AcDbEntity
  8
GAIKEI
  6
Continuous
 62
     1
100
AcDbSpline
210
0.0
220
0.0
230
1.0
 70
     8
 71
     3
 72
     8
 73
     4
 74
     2
 42
0.0000000001
 43
0.0000000001
 44
0.0000000001
 12
-0.1106690213818658
 22
0.9938573175795307
 32
0.0
 13
0.0027357238826079
 23
0.9999962579004174
 33
0.0
 40
0.0
 40
0.0
 40
0.0
 40
0.0
 40
0.0147090429027386
 40
0.0147090429027386
 40
0.0147090429027386
 40
0.0147090429027386
 10
31.31614040312286
 20
23.32595598261491
 30
0.0
 10
31.31559779132836
 20
23.33082887925607
 30
0.0
 10
31.3153204261744
 20
23.3357398991412
 30
0.0
 10
31.31533383946771
 20
23.34064289509456
 30
0.0
 11
31.31614040312286
 21
23.32595598261491
 31
0.0
 11
31.31533383946771
 21
23.34064289509456
 31
0.0
  0
SPLINE
  5
BA
330
2
100
AcDbEntity
  8
GAIKEI
  6
Continuous
 62
     1
100
AcDbSpline
210
0.0
220
0.0
230
1.0
 70
     8
 71
     3
 72
     8
 73
     4
 74
     2
 42
0.0000000001
 43
0.0000000001
 44
0.0000000001
 12
-0.1860491027045945
 22
0.9825404477082942
 32
0.0
 13
-0.1106689530411967
 23
0.9938573251894686
 33
0.0
 40
0.0
 40
0.0
 40
0.0
 40
0.0
 40
0.0106574005736783
 40
0.0106574005736783
 40
0.0106574005736783
 40
0.0106574005736783
 10
31.31772724856489
 20
23.31541738173382
 30
0.0
 10
31.31706631529359
 20
23.31890782411085
 30
0.0
 10
31.31653355091073
 20
23.32242533740572
 30
0.0
 10
31.31614040312286
 20
23.32595598261491
 30
0.0
 11
31.31772724856489
 21
23.31541738173382
 31
0.0
 11
31.31614040312286
 21
23.32595598261491
 31
0.0
  0
SPLINE
  5
BB
330
2
100
AcDbEntity
  8
GAIKEI
  6
Continuous
 62
     1
100
AcDbSpline
210
0.0
220
0.0
230
1.0
 70
     8
 71
     3
 72
     8
 73
     4
 74
     2
 42
0.0000000001
 43
0.0000000001
 44
0.0000000001
 12
-0.2796864774059729
 22
0.9600913885439439
 32
0.0
 13
-0.1860491047611548
 23
0.9825404473188738
 33
0.0
 40
0.0
 40
0.0
 40
0.0
 40
0.0
 40
0.0146305562350467
 40
0.0146305562350467
 40
0.0146305562350467
 40
0.0146305562350467
 10
31.32114938769655
 20
23.30119267999669
 30
0.0
 10
31.31978539811793
 20
23.30587490368032
 30
0.0
 10
31.31863458252812
 20
23.31062567731127
 30
0.0
 10
31.31772724856489
 20
23.31541738173382
 30
0.0
 11
31.32114938769655
 21
23.30119267999669
 31
0.0
 11
31.31772724856489
 21
23.31541738173382
 31
0.0
  0
SPLINE
  5
BC
330
2
100
AcDbEntity
  8
GAIKEI
  6
Continuous
 62
     1
100
AcDbSpline
210
0.0
220
0.0
230
1.0
 70
     8
 71
     3
 72
     8
 73
     4
 74
     2
 42
0.0000000001
 43
0.0000000001
 44
0.0000000001
 12
-0.5093504464487833
 22
0.8605591918644675
 32
0.0
 13
-0.2796864322429175
 23
0.9600914017004985
 33
0.0
 40
0.0
 40
0.0
 40
0.0
 40
0.0
 40
0.0217634606581298
 40
0.0217634606581298
 40
0.0217634606581298
 40
0.0217634606581298
 10
31.32940975422378
 20
23.281057770892
 30
0.0
 10
31.32571467808961
 20
23.28730068626405
 30
0.0
 10
31.32317836925146
 20
23.29422770951365
 30
0.0
 10
31.32114938769655
 20
23.30119267999669
 30
0.0
 11
31.32940975422378
 21
23.281057770892
 31
0.0
 11
31.32114938769655
 21
23.30119267999669
 31
0.0
  0
SPLINE
  5
BD
330
2
100
AcDbEntity
  8
GAIKEI
  6
Continuous
 62
     1
100
AcDbSpline
210
0.0
220
0.0
230
1.0
 70
     8
 71
     3
 72
     8
 73
     4
 74
     2
 42
0.0000000001
 43
0.0000000001
 44
0.0000000001
 12
-0.1688210800791291
 22
-0.985646713037139
 32
0.0
 13
-0.0173142424455817
 23
-0.9998500972688535
 33
0.0
 40
0.0
 40
0.0
 40
0.0
 40
0.0
 40
0.0241847067444183
 40
0.0241847067444183
 40
0.0241847067444183
 40
0.0241847067444183
 10
31.28544061202905
 20
28.62689576216468
 30
0.0
 10
31.28407964925772
 20
28.61894990326187
 30
0.0
 10
31.28338228480398
 20
28.61087149590657
 30
0.0
 10
31.28324270484529
 20
28.60281113544295
 30
0.0
 11
31.28544061202905
 21
28.62689576216468
 31
0.0
 11
31.28324270484529
 21
28.60281113544295
 31
0.0
  0
SPLINE
  5
BE
330
2
100
AcDbEntity
  8
GAIKEI
  6
Continuous
 62
     1
100
AcDbSpline
210
0.0
220
0.0
230
1.0
 70
     8
 71
     3
 72
     8
 73
     4
 74
     2
 42
0.0000000001
 43
0.0000000001
 44
0.0000000001
 12
-0.2604397877762244
 22
-0.9654900915820293
 32
0.0
 13
-0.1688211370939962
 23
-0.985646703271659
 33
0.0
 40
0.0
 40
0.0
 40
0.0
 40
0.0
 40
0.012995582966531
 40
0.012995582966531
 40
0.012995582966531
 40
0.012995582966531
 10
31.28822445034086
 20
28.63958967491425
 30
0.0
 10
31.28709626138425
 20
28.63540730605141
 30
0.0
 10
31.28617192172692
 20
28.63116544666736
 30
0.0
 10
31.28544061202905
 20
28.62689576216468
 30
0.0
 11
31.28822445034086
 21
28.63958967491425
 31
0.0
 11
31.28544061202905
 21
28.62689576216468
 31
0.0
  0
SPLINE
  5
BF
330
2
100
AcDbEntity
  8
GAIKEI
  6
Continuous
 62
     1
100
AcDbSpline
210
0.0
220
0.0
230
1.0
 70
     8
 71
     3
 72
     9
 73
     5
 74
     3
 42
0.0000000001
 43
0.0000000001
 44
0.0000000001
 12
-0.496332699448668
 22
-0.868132392816901
 32
0.0
 13
-0.2604398990542774
 23
-0.9654900615649017
 33
0.0
 40
0.0
 40
0.0
 40
0.0
 40
0.0
 40
0.0193281595164689
 40
0.0228195159332432
 40
0.0228195159332432
 40
0.0228195159332432
 40
0.0228195159332432
 10
31.29653884232766
 20
28.66081996516744
 30
0.0
 10
31.29334110979826
 20
28.65522683137752
 30
0.0
 10
31.29060323801231
 20
28.64802556594737
 30
0.0
 10
31.28852754651177
 20
28.6407132982215
 30
0.0
 10
31.28822445034086
 20
28.63958967491425
 30
0.0
 11
31.29653884232766
 21
28.66081996516744
 31
0.0
 11
31.28917820345658
 21
28.64294823481742
 31
0.0
 11
31.28822445034086
 21
28.63958967491425
 31
0.0
  0
ARC
  5
C0
330
2
100
AcDbEntity
  8
GAIKEI
  6
Continuous
 62
     1
100
AcDbCircle
 10
-48.26909303388617
 20
33.41730947653116
 30
0.0
 40
0.1081371856543759
100
AcDbArc
 50
90.0
 51
180.0
  0
ARC
  5
C1
330
2
100
AcDbEntity
  8
GAIKEI
  6
Continuous
 62
     1
100
AcDbCircle
 10
-48.26909303388617
 20
2.715601472851062
 30
0.0
 40
0.1081371856543759
100
AcDbArc
 50
179.999999999899
 51
270.0
  0
ARC
  5
C2
330
2
100
AcDbEntity
  8
GAIKEI
  6
Continuous
 62
     1
100
AcDbCircle
 10
5.182614580638755
 20
2.715601472851062
 30
0.0
 40
0.1081371856543759
100
AcDbArc
 50
269.9999999999023
 51
0.0
  0
ARC
  5
C3
330
2
100
AcDbEntity
  8
GAIKEI
  6
Continuous
 62
     1
100
AcDbCircle
 10
5.182614580638755
 20
33.41730947653116
 30
0.0
 40
0.1081371856543759
100
AcDbArc
 50
0.0
 51
90.0
  0
ARC
  5
C4
330
2
100
AcDbEntity
  8
GAIKEI
  6
Continuous
 62
     7
100
AcDbCircle
 10
5.182614580638755
 20
33.41730947653116
 30
0.0
 40
0.249146459632477
100
AcDbArc
 50
0.0
 51
90.0
  0
ARC
  5
C5
330
2
100
AcDbEntity
  8
GAIKEI
  6
Continuous
 62
     7
100
AcDbCircle
 10
5.182614580638755
 20
2.715601472851062
 30
0.0
 40
0.249146459632477
100
AcDbArc
 50
270.0
 51
0.0
  0
ARC
  5
C6
330
2
100
AcDbEntity
  8
GAIKEI
  6
Continuous
 62
     7
100
AcDbCircle
 10
-48.26909303388617
 20
2.715601472851062
 30
0.0
 40
0.249146459632477
100
AcDbArc
 50
180.0
 51
270.0
  0
ARC
  5
C7
330
2
100
AcDbEntity
  8
GAIKEI
  6
Continuous
 62
     7
100
AcDbCircle
 10
-48.26909303388617
 20
33.41730947653116
 30
0.0
 40
0.249146459632477
100
AcDbArc
 50
90.0
 51
180.0
  0
ARC
  5
C8
330
2
100
AcDbEntity
  8
GAIKEI
  6
Continuous
 62
     7
100
AcDbCircle
 10
32.42630613244808
 20
4.678247412549012
 30
0.0
 40
0.5000627525
100
AcDbArc
 50
279.9999999999987
 51
0.0002344788987745
  0
ARC
  5
C9
330
2
100
AcDbEntity
  8
GAIKEI
  6
Continuous
 62
     7
100
AcDbCircle
 10
31.1475197374719
 20
3.868819288020347
 30
0.0
 40
0.0750094129850138
100
AcDbArc
 50
99.99999999999873
 51
156.3067028654012
  0
ARC
  5
CA
330
2
100
AcDbEntity
  8
GAIKEI
  6
Continuous
 62
     7
100
AcDbCircle
 10
30.41516485000597
 20
33.45016547878618
 30
0.0
 40
0.1000125503999874
100
AcDbArc
 50
50.50320556849876
 51
90.0
  0
ARC
  5
CB
330
2
100
AcDbEntity
  8
GAIKEI
  6
Continuous
 62
     7
100
AcDbCircle
 10
32.52632150869272
 20
31.32123963163735
 30
0.0
 40
0.4000502021000126
100
AcDbArc
 50
359.9989634955978
 51
50.50157589870103
  0
CIRCLE
  5
CC
330
2
100
AcDbEntity
  8
GAIKEI
  6
Continuous
 62
     1
100
AcDbCircle
 10
30.14103095975952
 20
14.60780096470626
 30
0.0
 40
0.115014433195015
  0
CIRCLE
  5
CD
330
2
100
AcDbEntity
  8
GAIKEI
  6
Continuous
 62
     1
100
AcDbCircle
 10
30.14103095975952
 20
21.40865439862626
 30
0.0
 40
0.115014433195015
  0
CIRCLE
  5
CE
330
2
100
AcDbEntity
  8
GAIKEI
  6
Continuous
 62
     1
100
AcDbCircle
 10
30.14103095975952
 20
6.40891682368624
 30
0.0
 40
0.115014433195015
  0
CIRCLE
  5
CF
330
2
100
AcDbEntity
  8
GAIKEI
  6
Continuous
 62
     1
100
AcDbCircle
 10
30.14103095975952
 20
29.6096835396462
 30
0.0
 40
0.115014433195015
  0
ARC
  5
D0
330
2
100
AcDbEntity
  8
GAIKEI
  6
Continuous
 62
     7
100
AcDbCircle
 10
27.99776396298489
 20
2.477695098998538
 30
0.0
 40
0.05000627533001
100
AcDbArc
 50
224.5252612581015
 51
268.9344145463981
  0
ARC
  5
D1
330
2
100
AcDbEntity
  8
GAIKEI
  6
Continuous
 62
     7
100
AcDbCircle
 10
27.99776396298489
 20
33.5409052643339
 30
0.0
 40
0.05000627533001
100
AcDbArc
 50
91.06558545360185
 51
135.5176863642991
  0
ARC
  5
D2
330
2
100
AcDbEntity
  8
GAIKEI
  6
Continuous
 62
     7
100
AcDbCircle
 10
27.92638796617456
 20
33.46832976379875
 30
0.0
 40
0.05000627533001
100
AcDbArc
 50
135.513638124201
 51
180.0217731378019
  0
ARC
  5
D3
330
2
100
AcDbEntity
  8
GAIKEI
  6
Continuous
 62
     7
100
AcDbCircle
 10
27.92638796617456
 20
2.550308580349906
 30
0.0
 40
0.05000627533001
100
AcDbArc
 50
180.0217441470999
 51
224.5211793622045
  0
LINE
  5
D4
330
2
100
AcDbEntity
  8
GAIKEI
  6
Continuous
 62
     1
100
AcDbLine
 10
32.11326362153801
 20
29.21796771677123
 30
0.0
 11
32.13430638875911
 21
29.2221349065087
 31
0.0
  0
LINE
  5
D5
330
2
100
AcDbEntity
  8
GAIKEI
  6
Continuous
 62
     1
100
AcDbLine
 10
31.85572265232486
 20
28.76501556146479
 30
0.0
 11
31.86148082974421
 21
28.76627643091035
 31
0.0
  0
LINE
  5
D6
330
2
100
AcDbEntity
  8
GAIKEI
  6
Continuous
 62
     7
100
AcDbLine
 10
-48.26909303388617
 20
33.66645593591357
 30
0.0
 11
5.182614580638755
 21
33.66645593591357
 31
0.0
  0
LINE
  5
D7
330
2
100
AcDbEntity
  8
GAIKEI
  6
Continuous
 62
     1
100
AcDbLine
 10
30.01601527169453
 20
33.56517991199121
 30
0.0
 11
30.26604664782457
 21
33.56517991199121
 31
0.0
  0
LINE
  5
D8
330
2
100
AcDbEntity
  8
GAIKEI
  6
Continuous
 62
     1
100
AcDbLine
 10
29.39593745857457
 20
33.56517991199121
 30
0.0
 11
29.6459688349446
 21
33.56517991199121
 31
0.0
  0
LINE
  5
D9
330
2
100
AcDbEntity
  8
GAIKEI
  6
Continuous
 62
     7
100
AcDbLine
 10
29.10090043454955
 20
33.55017802944622
 30
0.0
 11
30.41516485000597
 21
33.55017802944622
 31
0.0
  0
LINE
  5
DA
330
2
100
AcDbEntity
  8
GAIKEI
  6
Continuous
 62
     1
100
AcDbLine
 10
5.182614580638755
 20
33.5254660537189
 30
0.0
 11
-48.26909303388617
 21
33.5254660537189
 31
0.0
  0
LINE
  5
DB
330
2
100
AcDbEntity
  8
GAIKEI
  6
Continuous
 62
     1
100
AcDbLine
 10
5.290771158076609
 20
33.41730947653116
 30
0.0
 11
5.431761040271283
 21
33.41730947653116
 31
0.0
  0
LINE
  5
DC
330
2
100
AcDbEntity
  8
GAIKEI
  6
Continuous
 62
     1
100
AcDbLine
 10
-48.51823949351865
 20
33.41730947653116
 30
0.0
 11
-48.37724961107404
 21
33.41730947653116
 31
0.0
  0
LINE
  5
DD
330
2
100
AcDbEntity
  8
GAIKEI
  6
Continuous
 62
     1
100
AcDbLine
 10
27.8763816910946
 20
33.36015418350621
 30
0.0
 11
29.10090043454955
 21
33.36015418350621
 31
0.0
  0
LINE
  5
DE
330
2
100
AcDbEntity
  8
GAIKEI
  6
Continuous
 62
     1
100
AcDbLine
 10
30.48109357208215
 20
33.30013615204041
 30
0.0
 11
29.10090043454955
 21
33.30014665306624
 31
0.0
  0
LINE
  5
DF
330
2
100
AcDbEntity
  8
GAIKEI
  6
Continuous
 62
     1
100
AcDbLine
 10
-47.56010596632052
 20
32.827183399212
 30
0.0
 11
4.474590083045256
 21
32.827183399212
 31
0.0
  0
LINE
  5
E0
330
2
100
AcDbEntity
  8
GAIKEI
  6
Continuous
 62
     1
100
AcDbLine
 10
4.468932750440842
 20
32.75356538944311
 30
0.0
 11
-47.55541120342821
 21
32.75356538944311
 31
0.0
  0
LINE
  5
E1
330
2
100
AcDbEntity
  8
GAIKEI
  6
Continuous
 62
     1
100
AcDbLine
 10
-47.53850135247364
 20
32.68771792066366
 30
0.0
 11
4.452022899486337
 21
32.68771792066366
 31
0.0
  0
LINE
  5
E2
330
2
100
AcDbEntity
  8
GAIKEI
  6
Continuous
 62
     7
100
AcDbLine
 10
27.9968340005446
 20
33.59090292442278
 30
0.0
 11
29.05020359160074
 21
33.60930064288869
 31
0.0
  0
LINE
  5
E3
330
2
100
AcDbEntity
  8
GAIKEI
  6
Continuous
 62
     1
100
AcDbLine
 10
30.71582172727216
 20
31.02236081544873
 30
0.0
 11
32.92638049115453
 21
31.02236081544873
 31
0.0
  0
LINE
  5
E4
330
2
100
AcDbEntity
  8
GAIKEI
  6
Continuous
 62
     1
100
AcDbLine
 10
30.71582172727216
 20
30.79733257698376
 30
0.0
 11
32.92638049115453
 21
30.79733257698376
 31
0.0
  0
LINE
  5
E5
330
2
100
AcDbEntity
  8
GAIKEI
  6
Continuous
 62
     1
100
AcDbLine
 10
30.71582172727216
 20
30.57230433827874
 30
0.0
 11
32.92638049115453
 21
30.57230433827874
 31
0.0
  0
LINE
  5
E6
330
2
100
AcDbEntity
  8
GAIKEI
  6
Continuous
 62
     1
100
AcDbLine
 10
30.71582172727216
 20
30.34727609956372
 30
0.0
 11
32.92638049115453
 21
30.34727609956372
 31
0.0
  0
LINE
  5
E7
330
2
100
AcDbEntity
  8
GAIKEI
  6
Continuous
 62
     1
100
AcDbLine
 10
30.71582172727216
 20
30.12224786109874
 30
0.0
 11
32.92638049115453
 21
30.12224786109874
 31
0.0
  0
LINE
  5
E8
330
2
100
AcDbEntity
  8
GAIKEI
  6
Continuous
 62
     1
100
AcDbLine
 10
31.39815690062164
 20
29.90138681187125
 30
0.0
 11
32.11326362153801
 21
29.90138681187125
 31
0.0
  0
LINE
  5
E9
330
2
100
AcDbEntity
  8
GAIKEI
  6
Continuous
 62
     1
100
AcDbLine
 10
30.71582172727216
 20
29.89721962239372
 30
0.0
 11
32.92638049115453
 21
29.89721962239372
 31
0.0
  0
LINE
  5
EA
330
2
100
AcDbEntity
  8
GAIKEI
  6
Continuous
 62
     1
100
AcDbLine
 10
30.71582172727216
 20
29.67219138367875
 30
0.0
 11
32.92638049115453
 21
29.67219138367875
 31
0.0
  0
LINE
  5
EB
330
2
100
AcDbEntity
  8
GAIKEI
  6
Continuous
 62
     1
100
AcDbLine
 10
30.71582172727216
 20
29.44716314521372
 30
0.0
 11
32.92638049115453
 21
29.44716314521372
 31
0.0
  0
LINE
  5
EC
330
2
100
AcDbEntity
  8
GAIKEI
  6
Continuous
 62
     1
100
AcDbLine
 10
30.71582172727216
 20
29.2221349065087
 30
0.0
 11
32.92638049115453
 21
29.2221349065087
 31
0.0
  0
LINE
  5
ED
330
2
100
AcDbEntity
  8
GAIKEI
  6
Continuous
 62
     1
100
AcDbLine
 10
32.11326362153801
 20
29.21796771677123
 30
0.0
 11
30.71582172727216
 21
29.21796771677123
 31
0.0
  0
LINE
  5
EE
330
2
100
AcDbEntity
  8
GAIKEI
  6
Continuous
 62
     1
100
AcDbLine
 10
30.21604037274455
 20
29.20963333779628
 30
0.0
 11
30.26604664782457
 21
29.20963333779628
 31
0.0
  0
LINE
  5
EF
330
2
100
AcDbEntity
  8
GAIKEI
  6
Continuous
 62
     1
100
AcDbLine
 10
30.01601527169453
 20
29.20963333779628
 30
0.0
 11
30.06602154702455
 21
29.20963333779628
 31
0.0
  0
LINE
  5
F0
330
2
100
AcDbEntity
  8
GAIKEI
  6
Continuous
 62
     1
100
AcDbLine
 10
30.06602154702455
 20
29.00960823674621
 30
0.0
 11
30.21604037274455
 21
29.00960823674621
 31
0.0
  0
LINE
  5
F1
330
2
100
AcDbEntity
  8
GAIKEI
  6
Continuous
 62
     1
100
AcDbLine
 10
30.71582172727216
 20
29.00127385753126
 30
0.0
 11
32.11326362153801
 21
29.00127385753126
 31
0.0
  0
LINE
  5
F2
330
2
100
AcDbEntity
  8
GAIKEI
  6
Continuous
 62
     1
100
AcDbLine
 10
30.71582172727216
 20
28.99710666779368
 30
0.0
 11
32.92638049115453
 21
28.99710666779368
 31
0.0
  0
LINE
  5
F3
330
2
100
AcDbEntity
  8
GAIKEI
  6
Continuous
 62
     1
100
AcDbLine
 10
32.92638049115453
 20
28.77207842932876
 30
0.0
 11
32.25031141672309
 21
28.77207842932876
 31
0.0
  0
LINE
  5
F4
330
2
100
AcDbEntity
  8
GAIKEI
  6
Continuous
 62
     1
100
AcDbLine
 10
31.86148082974421
 20
28.76627643091035
 30
0.0
 11
32.0900578983692
 21
28.76627643091035
 31
0.0
  0
LINE
  5
F5
330
2
100
AcDbEntity
  8
GAIKEI
  6
Continuous
 62
     1
100
AcDbLine
 10
31.70932850611314
 20
28.68269051151595
 30
0.0
 11
31.32622086233209
 21
28.68269051151595
 31
0.0
  0
LINE
  5
F6
330
2
100
AcDbEntity
  8
GAIKEI
  6
Continuous
 62
     1
100
AcDbLine
 10
32.92638049115453
 20
28.54705019062374
 30
0.0
 11
32.25031141672309
 21
28.54705019062374
 31
0.0
  0
LINE
  5
F7
330
2
100
AcDbEntity
  8
GAIKEI
  6
Continuous
 62
     1
100
AcDbLine
 10
31.10893812671446
 20
28.47204077762871
 30
0.0
 11
31.18916596340557
 21
28.47204077762871
 31
0.0
  0
LINE
  5
F8
330
2
100
AcDbEntity
  8
GAIKEI
  6
Continuous
 62
     1
100
AcDbLine
 10
30.82011791486252
 20
28.47204077762871
 30
0.0
 11
30.90034575154362
 21
28.47204077762871
 31
0.0
  0
LINE
  5
F9
330
2
100
AcDbEntity
  8
GAIKEI
  6
Continuous
 62
     1
100
AcDbLine
 10
30.96452802078852
 20
28.46704015020373
 30
0.0
 11
31.05366851918285
 21
28.46704015020373
 31
0.0
  0
LINE
  5
FA
330
2
100
AcDbEntity
  8
GAIKEI
  6
Continuous
 62
     1
100
AcDbLine
 10
30.90034575154362
 20
28.34702508957372
 30
0.0
 11
30.82011791486252
 21
28.34702508957372
 31
0.0
  0
LINE
  5
FB
330
2
100
AcDbEntity
  8
GAIKEI
  6
Continuous
 62
     1
100
AcDbLine
 10
31.18916596340557
 20
28.34702508957372
 30
0.0
 11
31.10893812671446
 21
28.34702508957372
 31
0.0
  0
LINE
  5
FC
330
2
100
AcDbEntity
  8
GAIKEI
  6
Continuous
 62
     1
100
AcDbLine
 10
30.96452802078852
 20
28.34202446213874
 30
0.0
 11
31.05366851918285
 21
28.34202446213874
 31
0.0
  0
LINE
  5
FD
330
2
100
AcDbEntity
  8
GAIKEI
  6
Continuous
 62
     1
100
AcDbLine
 10
32.92638049115453
 20
28.32202195190871
 30
0.0
 11
32.25031141672309
 21
28.32202195190871
 31
0.0
  0
LINE
  5
FE
330
2
100
AcDbEntity
  8
GAIKEI
  6
Continuous
 62
     1
100
AcDbLine
 10
31.10893812671446
 20
28.27201567683875
 30
0.0
 11
31.18916596340557
 21
28.27201567683875
 31
0.0
  0
LINE
  5
FF
330
2
100
AcDbEntity
  8
GAIKEI
  6
Continuous
 62
     1
100
AcDbLine
 10
30.96452802078852
 20
28.27201567683875
 30
0.0
 11
31.06258118114613
 21
28.27201567683875
 31
0.0
  0
LINE
  5
100
330
2
100
AcDbEntity
  8
GAIKEI
  6
Continuous
 62
     1
100
AcDbLine
 10
30.82011791486252
 20
28.27201567683875
 30
0.0
 11
30.90034575154362
 21
28.27201567683875
 31
0.0
  0
LINE
  5
101
330
2
100
AcDbEntity
  8
GAIKEI
  6
Continuous
 62
     1
100
AcDbLine
 10
30.90034575154362
 20
28.14699998852371
 30
0.0
 11
30.82011791486252
 21
28.14699998852371
 31
0.0
  0
LINE
  5
102
330
2
100
AcDbEntity
  8
GAIKEI
  6
Continuous
 62
     1
100
AcDbLine
 10
31.18916596340557
 20
28.14699998852371
 30
0.0
 11
31.10893812671446
 21
28.14699998852371
 31
0.0
  0
LINE
  5
103
330
2
100
AcDbEntity
  8
GAIKEI
  6
Continuous
 62
     1
100
AcDbLine
 10
30.96452802078852
 20
28.14699998852371
 30
0.0
 11
31.06258118114613
 21
28.14699998852371
 31
0.0
  0
LINE
  5
104
330
2
100
AcDbEntity
  8
GAIKEI
  6
Continuous
 62
     1
100
AcDbLine
 10
32.92638049115453
 20
28.09699371344374
 30
0.0
 11
32.25031141672309
 21
28.09699371344374
 31
0.0
  0
LINE
  5
105
330
2
100
AcDbEntity
  8
GAIKEI
  6
Continuous
 62
     1
100
AcDbLine
 10
30.96452802078852
 20
28.07699120321371
 30
0.0
 11
31.05366851918285
 21
28.07699120321371
 31
0.0
  0
LINE
  5
106
330
2
100
AcDbEntity
  8
GAIKEI
  6
Continuous
 62
     1
100
AcDbLine
 10
31.10893812671446
 20
28.07199057578873
 30
0.0
 11
31.18916596340557
 21
28.07199057578873
 31
0.0
  0
LINE
  5
107
330
2
100
AcDbEntity
  8
GAIKEI
  6
Continuous
 62
     1
100
AcDbLine
 10
30.82011791486252
 20
28.07199057578873
 30
0.0
 11
30.90034575154362
 21
28.07199057578873
 31
0.0
  0
LINE
  5
108
330
2
100
AcDbEntity
  8
GAIKEI
  6
Continuous
 62
     1
100
AcDbLine
 10
30.96452802078852
 20
27.95197551515878
 30
0.0
 11
31.05366851918285
 21
27.95197551515878
 31
0.0
  0
LINE
  5
109
330
2
100
AcDbEntity
  8
GAIKEI
  6
Continuous
 62
     1
100
AcDbLine
 10
30.90034575154362
 20
27.94697488772374
 30
0.0
 11
30.82011791486252
 21
27.94697488772374
 31
0.0
  0
LINE
  5
10A
330
2
100
AcDbEntity
  8
GAIKEI
  6
Continuous
 62
     1
100
AcDbLine
 10
31.18916596340557
 20
27.94697488772374
 30
0.0
 11
31.10893812671446
 21
27.94697488772374
 31
0.0
  0
LINE
  5
10B
330
2
100
AcDbEntity
  8
GAIKEI
  6
Continuous
 62
     1
100
AcDbLine
 10
32.92638049115453
 20
27.87196547473878
 30
0.0
 11
32.25031141672309
 21
27.87196547473878
 31
0.0
  0
LINE
  5
10C
330
2
100
AcDbEntity
  8
GAIKEI
  6
Continuous
 62
     1
100
AcDbLine
 10
31.32622086233209
 20
27.73632515383656
 30
0.0
 11
31.70932850611314
 21
27.73632515383656
 31
0.0
  0
LINE
  5
10D
330
2
100
AcDbEntity
  8
GAIKEI
  6
Continuous
 62
     1
100
AcDbLine
 10
32.92638049115453
 20
27.64693723602375
 30
0.0
 11
32.25031141672309
 21
27.64693723602375
 31
0.0
  0
LINE
  5
10E
330
2
100
AcDbEntity
  8
GAIKEI
  6
Continuous
 62
     1
100
AcDbLine
 10
31.83539304581774
 20
27.4594137039262
 30
0.0
 11
31.85881807496708
 21
27.4594137039262
 31
0.0
  0
LINE
  5
10F
330
2
100
AcDbEntity
  8
GAIKEI
  6
Continuous
 62
     1
100
AcDbLine
 10
32.92638049115453
 20
27.42190899755872
 30
0.0
 11
32.25031141672309
 21
27.42190899755872
 31
0.0
  0
LINE
  5
110
330
2
100
AcDbEntity
  8
GAIKEI
  6
Continuous
 62
     1
100
AcDbLine
 10
31.83539304581774
 20
27.35940115353628
 30
0.0
 11
31.85881807496708
 21
27.35940115353628
 31
0.0
  0
LINE
  5
111
330
2
100
AcDbEntity
  8
GAIKEI
  6
Continuous
 62
     1
100
AcDbLine
 10
32.92638049115453
 20
27.1968807588537
 30
0.0
 11
32.25031141672309
 21
27.1968807588537
 31
0.0
  0
LINE
  5
112
330
2
100
AcDbEntity
  8
GAIKEI
  6
Continuous
 62
     1
100
AcDbLine
 10
31.35831199695451
 20
27.1574991163609
 30
0.0
 11
31.60663687506735
 21
27.1574991163609
 31
0.0
  0
LINE
  5
113
330
2
100
AcDbEntity
  8
GAIKEI
  6
Continuous
 62
     1
100
AcDbLine
 10
32.92638049115453
 20
26.97185252013873
 30
0.0
 11
32.25031141672309
 21
26.97185252013873
 31
0.0
  0
LINE
  5
114
330
2
100
AcDbEntity
  8
GAIKEI
  6
Continuous
 62
     1
100
AcDbLine
 10
32.92638049115453
 20
26.74682428167376
 30
0.0
 11
32.25031141672309
 21
26.74682428167376
 31
0.0
  0
LINE
  5
115
330
2
100
AcDbEntity
  8
GAIKEI
  6
Continuous
 62
     1
100
AcDbLine
 10
31.60663687506735
 20
26.66119023585151
 30
0.0
 11
31.35831199695451
 21
26.66119023585151
 31
0.0
  0
LINE
  5
116
330
2
100
AcDbEntity
  8
GAIKEI
  6
Continuous
 62
     1
100
AcDbLine
 10
32.92638049115453
 20
26.52179604296873
 30
0.0
 11
32.25031141672309
 21
26.52179604296873
 31
0.0
  0
LINE
  5
117
330
2
100
AcDbEntity
  8
GAIKEI
  6
Continuous
 62
     1
100
AcDbLine
 10
31.35831199695451
 20
26.30739243708092
 30
0.0
 11
31.60663687506735
 21
26.30739243708092
 31
0.0
  0
LINE
  5
118
330
2
100
AcDbEntity
  8
GAIKEI
  6
Continuous
 62
     1
100
AcDbLine
 10
32.92638049115453
 20
26.2967678042537
 30
0.0
 11
32.25031141672309
 21
26.2967678042537
 31
0.0
  0
LINE
  5
119
330
2
100
AcDbEntity
  8
GAIKEI
  6
Continuous
 62
     1
100
AcDbLine
 10
32.92638049115453
 20
26.07173956578873
 30
0.0
 11
32.25031141672309
 21
26.07173956578873
 31
0.0
  0
LINE
  5
11A
330
2
100
AcDbEntity
  8
GAIKEI
  6
Continuous
 62
     1
100
AcDbLine
 10
32.92638049115453
 20
25.84671132708377
 30
0.0
 11
32.25031141672309
 21
25.84671132708377
 31
0.0
  0
LINE
  5
11B
330
2
100
AcDbEntity
  8
GAIKEI
  6
Continuous
 62
     1
100
AcDbLine
 10
31.60663687506735
 20
25.81108355658148
 30
0.0
 11
31.35831199695451
 21
25.81108355658148
 31
0.0
  0
LINE
  5
11C
330
2
100
AcDbEntity
  8
GAIKEI
  6
Continuous
 62
     1
100
AcDbLine
 10
32.92638049115453
 20
25.62168308836874
 30
0.0
 11
32.25031141672309
 21
25.62168308836874
 31
0.0
  0
LINE
  5
11D
330
2
100
AcDbEntity
  8
GAIKEI
  6
Continuous
 62
     1
100
AcDbLine
 10
31.35831199695451
 20
25.45728575781095
 30
0.0
 11
31.60663687506735
 21
25.45728575781095
 31
0.0
  0
LINE
  5
11E
330
2
100
AcDbEntity
  8
GAIKEI
  6
Continuous
 62
     1
100
AcDbLine
 10
32.92638049115453
 20
25.39665484990371
 30
0.0
 11
32.25031141672309
 21
25.39665484990371
 31
0.0
  0
LINE
  5
11F
330
2
100
AcDbEntity
  8
GAIKEI
  6
Continuous
 62
     1
100
AcDbLine
 10
32.92638049115453
 20
25.17162661119875
 30
0.0
 11
32.25031141672309
 21
25.17162661119875
 31
0.0
  0
LINE
  5
120
330
2
100
AcDbEntity
  8
GAIKEI
  6
Continuous
 62
     1
100
AcDbLine
 10
31.60663687506735
 20
24.96097687731151
 30
0.0
 11
31.35831199695451
 21
24.96097687731151
 31
0.0
  0
LINE
  5
121
330
2
100
AcDbEntity
  8
GAIKEI
  6
Continuous
 62
     1
100
AcDbLine
 10
32.92638049115453
 20
24.94659837273378
 30
0.0
 11
32.25031141672309
 21
24.94659837273378
 31
0.0
  0
LINE
  5
122
330
2
100
AcDbEntity
  8
GAIKEI
  6
Continuous
 62
     1
100
AcDbLine
 10
32.92638049115453
 20
24.72157013401875
 30
0.0
 11
32.25031141672309
 21
24.72157013401875
 31
0.0
  0
LINE
  5
123
330
2
100
AcDbEntity
  8
GAIKEI
  6
Continuous
 62
     1
100
AcDbLine
 10
31.35831199695451
 20
24.60717907879098
 30
0.0
 11
31.60663687506735
 21
24.60717907879098
 31
0.0
  0
LINE
  5
124
330
2
100
AcDbEntity
  8
GAIKEI
  6
Continuous
 62
     1
100
AcDbLine
 10
32.92638049115453
 20
24.49654189531373
 30
0.0
 11
32.25031141672309
 21
24.49654189531373
 31
0.0
  0
LINE
  5
125
330
2
100
AcDbEntity
  8
GAIKEI
  6
Continuous
 62
     1
100
AcDbLine
 10
32.92638049115453
 20
24.27151365684875
 30
0.0
 11
32.25031141672309
 21
24.27151365684875
 31
0.0
  0
LINE
  5
126
330
2
100
AcDbEntity
  8
GAIKEI
  6
Continuous
 62
     1
100
AcDbLine
 10
31.60663687506735
 20
24.11087019829154
 30
0.0
 11
31.35831199695451
 21
24.11087019829154
 31
0.0
  0
LINE
  5
127
330
2
100
AcDbEntity
  8
GAIKEI
  6
Continuous
 62
     1
100
AcDbLine
 10
32.92638049115453
 20
24.04648541813373
 30
0.0
 11
32.25031141672309
 21
24.04648541813373
 31
0.0
  0
LINE
  5
128
330
2
100
AcDbEntity
  8
GAIKEI
  6
Continuous
 62
     1
100
AcDbLine
 10
32.92638049115453
 20
23.8214571794287
 30
0.0
 11
32.25031141672309
 21
23.8214571794287
 31
0.0
  0
LINE
  5
129
330
2
100
AcDbEntity
  8
GAIKEI
  6
Continuous
 62
     1
100
AcDbLine
 10
31.35831199695451
 20
23.75707239952095
 30
0.0
 11
31.60663687506735
 21
23.75707239952095
 31
0.0
  0
LINE
  5
12A
330
2
100
AcDbEntity
  8
GAIKEI
  6
Continuous
 62
     1
100
AcDbLine
 10
32.92638049115453
 20
23.59642894096373
 30
0.0
 11
32.25031141672309
 21
23.59642894096373
 31
0.0
  0
LINE
  5
12B
330
2
100
AcDbEntity
  8
GAIKEI
  6
Continuous
 62
     1
100
AcDbLine
 10
32.92638049115453
 20
23.37140070224871
 30
0.0
 11
32.25031141672309
 21
23.37140070224871
 31
0.0
  0
LINE
  5
12C
330
2
100
AcDbEntity
  8
GAIKEI
  6
Continuous
 62
     1
100
AcDbLine
 10
31.60663687506735
 20
23.26076351902157
 30
0.0
 11
31.35831199695451
 21
23.26076351902157
 31
0.0
  0
LINE
  5
12D
330
2
100
AcDbEntity
  8
GAIKEI
  6
Continuous
 62
     1
100
AcDbLine
 10
32.13196488040501
 20
23.25218701236213
 30
0.0
 11
31.83539304581774
 21
23.25218701236213
 31
0.0
  0
LINE
  5
12E
330
2
100
AcDbEntity
  8
GAIKEI
  6
Continuous
 62
     1
100
AcDbLine
 10
32.92638049115453
 20
23.14637246354369
 30
0.0
 11
32.25031141672309
 21
23.14637246354369
 31
0.0
  0
LINE
  5
12F
330
2
100
AcDbEntity
  8
GAIKEI
  6
Continuous
 62
     1
100
AcDbLine
 10
30.71582172727216
 20
22.92134422507877
 30
0.0
 11
32.92638049115453
 21
22.92134422507877
 31
0.0
  0
LINE
  5
130
330
2
100
AcDbEntity
  8
GAIKEI
  6
Continuous
 62
     1
100
AcDbLine
 10
32.11326362153801
 20
22.91717703534124
 30
0.0
 11
31.39815690062164
 21
22.91717703534124
 31
0.0
  0
LINE
  5
131
330
2
100
AcDbEntity
  8
GAIKEI
  6
Continuous
 62
     1
100
AcDbLine
 10
30.71582172727216
 20
22.69631598636374
 30
0.0
 11
32.92638049115453
 21
22.69631598636374
 31
0.0
  0
LINE
  5
132
330
2
100
AcDbEntity
  8
GAIKEI
  6
Continuous
 62
     1
100
AcDbLine
 10
30.71582172727216
 20
22.47128774765872
 30
0.0
 11
32.92638049115453
 21
22.47128774765872
 31
0.0
  0
LINE
  5
133
330
2
100
AcDbEntity
  8
GAIKEI
  6
Continuous
 62
     1
100
AcDbLine
 10
32.11326362153801
 20
22.46712055817125
 30
0.0
 11
30.71582172727216
 21
22.46712055817125
 31
0.0
  0
LINE
  5
134
330
2
100
AcDbEntity
  8
GAIKEI
  6
Continuous
 62
     1
100
AcDbLine
 10
30.71582172727216
 20
22.24625950919369
 30
0.0
 11
32.92638049115453
 21
22.24625950919369
 31
0.0
  0
LINE
  5
135
330
2
100
AcDbEntity
  8
GAIKEI
  6
Continuous
 62
     1
100
AcDbLine
 10
30.71582172727216
 20
22.02123127047872
 30
0.0
 11
32.92638049115453
 21
22.02123127047872
 31
0.0
  0
LINE
  5
136
330
2
100
AcDbEntity
  8
GAIKEI
  6
Continuous
 62
     1
100
AcDbLine
 10
30.71582172727216
 20
21.7962030317737
 30
0.0
 11
32.92638049115453
 21
21.7962030317737
 31
0.0
  0
LINE
  5
137
330
2
100
AcDbEntity
  8
GAIKEI
  6
Continuous
 62
     1
100
AcDbLine
 10
30.71582172727216
 20
21.57117479330873
 30
0.0
 11
32.92638049115453
 21
21.57117479330873
 31
0.0
  0
LINE
  5
138
330
2
100
AcDbEntity
  8
GAIKEI
  6
Continuous
 62
     1
100
AcDbLine
 10
30.71582172727216
 20
21.3461465545937
 30
0.0
 11
32.92638049115453
 21
21.3461465545937
 31
0.0
  0
LINE
  5
139
330
2
100
AcDbEntity
  8
GAIKEI
  6
Continuous
 62
     1
100
AcDbLine
 10
30.71582172727216
 20
21.12111831588868
 30
0.0
 11
32.92638049115453
 21
21.12111831588868
 31
0.0
  0
LINE
  5
13A
330
2
100
AcDbEntity
  8
GAIKEI
  6
Continuous
 62
     1
100
AcDbLine
 10
30.21604037274455
 20
21.00860419678622
 30
0.0
 11
30.26604664782457
 21
21.00860419678622
 31
0.0
  0
LINE
  5
13B
330
2
100
AcDbEntity
  8
GAIKEI
  6
Continuous
 62
     1
100
AcDbLine
 10
30.01601527169453
 20
21.00860419678622
 30
0.0
 11
30.06602154702455
 21
21.00860419678622
 31
0.0
  0
LINE
  5
13C
330
2
100
AcDbEntity
  8
GAIKEI
  6
Continuous
 62
     1
100
AcDbLine
 10
30.71582172727216
 20
20.89609007742376
 30
0.0
 11
32.92638049115453
 21
20.89609007742376
 31
0.0
  0
LINE
  5
13D
330
2
100
AcDbEntity
  8
GAIKEI
  6
Continuous
 62
     1
100
AcDbLine
 10
30.06602154702455
 20
20.80857909573627
 30
0.0
 11
30.21604037274455
 21
20.80857909573627
 31
0.0
  0
LINE
  5
13E
330
2
100
AcDbEntity
  8
GAIKEI
  6
Continuous
 62
     1
100
AcDbLine
 10
30.71582172727216
 20
20.67106183870874
 30
0.0
 11
32.92638049115453
 21
20.67106183870874
 31
0.0
  0
LINE
  5
13F
330
2
100
AcDbEntity
  8
GAIKEI
  6
Continuous
 62
     1
100
AcDbLine
 10
30.71582172727216
 20
20.44603360000372
 30
0.0
 11
32.92638049115453
 21
20.44603360000372
 31
0.0
  0
LINE
  5
140
330
2
100
AcDbEntity
  8
GAIKEI
  6
Continuous
 62
     1
100
AcDbLine
 10
32.13430638875911
 20
29.89721962239372
 30
0.0
 11
32.11326362153801
 21
29.90138681187125
 31
0.0
  0
LINE
  5
141
330
2
100
AcDbEntity
  8
GAIKEI
  6
Continuous
 62
     1
100
AcDbLine
 10
32.13430638875911
 20
28.99710666779368
 30
0.0
 11
32.11326362153801
 21
29.00127385753126
 31
0.0
  0
LINE
  5
142
330
2
100
AcDbEntity
  8
GAIKEI
  6
Continuous
 62
     1
100
AcDbLine
 10
30.71582172727216
 20
20.22100536153875
 30
0.0
 11
32.92638049115453
 21
20.22100536153875
 31
0.0
  0
LINE
  5
143
330
2
100
AcDbEntity
  8
GAIKEI
  6
Continuous
 62
     1
100
AcDbLine
 10
30.71582172727216
 20
19.99597712282372
 30
0.0
 11
32.92638049115453
 21
19.99597712282372
 31
0.0
  0
LINE
  5
144
330
2
100
AcDbEntity
  8
GAIKEI
  6
Continuous
 62
     1
100
AcDbLine
 10
30.71582172727216
 20
19.77094888411875
 30
0.0
 11
32.92638049115453
 21
19.77094888411875
 31
0.0
  0
LINE
  5
145
330
2
100
AcDbEntity
  8
GAIKEI
  6
Continuous
 62
     1
100
AcDbLine
 10
30.71582172727216
 20
19.54592064565372
 30
0.0
 11
32.92638049115453
 21
19.54592064565372
 31
0.0
  0
LINE
  5
146
330
2
100
AcDbEntity
  8
GAIKEI
  6
Continuous
 62
     1
100
AcDbLine
 10
30.71582172727216
 20
19.32089240693869
 30
0.0
 11
32.92638049115453
 21
19.32089240693869
 31
0.0
  0
LINE
  5
147
330
2
100
AcDbEntity
  8
GAIKEI
  6
Continuous
 62
     1
100
AcDbLine
 10
30.71582172727216
 20
19.09586416848373
 30
0.0
 11
32.92638049115453
 21
19.09586416848373
 31
0.0
  0
LINE
  5
148
330
2
100
AcDbEntity
  8
GAIKEI
  6
Continuous
 62
     1
100
AcDbLine
 10
30.71582172727216
 20
18.87083592976876
 30
0.0
 11
32.92638049115453
 21
18.87083592976876
 31
0.0
  0
LINE
  5
149
330
2
100
AcDbEntity
  8
GAIKEI
  6
Continuous
 62
     1
100
AcDbLine
 10
30.71582172727216
 20
18.64580769105373
 30
0.0
 11
32.92638049115453
 21
18.64580769105373
 31
0.0
  0
LINE
  5
14A
330
2
100
AcDbEntity
  8
GAIKEI
  6
Continuous
 62
     1
100
AcDbLine
 10
30.71582172727216
 20
18.42077945259871
 30
0.0
 11
32.92638049115453
 21
18.42077945259871
 31
0.0
  0
LINE
  5
14B
330
2
100
AcDbEntity
  8
GAIKEI
  6
Continuous
 62
     1
100
AcDbLine
 10
30.71582172727216
 20
18.19575121388374
 30
0.0
 11
32.92638049115453
 21
18.19575121388374
 31
0.0
  0
LINE
  5
14C
330
2
100
AcDbEntity
  8
GAIKEI
  6
Continuous
 62
     1
100
AcDbLine
 10
30.71582172727216
 20
17.97072297516871
 30
0.0
 11
32.92638049115453
 21
17.97072297516871
 31
0.0
  0
LINE
  5
14D
330
2
100
AcDbEntity
  8
GAIKEI
  6
Continuous
 62
     1
100
AcDbLine
 10
30.71582172727216
 20
17.74569473671374
 30
0.0
 11
32.92638049115453
 21
17.74569473671374
 31
0.0
  0
LINE
  5
14E
330
2
100
AcDbEntity
  8
GAIKEI
  6
Continuous
 62
     1
100
AcDbLine
 10
30.71582172727216
 20
17.52066649799871
 30
0.0
 11
32.92638049115453
 21
17.52066649799871
 31
0.0
  0
LINE
  5
14F
330
2
100
AcDbEntity
  8
GAIKEI
  6
Continuous
 62
     1
100
AcDbLine
 10
30.71582172727216
 20
17.29563825928369
 30
0.0
 11
32.92638049115453
 21
17.29563825928369
 31
0.0
  0
LINE
  5
150
330
2
100
AcDbEntity
  8
GAIKEI
  6
Continuous
 62
     1
100
AcDbLine
 10
30.71582172727216
 20
17.07061002082872
 30
0.0
 11
32.92638049115453
 21
17.07061002082872
 31
0.0
  0
LINE
  5
151
330
2
100
AcDbEntity
  8
GAIKEI
  6
Continuous
 62
     1
100
AcDbLine
 10
30.71582172727216
 20
16.84558178211375
 30
0.0
 11
32.92638049115453
 21
16.84558178211375
 31
0.0
  0
LINE
  5
152
330
2
100
AcDbEntity
  8
GAIKEI
  6
Continuous
 62
     1
100
AcDbLine
 10
30.71582172727216
 20
16.62055354339873
 30
0.0
 11
32.92638049115453
 21
16.62055354339873
 31
0.0
  0
LINE
  5
153
330
2
100
AcDbEntity
  8
GAIKEI
  6
Continuous
 62
     1
100
AcDbLine
 10
30.71582172727216
 20
16.3955253049437
 30
0.0
 11
32.92638049115453
 21
16.3955253049437
 31
0.0
  0
LINE
  5
154
330
2
100
AcDbEntity
  8
GAIKEI
  6
Continuous
 62
     1
100
AcDbLine
 10
30.71582172727216
 20
16.17049706622873
 30
0.0
 11
32.92638049115453
 21
16.17049706622873
 31
0.0
  0
LINE
  5
155
330
2
100
AcDbEntity
  8
GAIKEI
  6
Continuous
 62
     1
100
AcDbLine
 10
30.71582172727216
 20
15.94546882751371
 30
0.0
 11
32.92638049115453
 21
15.94546882751371
 31
0.0
  0
LINE
  5
156
330
2
100
AcDbEntity
  8
GAIKEI
  6
Continuous
 62
     1
100
AcDbLine
 10
30.71582172727216
 20
15.72044058905874
 30
0.0
 11
32.92638049115453
 21
15.72044058905874
 31
0.0
  0
LINE
  5
157
330
2
100
AcDbEntity
  8
GAIKEI
  6
Continuous
 62
     1
100
AcDbLine
 10
30.71582172727216
 20
15.49541235034371
 30
0.0
 11
32.92638049115453
 21
15.49541235034371
 31
0.0
  0
LINE
  5
158
330
2
100
AcDbEntity
  8
GAIKEI
  6
Continuous
 62
     1
100
AcDbLine
 10
30.71582172727216
 20
15.27038411162869
 30
0.0
 11
32.92638049115453
 21
15.27038411162869
 31
0.0
  0
LINE
  5
159
330
2
100
AcDbEntity
  8
GAIKEI
  6
Continuous
 62
     1
100
AcDbLine
 10
30.71582172727216
 20
15.04535587317377
 30
0.0
 11
32.92638049115453
 21
15.04535587317377
 31
0.0
  0
LINE
  5
15A
330
2
100
AcDbEntity
  8
GAIKEI
  6
Continuous
 62
     1
100
AcDbLine
 10
30.71582172727216
 20
14.82032763445875
 30
0.0
 11
32.92638049115453
 21
14.82032763445875
 31
0.0
  0
LINE
  5
15B
330
2
100
AcDbEntity
  8
GAIKEI
  6
Continuous
 62
     1
100
AcDbLine
 10
30.71582172727216
 20
14.59529939574372
 30
0.0
 11
32.92638049115453
 21
14.59529939574372
 31
0.0
  0
LINE
  5
15C
330
2
100
AcDbEntity
  8
GAIKEI
  6
Continuous
 62
     1
100
AcDbLine
 10
30.71582172727216
 20
14.3702711572887
 30
0.0
 11
32.92638049115453
 21
14.3702711572887
 31
0.0
  0
LINE
  5
15D
330
2
100
AcDbEntity
  8
GAIKEI
  6
Continuous
 62
     1
100
AcDbLine
 10
30.21604037274455
 20
14.20775076260622
 30
0.0
 11
30.26604664782457
 21
14.20775076260622
 31
0.0
  0
LINE
  5
15E
330
2
100
AcDbEntity
  8
GAIKEI
  6
Continuous
 62
     1
100
AcDbLine
 10
30.01601527169453
 20
14.20775076260622
 30
0.0
 11
30.06602154702455
 21
14.20775076260622
 31
0.0
  0
LINE
  5
15F
330
2
100
AcDbEntity
  8
GAIKEI
  6
Continuous
 62
     1
100
AcDbLine
 10
30.71582172727216
 20
14.14524291857373
 30
0.0
 11
32.92638049115453
 21
14.14524291857373
 31
0.0
  0
LINE
  5
160
330
2
100
AcDbEntity
  8
GAIKEI
  6
Continuous
 62
     1
100
AcDbLine
 10
30.06602154702455
 20
14.00772566155621
 30
0.0
 11
30.21604037274455
 21
14.00772566155621
 31
0.0
  0
LINE
  5
161
330
2
100
AcDbEntity
  8
GAIKEI
  6
Continuous
 62
     1
100
AcDbLine
 10
30.71582172727216
 20
13.9202146798587
 30
0.0
 11
32.92638049115453
 21
13.9202146798587
 31
0.0
  0
LINE
  5
162
330
2
100
AcDbEntity
  8
GAIKEI
  6
Continuous
 62
     1
100
AcDbLine
 10
30.71582172727216
 20
13.69518644140373
 30
0.0
 11
32.92638049115453
 21
13.69518644140373
 31
0.0
  0
LINE
  5
163
330
2
100
AcDbEntity
  8
GAIKEI
  6
Continuous
 62
     1
100
AcDbLine
 10
30.71582172727216
 20
13.47015820268871
 30
0.0
 11
32.92638049115453
 21
13.47015820268871
 31
0.0
  0
LINE
  5
164
330
2
100
AcDbEntity
  8
GAIKEI
  6
Continuous
 62
     1
100
AcDbLine
 10
30.71582172727216
 20
13.24512996423374
 30
0.0
 11
32.92638049115453
 21
13.24512996423374
 31
0.0
  0
LINE
  5
165
330
2
100
AcDbEntity
  8
GAIKEI
  6
Continuous
 62
     1
100
AcDbLine
 10
30.71582172727216
 20
13.02010172551877
 30
0.0
 11
32.92638049115453
 21
13.02010172551877
 31
0.0
  0
LINE
  5
166
330
2
100
AcDbEntity
  8
GAIKEI
  6
Continuous
 62
     1
100
AcDbLine
 10
30.71582172727216
 20
12.79507348680374
 30
0.0
 11
32.92638049115453
 21
12.79507348680374
 31
0.0
  0
LINE
  5
167
330
2
100
AcDbEntity
  8
GAIKEI
  6
Continuous
 62
     1
100
AcDbLine
 10
30.71582172727216
 20
12.57004524834872
 30
0.0
 11
32.92638049115453
 21
12.57004524834872
 31
0.0
  0
LINE
  5
168
330
2
100
AcDbEntity
  8
GAIKEI
  6
Continuous
 62
     1
100
AcDbLine
 10
30.71582172727216
 20
12.34501700963369
 30
0.0
 11
32.92638049115453
 21
12.34501700963369
 31
0.0
  0
LINE
  5
169
330
2
100
AcDbEntity
  8
GAIKEI
  6
Continuous
 62
     1
100
AcDbLine
 10
30.71582172727216
 20
12.11998877091872
 30
0.0
 11
32.92638049115453
 21
12.11998877091872
 31
0.0
  0
LINE
  5
16A
330
2
100
AcDbEntity
  8
GAIKEI
  6
Continuous
 62
     1
100
AcDbLine
 10
30.71582172727216
 20
11.89496053246375
 30
0.0
 11
32.92638049115453
 21
11.89496053246375
 31
0.0
  0
LINE
  5
16B
330
2
100
AcDbEntity
  8
GAIKEI
  6
Continuous
 62
     1
100
AcDbLine
 10
30.71582172727216
 20
11.66993229374873
 30
0.0
 11
32.92638049115453
 21
11.66993229374873
 31
0.0
  0
LINE
  5
16C
330
2
100
AcDbEntity
  8
GAIKEI
  6
Continuous
 62
     7
100
AcDbLine
 10
31.13449448967327
 20
3.942689139402659
 30
0.0
 11
32.51315272450182
 21
4.185783783377303
 31
0.0
  0
LINE
  5
16D
330
2
100
AcDbEntity
  8
GAIKEI
  6
Continuous
 62
     1
100
AcDbLine
 10
30.71582172727216
 20
11.4449040550337
 30
0.0
 11
32.92638049115453
 21
11.4449040550337
 31
0.0
  0
LINE
  5
16E
330
2
100
AcDbEntity
  8
GAIKEI
  6
Continuous
 62
     1
100
AcDbLine
 10
30.71582172727216
 20
11.21987581657873
 30
0.0
 11
32.92638049115453
 21
11.21987581657873
 31
0.0
  0
LINE
  5
16F
330
2
100
AcDbEntity
  8
GAIKEI
  6
Continuous
 62
     1
100
AcDbLine
 10
30.71582172727216
 20
10.99484757786376
 30
0.0
 11
32.92638049115453
 21
10.99484757786376
 31
0.0
  0
LINE
  5
170
330
2
100
AcDbEntity
  8
GAIKEI
  6
Continuous
 62
     1
100
AcDbLine
 10
30.71582172727216
 20
10.76981933914874
 30
0.0
 11
32.40675407915558
 21
10.76981933914874
 31
0.0
  0
LINE
  5
171
330
2
100
AcDbEntity
  8
GAIKEI
  6
Continuous
 62
     1
100
AcDbLine
 10
30.71582172727216
 20
10.54479110069371
 30
0.0
 11
32.40675443938079
 21
10.54479110069371
 31
0.0
  0
LINE
  5
172
330
2
100
AcDbEntity
  8
GAIKEI
  6
Continuous
 62
     1
100
AcDbLine
 10
30.71582172727216
 20
10.31976286197869
 30
0.0
 11
32.406754799596
 21
10.31976286197869
 31
0.0
  0
LINE
  5
173
330
2
100
AcDbEntity
  8
GAIKEI
  6
Continuous
 62
     1
100
AcDbLine
 10
30.71582172727216
 20
10.09473462326372
 30
0.0
 11
32.40675515981116
 21
10.09473462326372
 31
0.0
  0
LINE
  5
174
330
2
100
AcDbEntity
  8
GAIKEI
  6
Continuous
 62
     1
100
AcDbLine
 10
30.71582172727216
 20
9.86970638480875
 30
0.0
 11
32.40675552002637
 21
9.86970638480875
 31
0.0
  0
LINE
  5
175
330
2
100
AcDbEntity
  8
GAIKEI
  6
Continuous
 62
     1
100
AcDbLine
 10
30.71582172727216
 20
9.644678146093724
 30
0.0
 11
32.40675588050164
 21
9.644678146093724
 31
0.0
  0
LINE
  5
176
330
2
100
AcDbEntity
  8
GAIKEI
  6
Continuous
 62
     1
100
AcDbLine
 10
30.71582172727216
 20
9.419649907378698
 30
0.0
 11
32.40675624071684
 21
9.419649907378698
 31
0.0
  0
LINE
  5
177
330
2
100
AcDbEntity
  8
GAIKEI
  6
Continuous
 62
     1
100
AcDbLine
 10
30.71582172727216
 20
9.19462166892373
 30
0.0
 11
32.40675660093206
 21
9.19462166892373
 31
0.0
  0
LINE
  5
178
330
2
100
AcDbEntity
  8
GAIKEI
  6
Continuous
 62
     1
100
AcDbLine
 10
30.71582172727216
 20
8.96959343020876
 30
0.0
 11
32.40675696114727
 21
8.96959343020876
 31
0.0
  0
LINE
  5
179
330
2
100
AcDbEntity
  8
GAIKEI
  6
Continuous
 62
     1
100
AcDbLine
 10
30.71582172727216
 20
8.744565191493734
 30
0.0
 11
32.40675732137243
 21
8.744565191493734
 31
0.0
  0
LINE
  5
17A
330
2
100
AcDbEntity
  8
GAIKEI
  6
Continuous
 62
     1
100
AcDbLine
 10
30.71582172727216
 20
8.519536953038709
 30
0.0
 11
32.40675768158764
 21
8.519536953038709
 31
0.0
  0
LINE
  5
17B
330
2
100
AcDbEntity
  8
GAIKEI
  6
Continuous
 62
     1
100
AcDbLine
 10
30.71582172727216
 20
8.29450871432374
 30
0.0
 11
32.40675804180285
 21
8.29450871432374
 31
0.0
  0
LINE
  5
17C
330
2
100
AcDbEntity
  8
GAIKEI
  6
Continuous
 62
     1
100
AcDbLine
 10
30.71582172727216
 20
8.069480475868772
 30
0.0
 11
32.40675840201806
 21
8.069480475868772
 31
0.0
  0
LINE
  5
17D
330
2
100
AcDbEntity
  8
GAIKEI
  6
Continuous
 62
     1
100
AcDbLine
 10
30.71582172727216
 20
7.844452237153745
 30
0.0
 11
32.40675876223327
 21
7.844452237153745
 31
0.0
  0
LINE
  5
17E
330
2
100
AcDbEntity
  8
GAIKEI
  6
Continuous
 62
     1
100
AcDbLine
 10
32.92638049115453
 20
6.858973300856234
 30
0.0
 11
33.01639178668455
 21
6.858973300856234
 31
0.0
  0
LINE
  5
17F
330
2
100
AcDbEntity
  8
GAIKEI
  6
Continuous
 62
     1
100
AcDbLine
 10
30.21604037274455
 20
6.008866621586207
 30
0.0
 11
30.26604664782457
 21
6.008866621586207
 31
0.0
  0
LINE
  5
180
330
2
100
AcDbEntity
  8
GAIKEI
  6
Continuous
 62
     1
100
AcDbLine
 10
30.01601527169453
 20
6.008866621586207
 30
0.0
 11
30.06602154702455
 21
6.008866621586207
 31
0.0
  0
LINE
  5
181
330
2
100
AcDbEntity
  8
GAIKEI
  6
Continuous
 62
     1
100
AcDbLine
 10
30.06602154702455
 20
5.808841520796249
 30
0.0
 11
30.21604037274455
 21
5.808841520796249
 31
0.0
  0
LINE
  5
182
330
2
100
AcDbEntity
  8
GAIKEI
  6
Continuous
 62
     1
100
AcDbLine
 10
33.0763993181447
 20
4.683700327481233
 30
0.0
 11
32.92621795723829
 21
4.683700327481233
 31
0.0
  0
LINE
  5
183
330
2
100
AcDbEntity
  8
GAIKEI
  6
Continuous
 62
     1
100
AcDbLine
 10
4.452022899486337
 20
3.445193028728567
 30
0.0
 11
-47.53850135247364
 21
3.445193028728567
 31
0.0
  0
LINE
  5
184
330
2
100
AcDbEntity
  8
GAIKEI
  6
Continuous
 62
     1
100
AcDbLine
 10
-47.55541120342821
 20
3.37934555993911
 30
0.0
 11
4.468932750440842
 21
3.37934555993911
 31
0.0
  0
LINE
  5
185
330
2
100
AcDbEntity
  8
GAIKEI
  6
Continuous
 62
     1
100
AcDbLine
 10
4.473627513323094
 20
3.305727550170217
 30
0.0
 11
-47.56106853629268
 21
3.305727550170217
 31
0.0
  0
LINE
  5
186
330
2
100
AcDbEntity
  8
GAIKEI
  6
Continuous
 62
     1
100
AcDbLine
 10
1.177111933223841
 20
3.168158263863574
 30
0.0
 11
0.8220673790187902
 21
3.168158263863574
 31
0.0
  0
LINE
  5
187
330
2
100
AcDbEntity
  8
GAIKEI
  6
Continuous
 62
     1
100
AcDbLine
 10
1.83219413912883
 20
3.168158263863574
 30
0.0
 11
1.477149584673782
 21
3.168158263863574
 31
0.0
  0
LINE
  5
188
330
2
100
AcDbEntity
  8
GAIKEI
  6
Continuous
 62
     1
100
AcDbLine
 10
27.81137353322959
 20
3.104894404459287
 30
0.0
 11
27.8763816910946
 21
3.104894404459287
 31
0.0
  0
LINE
  5
189
330
2
100
AcDbEntity
  8
GAIKEI
  6
Continuous
 62
     1
100
AcDbLine
 10
27.81137353322959
 20
3.085051864453816
 30
0.0
 11
27.78637039556457
 21
3.085051864453816
 31
0.0
  0
LINE
  5
18A
330
2
100
AcDbEntity
  8
GAIKEI
  6
Continuous
 62
     1
100
AcDbLine
 10
2.215992301512528
 20
3.049393360154851
 30
0.0
 11
2.098477554725036
 21
3.049393360154851
 31
0.0
  0
LINE
  5
18B
330
2
100
AcDbEntity
  8
GAIKEI
  6
Continuous
 62
     1
100
AcDbLine
 10
2.201039875923868
 20
3.044436097241657
 30
0.0
 11
2.113429980313753
 21
3.044436097241657
 31
0.0
  0
LINE
  5
18C
330
2
100
AcDbEntity
  8
GAIKEI
  6
Continuous
 62
     1
100
AcDbLine
 10
2.103434817898289
 20
3.034440934566191
 30
0.0
 11
2.211035038339332
 21
3.034440934566191
 31
0.0
  0
LINE
  5
18D
330
2
100
AcDbEntity
  8
GAIKEI
  6
Continuous
 62
     1
100
AcDbLine
 10
2.103434817898289
 20
2.94683103895602
 30
0.0
 11
2.211035038339332
 21
2.94683103895602
 31
0.0
  0
LINE
  5
18E
330
2
100
AcDbEntity
  8
GAIKEI
  6
Continuous
 62
     1
100
AcDbLine
 10
2.113429980313753
 20
2.936835876540612
 30
0.0
 11
2.201039875923868
 21
2.936835876540612
 31
0.0
  0
LINE
  5
18F
330
2
100
AcDbEntity
  8
GAIKEI
  6
Continuous
 62
     1
100
AcDbLine
 10
2.098477554725036
 20
2.931878613367359
 30
0.0
 11
2.215992301512528
 21
2.931878613367359
 31
0.0
  0
LINE
  5
190
330
2
100
AcDbEntity
  8
GAIKEI
  6
Continuous
 62
     1
100
AcDbLine
 10
1.477149584673782
 20
2.813113709658637
 30
0.0
 11
1.83219413912883
 21
2.813113709658637
 31
0.0
  0
LINE
  5
191
330
2
100
AcDbEntity
  8
GAIKEI
  6
Continuous
 62
     1
100
AcDbLine
 10
0.8220673790187902
 20
2.813113709658637
 30
0.0
 11
1.177111933223841
 21
2.813113709658637
 31
0.0
  0
LINE
  5
192
330
2
100
AcDbEntity
  8
GAIKEI
  6
Continuous
 62
     1
100
AcDbLine
 10
30.56079108190933
 20
2.718453710266203
 30
0.0
 11
29.10090043454955
 21
2.718453710266203
 31
0.0
  0
LINE
  5
193
330
2
100
AcDbEntity
  8
GAIKEI
  6
Continuous
 62
     1
100
AcDbLine
 10
5.290771158076609
 20
2.715601472851062
 30
0.0
 11
5.431761040271283
 21
2.715601472851062
 31
0.0
  0
LINE
  5
194
330
2
100
AcDbEntity
  8
GAIKEI
  6
Continuous
 62
     1
100
AcDbLine
 10
-48.51823949351865
 20
2.715601472851062
 30
0.0
 11
-48.37724961107404
 21
2.715601472851062
 31
0.0
  0
LINE
  5
195
330
2
100
AcDbEntity
  8
GAIKEI
  6
Continuous
 62
     7
100
AcDbLine
 10
27.9968340005446
 20
2.42769743890966
 30
0.0
 11
29.05020359160074
 21
2.409299720453759
 31
0.0
  0
LINE
  5
196
330
2
100
AcDbEntity
  8
GAIKEI
  6
Continuous
 62
     1
100
AcDbLine
 10
27.78637039556457
 20
2.703357025054515
 30
0.0
 11
27.81137353322959
 21
2.703357025054515
 31
0.0
  0
LINE
  5
197
330
2
100
AcDbEntity
  8
GAIKEI
  6
Continuous
 62
     1
100
AcDbLine
 10
27.78637039556457
 20
2.70318832553454
 30
0.0
 11
27.81137353322959
 21
2.70318832553454
 31
0.0
  0
LINE
  5
198
330
2
100
AcDbEntity
  8
GAIKEI
  6
Continuous
 62
     1
100
AcDbLine
 10
27.81137353322959
 20
2.683354547848637
 30
0.0
 11
27.8763816910946
 21
2.683354547848637
 31
0.0
  0
LINE
  5
199
330
2
100
AcDbEntity
  8
GAIKEI
  6
Continuous
 62
     1
100
AcDbLine
 10
27.81137353322959
 20
2.683183264314379
 30
0.0
 11
27.8763816910946
 21
2.683183264314379
 31
0.0
  0
LINE
  5
19A
330
2
100
AcDbEntity
  8
GAIKEI
  6
Continuous
 62
     1
100
AcDbLine
 10
27.8763816910946
 20
2.658446179826228
 30
0.0
 11
29.10090043454955
 21
2.658446179826228
 31
0.0
  0
LINE
  5
19B
330
2
100
AcDbEntity
  8
GAIKEI
  6
Continuous
 62
     1
100
AcDbLine
 10
-48.26909303388617
 20
2.607444895673324
 30
0.0
 11
5.182614580638755
 21
2.607444895673324
 31
0.0
  0
LINE
  5
19C
330
2
100
AcDbEntity
  8
GAIKEI
  6
Continuous
 62
     7
100
AcDbLine
 10
30.38573972100858
 20
2.468422333896228
 30
0.0
 11
29.10090043454955
 21
2.468422333896228
 31
0.0
  0
LINE
  5
19D
330
2
100
AcDbEntity
  8
GAIKEI
  6
Continuous
 62
     7
100
AcDbLine
 10
5.182614580638755
 20
2.46645501347865
 30
0.0
 11
-48.26909303388617
 21
2.46645501347865
 31
0.0
  0
LINE
  5
19E
330
2
100
AcDbEntity
  8
GAIKEI
  6
Continuous
 62
     1
100
AcDbLine
 10
5.132608305388771
 20
2.46645501347865
 30
0.0
 11
2.508070906857824
 21
2.46645501347865
 31
0.0
  0
LINE
  5
19F
330
2
100
AcDbEntity
  8
GAIKEI
  6
Continuous
 62
     1
100
AcDbLine
 10
32.68530794652162
 20
31.50403885414477
 30
0.0
 11
32.1342139224256
 21
31.92192630594786
 31
0.0
  0
LINE
  5
1A0
330
2
100
AcDbEntity
  8
GAIKEI
  6
Continuous
 62
     1
100
AcDbLine
 10
32.92638049115453
 20
31.32123239452915
 30
0.0
 11
32.80842017346271
 21
31.41068113316431
 31
0.0
  0
LINE
  5
1A1
330
2
100
AcDbEntity
  8
GAIKEI
  6
Continuous
 62
     1
100
AcDbLine
 10
32.80842017346271
 20
31.41068113316431
 30
0.0
 11
32.68530794652162
 21
31.50403885414477
 31
0.0
  0
LINE
  5
1A2
330
2
100
AcDbEntity
  8
GAIKEI
  6
Continuous
 62
     7
100
AcDbLine
 10
32.78077623902607
 20
31.62993520112298
 30
0.0
 11
30.47877633731383
 21
33.52734118062722
 31
0.0
  0
LINE
  5
1A3
330
2
100
AcDbEntity
  8
GAIKEI
  6
Continuous
 62
     1
100
AcDbLine
 10
32.13421392496594
 20
31.92194079922661
 30
0.0
 11
30.48058771289197
 21
33.28492967689931
 31
0.0
  0
LINE
  5
1A4
330
2
100
AcDbEntity
  8
GAIKEI
  6
Continuous
 62
     7
100
AcDbLine
 10
29.10090043454955
 20
33.56084878913191
 30
0.0
 11
29.05020359160074
 21
33.59929786459753
 31
0.0
  0
LINE
  5
1A5
330
2
100
AcDbEntity
  8
GAIKEI
  6
Continuous
 62
     1
100
AcDbLine
 10
30.26604664782457
 20
29.20963333779628
 30
0.0
 11
30.14103095975952
 21
29.3096458881962
 31
0.0
  0
LINE
  5
1A6
330
2
100
AcDbEntity
  8
GAIKEI
  6
Continuous
 62
     7
100
AcDbLine
 10
29.10090043454955
 20
2.457751574200585
 30
0.0
 11
29.05020359160074
 21
2.419302498994966
 31
0.0
  0
LINE
  5
1A7
330
2
100
AcDbEntity
  8
GAIKEI
  6
Continuous
 62
     1
100
AcDbLine
 10
30.26604664782457
 20
21.00860419678622
 30
0.0
 11
30.14103095975952
 21
21.10861674717626
 31
0.0
  0
LINE
  5
1A8
330
2
100
AcDbEntity
  8
GAIKEI
  6
Continuous
 62
     1
100
AcDbLine
 10
30.14103095975952
 20
6.108879172236242
 30
0.0
 11
30.01601527169453
 21
6.008866621586207
 31
0.0
  0
LINE
  5
1A9
330
2
100
AcDbEntity
  8
GAIKEI
  6
Continuous
 62
     1
100
AcDbLine
 10
30.26604664782457
 20
14.20775076260622
 30
0.0
 11
30.14103095975952
 21
14.30776331325626
 31
0.0
  0
LINE
  5
1AA
330
2
100
AcDbEntity
  8
GAIKEI
  6
Continuous
 62
     1
100
AcDbLine
 10
31.86148082974421
 20
28.76627643091035
 30
0.0
 11
31.8526181891981
 21
28.76286879698887
 31
0.0
  0
LINE
  5
1AB
330
2
100
AcDbEntity
  8
GAIKEI
  6
Continuous
 62
     1
100
AcDbLine
 10
30.14103095975952
 20
14.30776331325626
 30
0.0
 11
30.01601527169453
 21
14.20775076260622
 31
0.0
  0
LINE
  5
1AC
330
2
100
AcDbEntity
  8
GAIKEI
  6
Continuous
 62
     1
100
AcDbLine
 10
30.26604664782457
 20
6.008866621586207
 30
0.0
 11
30.14103095975952
 21
6.108879172236242
 31
0.0
  0
LINE
  5
1AD
330
2
100
AcDbEntity
  8
GAIKEI
  6
Continuous
 62
     1
100
AcDbLine
 10
30.14103095975952
 20
21.10861674717626
 30
0.0
 11
30.01601527169453
 21
21.00860419678622
 31
0.0
  0
LINE
  5
1AE
330
2
100
AcDbEntity
  8
GAIKEI
  6
Continuous
 62
     7
100
AcDbLine
 10
27.890733935637
 20
2.515245525763475
 30
0.0
 11
27.96208612051919
 21
2.442656268892051
 31
0.0
  0
LINE
  5
1AF
330
2
100
AcDbEntity
  8
GAIKEI
  6
Continuous
 62
     1
100
AcDbLine
 10
30.14103095975952
 20
29.3096458881962
 30
0.0
 11
30.01601527169453
 21
29.20963333779628
 31
0.0
  0
LINE
  5
1B0
330
2
100
AcDbEntity
  8
GAIKEI
  6
Continuous
 62
     7
100
AcDbLine
 10
27.89071262490273
 20
33.50337113549421
 30
0.0
 11
27.96205518527711
 21
33.57596985225274
 31
0.0
  0
LINE
  5
1B1
330
2
100
AcDbEntity
  8
GAIKEI
  6
Continuous
 62
     7
100
AcDbLine
 10
30.4792696923646
 20
2.532683755913922
 30
0.0
 11
31.07883289716098
 21
3.898961119540444
 31
0.0
  0
LINE
  5
1B2
330
2
100
AcDbEntity
  8
GAIKEI
  6
Continuous
 62
     7
100
AcDbLine
 10
32.92638049115453
 20
4.678249459025835
 30
0.0
 11
32.92638049115453
 21
31.32123239452915
 31
0.0
  0
LINE
  5
1B3
330
2
100
AcDbEntity
  8
GAIKEI
  6
Continuous
 62
     1
100
AcDbLine
 10
32.54274797889809
 20
10.37976623518705
 30
0.0
 11
32.54274300927449
 21
7.388736101753011
 31
0.0
  0
LINE
  5
1B4
330
2
100
AcDbEntity
  8
GAIKEI
  6
Continuous
 62
     1
100
AcDbLine
 10
32.40675840201806
 20
8.069480475868772
 30
0.0
 11
32.40675876223327
 21
7.844452237153745
 31
0.0
  0
LINE
  5
1B5
330
2
100
AcDbEntity
  8
GAIKEI
  6
Continuous
 62
     1
100
AcDbLine
 10
32.40675768158764
 20
8.519536953038709
 30
0.0
 11
32.40675804180285
 21
8.29450871432374
 31
0.0
  0
LINE
  5
1B6
330
2
100
AcDbEntity
  8
GAIKEI
  6
Continuous
 62
     1
100
AcDbLine
 10
32.40675696114727
 20
8.96959343020876
 30
0.0
 11
32.40675732137243
 21
8.744565191493734
 31
0.0
  0
LINE
  5
1B7
330
2
100
AcDbEntity
  8
GAIKEI
  6
Continuous
 62
     1
100
AcDbLine
 10
32.40675624071684
 20
9.419649907378698
 30
0.0
 11
32.40675660093206
 21
9.19462166892373
 31
0.0
  0
LINE
  5
1B8
330
2
100
AcDbEntity
  8
GAIKEI
  6
Continuous
 62
     1
100
AcDbLine
 10
32.40675552002637
 20
9.86970638480875
 30
0.0
 11
32.40675588050164
 21
9.644678146093724
 31
0.0
  0
LINE
  5
1B9
330
2
100
AcDbEntity
  8
GAIKEI
  6
Continuous
 62
     1
100
AcDbLine
 10
32.406754799596
 20
10.31976286197869
 30
0.0
 11
32.40675515981116
 21
10.09473462326372
 31
0.0
  0
LINE
  5
1BA
330
2
100
AcDbEntity
  8
GAIKEI
  6
Continuous
 62
     1
100
AcDbLine
 10
32.40675407915558
 20
10.76981933914874
 30
0.0
 11
32.40675443938079
 21
10.54479110069371
 31
0.0
  0
LINE
  5
1BB
330
2
100
AcDbEntity
  8
GAIKEI
  6
Continuous
 62
     1
100
AcDbLine
 10
32.25031141672309
 20
23.37140070224871
 30
0.0
 11
32.25031141672309
 21
23.14637246354369
 31
0.0
  0
LINE
  5
1BC
330
2
100
AcDbEntity
  8
GAIKEI
  6
Continuous
 62
     1
100
AcDbLine
 10
32.25031141672309
 20
23.8214571794287
 30
0.0
 11
32.25031141672309
 21
23.59642894096373
 31
0.0
  0
LINE
  5
1BD
330
2
100
AcDbEntity
  8
GAIKEI
  6
Continuous
 62
     1
100
AcDbLine
 10
32.25031141672309
 20
24.27151365684875
 30
0.0
 11
32.25031141672309
 21
24.04648541813373
 31
0.0
  0
LINE
  5
1BE
330
2
100
AcDbEntity
  8
GAIKEI
  6
Continuous
 62
     1
100
AcDbLine
 10
32.25031141672309
 20
24.72157013401875
 30
0.0
 11
32.25031141672309
 21
24.49654189531373
 31
0.0
  0
LINE
  5
1BF
330
2
100
AcDbEntity
  8
GAIKEI
  6
Continuous
 62
     1
100
AcDbLine
 10
32.25031141672309
 20
25.17162661119875
 30
0.0
 11
32.25031141672309
 21
24.94659837273378
 31
0.0
  0
LINE
  5
1C0
330
2
100
AcDbEntity
  8
GAIKEI
  6
Continuous
 62
     1
100
AcDbLine
 10
32.25031141672309
 20
25.62168308836874
 30
0.0
 11
32.25031141672309
 21
25.39665484990371
 31
0.0
  0
LINE
  5
1C1
330
2
100
AcDbEntity
  8
GAIKEI
  6
Continuous
 62
     1
100
AcDbLine
 10
32.25031141672309
 20
26.07173956578873
 30
0.0
 11
32.25031141672309
 21
25.84671132708377
 31
0.0
  0
LINE
  5
1C2
330
2
100
AcDbEntity
  8
GAIKEI
  6
Continuous
 62
     1
100
AcDbLine
 10
32.25031141672309
 20
26.52179604296873
 30
0.0
 11
32.25031141672309
 21
26.2967678042537
 31
0.0
  0
LINE
  5
1C3
330
2
100
AcDbEntity
  8
GAIKEI
  6
Continuous
 62
     1
100
AcDbLine
 10
32.25031141672309
 20
26.97185252013873
 30
0.0
 11
32.25031141672309
 21
26.74682428167376
 31
0.0
  0
LINE
  5
1C4
330
2
100
AcDbEntity
  8
GAIKEI
  6
Continuous
 62
     1
100
AcDbLine
 10
32.25031141672309
 20
27.42190899755872
 30
0.0
 11
32.25031141672309
 21
27.1968807588537
 31
0.0
  0
LINE
  5
1C5
330
2
100
AcDbEntity
  8
GAIKEI
  6
Continuous
 62
     1
100
AcDbLine
 10
32.25031141672309
 20
27.87196547473878
 30
0.0
 11
32.25031141672309
 21
27.64693723602375
 31
0.0
  0
LINE
  5
1C6
330
2
100
AcDbEntity
  8
GAIKEI
  6
Continuous
 62
     1
100
AcDbLine
 10
32.25031141672309
 20
28.32202195190871
 30
0.0
 11
32.25031141672309
 21
28.09699371344374
 31
0.0
  0
LINE
  5
1C7
330
2
100
AcDbEntity
  8
GAIKEI
  6
Continuous
 62
     1
100
AcDbLine
 10
32.25031141672309
 20
28.77207842932876
 30
0.0
 11
32.25031141672309
 21
28.54705019062374
 31
0.0
  0
LINE
  5
1C8
330
2
100
AcDbEntity
  8
GAIKEI
  6
Continuous
 62
     1
100
AcDbLine
 10
32.14450703121008
 20
29.90133547101846
 30
0.0
 11
32.14450703121008
 21
30.11813201247401
 31
0.0
  0
LINE
  5
1C9
330
2
100
AcDbEntity
  8
GAIKEI
  6
Continuous
 62
     1
100
AcDbLine
 10
32.14450703121008
 20
29.45127899358846
 30
0.0
 11
32.14450703121008
 21
29.66807553505396
 31
0.0
  0
LINE
  5
1CA
330
2
100
AcDbEntity
  8
GAIKEI
  6
Continuous
 62
     1
100
AcDbLine
 10
32.14450703121008
 20
29.00122251641846
 30
0.0
 11
32.14450703121008
 21
29.21801905788402
 31
0.0
  0
LINE
  5
1CB
330
2
100
AcDbEntity
  8
GAIKEI
  6
Continuous
 62
     1
100
AcDbLine
 10
32.13421392496594
 20
31.92194079922661
 30
0.0
 11
32.13430638875911
 21
31.02236081544873
 31
0.0
  0
LINE
  5
1CC
330
2
100
AcDbEntity
  8
GAIKEI
  6
Continuous
 62
     1
100
AcDbLine
 10
32.13430638875911
 20
29.44716314521372
 30
0.0
 11
32.13430638875911
 21
29.2221349065087
 31
0.0
  0
LINE
  5
1CD
330
2
100
AcDbEntity
  8
GAIKEI
  6
Continuous
 62
     1
100
AcDbLine
 10
32.13430638875911
 20
29.89721962239372
 30
0.0
 11
32.13430638875911
 21
29.67219138367875
 31
0.0
  0
LINE
  5
1CE
330
2
100
AcDbEntity
  8
GAIKEI
  6
Continuous
 62
     1
100
AcDbLine
 10
32.13430638875911
 20
30.34727609956372
 30
0.0
 11
32.13430638875911
 21
30.12224786109874
 31
0.0
  0
LINE
  5
1CF
330
2
100
AcDbEntity
  8
GAIKEI
  6
Continuous
 62
     1
100
AcDbLine
 10
32.13430638875911
 20
30.79733257698376
 30
0.0
 11
32.13430638875911
 21
30.57230433827874
 31
0.0
  0
LINE
  5
1D0
330
2
100
AcDbEntity
  8
GAIKEI
  6
Continuous
 62
     1
100
AcDbLine
 10
32.13196329854645
 20
28.72610961829707
 30
0.0
 11
32.13196329854645
 21
23.25218751585532
 31
0.0
  0
LINE
  5
1D1
330
2
100
AcDbEntity
  8
GAIKEI
  6
Continuous
 62
     1
100
AcDbLine
 10
31.83539304581774
 20
27.4594137039262
 30
0.0
 11
31.83539304581774
 21
28.7179740782143
 31
0.0
  0
LINE
  5
1D2
330
2
100
AcDbEntity
  8
GAIKEI
  6
Continuous
 62
     1
100
AcDbLine
 10
31.83539304581774
 20
23.25218701236213
 30
0.0
 11
31.83539304581774
 21
27.35940115353628
 31
0.0
  0
LINE
  5
1D3
330
2
100
AcDbEntity
  8
GAIKEI
  6
Continuous
 62
     1
100
AcDbLine
 10
31.75230666360994
 20
27.81620452991956
 30
0.0
 11
31.75230666360994
 21
28.60281113544295
 31
0.0
  0
LINE
  5
1D4
330
2
100
AcDbEntity
  8
GAIKEI
  6
Continuous
 62
     1
100
AcDbLine
 10
31.64961503281416
 20
23.6771930234479
 30
0.0
 11
31.64961503281416
 21
23.34064289509456
 31
0.0
  0
LINE
  5
1D5
330
2
100
AcDbEntity
  8
GAIKEI
  6
Continuous
 62
     1
100
AcDbLine
 10
31.64961503281416
 20
24.52729970271793
 30
0.0
 11
31.64961503281416
 21
24.19074957411453
 31
0.0
  0
LINE
  5
1D6
330
2
100
AcDbEntity
  8
GAIKEI
  6
Continuous
 62
     1
100
AcDbLine
 10
31.64961503281416
 20
25.37740638198795
 30
0.0
 11
31.64961503281416
 21
25.04085625338451
 31
0.0
  0
LINE
  5
1D7
330
2
100
AcDbEntity
  8
GAIKEI
  6
Continuous
 62
     1
100
AcDbLine
 10
31.64961503281416
 20
26.22751306100793
 30
0.0
 11
31.64961503281416
 21
25.89096293265453
 31
0.0
  0
LINE
  5
1D8
330
2
100
AcDbEntity
  8
GAIKEI
  6
Continuous
 62
     1
100
AcDbLine
 10
31.64961503281416
 20
27.0776197402779
 30
0.0
 11
31.64961503281416
 21
26.74106961193456
 31
0.0
  0
LINE
  5
1D9
330
2
100
AcDbEntity
  8
GAIKEI
  6
Continuous
 62
     1
100
AcDbLine
 10
31.31533383946777
 20
26.74106961193456
 30
0.0
 11
31.31533383946777
 21
27.0776197402779
 31
0.0
  0
LINE
  5
1DA
330
2
100
AcDbEntity
  8
GAIKEI
  6
Continuous
 62
     1
100
AcDbLine
 10
31.31533383946777
 20
25.89096293265453
 30
0.0
 11
31.31533383946777
 21
26.22751306100793
 31
0.0
  0
LINE
  5
1DB
330
2
100
AcDbEntity
  8
GAIKEI
  6
Continuous
 62
     1
100
AcDbLine
 10
31.31533383946777
 20
25.04085625338451
 30
0.0
 11
31.31533383946777
 21
25.37740638198795
 31
0.0
  0
LINE
  5
1DC
330
2
100
AcDbEntity
  8
GAIKEI
  6
Continuous
 62
     1
100
AcDbLine
 10
31.31533383946777
 20
24.19074957411453
 30
0.0
 11
31.31533383946777
 21
24.52729970271793
 31
0.0
  0
LINE
  5
1DD
330
2
100
AcDbEntity
  8
GAIKEI
  6
Continuous
 62
     1
100
AcDbLine
 10
31.31533383946777
 20
23.34064289509456
 30
0.0
 11
31.31533383946777
 21
23.6771930234479
 31
0.0
  0
LINE
  5
1DE
330
2
100
AcDbEntity
  8
GAIKEI
  6
Continuous
 62
     1
100
AcDbLine
 10
31.28324270484529
 20
28.60281113544295
 30
0.0
 11
31.28324270484529
 21
27.81620452991956
 31
0.0
  0
LINE
  5
1DF
330
2
100
AcDbEntity
  8
GAIKEI
  6
Continuous
 62
     1
100
AcDbLine
 10
31.18916596340557
 20
28.07199057578873
 30
0.0
 11
31.18916596340557
 21
27.94697488772374
 31
0.0
  0
LINE
  5
1E0
330
2
100
AcDbEntity
  8
GAIKEI
  6
Continuous
 62
     1
100
AcDbLine
 10
31.18916596340557
 20
28.27201567683875
 30
0.0
 11
31.18916596340557
 21
28.14699998852371
 31
0.0
  0
LINE
  5
1E1
330
2
100
AcDbEntity
  8
GAIKEI
  6
Continuous
 62
     1
100
AcDbLine
 10
31.18916596340557
 20
28.47204077762871
 30
0.0
 11
31.18916596340557
 21
28.34702508957372
 31
0.0
  0
LINE
  5
1E2
330
2
100
AcDbEntity
  8
GAIKEI
  6
Continuous
 62
     1
100
AcDbLine
 10
31.10893812671446
 20
28.34702508957372
 30
0.0
 11
31.10893812671446
 21
28.47204077762871
 31
0.0
  0
LINE
  5
1E3
330
2
100
AcDbEntity
  8
GAIKEI
  6
Continuous
 62
     1
100
AcDbLine
 10
31.10893812671446
 20
28.14699998852371
 30
0.0
 11
31.10893812671446
 21
28.27201567683875
 31
0.0
  0
LINE
  5
1E4
330
2
100
AcDbEntity
  8
GAIKEI
  6
Continuous
 62
     1
100
AcDbLine
 10
31.10893812671446
 20
27.94697488772374
 30
0.0
 11
31.10893812671446
 21
28.07199057578873
 31
0.0
  0
LINE
  5
1E5
330
2
100
AcDbEntity
  8
GAIKEI
  6
Continuous
 62
     1
100
AcDbLine
 10
31.06258118114613
 20
28.27201567683875
 30
0.0
 11
31.06258118114613
 21
28.14699998852371
 31
0.0
  0
LINE
  5
1E6
330
2
100
AcDbEntity
  8
GAIKEI
  6
Continuous
 62
     1
100
AcDbLine
 10
31.05366851918285
 20
28.07699120321371
 30
0.0
 11
31.05366851918285
 21
27.95197551515878
 31
0.0
  0
LINE
  5
1E7
330
2
100
AcDbEntity
  8
GAIKEI
  6
Continuous
 62
     1
100
AcDbLine
 10
31.05366851918285
 20
28.46704015020373
 30
0.0
 11
31.05366851918285
 21
28.34202446213874
 31
0.0
  0
LINE
  5
1E8
330
2
100
AcDbEntity
  8
GAIKEI
  6
Continuous
 62
     1
100
AcDbLine
 10
30.96452802078852
 20
28.34202446213874
 30
0.0
 11
30.96452802078852
 21
28.46704015020373
 31
0.0
  0
LINE
  5
1E9
330
2
100
AcDbEntity
  8
GAIKEI
  6
Continuous
 62
     1
100
AcDbLine
 10
30.96452802078852
 20
28.14699998852371
 30
0.0
 11
30.96452802078852
 21
28.27201567683875
 31
0.0
  0
LINE
  5
1EA
330
2
100
AcDbEntity
  8
GAIKEI
  6
Continuous
 62
     1
100
AcDbLine
 10
30.96452802078852
 20
27.95197551515878
 30
0.0
 11
30.96452802078852
 21
28.07699120321371
 31
0.0
  0
LINE
  5
1EB
330
2
100
AcDbEntity
  8
GAIKEI
  6
Continuous
 62
     1
100
AcDbLine
 10
30.90034575154362
 20
28.07199057578873
 30
0.0
 11
30.90034575154362
 21
27.94697488772374
 31
0.0
  0
LINE
  5
1EC
330
2
100
AcDbEntity
  8
GAIKEI
  6
Continuous
 62
     1
100
AcDbLine
 10
30.90034575154362
 20
28.27201567683875
 30
0.0
 11
30.90034575154362
 21
28.14699998852371
 31
0.0
  0
LINE
  5
1ED
330
2
100
AcDbEntity
  8
GAIKEI
  6
Continuous
 62
     1
100
AcDbLine
 10
30.90034575154362
 20
28.47204077762871
 30
0.0
 11
30.90034575154362
 21
28.34702508957372
 31
0.0
  0
LINE
  5
1EE
330
2
100
AcDbEntity
  8
GAIKEI
  6
Continuous
 62
     1
100
AcDbLine
 10
30.82011791486252
 20
28.34702508957372
 30
0.0
 11
30.82011791486252
 21
28.47204077762871
 31
0.0
  0
LINE
  5
1EF
330
2
100
AcDbEntity
  8
GAIKEI
  6
Continuous
 62
     1
100
AcDbLine
 10
30.82011791486252
 20
28.14699998852371
 30
0.0
 11
30.82011791486252
 21
28.27201567683875
 31
0.0
  0
LINE
  5
1F0
330
2
100
AcDbEntity
  8
GAIKEI
  6
Continuous
 62
     1
100
AcDbLine
 10
30.82011791486252
 20
27.94697488772374
 30
0.0
 11
30.82011791486252
 21
28.07199057578873
 31
0.0
  0
LINE
  5
1F1
330
2
100
AcDbEntity
  8
GAIKEI
  6
Continuous
 62
     1
100
AcDbLine
 10
30.71582172727216
 20
30.79733257698376
 30
0.0
 11
30.71582172727216
 21
31.02236081544873
 31
0.0
  0
LINE
  5
1F2
330
2
100
AcDbEntity
  8
GAIKEI
  6
Continuous
 62
     1
100
AcDbLine
 10
30.71582172727216
 20
30.34727609956372
 30
0.0
 11
30.71582172727216
 21
30.57230433827874
 31
0.0
  0
LINE
  5
1F3
330
2
100
AcDbEntity
  8
GAIKEI
  6
Continuous
 62
     1
100
AcDbLine
 10
30.71582172727216
 20
29.89721962239372
 30
0.0
 11
30.71582172727216
 21
30.12224786109874
 31
0.0
  0
LINE
  5
1F4
330
2
100
AcDbEntity
  8
GAIKEI
  6
Continuous
 62
     1
100
AcDbLine
 10
30.71582172727216
 20
29.44716314521372
 30
0.0
 11
30.71582172727216
 21
29.67219138367875
 31
0.0
  0
LINE
  5
1F5
330
2
100
AcDbEntity
  8
GAIKEI
  6
Continuous
 62
     1
100
AcDbLine
 10
30.71582172727216
 20
28.99710666779368
 30
0.0
 11
30.71582172727216
 21
29.2221349065087
 31
0.0
  0
LINE
  5
1F6
330
2
100
AcDbEntity
  8
GAIKEI
  6
Continuous
 62
     1
100
AcDbLine
 10
30.71582172727216
 20
22.69631598636374
 30
0.0
 11
30.71582172727216
 21
22.92134422507877
 31
0.0
  0
LINE
  5
1F7
330
2
100
AcDbEntity
  8
GAIKEI
  6
Continuous
 62
     1
100
AcDbLine
 10
30.71582172727216
 20
22.24625950919369
 30
0.0
 11
30.71582172727216
 21
22.47128774765872
 31
0.0
  0
LINE
  5
1F8
330
2
100
AcDbEntity
  8
GAIKEI
  6
Continuous
 62
     1
100
AcDbLine
 10
30.71582172727216
 20
21.7962030317737
 30
0.0
 11
30.71582172727216
 21
22.02123127047872
 31
0.0
  0
LINE
  5
1F9
330
2
100
AcDbEntity
  8
GAIKEI
  6
Continuous
 62
     1
100
AcDbLine
 10
30.71582172727216
 20
21.3461465545937
 30
0.0
 11
30.71582172727216
 21
21.57117479330873
 31
0.0
  0
LINE
  5
1FA
330
2
100
AcDbEntity
  8
GAIKEI
  6
Continuous
 62
     1
100
AcDbLine
 10
30.71582172727216
 20
20.89609007742376
 30
0.0
 11
30.71582172727216
 21
21.12111831588868
 31
0.0
  0
LINE
  5
1FB
330
2
100
AcDbEntity
  8
GAIKEI
  6
Continuous
 62
     1
100
AcDbLine
 10
30.71582172727216
 20
20.44603360000372
 30
0.0
 11
30.71582172727216
 21
20.67106183870874
 31
0.0
  0
LINE
  5
1FC
330
2
100
AcDbEntity
  8
GAIKEI
  6
Continuous
 62
     1
100
AcDbLine
 10
30.71582172727216
 20
19.99597712282372
 30
0.0
 11
30.71582172727216
 21
20.22100536153875
 31
0.0
  0
LINE
  5
1FD
330
2
100
AcDbEntity
  8
GAIKEI
  6
Continuous
 62
     1
100
AcDbLine
 10
30.71582172727216
 20
19.54592064565372
 30
0.0
 11
30.71582172727216
 21
19.77094888411875
 31
0.0
  0
LINE
  5
1FE
330
2
100
AcDbEntity
  8
GAIKEI
  6
Continuous
 62
     1
100
AcDbLine
 10
30.71582172727216
 20
19.09586416848373
 30
0.0
 11
30.71582172727216
 21
19.32089240693869
 31
0.0
  0
LINE
  5
1FF
330
2
100
AcDbEntity
  8
GAIKEI
  6
Continuous
 62
     1
100
AcDbLine
 10
30.71582172727216
 20
18.64580769105373
 30
0.0
 11
30.71582172727216
 21
18.87083592976876
 31
0.0
  0
LINE
  5
200
330
2
100
AcDbEntity
  8
GAIKEI
  6
Continuous
 62
     1
100
AcDbLine
 10
30.71582172727216
 20
18.19575121388374
 30
0.0
 11
30.71582172727216
 21
18.42077945259871
 31
0.0
  0
LINE
  5
201
330
2
100
AcDbEntity
  8
GAIKEI
  6
Continuous
 62
     1
100
AcDbLine
 10
30.71582172727216
 20
17.74569473671374
 30
0.0
 11
30.71582172727216
 21
17.97072297516871
 31
0.0
  0
LINE
  5
202
330
2
100
AcDbEntity
  8
GAIKEI
  6
Continuous
 62
     1
100
AcDbLine
 10
30.71582172727216
 20
17.29563825928369
 30
0.0
 11
30.71582172727216
 21
17.52066649799871
 31
0.0
  0
LINE
  5
203
330
2
100
AcDbEntity
  8
GAIKEI
  6
Continuous
 62
     1
100
AcDbLine
 10
30.71582172727216
 20
16.84558178211375
 30
0.0
 11
30.71582172727216
 21
17.07061002082872
 31
0.0
  0
LINE
  5
204
330
2
100
AcDbEntity
  8
GAIKEI
  6
Continuous
 62
     1
100
AcDbLine
 10
30.71582172727216
 20
16.3955253049437
 30
0.0
 11
30.71582172727216
 21
16.62055354339873
 31
0.0
  0
LINE
  5
205
330
2
100
AcDbEntity
  8
GAIKEI
  6
Continuous
 62
     1
100
AcDbLine
 10
30.71582172727216
 20
15.94546882751371
 30
0.0
 11
30.71582172727216
 21
16.17049706622873
 31
0.0
  0
LINE
  5
206
330
2
100
AcDbEntity
  8
GAIKEI
  6
Continuous
 62
     1
100
AcDbLine
 10
30.71582172727216
 20
15.49541235034371
 30
0.0
 11
30.71582172727216
 21
15.72044058905874
 31
0.0
  0
LINE
  5
207
330
2
100
AcDbEntity
  8
GAIKEI
  6
Continuous
 62
     1
100
AcDbLine
 10
30.71582172727216
 20
15.04535587317377
 30
0.0
 11
30.71582172727216
 21
15.27038411162869
 31
0.0
  0
LINE
  5
208
330
2
100
AcDbEntity
  8
GAIKEI
  6
Continuous
 62
     1
100
AcDbLine
 10
30.71582172727216
 20
14.59529939574372
 30
0.0
 11
30.71582172727216
 21
14.82032763445875
 31
0.0
  0
LINE
  5
209
330
2
100
AcDbEntity
  8
GAIKEI
  6
Continuous
 62
     1
100
AcDbLine
 10
30.71582172727216
 20
14.14524291857373
 30
0.0
 11
30.71582172727216
 21
14.3702711572887
 31
0.0
  0
LINE
  5
20A
330
2
100
AcDbEntity
  8
GAIKEI
  6
Continuous
 62
     1
100
AcDbLine
 10
30.71582172727216
 20
13.69518644140373
 30
0.0
 11
30.71582172727216
 21
13.9202146798587
 31
0.0
  0
LINE
  5
20B
330
2
100
AcDbEntity
  8
GAIKEI
  6
Continuous
 62
     1
100
AcDbLine
 10
30.71582172727216
 20
13.24512996423374
 30
0.0
 11
30.71582172727216
 21
13.47015820268871
 31
0.0
  0
LINE
  5
20C
330
2
100
AcDbEntity
  8
GAIKEI
  6
Continuous
 62
     1
100
AcDbLine
 10
30.71582172727216
 20
12.79507348680374
 30
0.0
 11
30.71582172727216
 21
13.02010172551877
 31
0.0
  0
LINE
  5
20D
330
2
100
AcDbEntity
  8
GAIKEI
  6
Continuous
 62
     1
100
AcDbLine
 10
30.71582172727216
 20
12.34501700963369
 30
0.0
 11
30.71582172727216
 21
12.57004524834872
 31
0.0
  0
LINE
  5
20E
330
2
100
AcDbEntity
  8
GAIKEI
  6
Continuous
 62
     1
100
AcDbLine
 10
30.71582172727216
 20
11.89496053246375
 30
0.0
 11
30.71582172727216
 21
12.11998877091872
 31
0.0
  0
LINE
  5
20F
330
2
100
AcDbEntity
  8
GAIKEI
  6
Continuous
 62
     1
100
AcDbLine
 10
30.71582172727216
 20
11.4449040550337
 30
0.0
 11
30.71582172727216
 21
11.66993229374873
 31
0.0
  0
LINE
  5
210
330
2
100
AcDbEntity
  8
GAIKEI
  6
Continuous
 62
     1
100
AcDbLine
 10
30.71582172727216
 20
10.99484757786376
 30
0.0
 11
30.71582172727216
 21
11.21987581657873
 31
0.0
  0
LINE
  5
211
330
2
100
AcDbEntity
  8
GAIKEI
  6
Continuous
 62
     1
100
AcDbLine
 10
30.71582172727216
 20
10.54479110069371
 30
0.0
 11
30.71582172727216
 21
10.76981933914874
 31
0.0
  0
LINE
  5
212
330
2
100
AcDbEntity
  8
GAIKEI
  6
Continuous
 62
     1
100
AcDbLine
 10
30.71582172727216
 20
10.09473462326372
 30
0.0
 11
30.71582172727216
 21
10.31976286197869
 31
0.0
  0
LINE
  5
213
330
2
100
AcDbEntity
  8
GAIKEI
  6
Continuous
 62
     1
100
AcDbLine
 10
30.71582172727216
 20
9.644678146093724
 30
0.0
 11
30.71582172727216
 21
9.86970638480875
 31
0.0
  0
LINE
  5
214
330
2
100
AcDbEntity
  8
GAIKEI
  6
Continuous
 62
     1
100
AcDbLine
 10
30.71582172727216
 20
9.19462166892373
 30
0.0
 11
30.71582172727216
 21
9.419649907378698
 31
0.0
  0
LINE
  5
215
330
2
100
AcDbEntity
  8
GAIKEI
  6
Continuous
 62
     1
100
AcDbLine
 10
30.71582172727216
 20
8.744565191493734
 30
0.0
 11
30.71582172727216
 21
8.96959343020876
 31
0.0
  0
LINE
  5
216
330
2
100
AcDbEntity
  8
GAIKEI
  6
Continuous
 62
     1
100
AcDbLine
 10
30.71582172727216
 20
8.29450871432374
 30
0.0
 11
30.71582172727216
 21
8.519536953038709
 31
0.0
  0
LINE
  5
217
330
2
100
AcDbEntity
  8
GAIKEI
  6
Continuous
 62
     1
100
AcDbLine
 10
30.71582172727216
 20
7.844452237153745
 30
0.0
 11
30.71582172727216
 21
8.069480475868772
 31
0.0
  0
LINE
  5
218
330
2
100
AcDbEntity
  8
GAIKEI
  6
Continuous
 62
     1
100
AcDbLine
 10
30.48058771289197
 20
2.763999578033008
 30
0.0
 11
30.48058771289197
 21
33.28492967689931
 31
0.0
  0
LINE
  5
219
330
2
100
AcDbEntity
  8
GAIKEI
  6
Continuous
 62
     1
100
AcDbLine
 10
30.26604664782457
 20
33.55017802944622
 30
0.0
 11
30.26604664782457
 21
33.56517991199121
 31
0.0
  0
LINE
  5
21A
330
2
100
AcDbEntity
  8
GAIKEI
  6
Continuous
 62
     1
100
AcDbLine
 10
30.21604037274455
 20
29.00960823674621
 30
0.0
 11
30.21604037274455
 21
29.20963333779628
 31
0.0
  0
LINE
  5
21B
330
2
100
AcDbEntity
  8
GAIKEI
  6
Continuous
 62
     1
100
AcDbLine
 10
30.21604037274455
 20
20.80857909573627
 30
0.0
 11
30.21604037274455
 21
21.00860419678622
 31
0.0
  0
LINE
  5
21C
330
2
100
AcDbEntity
  8
GAIKEI
  6
Continuous
 62
     1
100
AcDbLine
 10
30.21604037274455
 20
14.00772566155621
 30
0.0
 11
30.21604037274455
 21
14.20775076260622
 31
0.0
  0
LINE
  5
21D
330
2
100
AcDbEntity
  8
GAIKEI
  6
Continuous
 62
     1
100
AcDbLine
 10
30.21604037274455
 20
5.808841520796249
 30
0.0
 11
30.21604037274455
 21
6.008866621586207
 31
0.0
  0
LINE
  5
21E
330
2
100
AcDbEntity
  8
GAIKEI
  6
Continuous
 62
     1
100
AcDbLine
 10
30.20753930594208
 20
6.317912238869098
 30
0.0
 11
30.20753930594208
 21
6.499941718362038
 31
0.0
  0
LINE
  5
21F
330
2
100
AcDbEntity
  8
GAIKEI
  6
Continuous
 62
     1
100
AcDbLine
 10
30.14103095975952
 20
33.55017802944622
 30
0.0
 11
30.14103095975952
 21
33.56517991199121
 31
0.0
  0
LINE
  5
220
330
2
100
AcDbEntity
  8
GAIKEI
  6
Continuous
 62
     1
100
AcDbLine
 10
30.06602154702455
 20
6.008866621586207
 30
0.0
 11
30.06602154702455
 21
5.808841520796249
 31
0.0
  0
LINE
  5
221
330
2
100
AcDbEntity
  8
GAIKEI
  6
Continuous
 62
     1
100
AcDbLine
 10
30.06602154702455
 20
14.20775076260622
 30
0.0
 11
30.06602154702455
 21
14.00772566155621
 31
0.0
  0
LINE
  5
222
330
2
100
AcDbEntity
  8
GAIKEI
  6
Continuous
 62
     1
100
AcDbLine
 10
30.06602154702455
 20
21.00860419678622
 30
0.0
 11
30.06602154702455
 21
20.80857909573627
 31
0.0
  0
LINE
  5
223
330
2
100
AcDbEntity
  8
GAIKEI
  6
Continuous
 62
     1
100
AcDbLine
 10
30.06602154702455
 20
29.20963333779628
 30
0.0
 11
30.06602154702455
 21
29.00960823674621
 31
0.0
  0
LINE
  5
224
330
2
100
AcDbEntity
  8
GAIKEI
  6
Continuous
 62
     1
100
AcDbLine
 10
30.01601527169453
 20
33.55017802944622
 30
0.0
 11
30.01601527169453
 21
33.56517991199121
 31
0.0
  0
LINE
  5
225
330
2
100
AcDbEntity
  8
GAIKEI
  6
Continuous
 62
     1
100
AcDbLine
 10
29.6459688349446
 20
33.55017802944622
 30
0.0
 11
29.6459688349446
 21
33.56517991199121
 31
0.0
  0
LINE
  5
226
330
2
100
AcDbEntity
  8
GAIKEI
  6
Continuous
 62
     1
100
AcDbLine
 10
29.52095314662955
 20
33.55017802944622
 30
0.0
 11
29.52095314662955
 21
33.56517991199121
 31
0.0
  0
LINE
  5
227
330
2
100
AcDbEntity
  8
GAIKEI
  6
Continuous
 62
     1
100
AcDbLine
 10
29.39593745857457
 20
33.55017802944622
 30
0.0
 11
29.39593745857457
 21
33.56517991199121
 31
0.0
  0
LINE
  5
228
330
2
100
AcDbEntity
  8
GAIKEI
  6
Continuous
 62
     1
100
AcDbLine
 10
29.10090043454955
 20
2.457751574200585
 30
0.0
 11
29.10090043454955
 21
33.56084878913191
 31
0.0
  0
LINE
  5
229
330
2
100
AcDbEntity
  8
GAIKEI
  6
Continuous
 62
     1
100
AcDbLine
 10
27.99689123316665
 20
33.59090392353812
 30
0.0
 11
27.99689123316665
 21
2.427696440054319
 31
0.0
  0
LINE
  5
22A
330
2
100
AcDbEntity
  8
GAIKEI
  6
Continuous
 62
     7
100
AcDbLine
 10
27.8763816910946
 20
2.550289602648376
 30
0.0
 11
27.8763816910946
 21
33.46831076069407
 31
0.0
  0
LINE
  5
22B
330
2
100
AcDbEntity
  8
GAIKEI
  6
Continuous
 62
     1
100
AcDbLine
 10
27.81137353322959
 20
2.68322570745056
 30
0.0
 11
27.81137353322959
 21
3.104894404459287
 31
0.0
  0
LINE
  5
22C
330
2
100
AcDbEntity
  8
GAIKEI
  6
Continuous
 62
     1
100
AcDbLine
 10
27.78637039556457
 20
2.703189037333856
 30
0.0
 11
27.78637039556457
 21
3.085051864453816
 31
0.0
  0
LINE
  5
22D
330
2
100
AcDbEntity
  8
GAIKEI
  6
Continuous
 62
     7
100
AcDbLine
 10
5.431761040271283
 20
33.41730947653116
 30
0.0
 11
5.431761040271283
 21
2.715601472851062
 31
0.0
  0
LINE
  5
22E
330
2
100
AcDbEntity
  8
GAIKEI
  6
Continuous
 62
     1
100
AcDbLine
 10
5.290771158076609
 20
2.715601472851062
 30
0.0
 11
5.290771158076609
 21
33.41730947653116
 31
0.0
  0
LINE
  5
22F
330
2
100
AcDbEntity
  8
GAIKEI
  6
Continuous
 62
     1
100
AcDbLine
 10
5.182614580638755
 20
33.5254660537189
 30
0.0
 11
5.182614580638755
 21
33.66645593591357
 31
0.0
  0
LINE
  5
230
330
2
100
AcDbEntity
  8
GAIKEI
  6
Continuous
 62
     1
100
AcDbLine
 10
5.182614580638755
 20
2.46645501347865
 30
0.0
 11
5.182614580638755
 21
2.607444895673324
 31
0.0
  0
LINE
  5
231
330
2
100
AcDbEntity
  8
GAIKEI
  6
Continuous
 62
     1
100
AcDbLine
 10
4.592488503579716
 20
32.70832240007428
 30
0.0
 11
4.592488503579716
 21
3.42362597070462
 31
0.0
  0
LINE
  5
232
330
2
100
AcDbEntity
  8
GAIKEI
  6
Continuous
 62
     1
100
AcDbLine
 10
4.518870493800818
 20
3.429283303309091
 30
0.0
 11
4.518870493800818
 21
32.70362764607313
 31
0.0
  0
LINE
  5
233
330
2
100
AcDbEntity
  8
GAIKEI
  6
Continuous
 62
     1
100
AcDbLine
 10
4.452022899486337
 20
32.68771792066366
 30
0.0
 11
4.452022899486337
 21
3.445193028728567
 31
0.0
  0
LINE
  5
234
330
2
100
AcDbEntity
  8
GAIKEI
  6
Continuous
 62
     1
100
AcDbLine
 10
2.215992301512528
 20
2.931878613367359
 30
0.0
 11
2.215992301512528
 21
3.049393360154851
 31
0.0
  0
LINE
  5
235
330
2
100
AcDbEntity
  8
GAIKEI
  6
Continuous
 62
     1
100
AcDbLine
 10
2.211035038339332
 20
2.94683103895602
 30
0.0
 11
2.211035038339332
 21
3.034440934566191
 31
0.0
  0
LINE
  5
236
330
2
100
AcDbEntity
  8
GAIKEI
  6
Continuous
 62
     1
100
AcDbLine
 10
2.201039875923868
 20
2.936835876540612
 30
0.0
 11
2.201039875923868
 21
3.044436097241657
 31
0.0
  0
LINE
  5
237
330
2
100
AcDbEntity
  8
GAIKEI
  6
Continuous
 62
     1
100
AcDbLine
 10
2.113429980313753
 20
2.936835876540612
 30
0.0
 11
2.113429980313753
 21
3.044436097241657
 31
0.0
  0
LINE
  5
238
330
2
100
AcDbEntity
  8
GAIKEI
  6
Continuous
 62
     1
100
AcDbLine
 10
2.103434817898289
 20
3.034440934566191
 30
0.0
 11
2.103434817898289
 21
2.94683103895602
 31
0.0
  0
LINE
  5
239
330
2
100
AcDbEntity
  8
GAIKEI
  6
Continuous
 62
     1
100
AcDbLine
 10
2.098477554725036
 20
3.049393360154851
 30
0.0
 11
2.098477554725036
 21
2.931878613367359
 31
0.0
  0
LINE
  5
23A
330
2
100
AcDbEntity
  8
GAIKEI
  6
Continuous
 62
     1
100
AcDbLine
 10
1.83219413912883
 20
2.813113709658637
 30
0.0
 11
1.83219413912883
 21
3.168158263863574
 31
0.0
  0
LINE
  5
23B
330
2
100
AcDbEntity
  8
GAIKEI
  6
Continuous
 62
     1
100
AcDbLine
 10
1.477149584673782
 20
3.168158263863574
 30
0.0
 11
1.477149584673782
 21
2.813113709658637
 31
0.0
  0
LINE
  5
23C
330
2
100
AcDbEntity
  8
GAIKEI
  6
Continuous
 62
     1
100
AcDbLine
 10
1.177111933223841
 20
2.813113709658637
 30
0.0
 11
1.177111933223841
 21
3.168158263863574
 31
0.0
  0
LINE
  5
23D
330
2
100
AcDbEntity
  8
GAIKEI
  6
Continuous
 62
     1
100
AcDbLine
 10
0.8220673790187902
 20
3.168158263863574
 30
0.0
 11
0.8220673790187902
 21
2.813113709658637
 31
0.0
  0
LINE
  5
23E
330
2
100
AcDbEntity
  8
GAIKEI
  6
Continuous
 62
     1
100
AcDbLine
 10
-47.53850135247364
 20
3.445193028728567
 30
0.0
 11
-47.53850135247364
 21
32.68771792066366
 31
0.0
  0
LINE
  5
23F
330
2
100
AcDbEntity
  8
GAIKEI
  6
Continuous
 62
     1
100
AcDbLine
 10
-47.60534894704824
 20
32.70362764607313
 30
0.0
 11
-47.60534894704824
 21
3.429283303309091
 31
0.0
  0
LINE
  5
240
330
2
100
AcDbEntity
  8
GAIKEI
  6
Continuous
 62
     1
100
AcDbLine
 10
-47.67896695682708
 20
3.424588549307941
 30
0.0
 11
-47.67896695682708
 21
32.7092849786776
 31
0.0
  0
LINE
  5
241
330
2
100
AcDbEntity
  8
GAIKEI
  6
Continuous
 62
     1
100
AcDbLine
 10
-48.26909303388617
 20
33.5254660537189
 30
0.0
 11
-48.26909303388617
 21
33.66645593591357
 31
0.0
  0
LINE
  5
242
330
2
100
AcDbEntity
  8
GAIKEI
  6
Continuous
 62
     1
100
AcDbLine
 10
-48.26909303388617
 20
2.607444895673324
 30
0.0
 11
-48.26909303388617
 21
2.46645501347865
 31
0.0
  0
LINE
  5
243
330
2
100
AcDbEntity
  8
GAIKEI
  6
Continuous
 62
     1
100
AcDbLine
 10
-48.37724961107404
 20
33.41730947653116
 30
0.0
 11
-48.37724961107404
 21
2.715601472851062
 31
0.0
  0
LINE
  5
244
330
2
100
AcDbEntity
  8
GAIKEI
  6
Continuous
 62
     7
100
AcDbLine
 10
-48.51823949351865
 20
2.715601472851062
 30
0.0
 11
-48.51823949351865
 21
33.41730947653116
 31
0.0
  0
LINE
  5
245
330
2
100
AcDbEntity
  8
GAIKEI
  6
Continuous
 62
     1
100
AcDbLine
 10
32.13196488040501
 20
23.25218701236213
 30
0.0
 11
32.13430638875911
 21
22.92134422507877
 31
0.0
  0
LINE
  5
246
330
2
100
AcDbEntity
  8
GAIKEI
  6
Continuous
 62
     1
100
AcDbLine
 10
33.07639931687453
 20
4.683700327481233
 30
0.0
 11
33.07226400686761
 21
4.833605316185867
 31
0.0
  0
LINE
  5
247
330
2
100
AcDbEntity
  8
GAIKEI
  6
Continuous
 62
     1
100
AcDbLine
 10
33.01639178668455
 20
6.858973300856234
 30
0.0
 11
33.07226086652349
 21
4.833719153201229
 31
0.0
  0
TEXT
  5
248
330
2
100
AcDbEntity
  8
MOJI1
100
AcDbText
 10
-67.29434446993116
 20
-53.257748367207
 30
0.0
 40
3.0
  1
質　量
100
AcDbText
  0
TEXT
  5
249
330
2
100
AcDbEntity
  8
MOJI1
100
AcDbText
 10
-28.29434446993116
 20
-53.257748367207
 30
0.0
 40
3.0
  1
約２２ ｋｇ
100
AcDbText
  0
LINE
  5
24A
330
2
100
AcDbEntity
  8
WAKU
 62
     1
100
AcDbLine
 10
-69.79434446993116
 20
-49.257748367207
 30
0.0
 11
55.20565553006861
 21
-49.257748367207
 31
0.0
  0
TEXT
  5
24C
330
2
100
AcDbEntity
  8
MOJI1
100
AcDbText
 10
-67.29434446993116
 20
-43.25774836720699
 30
0.0
 40
3.0
  1
入出力端子
100
AcDbText
  0
LINE
  5
24D
330
2
100
AcDbEntity
  8
WAKU
 62
     1
100
AcDbLine
 10
-69.79434446993116
 20
-44.257748367207
 30
0.0
 11
55.20565553006861
 21
-44.257748367207
 31
0.0
  0
TEXT
  5
24E
330
2
100
AcDbEntity
  8
MOJI1
100
AcDbText
 10
-28.29434446993116
 20
-48.257748367207
 30
0.0
 40
3.0
  1
ＤＶＩ入力、ＰＣ入力、ＲＳ２３２Ｃ
 41
0.7900000000000001
100
AcDbText
  0
LINE
  5
24F
330
2
100
AcDbEntity
  8
WAKU
 62
     4
100
AcDbLine
 10
55.20565553006861
 20
-9.257748367207
 30
0.0
 11
55.20565553006861
 21
-54.257748367207
 31
0.0
  0
TEXT
  5
250
330
2
100
AcDbEntity
  8
MOJI1
100
AcDbText
 10
-67.29434446993116
 20
-28.257748367207
 30
0.0
 40
3.0
  1
画素数
100
AcDbText
  0
TEXT
  5
251
330
2
100
AcDbEntity
  8
MOJI1
100
AcDbText
 10
-67.29434446993116
 20
-13.257748367207
 30
0.0
 40
3.0
  1
電  源
100
AcDbText
  0
TEXT
  5
252
330
2
100
AcDbEntity
  8
MOJI1
100
AcDbText
 10
-67.29434446993116
 20
-18.257748367207
 30
0.0
 40
3.0
  1
消費電力
100
AcDbText
  0
TEXT
  5
253
330
2
100
AcDbEntity
  8
MOJI1
100
AcDbText
 10
-67.29434446993116
 20
-38.257748367207
 30
0.0
 40
3.0
  1
音声入力
100
AcDbText
  0
TEXT
  5
254
330
2
100
AcDbEntity
  8
MOJI1
100
AcDbText
 10
-67.29434446993116
 20
-33.257748367207
 30
0.0
 40
3.0
  1
コントラスト
100
AcDbText
  0
TEXT
  5
255
330
2
100
AcDbEntity
  8
MOJI1
100
AcDbText
 10
-67.29434446993116
 20
-23.257748367207
 30
0.0
 40
3.0
  1
画面サイズ
100
AcDbText
  0
LINE
  5
256
330
2
100
AcDbEntity
  8
WAKU
 62
     4
100
AcDbLine
 10
-69.79434446993138
 20
-9.257748367207
 30
0.0
 11
-69.79434446993116
 21
-54.257748367207
 31
0.0
  0
LINE
  5
257
330
2
100
AcDbEntity
  8
WAKU
 62
     4
100
AcDbLine
 10
-29.79434446993139
 20
-9.257748367207
 30
0.0
 11
-29.79434446993139
 21
-54.257748367207
 31
0.0
  0
TEXT
  5
258
330
2
100
AcDbEntity
  8
MOJI1
100
AcDbText
 10
-28.29434446993116
 20
-43.25774836720699
 30
0.0
 40
3.0
  1
ビデオ入力、ＲＧＢ／コンポーネントビデオ入力、ＨＤＭＩ入力
 41
0.7800000000000001
100
AcDbText
  0
TEXT
  5
259
330
2
100
AcDbEntity
  8
MOJI1
100
AcDbText
 10
-28.29434446993116
 20
-13.257748367207
 30
0.0
 40
3.0
  1
ＡＣ１００Ｖ　５０Ｈｚ／６０Ｈｚ
100
AcDbText
  0
TEXT
  5
25A
330
2
100
AcDbEntity
  8
MOJI1
100
AcDbText
 10
-28.29434446993116
 20
-38.257748367207
 30
0.0
 40
3.0
  1
ＲＣＡ×２(左右)、Ｍ３ジャック×１
100
AcDbText
  0
TEXT
  5
25B
330
2
100
AcDbEntity
  8
MOJI1
100
AcDbText
 10
-28.29434446993116
 20
-28.257748367207
 30
0.0
 40
3.0
  1
１９２０×１０８０画素
100
AcDbText
  0
LINE
  5
25C
330
2
100
AcDbEntity
  8
WAKU
 62
     4
100
AcDbLine
 10
55.20565553006861
 20
-54.257748367207
 30
0.0
 11
-69.79434446993116
 21
-54.257748367207
 31
0.0
  0
LINE
  5
25D
330
2
100
AcDbEntity
  8
WAKU
 62
     1
100
AcDbLine
 10
-69.79434446993116
 20
-39.257748367207
 30
0.0
 11
55.20565553006861
 21
-39.257748367207
 31
0.0
  0
LINE
  5
25E
330
2
100
AcDbEntity
  8
WAKU
 62
     1
100
AcDbLine
 10
-69.79434446993116
 20
-34.257748367207
 30
0.0
 11
55.20565553006861
 21
-34.257748367207
 31
0.0
  0
LINE
  5
25F
330
2
100
AcDbEntity
  8
WAKU
 62
     1
100
AcDbLine
 10
-69.79434446993116
 20
-24.257748367207
 30
0.0
 11
55.20565553006861
 21
-24.257748367207
 31
0.0
  0
LINE
  5
260
330
2
100
AcDbEntity
  8
WAKU
 62
     1
100
AcDbLine
 10
-69.79434446993116
 20
-14.257748367207
 30
0.0
 11
55.20565553006861
 21
-14.257748367207
 31
0.0
  0
LINE
  5
261
330
2
100
AcDbEntity
  8
WAKU
 62
     4
100
AcDbLine
 10
-69.79434446993116
 20
-9.257748367207
 30
0.0
 11
55.20565553006861
 21
-9.257748367207
 31
0.0
  0
LINE
  5
262
330
2
100
AcDbEntity
  8
WAKU
 62
     1
100
AcDbLine
 10
-69.79434446993116
 20
-29.257748367207
 30
0.0
 11
55.20565553006861
 21
-29.257748367207
 31
0.0
  0
LINE
  5
263
330
2
100
AcDbEntity
  8
WAKU
 62
     1
100
AcDbLine
 10
-69.79434446993116
 20
-19.257748367207
 30
0.0
 11
55.20565553006861
 21
-19.257748367207
 31
0.0
  0
TEXT
  5
264
330
2
100
AcDbEntity
  8
MOJI1
100
AcDbText
 10
-28.29434446993116
 20
-33.257748367207
 30
0.0
 40
3.0
  1
１２００：１
100
AcDbText
  0
TEXT
  5
265
330
2
100
AcDbEntity
  8
MOJI1
100
AcDbText
 10
-28.29434446993116
 20
-23.257748367207
 30
0.0
 40
3.0
  1
４７Ｖ型　１６：９
100
AcDbText
  0
TEXT
  5
266
330
2
100
AcDbEntity
  8
MOJI1
100
AcDbText
 10
-28.29434446993116
 20
-18.257748367207
 30
0.0
 40
3.0
  1
３００Ｗ
100
AcDbText
  0
DIMENSION
  5
267
330
2
100
AcDbEntity
  8
SUNPO
100
AcDbDimension
  2
*D6
 10
5.431802322968082
 20
41.65847964170305
 30
0.0
 11
-21.54321858527528
 21
43.40847964170305
 31
0.0
 70
    33
  1
1079
 71
     5
 42
53.95004181648673
  3
STANDARD
100
AcDbAlignedDimension
 13
-48.51823949351865
 23
33.65847964170305
 33
0.0
 14
5.431802322968081
 24
33.65847964170308
 34
0.0
1001
ACAD
1000
DSTYLE
1002
{
1070
   287
1070
     3
1070
   287
1070
     3
1070
   287
1070
     3
1070
   287
1070
     3
1070
   287
1070
     3
1070
   287
1070
     3
1070
   287
1070
     3
1070
   287
1070
     3
1070
   287
1070
     3
1070
   287
1070
     3
1070
   287
1070
     3
1070
   287
1070
     3
1070
   287
1070
     3
1070
   287
1070
     3
1070
   287
1070
     3
1070
   287
1070
     3
1070
   287
1070
     3
1070
   287
1070
     3
1070
   287
1070
     3
1070
   287
1070
     3
1070
   287
1070
     3
1070
   287
1070
     3
1070
   287
1070
     3
1070
   287
1070
     3
1070
   287
1070
     3
1070
   287
1070
     3
1070
   287
1070
     3
1070
   287
1070
     3
1070
   287
1070
     3
1070
   287
1070
     3
1070
   287
1070
     3
1070
   287
1070
     3
1070
   287
1070
     3
1070
   287
1070
     3
1070
   287
1070
     3
1070
    40
1040
1.0
1070
   140
1040
2.5
1070
   147
1040
0.5
1070
   172
1070
     1
1070
   279
1070
     0
1002
}
  0
DIMENSION
  5
276
330
2
100
AcDbEntity
  8
SUNPO
100
AcDbDimension
  2
*D5
 10
13.42708736930662
 20
33.65876608605442
 30
0.0
 11
11.67708736930661
 21
18.06261054976651
 31
0.0
 70
    33
  1
624
 71
     5
 42
31.19231107257579
  3
STANDARD
100
AcDbAlignedDimension
 13
5.427087369306633
 23
2.466455013478622
 33
0.0
 14
5.427087369306633
 24
33.65876608605442
 34
0.0
1001
ACAD
1000
DSTYLE
1002
{
1070
   287
1070
     3
1070
   287
1070
     3
1070
   287
1070
     3
1070
   287
1070
     3
1070
   287
1070
     3
1070
   287
1070
     3
1070
   287
1070
     3
1070
   287
1070
     3
1070
   287
1070
     3
1070
   287
1070
     3
1070
   287
1070
     3
1070
   287
1070
     3
1070
   287
1070
     3
1070
   287
1070
     3
1070
   287
1070
     3
1070
   287
1070
     3
1070
   287
1070
     3
1070
   287
1070
     3
1070
   287
1070
     3
1070
   287
1070
     3
1070
   287
1070
     3
1070
   287
1070
     3
1070
   287
1070
     3
1070
   287
1070
     3
1070
   287
1070
     3
1070
   287
1070
     3
1070
   287
1070
     3
1070
   287
1070
     3
1070
   287
1070
     3
1070
   287
1070
     3
1070
   287
1070
     3
1070
   287
1070
     3
1070
   287
1070
     3
1070
   287
1070
     3
1070
   287
1070
     3
1070
    40
1040
1.0
1070
   140
1040
2.5
1070
   147
1040
0.5
1070
   172
1070
     1
1070
   279
1070
     0
1002
}
  0
DIMENSION
  5
283
330
2
100
AcDbEntity
  8
SUNPO
100
AcDbDimension
  2
*D4
 10
32.9263829796839
 20
41.65847964170308
 30
0.0
 11
38.5513829796839
 21
43.40847964170308
 31
0.0
 70
    33
  1
101
 71
     5
 42
5.050001288589299
  3
STANDARD
100
AcDbAlignedDimension
 13
27.8763816910946
 23
33.65847964170308
 33
0.0
 14
32.9263829796839
 24
33.65847964170308
 34
0.0
1001
ACAD
1000
DSTYLE
1002
{
1070
   287
1070
     3
1070
   287
1070
     3
1070
   287
1070
     3
1070
   287
1070
     3
1070
   287
1070
     3
1070
   287
1070
     3
1070
   287
1070
     3
1070
   287
1070
     3
1070
   287
1070
     3
1070
   287
1070
     3
1070
   287
1070
     3
1070
   287
1070
     3
1070
   287
1070
     3
1070
   287
1070
     3
1070
   287
1070
     3
1070
   287
1070
     3
1070
   287
1070
     3
1070
   287
1070
     3
1070
   287
1070
     3
1070
   287
1070
     3
1070
   287
1070
     3
1070
   287
1070
     3
1070
   287
1070
     3
1070
   287
1070
     3
1070
   287
1070
     3
1070
   287
1070
     3
1070
   287
1070
     3
1070
   287
1070
     3
1070
   287
1070
     3
1070
   287
1070
     3
1070
   287
1070
     3
1070
   287
1070
     3
1070
   287
1070
     3
1070
   287
1070
     3
1070
   287
1070
     3
1070
    40
1040
1.0
1070
   140
1040
2.5
1070
   147
1040
0.5
1070
   172
1070
     1
1070
   279
1070
     0
1002
}
  0
TEXT
  5
291
330
2
100
AcDbEntity
  8
TOUROKU
100
AcDbText
 10
35.42152440869299
 20
-0.0192500157181428
 30
0.0
 40
1.5
  1
Ｓ＝１／２０
 41
0.7
 72
     2
 11
42.49152440869297
 21
-0.0192500157181428
 31
0.0
100
AcDbText
  0
LINE
  5
292
330
2
100
AcDbEntity
  8
GAIKEI
  6
Continuous
 62
     1
100
AcDbLine
 10
31.07883289716099
 20
3.898961119540444
 30
0.0
 11
32.43135426205407
 21
6.981070411591133
 31
0.0
  0
ENDSEC
  0
SECTION
  2
OBJECTS
  0
DICTIONARY
  5
7
330
0
100
AcDbDictionary
281
     1
  3
ACAD_COLOR
350
2C
  3
ACAD_GROUP
350
28
  3
ACAD_LAYOUT
350
B
  3
ACAD_MATERIAL
350
2B
  3
ACAD_MLINESTYLE
350
29
  3
ACAD_PLOTSETTINGS
350
2A
  3
ACAD_PLOTSTYLENAME
350
6
  3
ACDBHEADERROUNDTRIPXREC
350
2D0
  3
AcDbVariableDictionary
350
2CB
  0
DICTIONARY
  5
11
330
10
100
AcDbDictionary
280
     1
281
     1
  3
ACAD_LAYERSTATES
360
12
  0
DICTIONARY
  5
2C
102
{ACAD_REACTORS
330
7
102
}
330
7
100
AcDbDictionary
281
     1
  0
DICTIONARY
  5
28
102
{ACAD_REACTORS
330
7
102
}
330
7
100
AcDbDictionary
281
     1
  0
DICTIONARY
  5
B
102
{ACAD_REACTORS
330
7
102
}
330
7
100
AcDbDictionary
281
     1
  3
Model
350
A
  3
レイアウト1
350
F
  0
DICTIONARY
  5
2B
102
{ACAD_REACTORS
330
7
102
}
330
7
100
AcDbDictionary
281
     1
  0
DICTIONARY
  5
29
102
{ACAD_REACTORS
330
7
102
}
330
7
100
AcDbDictionary
281
     1
  3
Standard
350
2E
  0
DICTIONARY
  5
2A
102
{ACAD_REACTORS
330
7
102
}
330
7
100
AcDbDictionary
281
     1
  0
ACDBDICTIONARYWDFLT
  5
6
102
{ACAD_REACTORS
330
7
102
}
330
7
100
AcDbDictionary
281
     1
  3
Normal
350
5
100
AcDbDictionaryWithDefault
340
5
  0
DICTIONARY
  5
2D0
102
{ACAD_REACTORS
330
7
102
}
330
7
100
AcDbDictionary
281
     1
  3
COLORDICT
350
2D2
  3
MATERIALDICT
350
2D1
  0
DICTIONARY
  5
2CB
102
{ACAD_REACTORS
330
7
102
}
330
7
100
AcDbDictionary
281
     1
  3
DIMASSOC
350
2CD
  3
HIDETEXT
350
2CC
  3
PROJECTNAME
350
2CE
  0
DICTIONARY
  5
12
102
{ACAD_REACTORS
330
11
102
}
330
11
100
AcDbDictionary
281
     1
  0
LAYOUT
  5
A
102
{ACAD_XDICTIONARY
360
2D3
102
}
102
{ACAD_REACTORS
330
B
102
}
330
B
100
AcDbPlotSettings
  1

  2
10F06M_RICOH_SP-8100
  4
A4
  6

 40
5.873749732971191
 41
5.873747825622558
 42
5.873748779296875
 43
5.873748779296875
 44
209.9733276367187
 45
296.9259948730469
 46
5.419999999999999
 47
0.0
 48
0.0
 49
0.0
140
0.0
141
0.0
142
1.0
143
1.382430990074067
 70
 11956
 72
     1
 73
     0
 74
     1
  7
全て黄色設定.ctb
 75
     0
147
0.7233634135664325
148
0.0128164608993302
149
0.0120295854767392
100
AcDbLayout
  1
Model
 70
     1
 71
     0
 10
0.0
 20
0.0
 11
12.0
 21
9.0
 12
0.0
 22
0.0
 32
0.0
 14
0.0
 24
0.0
 34
0.0
 15
0.0
 25
0.0
 35
0.0
146
0.0
 13
0.0
 23
0.0
 33
0.0
 16
1.0
 26
0.0
 36
0.0
 17
0.0
 27
1.0
 37
0.0
 76
     0
330
2
  0
LAYOUT
  5
F
102
{ACAD_XDICTIONARY
360
2D5
102
}
102
{ACAD_REACTORS
330
B
102
}
330
B
100
AcDbPlotSettings
  1

  2
None
  4

  6

 40
0.0
 41
0.0
 42
0.0
 43
0.0
 44
0.0
 45
0.0
 46
0.0
 47
0.0
 48
0.0
 49
0.0
140
0.0
141
0.0
142
1.0
143
1.0
 70
   688
 72
     0
 73
     0
 74
     5
  7
SSC.ctb
 75
    16
147
1.0
148
0.0
149
0.0
100
AcDbLayout
  1
レイアウト1
 70
     1
 71
     1
 10
0.0
 20
0.0
 11
12.0
 21
9.0
 12
0.0
 22
0.0
 32
0.0
 14
0.0
 24
0.0
 34
0.0
 15
0.0
 25
0.0
 35
0.0
146
0.0
 13
0.0
 23
0.0
 33
0.0
 16
1.0
 26
0.0
 36
0.0
 17
0.0
 27
1.0
 37
0.0
 76
     0
330
C
  0
MLINESTYLE
  5
2E
102
{ACAD_REACTORS
330
29
102
}
330
29
100
AcDbMlineStyle
  2
STANDARD
 70
     0
  3

 62
   256
 51
90.0
 52
90.0
 71
     2
 49
0.5
 62
   256
  6
BYLAYER
 49
-0.5
 62
   256
  6
BYLAYER
  0
ACDBPLACEHOLDER
  5
5
102
{ACAD_REACTORS
330
6
102
}
330
6
  0
XRECORD
  5
2D2
102
{ACAD_REACTORS
330
2D0
102
}
330
2D0
100
AcDbXrecord
280
     1
340
2C
  0
XRECORD
  5
2D1
102
{ACAD_REACTORS
330
2D0
102
}
330
2D0
100
AcDbXrecord
280
     1
340
2B
  0
DICTIONARYVAR
  5
2CD
102
{ACAD_REACTORS
330
2CB
102
}
330
2CB
100
DictionaryVariables
280
     0
  1
1
  0
DICTIONARYVAR
  5
2CC
102
{ACAD_REACTORS
330
2CB
102
}
330
2CB
100
DictionaryVariables
280
     0
  1
1
  0
DICTIONARYVAR
  5
2CE
102
{ACAD_REACTORS
330
2CB
102
}
330
2CB
100
DictionaryVariables
280
     0
  1

  0
DICTIONARY
  5
2D3
330
A
100
AcDbDictionary
280
     1
281
     1
  3
ACAD_XREC_ROUNDTRIP
360
2D4
  0
DICTIONARY
  5
2D5
330
F
100
AcDbDictionary
280
     1
281
     1
  3
ACAD_XREC_ROUNDTRIP
360
2D6
  0
XRECORD
  5
2D4
102
{ACAD_REACTORS
330
2D3
102
}
330
2D3
100
AcDbXrecord
280
     1
102
SHADEPLOT
 70
     0
102
SHADEPLOTRESLEVEL
 70
     2
102
SHADEPLOTCUSTOMDPI
 70
   300
  0
XRECORD
  5
2D6
102
{ACAD_REACTORS
330
2D5
102
}
330
2D5
100
AcDbXrecord
280
     1
102
SHADEPLOT
 70
     0
102
SHADEPLOTRESLEVEL
 70
     2
102
SHADEPLOTCUSTOMDPI
 70
   300
  0
ENDSEC
  0
EOF
