  0
SECTION
  2
HEADER
  9
$ACADVER
  1
AC1015
  9
$ACADMAINTVER
 70
    20
  9
$DWGCODEPAGE
  3
ANSI_932
  9
$INSBASE
 10
129.499999944041
 20
120.5008351249346
 30
0.0
  9
$EXTMIN
 10
-61.88873200431544
 20
-48.11476071704499
 30
-0.0015258207003583
  9
$EXTMAX
 10
63.14483698823585
 20
64.90983623674821
 30
0.0000000349246037
  9
$LIMMIN
 10
0.0
 20
0.0
  9
$LIMMAX
 10
420.0
 20
297.0
  9
$ORTHOMODE
 70
     0
  9
$REGENMODE
 70
     0
  9
$FILLMODE
 70
     1
  9
$QTEXTMODE
 70
     0
  9
$MIRRTEXT
 70
     0
  9
$LTSCALE
 40
1.0
  9
$ATTMODE
 70
     1
  9
$TEXTSIZE
 40
2.5
  9
$TRACEWID
 40
1.0
  9
$TEXTSTYLE
  7
Standard
  9
$CLAYER
  8
SUNPO
  9
$CELTYPE
  6
ByLayer
  9
$CECOLOR
 62
   256
  9
$CELTSCALE
 40
1.0
  9
$DISPSILH
 70
     0
  9
$DIMSCALE
 40
1.0
  9
$DIMASZ
 40
2.0
  9
$DIMEXO
 40
2.0
  9
$DIMDLI
 40
8.0
  9
$DIMRND
 40
0.0
  9
$DIMDLE
 40
0.0
  9
$DIMEXE
 40
2.0
  9
$DIMTP
 40
0.0
  9
$DIMTM
 40
0.0
  9
$DIMTXT
 40
2.5
  9
$DIMCEN
 40
0.0
  9
$DIMTSZ
 40
0.0
  9
$DIMTOL
 70
     0
  9
$DIMLIM
 70
     0
  9
$DIMTIH
 70
     0
  9
$DIMTOH
 70
     0
  9
$DIMSE1
 70
     0
  9
$DIMSE2
 70
     0
  9
$DIMTAD
 70
     3
  9
$DIMZIN
 70
     0
  9
$DIMBLK
  1

  9
$DIMASO
 70
     1
  9
$DIMSHO
 70
     1
  9
$DIMPOST
  1

  9
$DIMAPOST
  1

  9
$DIMALT
 70
     0
  9
$DIMALTD
 70
     2
  9
$DIMALTF
 40
25.4
  9
$DIMLFAC
 40
1.0
  9
$DIMTOFL
 70
     1
  9
$DIMTVP
 40
0.0
  9
$DIMTIX
 70
     0
  9
$DIMSOXD
 70
     0
  9
$DIMSAH
 70
     1
  9
$DIMBLK1
  1
OPEN30
  9
$DIMBLK2
  1
OPEN30
  9
$DIMSTYLE
  2
STANDARD
  9
$DIMCLRD
 70
     0
  9
$DIMCLRE
 70
     0
  9
$DIMCLRT
 70
     0
  9
$DIMTFAC
 40
1.0
  9
$DIMGAP
 40
0.5
  9
$DIMJUST
 70
     0
  9
$DIMSD1
 70
     0
  9
$DIMSD2
 70
     0
  9
$DIMTOLJ
 70
     1
  9
$DIMTZIN
 70
     0
  9
$DIMALTZ
 70
     0
  9
$DIMALTTZ
 70
     0
  9
$DIMUPT
 70
     0
  9
$DIMDEC
 70
     4
  9
$DIMTDEC
 70
     4
  9
$DIMALTU
 70
     2
  9
$DIMALTTD
 70
     2
  9
$DIMTXSTY
  7
Standard
  9
$DIMAUNIT
 70
     0
  9
$DIMADEC
 70
     0
  9
$DIMALTRND
 40
0.0
  9
$DIMAZIN
 70
     0
  9
$DIMDSEP
 70
    46
  9
$DIMATFIT
 70
     3
  9
$DIMFRAC
 70
     0
  9
$DIMLDRBLK
  1
OPEN30
  9
$DIMLUNIT
 70
     2
  9
$DIMLWD
 70
    -2
  9
$DIMLWE
 70
    -2
  9
$DIMTMOVE
 70
     0
  9
$LUNITS
 70
     2
  9
$LUPREC
 70
     4
  9
$SKETCHINC
 40
1.0
  9
$FILLETRAD
 40
0.0
  9
$AUNITS
 70
     0
  9
$AUPREC
 70
     0
  9
$MENU
  1
.
  9
$ELEVATION
 40
0.0
  9
$PELEVATION
 40
0.0
  9
$THICKNESS
 40
0.0
  9
$LIMCHECK
 70
     0
  9
$CHAMFERA
 40
0.0
  9
$CHAMFERB
 40
0.0
  9
$CHAMFERC
 40
0.0
  9
$CHAMFERD
 40
0.0
  9
$SKPOLY
 70
     0
  9
$TDCREATE
 40
2454349.434269746
  9
$TDUCREATE
 40
2454349.059269746
  9
$TDUPDATE
 40
2454803.580765162
  9
$TDUUPDATE
 40
2454803.205765162
  9
$TDINDWG
 40
1.2791868403
  9
$TDUSRTIMER
 40
1.2791868403
  9
$USRTIMER
 70
     1
  9
$ANGBASE
 50
0.0
  9
$ANGDIR
 70
     0
  9
$PDMODE
 70
     0
  9
$PDSIZE
 40
0.0
  9
$PLINEWID
 40
0.0
  9
$SPLFRAME
 70
     0
  9
$SPLINETYPE
 70
     6
  9
$SPLINESEGS
 70
     8
  9
$HANDSEED
  5
3AA
  9
$SURFTAB1
 70
     6
  9
$SURFTAB2
 70
     6
  9
$SURFTYPE
 70
     6
  9
$SURFU
 70
     6
  9
$SURFV
 70
     6
  9
$UCSBASE
  2

  9
$UCSNAME
  2

  9
$UCSORG
 10
0.0
 20
0.0
 30
0.0
  9
$UCSXDIR
 10
1.0
 20
0.0
 30
0.0
  9
$UCSYDIR
 10
0.0
 20
1.0
 30
0.0
  9
$UCSORTHOREF
  2

  9
$UCSORTHOVIEW
 70
     0
  9
$UCSORGTOP
 10
0.0
 20
0.0
 30
0.0
  9
$UCSORGBOTTOM
 10
0.0
 20
0.0
 30
0.0
  9
$UCSORGLEFT
 10
0.0
 20
0.0
 30
0.0
  9
$UCSORGRIGHT
 10
0.0
 20
0.0
 30
0.0
  9
$UCSORGFRONT
 10
0.0
 20
0.0
 30
0.0
  9
$UCSORGBACK
 10
0.0
 20
0.0
 30
0.0
  9
$PUCSBASE
  2

  9
$PUCSNAME
  2

  9
$PUCSORG
 10
0.0
 20
0.0
 30
0.0
  9
$PUCSXDIR
 10
1.0
 20
0.0
 30
0.0
  9
$PUCSYDIR
 10
0.0
 20
1.0
 30
0.0
  9
$PUCSORTHOREF
  2

  9
$PUCSORTHOVIEW
 70
     0
  9
$PUCSORGTOP
 10
0.0
 20
0.0
 30
0.0
  9
$PUCSORGBOTTOM
 10
0.0
 20
0.0
 30
0.0
  9
$PUCSORGLEFT
 10
0.0
 20
0.0
 30
0.0
  9
$PUCSORGRIGHT
 10
0.0
 20
0.0
 30
0.0
  9
$PUCSORGFRONT
 10
0.0
 20
0.0
 30
0.0
  9
$PUCSORGBACK
 10
0.0
 20
0.0
 30
0.0
  9
$USERI1
 70
     0
  9
$USERI2
 70
     0
  9
$USERI3
 70
     0
  9
$USERI4
 70
     0
  9
$USERI5
 70
     0
  9
$USERR1
 40
0.0
  9
$USERR2
 40
0.0
  9
$USERR3
 40
0.0
  9
$USERR4
 40
0.0
  9
$USERR5
 40
0.0
  9
$WORLDVIEW
 70
     1
  9
$SHADEDGE
 70
     3
  9
$SHADEDIF
 70
    70
  9
$TILEMODE
 70
     1
  9
$MAXACTVP
 70
    64
  9
$PINSBASE
 10
0.0
 20
0.0
 30
0.0
  9
$PLIMCHECK
 70
     0
  9
$PEXTMIN
 10
0.0
 20
0.0
 30
0.0
  9
$PEXTMAX
 10
0.0
 20
0.0
 30
0.0
  9
$PLIMMIN
 10
0.0
 20
0.0
  9
$PLIMMAX
 10
12.0
 20
9.0
  9
$UNITMODE
 70
     0
  9
$VISRETAIN
 70
     1
  9
$PLINEGEN
 70
     0
  9
$PSLTSCALE
 70
     1
  9
$TREEDEPTH
 70
  3020
  9
$CMLSTYLE
  2
Standard
  9
$CMLJUST
 70
     0
  9
$CMLSCALE
 40
20.0
  9
$PROXYGRAPHICS
 70
     1
  9
$MEASUREMENT
 70
     1
  9
$CELWEIGHT
370
    -1
  9
$ENDCAPS
280
     0
  9
$JOINSTYLE
280
     0
  9
$LWDISPLAY
290
     0
  9
$INSUNITS
 70
     4
  9
$HYPERLINKBASE
  1

  9
$STYLESHEET
  1

  9
$XEDIT
290
     1
  9
$CEPSNTYPE
380
     0
  9
$PSTYLEMODE
290
     1
  9
$FINGERPRINTGUID
  2
{FDEAD578-A652-11D2-9A35-0060089B3A3F}
  9
$VERSIONGUID
  2
{7DE00741-8E2E-45E7-8985-C4ED84931F49}
  9
$EXTNAMES
290
     1
  9
$PSVPSCALE
 40
0.0
  9
$OLESTARTUP
290
     0
  0
ENDSEC
  0
SECTION
  2
CLASSES
  0
CLASS
  1
ACDBDICTIONARYWDFLT
  2
AcDbDictionaryWithDefault
  3
ObjectDBX Classes
 90
        0
280
     0
281
     0
  0
CLASS
  1
ACDBPLACEHOLDER
  2
AcDbPlaceHolder
  3
ObjectDBX Classes
 90
        0
280
     0
281
     0
  0
CLASS
  1
LAYOUT
  2
AcDbLayout
  3
ObjectDBX Classes
 90
        0
280
     0
281
     0
  0
CLASS
  1
DICTIONARYVAR
  2
AcDbDictionaryVar
  3
ObjectDBX Classes
 90
        0
280
     0
281
     0
  0
CLASS
  1
DIMASSOC
  2
AcDbDimAssoc
  3
"AcDbDimAssoc|Product Desc:     AcDim ARX App For Dimension|Company:          Autodesk, Inc.|WEB Address:      www.autodesk.com"
 90
    32768
280
     0
281
     0
  0
CLASS
  1
SORTENTSTABLE
  2
AcDbSortentsTable
  3
ObjectDBX Classes
 90
    32768
280
     0
281
     0
  0
ENDSEC
  0
SECTION
  2
TABLES
  0
TABLE
  2
VPORT
  5
1B
330
0
100
AcDbSymbolTable
 70
     3
  0
VPORT
  5
3A2
330
1B
100
AcDbSymbolTableRecord
100
AcDbViewportTableRecord
  2
*Active
 70
     0
 10
0.0
 20
0.0
 11
1.0
 21
1.0
 12
0.6280524919602009
 22
8.397537759851623
 13
0.0
 23
0.0
 14
10.0
 24
10.0
 15
10.0
 25
10.0
 16
0.0
 26
0.0
 36
1.0
 17
0.0
 27
0.0
 37
0.0
 40
113.8973737642472
 41
1.387886597938144
 42
50.0
 43
0.0
 44
0.0
 50
0.0
 51
0.0
 71
     0
 72
  1000
 73
     1
 74
     2
 75
     0
 76
     0
 77
     0
 78
     0
281
     0
 65
     1
110
0.0
120
0.0
130
0.0
111
1.0
121
0.0
131
0.0
112
0.0
122
1.0
132
0.0
 79
     0
146
0.0
  0
ENDTAB
  0
TABLE
  2
LTYPE
  5
16
330
0
100
AcDbSymbolTable
 70
     2
  0
LTYPE
  5
17
330
16
100
AcDbSymbolTableRecord
100
AcDbLinetypeTableRecord
  2
ByBlock
 70
     0
  3

 72
    65
 73
     0
 40
0.0
  0
LTYPE
  5
18
330
16
100
AcDbSymbolTableRecord
100
AcDbLinetypeTableRecord
  2
ByLayer
 70
     0
  3

 72
    65
 73
     0
 40
0.0
  0
LTYPE
  5
8
330
16
100
AcDbSymbolTableRecord
100
AcDbLinetypeTableRecord
  2
Continuous
 70
     0
  3
Solid line
 72
    65
 73
     0
 40
0.0
  0
LTYPE
  5
1AE
330
16
100
AcDbSymbolTableRecord
100
AcDbLinetypeTableRecord
  2
S10
 70
     0
  3
- - - - - - - - - 1,-1,1,-1
 72
    65
 73
     4
 40
4.0
 49
1.0
 74
     0
 49
-1.0
 74
     0
 49
1.0
 74
     0
 49
-1.0
 74
     0
  0
ENDTAB
  0
TABLE
  2
LAYER
  5
10
102
{ACAD_XDICTIONARY
360
11
102
}
330
0
100
AcDbSymbolTable
 70
     8
  0
LAYER
  5
4
330
10
100
AcDbSymbolTableRecord
100
AcDbLayerTableRecord
  2
0
 70
     0
 62
     7
  6
Continuous
370
    -3
390
5
  0
LAYER
  5
33C
330
10
100
AcDbSymbolTableRecord
100
AcDbLayerTableRecord
  2
WAKU
 70
     0
 62
     4
  6
Continuous
370
    -3
390
5
  0
LAYER
  5
339
330
10
100
AcDbSymbolTableRecord
100
AcDbLayerTableRecord
  2
MOJI1
 70
     0
 62
     2
  6
Continuous
370
    -3
390
5
  0
LAYER
  5
30
330
10
100
AcDbSymbolTableRecord
100
AcDbLayerTableRecord
  2
TOUROKU
 70
     0
 62
     1
  6
Continuous
370
    -3
390
5
  0
LAYER
  5
69
330
10
100
AcDbSymbolTableRecord
100
AcDbLayerTableRecord
  2
GAIKEI
 70
     0
 62
     7
  6
Continuous
370
    -3
390
5
  0
LAYER
  5
2D
330
10
100
AcDbSymbolTableRecord
100
AcDbLayerTableRecord
  2
SUNPO
 70
     0
 62
     3
  6
Continuous
370
    -3
390
5
  0
LAYER
  5
3B
330
10
100
AcDbSymbolTableRecord
100
AcDbLayerTableRecord
  2
Defpoints
 70
     0
 62
     7
  6
Continuous
290
     0
370
    -3
390
5
  0
LAYER
  5
67
330
10
100
AcDbSymbolTableRecord
100
AcDbLayerTableRecord
  2
S1
 70
     0
 62
     1
  6
Continuous
370
    -3
390
5
  0
ENDTAB
  0
TABLE
  2
STYLE
  5
13
330
0
100
AcDbSymbolTable
 70
     2
  0
STYLE
  5
14
330
13
100
AcDbSymbolTableRecord
100
AcDbTextStyleTableRecord
  2
Standard
 70
     0
 40
0.0
 41
1.0
 50
0.0
 71
     0
 42
2.5
  3
MONOTXT.shx
  4
BIGFONT.shx
  0
STYLE
  5
359
330
13
100
AcDbSymbolTableRecord
100
AcDbTextStyleTableRecord
  2
KANJI
 70
     0
 40
0.0
 41
1.0
 50
0.0
 71
     0
 42
3.5
  3
MONOTXT
  4
BIGFONT
  0
ENDTAB
  0
TABLE
  2
VIEW
  5
19
330
0
100
AcDbSymbolTable
 70
     0
  0
ENDTAB
  0
TABLE
  2
UCS
  5
1A
330
0
100
AcDbSymbolTable
 70
     0
  0
ENDTAB
  0
TABLE
  2
APPID
  5
1D
330
0
100
AcDbSymbolTable
 70
     1
  0
APPID
  5
1E
330
1D
100
AcDbSymbolTableRecord
100
AcDbRegAppTableRecord
  2
ACAD
 70
     0
  0
ENDTAB
  0
TABLE
  2
DIMSTYLE
  5
1F
330
0
100
AcDbSymbolTable
 70
     1
100
AcDbDimStyleTable
 71
     1
340
20
  0
DIMSTYLE
105
20
102
{ACAD_REACTORS
330
59
330
4C
330
3F
330
31
102
}
330
1F
100
AcDbSymbolTableRecord
100
AcDbDimStyleTableRecord
  2
STANDARD
 70
     0
 40
0.0
 41
2.0
 42
2.0
 43
8.0
 44
2.0
 73
     0
 74
     0
 77
     3
140
3.0
141
0.0
173
     1
279
     2
288
     1
340
14
341
21
343
21
344
21
  0
ENDTAB
  0
TABLE
  2
BLOCK_RECORD
  5
1
330
0
100
AcDbSymbolTable
 70
     9
  0
BLOCK_RECORD
  5
2
330
1
100
AcDbSymbolTableRecord
100
AcDbBlockTableRecord
  2
*Model_Space
340
A
  0
BLOCK_RECORD
  5
C
330
1
100
AcDbSymbolTableRecord
100
AcDbBlockTableRecord
  2
*Paper_Space
340
F
  0
BLOCK_RECORD
  5
21
330
1
100
AcDbSymbolTableRecord
100
AcDbBlockTableRecord
  2
_OPEN30
340
0
102
{BLKREFS
331
37
331
38
331
45
331
46
331
52
331
53
331
5F
331
60
331
372
331
373
331
37E
331
37F
331
38A
331
38B
331
396
331
397
102
}
  0
BLOCK_RECORD
  5
5A
330
1
100
AcDbSymbolTableRecord
100
AcDbBlockTableRecord
  2
*D1
340
0
  0
BLOCK_RECORD
  5
4D
330
1
100
AcDbSymbolTableRecord
100
AcDbBlockTableRecord
  2
*D2
340
0
  0
BLOCK_RECORD
  5
40
330
1
100
AcDbSymbolTableRecord
100
AcDbBlockTableRecord
  2
*D3
340
0
  0
BLOCK_RECORD
  5
32
330
1
100
AcDbSymbolTableRecord
100
AcDbBlockTableRecord
  2
*D4
340
0
  0
BLOCK_RECORD
  5
36E
330
1
100
AcDbSymbolTableRecord
100
AcDbBlockTableRecord
  2
*D5
340
0
  0
BLOCK_RECORD
  5
37A
330
1
100
AcDbSymbolTableRecord
100
AcDbBlockTableRecord
  2
*D6
340
0
  0
BLOCK_RECORD
  5
386
330
1
100
AcDbSymbolTableRecord
100
AcDbBlockTableRecord
  2
*D7
340
0
  0
BLOCK_RECORD
  5
392
330
1
100
AcDbSymbolTableRecord
100
AcDbBlockTableRecord
  2
*D8
340
0
  0
ENDTAB
  0
ENDSEC
  0
SECTION
  2
BLOCKS
  0
BLOCK
  5
3
330
2
100
AcDbEntity
  8
0
100
AcDbBlockBegin
  2
*Model_Space
 70
     0
 10
0.0
 20
0.0
 30
0.0
  3
*Model_Space
  1

  0
ENDBLK
  5
9
330
2
100
AcDbEntity
  8
0
100
AcDbBlockEnd
  0
BLOCK
  5
D
330
C
100
AcDbEntity
 67
     1
  8
0
100
AcDbBlockBegin
  2
*Paper_Space
 70
     0
 10
0.0
 20
0.0
 30
0.0
  3
*Paper_Space
  1

  0
ENDBLK
  5
E
330
C
100
AcDbEntity
 67
     1
  8
0
100
AcDbBlockEnd
  0
BLOCK
  5
22
330
21
100
AcDbEntity
  8
0
100
AcDbBlockBegin
  2
_OPEN30
 70
     0
 10
0.0
 20
0.0
 30
0.0
  3
_OPEN30
  1

  0
LINE
  5
23
330
21
100
AcDbEntity
  8
0
  6
ByBlock
 62
     0
100
AcDbLine
 10
-1.0
 20
0.26794919
 30
0.0
 11
0.0
 21
0.0
 31
0.0
  0
LINE
  5
24
330
21
100
AcDbEntity
  8
0
  6
ByBlock
 62
     0
100
AcDbLine
 10
0.0
 20
0.0
 30
0.0
 11
-1.0
 21
-0.26794919
 31
0.0
  0
LINE
  5
25
330
21
100
AcDbEntity
  8
0
  6
ByBlock
 62
     0
100
AcDbLine
 10
0.0
 20
0.0
 30
0.0
 11
-1.0
 21
0.0
 31
0.0
  0
ENDBLK
  5
26
330
21
100
AcDbEntity
  8
0
100
AcDbBlockEnd
  0
BLOCK
  5
5B
330
5A
100
AcDbEntity
  8
0
100
AcDbBlockBegin
  2
*D1
 70
     1
 10
0.0
 20
0.0
 30
0.0
  3
*D1
  1

  0
LINE
  5
5C
330
5A
100
AcDbEntity
  8
SUNPO
 62
     0
370
    -2
100
AcDbLine
 10
163.1121077977406
 20
91.07051432889239
 30
0.0
 11
163.1121077977406
 21
99.0705143288924
 31
0.0
  0
LINE
  5
5D
330
5A
100
AcDbEntity
  8
SUNPO
 62
     0
370
    -2
100
AcDbLine
 10
203.4454389220041
 20
91.07051432889239
 30
0.0
 11
203.4454389220041
 21
99.0705143288924
 31
0.0
  0
LINE
  5
5E
330
5A
100
AcDbEntity
  8
SUNPO
 62
     0
370
    -2
100
AcDbLine
 10
165.1121077977405
 20
97.0705143288924
 30
0.0
 11
201.4454389220041
 21
97.0705143288924
 31
0.0
  0
INSERT
  5
5F
330
5A
100
AcDbEntity
  8
SUNPO
 62
     0
370
    -2
100
AcDbBlockReference
  2
_OPEN30
 10
163.1121077977406
 20
97.0705143288924
 30
0.0
 41
2.0
 42
2.0
 43
2.0
 50
180.0
  0
INSERT
  5
60
330
5A
100
AcDbEntity
  8
SUNPO
 62
     0
370
    -2
100
AcDbBlockReference
  2
_OPEN30
 10
203.4454389220041
 20
97.0705143288924
 30
0.0
 41
2.0
 42
2.0
 43
2.0
  0
MTEXT
  5
61
330
5A
100
AcDbEntity
  8
SUNPO
 62
     0
100
AcDbMText
 10
175.279082727634
 20
98.82051432889241
 30
0.0
 40
2.5
 41
0.0
 71
     5
 72
     1
  1
\A1;1210
 73
     1
 44
1.0
1001
ACAD
1000
MTEXTBEGIN
1070
    73
1070
     1
1070
    44
1040
1.0
1070
    74
1070
     0
1000
MTEXTEND
  0
POINT
  5
62
330
5A
100
AcDbEntity
  8
Defpoints
 62
     0
100
AcDbPoint
 10
163.1121077977406
 20
89.07051432889238
 30
0.0
  0
POINT
  5
63
330
5A
100
AcDbEntity
  8
Defpoints
 62
     0
100
AcDbPoint
 10
203.4454389220041
 20
89.07051432889238
 30
0.0
  0
POINT
  5
64
330
5A
100
AcDbEntity
  8
Defpoints
 62
     0
100
AcDbPoint
 10
203.4454389220041
 20
97.0705143288924
 30
0.0
  0
ENDBLK
  5
65
330
5A
100
AcDbEntity
  8
0
100
AcDbBlockEnd
  0
BLOCK
  5
4E
330
4D
100
AcDbEntity
  8
0
100
AcDbBlockBegin
  2
*D2
 70
     1
 10
0.0
 20
0.0
 30
0.0
  3
*D2
  1

  0
LINE
  5
4F
330
4D
100
AcDbEntity
  8
SUNPO
 62
     0
370
    -2
100
AcDbLine
 10
205.4051784238341
 20
64.9301826618489
 30
0.0
 11
213.4051784238341
 21
64.9301826618489
 31
0.0
  0
LINE
  5
50
330
4D
100
AcDbEntity
  8
SUNPO
 62
     0
370
    -2
100
AcDbLine
 10
205.4051784238341
 20
89.06350800780819
 30
0.0
 11
213.4051784238341
 21
89.06350800780819
 31
0.0
  0
LINE
  5
51
330
4D
100
AcDbEntity
  8
SUNPO
 62
     0
370
    -2
100
AcDbLine
 10
211.4051784238341
 20
66.9301826618489
 30
0.0
 11
211.4051784238341
 21
87.06350800780819
 31
0.0
  0
INSERT
  5
52
330
4D
100
AcDbEntity
  8
SUNPO
 62
     0
370
    -2
100
AcDbBlockReference
  2
_OPEN30
 10
211.4051784238341
 20
64.9301826618489
 30
0.0
 41
2.0
 42
2.0
 43
2.0
 50
270.0
  0
INSERT
  5
53
330
4D
100
AcDbEntity
  8
SUNPO
 62
     0
370
    -2
100
AcDbBlockReference
  2
_OPEN30
 10
211.4051784238341
 20
89.06350800780819
 30
0.0
 41
2.0
 42
2.0
 43
2.0
 50
90.0
  0
MTEXT
  5
54
330
4D
100
AcDbEntity
  8
SUNPO
 62
     0
100
AcDbMText
 10
209.655178423834
 20
76.99684533482858
 30
0.0
 40
2.5
 41
0.0
 71
     5
 72
     1
  1
\A1;724
 11
0.0000000000000001
 21
1.0
 31
0.0
 73
     1
 44
1.0
1001
ACAD
1000
MTEXTBEGIN
1070
    73
1070
     1
1070
    44
1040
1.0
1070
    74
1070
     0
1000
MTEXTEND
  0
POINT
  5
55
330
4D
100
AcDbEntity
  8
Defpoints
 62
     0
100
AcDbPoint
 10
203.4051784238341
 20
64.9301826618489
 30
0.0
  0
POINT
  5
56
330
4D
100
AcDbEntity
  8
Defpoints
 62
     0
100
AcDbPoint
 10
203.4051784238341
 20
89.06350800780819
 30
0.0
  0
POINT
  5
57
330
4D
100
AcDbEntity
  8
Defpoints
 62
     0
100
AcDbPoint
 10
211.4051784238341
 20
89.06350800780819
 30
0.0
  0
ENDBLK
  5
58
330
4D
100
AcDbEntity
  8
0
100
AcDbBlockEnd
  0
BLOCK
  5
41
330
40
100
AcDbEntity
  8
0
100
AcDbBlockBegin
  2
*D3
 70
     1
 10
0.0
 20
0.0
 30
0.0
  3
*D3
  1

  0
LINE
  5
42
330
40
100
AcDbEntity
  8
SUNPO
 62
     0
370
    -2
100
AcDbLine
 10
161.1587238515293
 20
65.01751280132016
 30
0.0
 11
153.1587238515293
 21
65.01751280132018
 31
0.0
  0
LINE
  5
43
330
40
100
AcDbEntity
  8
SUNPO
 62
     0
370
    -2
100
AcDbLine
 10
161.1587238515293
 20
104.5960752027683
 30
0.0
 11
153.1587238515293
 21
104.5960752027683
 31
0.0
  0
LINE
  5
44
330
40
100
AcDbEntity
  8
SUNPO
 62
     0
370
    -2
100
AcDbLine
 10
155.1587238515293
 20
67.01751280132018
 30
0.0
 11
155.1587238515293
 21
102.5960752027683
 31
0.0
  0
INSERT
  5
45
330
40
100
AcDbEntity
  8
SUNPO
 62
     0
370
    -2
100
AcDbBlockReference
  2
_OPEN30
 10
155.1587238515293
 20
65.01751280132018
 30
0.0
 41
2.0
 42
2.0
 43
2.0
 50
270.0
  0
INSERT
  5
46
330
40
100
AcDbEntity
  8
SUNPO
 62
     0
370
    -2
100
AcDbBlockReference
  2
_OPEN30
 10
155.1587238515293
 20
104.5960752027683
 30
0.0
 41
2.0
 42
2.0
 43
2.0
 50
90.0
  0
MTEXT
  5
47
330
40
100
AcDbEntity
  8
SUNPO
 62
     0
100
AcDbMText
 10
153.4087238515293
 20
84.80679400204424
 30
0.0
 40
2.5
 41
0.0
 71
     5
 72
     1
  1
\A1;1187.3～1487.3
 11
0.0000000000000001
 21
1.0
 31
0.0
 73
     1
 44
1.0
1001
ACAD
1000
MTEXTBEGIN
1070
    73
1070
     1
1070
    44
1040
1.0
1070
    74
1070
     0
1000
MTEXTEND
  0
POINT
  5
48
330
40
100
AcDbEntity
  8
Defpoints
 62
     0
100
AcDbPoint
 10
163.1587238515293
 20
65.01751280132016
 30
0.0
  0
POINT
  5
49
330
40
100
AcDbEntity
  8
Defpoints
 62
     0
100
AcDbPoint
 10
163.1587238515293
 20
104.5960752027683
 30
0.0
  0
POINT
  5
4A
330
40
100
AcDbEntity
  8
Defpoints
 62
     0
100
AcDbPoint
 10
155.1587238515293
 20
104.5960752027683
 30
0.0
  0
ENDBLK
  5
4B
330
40
100
AcDbEntity
  8
0
100
AcDbBlockEnd
  0
BLOCK
  5
33
330
32
100
AcDbEntity
  8
0
100
AcDbBlockBegin
  2
*D4
 70
     1
 10
0.0
 20
0.0
 30
0.0
  3
*D4
  1

  0
LINE
  5
34
330
32
100
AcDbEntity
  8
SUNPO
 62
     0
370
    -2
100
AcDbLine
 10
171.0454364135256
 20
62.93691736506393
 30
0.0
 11
171.0454364135256
 21
54.93691736506393
 31
0.0
  0
LINE
  5
35
330
32
100
AcDbEntity
  8
SUNPO
 62
     0
370
    -2
100
AcDbLine
 10
195.4121014210989
 20
62.93691736506393
 30
0.0
 11
195.4121014210989
 21
54.93691736506393
 31
0.0
  0
LINE
  5
36
330
32
100
AcDbEntity
  8
SUNPO
 62
     0
370
    -2
100
AcDbLine
 10
173.0454364135256
 20
56.93691736506393
 30
0.0
 11
193.4121014210989
 21
56.93691736506393
 31
0.0
  0
INSERT
  5
37
330
32
100
AcDbEntity
  8
SUNPO
 62
     0
370
    -2
100
AcDbBlockReference
  2
_OPEN30
 10
171.0454364135256
 20
56.93691736506393
 30
0.0
 41
2.0
 42
2.0
 43
2.0
 50
180.0
  0
INSERT
  5
38
330
32
100
AcDbEntity
  8
SUNPO
 62
     0
370
    -2
100
AcDbBlockReference
  2
_OPEN30
 10
195.4121014210989
 20
56.93691736506393
 30
0.0
 41
2.0
 42
2.0
 43
2.0
  0
MTEXT
  5
39
330
32
100
AcDbEntity
  8
SUNPO
 62
     0
100
AcDbMText
 10
183.2287689173123
 20
58.68691736506393
 30
0.0
 40
2.5
 41
0.0
 71
     5
 72
     1
  1
\A1;731
 73
     1
 44
1.0
1001
ACAD
1000
MTEXTBEGIN
1070
    73
1070
     1
1070
    44
1040
1.0
1070
    74
1070
     0
1000
MTEXTEND
  0
POINT
  5
3A
330
32
100
AcDbEntity
  8
Defpoints
 62
     0
100
AcDbPoint
 10
171.0454364135256
 20
64.93691736506393
 30
0.0
  0
POINT
  5
3C
330
32
100
AcDbEntity
  8
Defpoints
 62
     0
100
AcDbPoint
 10
195.4121014210989
 20
64.93691736506393
 30
0.0
  0
POINT
  5
3D
330
32
100
AcDbEntity
  8
Defpoints
 62
     0
100
AcDbPoint
 10
195.4121014210989
 20
56.93691736506393
 30
0.0
  0
ENDBLK
  5
3E
330
32
100
AcDbEntity
  8
0
100
AcDbBlockEnd
  0
BLOCK
  5
378
330
36E
100
AcDbEntity
  8
0
100
AcDbBlockBegin
  2
*D5
 70
     1
 10
0.0
 20
0.0
 30
0.0
  3
*D5
  1

  0
LINE
  5
36F
330
36E
100
AcDbEntity
  8
SUNPO
 62
     0
370
    -2
100
AcDbLine
 10
-30.27152568581801
 20
37.45728314224994
 30
0.0
 11
-30.27152568581801
 21
45.45728314224994
 31
0.0
  0
LINE
  5
370
330
36E
100
AcDbEntity
  8
SUNPO
 62
     0
370
    -2
100
AcDbLine
 10
10.0618054384455
 20
37.45728314224994
 30
0.0
 11
10.0618054384455
 21
45.45728314224994
 31
0.0
  0
LINE
  5
371
330
36E
100
AcDbEntity
  8
SUNPO
 62
     0
370
    -2
100
AcDbLine
 10
-28.27152568581801
 20
43.45728314224994
 30
0.0
 11
8.061805438445503
 21
43.45728314224994
 31
0.0
  0
INSERT
  5
372
330
36E
100
AcDbEntity
  8
SUNPO
 62
     0
370
    -2
100
AcDbBlockReference
  2
_OPEN30
 10
-30.27152568581801
 20
43.45728314224994
 30
0.0
 41
2.0
 42
2.0
 43
2.0
 50
180.0
  0
INSERT
  5
373
330
36E
100
AcDbEntity
  8
SUNPO
 62
     0
370
    -2
100
AcDbBlockReference
  2
_OPEN30
 10
10.0618054384455
 20
43.45728314224994
 30
0.0
 41
2.0
 42
2.0
 43
2.0
  0
MTEXT
  5
374
330
36E
100
AcDbEntity
  8
SUNPO
 62
     0
100
AcDbMText
 10
-18.10455075592455
 20
45.20728314224995
 30
0.0
 40
2.5
 41
0.0
 71
     5
 72
     1
  1
\A1;1210
 73
     1
 44
1.0
1001
ACAD
1000
MTEXTBEGIN
1070
    73
1070
     1
1070
    44
1040
1.0
1070
    74
1070
     0
1000
MTEXTEND
  0
POINT
  5
375
330
36E
100
AcDbEntity
  8
Defpoints
 62
     0
100
AcDbPoint
 10
-30.27152568581801
 20
35.45728314224994
 30
0.0
  0
POINT
  5
376
330
36E
100
AcDbEntity
  8
Defpoints
 62
     0
100
AcDbPoint
 10
10.0618054384455
 20
35.45728314224994
 30
0.0
  0
POINT
  5
377
330
36E
100
AcDbEntity
  8
Defpoints
 62
     0
100
AcDbPoint
 10
10.0618054384455
 20
43.45728314224994
 30
0.0
  0
ENDBLK
  5
379
330
36E
100
AcDbEntity
  8
0
100
AcDbBlockEnd
  0
BLOCK
  5
384
330
37A
100
AcDbEntity
  8
0
100
AcDbBlockBegin
  2
*D6
 70
     1
 10
0.0
 20
0.0
 30
0.0
  3
*D6
  1

  0
LINE
  5
37B
330
37A
100
AcDbEntity
  8
SUNPO
 62
     0
370
    -2
100
AcDbLine
 10
12.02154494027547
 20
11.31695147520645
 30
0.0
 11
20.02154494027547
 21
11.31695147520645
 31
0.0
  0
LINE
  5
37C
330
37A
100
AcDbEntity
  8
SUNPO
 62
     0
370
    -2
100
AcDbLine
 10
12.02154494027547
 20
35.45027682116574
 30
0.0
 11
20.02154494027548
 21
35.45027682116574
 31
0.0
  0
LINE
  5
37D
330
37A
100
AcDbEntity
  8
SUNPO
 62
     0
370
    -2
100
AcDbLine
 10
18.02154494027547
 20
13.31695147520645
 30
0.0
 11
18.02154494027547
 21
33.45027682116574
 31
0.0
  0
INSERT
  5
37E
330
37A
100
AcDbEntity
  8
SUNPO
 62
     0
370
    -2
100
AcDbBlockReference
  2
_OPEN30
 10
18.02154494027547
 20
11.31695147520645
 30
0.0
 41
2.0
 42
2.0
 43
2.0
 50
270.0
  0
INSERT
  5
37F
330
37A
100
AcDbEntity
  8
SUNPO
 62
     0
370
    -2
100
AcDbBlockReference
  2
_OPEN30
 10
18.02154494027547
 20
35.45027682116574
 30
0.0
 41
2.0
 42
2.0
 43
2.0
 50
90.0
  0
MTEXT
  5
380
330
37A
100
AcDbEntity
  8
SUNPO
 62
     0
100
AcDbMText
 10
16.27154494027547
 20
23.3836141481861
 30
0.0
 40
2.5
 41
0.0
 71
     5
 72
     1
  1
\A1;724
 11
0.0000000000000001
 21
1.0
 31
0.0
 73
     1
 44
1.0
1001
ACAD
1000
MTEXTBEGIN
1070
    73
1070
     1
1070
    44
1040
1.0
1070
    74
1070
     0
1000
MTEXTEND
  0
POINT
  5
381
330
37A
100
AcDbEntity
  8
Defpoints
 62
     0
100
AcDbPoint
 10
10.02154494027547
 20
11.31695147520645
 30
0.0
  0
POINT
  5
382
330
37A
100
AcDbEntity
  8
Defpoints
 62
     0
100
AcDbPoint
 10
10.02154494027547
 20
35.45027682116574
 30
0.0
  0
POINT
  5
383
330
37A
100
AcDbEntity
  8
Defpoints
 62
     0
100
AcDbPoint
 10
18.02154494027547
 20
35.45027682116574
 30
0.0
  0
ENDBLK
  5
385
330
37A
100
AcDbEntity
  8
0
100
AcDbBlockEnd
  0
BLOCK
  5
390
330
386
100
AcDbEntity
  8
0
100
AcDbBlockBegin
  2
*D7
 70
     1
 10
0.0
 20
0.0
 30
0.0
  3
*D7
  1

  0
LINE
  5
387
330
386
100
AcDbEntity
  8
SUNPO
 62
     0
370
    -2
100
AcDbLine
 10
-32.22490963202927
 20
11.40428161467771
 30
0.0
 11
-40.22490963202928
 21
11.40428161467771
 31
0.0
  0
LINE
  5
388
330
386
100
AcDbEntity
  8
SUNPO
 62
     0
370
    -2
100
AcDbLine
 10
-32.22490963202927
 20
50.98284401612582
 30
0.0
 11
-40.22490963202926
 21
50.98284401612582
 31
0.0
  0
LINE
  5
389
330
386
100
AcDbEntity
  8
SUNPO
 62
     0
370
    -2
100
AcDbLine
 10
-38.22490963202928
 20
13.40428161467771
 30
0.0
 11
-38.22490963202927
 21
48.98284401612582
 31
0.0
  0
INSERT
  5
38A
330
386
100
AcDbEntity
  8
SUNPO
 62
     0
370
    -2
100
AcDbBlockReference
  2
_OPEN30
 10
-38.22490963202928
 20
11.40428161467771
 30
0.0
 41
2.0
 42
2.0
 43
2.0
 50
270.0
  0
INSERT
  5
38B
330
386
100
AcDbEntity
  8
SUNPO
 62
     0
370
    -2
100
AcDbBlockReference
  2
_OPEN30
 10
-38.22490963202927
 20
50.98284401612582
 30
0.0
 41
2.0
 42
2.0
 43
2.0
 50
90.0
  0
MTEXT
  5
38C
330
386
100
AcDbEntity
  8
SUNPO
 62
     0
100
AcDbMText
 10
-39.97490963202928
 20
31.19356281540177
 30
0.0
 40
2.5
 41
0.0
 71
     5
 72
     1
  1
\A1;1187.3～1487.3
 11
0.0000000000000001
 21
1.0
 31
0.0
 73
     1
 44
1.0
1001
ACAD
1000
MTEXTBEGIN
1070
    73
1070
     1
1070
    44
1040
1.0
1070
    74
1070
     0
1000
MTEXTEND
  0
POINT
  5
38D
330
386
100
AcDbEntity
  8
Defpoints
 62
     0
100
AcDbPoint
 10
-30.22490963202927
 20
11.40428161467771
 30
0.0
  0
POINT
  5
38E
330
386
100
AcDbEntity
  8
Defpoints
 62
     0
100
AcDbPoint
 10
-30.22490963202927
 20
50.98284401612582
 30
0.0
  0
POINT
  5
38F
330
386
100
AcDbEntity
  8
Defpoints
 62
     0
100
AcDbPoint
 10
-38.22490963202927
 20
50.98284401612582
 30
0.0
  0
ENDBLK
  5
391
330
386
100
AcDbEntity
  8
0
100
AcDbBlockEnd
  0
BLOCK
  5
39C
330
392
100
AcDbEntity
  8
0
100
AcDbBlockBegin
  2
*D8
 70
     1
 10
0.0
 20
0.0
 30
0.0
  3
*D8
  1

  0
LINE
  5
393
330
392
100
AcDbEntity
  8
SUNPO
 62
     0
370
    -2
100
AcDbLine
 10
-22.338197070033
 20
9.323686178421482
 30
0.0
 11
-22.338197070033
 21
1.323686178421482
 31
0.0
  0
LINE
  5
394
330
392
100
AcDbEntity
  8
SUNPO
 62
     0
370
    -2
100
AcDbLine
 10
2.028467937540369
 20
9.323686178421482
 30
0.0
 11
2.028467937540369
 21
1.323686178421482
 31
0.0
  0
LINE
  5
395
330
392
100
AcDbEntity
  8
SUNPO
 62
     0
370
    -2
100
AcDbLine
 10
-20.33819707003301
 20
3.323686178421482
 30
0.0
 11
0.0284679375403694
 21
3.323686178421482
 31
0.0
  0
INSERT
  5
396
330
392
100
AcDbEntity
  8
SUNPO
 62
     0
370
    -2
100
AcDbBlockReference
  2
_OPEN30
 10
-22.338197070033
 20
3.323686178421482
 30
0.0
 41
2.0
 42
2.0
 43
2.0
 50
180.0
  0
INSERT
  5
397
330
392
100
AcDbEntity
  8
SUNPO
 62
     0
370
    -2
100
AcDbBlockReference
  2
_OPEN30
 10
2.028467937540369
 20
3.323686178421482
 30
0.0
 41
2.0
 42
2.0
 43
2.0
  0
MTEXT
  5
398
330
392
100
AcDbEntity
  8
SUNPO
 62
     0
100
AcDbMText
 10
-10.15486456624631
 20
5.073686178421482
 30
0.0
 40
2.5
 41
0.0
 71
     5
 72
     1
  1
\A1;731
 73
     1
 44
1.0
1001
ACAD
1000
MTEXTBEGIN
1070
    73
1070
     1
1070
    44
1040
1.0
1070
    74
1070
     0
1000
MTEXTEND
  0
POINT
  5
399
330
392
100
AcDbEntity
  8
Defpoints
 62
     0
100
AcDbPoint
 10
-22.338197070033
 20
11.32368617842148
 30
0.0
  0
POINT
  5
39A
330
392
100
AcDbEntity
  8
Defpoints
 62
     0
100
AcDbPoint
 10
2.028467937540369
 20
11.32368617842148
 30
0.0
  0
POINT
  5
39B
330
392
100
AcDbEntity
  8
Defpoints
 62
     0
100
AcDbPoint
 10
2.028467937540369
 20
3.323686178421482
 30
0.0
  0
ENDBLK
  5
39D
330
392
100
AcDbEntity
  8
0
100
AcDbBlockEnd
  0
ENDSEC
  0
SECTION
  2
ENTITIES
  0
TEXT
  5
2F
330
2
100
AcDbEntity
  8
TOUROKU
100
AcDbText
 10
37.23547393241586
 20
11.32298948135381
 30
0.0
 40
1.5
  1
Ｓ＝１／３０
 41
0.7
 72
     2
 11
44.30547393241584
 21
11.32298948135381
 31
0.0
100
AcDbText
  0
DIMENSION
  5
31
330
2
100
AcDbEntity
  8
SUNPO
100
AcDbDimension
  2
*D8
 10
2.028467937540369
 20
3.323686178421482
 30
0.0
 11
-10.15486456624631
 21
5.073686178421482
 31
0.0
 70
    33
  1
731
 71
     5
 42
24.36666500757338
  3
STANDARD
100
AcDbAlignedDimension
 13
-22.338197070033
 23
11.32368617842148
 33
0.0
 14
2.028467937540369
 24
11.32368617842148
 34
0.0
1001
ACAD
1000
DSTYLE
1002
{
1070
    40
1040
1.0
1070
   140
1040
2.5
1070
   147
1040
0.5
1070
   172
1070
     1
1070
   279
1070
     0
1070
   288
1070
     0
1002
}
  0
DIMENSION
  5
3F
330
2
100
AcDbEntity
  8
SUNPO
100
AcDbDimension
  2
*D7
 10
-38.22490963202927
 20
50.98284401612582
 30
0.0
 11
-39.97490963202928
 21
31.19356281540177
 31
0.0
 70
    33
  1
1187.3～1487.3
 71
     5
 42
39.57856240144811
  3
STANDARD
100
AcDbAlignedDimension
 13
-30.22490963202927
 23
11.40428161467771
 33
0.0
 14
-30.22490963202927
 24
50.98284401612582
 34
0.0
1001
ACAD
1000
DSTYLE
1002
{
1070
    40
1040
1.0
1070
   140
1040
2.5
1070
   147
1040
0.5
1070
   172
1070
     1
1070
   279
1070
     0
1070
   288
1070
     0
1002
}
  0
DIMENSION
  5
4C
330
2
100
AcDbEntity
  8
SUNPO
100
AcDbDimension
  2
*D6
 10
18.02154494027547
 20
35.45027682116574
 30
0.0
 11
16.27154494027547
 21
23.3836141481861
 31
0.0
 70
    33
  1
724
 71
     5
 42
24.13332534595929
  3
STANDARD
100
AcDbAlignedDimension
 13
10.02154494027547
 23
11.31695147520645
 33
0.0
 14
10.02154494027547
 24
35.45027682116574
 34
0.0
1001
ACAD
1000
DSTYLE
1002
{
1070
    40
1040
1.0
1070
   140
1040
2.5
1070
   147
1040
0.5
1070
   172
1070
     1
1070
   279
1070
     0
1070
   288
1070
     0
1002
}
  0
DIMENSION
  5
59
330
2
100
AcDbEntity
  8
SUNPO
100
AcDbDimension
  2
*D5
 10
10.0618054384455
 20
43.45728314224994
 30
0.0
 11
-18.10455075592455
 21
43.45728314224994
 31
0.0
 70
   161
  1
1210
 71
     5
 42
40.3333311242635
  3
STANDARD
100
AcDbAlignedDimension
 13
-30.27152568581801
 23
35.45728314224994
 33
0.0
 14
10.0618054384455
 24
35.45728314224994
 34
0.0
1001
ACAD
1000
DSTYLE
1002
{
1070
    40
1040
1.0
1070
   140
1040
2.5
1070
   147
1040
0.5
1070
   172
1070
     1
1070
   279
1070
     0
1070
   288
1070
     0
1002
}
  0
ELLIPSE
  5
66
330
2
100
AcDbEntity
  8
S1
100
AcDbEllipse
 10
37.5511830530424
 20
27.35262562939896
 30
0.0
 11
-0.0010561492818511
 21
-0.3251459740627804
 31
0.0
210
0.0
220
0.0
230
1.0
 40
0.7373811941899307
 41
0.0
 42
6.283185307179586
  0
LINE
  5
68
330
2
100
AcDbEntity
  8
GAIKEI
 62
     1
100
AcDbLine
 10
30.03710430084982
 20
11.5140841150084
 30
0.0
 11
30.03710430084982
 21
11.40829486579436
 31
0.0
  0
ARC
  5
6A
330
2
100
AcDbEntity
  8
GAIKEI
 62
     1
100
AcDbCircle
 10
31.62799270799246
 20
35.09115051146516
 30
0.0
 40
0.03333630427746
100
AcDbArc
 50
0.0000064146184042
 51
88.00001314450822
  0
LINE
  5
6B
330
2
100
AcDbEntity
  8
GAIKEI
 62
     1
100
AcDbLine
 10
31.60500634171092
 20
35.12530981668933
 30
0.0
 11
31.6291561371487
 21
35.12446650266715
 31
0.0
  0
ARC
  5
6C
330
2
100
AcDbEntity
  8
GAIKEI
 62
     1
100
AcDbCircle
 10
31.60465731070184
 20
35.11531502871928
 30
0.0
 40
0.0100008885120045
100
AcDbArc
 50
88.00000000002242
 51
179.9999999998917
  0
LINE
  5
6D
330
2
100
AcDbEntity
  8
GAIKEI
 62
     1
100
AcDbLine
 10
31.59465642218987
 20
35.09570758672935
 30
0.0
 11
31.59465642218987
 21
35.11531502871931
 31
0.0
  0
ARC
  5
6E
330
2
100
AcDbEntity
  8
GAIKEI
 62
     1
100
AcDbCircle
 10
31.58498399295235
 20
35.0961399911411
 30
0.0
 40
0.0096820896984856
100
AcDbArc
 50
265.9875314113286
 51
357.4403055779336
  0
LINE
  5
6F
330
2
100
AcDbEntity
  8
GAIKEI
 62
     1
100
AcDbLine
 10
31.66132901226985
 20
35.04246282295516
 30
0.0
 11
31.66132901226985
 21
35.09115051519739
 31
0.0
  0
ARC
  5
70
330
2
100
AcDbEntity
  8
GAIKEI
 62
     1
100
AcDbCircle
 10
31.56131809987773
 20
35.0424641112942
 30
0.0
 40
0.1000109124005768
100
AcDbArc
 50
294.6822153763305
 51
359.9992555506062
  0
SPLINE
  5
71
330
2
100
AcDbEntity
  8
GAIKEI
  6
Continuous
 62
     1
100
AcDbSpline
210
0.0
220
0.0
230
1.0
 70
     8
 71
     3
 72
    14
 73
    10
 74
     8
 42
0.0000000001
 43
0.0000000001
 44
0.000001
 12
0.1359523053525381
 22
0.9907153832808543
 32
0.0
 13
0.1044770653903519
 23
0.9945272961600501
 33
0.0
 40
0.0
 40
0.0
 40
0.0
 40
0.0
 40
0.0117441122318229
 40
0.0233143127744365
 40
0.0347515885516765
 40
0.0432002755691816
 40
0.0514996482291378
 40
0.0595581322122607
 40
0.0673754410105548
 40
0.0673754410105548
 40
0.0673754410105548
 40
0.0673754410105548
 10
32.46122982385703
 20
31.77060090040662
 30
0.0
 10
32.46176203690109
 20
31.77447925795697
 30
0.0
 10
32.4627669581173
 20
31.78218573860787
 30
0.0
 10
32.46411010818767
 20
31.7936917643061
 30
0.0
 10
32.46520765901048
 20
31.80411972073978
 30
0.0
 10
32.46612700958423
 20
31.8134697664475
 30
0.0
 10
32.46691327694745
 20
31.82170114097372
 30
0.0
 10
32.46768091615744
 20
31.82972291297848
 30
0.0
 10
32.46822319571217
 20
31.83498703119068
 30
0.0
 10
32.46849543887299
 20
31.83757854018482
 30
0.0
 11
32.46122982385703
 21
31.77060090040662
 31
0.0
 11
32.46274910757518
 21
31.78224638653212
 31
0.0
 11
32.46409437401672
 21
31.793738117004
 31
0.0
 11
32.4652979783923
 21
31.80511188582734
 31
0.0
 11
32.46612894770499
 21
31.81351960752754
 31
0.0
 11
32.46692215086375
 21
31.82178098799783
 31
0.0
 11
32.46769940841773
 21
31.82980192422143
 31
0.0
 11
32.46849543887299
 21
31.83757854018482
 31
0.0
  0
SPLINE
  5
72
330
2
100
AcDbEntity
  8
GAIKEI
  6
Continuous
 62
     1
100
AcDbSpline
210
0.0
220
0.0
230
1.0
 70
     8
 71
     3
 72
    14
 73
    10
 74
     8
 42
0.0000000001
 43
0.0000000001
 44
0.000001
 12
0.1677588837034731
 22
0.9858280564776825
 32
0.0
 13
0.1366130456583842
 23
0.9906244877631182
 33
0.0
 40
0.0
 40
0.0
 40
0.0
 40
0.0
 40
0.0077805537819203
 40
0.0157593947443002
 40
0.0239337084991824
 40
0.0323033226631423
 40
0.0438356785406941
 40
0.0554749749921558
 40
0.0671959577983806
 40
0.0671959577983806
 40
0.0671959577983806
 40
0.0671959577983806
 10
32.34451105335586
 20
30.93603493692486
 30
0.0
 10
32.3449461390282
 20
30.93859169966257
 30
0.0
 10
32.34583783157433
 20
30.94376864232272
 30
0.0
 10
32.34724831972096
 20
30.95162089757554
 30
0.0
 10
32.34869585665416
 20
30.95966595807869
 30
0.0
 10
32.35032972677263
 20
30.9688810136617
 30
0.0
 10
32.35209657160516
 20
30.97924541193441
 30
0.0
 10
32.35392124549117
 20
30.9907325766936
 30
0.0
 10
32.35503715943523
 20
30.99843926078158
 30
0.0
 10
32.35557090582165
 20
31.00230962497774
 30
0.0
 11
32.34451105335586
 21
30.93603493692486
 31
0.0
 11
32.3458366175168
 21
30.9437016773153
 31
0.0
 11
32.34723815362878
 21
30.95155648756229
 31
0.0
 11
32.34868193724413
 21
30.95960228689488
 31
0.0
 11
32.35013898998488
 21
30.96784409602735
 31
0.0
 11
32.35207019122629
 21
30.97921360329092
 31
0.0
 11
32.35389171552731
 21
30.99070948779262
 31
0.0
 11
32.35557090582165
 21
31.00230962497774
 31
0.0
  0
SPLINE
  5
73
330
2
100
AcDbEntity
  8
GAIKEI
  6
Continuous
 62
     1
100
AcDbSpline
210
0.0
220
0.0
230
1.0
 70
     8
 71
     3
 72
    13
 73
     9
 74
     7
 42
0.0000000001
 43
0.0000000001
 44
0.000001
 12
-0.1032078770309288
 22
0.9946598082353428
 32
0.0
 13
-0.135947176317206
 23
0.9907160871063812
 33
0.0
 40
0.0
 40
0.0
 40
0.0
 40
0.0
 40
0.010667482179516
 40
0.0213526033887962
 40
0.0323808699812575
 40
0.0439032233371563
 40
0.0555872268423086
 40
0.0673754141472287
 40
0.0673754141472287
 40
0.0673754141472287
 40
0.0673754141472287
 10
32.45863863650851
 20
33.21745576688248
 30
0.0
 10
32.45827164711219
 20
33.22099260547549
 30
0.0
 10
32.4575495295922
 20
33.22807348048028
 30
0.0
 10
32.45653700178343
 20
33.23881954088076
 30
0.0
 10
32.45546197762911
 20
33.24984587422756
 30
0.0
 10
32.45427009087464
 20
33.26119518359121
 30
0.0
 10
32.45291872991064
 20
33.2727817964123
 30
0.0
 10
32.45190721175195
 20
33.28054049106041
 30
0.0
 10
32.4513730214926
 20
33.28443340666068
 30
0.0
 11
32.45863863650851
 21
33.21745576688248
 31
0.0
 11
32.45756469385094
 21
33.22806875965738
 31
0.0
 11
32.45654307194604
 21
33.23870517486772
 31
0.0
 11
32.45546563680597
 21
33.24968068885504
 31
0.0
 11
32.4542549706506
 21
33.26113926533456
 31
0.0
 11
32.45289770657945
 21
33.27274417315381
 31
0.0
 11
32.4513730214926
 21
33.28443340666068
 31
0.0
  0
SPLINE
  5
74
330
2
100
AcDbEntity
  8
GAIKEI
  6
Continuous
 62
     1
100
AcDbSpline
210
0.0
220
0.0
230
1.0
 70
     8
 71
     3
 72
    15
 73
    11
 74
     9
 42
0.0000000001
 43
0.0000000001
 44
0.000001
 12
-0.1364008987339492
 22
0.9906537209462097
 32
0.0
 13
-0.1677708966327061
 23
0.9858260121558256
 33
0.0
 40
0.0
 40
0.0
 40
0.0
 40
0.0
 40
0.0088099548289516
 40
0.0175208478463952
 40
0.0261353685926574
 40
0.0346546660583881
 40
0.0430781984095443
 40
0.0513553481857598
 40
0.0593952990170794
 40
0.0671960523423756
 40
0.0671960523423756
 40
0.0671960523423756
 40
0.0671960523423756
 10
32.35557090582165
 20
33.98105164775355
 30
0.0
 10
32.35517034390281
 20
33.98396085259778
 30
0.0
 10
32.3543426084222
 20
33.98974231097205
 30
0.0
 10
32.35301959093983
 20
33.99835319112566
 30
0.0
 10
32.35163094776053
 20
34.00685555273881
 30
0.0
 10
32.35019228678863
 20
34.01525237953507
 30
0.0
 10
32.3487255441421
 20
34.02353012279349
 30
0.0
 10
32.34726519976371
 20
34.03164666455334
 30
0.0
 10
32.34584363024868
 20
34.03955929438995
 30
0.0
 10
32.3449472998158
 20
34.04476294062563
 30
0.0
 10
32.34451105335586
 20
34.04732633580646
 30
0.0
 11
32.35557090582165
 21
33.98105164775355
 31
0.0
 11
32.35432393916733
 21
33.98977297385839
 31
0.0
 11
32.35300207604183
 21
33.99838299017601
 31
0.0
 11
32.35161571617329
 21
34.00688522422631
 31
0.0
 11
32.35017987853974
 21
34.01528265172281
 31
0.0
 11
32.34871432049085
 21
34.02357771129623
 31
0.0
 11
32.34725252796466
 21
34.03172475761862
 31
0.0
 11
32.34584012748928
 21
34.03963970810092
 31
0.0
 11
32.34451105335586
 21
34.04732633580646
 31
0.0
  0
SPLINE
  5
75
330
2
100
AcDbEntity
  8
GAIKEI
  6
Continuous
 62
     1
100
AcDbSpline
210
0.0
220
0.0
230
1.0
 70
     8
 71
     3
 72
    15
 73
    11
 74
     9
 42
0.0000000001
 43
0.0000000001
 44
0.000001
 12
-0.1327902774087838
 22
0.9911441581453722
 32
0.0
 13
-0.9785329879817499
 23
0.2060902506949535
 33
0.0
 40
0.0
 40
0.0
 40
0.0
 40
0.0
 40
0.0257301444274651
 40
0.0508393460162794
 40
0.0759402904363073
 40
0.1016467932429376
 40
0.1273459535906403
 40
0.1524442556002645
 40
0.177556234342048
 40
0.2032949066242748
 40
0.2032949066242748
 40
0.2032949066242748
 40
0.2032949066242748
 10
32.5616302359278
 20
34.2336093537569
 30
0.0
 10
32.56049133158902
 20
34.24211011453607
 30
0.0
 10
32.55694302409319
 20
34.25876035508064
 30
0.0
 10
32.54794792262624
 20
34.282525761202
 30
0.0
 10
32.53527267510896
 20
34.30455469929598
 30
0.0
 10
32.51923392561062
 20
34.32449916189057
 30
0.0
 10
32.50054143636845
 20
34.34197989533882
 30
0.0
 10
32.47951803199578
 20
34.35625718027849
 30
0.0
 10
32.4564841562916
 20
34.36699465591213
 30
0.0
 10
32.44014013741566
 20
34.37177198882462
 30
0.0
 10
32.43174475745064
 20
34.37354015196568
 30
0.0
 11
32.5616302359278
 21
34.2336093537569
 31
0.0
 11
32.55626687257802
 21
34.25877475643027
 31
0.0
 11
32.54733856443556
 21
34.28224297965399
 31
0.0
 11
32.53484531150059
 21
34.30401402342802
 31
0.0
 11
32.51878711377287
 21
34.32408788775239
 31
0.0
 11
32.49997122625672
 21
34.34159247826533
 31
0.0
 11
32.47919220436427
 21
34.35566938580517
 31
0.0
 11
32.45645004809558
 21
34.36631861037198
 31
0.0
 11
32.43174475745064
 21
34.37354015196568
 31
0.0
  0
SPLINE
  5
76
330
2
100
AcDbEntity
  8
GAIKEI
  6
Continuous
 62
     1
100
AcDbSpline
210
0.0
220
0.0
230
1.0
 70
     8
 71
     3
 72
     9
 73
     5
 74
     3
 42
0.0000000001
 43
0.0000000001
 44
0.000001
 12
-0.0000205301984769
 22
0.9999999997892555
 32
0.0
 13
-0.1362218791775721
 23
0.9906783532677653
 33
0.0
 40
0.0
 40
0.0
 40
0.0
 40
0.0
 40
0.063616001014118
 40
0.1272320020216128
 40
0.1272320020216128
 40
0.1272320020216128
 40
0.1272320020216128
 10
32.77160307201985
 20
32.64307930196272
 30
0.0
 10
32.77160263667014
 20
32.66428463562962
 30
0.0
 10
32.77015567082378
 20
32.70670781375832
 30
0.0
 10
32.76580931663688
 20
32.74893255719125
 30
0.0
 10
32.76292068623587
 20
32.76994022223111
 30
0.0
 11
32.77160307201985
 21
32.64307930196272
 31
0.0
 11
32.76943182140468
 21
32.70665827336704
 31
0.0
 11
32.76292068623587
 21
32.76994022223111
 31
0.0
  0
SPLINE
  5
77
330
2
100
AcDbEntity
  8
GAIKEI
  6
Continuous
 62
     1
100
AcDbSpline
210
0.0
220
0.0
230
1.0
 70
     8
 71
     3
 72
     9
 73
     5
 74
     3
 42
0.0000000001
 43
0.0000000001
 44
0.000001
 12
0.1362218791743881
 22
0.990678353268203
 32
0.0
 13
0.0000205302016735
 23
0.9999999997892555
 33
0.0
 40
0.0
 40
0.0
 40
0.0
 40
0.0
 40
0.0636160010089791
 40
0.1272320020216058
 40
0.1272320020216058
 40
0.1272320020216058
 40
0.1272320020216058
 10
32.76292068623587
 20
32.2134210505002
 30
0.0
 10
32.76580931663688
 20
32.23442871554056
 30
0.0
 10
32.77015567082378
 20
32.27665345897354
 30
0.0
 10
32.77160263667005
 20
32.3190766371022
 30
0.0
 10
32.77160307201985
 20
32.3402819707686
 30
0.0
 11
32.76292068623587
 21
32.2134210505002
 31
0.0
 11
32.76943182140468
 21
32.27670299936578
 31
0.0
 11
32.77160307201985
 21
32.3402819707686
 31
0.0
  0
SPLINE
  5
78
330
2
100
AcDbEntity
  8
GAIKEI
  6
Continuous
 62
     1
100
AcDbSpline
210
0.0
220
0.0
230
1.0
 70
     8
 71
     3
 72
    15
 73
    11
 74
     9
 42
0.0000000001
 43
0.0000000001
 44
0.000001
 12
0.9785263958185266
 22
0.2061215483310866
 32
0.0
 13
0.1327585762537782
 23
0.9911484048471601
 33
0.0
 40
0.0
 40
0.0
 40
0.0
 40
0.0
 40
0.0257301444278661
 40
0.0508393460167734
 40
0.0759402904366688
 40
0.1016467932427982
 40
0.127345953590442
 40
0.1524442556000162
 40
0.1775562343418478
 40
0.2032949066242228
 40
0.2032949066242228
 40
0.2032949066242228
 40
0.2032949066242228
 10
32.43174475745064
 20
30.60982112076561
 30
0.0
 10
32.44013729928094
 20
30.61158896650169
 30
0.0
 10
32.45647760343397
 20
30.61636551928257
 30
0.0
 10
32.47950836664248
 20
30.62710285249675
 30
0.0
 10
32.50053382295317
 20
30.64138102465201
 30
0.0
 10
32.5192304731201
 20
30.65885839133509
 30
0.0
 10
32.5352728894581
 20
30.6787989548674
 30
0.0
 10
32.54794740479284
 20
30.7008257807326
 30
0.0
 10
32.55694241684774
 20
30.72459430132342
 30
0.0
 10
32.56049122609883
 20
30.74124830431589
 30
0.0
 10
32.5616302359278
 20
30.74975191897441
 30
0.0
 11
32.43174475745064
 21
30.60982112076561
 31
0.0
 11
32.4564416880628
 21
30.61704086982597
 31
0.0
 11
32.47918105765382
 21
30.62768949688165
 31
0.0
 11
32.49996286622388
 21
30.64176700193262
 31
0.0
 11
32.51878711377287
 21
30.6592733849789
 31
0.0
 11
32.53484414555931
 21
30.67933877912536
 31
0.0
 11
32.54733700984724
 21
30.70110699950677
 31
0.0
 11
32.55626570663674
 21
30.72457804612311
 31
0.0
 11
32.5616302359278
 21
30.74975191897441
 31
0.0
  0
SPLINE
  5
79
330
2
100
AcDbEntity
  8
GAIKEI
  6
Continuous
 62
     1
100
AcDbSpline
210
0.0
220
0.0
230
1.0
 70
     8
 71
     3
 72
    21
 73
    17
 74
    15
 42
0.0000000001
 43
0.0000000001
 44
0.000001
 12
0.9780044826297624
 22
0.2085838727133314
 32
0.0
 13
0.1354487900196674
 23
0.9907843485250502
 33
0.0
 40
0.0
 40
0.0
 40
0.0
 40
0.0
 40
0.0199215087763172
 40
0.0395198938739145
 40
0.0588087415335798
 40
0.0777961773045899
 40
0.0964872829742974
 40
0.1148865293641492
 40
0.1329997522067994
 40
0.1508345262551679
 40
0.174183934516597
 40
0.1970597141137968
 40
0.2194690949709245
 40
0.2414165726700155
 40
0.2629089085026607
 40
0.2839580335681903
 40
0.2839580335681903
 40
0.2839580335681903
 40
0.2839580335681903
 10
32.44555893157076
 20
30.54535497487153
 30
0.0
 10
32.45205337319877
 20
30.54674007668848
 30
0.0
 10
32.46482579426689
 20
30.55004425465011
 30
0.0
 10
32.48333171688523
 20
30.55657746978717
 30
0.0
 10
32.50094487457392
 20
30.56450182712548
 30
0.0
 10
32.51758623873462
 20
30.57369085877982
 30
0.0
 10
32.5331885057065
 20
30.58402175206052
 30
0.0
 10
32.54769117620796
 20
30.59537869172427
 30
0.0
 10
32.56104312578785
 20
30.60765060435017
 30
0.0
 10
32.57450727538913
 20
30.62214773494077
 30
0.0
 10
32.58758794948454
 20
30.63907430186005
 30
0.0
 10
32.59972690737834
 20
30.65850909316399
 30
0.0
 10
32.60972354807563
 20
30.67860508284736
 30
0.0
 10
32.61761081126991
 20
30.69912349129376
 30
0.0
 10
32.62343490742779
 20
30.71984656201998
 30
0.0
 10
32.62599474375276
 20
30.73381780616154
 30
0.0
 10
32.6269451032598
 20
30.74076952071657
 30
0.0
 11
32.44555893157076
 21
30.54535497487153
 31
0.0
 11
32.46484547068383
 21
30.55034656602386
 31
0.0
 11
32.48332762701773
 21
30.55686627675429
 31
0.0
 11
32.50091860557677
 21
30.56477937735592
 31
0.0
 11
32.5175405538638
 21
30.57395726813574
 31
0.0
 11
32.5331243032154
 21
30.58427736599536
 31
0.0
 11
32.54760910289054
 21
30.59562298995626
 31
0.0
 11
32.56094234720456
 21
30.6078832450322
 31
0.0
 11
32.57307923963561
 21
30.62095135293537
 31
0.0
 11
32.58736306202752
 21
30.63942208820264
 31
0.0
 11
32.59948455383721
 21
30.65882237821363
 31
0.0
 11
32.60946568890882
 21
30.67888621599501
 31
0.0
 11
32.61733934627364
 21
30.69937273434037
 31
0.0
 11
32.62314844624569
 21
30.7200651238898
 31
0.0
 11
32.6269451032598
 21
30.74076952071657
 31
0.0
  0
SPLINE
  5
7A
330
2
100
AcDbEntity
  8
GAIKEI
  6
Continuous
 62
     1
100
AcDbSpline
210
0.0
220
0.0
230
1.0
 70
     8
 71
     3
 72
    15
 73
    11
 74
     9
 42
0.0000000001
 43
0.0000000001
 44
0.000001
 12
-0.1345307900367005
 22
0.990909413888122
 32
0.0
 13
-0.9994496190759493
 23
0.0331731657961701
 33
0.0
 40
0.0
 40
0.0
 40
0.0
 40
0.0
 40
0.0233153785982079
 40
0.0466018528890413
 40
0.0698679735041718
 40
0.0931236945380393
 40
0.1163794155718608
 40
0.1396455361869447
 40
0.1629320104776124
 40
0.1862473890756824
 40
0.1862473890756824
 40
0.1862473890756824
 40
0.1862473890756824
 10
32.33997569224607
 20
34.08030489016208
 30
0.0
 10
32.33893014681181
 20
34.08800603287585
 30
0.0
 10
32.33551303703746
 20
34.10325484531714
 30
0.0
 10
32.32646377499438
 20
34.12483962967833
 30
0.0
 10
32.31379506412819
 20
34.14450223753141
 30
0.0
 10
32.2978871903922
 20
34.16163502250109
 30
0.0
 10
32.27922703226222
 20
34.17572016595726
 30
0.0
 10
32.25837918923435
 20
34.18632591080048
 30
0.0
 10
32.23598679564088
 20
34.1931356661993
 30
0.0
 10
32.22046974002697
 20
34.19498604593052
 30
0.0
 10
32.21270222460749
 20
34.1952438609038
 30
0.0
 11
32.33997569224607
 21
34.08030489016208
 31
0.0
 11
32.3348561551544
 21
34.10305177106157
 31
0.0
 11
32.32585662073325
 21
34.12452895128523
 31
0.0
 11
32.31325279945077
 21
34.1440854726918
 31
0.0
 11
32.29742921492221
 21
34.1611279001058
 31
0.0
 11
32.27886750944589
 21
34.17513836938063
 31
0.0
 11
32.25813179588107
 21
34.18569033713088
 31
0.0
 11
32.23585150136035
 21
34.19246155313827
 31
0.0
 11
32.21270222460749
 21
34.1952438609038
 31
0.0
  0
SPLINE
  5
7B
330
2
100
AcDbEntity
  8
GAIKEI
  6
Continuous
 62
     1
100
AcDbSpline
210
0.0
220
0.0
230
1.0
 70
     8
 71
     3
 72
    13
 73
     9
 74
     7
 42
0.0000000001
 43
0.0000000001
 44
0.000001
 12
0.9487139982427798
 22
-0.3161356505334367
 32
0.0
 13
0.9998801064241472
 23
0.0154845980650528
 33
0.0
 40
0.0
 40
0.0
 40
0.0
 40
0.0
 40
0.00322816300206
 40
0.0096478713637194
 40
0.0129156519903947
 40
0.0162409066154065
 40
0.019636864897581
 40
0.023115804828552
 40
0.023115804828552
 40
0.023115804828552
 40
0.023115804828552
 10
31.5260413031898
 20
30.76807960995417
 30
0.0
 10
31.52706217099936
 20
30.76773943081728
 30
0.0
 10
31.5301420297485
 20
30.7668079521517
 30
0.0
 10
31.53436482197518
 20
30.76591990829262
 30
0.0
 10
31.53866599514055
 20
30.76535073467059
 30
0.0
 10
31.54198495872382
 20
30.7650686865952
 30
0.0
 10
31.54538283225122
 20
30.76492593481005
 30
0.0
 10
31.54767511045804
 20
30.7649166875043
 30
0.0
 10
31.54883461806753
 20
30.76493464416647
 30
0.0
 11
31.5260413031898
 21
30.76807960995417
 31
0.0
 11
31.52913177891537
 21
30.76714513291547
 31
0.0
 11
31.53541123646835
 21
30.7658088520321
 31
0.0
 11
31.53865055871296
 21
30.76537771440265
 31
0.0
 11
31.54196380090843
 21
30.76509372658172
 31
0.0
 11
31.54535660628358
 21
30.76494874951958
 31
0.0
 11
31.54883461806753
 21
30.76493464416647
 31
0.0
  0
SPLINE
  5
7C
330
2
100
AcDbEntity
  8
GAIKEI
  6
Continuous
 62
     1
100
AcDbSpline
210
0.0
220
0.0
230
1.0
 70
     8
 71
     3
 72
    27
 73
    23
 74
    21
 42
0.0000000001
 43
0.0000000001
 44
0.000001
 12
-0.9535249561077124
 22
0.3013140522441413
 32
0.0
 13
-0.0768695003212578
 23
0.9970411626008027
 33
0.0
 40
0.0
 40
0.0
 40
0.0
 40
0.0
 40
0.0058739979649093
 40
0.0124236204270886
 40
0.0197818398251332
 40
0.0278973743687763
 40
0.0358503791856258
 40
0.0433983327956397
 40
0.0464908188593941
 40
0.0498285563935335
 40
0.0535042922793334
 40
0.0575234463291987
 40
0.0618893905706946
 40
0.066480365839282
 40
0.0707679492522824
 40
0.074210319982668
 40
0.0773515146809725
 40
0.0801844570514453
 40
0.0827251027315997
 40
0.0852229030852224
 40
0.087745240901918
 40
0.0928258952680474
 40
0.0928258952680474
 40
0.0928258952680474
 40
0.0928258952680474
 10
31.52624367255197
 20
30.76801231328413
 30
0.0
 10
31.52437667133475
 20
30.76860228599402
 30
0.0
 10
31.52049336175366
 20
30.77006405551332
 30
0.0
 10
31.51459363104982
 20
30.77304734171808
 30
0.0
 10
31.50856655222685
 20
30.77728669830823
 30
0.0
 10
31.5028501898581
 20
30.78263767159088
 30
0.0
 10
31.49772399541646
 20
30.78862951505134
 30
0.0
 10
31.49416361872545
 20
30.7937135634037
 30
0.0
 10
31.49171576594546
 20
30.79767844590219
 30
0.0
 10
31.49000529862064
 20
30.80058086828387
 30
0.0
 10
31.48821302083206
 20
30.80379248817249
 30
0.0
 10
31.48633794310604
 20
30.80734924034619
 30
0.0
 10
31.48441604962315
 20
30.81122431926213
 30
0.0
 10
31.48254584420033
 20
30.81522511025918
 30
0.0
 10
31.48104076632663
 20
30.8190496832783
 30
0.0
 10
31.47991527737983
 20
30.82249606319377
 30
0.0
 10
31.4791122170866
 20
30.82553227390076
 30
0.0
 10
31.47854273512286
 20
30.82831420201124
 30
0.0
 10
31.47815552332813
 20
30.83091078509264
 30
0.0
 10
31.47793747108449
 20
30.83342285746143
 30
0.0
 10
31.47777845960667
 20
30.83678614837685
 30
0.0
 10
31.47759077238203
 20
30.83931387069167
 30
0.0
 10
31.47746058992789
 20
30.84100241120366
 30
0.0
 11
31.52624367255197
 21
30.76801231328413
 31
0.0
 11
31.52074341916228
 21
30.77007697151079
 31
0.0
 11
31.51490971086821
 21
30.77305446659482
 31
0.0
 11
31.50887700147496
 21
30.77726742130771
 31
0.0
 11
31.50292072889238
 21
30.78277946570107
 31
0.0
 11
31.49774035678695
 21
30.78881373706586
 31
0.0
 11
31.49339815755485
 21
30.79498752738356
 31
0.0
 11
31.49176755415795
 21
30.79761515552629
 31
0.0
 11
31.49007344562313
 21
30.80049098558454
 31
0.0
 11
31.48828119542964
 21
30.80370018142223
 31
0.0
 11
31.4864060727806
 21
30.80725515958459
 31
0.0
 11
31.48446387838584
 21
30.81116541765716
 31
0.0
 11
31.48254759479653
 21
30.8153373321591
 31
0.0
 11
31.48098092377114
 21
30.81932821607073
 31
0.0
 11
31.47991597536105
 21
30.82260154654934
 31
0.0
 11
31.47911533092088
 21
30.82563888721536
 31
0.0
 11
31.47854860904317
 21
30.82841450652545
 31
0.0
 11
31.47817849136072
 21
30.8309280186417
 31
0.0
 11
31.47795345742088
 21
30.83341565316214
 31
0.0
 11
31.47781025180331
 21
30.83593393363639
 31
0.0
 11
31.47746058992789
 21
30.84100241120366
 31
0.0
  0
SPLINE
  5
7D
330
2
100
AcDbEntity
  8
GAIKEI
  6
Continuous
 62
     1
100
AcDbSpline
210
0.0
220
0.0
230
1.0
 70
     8
 71
     3
 72
     9
 73
     5
 74
     3
 42
0.0000000001
 43
0.0000000001
 44
0.000001
 12
0.0037801567420873
 22
-0.9999928551819785
 32
0.0
 13
0.1113488517851972
 23
-0.993781380991875
 33
0.0
 40
0.0
 40
0.0
 40
0.0
 40
0.0
 40
0.0089265387507941
 40
0.0103706013120631
 40
0.0103706013120631
 40
0.0103706013120631
 40
0.0103706013120631
 10
31.47688430666045
 20
30.85116548925022
 30
0.0
 10
31.47689555456566
 20
30.84818999759278
 30
0.0
 10
31.47706887411803
 20
30.84473033817403
 30
0.0
 10
31.47742786598559
 20
30.84129226580397
 30
0.0
 10
31.47748146422163
 20
30.84081390497518
 30
0.0
 11
31.47688430666045
 21
30.85116548925022
 31
0.0
 11
31.47733146387219
 21
30.84225000104415
 31
0.0
 11
31.47748146422163
 21
30.84081390497518
 31
0.0
  0
SPLINE
  5
7E
330
2
100
AcDbEntity
  8
GAIKEI
  6
Continuous
 62
     1
100
AcDbSpline
210
0.0
220
0.0
230
1.0
 70
     8
 71
     3
 72
     9
 73
     5
 74
     3
 42
0.0000000001
 43
0.0000000001
 44
0.000001
 12
-0.1110702931717985
 22
-0.9938125527355401
 32
0.0
 13
-0.0037416002969241
 23
-0.9999930001891105
 33
0.0
 40
0.0
 40
0.0
 40
0.0
 40
0.0
 40
0.0014819459234957
 40
0.0103546008421527
 40
0.0103546008421527
 40
0.0103546008421527
 40
0.0103546008421527
 10
31.47747890333426
 20
34.14253145752243
 30
0.0
 10
31.47742403661152
 20
34.14204053203534
 30
0.0
 10
31.4770672189521
 20
34.13860759085372
 30
0.0
 10
31.47689537263654
 20
34.13515331441835
 30
0.0
 10
31.47688430666045
 20
34.1321957834811
 30
0.0
 11
31.47747890333426
 21
34.14253145752243
 31
0.0
 11
31.47732566317086
 21
34.14105761512478
 31
0.0
 11
31.47688430666045
 21
34.1321957834811
 31
0.0
  0
SPLINE
  5
7F
330
2
100
AcDbEntity
  8
GAIKEI
  6
Continuous
 62
     1
100
AcDbSpline
210
0.0
220
0.0
230
1.0
 70
     8
 71
     3
 72
    27
 73
    23
 74
    21
 42
0.0000000001
 43
0.0000000001
 44
0.000001
 12
0.076512265488583
 22
0.9970686401797044
 32
0.0
 13
0.955265790099601
 23
0.2957486606316002
 33
0.0
 40
0.0
 40
0.0
 40
0.0
 40
0.0
 40
0.0049081096672613
 40
0.0071949186294767
 40
0.0093538447207483
 40
0.0140218595452991
 40
0.0168863887855699
 40
0.0201057702735778
 40
0.0249374265708986
 40
0.0303592006904417
 40
0.0363136033730588
 40
0.0449355480795138
 40
0.0526210573927009
 40
0.0587210726899715
 40
0.0641083993651827
 40
0.0689597463310068
 40
0.0735065916914116
 40
0.0777817551463168
 40
0.0817588340345096
 40
0.0856007268680729
 40
0.0893264960170779
 40
0.0929602759868131
 40
0.0929602759868131
 40
0.0929602759868131
 40
0.0929602759868131
 10
31.47746060330553
 20
34.14236593897748
 30
0.0
 10
31.47758578016882
 20
34.14399717972141
 30
0.0
 10
31.47775651467865
 20
34.14639000526634
 30
0.0
 10
31.47786946253692
 20
34.14950610740574
 30
0.0
 10
31.47811612482897
 20
34.15253577679211
 30
0.0
 10
31.47868459094878
 20
34.15572209642085
 30
0.0
 10
31.47948395130078
 20
34.15921578576993
 30
0.0
 10
31.48045250202003
 20
34.16272454397158
 30
0.0
 10
31.48187232145114
 20
34.16698790103124
 30
0.0
 10
31.48389921938571
 20
34.17200054059123
 30
0.0
 10
31.48682425821653
 20
34.17799517997025
 30
0.0
 10
31.49049759928209
 20
34.18445047807428
 30
0.0
 10
31.49464136347416
 20
34.19067222847443
 30
0.0
 10
31.4985408137637
 20
34.19574138845263
 30
0.0
 10
31.50213601963361
 20
34.19983693070944
 30
0.0
 10
31.50561163416779
 20
34.20333625500311
 30
0.0
 10
31.50904961403691
 20
34.20633476283294
 30
0.0
 10
31.51245321253512
 20
34.2089116743301
 30
0.0
 10
31.51583320485938
 20
34.21111898610009
 30
0.0
 10
31.51927627534212
 20
34.21285726136711
 30
0.0
 10
31.52276371442165
 20
34.21419858968177
 30
0.0
 10
31.52508563494701
 20
34.21499233196681
 30
0.0
 10
31.52624271017828
 20
34.2153505604865
 30
0.0
 11
31.47746060330553
 21
34.14236593897748
 31
0.0
 11
31.47777869712275
 21
34.14726361396545
 31
0.0
 11
31.47788764009806
 21
34.14954783483203
 31
0.0
 11
31.47806878654979
 21
34.15169913839962
 31
0.0
 11
31.47883477289395
 21
34.1563037962636
 31
0.0
 11
31.47947599480921
 21
34.15909555834192
 31
0.0
 11
31.48032993672968
 21
34.16219951487555
 31
0.0
 11
31.48185408164375
 21
34.16678430063901
 31
0.0
 11
31.48388679040613
 21
34.17181045127249
 31
0.0
 11
31.48647934791666
 21
34.17717080101578
 31
0.0
 11
31.49074284103404
 21
34.18466491916205
 31
0.0
 11
31.4950135933999
 21
34.19105459988093
 31
0.0
 11
31.49873963812513
 21
34.1958843558006
 31
0.0
 11
31.50229639064179
 21
34.19993063016587
 31
0.0
 11
31.50572390987276
 21
34.20336384977883
 31
0.0
 11
31.50915138760388
 21
34.206351381619
 31
0.0
 11
31.51256166134653
 21
34.20892943397466
 31
0.0
 11
31.51590795595985
 21
34.21107920388418
 31
0.0
 11
31.51933561909868
 21
34.21281516898033
 31
0.0
 11
31.52279935765148
 21
34.21418771101155
 31
0.0
 11
31.52624271017828
 21
34.2153505604865
 31
0.0
  0
SPLINE
  5
80
330
2
100
AcDbEntity
  8
GAIKEI
  6
Continuous
 62
     1
100
AcDbSpline
210
0.0
220
0.0
230
1.0
 70
     8
 71
     3
 72
    13
 73
     9
 74
     7
 42
0.0000000001
 43
0.0000000001
 44
0.000001
 12
-0.999877353382941
 22
0.0156613598364006
 32
0.0
 13
-0.948811078883282
 23
-0.3158441650376698
 33
0.0
 40
0.0
 40
0.0
 40
0.0
 40
0.0
 40
0.0035193495400885
 40
0.0069366593676421
 40
0.0102686576436301
 40
0.0135328649839161
 40
0.0199316755031191
 40
0.0230409896072655
 40
0.0230409896072655
 40
0.0230409896072655
 40
0.0230409896072655
 10
31.54883461806753
 20
34.21842662856481
 30
0.0
 10
31.54766164543295
 20
34.21844500116466
 30
0.0
 10
31.54534877398118
 20
34.21843579764651
 30
0.0
 10
31.54192804653229
 20
34.21829288474157
 30
0.0
 10
31.53860093963655
 20
34.2180098440142
 30
0.0
 10
31.53430590363229
 20
34.21743901506623
 30
0.0
 10
31.53013121180604
 20
34.21655427387577
 30
0.0
 10
31.52709656067381
 20
34.21563482261861
 30
0.0
 10
31.5261131767839
 20
34.21530746971293
 30
0.0
 11
31.54883461806753
 21
34.21842662856481
 31
0.0
 11
31.54531622220287
 21
34.21841280837701
 31
0.0
 11
31.5419019889041
 21
34.21826736224024
 31
0.0
 11
31.53858205218921
 21
34.2179822871223
 31
0.0
 11
31.53534654607597
 21
34.21754957999097
 31
0.0
 11
31.5290893617265
 21
34.21620925755899
 31
0.0
 11
31.5261131767839
 21
34.21530746971293
 31
0.0
  0
SPLINE
  5
81
330
2
100
AcDbEntity
  8
GAIKEI
  6
Continuous
 62
     1
100
AcDbSpline
210
0.0
220
0.0
230
1.0
 70
     8
 71
     3
 72
    15
 73
    11
 74
     9
 42
0.0000000001
 43
0.0000000001
 44
0.000001
 12
0.9994496190759601
 22
0.0331731657958403
 32
0.0
 13
0.134530790036436
 23
0.9909094138881577
 33
0.0
 40
0.0
 40
0.0
 40
0.0
 40
0.0
 40
0.0233153785981862
 40
0.0466018528889248
 40
0.069867973504098
 40
0.0931236945379368
 40
0.1163794155718251
 40
0.1396455361868939
 40
0.1629320104776048
 40
0.1862473890757017
 40
0.1862473890757017
 40
0.1862473890757017
 40
0.1862473890757017
 10
32.21270222460749
 20
30.78811741182749
 30
0.0
 10
32.220469740027
 20
30.78837522680077
 30
0.0
 10
32.23598679564103
 20
30.790225606532
 30
0.0
 10
32.25837918923458
 20
30.79703536193091
 30
0.0
 10
32.27922703226233
 20
30.80764110677417
 30
0.0
 10
32.2978871903924
 20
30.82172625023041
 30
0.0
 10
32.3137950641285
 20
30.83885903520008
 30
0.0
 10
32.32646377499444
 20
30.85852164305314
 30
0.0
 10
32.33551303703732
 20
30.88010642741435
 30
0.0
 10
32.33893014681181
 20
30.89535523985549
 30
0.0
 10
32.33997569224607
 20
30.90305638256924
 30
0.0
 11
32.21270222460749
 21
30.78811741182749
 31
0.0
 11
32.23585150136046
 21
30.79089971959304
 31
0.0
 11
32.25813179588124
 21
30.79767093560049
 31
0.0
 11
32.27886750944612
 21
30.80822290335083
 31
0.0
 11
32.29742921492243
 21
30.82223337262569
 31
0.0
 11
32.31325279945099
 21
30.83927580003972
 31
0.0
 11
32.32585662073336
 21
30.85883232144629
 31
0.0
 11
32.3348561551544
 21
30.88030950166986
 31
0.0
 11
32.33997569224607
 21
30.90305638256924
 31
0.0
  0
SPLINE
  5
82
330
2
100
AcDbEntity
  8
GAIKEI
  6
Continuous
 62
     1
100
AcDbSpline
210
0.0
220
0.0
230
1.0
 70
     8
 71
     3
 72
    11
 73
     7
 74
     5
 42
0.0000000001
 43
0.0000000001
 44
0.000001
 12
0.1117045080192779
 22
-0.9937414668253364
 32
0.0
 13
0.1717596663978053
 23
-0.98513888208664
 33
0.0
 40
0.0
 40
0.0
 40
0.0
 40
0.0
 40
0.0001599086223848
 40
0.0092970523466174
 40
0.017285657148034
 40
0.022356277475746
 40
0.022356277475746
 40
0.022356277475746
 40
0.022356277475746
 10
31.47793675762887
 20
30.84153412409283
 30
0.0
 10
31.47794271180021
 20
30.84148115481651
 30
0.0
 10
31.47828890245177
 20
30.83840153396372
 30
0.0
 10
31.47895682554332
 20
30.83267855931931
 30
0.0
 10
31.47991528564745
 20
30.82534107449942
 30
0.0
 10
31.48061977362656
 20
30.82104482940549
 30
0.0
 10
31.48091008297854
 20
30.81937974099178
 30
0.0
 11
31.47793675762887
 21
30.84153412409283
 31
0.0
 11
31.47795463456521
 21
30.84137521869376
 31
0.0
 11
31.47902429955548
 21
30.83230107336648
 31
0.0
 11
31.48009289327581
 21
30.82438418647472
 31
0.0
 11
31.48091008297854
 21
30.81937974099178
 31
0.0
  0
SPLINE
  5
83
330
2
100
AcDbEntity
  8
GAIKEI
  6
Continuous
 62
     1
100
AcDbSpline
210
0.0
220
0.0
230
1.0
 70
     8
 71
     3
 72
    29
 73
    25
 74
    23
 42
0.0000000001
 43
0.0000000001
 44
0.000001
 12
-0.7526510322232209
 22
0.6584196410294276
 32
0.0
 13
-0.2875771477137425
 23
0.9577574766676731
 33
0.0
 40
0.0
 40
0.0
 40
0.0
 40
0.0
 40
0.0006178609696637
 40
0.0025238280918891
 40
0.0057516774460452
 40
0.0103542765095698
 40
0.0162722171497625
 40
0.023486723210082
 40
0.0319681323428898
 40
0.0417098918669663
 40
0.052699151323447
 40
0.0647415419929913
 40
0.0778782946105572
 40
0.0920789904186662
 40
0.1103097290039202
 40
0.1297009403755263
 40
0.150208603398184
 40
0.1717154207143003
 40
0.19400211479805
 40
0.2166743733353054
 40
0.2399436692024417
 40
0.2637847006266159
 40
0.2881156005156564
 40
0.3127859900064717
 40
0.3127859900064717
 40
0.3127859900064717
 40
0.3127859900064717
 10
32.60445969000386
 20
14.5211790260869
 30
0.0
 10
32.60430467877166
 20
14.52131463001952
 30
0.0
 10
32.60369608668597
 20
14.52191111193943
 30
0.0
 10
32.60309614969222
 20
14.52379485427563
 30
0.0
 10
32.60181472600746
 20
14.5267438273404
 30
0.0
 10
32.60029307619959
 20
14.53108423616231
 30
0.0
 10
32.59832623944715
 20
14.53665231430899
 30
0.0
 10
32.59601723807839
 20
14.54347954975918
 30
0.0
 10
32.59333958797058
 20
14.55152403238445
 30
0.0
 10
32.5903107055484
 20
14.56077878069055
 30
0.0
 10
32.58694929308558
 20
14.57117317144741
 30
0.0
 10
32.5832736357747
 20
14.58265537258383
 30
0.0
 10
32.57930166823144
 20
14.59516662728353
 30
0.0
 10
32.57473530778248
 20
14.60965339545626
 30
0.0
 10
32.5695745290347
 20
14.62613869926147
 30
0.0
 10
32.5638191367141
 20
14.6446407539815
 30
0.0
 10
32.55777031881647
 20
14.66419514527111
 30
0.0
 10
32.55146515452572
 20
14.68468049947214
 30
0.0
 10
32.5449747442056
 20
14.70586375263095
 30
0.0
 10
32.53833750186877
 20
14.72761645083291
 30
0.0
 10
32.5315728679224
 20
14.74987195856525
 30
0.0
 10
32.52467065378605
 20
14.77266349079988
 30
0.0
 10
32.5176549514558
 20
14.7959086210172
 30
0.0
 10
32.51295162262946
 20
14.81155057130252
 30
0.0
 10
32.51058674254853
 20
14.81942665463155
 30
0.0
 11
32.60445969000386
 21
14.5211790260869
 31
0.0
 11
32.60402807870696
 21
14.52162120175013
 31
0.0
 11
32.60321550057518
 21
14.52334510475747
 31
0.0
 11
32.6020243186926
 21
14.52634509385568
 31
0.0
 11
32.60043902219093
 21
14.53066604710009
 31
0.0
 11
32.59848170702412
 21
14.53625092391128
 31
0.0
 11
32.59615859777563
 21
14.54308116462273
 31
0.0
 11
32.59347931144606
 21
14.5511282550717
 31
0.0
 11
32.59044600279424
 21
14.56038573124603
 31
0.0
 11
32.58706305849012
 21
14.57084132620416
 31
0.0
 11
32.58339007540633
 21
14.58230990630433
 31
0.0
 11
32.57941393528358
 21
14.59483047118782
 31
0.0
 11
32.57514386532
 21
14.60837396533644
 31
0.0
 11
32.5696960114409
 21
14.62577168586789
 31
0.0
 11
32.56393525484873
 21
14.64428742861285
 31
0.0
 11
32.55787406731793
 21
14.66387891196511
 31
0.0
 11
32.55154674953144
 21
14.68443391660513
 31
0.0
 11
32.54501731878605
 21
14.70574267643535
 31
0.0
 11
32.53840023168846
 21
14.72742781989164
 31
0.0
 11
32.53163285657957
 21
14.74969130451201
 31
0.0
 11
32.5247223576896
 21
14.77250883656494
 31
0.0
 11
32.5176924652028
 21
14.79580203912964
 31
0.0
 11
32.51058674254853
 21
14.81942665463155
 31
0.0
  0
SPLINE
  5
84
330
2
100
AcDbEntity
  8
GAIKEI
  6
Continuous
 62
     1
100
AcDbSpline
210
0.0
220
0.0
230
1.0
 70
     8
 71
     3
 72
    28
 73
    24
 74
    22
 42
0.0000000001
 43
0.0000000001
 44
0.000001
 12
0.7217480328339719
 22
0.6921558907502644
 32
0.0
 13
0.9952109123015889
 23
0.097750908107491
 33
0.0
 40
0.0
 40
0.0
 40
0.0
 40
0.0
 40
0.0085574556742827
 40
0.0157612278669675
 40
0.0214927938015424
 40
0.0271056634999198
 40
0.0329787390916014
 40
0.043338975641578
 40
0.0541633007318222
 40
0.0646559634914151
 40
0.0722886488914762
 40
0.0796562109045474
 40
0.0829521424257727
 40
0.0858598682483322
 40
0.0883836539143856
 40
0.0905234199420148
 40
0.091447642348206
 40
0.0930940134124226
 40
0.0950313810153329
 40
0.0987440020350078
 40
0.102523581500969
 40
0.1066919450467036
 40
0.1110672556985158
 40
0.1110672556985158
 40
0.1110672556985158
 40
0.1110672556985158
 10
31.78210873266591
 20
12.06854659603728
 30
0.0
 10
31.78416750826557
 20
12.07052096048888
 30
0.0
 10
31.78805184192106
 20
12.07406180803323
 30
0.0
 10
31.79354637096711
 20
12.07866278746439
 30
0.0
 10
31.79846145117551
 20
12.08241613746168
 30
0.0
 10
31.80314233864277
 20
12.08573873284521
 30
0.0
 10
31.80922273000906
 20
12.08974825441277
 30
0.0
 10
31.81699129934776
 20
12.09434292704317
 30
0.0
 10
31.82640981112454
 20
12.09913128812283
 30
0.0
 10
31.83526145928988
 20
12.10298873782007
 30
0.0
 10
31.84321354304473
 20
12.10598977518167
 30
0.0
 10
31.84899761331096
 20
12.10792986097297
 30
0.0
 10
31.85333638999171
 20
12.10921182138491
 30
0.0
 10
31.85614710164802
 20
12.1099634160636
 30
0.0
 10
31.85860047514797
 20
12.11055626568859
 30
0.0
 10
31.86042074406379
 20
12.11095185953643
 30
0.0
 10
31.86196056824184
 20
12.11125899861649
 30
0.0
 10
31.8634391604262
 20
12.11152720635206
 30
0.0
 10
31.86583545549766
 20
12.11194312873933
 30
0.0
 10
31.86893919968327
 20
12.11244054272396
 30
0.0
 10
31.87278622322998
 20
12.1129965696107
 30
0.0
 10
31.87686109559962
 20
12.1135169063855
 30
0.0
 10
31.87969258887688
 20
12.11382417054565
 30
0.0
 10
31.88114404117869
 20
12.11396673407547
 30
0.0
 11
31.78210873266591
 21
12.06854659603728
 31
0.0
 11
31.78842768956628
 21
12.07431761045869
 31
0.0
 11
31.79395971972934
 21
12.07893181320632
 31
0.0
 11
31.7985123671898
 21
12.08241388793136
 31
0.0
 11
31.80308890955638
 21
12.08566353103772
 31
0.0
 11
31.80799213619855
 21
12.08889647969953
 31
0.0
 11
31.81690953216236
 21
12.09417058907211
 31
0.0
 11
31.82655455463276
 21
12.09908393557366
 31
0.0
 11
31.83617322187968
 21
12.10327649123518
 31
0.0
 11
31.84331235510195
 21
12.10597659018448
 31
0.0
 11
31.85030275027862
 21
12.10830365760161
 31
0.0
 11
31.85346440235486
 21
12.10923485917082
 31
0.0
 11
31.85627362861675
 21
12.10998529163537
 31
0.0
 11
31.85872706170846
 21
12.11057706279068
 31
0.0
 11
31.86081822972483
 21
12.11103054092494
 31
0.0
 11
31.86172466701055
 21
12.11121099514518
 31
0.0
 11
31.86334384966284
 21
12.11150899006763
 31
0.0
 11
31.86525272030599
 21
12.11184008930273
 31
0.0
 11
31.86891839808345
 21
12.11242867528743
 31
0.0
 11
31.87265913591523
 21
12.11296920273956
 31
0.0
 11
31.87679403265423
 21
12.1134964250828
 31
0.0
 11
31.88114404117869
 21
12.11396673407547
 31
0.0
  0
SPLINE
  5
85
330
2
100
AcDbEntity
  8
GAIKEI
  6
Continuous
 62
     1
100
AcDbSpline
210
0.0
220
0.0
230
1.0
 70
     8
 71
     3
 72
    41
 73
    37
 74
    35
 42
0.0000000001
 43
0.0000000001
 44
0.000001
 12
0.0064747712617763
 22
0.9999790384488605
 32
0.0
 13
0.7486451432179164
 23
0.6629709266146034
 33
0.0
 40
0.0
 40
0.0
 40
0.0
 40
0.0
 40
0.00487972202932
 40
0.0095408573170909
 40
0.0141412567217166
 40
0.016448724682259
 40
0.0187692787785228
 40
0.0223290693966917
 40
0.0263636850181144
 40
0.0309350675743356
 40
0.037016649281269
 40
0.0438225559119305
 40
0.0592497184656935
 40
0.0737747348064682
 40
0.0806057129628015
 40
0.0867323678927906
 40
0.0921021930536216
 40
0.0967157812166358
 40
0.1005724437415775
 40
0.1036696750115144
 40
0.1061043465926222
 40
0.108508306879094
 40
0.1109974520350473
 40
0.1135749438028627
 40
0.1162400271326736
 40
0.117603517553665
 40
0.1189706962060181
 40
0.120334125454927
 40
0.1216923397903662
 40
0.1243862356734612
 40
0.1270369830950345
 40
0.1296268378283651
 40
0.1321361840472184
 40
0.1345438299926708
 40
0.1368271714864079
 40
0.1389621751957739
 40
0.1389621751957739
 40
0.1389621751957739
 40
0.1389621751957739
 10
32.90312058082742
 20
14.69625265169559
 30
0.0
 10
32.90313111252206
 20
14.69787919160984
 30
0.0
 10
32.90318456327844
 20
14.70105911185408
 30
0.0
 10
32.90331366491108
 20
14.70577145380353
 30
0.0
 10
32.90355469505624
 20
14.70962137411419
 30
0.0
 10
32.90383981819531
 20
14.71268444754372
 30
0.0
 10
32.90414978292836
 20
14.71539629568515
 30
0.0
 10
32.90461471595487
 20
14.71866882834395
 30
0.0
 10
32.90527101537924
 20
14.72267095432133
 30
0.0
 10
32.90618892880366
 20
14.72748061251155
 30
0.0
 10
32.90746084627682
 20
14.73316095488008
 30
0.0
 10
32.90987658816016
 20
14.74228689484562
 30
0.0
 10
32.91379687066697
 20
14.75391543691863
 30
0.0
 10
32.91874304076856
 20
14.76515230252686
 30
0.0
 10
32.92296217046374
 20
14.77328609494235
 30
0.0
 10
32.92597766903049
 20
14.77860069592773
 30
0.0
 10
32.92878284636799
 20
14.78318080288547
 30
0.0
 10
32.93130501277699
 20
14.7870442992408
 30
0.0
 10
32.93348903543165
 20
14.79022232737547
 30
0.0
 10
32.93531052924607
 20
14.79276725174917
 30
0.0
 10
32.93687330010403
 20
14.79490167277463
 30
0.0
 10
32.9383537304829
 20
14.79684470318671
 30
0.0
 10
32.93989976781177
 20
14.79879702603932
 30
0.0
 10
32.94153749200359
 20
14.80078720048476
 30
0.0
 10
32.9429681133854
 20
14.80246136005647
 30
0.0
 10
32.94415490776754
 20
14.80381283964431
 30
0.0
 10
32.94506491433327
 20
14.80482986891242
 30
0.0
 10
32.94598297257113
 20
14.80583725534734
 30
0.0
 10
32.94721062378173
 20
14.80716074167534
 30
0.0
 10
32.94875090745108
 20
14.80877940073341
 30
0.0
 10
32.95060432742471
 20
14.8106663291644
 30
0.0
 10
32.95244151121571
 20
14.81248257018902
 30
0.0
 10
32.95424488854633
 20
14.81421738886379
 30
0.0
 10
32.95599538763188
 20
14.81585951997615
 30
0.0
 10
32.95767364464641
 20
14.81739600047029
 30
0.0
 10
32.95876992675335
 20
14.81837954249134
 30
0.0
 10
32.9593027134726
 20
14.81885135762051
 30
0.0
 11
32.90312058082742
 21
14.69625265169559
 31
0.0
 11
32.90319359414104
 21
14.70113189489181
 31
0.0
 11
32.90334068116181
 21
14.70579071883192
 31
0.0
 11
32.90363230052014
 21
14.71038189208501
 31
0.0
 11
32.90384643083417
 21
14.71267941829082
 31
0.0
 11
32.90411015476355
 21
14.71498495507232
 31
0.0
 11
32.90460323749381
 21
14.71851046102521
 31
0.0
 11
32.90525725378143
 21
14.72249175270006
 31
0.0
 11
32.90611389701019
 21
14.72698219758676
 31
0.0
 11
32.90744290217162
 21
14.73291684734685
 31
0.0
 11
32.90918455718492
 21
14.73949619282037
 31
0.0
 11
32.91411324028604
 21
14.75411498525763
 31
0.0
 11
32.91996501725601
 21
14.76740916527878
 31
0.0
 11
32.9231091424499
 21
14.77347358047508
 31
0.0
 11
32.92613270128493
 21
14.77880220818183
 31
0.0
 11
32.92893715604936
 21
14.78338153684193
 31
0.0
 11
32.93145867568353
 21
14.78724511877998
 31
0.0
 11
32.93364277253147
 21
14.79042374219763
 31
0.0
 11
32.93544334793165
 21
14.79294382367392
 31
0.0
 11
32.93688482648235
 21
14.79490591022649
 31
0.0
 11
32.93834155930188
 21
14.79681823362524
 31
0.0
 11
32.93988667180912
 21
14.79876977313525
 31
0.0
 11
32.94152418694273
 21
14.8007602631752
 31
0.0
 11
32.94325520595089
 21
14.80278666157342
 31
0.0
 11
32.94415492521591
 21
14.80381117317894
 31
0.0
 11
32.94506654220465
 21
14.804830067032
 31
0.0
 11
32.94598487320326
 21
14.80583784681299
 31
0.0
 11
32.94690850715699
 21
14.80683366749154
 31
0.0
 11
32.94876523793983
 21
14.80878550605415
 31
0.0
 11
32.95062246830742
 21
14.81067685504281
 31
0.0
 11
32.95246404350883
 21
14.81249784004392
 31
0.0
 11
32.95427228874991
 21
14.81423769589808
 31
0.0
 11
32.95602828522226
 21
14.81588489276835
 31
0.0
 11
32.95771206231052
 21
14.81742715062289
 31
0.0
 11
32.9593027134726
 21
14.81885135762051
 31
0.0
  0
SPLINE
  5
86
330
2
100
AcDbEntity
  8
GAIKEI
  6
Continuous
 62
     1
100
AcDbSpline
210
0.0
220
0.0
230
1.0
 70
     8
 71
     3
 72
    41
 73
    37
 74
    35
 42
0.0000000001
 43
0.0000000001
 44
0.000001
 12
-0.4353819225186907
 22
-0.9002458450578536
 32
0.0
 13
-0.5598877767279204
 23
-0.8285684506850756
 33
0.0
 40
0.0
 40
0.0
 40
0.0
 40
0.0
 40
0.0014188981556681
 40
0.005644891511551
 40
0.0126413138108135
 40
0.0164792481111867
 40
0.0208170576424743
 40
0.0256522187933041
 40
0.0309822866874793
 40
0.0368048965486288
 40
0.0431177647878355
 40
0.0499186898280467
 40
0.0729057058812554
 40
0.1010164645422994
 40
0.1080304895441015
 40
0.1153021852383582
 40
0.1228314347323397
 40
0.1306181176540287
 40
0.1386621104766222
 40
0.1469632867771657
 40
0.1555215174959584
 40
0.1642630739514216
 40
0.1739105775431226
 40
0.184468511455269
 40
0.1959416628115404
 40
0.2083351588239719
 40
0.2238438276836132
 40
0.2405950042822374
 40
0.2556503340562806
 40
0.2671428071198638
 40
0.2750469816947931
 40
0.2819138388210206
 40
0.296454416485539
 40
0.3382914855718762
 40
0.3781195110425613
 40
0.4161359202117536
 40
0.4161359202117536
 40
0.4161359202117536
 40
0.4161359202117536
 10
32.90310600250905
 20
14.69404818840483
 30
0.0
 10
32.9029000816401
 20
14.69362240268177
 30
0.0
 10
32.90208330105219
 20
14.69192726758034
 30
0.0
 10
32.90031586531416
 20
14.68810184064793
 30
0.0
 10
32.89826374809519
 20
14.68352019883605
 30
0.0
 10
32.89624158478586
 20
14.67888464111406
 30
0.0
 10
32.89453177580509
 20
14.67489890689656
 30
0.0
 10
32.89265360715416
 20
14.67044428057241
 30
0.0
 10
32.89061377967736
 20
14.66552079796096
 30
0.0
 10
32.8884188083365
 20
14.66012853514772
 30
0.0
 10
32.88607637975537
 20
14.65426709428594
 30
0.0
 10
32.8816742733363
 20
14.64306747143931
 30
0.0
 10
32.87493432701479
 20
14.62498104215083
 30
0.0
 10
32.86851561740468
 20
14.60670395540255
 30
0.0
 10
32.86394138153332
 20
14.59333255896374
 30
0.0
 10
32.86160965739924
 20
14.5864448686107
 30
0.0
 10
32.85921675730839
 20
14.57930601931991
 30
0.0
 10
32.85676334688756
 20
14.57191597647873
 30
0.0
 10
32.85425000166686
 20
14.56427474646017
 30
0.0
 10
32.8516772826618
 20
14.55638233968935
 30
0.0
 10
32.84905347408904
 20
14.54826205269742
 30
0.0
 10
32.84631236475312
 20
14.53970808071166
 30
0.0
 10
32.84337224279759
 20
14.53051793205696
 30
0.0
 10
32.84014558263891
 20
14.5204634614187
 30
0.0
 10
32.83661711836967
 20
14.50954454342945
 30
0.0
 10
32.83254271365212
 20
14.49706785736683
 30
0.0
 10
32.82786878266171
 20
14.48293613792241
 30
0.0
 10
32.8227584673418
 20
14.46801494054946
 30
0.0
 10
32.817950930861
 20
14.45440592094375
 30
0.0
 10
32.81402978545498
 20
14.44361201235016
 30
0.0
 10
32.81099258682923
 20
14.43540113090273
 30
0.0
 10
32.80749800056509
 20
14.4262766799347
 30
0.0
 10
32.79965514290552
 20
14.40670746987679
 30
0.0
 10
32.78658917811964
 20
14.37739791140824
 30
0.0
 10
32.76800864305869
 20
14.34205891293733
 30
0.0
 10
32.75421674737027
 20
14.3200471827125
 30
0.0
 10
32.74712177310062
 20
14.30954745029719
 30
0.0
 11
32.90310600250905
 21
14.69404818840483
 31
0.0
 11
32.90249210812561
 21
14.69276895803948
 31
0.0
 11
32.90070976907589
 21
14.68893722074502
 31
0.0
 11
32.89784773575934
 21
14.68255297652148
 31
0.0
 11
32.89631248048846
 21
14.67903549218211
 31
0.0
 11
32.89460196546645
 21
14.67504918003941
 31
0.0
 11
32.89272301572834
 21
14.67059404009343
 31
0.0
 11
32.8906824060457
 21
14.66567007234415
 31
0.0
 11
32.88848685588255
 21
14.66027727679157
 31
0.0
 11
32.88614302464299
 21
14.65441565343569
 31
0.0
 11
32.8836575072059
 21
14.6480852022765
 31
0.0
 11
32.87559330276327
 21
14.62655919381869
 31
0.0
 11
32.86624401114477
 21
14.60004880769789
 31
0.0
 11
32.86397362140633
 21
14.59341243004361
 31
0.0
 11
32.86164155545851
 21
14.5865248613451
 31
0.0
 11
32.85924839341323
 21
14.57938610160234
 31
0.0
 11
32.85679471905758
 21
14.57199615081536
 31
0.0
 11
32.85428111972277
 21
14.56435500898412
 31
0.0
 11
32.85170818615416
 21
14.55646267610864
 31
0.0
 11
32.849076512382
 21
14.54831915218894
 31
0.0
 11
32.84640614982209
 21
14.53999548794898
 31
0.0
 11
32.84346439006185
 21
14.53080746750531
 31
0.0
 11
32.84023654835983
 21
14.52075509085792
 31
0.0
 11
32.83670704962026
 21
14.50983835800677
 31
0.0
 11
32.83285946365834
 21
14.49805726895194
 31
0.0
 11
32.82797495616586
 21
14.48333790926601
 31
0.0
 11
32.82254958822341
 21
14.46748967582986
 31
0.0
 11
32.81753254614768
 21
14.45329488780875
 31
0.0
 11
32.81360990567441
 21
14.44249257182043
 31
0.0
 11
32.81085846804899
 21
14.43508272786498
 31
0.0
 11
32.80840331124051
 21
14.428669768467
 31
0.0
 11
32.80299685212333
 21
14.41517166385931
 31
0.0
 11
32.78590071268218
 21
14.37698705838379
 31
0.0
 11
32.76728165781066
 21
14.34177898719638
 31
0.0
 11
32.74712177310062
 21
14.30954745029719
 31
0.0
  0
SPLINE
  5
87
330
2
100
AcDbEntity
  8
GAIKEI
  6
Continuous
 62
     1
100
AcDbSpline
210
0.0
220
0.0
230
1.0
 70
     8
 71
     3
 72
    25
 73
    21
 74
    19
 42
0.0000000001
 43
0.0000000001
 44
0.000001
 12
0.0281905901065335
 22
-0.9996025663379647
 32
0.0
 13
-0.4008655609207863
 23
-0.916136890463245
 33
0.0
 40
0.0
 40
0.0
 40
0.0
 40
0.0
 40
0.0108642250676617
 40
0.0216568857620733
 40
0.0326063958987582
 40
0.0433262346926784
 40
0.0534690969873172
 40
0.0632547433492301
 40
0.0728733530304742
 40
0.0819780700940557
 40
0.0903746034312835
 40
0.0981541992728602
 40
0.1054556263380665
 40
0.1119952017291992
 40
0.1175898577971874
 40
0.1223753842863795
 40
0.1264164536402339
 40
0.1295339844560013
 40
0.1322586066750055
 40
0.1332252651170845
 40
0.1332252651170845
 40
0.1332252651170845
 40
0.1332252651170845
 10
30.07817742744038
 20
11.51737672157945
 30
0.0
 10
30.07827951707895
 20
11.51375675249315
 30
0.0
 10
30.07844685071635
 20
11.50653954140979
 30
0.0
 10
30.07857026497215
 20
11.49567126299874
 30
0.0
 10
30.07860688964072
 20
11.48485057519805
 30
0.0
 10
30.07857862598169
 20
11.47424649994575
 30
0.0
 10
30.07851492492708
 20
11.46403057343038
 30
0.0
 10
30.07843563871927
 20
11.45418185210654
 30
0.0
 10
30.07835970943941
 20
11.44467916414511
 30
0.0
 10
30.07829969089454
 20
11.43563940494958
 30
0.0
 10
30.07826826117412
 20
11.42721249229322
 30
0.0
 10
30.07826675959328
 20
11.4193866459413
 30
0.0
 10
30.07829939098798
 20
11.41217973063443
 30
0.0
 10
30.07835654618526
 20
11.40570171674555
 30
0.0
 10
30.07843769561637
 20
11.40006141301882
 30
0.0
 10
30.07850313050545
 20
11.39525760274255
 30
0.0
 10
30.07860508854168
 20
11.39126925674969
 30
0.0
 10
30.07853520360834
 20
11.38799519733847
 30
0.0
 10
30.0787421136194
 20
11.3856756835917
 30
0.0
 10
30.07830659413324
 20
11.38450948350761
 30
0.0
 10
30.07817742744038
 20
11.38421428635452
 30
0.0
 11
30.07817742744038
 21
11.51737672157945
 31
0.0
 11
30.07842494042427
 21
11.50651553160172
 31
0.0
 11
30.07855445656657
 21
11.49572364657597
 31
0.0
 11
30.07859500940225
 21
11.48477421171183
 31
0.0
 11
30.07857057729314
 21
11.4740544012531
 31
0.0
 11
30.07851007833125
 21
11.46391171995476
 31
0.0
 11
30.07843430820515
 21
11.45412636751693
 31
0.0
 11
30.07835958460595
 21
11.44450804871532
 31
0.0
 11
30.07830173653315
 21
11.43540351609753
 31
0.0
 11
30.07827165311784
 21
11.42700703743922
 31
0.0
 11
30.07827206203894
 21
11.41922744259717
 31
0.0
 11
30.07830507407721
 21
11.41192609157021
 31
0.0
 11
30.0783648842704
 21
11.40538679174044
 31
0.0
 11
30.07843981688598
 21
11.39979264058094
 31
0.0
 11
30.07851590554219
 21
11.39500772393784
 31
0.0
 11
30.07857639231332
 21
11.39096711605695
 31
0.0
 11
30.07859377083696
 21
11.38784965094036
 31
0.0
 11
30.07849621229752
 21
11.38512692144159
 31
0.0
 11
30.07817742744038
 21
11.38421428635452
 31
0.0
  0
SPLINE
  5
88
330
2
100
AcDbEntity
  8
GAIKEI
  6
Continuous
 62
     1
100
AcDbSpline
210
0.0
220
0.0
230
1.0
 70
     8
 71
     3
 72
    25
 73
    21
 74
    19
 42
0.0000000001
 43
0.0000000001
 44
0.000001
 12
0.5909511587252206
 22
-0.8067073372675617
 32
0.0
 13
-0.0272811889574892
 23
-0.999627799097777
 33
0.0
 40
0.0
 40
0.0
 40
0.0
 40
0.0
 40
0.0004955099168236
 40
0.0018178620006157
 40
0.0040907347726492
 40
0.0072755829690934
 40
0.0112339836522919
 40
0.0160079251331016
 40
0.0217345560386104
 40
0.0282471715098582
 40
0.0353831516206092
 40
0.0431870615596816
 40
0.0518586981817737
 40
0.0611185243132706
 40
0.0706522526823895
 40
0.080616716436333
 40
0.0912501549405677
 40
0.1021898340907224
 40
0.1174982836900141
 40
0.1332424412970001
 40
0.1332424412970001
 40
0.1332424412970001
 40
0.1332424412970001
 10
30.07817742744038
 20
35.38276204318679
 30
0.0
 10
30.07827503482687
 20
35.38262879935826
 30
0.0
 10
30.0786010209585
 20
35.3821010328457
 30
0.0
 10
30.07851755748593
 20
35.38067644036288
 30
0.0
 10
30.07863618385545
 20
35.37845214729014
 30
0.0
 10
30.07855941924322
 20
35.37529772214254
 30
0.0
 10
30.07851092278503
 20
35.37133183426762
 30
0.0
 10
30.07842618126483
 20
35.36651069385469
 30
0.0
 10
30.0783538579725
 20
35.36084084068789
 30
0.0
 10
30.07829562382418
 20
35.35438242446733
 30
0.0
 10
30.07826698404457
 20
35.34723169634788
 30
0.0
 10
30.07826822891326
 20
35.33936114332691
 30
0.0
 10
30.07830322679789
 20
35.33078274770958
 30
0.0
 10
30.07836415793173
 20
35.32162787936326
 30
0.0
 10
30.07844237590609
 20
35.31204219173222
 30
0.0
 10
30.07852152591849
 20
35.30199862860206
 30
0.0
 10
30.07858533493601
 20
35.29148627204843
 30
0.0
 10
30.07860810107818
 20
35.27919241893369
 30
0.0
 10
30.07853566238876
 20
35.26519482597426
 30
0.0
 10
30.07832060055327
 20
35.25484570716761
 30
0.0
 10
30.07817742744038
 20
35.24959960796183
 30
0.0
 11
30.07817742744038
 21
35.38276204318679
 31
0.0
 11
30.07842494042427
 21
35.38233270496373
 31
0.0
 11
30.07855445656657
 21
35.38101690183668
 31
0.0
 11
30.07859500940225
 21
35.37874442518602
 31
0.0
 11
30.07857057729314
 21
35.37555968622188
 31
0.0
 11
30.07851007833125
 21
35.37160175614797
 31
0.0
 11
30.07843430820515
 21
35.36682842099309
 31
0.0
 11
30.07835958460595
 21
35.36110228086021
 31
0.0
 11
30.07830173653315
 21
35.35458992444985
 31
0.0
 11
30.07827165311784
 21
35.34745400918472
 31
0.0
 11
30.07827206203888
 21
35.33965010029105
 31
0.0
 11
30.07830507407721
 21
35.33097852728928
 31
0.0
 11
30.0783648842704
 21
35.32171889493656
 31
0.0
 11
30.07843981688598
 21
35.31218546151824
 31
0.0
 11
30.07851590554219
 21
35.30222128864823
 31
0.0
 11
30.07857639231332
 21
35.29158802239498
 31
0.0
 11
30.07859377083696
 21
35.28064835693486
 31
0.0
 11
30.07849621229752
 21
35.26534021588678
 31
0.0
 11
30.07817742744038
 21
35.24959960796183
 31
0.0
  0
SPLINE
  5
89
330
2
100
AcDbEntity
  8
GAIKEI
  6
Continuous
 62
     1
100
AcDbSpline
210
0.0
220
0.0
230
1.0
 70
     8
 71
     3
 72
    19
 73
    15
 74
    13
 42
0.0000000001
 43
0.0000000001
 44
0.000001
 12
0.0213842593146391
 22
0.9997713305819308
 32
0.0
 13
-0.1213258174957188
 23
0.9926127371785009
 33
0.0
 40
0.0
 40
0.0
 40
0.0
 40
0.0
 40
0.0113484976343809
 40
0.0224435594540862
 40
0.0331022403675684
 40
0.0433328148777513
 40
0.0530063883185429
 40
0.0665828207561426
 40
0.0785040285380708
 40
0.0883020525193522
 40
0.0960449799608868
 40
0.0997746755134396
 40
0.1024788578004947
 40
0.104067500243334
 40
0.104067500243334
 40
0.104067500243334
 40
0.104067500243334
 10
30.0371043115116
 20
35.25289223116305
 30
0.0
 10
30.03718520458369
 20
35.25667419868972
 30
0.0
 10
30.03727541136652
 20
35.26415563454936
 30
0.0
 10
30.03714762116497
 20
35.27518952452979
 30
0.0
 10
30.03692526955598
 20
35.28584864770363
 30
0.0
 10
30.03666665039367
 20
35.29603298438988
 30
0.0
 10
30.03639772331664
 20
35.30718997923617
 30
0.0
 10
30.03623213033751
 20
35.31891284769204
 30
0.0
 10
30.03626164861473
 20
35.33067915388205
 30
0.0
 10
30.03652593403677
 20
35.34049670644782
 30
0.0
 10
30.03687969970926
 20
35.34758011785462
 30
0.0
 10
30.03712152237421
 20
35.35229635684202
 30
0.0
 10
30.03729694223049
 20
35.35497106017135
 30
0.0
 10
30.03716855929264
 20
35.35639974810801
 30
0.0
 10
30.0371043115116
 20
35.35692538368254
 30
0.0
 11
30.0371043115116
 21
35.25289223116305
 31
0.0
 11
30.03723021388192
 21
35.26423999107997
 31
0.0
 11
30.03712744317829
 21
35.27533457511881
 31
0.0
 11
30.03691308174353
 21
35.28599109814753
 31
0.0
 11
30.03666319646033
 21
35.29621861914025
 31
0.0
 11
30.03644145211775
 21
35.3058896502286
 31
0.0
 11
30.03626341841613
 21
35.31946491550413
 31
0.0
 11
30.03631564804436
 21
35.33138600962012
 31
0.0
 11
30.03658529965691
 21
35.34118032171931
 31
0.0
 11
30.03694767320667
 21
35.34891475933061
 31
0.0
 11
30.037148412536
 21
35.35263903601039
 31
0.0
 11
30.03723214854768
 21
35.35534186940491
 31
0.0
 11
30.0371043115116
 21
35.35692538368254
 31
0.0
  0
LINE
  5
8A
330
2
100
AcDbEntity
  8
GAIKEI
  6
Continuous
 62
     1
100
AcDbLine
 10
31.54883461789592
 20
30.76493465987743
 30
0.0
 11
32.21270223142295
 21
30.78811741951045
 31
0.0
  0
LINE
  5
8B
330
2
100
AcDbEntity
  8
GAIKEI
  6
Continuous
 62
     1
100
AcDbLine
 10
32.21270223142295
 20
34.19524385322079
 30
0.0
 11
31.54883461789592
 21
34.2184266128538
 31
0.0
  0
LINE
  5
8C
330
2
100
AcDbEntity
  8
GAIKEI
  6
Continuous
 62
     1
100
AcDbLine
 10
31.47688429225781
 20
34.13219578515533
 30
0.0
 11
31.47688429225781
 21
30.85116548757593
 31
0.0
  0
LINE
  5
8D
330
2
100
AcDbEntity
  8
GAIKEI
  6
Continuous
 62
     1
100
AcDbLine
 10
31.43464220599788
 20
30.85116548757593
 30
0.0
 11
31.47688429225781
 21
30.85116548757593
 31
0.0
  0
LINE
  5
8E
330
2
100
AcDbEntity
  8
GAIKEI
  6
Continuous
 62
     1
100
AcDbLine
 10
31.47688429225781
 20
34.13219578515533
 30
0.0
 11
31.43464220599788
 21
34.13219578515533
 31
0.0
  0
LINE
  5
8F
330
2
100
AcDbEntity
  8
GAIKEI
  6
Continuous
 62
     1
100
AcDbLine
 10
32.62768113285387
 20
30.74066830397415
 30
0.0
 11
32.88112309675523
 21
32.58355345167927
 31
0.0
  0
LINE
  5
90
330
2
100
AcDbEntity
  8
GAIKEI
  6
Continuous
 62
     1
100
AcDbLine
 10
32.56163023134007
 20
30.74975191099183
 30
0.0
 11
32.76292068131579
 21
32.21342104819716
 31
0.0
  0
LINE
  5
91
330
2
100
AcDbEntity
  8
GAIKEI
  6
Continuous
 62
     1
100
AcDbLine
 10
32.76292068131579
 20
32.7699402245341
 30
0.0
 11
32.56163023134007
 21
34.23360936173942
 31
0.0
  0
LINE
  5
92
330
2
100
AcDbEntity
  8
GAIKEI
  6
Continuous
 62
     1
100
AcDbLine
 10
32.77160308602271
 20
32.34028198560894
 30
0.0
 11
32.77160308602271
 21
32.64307928712232
 31
0.0
  0
LINE
  5
93
330
2
100
AcDbEntity
  8
GAIKEI
  6
Continuous
 62
     1
100
AcDbLine
 10
32.35557089101366
 20
31.00230961572
 30
0.0
 11
32.46122981143481
 21
31.77060090659173
 31
0.0
  0
LINE
  5
94
330
2
100
AcDbEntity
  8
GAIKEI
  6
Continuous
 62
     1
100
AcDbLine
 10
32.46849542360247
 20
31.83757852377134
 30
0.0
 11
32.5298871445126
 21
32.28398381722686
 31
0.0
  0
LINE
  5
95
330
2
100
AcDbEntity
  8
GAIKEI
  6
Continuous
 62
     1
100
AcDbLine
 10
32.33997570548581
 20
30.90305639773594
 30
0.0
 11
32.34451104175344
 21
30.93603492765759
 31
0.0
  0
LINE
  5
96
330
2
100
AcDbEntity
  8
GAIKEI
  6
Continuous
 62
     1
100
AcDbLine
 10
32.43174475855187
 20
34.37354016032087
 30
0.0
 11
31.43540180681663
 21
34.58704222855049
 31
0.0
  0
LINE
  5
97
330
2
100
AcDbEntity
  8
GAIKEI
  6
Continuous
 62
     1
100
AcDbLine
 10
32.5298871445126
 20
32.69937745550441
 30
0.0
 11
32.45863864789396
 21
33.2174557832959
 31
0.0
  0
LINE
  5
98
330
2
100
AcDbEntity
  8
GAIKEI
  6
Continuous
 62
     1
100
AcDbLine
 10
32.45137303572631
 20
33.28443340047552
 30
0.0
 11
32.35557089101366
 21
33.98105165701127
 31
0.0
  0
LINE
  5
99
330
2
100
AcDbEntity
  8
GAIKEI
  6
Continuous
 62
     1
100
AcDbLine
 10
32.34451104175344
 20
34.04732634507367
 30
0.0
 11
32.33997570548581
 21
34.08030487499529
 31
0.0
  0
LINE
  5
9A
330
2
100
AcDbEntity
  8
GAIKEI
  6
Continuous
 62
     1
100
AcDbLine
 10
32.53112878815767
 20
32.3021261623861
 30
0.0
 11
32.53112878815767
 21
32.68123511034513
 31
0.0
  0
LINE
  5
9B
330
2
100
AcDbEntity
  8
GAIKEI
  6
Continuous
 62
     1
100
AcDbLine
 10
31.43464220599788
 20
30.32797012907226
 30
0.0
 11
32.44571459967881
 21
30.54462848714867
 31
0.0
  0
LINE
  5
9C
330
2
100
AcDbEntity
  8
GAIKEI
  6
Continuous
 62
     1
100
AcDbLine
 10
31.43540180681663
 20
30.39631904418075
 30
0.0
 11
32.43174475855187
 21
30.60982111241036
 31
0.0
  0
LINE
  5
9D
330
2
100
AcDbEntity
  8
GAIKEI
  6
Continuous
 62
     1
100
AcDbLine
 10
31.43464220599788
 20
30.39631904418075
 30
0.0
 11
31.43540180681663
 21
30.39631904418075
 31
0.0
  0
LINE
  5
9E
330
2
100
AcDbEntity
  8
GAIKEI
  6
Continuous
 62
     1
100
AcDbLine
 10
31.43540180681663
 20
34.58704222855049
 30
0.0
 11
31.43464220599788
 21
34.58704222855049
 31
0.0
  0
LINE
  5
9F
330
2
100
AcDbEntity
  8
GAIKEI
  6
Continuous
 62
     1
100
AcDbLine
 10
32.62694463408752
 20
30.74076957963847
 30
0.0
 11
32.62718272190671
 21
30.74073684339673
 31
0.0
  0
LINE
  5
A0
330
2
100
AcDbEntity
  8
GAIKEI
  6
Continuous
 62
     1
100
AcDbLine
 10
32.62718272190671
 20
30.74073684339673
 30
0.0
 11
32.62768113285387
 21
30.74066830397415
 31
0.0
  0
LINE
  5
A1
330
2
100
AcDbEntity
  8
GAIKEI
  6
Continuous
 62
     1
100
AcDbLine
 10
32.44555881917205
 20
30.54535545173461
 30
0.0
 11
32.44560919031386
 21
30.54512043085457
 31
0.0
  0
LINE
  5
A2
330
2
100
AcDbEntity
  8
GAIKEI
  6
Continuous
 62
     1
100
AcDbLine
 10
32.44560919031386
 20
30.54512043085457
 30
0.0
 11
32.44571459967881
 21
30.54462848714867
 31
0.0
  0
LINE
  5
A3
330
2
100
AcDbEntity
  8
GAIKEI
  6
Continuous
 62
     1
100
AcDbLine
 10
32.5298871445126
 20
32.28398381722686
 30
0.0
 11
32.53112878815767
 21
32.3021261623861
 31
0.0
  0
LINE
  5
A4
330
2
100
AcDbEntity
  8
GAIKEI
  6
Continuous
 62
     1
100
AcDbLine
 10
32.44555881917205
 20
34.43800582099665
 30
0.0
 11
32.44560919031386
 21
34.43824084187666
 31
0.0
  0
LINE
  5
A5
330
2
100
AcDbEntity
  8
GAIKEI
  6
Continuous
 62
     1
100
AcDbLine
 10
32.44560919031386
 20
34.43824084187666
 30
0.0
 11
32.44571459967881
 21
34.43873278558259
 31
0.0
  0
LINE
  5
A6
330
2
100
AcDbEntity
  8
GAIKEI
  6
Continuous
 62
     1
100
AcDbLine
 10
32.53112878815767
 20
32.68123511034513
 30
0.0
 11
32.5298871445126
 21
32.69937745550441
 31
0.0
  0
LINE
  5
A7
330
2
100
AcDbEntity
  8
GAIKEI
  6
Continuous
 62
     1
100
AcDbLine
 10
31.47688429225781
 20
30.85116548757593
 30
0.0
 11
31.47793675242849
 21
30.84153413189445
 31
0.0
  0
LINE
  5
A8
330
2
100
AcDbEntity
  8
GAIKEI
  6
Continuous
 62
     1
100
AcDbLine
 10
31.48388528091544
 20
30.81223306202388
 30
0.0
 11
31.48449960216044
 21
30.81353661116883
 31
0.0
  0
ELLIPSE
  5
A9
330
2
100
AcDbEntity
  8
GAIKEI
  6
Continuous
 62
     1
100
AcDbEllipse
 10
31.5178308300836
 20
30.81353661116883
 30
0.0
 11
-0.023564856710522
 21
0.023564856710522
 31
0.0
210
0.0
220
0.0
230
1.0
 40
0.9990757796463732
 41
0.7858604317907339
 42
0.8903589325719298
  0
LINE
  5
AA
330
2
100
AcDbEntity
  8
GAIKEI
  6
Continuous
 62
     1
100
AcDbLine
 10
31.52499830019866
 20
16.83385633749573
 30
0.0
 11
31.52499830019866
 21
17.70060000853577
 31
0.0
  0
LINE
  5
AB
330
2
100
AcDbEntity
  8
GAIKEI
  6
Continuous
 62
     1
100
AcDbLine
 10
31.43464220599788
 20
17.70060000853577
 30
0.0
 11
31.52499830019866
 21
17.70060000853577
 31
0.0
  0
LINE
  5
AC
330
2
100
AcDbEntity
  8
GAIKEI
  6
Continuous
 62
     1
100
AcDbLine
 10
31.52499830019866
 20
16.83385633749573
 30
0.0
 11
31.43464220599788
 21
16.83385633749573
 31
0.0
  0
LINE
  5
AD
330
2
100
AcDbEntity
  8
GAIKEI
  6
Continuous
 62
     1
100
AcDbLine
 10
31.52499830019866
 20
29.20305513066951
 30
0.0
 11
31.52499830019866
 21
30.06979880170955
 31
0.0
  0
LINE
  5
AE
330
2
100
AcDbEntity
  8
GAIKEI
  6
Continuous
 62
     1
100
AcDbLine
 10
31.52499830019866
 20
29.20305513066951
 30
0.0
 11
31.43464220599788
 21
29.20305513066951
 31
0.0
  0
LINE
  5
AF
330
2
100
AcDbEntity
  8
GAIKEI
  6
Continuous
 62
     1
100
AcDbLine
 10
31.43464220599788
 20
30.06979880170955
 30
0.0
 11
31.52499830019866
 21
30.06979880170955
 31
0.0
  0
LINE
  5
B0
330
2
100
AcDbEntity
  8
GAIKEI
  6
Continuous
 62
     1
100
AcDbLine
 10
32.51058672979997
 20
30.56990344339705
 30
0.0
 11
32.51058672979997
 21
29.74643673982154
 31
0.0
  0
LINE
  5
B1
330
2
100
AcDbEntity
  8
GAIKEI
  6
Continuous
 62
     1
100
AcDbLine
 10
32.53593021473228
 20
29.74643673982154
 30
0.0
 11
32.51058672979997
 21
29.74643673982154
 31
0.0
  0
LINE
  5
B2
330
2
100
AcDbEntity
  8
GAIKEI
  6
Continuous
 62
     1
100
AcDbLine
 10
32.53593021473228
 20
29.74643673982154
 30
0.0
 11
32.53593021473228
 21
29.31306490430153
 31
0.0
  0
LINE
  5
B3
330
2
100
AcDbEntity
  8
GAIKEI
  6
Continuous
 62
     1
100
AcDbLine
 10
32.51058672979997
 20
29.31306490430153
 30
0.0
 11
32.53593021473228
 21
29.31306490430153
 31
0.0
  0
LINE
  5
B4
330
2
100
AcDbEntity
  8
GAIKEI
  6
Continuous
 62
     1
100
AcDbLine
 10
32.51058672979997
 20
29.31306490430153
 30
0.0
 11
32.51058672979997
 21
17.39390609416775
 31
0.0
  0
LINE
  5
B5
330
2
100
AcDbEntity
  8
GAIKEI
  6
Continuous
 62
     1
100
AcDbLine
 10
32.53593021473228
 20
17.39390609416775
 30
0.0
 11
32.51058672979997
 21
17.39390609416775
 31
0.0
  0
LINE
  5
B6
330
2
100
AcDbEntity
  8
GAIKEI
  6
Continuous
 62
     1
100
AcDbLine
 10
32.53593021473228
 20
17.39390609416775
 30
0.0
 11
32.53593021473228
 21
16.96053425864771
 31
0.0
  0
LINE
  5
B7
330
2
100
AcDbEntity
  8
GAIKEI
  6
Continuous
 62
     1
100
AcDbLine
 10
32.51058672979997
 20
16.96053425864771
 30
0.0
 11
32.53593021473228
 21
16.96053425864771
 31
0.0
  0
LINE
  5
B8
330
2
100
AcDbEntity
  8
GAIKEI
  6
Continuous
 62
     1
100
AcDbLine
 10
32.51058672979997
 20
16.96053425864771
 30
0.0
 11
32.51058672979997
 21
14.81942666890386
 31
0.0
  0
LINE
  5
B9
330
2
100
AcDbEntity
  8
GAIKEI
  6
Continuous
 62
     7
100
AcDbLine
 10
31.43464220599788
 20
12.09073322555683
 30
0.0
 11
32.00034367087563
 21
12.12038040591265
 31
0.0
  0
LINE
  5
BA
330
2
100
AcDbEntity
  8
GAIKEI
  6
Continuous
 62
     7
100
AcDbLine
 10
32.33790942191035
 20
14.29756670513929
 30
0.0
 11
32.34038447513558
 21
14.29972429682688
 31
0.0
  0
LINE
  5
BB
330
2
100
AcDbEntity
  8
GAIKEI
  6
Continuous
 62
     7
100
AcDbLine
 10
32.22137876894186
 20
12.53341947246652
 30
0.0
 11
32.22137876894186
 21
14.04428626953465
 31
0.0
  0
LINE
  5
BC
330
2
100
AcDbEntity
  8
GAIKEI
  6
Continuous
 62
     7
100
AcDbLine
 10
32.34046014852538
 20
14.29965709085609
 30
0.0
 11
32.60445970311861
 21
14.52117903826495
 31
0.0
  0
LINE
  5
BD
330
2
100
AcDbEntity
  8
GAIKEI
  6
Continuous
 62
     1
100
AcDbLine
 10
32.6409910486841
 20
14.55183247665512
 30
0.0
 11
32.6409910486841
 21
16.96053425864771
 31
0.0
  0
LINE
  5
BE
330
2
100
AcDbEntity
  8
GAIKEI
  6
Continuous
 62
     1
100
AcDbLine
 10
32.6409910486841
 20
29.74643673982154
 30
0.0
 11
32.6409910486841
 21
30.83745040676097
 31
0.0
  0
LINE
  5
BF
330
2
100
AcDbEntity
  8
GAIKEI
  6
Continuous
 62
     1
100
AcDbLine
 10
32.6409910486841
 20
17.39390609416775
 30
0.0
 11
32.6409910486841
 21
29.31306490430153
 31
0.0
  0
LINE
  5
C0
330
2
100
AcDbEntity
  8
GAIKEI
  6
Continuous
 62
     1
100
AcDbLine
 10
32.53593021473228
 20
29.31306490430153
 30
0.0
 11
32.66633453361647
 21
29.31306490430153
 31
0.0
  0
LINE
  5
C1
330
2
100
AcDbEntity
  8
GAIKEI
  6
Continuous
 62
     1
100
AcDbLine
 10
32.66633453361647
 20
29.74643673982154
 30
0.0
 11
32.53593021473228
 21
29.74643673982154
 31
0.0
  0
LINE
  5
C2
330
2
100
AcDbEntity
  8
GAIKEI
  6
Continuous
 62
     1
100
AcDbLine
 10
32.66633453361647
 20
17.39390609416775
 30
0.0
 11
32.53593021473228
 21
17.39390609416775
 31
0.0
  0
LINE
  5
C3
330
2
100
AcDbEntity
  8
GAIKEI
  6
Continuous
 62
     1
100
AcDbLine
 10
32.53593021473228
 20
16.96053425864771
 30
0.0
 11
32.66633453361647
 21
16.96053425864771
 31
0.0
  0
LINE
  5
C4
330
2
100
AcDbEntity
  8
GAIKEI
  6
Continuous
 62
     7
100
AcDbLine
 10
32.22137876894186
 20
12.35340907974806
 30
0.0
 11
32.22137876894186
 21
12.53341947246652
 31
0.0
  0
LINE
  5
C5
330
2
100
AcDbEntity
  8
GAIKEI
  6
Continuous
 62
     1
100
AcDbLine
 10
32.66633453361647
 20
29.31306490430153
 30
0.0
 11
32.68975371425393
 21
29.31306490430153
 31
0.0
  0
LINE
  5
C6
330
2
100
AcDbEntity
  8
GAIKEI
  6
Continuous
 62
     1
100
AcDbLine
 10
32.68975371425393
 20
29.74643673982154
 30
0.0
 11
32.66633453361647
 21
29.74643673982154
 31
0.0
  0
LINE
  5
C7
330
2
100
AcDbEntity
  8
GAIKEI
  6
Continuous
 62
     1
100
AcDbLine
 10
32.68975371425393
 20
17.39390609416775
 30
0.0
 11
32.66633453361647
 21
17.39390609416775
 31
0.0
  0
LINE
  5
C8
330
2
100
AcDbEntity
  8
GAIKEI
  6
Continuous
 62
     1
100
AcDbLine
 10
32.66633453361647
 20
16.96053425864771
 30
0.0
 11
32.68975371425393
 21
16.96053425864771
 31
0.0
  0
LINE
  5
C9
330
2
100
AcDbEntity
  8
GAIKEI
  6
Continuous
 62
     7
100
AcDbLine
 10
32.60445970311861
 20
14.52117903826495
 30
0.0
 11
33.02858175019014
 21
14.87705968921192
 31
0.0
  0
LINE
  5
CA
330
2
100
AcDbEntity
  8
GAIKEI
  6
Continuous
 62
     7
100
AcDbLine
 10
32.5105867449376
 20
34.43202325627478
 30
0.0
 11
31.43464220599788
 21
34.66072230956029
 31
0.0
  0
LINE
  5
CB
330
2
100
AcDbEntity
  8
GAIKEI
  6
Continuous
 62
     1
100
AcDbLine
 10
31.46650853710804
 20
11.89318385848447
 30
0.0
 11
31.61485505003606
 21
11.93293318994652
 31
0.0
  0
LINE
  5
CC
330
2
100
AcDbEntity
  8
GAIKEI
  6
Continuous
 62
     1
100
AcDbLine
 10
31.68957628851797
 20
11.97607352267628
 30
0.0
 11
31.77943403844421
 21
12.06593127260255
 31
0.0
  0
LINE
  5
CD
330
2
100
AcDbEntity
  8
GAIKEI
  6
Continuous
 62
     7
100
AcDbLine
 10
32.8536193059482
 20
32.77925308525276
 30
0.0
 11
32.64099106014209
 21
34.29218174899729
 31
0.0
  0
LINE
  5
CE
330
2
100
AcDbEntity
  8
GAIKEI
  6
Continuous
 62
     7
100
AcDbLine
 10
33.08812243998193
 20
31.11067664340503
 30
0.0
 11
32.8536193059482
 21
32.77925308525276
 31
0.0
  0
LINE
  5
CF
330
2
100
AcDbEntity
  8
GAIKEI
  6
Continuous
 62
     7
100
AcDbLine
 10
32.34046014852538
 20
14.29965709085609
 30
0.0
 11
32.33273436214097
 21
14.292477419657
 31
0.0
  0
LINE
  5
D0
330
2
100
AcDbEntity
  8
GAIKEI
  6
Continuous
 62
     1
100
AcDbLine
 10
32.3773629937628
 20
13.99928300462916
 30
0.0
 11
32.74712177768902
 21
14.30954743621372
 31
0.0
  0
LINE
  5
D1
330
2
100
AcDbEntity
  8
GAIKEI
  6
Continuous
 62
     1
100
AcDbLine
 10
32.3773629937628
 20
12.46057616749313
 30
0.0
 11
32.3773629937628
 21
13.39367413366811
 31
0.0
  0
LINE
  5
D2
330
2
100
AcDbEntity
  8
GAIKEI
  6
Continuous
 62
     1
100
AcDbLine
 10
32.3773629937628
 20
13.86038226422813
 30
0.0
 11
32.3773629937628
 21
13.99928300462916
 31
0.0
  0
LINE
  5
D3
330
2
100
AcDbEntity
  8
GAIKEI
  6
Continuous
 62
     1
100
AcDbLine
 10
32.01216688454286
 20
12.12100000129327
 30
0.0
 11
32.58718992089507
 21
12.15113571000829
 31
0.0
  0
LINE
  5
D4
330
2
100
AcDbEntity
  8
GAIKEI
  6
Continuous
 62
     1
100
AcDbLine
 10
32.9031060025099
 20
12.48404178558955
 30
0.0
 11
32.9031060025099
 21
14.6940481965325
 31
0.0
  0
LINE
  5
D5
330
2
100
AcDbEntity
  8
GAIKEI
  6
Continuous
 62
     7
100
AcDbLine
 10
33.08812243998193
 20
31.11067664340503
 30
0.0
 11
33.08812243998193
 21
15.00474509987263
 31
0.0
  0
LINE
  5
D6
330
2
100
AcDbEntity
  8
GAIKEI
  6
Continuous
 62
     7
100
AcDbLine
 10
32.6846531277676
 20
33.98150996439547
 30
0.0
 11
33.08812243998193
 21
31.11067664340503
 31
0.0
  0
LINE
  5
D7
330
2
100
AcDbEntity
  8
GAIKEI
  6
Continuous
 62
     7
100
AcDbLine
 10
32.6846531277676
 20
33.98150996439547
 30
0.0
 11
33.08812243998193
 21
31.11067664340503
 31
0.0
  0
LINE
  5
D8
330
2
100
AcDbEntity
  8
GAIKEI
  6
Continuous
 62
     7
100
AcDbLine
 10
32.6846531277676
 20
33.98150996439547
 30
0.0
 11
33.08812243998193
 21
31.11067664340503
 31
0.0
  0
LINE
  5
D9
330
2
100
AcDbEntity
  8
GAIKEI
  6
Continuous
 62
     1
100
AcDbLine
 10
33.08812243998193
 20
30.05777573354043
 30
0.0
 11
33.08812243998193
 21
29.43509774610264
 31
0.0
  0
ARC
  5
DA
330
2
100
AcDbEntity
  8
GAIKEI
  6
Continuous
 62
     7
100
AcDbCircle
 10
32.55474171934191
 20
14.04428626953465
 30
0.0
 40
0.3333629504000126
100
AcDbArc
 50
130.5742470000072
 51
180.0
  0
ARC
  5
DB
330
2
100
AcDbEntity
  8
GAIKEI
  6
Continuous
 62
     7
100
AcDbCircle
 10
31.98802470366189
 20
12.35340907974806
 30
0.0
 40
0.2333540652800088
100
AcDbArc
 50
273.0000000000023
 51
0.0
  0
ARC
  5
DC
330
2
100
AcDbEntity
  8
GAIKEI
  6
Continuous
 62
     1
100
AcDbCircle
 10
32.11136899530988
 20
13.59356845960759
 30
0.0
 40
0.2300204357760087
100
AcDbArc
 50
0.0
 51
61.42812185785633
  0
ARC
  5
DD
330
2
100
AcDbEntity
  8
GAIKEI
  6
Continuous
 62
     1
100
AcDbCircle
 10
32.11136899530988
 20
13.59356845960759
 30
0.0
 40
0.2300204357760087
100
AcDbArc
 50
298.5718781421436
 51
0.0
  0
ARC
  5
DE
330
2
100
AcDbEntity
  8
GAIKEI
  6
Continuous
 62
     1
100
AcDbCircle
 10
31.50964886983786
 20
11.73218192120673
 30
0.0
 40
0.1666814752000063
100
AcDbArc
 50
105.0000000000045
 51
116.7436839999979
  0
ARC
  5
DF
330
2
100
AcDbEntity
  8
GAIKEI
  6
Continuous
 62
     1
100
AcDbCircle
 10
31.89729564299216
 20
11.9480696680546
 30
0.0
 40
0.1666814752000063
100
AcDbArc
 50
133.298892999993
 51
134.9999999999919
  0
ARC
  5
E0
330
2
100
AcDbEntity
  8
GAIKEI
  6
Continuous
 62
     1
100
AcDbCircle
 10
31.5717147173063
 20
12.09393512722424
 30
0.0
 40
0.1666814752000063
100
AcDbArc
 50
285.0000000000045
 51
314.9999999999919
  0
ARC
  5
E1
330
2
100
AcDbEntity
  8
GAIKEI
  6
Continuous
 62
     7
100
AcDbCircle
 10
32.47593171760076
 20
34.26898417122111
 30
0.0
 40
0.1666814752000063
100
AcDbArc
 50
7.999999999998456
 51
78.00000000000038
  0
ARC
  5
E2
330
2
100
AcDbEntity
  8
GAIKEI
  6
Continuous
 62
     1
100
AcDbCircle
 10
33.06978747770989
 20
14.6940481965325
 30
0.0
 40
0.1666814752000063
100
AcDbArc
 50
179.1867999999952
 51
180.0
  0
ARC
  5
E3
330
2
100
AcDbEntity
  8
GAIKEI
  6
Continuous
 62
     1
100
AcDbCircle
 10
32.56974305210986
 20
12.48404178558955
 30
0.0
 40
0.3333629504000126
100
AcDbArc
 50
273.0000000000023
 51
0.0
  0
ARC
  5
E4
330
2
100
AcDbEntity
  8
GAIKEI
  6
Continuous
 62
     7
100
AcDbCircle
 10
32.92144096478194
 20
15.00474509987263
 30
0.0
 40
0.1666814752000063
100
AcDbArc
 50
309.999999999999
 51
0.0
  0
ARC
  5
E5
330
2
100
AcDbEntity
  8
GAIKEI
  6
Continuous
 62
     1
100
AcDbCircle
 10
33.06978747770989
 20
14.6940481965325
 30
0.0
 40
0.1666814752000063
100
AcDbArc
 50
178.400608999997
 51
179.1867999999952
  0
ARC
  5
E6
330
2
100
AcDbEntity
  8
GAIKEI
  6
Continuous
 62
     1
100
AcDbCircle
 10
33.06978747770989
 20
14.6940481965325
 30
0.0
 40
0.1666814752000063
100
AcDbArc
 50
131.5352399999968
 51
178.400608999997
  0
ELLIPSE
  5
E7
330
2
100
AcDbEntity
  8
GAIKEI
  6
Continuous
 62
     7
100
AcDbEllipse
 10
32.12617857770886
 20
14.55574461218045
 30
0.0
 11
-0.2142815740456751
 21
0.2553708356956748
 31
0.0
210
0.0
220
0.0
230
1.0
 40
0.160711
 41
3.141592653589792
 42
3.14434683352869
  0
ELLIPSE
  5
E8
330
2
100
AcDbEntity
  8
GAIKEI
  6
Continuous
 62
     1
100
AcDbEllipse
 10
32.68975371425393
 20
29.52975082206153
 30
0.0
 11
0.0
 21
0.2166859177600031
 31
0.0
210
0.0
220
0.0
230
1.0
 40
0.1391730000000056
 41
3.141592653589793
 42
6.283185307179586
  0
ELLIPSE
  5
E9
330
2
100
AcDbEntity
  8
GAIKEI
  6
Continuous
 62
     1
100
AcDbEllipse
 10
32.68975371425393
 20
17.17722017640777
 30
0.0
 11
0.0
 21
0.2166859177600031
 31
0.0
210
0.0
220
0.0
230
1.0
 40
0.1391730000000056
 41
3.141592653589793
 42
6.283185307179586
  0
ELLIPSE
  5
EA
330
2
100
AcDbEntity
  8
GAIKEI
  6
Continuous
 62
     1
100
AcDbEllipse
 10
32.12199217244143
 20
12.46057616749316
 30
0.0
 11
-0.0174468687851453
 21
0.3329060880623922
 31
0.0
210
0.0
220
0.0
230
1.0
 40
0.765609999999989
 41
3.141592653589826
 42
4.672286563984031
  0
LINE
  5
EB
330
2
100
AcDbEntity
  8
GAIKEI
  6
Continuous
 62
     1
100
AcDbLine
 10
31.4556115356491
 20
13.08685677499959
 30
0.0
 11
31.43464220599788
 21
13.08685677499959
 31
0.0
  0
LINE
  5
EC
330
2
100
AcDbEntity
  8
GAIKEI
  6
Continuous
 62
     1
100
AcDbLine
 10
31.43464220599788
 20
12.85350270971956
 30
0.0
 11
31.4556115356491
 21
12.85350270971956
 31
0.0
  0
ARC
  5
ED
330
2
100
AcDbEntity
  8
GAIKEI
  6
Continuous
 62
     1
100
AcDbCircle
 10
31.4556115356491
 20
13.04351959144758
 30
0.0
 40
0.0433371835520016
100
AcDbArc
 50
16.60155000000191
 51
90.0
  0
ARC
  5
EE
330
2
100
AcDbEntity
  8
GAIKEI
  6
Continuous
 62
     1
100
AcDbCircle
 10
31.4556115356491
 20
12.89683989327157
 30
0.0
 40
0.0433371835520016
100
AcDbArc
 50
270.0
 51
343.3984499999981
  0
ARC
  5
EF
330
2
100
AcDbEntity
  8
GAIKEI
  6
Continuous
 62
     1
100
AcDbCircle
 10
31.20962221447786
 20
12.97017974235957
 30
0.0
 40
0.3000266553600113
100
AcDbArc
 50
343.3984499999981
 51
0.0
  0
ARC
  5
F0
330
2
100
AcDbEntity
  8
GAIKEI
  6
Continuous
 62
     1
100
AcDbCircle
 10
31.20962221447786
 20
12.97017974235957
 30
0.0
 40
0.3000266553600113
100
AcDbArc
 50
0.0
 51
16.60155000000191
  0
LINE
  5
F1
330
2
100
AcDbEntity
  8
GAIKEI
  6
Continuous
 62
     1
100
AcDbLine
 10
31.36630280116583
 20
35.31693164100572
 30
0.0
 11
31.36630280116583
 21
11.31669950837552
 31
0.0
  0
LINE
  5
F2
330
2
100
AcDbEntity
  8
GAIKEI
  6
Continuous
 62
     1
100
AcDbLine
 10
30.03701463827287
 20
11.51953398728854
 30
0.0
 11
31.36630040095264
 21
11.44986207231129
 31
0.0
  0
LINE
  5
F3
330
2
100
AcDbEntity
  8
GAIKEI
  6
Continuous
 62
     1
100
AcDbLine
 10
30.07726670042439
 20
35.2265307094881
 30
0.0
 11
30.07726670042439
 21
11.54044562005315
 31
0.0
  0
LINE
  5
F4
330
2
100
AcDbEntity
  8
GAIKEI
  6
Continuous
 62
     1
100
AcDbLine
 10
31.36630040095264
 20
35.31711425722996
 30
0.0
 11
30.07817741466863
 21
35.24959959233725
 31
0.0
  0
LINE
  5
F5
330
2
100
AcDbEntity
  8
GAIKEI
  6
Continuous
 62
     1
100
AcDbLine
 10
31.36630280116583
 20
11.45004468853553
 30
0.0
 11
31.40130591095783
 21
11.45004468853553
 31
0.0
  0
LINE
  5
F6
330
2
100
AcDbEntity
  8
GAIKEI
  6
Continuous
 62
     7
100
AcDbLine
 10
31.43464220599788
 20
11.45004468853553
 30
0.0
 11
31.43464220599788
 21
35.41694052612574
 31
0.0
  0
LINE
  5
F7
330
2
100
AcDbEntity
  8
GAIKEI
  6
Continuous
 62
     1
100
AcDbLine
 10
31.43464220599788
 20
11.45004468853553
 30
0.0
 11
31.40130591095783
 21
11.45004468853553
 31
0.0
  0
LINE
  5
F8
330
2
100
AcDbEntity
  8
GAIKEI
  6
Continuous
 62
     7
100
AcDbLine
 10
31.36630280116583
 20
35.45027682116573
 30
0.0
 11
31.36630040095264
 21
35.45027668782056
 31
0.0
  0
LINE
  5
F9
330
2
100
AcDbEntity
  8
GAIKEI
  6
Continuous
 62
     7
100
AcDbLine
 10
31.36630280116583
 20
35.45027682116573
 30
0.0
 11
31.40130591095783
 21
35.45027682116573
 31
0.0
  0
LINE
  5
FA
330
2
100
AcDbEntity
  8
GAIKEI
  6
Continuous
 62
     7
100
AcDbLine
 10
31.43464220599788
 20
11.45004468853553
 30
0.0
 11
31.43464220599788
 21
11.35003580341551
 31
0.0
  0
LINE
  5
FB
330
2
100
AcDbEntity
  8
GAIKEI
  6
Continuous
 62
     7
100
AcDbLine
 10
31.40130591095783
 20
11.31669950837552
 30
0.0
 11
31.36630280116583
 21
11.31669950837552
 31
0.0
  0
LINE
  5
FC
330
2
100
AcDbEntity
  8
GAIKEI
  6
Continuous
 62
     7
100
AcDbLine
 10
31.36630040095264
 20
11.31669964172069
 30
0.0
 11
30.07817741466863
 21
11.38421427327709
 31
0.0
  0
LINE
  5
FD
330
2
100
AcDbEntity
  8
GAIKEI
  6
Continuous
 62
     7
100
AcDbLine
 10
30.07817741466863
 20
35.38276205626413
 30
0.0
 11
31.36630040095264
 21
35.45027668782056
 31
0.0
  0
LINE
  5
FE
330
2
100
AcDbEntity
  8
GAIKEI
  6
Continuous
 62
     1
100
AcDbLine
 10
30.03751736896237
 20
11.54044562005315
 30
0.0
 11
30.03751736896237
 21
35.2265307094881
 31
0.0
  0
LINE
  5
FF
330
2
100
AcDbEntity
  8
GAIKEI
  6
Continuous
 62
     7
100
AcDbLine
 10
29.93973431492589
 20
35.20337601901552
 30
0.0
 11
30.03751736896237
 21
35.35934030873197
 31
0.0
  0
LINE
  5
100
330
2
100
AcDbEntity
  8
GAIKEI
  6
Continuous
 62
     1
100
AcDbLine
 10
30.03751736896237
 20
35.2265307094881
 30
0.0
 11
29.93464226253116
 21
35.0624445796146
 31
0.0
  0
LINE
  5
101
330
2
100
AcDbEntity
  8
GAIKEI
  6
Continuous
 62
     1
100
AcDbLine
 10
29.93464226253116
 20
11.70453174992666
 30
0.0
 11
30.03751736896237
 21
11.54044562005315
 31
0.0
  0
LINE
  5
102
330
2
100
AcDbEntity
  8
GAIKEI
  6
Continuous
 62
     7
100
AcDbLine
 10
30.03751736896237
 20
11.40763602080925
 30
0.0
 11
29.93973431492589
 21
11.56360031052575
 31
0.0
  0
LINE
  5
103
330
2
100
AcDbEntity
  8
GAIKEI
  6
Continuous
 62
     7
100
AcDbLine
 10
30.07726670042439
 20
11.3842620108516
 30
0.0
 11
30.07817741466863
 21
11.38421427327709
 31
0.0
  0
LINE
  5
104
330
2
100
AcDbEntity
  8
GAIKEI
  6
Continuous
 62
     7
100
AcDbLine
 10
30.07817741466863
 20
35.38276205626413
 30
0.0
 11
30.07726670042439
 21
35.38271431868965
 31
0.0
  0
LINE
  5
105
330
2
100
AcDbEntity
  8
GAIKEI
  6
Continuous
 62
     7
100
AcDbLine
 10
29.93464226253116
 20
35.18566804578062
 30
0.0
 11
29.93464226253116
 21
11.58130828376063
 31
0.0
  0
ARC
  5
106
330
2
100
AcDbEntity
  8
GAIKEI
  6
Continuous
 62
     7
100
AcDbCircle
 10
31.40130591095783
 20
35.41694052612574
 30
0.0
 40
0.0333362950400013
100
AcDbArc
 50
0.0
 51
90.0
  0
ARC
  5
107
330
2
100
AcDbEntity
  8
GAIKEI
  6
Continuous
 62
     7
100
AcDbCircle
 10
31.40130591095783
 20
11.35003580341551
 30
0.0
 40
0.0333362950400013
100
AcDbArc
 50
270.0
 51
0.0
  0
ARC
  5
108
330
2
100
AcDbEntity
  8
GAIKEI
  6
Continuous
 62
     7
100
AcDbCircle
 10
30.07988373293023
 20
11.43419791398899
 30
0.0
 40
0.0500044425600019
100
AcDbArc
 50
212.0859750000081
 51
266.9999999999977
  0
ARC
  5
109
330
2
100
AcDbEntity
  8
GAIKEI
  6
Continuous
 62
     7
100
AcDbCircle
 10
30.07988373293023
 20
35.33277841555223
 30
0.0
 40
0.0500044425600019
100
AcDbArc
 50
92.9999999999991
 51
147.9140249999918
  0
ARC
  5
10A
330
2
100
AcDbEntity
  8
GAIKEI
  6
Continuous
 62
     7
100
AcDbCircle
 10
29.96797855757114
 20
11.58130828376063
 30
0.0
 40
0.0333362950400013
100
AcDbArc
 50
180.0
 51
212.0859750000081
  0
ARC
  5
10B
330
2
100
AcDbEntity
  8
GAIKEI
  6
Continuous
 62
     7
100
AcDbCircle
 10
29.96797855757114
 20
35.18566804578062
 30
0.0
 40
0.0333362950400013
100
AcDbArc
 50
147.9140249999918
 51
180.0
  0
ELLIPSE
  5
10C
330
2
100
AcDbEntity
  8
GAIKEI
  6
Continuous
 62
     1
100
AcDbEllipse
 10
28.82192518357943
 20
35.3162149743391
 30
0.0
 11
2.544377609282683
 21
0.0
 31
0.0
210
0.0
220
0.0
230
1.0
 40
0.052408
 41
0.0
 42
0.0013695278703807
  0
ELLIPSE
  5
10D
330
2
100
AcDbEntity
  8
GAIKEI
  6
Continuous
 62
     1
100
AcDbEllipse
 10
30.32136542029508
 20
11.42140524411262
 30
0.0
 11
-0.1794014869538512
 21
0.2652613547436747
 31
0.0
210
0.0
220
0.0
230
1.0
 40
0.6240159999999943
 41
0.7451965604551792
 42
0.8316067334577596
  0
ELLIPSE
  5
10E
330
2
100
AcDbEntity
  8
GAIKEI
  6
Continuous
 62
     1
100
AcDbEllipse
 10
30.32136542029508
 20
35.34557108542869
 30
0.0
 11
0.1794014869528182
 21
0.2652613547454717
 31
0.0
210
0.0
220
0.0
230
1.0
 40
0.6240159999999813
 41
2.309985920125742
 42
2.396396093127902
  0
ELLIPSE
  5
10F
330
2
100
AcDbEntity
  8
GAIKEI
  6
Continuous
 62
     1
100
AcDbEllipse
 10
31.36979457805353
 20
35.31693164100575
 30
0.0
 11
-0.0034917656106537
 21
0.1333451488971089
 31
0.0
210
0.0
220
0.0
230
1.0
 40
0.0261499999999963
 41
0.0006847638988461
 42
1.568742034989258
  0
ELLIPSE
  5
110
330
2
100
AcDbEntity
  8
GAIKEI
  6
Continuous
 62
     7
100
AcDbEllipse
 10
30.08079444717441
 20
35.33282611979045
 30
0.0
 11
-0.0026170303216906
 21
0.049935913209143
 31
0.0
210
0.0
220
0.0
230
1.0
 40
0.9969939999998402
 41
-0.0000000000786828
 42
1.015719002433118
  0
ELLIPSE
  5
111
330
2
100
AcDbEntity
  8
GAIKEI
  6
Continuous
 62
     1
100
AcDbEllipse
 10
30.32398245280092
 20
35.34557108542869
 30
0.0
 11
0.2001980877512309
 21
0.2902428013316132
 31
0.0
210
0.0
220
0.0
230
1.0
 40
0.7084260000000006
 41
2.316302613075226
 42
2.402712786077776
  0
ELLIPSE
  5
112
330
2
100
AcDbEntity
  8
GAIKEI
  6
Continuous
 62
     1
100
AcDbEllipse
 10
30.32398245280092
 20
11.42140524411262
 30
0.0
 11
-0.2001980877510127
 21
0.2902428013319058
 31
0.0
210
0.0
220
0.0
230
1.0
 40
0.7084260000000244
 41
0.7388798675130728
 42
0.8252900405155028
  0
ELLIPSE
  5
113
330
2
100
AcDbEntity
  8
GAIKEI
  6
Continuous
 62
     7
100
AcDbEllipse
 10
30.32398245280092
 20
35.34557108542869
 30
0.0
 11
-0.2869767173597468
 21
0.0122233693731572
 31
0.0
210
0.0
220
0.0
230
1.0
 40
0.0979550000005576
 41
-0.0556951287901055
 42
0.0307150442121456
  0
LINE
  5
114
330
2
100
AcDbEntity
  8
GAIKEI
  6
Continuous
 62
     1
100
AcDbLine
 10
29.93112558343108
 20
11.73007846766232
 30
0.0
 11
29.93164199597755
 21
11.73003326364623
 31
0.0
  0
LINE
  5
115
330
2
100
AcDbEntity
  8
GAIKEI
  6
Continuous
 62
     1
100
AcDbLine
 10
32.48806912926188
 20
13.86038226422813
 30
0.0
 11
32.48806912926188
 21
13.39367413366811
 31
0.0
  0
LINE
  5
116
330
2
100
AcDbEntity
  8
GAIKEI
  6
Continuous
 62
     1
100
AcDbLine
 10
32.48806912926188
 20
13.39367413366811
 30
0.0
 11
32.22885116614771
 21
13.39367413366811
 31
0.0
  0
LINE
  5
117
330
2
100
AcDbEntity
  8
GAIKEI
  6
Continuous
 62
     1
100
AcDbLine
 10
32.22137876894186
 20
13.86038226422813
 30
0.0
 11
32.48806912926188
 21
13.86038226422813
 31
0.0
  0
LINE
  5
118
330
2
100
AcDbEntity
  8
GAIKEI
  6
Continuous
 62
     1
100
AcDbLine
 10
32.52140542430186
 20
13.54368746134814
 30
0.0
 11
32.52140542430186
 21
13.81037782166815
 31
0.0
  0
LINE
  5
119
330
2
100
AcDbEntity
  8
GAIKEI
  6
Continuous
 62
     1
100
AcDbLine
 10
32.48806912926188
 20
13.51035116630812
 30
0.0
 11
32.52140542430186
 21
13.54368746134814
 31
0.0
  0
LINE
  5
11A
330
2
100
AcDbEntity
  8
GAIKEI
  6
Continuous
 62
     1
100
AcDbLine
 10
32.52140542430186
 20
13.81037782166815
 30
0.0
 11
32.48806912926188
 21
13.84371411670814
 31
0.0
  0
LINE
  5
11B
330
2
100
AcDbEntity
  8
GAIKEI
  6
Continuous
 62
     1
100
AcDbLine
 10
32.5880780143819
 20
13.52701931382812
 30
0.0
 11
32.62141430942188
 21
13.52701931382812
 31
0.0
  0
LINE
  5
11C
330
2
100
AcDbEntity
  8
GAIKEI
  6
Continuous
 62
     1
100
AcDbLine
 10
32.62141430942188
 20
13.52701931382812
 30
0.0
 11
32.62141430942188
 21
13.42701042870813
 31
0.0
  0
LINE
  5
11D
330
2
100
AcDbEntity
  8
GAIKEI
  6
Continuous
 62
     1
100
AcDbLine
 10
32.62141430942188
 20
13.42701042870813
 30
0.0
 11
32.5880780143819
 21
13.42326009551611
 31
0.0
  0
LINE
  5
11E
330
2
100
AcDbEntity
  8
GAIKEI
  6
Continuous
 62
     1
100
AcDbLine
 10
32.48806912926188
 20
13.41200909594012
 30
0.0
 11
32.5880780143819
 21
13.42326009551611
 31
0.0
  0
LINE
  5
11F
330
2
100
AcDbEntity
  8
GAIKEI
  6
Continuous
 62
     1
100
AcDbLine
 10
32.5880780143819
 20
13.52701931382812
 30
0.0
 11
32.51693919417391
 21
13.52701931382812
 31
0.0
  0
LINE
  5
120
330
2
100
AcDbEntity
  8
GAIKEI
  6
Continuous
 62
     1
100
AcDbLine
 10
32.51693919417391
 20
13.52701931382812
 30
0.0
 11
32.48806912926188
 21
13.51035116630812
 31
0.0
  0
LINE
  5
121
330
2
100
AcDbEntity
  8
GAIKEI
  6
Continuous
 62
     1
100
AcDbLine
 10
31.58430650266877
 20
35.08648163373185
 30
0.0
 11
31.43464220599788
 21
35.09130599567745
 31
0.0
  0
LINE
  5
122
330
2
100
AcDbEntity
  8
GAIKEI
  6
Continuous
 62
     1
100
AcDbLine
 10
31.43464220599788
 20
34.94399317583047
 30
0.0
 11
31.60312457452852
 21
34.95159238305819
 31
0.0
  0
SPLINE
  5
123
330
2
100
AcDbEntity
  8
GAIKEI
  6
Continuous
 62
     1
100
AcDbSpline
210
0.0
220
0.0
230
1.0
 70
     8
 71
     3
 72
    19
 73
    15
 74
    13
 42
0.0000000001
 43
0.0000000001
 44
0.000001
 12
0.995529879347374
 22
0.0944471245015057
 32
0.0
 13
0.0944908229060041
 23
0.9955257326591546
 33
0.0
 40
0.0
 40
0.0
 40
0.0
 40
0.0
 40
0.011474660758024
 40
0.0229538204374025
 40
0.0343591230296083
 40
0.0457936629856364
 40
0.0572035280088836
 40
0.0746287115525967
 40
0.092055610158242
 40
0.109065632891078
 40
0.126069362854467
 40
0.136922236539865
 40
0.1478018299471759
 40
0.1586464376139991
 40
0.1586464376139991
 40
0.1586464376139991
 40
0.1586464376139991
 10
9.864546970759818
 20
11.41005094585874
 30
0.0
 10
9.868354759973158
 20
11.41041219542981
 30
0.0
 10
9.875939906731304
 20
11.41154945141515
 30
0.0
 10
9.887026634170922
 20
11.4145084487576
 30
0.0
 10
9.897730005988734
 20
11.41860138751819
 30
0.0
 10
9.907954436704784
 20
11.42372137302587
 30
0.0
 10
9.919346642417508
 20
11.43085552583062
 30
0.0
 10
9.93139381759795
 20
11.4405677998505
 30
0.0
 10
9.943265089985345
 20
11.45321127270065
 30
0.0
 10
9.953173178677474
 20
11.46727148892825
 30
0.0
 10
9.960025412927876
 20
11.48062803666519
 30
0.0
 10
9.964466069584773
 20
11.49277242696495
 30
0.0
 10
9.967183079583122
 20
11.50330527314382
 30
0.0
 10
9.968238551311856
 20
11.51048540304725
 30
0.0
 10
9.968580123279366
 20
11.51408409837823
 30
0.0
 11
9.864546970759818
 21
11.41005094585874
 31
0.0
 11
9.875894730676748
 21
11.41175868772264
 31
0.0
 11
9.886989314715606
 21
11.41470556562087
 31
0.0
 11
9.897645837744335
 21
11.41877010223315
 31
0.0
 11
9.907873358736992
 21
11.42388345883499
 31
0.0
 11
9.917544389825366
 21
11.42993773957498
 31
0.0
 11
9.931119655100928
 21
11.4408617644156
 31
0.0
 11
9.943040749216891
 21
11.45357243789469
 31
0.0
 11
9.952835061316136
 21
11.4674794772656
 31
0.0
 11
9.960569498927384
 21
11.48262231859637
 31
0.0
 11
9.964293775607188
 21
11.49281619532824
 31
0.0
 11
9.966996609001682
 21
11.503354822953
 31
0.0
 11
9.968580123279366
 21
11.51408409837823
 31
0.0
  0
SPLINE
  5
124
330
2
100
AcDbEntity
  8
GAIKEI
  6
Continuous
 62
     1
100
AcDbSpline
210
0.0
220
0.0
230
1.0
 70
     8
 71
     3
 72
    19
 73
    15
 74
    13
 42
0.0000000001
 43
0.0000000001
 44
0.000001
 12
-0.0944471245025449
 22
0.9955298793472755
 32
0.0
 13
-0.9955257326591484
 23
0.0944908229060694
 33
0.0
 40
0.0
 40
0.0
 40
0.0
 40
0.0
 40
0.0114746607580262
 40
0.0229538204373808
 40
0.0343591230295949
 40
0.0457936629856738
 40
0.057203528008909
 40
0.074628711552591
 40
0.092055610158255
 40
0.1090656328910897
 40
0.1260693628544791
 40
0.1369222365398624
 40
0.1478018299471529
 40
0.158646437613998
 40
0.158646437613998
 40
0.158646437613998
 40
0.158646437613998
 10
9.968580123279366
 20
35.25289223116305
 30
0.0
 10
9.968218873708281
 20
35.25670002037637
 30
0.0
 10
9.967081617722953
 20
35.26428516713455
 30
0.0
 10
9.964122620380408
 20
35.27537189457412
 30
0.0
 10
9.960029681619943
 20
35.28607526639198
 30
0.0
 10
9.95490969611211
 20
35.296299697108
 30
0.0
 10
9.947775543307471
 20
35.30769190282071
 30
0.0
 10
9.938063269287454
 20
35.31973907800115
 30
0.0
 10
9.925419796437438
 20
35.33161035038859
 30
0.0
 10
9.91135958020979
 20
35.34151843908069
 30
0.0
 10
9.898003032472786
 20
35.34837067333112
 30
0.0
 10
9.885858642173161
 20
35.352811329988
 30
0.0
 10
9.875325795994257
 20
35.35552833998629
 30
0.0
 10
9.868145666090811
 20
35.35658381171503
 30
0.0
 10
9.864546970759818
 20
35.35692538368254
 30
0.0
 11
9.968580123279366
 21
35.25289223116305
 31
0.0
 11
9.966872381415441
 21
35.26423999107997
 31
0.0
 11
9.963925503517202
 21
35.27533457511881
 31
0.0
 11
9.959860966904955
 21
35.28599109814753
 31
0.0
 11
9.954747610303058
 21
35.29621861914022
 31
0.0
 11
9.94869332956307
 21
35.3058896502286
 31
0.0
 11
9.937769304722451
 21
35.31946491550413
 31
0.0
 11
9.925058631243359
 21
35.33138600962012
 31
0.0
 11
9.911151591872453
 21
35.34118032171934
 31
0.0
 11
9.896008750541682
 21
35.34891475933061
 31
0.0
 11
9.885814873809806
 21
35.35263903601039
 31
0.0
 11
9.87527624618508
 21
35.35534186940491
 31
0.0
 11
9.864546970759818
 21
35.35692538368254
 31
0.0
  0
SPLINE
  5
125
330
2
100
AcDbEntity
  8
GAIKEI
  6
Continuous
 62
     1
100
AcDbSpline
210
0.0
220
0.0
230
1.0
 70
     8
 71
     3
 72
    19
 73
    15
 74
    13
 42
0.0000000001
 43
0.0000000001
 44
0.000001
 12
-0.995529879347374
 22
0.0944471245015059
 32
0.0
 13
-0.0944908229060039
 23
0.9955257326591544
 33
0.0
 40
0.0
 40
0.0
 40
0.0
 40
0.0
 40
0.011474660758024
 40
0.0229538204374025
 40
0.0343591230296083
 40
0.0457936629856873
 40
0.0572035280088863
 40
0.0746287115525994
 40
0.0920556101582446
 40
0.1090656328910806
 40
0.1260693628544956
 40
0.1369222365398643
 40
0.1478018299471823
 40
0.1586464376139972
 40
0.1586464376139972
 40
0.1586464376139972
 40
0.1586464376139972
 10
-30.07426721813227
 20
11.41005094585874
 30
0.0
 10
-30.07807500734561
 20
11.41041219542981
 30
0.0
 10
-30.08566015410378
 20
11.41154945141514
 30
0.0
 10
-30.09674688154337
 20
11.41450844875761
 30
0.0
 10
-30.10745025336121
 20
11.41860138751821
 30
0.0
 10
-30.11767468407726
 20
11.42372137302584
 30
0.0
 10
-30.1290668897899
 20
11.43085552583063
 30
0.0
 10
-30.14111406497046
 20
11.44056779985047
 30
0.0
 10
-30.15298533735776
 20
11.45321127270068
 30
0.0
 10
-30.16289342604989
 20
11.46727148892827
 30
0.0
 10
-30.16974566030041
 20
11.48062803666516
 30
0.0
 10
-30.17418631695719
 20
11.49277242696499
 30
0.0
 10
-30.17690332695557
 20
11.50330527314379
 30
0.0
 10
-30.17795879868425
 20
11.51048540304727
 30
0.0
 10
-30.17830037065176
 20
11.51408409837823
 30
0.0
 11
-30.07426721813227
 21
11.41005094585874
 31
0.0
 11
-30.08561497804919
 21
11.41175868772264
 31
0.0
 11
-30.09670956208805
 21
11.41470556562087
 31
0.0
 11
-30.10736608511678
 21
11.41877010223315
 31
0.0
 11
-30.1175936061095
 21
11.42388345883499
 31
0.0
 11
-30.12726463719781
 21
11.42993773957498
 31
0.0
 11
-30.14083990247338
 21
11.4408617644156
 31
0.0
 11
-30.15276099658934
 21
11.45357243789469
 31
0.0
 11
-30.16255530868858
 21
11.4674794772656
 31
0.0
 11
-30.17028974629989
 21
11.48262231859637
 31
0.0
 11
-30.17401402297963
 21
11.49281619532824
 31
0.0
 11
-30.17671685637413
 21
11.503354822953
 31
0.0
 11
-30.17830037065176
 21
11.51408409837823
 31
0.0
  0
SPLINE
  5
126
330
2
100
AcDbEntity
  8
GAIKEI
  6
Continuous
 62
     1
100
AcDbSpline
210
0.0
220
0.0
230
1.0
 70
     8
 71
     3
 72
    19
 73
    15
 74
    13
 42
0.0000000001
 43
0.0000000001
 44
0.000001
 12
0.0944471245025448
 22
0.9955298793472755
 32
0.0
 13
0.9955257326591484
 23
0.0944908229060694
 33
0.0
 40
0.0
 40
0.0
 40
0.0
 40
0.0
 40
0.0114746607580177
 40
0.0229538204373724
 40
0.0343591230295864
 40
0.0457936629856653
 40
0.0572035280088703
 40
0.0746287115525523
 40
0.0920556101582164
 40
0.1090656328910511
 40
0.1260693628544404
 40
0.1369222365398771
 40
0.1478018299471676
 40
0.1586464376140127
 40
0.1586464376140127
 40
0.1586464376140127
 40
0.1586464376140127
 10
-30.17830037065176
 20
35.25289223116305
 30
0.0
 10
-30.17793912108067
 20
35.25670002037637
 30
0.0
 10
-30.17680186509543
 20
35.26428516713456
 30
0.0
 10
-30.17384286775291
 20
35.27537189457411
 30
0.0
 10
-30.16974992899231
 20
35.28607526639201
 30
0.0
 10
-30.16462994348456
 20
35.296299697108
 30
0.0
 10
-30.15749579068
 20
35.30769190282071
 30
0.0
 10
-30.14778351666001
 20
35.31973907800117
 30
0.0
 10
-30.13514004380997
 20
35.33161035038859
 30
0.0
 10
-30.12107982758224
 20
35.3415184390807
 30
0.0
 10
-30.10772327984537
 20
35.34837067333115
 30
0.0
 10
-30.09557888954552
 20
35.35281132998797
 30
0.0
 10
-30.0850460433667
 20
35.35552833998631
 30
0.0
 10
-30.07786591346326
 20
35.35658381171503
 30
0.0
 10
-30.07426721813227
 20
35.35692538368254
 30
0.0
 11
-30.17830037065176
 21
35.25289223116305
 31
0.0
 11
-30.17659262878789
 21
35.26423999107997
 31
0.0
 11
-30.17364575088965
 21
35.27533457511881
 31
0.0
 11
-30.1695812142774
 21
35.28599109814753
 31
0.0
 11
-30.16446785767551
 21
35.29621861914022
 31
0.0
 11
-30.15841357693557
 21
35.3058896502286
 31
0.0
 11
-30.14748955209495
 21
35.31946491550413
 31
0.0
 11
-30.13477887861586
 21
35.33138600962012
 31
0.0
 11
-30.12087183924496
 21
35.34118032171934
 31
0.0
 11
-30.10572899791418
 21
35.34891475933061
 31
0.0
 11
-30.09553512118225
 21
35.35263903601039
 31
0.0
 11
-30.08499649355753
 21
35.35534186940491
 31
0.0
 11
-30.07426721813227
 21
35.35692538368254
 31
0.0
  0
SPLINE
  5
127
330
2
100
AcDbEntity
  8
GAIKEI
  6
Continuous
 62
     1
100
AcDbSpline
210
0.0
220
0.0
230
1.0
 70
     8
 71
     3
 72
    19
 73
    15
 74
    13
 42
0.0000000001
 43
0.0000000001
 44
0.000001
 12
-0.2634414923284028
 22
0.9646753755122933
 32
0.0
 13
-0.9639886149825482
 23
0.2659435093850356
 33
0.0
 40
0.0
 40
0.0
 40
0.0
 40
0.0
 40
0.0080469836170484
 40
0.0160943919464478
 40
0.0243850109521233
 40
0.032675750493584
 40
0.0406967337973566
 40
0.0487177849602281
 40
0.0569854589412043
 40
0.0652530764933774
 40
0.0733066642993536
 40
0.0813601339663683
 40
0.0896586163757019
 40
0.0979566568646681
 40
0.0979566568646681
 40
0.0979566568646681
 40
0.0979566568646681
 10
8.379376224116413
 20
33.72637580846798
 30
0.0
 10
8.378669587658805
 20
33.72896338411549
 30
0.0
 10
8.37703718486162
 20
33.73408158620262
 30
0.0
 10
8.373925072803558
 20
33.74160050440348
 30
0.0
 10
8.370135956459648
 20
33.74889538387291
 30
0.0
 10
8.365730459400253
 20
33.75582488784964
 30
0.0
 10
8.360793820036008
 20
33.7622728217785
 30
0.0
 10
8.355333708478383
 20
33.76827355611613
 30
0.0
 10
8.349310587637177
 20
33.77383210353317
 30
0.0
 10
8.342816384972024
 20
33.77884992342085
 30
0.0
 10
8.335970588146409
 20
33.78324409643628
 30
0.0
 10
8.32876802758372
 20
33.78704750172984
 30
0.0
 10
8.321187773732077
 20
33.79024403913435
 30
0.0
 10
8.315916064663497
 20
33.79194815945215
 30
0.0
 10
8.313249659144162
 20
33.79268376278837
 30
0.0
 11
8.379376224116413
 21
33.72637580846798
 31
0.0
 11
8.376932583818586
 21
33.73404319931488
 31
0.0
 11
8.373852923287188
 21
33.74147800539625
 31
0.0
 11
8.370032186835828
 21
33.74883576399951
 31
0.0
 11
8.365582551153863
 21
33.75583129260137
 31
0.0
 11
8.360707427139061
 21
33.76220072476262
 31
0.0
 11
8.355308163797928
 21
33.76813246577682
 31
0.0
 11
8.349233412378282
 21
33.77374069110504
 31
0.0
 11
8.342690405300572
 21
33.77879469110091
 31
0.0
 11
8.335913785849868
 21
33.78314647176977
 31
0.0
 11
8.328791823885353
 21
33.78690629473427
 31
0.0
 11
8.321146290222031
 21
33.79013282490725
 31
0.0
 11
8.313249659144162
 21
33.79268376278837
 31
0.0
  0
SPLINE
  5
128
330
2
100
AcDbEntity
  8
GAIKEI
  6
Continuous
 62
     1
100
AcDbSpline
210
0.0
220
0.0
230
1.0
 70
     8
 71
     3
 72
    19
 73
    15
 74
    13
 42
0.0000000001
 43
0.0000000001
 44
0.000001
 12
0.2634414923284027
 22
0.9646753755122935
 32
0.0
 13
0.9639886149825482
 23
0.2659435093850355
 33
0.0
 40
0.0
 40
0.0
 40
0.0
 40
0.0
 40
0.0080469836170657
 40
0.0160943919464651
 40
0.0243850109521406
 40
0.0326757504936013
 40
0.0406967337973738
 40
0.0487177849602453
 40
0.0569854589412216
 40
0.0652530764933947
 40
0.0733066642993709
 40
0.0813601339663856
 40
0.0896586163757191
 40
0.0979566568646854
 40
0.0979566568646854
 40
0.0979566568646854
 40
0.0979566568646854
 10
-28.58909647148891
 20
33.72637580846798
 30
0.0
 10
-28.58838983503131
 20
33.72896338411549
 30
0.0
 10
-28.58675743223407
 20
33.7340815862026
 30
0.0
 10
-28.58364532017603
 20
33.74160050440348
 30
0.0
 10
-28.57985620383209
 20
33.74889538387289
 30
0.0
 10
-28.57545070677264
 20
33.75582488784963
 30
0.0
 10
-28.57051406740854
 20
33.76227282177851
 30
0.0
 10
-28.5650539558508
 20
33.76827355611612
 30
0.0
 10
-28.55903083500968
 20
33.77383210353318
 30
0.0
 10
-28.55253663234441
 20
33.77884992342087
 30
0.0
 10
-28.54569083551889
 20
33.78324409643625
 30
0.0
 10
-28.53848827495611
 20
33.78704750172984
 30
0.0
 10
-28.53090802110458
 20
33.79024403913435
 30
0.0
 10
-28.52563631203594
 20
33.79194815945215
 30
0.0
 10
-28.52296990651661
 20
33.79268376278837
 30
0.0
 11
-28.58909647148891
 21
33.72637580846798
 31
0.0
 11
-28.58665283119103
 21
33.73404319931488
 31
0.0
 11
-28.58357317065964
 21
33.74147800539625
 31
0.0
 11
-28.57975243420828
 21
33.74883576399951
 31
0.0
 11
-28.57530279852631
 21
33.75583129260137
 31
0.0
 11
-28.57042767451151
 21
33.76220072476262
 31
0.0
 11
-28.56502841117038
 21
33.76813246577682
 31
0.0
 11
-28.55895365975073
 21
33.77374069110504
 31
0.0
 11
-28.55241065267302
 21
33.77879469110091
 31
0.0
 11
-28.54563403322231
 21
33.78314647176977
 31
0.0
 11
-28.5385120712578
 21
33.78690629473427
 31
0.0
 11
-28.53086653759448
 21
33.79013282490725
 31
0.0
 11
-28.52296990651661
 21
33.79268376278837
 31
0.0
  0
SPLINE
  5
129
330
2
100
AcDbEntity
  8
GAIKEI
  6
Continuous
 62
     1
100
AcDbSpline
210
0.0
220
0.0
230
1.0
 70
     8
 71
     3
 72
    19
 73
    15
 74
    13
 42
0.0000000001
 43
0.0000000001
 44
0.000001
 12
0.9639938394678312
 22
0.2659245710122878
 32
0.0
 13
0.26346002757732
 23
0.9646703135625962
 33
0.0
 40
0.0
 40
0.0
 40
0.0
 40
0.0
 40
0.0080455644807581
 40
0.0160915728627848
 40
0.0243810347115005
 40
0.0326706179664405
 40
0.0406926484298716
 40
0.0487147353963403
 40
0.0569835490402671
 40
0.0652522942794742
 40
0.0733062202836914
 40
0.0813600285367342
 40
0.0896585537562706
 40
0.0979566571399674
 40
0.0979566571399674
 40
0.0979566571399674
 40
0.0979566571399674
 10
8.313249659144162
 20
12.97429256675291
 30
0.0
 10
8.31583495067565
 20
12.97500573784727
 30
0.0
 10
8.32094800571653
 20
12.97665115434907
 30
0.0
 10
8.328457415868825
 20
12.97978272202522
 30
0.0
 10
8.335740952467858
 20
12.98359094206339
 30
0.0
 10
8.342658054792593
 20
12.98801511098688
 30
0.0
 10
8.349092601795717
 20
12.99296970648794
 30
0.0
 10
8.355078916014548
 20
12.99844722336326
 30
0.0
 10
8.360621354473778
 20
13.0044866692309
 30
0.0
 10
8.365621546339355
 20
13.01099554806536
 30
0.0
 10
8.36999704757747
 20
13.0178539995162
 30
0.0
 10
8.373780853126334
 20
13.02506713583091
 30
0.0
 10
8.376957109805147
 20
13.03265605409569
 30
0.0
 10
8.378647484601032
 20
13.03793220974235
 30
0.0
 10
8.379376224116469
 20
13.04060052107338
 30
0.0
 11
8.313249659144162
 21
12.97429256675291
 31
0.0
 11
8.320909320948373
 21
12.97675570779894
 31
0.0
 11
8.328334636953968
 21
12.97985454731854
 31
0.0
 11
8.33568104082849
 21
12.98369457397452
 31
0.0
 11
8.342663434783446
 21
12.98816264754082
 31
0.0
 11
8.349020240339541
 21
12.99305594126453
 31
0.0
 11
8.354937710295644
 21
12.99847237579051
 31
0.0
 11
8.360529721490024
 21
13.00456360334912
 31
0.0
 11
8.365566131909304
 21
13.01112158132754
 31
0.0
 11
8.369899309204015
 21
13.01791051260299
 31
0.0
 11
8.373639819030302
 21
13.02504301911794
 31
0.0
 11
8.376845880857899
 21
13.03269720464841
 31
0.0
 11
8.379376224116469
 21
13.04060052107338
 31
0.0
  0
SPLINE
  5
12A
330
2
100
AcDbEntity
  8
GAIKEI
  6
Continuous
 62
     1
100
AcDbSpline
210
0.0
220
0.0
230
1.0
 70
     8
 71
     3
 72
    19
 73
    15
 74
    13
 42
0.0000000001
 43
0.0000000001
 44
0.000001
 12
-0.9639938394678313
 22
0.2659245710122878
 32
0.0
 13
-0.26346002757732
 23
0.9646703135625962
 33
0.0
 40
0.0
 40
0.0
 40
0.0
 40
0.0
 40
0.0080455644807581
 40
0.0160915728628373
 40
0.0243810347115529
 40
0.0326706179664451
 40
0.0406926484299212
 40
0.04871473539639
 40
0.0569835490403167
 40
0.0652522942794892
 40
0.073306220283737
 40
0.0813600285367534
 40
0.0896585537562679
 40
0.0979566571399819
 40
0.0979566571399819
 40
0.0979566571399819
 40
0.0979566571399819
 10
-28.52296990651661
 20
12.97429256675291
 30
0.0
 10
-28.52555519804809
 20
12.97500573784727
 30
0.0
 10
-28.53066825308895
 20
12.9766511543491
 30
0.0
 10
-28.53817766324133
 20
12.9797827220252
 30
0.0
 10
-28.54546119984031
 20
12.98359094206337
 30
0.0
 10
-28.55237830216509
 20
12.98801511098692
 30
0.0
 10
-28.55881284916819
 20
12.99296970648791
 30
0.0
 10
-28.56479916338705
 20
12.99844722336327
 30
0.0
 10
-28.57034160184625
 20
13.00448666923087
 30
0.0
 10
-28.57534179371186
 20
13.01099554806541
 30
0.0
 10
-28.57971729494991
 20
13.01785399951618
 30
0.0
 10
-28.58350110049883
 20
13.02506713583089
 30
0.0
 10
-28.58667735717757
 20
13.03265605409574
 30
0.0
 10
-28.58836773197348
 20
13.03793220974234
 30
0.0
 10
-28.58909647148891
 20
13.04060052107338
 30
0.0
 11
-28.52296990651661
 21
12.97429256675291
 31
0.0
 11
-28.53062956832082
 21
12.97675570779894
 31
0.0
 11
-28.53805488432647
 21
12.97985454731854
 31
0.0
 11
-28.54540128820099
 21
12.98369457397452
 31
0.0
 11
-28.55238368215589
 21
12.98816264754082
 31
0.0
 11
-28.55874048771204
 21
12.99305594126453
 31
0.0
 11
-28.56465795766815
 21
12.99847237579051
 31
0.0
 11
-28.57024996886253
 21
13.00456360334912
 31
0.0
 11
-28.57528637928175
 21
13.01112158132754
 31
0.0
 11
-28.57961955657652
 21
13.01791051260299
 31
0.0
 11
-28.58336006640275
 21
13.02504301911794
 31
0.0
 11
-28.58656612823029
 21
13.03269720464841
 31
0.0
 11
-28.58909647148891
 21
13.04060052107338
 31
0.0
  0
SPLINE
  5
12B
330
2
100
AcDbEntity
  8
GAIKEI
  6
Continuous
 62
     1
100
AcDbSpline
210
0.0
220
0.0
230
1.0
 70
     8
 71
     3
 72
    14
 73
    10
 74
     8
 42
0.0000000001
 43
0.0000000001
 44
0.000001
 12
-0.2697836156325397
 22
-0.962920973255975
 32
0.0
 13
-0.9616843088117285
 23
-0.2741592423853476
 33
0.0
 40
0.0
 40
0.0
 40
0.0
 40
0.0
 40
0.0000378405968686
 40
0.0111891984537575
 40
0.0223415869632647
 40
0.0334914632170221
 40
0.0446413298613456
 40
0.055804098643003
 40
0.0669660519622285
 40
0.0669660519622285
 40
0.0669660519622285
 40
0.0669660519622285
 10
8.349515808896796
 20
13.04958001449368
 30
0.0
 10
8.349512405972461
 20
13.0495678686589
 30
0.0
 10
8.348505031755536
 20
13.04597676561977
 30
0.0
 10
8.345864682385723
 20
13.03896902529317
 30
0.0
 10
8.340232905980798
 20
13.0292844050212
 30
0.0
 10
8.333006358520094
 20
13.02072039667696
 30
0.0
 10
8.324453925005428
 20
13.01347589837339
 30
0.0
 10
8.314775188564681
 20
13.00781749227452
 30
0.0
 10
8.307774323491543
 20
13.00517762520407
 30
0.0
 10
8.30419623170394
 20
13.00415757431556
 30
0.0
 11
8.349515808896796
 21
13.04958001449368
 31
0.0
 11
8.349505589481395
 21
13.04954357961036
 31
0.0
 11
8.345585750955763
 21
13.03910333331258
 31
0.0
 11
8.339967264468157
 21
13.02946969822814
 31
0.0
 11
8.332786510903019
 21
13.0209399346388
 31
0.0
 11
8.324270929284921
 21
13.01374237551359
 31
0.0
 11
8.314639118932063
 21
13.00810008348968
 31
0.0
 11
8.30419623170394
 21
13.00415757431556
 31
0.0
  0
SPLINE
  5
12C
330
2
100
AcDbEntity
  8
GAIKEI
  6
Continuous
 62
     1
100
AcDbSpline
210
0.0
220
0.0
230
1.0
 70
     8
 71
     3
 72
    14
 73
    10
 74
     8
 42
0.0000000001
 43
0.0000000001
 44
0.000001
 12
0.2697836156325394
 22
-0.9629209732559752
 32
0.0
 13
0.9616843088117285
 23
-0.2741592423853476
 33
0.0
 40
0.0
 40
0.0
 40
0.0
 40
0.0
 40
0.0000378405968412
 40
0.0111891984537567
 40
0.0223415869632639
 40
0.0334914632169847
 40
0.0446413298613517
 40
0.0558040986430091
 40
0.0669660519622346
 40
0.0669660519622346
 40
0.0669660519622346
 40
0.0669660519622346
 10
-28.55923605626924
 20
13.04958001449368
 30
0.0
 10
-28.55923265334491
 20
13.04956786865891
 30
0.0
 10
-28.55822527912619
 20
13.04597676561872
 30
0.0
 10
-28.555584929759
 20
13.03896902529368
 30
0.0
 10
-28.54995315335301
 20
13.02928440502107
 30
0.0
 10
-28.54272660589265
 20
13.02072039667701
 30
0.0
 10
-28.53417417237782
 20
13.01347589837337
 30
0.0
 10
-28.52449543593716
 20
13.00781749227454
 30
0.0
 10
-28.51749457086399
 20
13.00517762520407
 30
0.0
 10
-28.51391647907639
 20
13.00415757431556
 30
0.0
 11
-28.55923605626924
 21
13.04958001449368
 31
0.0
 11
-28.5592258368539
 21
13.04954357961036
 31
0.0
 11
-28.55530599832821
 21
13.03910333331258
 31
0.0
 11
-28.5496875118406
 21
13.02946969822814
 31
0.0
 11
-28.54250675827552
 21
13.0209399346388
 31
0.0
 11
-28.53399117665737
 21
13.01374237551359
 31
0.0
 11
-28.52435936630451
 21
13.00810008348968
 31
0.0
 11
-28.51391647907639
 21
13.00415757431556
 31
0.0
  0
SPLINE
  5
12D
330
2
100
AcDbEntity
  8
GAIKEI
  6
Continuous
 62
     1
100
AcDbSpline
210
0.0
220
0.0
230
1.0
 70
     8
 71
     3
 72
    21
 73
    17
 74
    15
 42
0.0000000001
 43
0.0000000001
 44
0.000001
 12
0.9999999888881687
 22
0.00014907602962
 32
0.0
 13
-0.0007086550231109
 23
-0.9999997489039976
 33
0.0
 40
0.0
 40
0.0
 40
0.0
 40
0.0
 40
0.0146800531684757
 40
0.0294098671610548
 40
0.0440944857460664
 40
0.0587961819046414
 40
0.0735433082183551
 40
0.0882452749644473
 40
0.1031289863564415
 40
0.1180596885229477
 40
0.1329432357531772
 40
0.1478756372180655
 40
0.1628556352591332
 40
0.1777879301772468
 40
0.1934470599829757
 40
0.2091023769871955
 40
0.2091023769871955
 40
0.2091023769871955
 40
0.2091023769871955
 10
9.861254347558599
 20
35.38276204318676
 30
0.0
 10
9.866147698560382
 20
35.3827627726681
 30
0.0
 10
9.875959941161426
 20
35.38222918304564
 30
0.0
 10
9.890486167402229
 20
35.37981066679974
 30
0.0
 10
9.904671940852267
 20
35.37582044772549
 30
0.0
 10
9.918319498281903
 20
35.37024640940321
 30
0.0
 10
9.931280087339814
 20
35.36321373366078
 30
0.0
 10
9.943447484337326
 20
35.35477329198638
 30
0.0
 10
9.954624923768676
 20
35.34496531638561
 30
0.0
 10
9.96469194304808
 20
35.33394121623643
 30
0.0
 10
9.973492554208945
 20
35.32185924005901
 30
0.0
 10
9.980859416033979
 20
35.30883411724892
 30
0.0
 10
9.986743201581845
 20
35.29505959962668
 30
0.0
 10
9.991128094449834
 20
35.28048153104194
 30
0.0
 10
9.993817136007351
 20
35.26526667118678
 30
0.0
 10
9.994420480856575
 20
35.25481804565291
 30
0.0
 10
9.994416782783559
 20
35.24959960796183
 30
0.0
 11
9.861254347558599
 21
35.38276204318676
 31
0.0
 11
9.875913145267418
 21
35.38196191698721
 31
0.0
 11
9.890443559281379
 21
35.37954638294166
 31
0.0
 11
9.904576667884953
 21
35.37555968622188
 31
0.0
 11
9.918191011224962
 21
35.37001078881049
 31
0.0
 11
9.931152985271467
 21
35.36297760936064
 31
0.0
 11
9.943227553040514
 21
35.35458992444985
 31
0.0
 11
9.954421663129551
 21
35.34478087633714
 31
0.0
 11
9.964489831467631
 21
35.33375551888689
 31
0.0
 11
9.973244277397611
 21
35.32171889493656
 31
0.0
 11
9.980604477421138
 21
35.30872641025915
 31
0.0
 11
9.986487777239858
 21
35.29495006346794
 31
0.0
 11
9.990781418197684
 21
35.28064835693486
 31
0.0
 11
9.99351370707086
 21
35.26522942900156
 31
0.0
 11
9.994416782783559
 21
35.24959960796183
 31
0.0
  0
SPLINE
  5
12E
330
2
100
AcDbEntity
  8
GAIKEI
  6
Continuous
 62
     1
100
AcDbSpline
210
0.0
220
0.0
230
1.0
 70
     8
 71
     3
 72
    21
 73
    17
 74
    15
 42
0.0000000001
 43
0.0000000001
 44
0.000001
 12
-0.9999999888881687
 22
0.0001490760296198
 32
0.0
 13
0.0007086550231108
 23
-0.9999997489039976
 33
0.0
 40
0.0
 40
0.0
 40
0.0
 40
0.0
 40
0.0146800531684757
 40
0.0294098671610548
 40
0.0440944857461211
 40
0.0587961819046961
 40
0.0735433082183599
 40
0.0882452749644987
 40
0.1031289863564929
 40
0.1180596885229991
 40
0.1329432357531952
 40
0.1478756372181115
 40
0.1628556352591792
 40
0.1777879301772928
 40
0.1934470599830118
 40
0.2091023769872316
 40
0.2091023769872316
 40
0.2091023769872316
 40
0.2091023769872316
 10
-30.07097459493105
 20
35.38276204318676
 30
0.0
 10
-30.07586794593283
 20
35.3827627726681
 30
0.0
 10
-30.08568018853387
 20
35.38222918304565
 30
0.0
 10
-30.10020641477471
 20
35.37981066679973
 30
0.0
 10
-30.11439218822477
 20
35.37582044772551
 30
0.0
 10
-30.12803974565446
 20
35.37024640940325
 30
0.0
 10
-30.1410003347122
 20
35.36321373366074
 30
0.0
 10
-30.15316773170983
 20
35.35477329198642
 30
0.0
 10
-30.1643451711411
 20
35.34496531638558
 30
0.0
 10
-30.17441219042064
 20
35.33394121623641
 30
0.0
 10
-30.18321280158139
 20
35.32185924005899
 30
0.0
 10
-30.19057966340651
 20
35.30883411724897
 30
0.0
 10
-30.19646344895435
 20
35.29505959962668
 30
0.0
 10
-30.20084834182228
 20
35.28048153104193
 30
0.0
 10
-30.20353738337983
 20
35.26526667118679
 30
0.0
 10
-30.20414072822902
 20
35.25481804565291
 30
0.0
 10
-30.20413703015601
 20
35.24959960796183
 30
0.0
 11
-30.07097459493105
 21
35.38276204318676
 31
0.0
 11
-30.08563339263986
 21
35.38196191698721
 31
0.0
 11
-30.10016380665383
 21
35.37954638294166
 31
0.0
 11
-30.11429691525746
 21
35.37555968622188
 31
0.0
 11
-30.12791125859747
 21
35.37001078881049
 31
0.0
 11
-30.14087323264391
 21
35.36297760936064
 31
0.0
 11
-30.15294780041302
 21
35.35458992444985
 31
0.0
 11
-30.16414191050206
 21
35.34478087633714
 31
0.0
 11
-30.17421007884014
 21
35.33375551888689
 31
0.0
 11
-30.18296452477006
 21
35.32171889493656
 31
0.0
 11
-30.19032472479364
 21
35.30872641025915
 31
0.0
 11
-30.19620802461236
 21
35.29495006346794
 31
0.0
 11
-30.20050166557019
 21
35.28064835693486
 31
0.0
 11
-30.20323395444331
 21
35.26522942900156
 31
0.0
 11
-30.20413703015601
 21
35.24959960796183
 31
0.0
  0
SPLINE
  5
12F
330
2
100
AcDbEntity
  8
GAIKEI
  6
Continuous
 62
     1
100
AcDbSpline
210
0.0
220
0.0
230
1.0
 70
     8
 71
     3
 72
    21
 73
    17
 74
    15
 42
0.0000000001
 43
0.0000000001
 44
0.000001
 12
0.0001490760298765
 22
-0.9999999888881687
 32
0.0
 13
-0.9999997489039975
 23
0.000708655023352
 33
0.0
 40
0.0
 40
0.0
 40
0.0
 40
0.0
 40
0.0146800531684205
 40
0.0294098671610019
 40
0.0440944857460682
 40
0.0587961819046349
 40
0.0735433082183362
 40
0.0882452749644445
 40
0.103128986356452
 40
0.1180596885229907
 40
0.1329432357531836
 40
0.1478756372180929
 40
0.1628556352591233
 40
0.1777879301772505
 40
0.1934470599829819
 40
0.2091023769872135
 40
0.2091023769872135
 40
0.2091023769872135
 40
0.2091023769872135
 10
9.994416782783559
 20
11.51737672157945
 30
0.0
 10
9.994417512264902
 20
11.51248337057768
 30
0.0
 10
9.993883922642424
 20
11.50267112797665
 30
0.0
 10
9.991465406396486
 20
11.48814490173586
 30
0.0
 10
9.987475187322246
 20
11.47395912828578
 30
0.0
 10
9.981901149000066
 20
11.46031157085609
 30
0.0
 10
9.974868473257544
 20
11.44735098179828
 30
0.0
 10
9.966428031583149
 20
11.43518358480072
 30
0.0
 10
9.956620055982398
 20
11.42400614536933
 30
0.0
 10
9.945595955833198
 20
11.41393912608994
 30
0.0
 10
9.933513979655742
 20
11.40513851492913
 30
0.0
 10
9.920488856845707
 20
11.39777165310403
 30
0.0
 10
9.906714339223469
 20
11.39188786755622
 30
0.0
 10
9.892136270638729
 20
11.38750297468826
 30
0.0
 10
9.876921410783637
 20
11.38481393313066
 30
0.0
 10
9.866472785249669
 20
11.3842105882815
 30
0.0
 10
9.861254347558599
 20
11.38421428635452
 30
0.0
 11
9.994416782783559
 21
11.51737672157945
 31
0.0
 11
9.993616656583981
 21
11.50271792387069
 31
0.0
 11
9.991201122538427
 21
11.48818750985673
 31
0.0
 11
9.987214425818649
 21
11.4740544012531
 31
0.0
 11
9.98166552840729
 21
11.46044005791306
 31
0.0
 11
9.97463234895747
 21
11.44747808386658
 31
0.0
 11
9.966244664046655
 21
11.43540351609753
 31
0.0
 11
9.956435615933969
 21
11.42420940600847
 31
0.0
 11
9.945410258483661
 21
11.41414123767039
 31
0.0
 11
9.933373634533325
 21
11.40538679174044
 31
0.0
 11
9.920381149855927
 21
11.39802659171688
 31
0.0
 11
9.906604803064738
 21
11.39214329189819
 31
0.0
 11
9.892303096531634
 21
11.38784965094036
 31
0.0
 11
9.876884168598337
 21
11.38511736206719
 31
0.0
 11
9.861254347558599
 21
11.38421428635452
 31
0.0
  0
SPLINE
  5
130
330
2
100
AcDbEntity
  8
GAIKEI
  6
Continuous
 62
     1
100
AcDbSpline
210
0.0
220
0.0
230
1.0
 70
     8
 71
     3
 72
    21
 73
    17
 74
    15
 42
0.0000000001
 43
0.0000000001
 44
0.000001
 12
-0.0001490760298766
 22
-0.9999999888881687
 32
0.0
 13
0.9999997489039975
 23
0.0007086550233522
 33
0.0
 40
0.0
 40
0.0
 40
0.0
 40
0.0
 40
0.0146800531684174
 40
0.0294098671609988
 40
0.0440944857460805
 40
0.0587961819046473
 40
0.0735433082183485
 40
0.0882452749644568
 40
0.1031289863564644
 40
0.118059688522961
 40
0.1329432357531999
 40
0.1478756372181092
 40
0.1628556352591396
 40
0.1777879301772668
 40
0.1934470599829982
 40
0.2091023769872298
 40
0.2091023769872298
 40
0.2091023769872298
 40
0.2091023769872298
 10
-30.20413703015601
 20
11.51737672157945
 30
0.0
 10
-30.20413775963735
 20
11.51248337057768
 30
0.0
 10
-30.2036041700149
 20
11.50267112797667
 30
0.0
 10
-30.20118565376902
 20
11.48814490173582
 30
0.0
 10
-30.19719543469461
 20
11.47395912828582
 30
0.0
 10
-30.19162139637257
 20
11.46031157085605
 30
0.0
 10
-30.18458872063002
 20
11.44735098179831
 30
0.0
 10
-30.17614827895568
 20
11.43518358480071
 30
0.0
 10
-30.16634030335479
 20
11.42400614536939
 30
0.0
 10
-30.1553162032057
 20
11.41393912608987
 30
0.0
 10
-30.14323422702819
 20
11.40513851492918
 30
0.0
 10
-30.13020910421815
 20
11.39777165310403
 30
0.0
 10
-30.11643458659591
 20
11.3918878675562
 30
0.0
 10
-30.10185651801115
 20
11.38750297468826
 30
0.0
 10
-30.08664165815603
 20
11.38481393313066
 30
0.0
 10
-30.07619303262212
 20
11.3842105882815
 30
0.0
 10
-30.07097459493105
 20
11.38421428635452
 30
0.0
 11
-30.20413703015601
 21
11.51737672157945
 31
0.0
 11
-30.20333690395649
 21
11.50271792387069
 31
0.0
 11
-30.20092136991093
 21
11.48818750985673
 31
0.0
 11
-30.1969346731911
 21
11.4740544012531
 31
0.0
 11
-30.19138577577974
 21
11.46044005791306
 31
0.0
 11
-30.18435259632992
 21
11.44747808386658
 31
0.0
 11
-30.1759649114191
 21
11.43540351609753
 31
0.0
 11
-30.16615586330642
 21
11.42420940600847
 31
0.0
 11
-30.15513050585616
 21
11.41414123767039
 31
0.0
 11
-30.14309388190577
 21
11.40538679174044
 31
0.0
 11
-30.13010139722837
 21
11.39802659171688
 31
0.0
 11
-30.11632505043718
 21
11.39214329189819
 31
0.0
 11
-30.10202334390408
 21
11.38784965094036
 31
0.0
 11
-30.08660441597078
 21
11.38511736206719
 31
0.0
 11
-30.07097459493105
 21
11.38421428635452
 31
0.0
  0
LINE
  5
131
330
2
100
AcDbEntity
  8
GAIKEI
  6
Continuous
 62
     1
100
AcDbLine
 10
-29.8919414067409
 20
11.56360031052575
 30
0.0
 11
9.682221159368396
 21
11.56360031052575
 31
0.0
  0
LINE
  5
132
330
2
100
AcDbEntity
  8
GAIKEI
  6
Continuous
 62
     1
100
AcDbLine
 10
9.815030758612294
 20
35.07056641977162
 30
0.0
 11
9.815030758612294
 21
11.69640990976962
 31
0.0
  0
LINE
  5
133
330
2
100
AcDbEntity
  8
GAIKEI
  6
Continuous
 62
     1
100
AcDbLine
 10
9.682221159368396
 20
35.20337601901552
 30
0.0
 11
-29.8919414067409
 21
35.20337601901552
 31
0.0
  0
LINE
  5
134
330
2
100
AcDbEntity
  8
GAIKEI
  6
Continuous
 62
     1
100
AcDbLine
 10
-30.0247510059848
 20
35.07056641977162
 30
0.0
 11
-30.0247510059848
 21
11.69640990976962
 31
0.0
  0
LINE
  5
135
330
2
100
AcDbEntity
  8
GAIKEI
  6
Continuous
 62
     1
100
AcDbLine
 10
-29.23286881921985
 20
34.28017286526169
 30
0.0
 11
-29.23286881921985
 21
12.48680346427956
 31
0.0
  0
LINE
  5
136
330
2
100
AcDbEntity
  8
GAIKEI
  6
Continuous
 62
     1
100
AcDbLine
 10
9.023148571847343
 20
34.28017286526169
 30
0.0
 11
9.023148571847343
 21
12.48680346427956
 31
0.0
  0
LINE
  5
137
330
2
100
AcDbEntity
  8
GAIKEI
  6
Continuous
 62
     1
100
AcDbLine
 10
-29.09821422272694
 20
12.35214886778668
 30
0.0
 11
8.888493975354492
 21
12.35214886778668
 31
0.0
  0
LINE
  5
138
330
2
100
AcDbEntity
  8
GAIKEI
  6
Continuous
 62
     1
100
AcDbLine
 10
8.888493975354492
 20
34.4148274617546
 30
0.0
 11
-29.09821422272694
 21
34.4148274617546
 31
0.0
  0
LINE
  5
139
330
2
100
AcDbEntity
  8
GAIKEI
  6
Continuous
 62
     1
100
AcDbLine
 10
-28.52983039229497
 20
11.88174970930355
 30
0.0
 11
-28.32981262205493
 21
11.88174970930355
 31
0.0
  0
LINE
  5
13A
330
2
100
AcDbEntity
  8
GAIKEI
  6
Continuous
 62
     1
100
AcDbLine
 10
-28.54649853981494
 20
11.66506379154351
 30
0.0
 11
-28.54649853981494
 21
11.86508156178352
 31
0.0
  0
LINE
  5
13B
330
2
100
AcDbEntity
  8
GAIKEI
  6
Continuous
 62
     1
100
AcDbLine
 10
-28.32981262205493
 20
11.64839564402352
 30
0.0
 11
-28.52983039229497
 21
11.64839564402352
 31
0.0
  0
LINE
  5
13C
330
2
100
AcDbEntity
  8
GAIKEI
  6
Continuous
 62
     1
100
AcDbLine
 10
-29.53658650250299
 20
11.80174260120752
 30
0.0
 11
-29.53658650250299
 21
11.72840275211955
 31
0.0
  0
LINE
  5
13D
330
2
100
AcDbEntity
  8
GAIKEI
  6
Continuous
 62
     1
100
AcDbLine
 10
-29.60992635159096
 20
11.80174260120752
 30
0.0
 11
-29.53658650250299
 21
11.80174260120752
 31
0.0
  0
LINE
  5
13E
330
2
100
AcDbEntity
  8
GAIKEI
  6
Continuous
 62
     1
100
AcDbLine
 10
-29.60992635159096
 20
11.72840275211955
 30
0.0
 11
-29.60992635159096
 21
11.80174260120752
 31
0.0
  0
LINE
  5
13F
330
2
100
AcDbEntity
  8
GAIKEI
  6
Continuous
 62
     1
100
AcDbLine
 10
-28.31314447453491
 20
11.86508156178352
 30
0.0
 11
-28.31314447453491
 21
11.66506379154351
 31
0.0
  0
LINE
  5
140
330
2
100
AcDbEntity
  8
GAIKEI
  6
Continuous
 62
     1
100
AcDbLine
 10
-29.53658650250299
 20
11.72840275211955
 30
0.0
 11
-29.60992635159096
 21
11.72840275211955
 31
0.0
  0
LINE
  5
141
330
2
100
AcDbEntity
  8
GAIKEI
  6
Continuous
 62
     1
100
AcDbLine
 10
9.815030758612294
 20
11.69640990976962
 30
0.0
 11
9.970995048328745
 21
11.54044562005315
 31
0.0
  0
LINE
  5
142
330
2
100
AcDbEntity
  8
GAIKEI
  6
Continuous
 62
     1
100
AcDbLine
 10
9.838185449084846
 20
11.40763602080925
 30
0.0
 11
9.682221159368396
 21
11.56360031052575
 31
0.0
  0
LINE
  5
143
330
2
100
AcDbEntity
  8
GAIKEI
  6
Continuous
 62
     1
100
AcDbLine
 10
9.682221159368396
 20
35.20337601901552
 30
0.0
 11
9.838185449084846
 21
35.35934030873197
 31
0.0
  0
LINE
  5
144
330
2
100
AcDbEntity
  8
GAIKEI
  6
Continuous
 62
     1
100
AcDbLine
 10
9.970995048328745
 20
35.22653070948808
 30
0.0
 11
9.815030758612294
 21
35.07056641977162
 31
0.0
  0
LINE
  5
145
330
2
100
AcDbEntity
  8
GAIKEI
  6
Continuous
 62
     1
100
AcDbLine
 10
-30.0247510059848
 20
11.69640990976962
 30
0.0
 11
-30.18071529570125
 21
11.54044562005315
 31
0.0
  0
LINE
  5
146
330
2
100
AcDbEntity
  8
GAIKEI
  6
Continuous
 62
     1
100
AcDbLine
 10
-30.04790569645735
 20
11.40763602080925
 30
0.0
 11
-29.8919414067409
 21
11.56360031052575
 31
0.0
  0
LINE
  5
147
330
2
100
AcDbEntity
  8
GAIKEI
  6
Continuous
 62
     1
100
AcDbLine
 10
-29.8919414067409
 20
35.20337601901552
 30
0.0
 11
-30.04790569645735
 21
35.35934030873197
 31
0.0
  0
LINE
  5
148
330
2
100
AcDbEntity
  8
GAIKEI
  6
Continuous
 62
     1
100
AcDbLine
 10
-30.18071529570125
 20
35.22653070948808
 30
0.0
 11
-30.0247510059848
 21
35.07056641977162
 31
0.0
  0
LINE
  5
149
330
2
100
AcDbEntity
  8
GAIKEI
  6
Continuous
 62
     1
100
AcDbLine
 10
9.838185449084846
 20
11.40763602080925
 30
0.0
 11
-30.04790569645735
 21
11.40763602080925
 31
0.0
  0
LINE
  5
14A
330
2
100
AcDbEntity
  8
GAIKEI
  6
Continuous
 62
     1
100
AcDbLine
 10
9.970995048328745
 20
11.54044562005315
 30
0.0
 11
9.970995048328745
 21
35.22653070948808
 31
0.0
  0
LINE
  5
14B
330
2
100
AcDbEntity
  8
GAIKEI
  6
Continuous
 62
     1
100
AcDbLine
 10
-30.04790569645735
 20
35.35934030873197
 30
0.0
 11
9.838185449084846
 21
35.35934030873197
 31
0.0
  0
LINE
  5
14C
330
2
100
AcDbEntity
  8
GAIKEI
  6
Continuous
 62
     1
100
AcDbLine
 10
-30.18071529570125
 20
11.54044562005315
 30
0.0
 11
-30.18071529570125
 21
35.22653070948808
 31
0.0
  0
LINE
  5
14D
330
2
100
AcDbEntity
  8
GAIKEI
  6
Continuous
 62
     1
100
AcDbLine
 10
8.379376210315626
 20
33.72637579743257
 30
0.0
 11
8.949502228862741
 21
34.30484075683875
 31
0.0
  0
LINE
  5
14E
330
2
100
AcDbEntity
  8
GAIKEI
  6
Continuous
 62
     1
100
AcDbLine
 10
8.859422771974664
 20
34.34684545534172
 30
0.0
 11
8.313249668748426
 21
33.79268375511741
 31
0.0
  0
LINE
  5
14F
330
2
100
AcDbEntity
  8
GAIKEI
  6
Continuous
 62
     1
100
AcDbLine
 10
-29.06832566732891
 20
34.34601614833001
 30
0.0
 11
-28.52296991612087
 21
33.79268375511741
 31
0.0
  0
LINE
  5
150
330
2
100
AcDbEntity
  8
GAIKEI
  6
Continuous
 62
     1
100
AcDbLine
 10
-28.58909645768813
 20
33.72637579743257
 30
0.0
 11
-29.15922247623525
 21
34.30484075683875
 31
0.0
  0
LINE
  5
151
330
2
100
AcDbEntity
  8
GAIKEI
  6
Continuous
 62
     1
100
AcDbLine
 10
8.313249668748426
 20
12.97429257442384
 30
0.0
 11
8.859422771974664
 21
12.42013087419955
 31
0.0
  0
LINE
  5
152
330
2
100
AcDbEntity
  8
GAIKEI
  6
Continuous
 62
     1
100
AcDbLine
 10
8.949502228862741
 20
12.46213557270251
 30
0.0
 11
8.379376210315626
 21
13.04060053210871
 31
0.0
  0
LINE
  5
153
330
2
100
AcDbEntity
  8
GAIKEI
  6
Continuous
 62
     1
100
AcDbLine
 10
-28.52296991612087
 20
12.97429257442384
 30
0.0
 11
-29.06914301934711
 21
12.42013087419955
 31
0.0
  0
LINE
  5
154
330
2
100
AcDbEntity
  8
GAIKEI
  6
Continuous
 62
     1
100
AcDbLine
 10
-29.15922247623525
 20
12.46213557270251
 30
0.0
 11
-28.58909645768813
 21
13.04060053210871
 31
0.0
  0
LINE
  5
155
330
2
100
AcDbEntity
  8
GAIKEI
  6
Continuous
 62
     1
100
AcDbLine
 10
8.383182781837376
 20
13.06785692032302
 30
0.0
 11
8.383182781837376
 21
33.69911940921826
 31
0.0
  0
LINE
  5
156
330
2
100
AcDbEntity
  8
GAIKEI
  6
Continuous
 62
     1
100
AcDbLine
 10
8.955166565434467
 20
12.48680346427956
 30
0.0
 11
8.955166565434467
 21
34.28017286526169
 31
0.0
  0
LINE
  5
157
330
2
100
AcDbEntity
  8
GAIKEI
  6
Continuous
 62
     1
100
AcDbLine
 10
-28.59290302920988
 20
13.06785692032302
 30
0.0
 11
-28.59290302920988
 21
33.69911940921826
 31
0.0
  0
LINE
  5
158
330
2
100
AcDbEntity
  8
GAIKEI
  6
Continuous
 62
     1
100
AcDbLine
 10
-29.16488681280697
 20
12.48680346427956
 30
0.0
 11
-29.16488681280697
 21
34.28017286526169
 31
0.0
  0
LINE
  5
159
330
2
100
AcDbEntity
  8
GAIKEI
  6
Continuous
 62
     1
100
AcDbLine
 10
8.888493975354492
 20
12.42013087419955
 30
0.0
 11
-29.09821422272694
 21
12.42013087419955
 31
0.0
  0
LINE
  5
15A
330
2
100
AcDbEntity
  8
GAIKEI
  6
Continuous
 62
     1
100
AcDbLine
 10
-29.09821422272694
 20
34.3468454553417
 30
0.0
 11
8.888493975354492
 21
34.3468454553417
 31
0.0
  0
LINE
  5
15B
330
2
100
AcDbEntity
  8
GAIKEI
  6
Continuous
 62
     1
100
AcDbLine
 10
-28.49548940799503
 20
33.79655413230786
 30
0.0
 11
8.285769160622521
 21
33.79655413230786
 31
0.0
  0
LINE
  5
15C
330
2
100
AcDbEntity
  8
GAIKEI
  6
Continuous
 62
     1
100
AcDbLine
 10
8.285769160622521
 20
12.97042219723339
 30
0.0
 11
-28.49548940799503
 21
12.97042219723339
 31
0.0
  0
LINE
  5
15D
330
2
100
AcDbEntity
  8
GAIKEI
  6
Continuous
 62
     1
100
AcDbLine
 10
8.351947540128549
 20
33.69911940921826
 30
0.0
 11
8.351947540128549
 21
13.06785692032302
 31
0.0
  0
LINE
  5
15E
330
2
100
AcDbEntity
  8
GAIKEI
  6
Continuous
 62
     1
100
AcDbLine
 10
-28.56166778750105
 20
33.69911940921826
 30
0.0
 11
-28.56166778750105
 21
13.06785692032302
 31
0.0
  0
LINE
  5
15F
330
2
100
AcDbEntity
  8
GAIKEI
  6
Continuous
 62
     1
100
AcDbLine
 10
-28.49548940799503
 20
13.00168407464194
 30
0.0
 11
8.285769160622521
 21
13.00168407464194
 31
0.0
  0
LINE
  5
160
330
2
100
AcDbEntity
  8
GAIKEI
  6
Continuous
 62
     1
100
AcDbLine
 10
8.285769160622521
 20
33.76529225489928
 30
0.0
 11
-28.49548940799503
 21
33.76529225489928
 31
0.0
  0
LINE
  5
161
330
2
100
AcDbEntity
  8
GAIKEI
  6
Continuous
 62
     1
100
AcDbLine
 10
-30.04790569645735
 20
11.3842620108516
 30
0.0
 11
9.838185449084846
 21
11.3842620108516
 31
0.0
  0
LINE
  5
162
330
2
100
AcDbEntity
  8
GAIKEI
  6
Continuous
 62
     1
100
AcDbLine
 10
9.838185449084846
 20
35.38271431868962
 30
0.0
 11
-30.04790569645735
 21
35.38271431868962
 31
0.0
  0
LINE
  5
163
330
2
100
AcDbEntity
  8
GAIKEI
  6
Continuous
 62
     1
100
AcDbLine
 10
9.994369058286395
 20
35.22653070948808
 30
0.0
 11
9.994369058286395
 21
11.54044562005315
 31
0.0
  0
LINE
  5
164
330
2
100
AcDbEntity
  8
GAIKEI
  6
Continuous
 62
     1
100
AcDbLine
 10
-30.2040893056589
 20
35.22653070948808
 30
0.0
 11
-30.2040893056589
 21
11.54044562005315
 31
0.0
  0
LINE
  5
165
330
2
100
AcDbEntity
  8
GAIKEI
  6
Continuous
 62
     1
100
AcDbLine
 10
10.06193142741733
 20
35.31711425722996
 30
0.0
 11
9.9944167958609
 21
35.24959959233725
 31
0.0
  0
LINE
  5
166
330
2
100
AcDbEntity
  8
GAIKEI
  6
Continuous
 62
     1
100
AcDbLine
 10
9.861254331934048
 20
35.38276205626413
 30
0.0
 11
9.928768996826761
 21
35.45027668782056
 31
0.0
  0
LINE
  5
167
330
2
100
AcDbEntity
  8
GAIKEI
  6
Continuous
 62
     1
100
AcDbLine
 10
-30.27165167478984
 20
35.31711425722996
 30
0.0
 11
-30.2041370432334
 21
35.24959959233725
 31
0.0
  0
LINE
  5
168
330
2
100
AcDbEntity
  8
GAIKEI
  6
Continuous
 62
     1
100
AcDbLine
 10
-30.07097457930655
 20
35.38276205626413
 30
0.0
 11
-30.13848924419921
 21
35.45027668782056
 31
0.0
  0
LINE
  5
169
330
2
100
AcDbEntity
  8
GAIKEI
  6
Continuous
 62
     1
100
AcDbLine
 10
-30.13848924419921
 20
11.31669964172069
 30
0.0
 11
-30.07097457930655
 21
11.38421427327709
 31
0.0
  0
LINE
  5
16A
330
2
100
AcDbEntity
  8
GAIKEI
  6
Continuous
 62
     1
100
AcDbLine
 10
-30.2041370432334
 20
11.517376737204
 30
0.0
 11
-30.27165167478984
 21
11.44986207231129
 31
0.0
  0
LINE
  5
16B
330
2
100
AcDbEntity
  8
GAIKEI
  6
Continuous
 62
     7
100
AcDbLine
 10
-30.138306627975
 20
11.31669950837549
 30
0.0
 11
9.928586380602496
 21
11.31669950837549
 31
0.0
  0
LINE
  5
16C
330
2
100
AcDbEntity
  8
GAIKEI
  6
Continuous
 62
     7
100
AcDbLine
 10
-30.138306627975
 20
35.45027682116573
 30
0.0
 11
9.928586380602496
 21
35.45027682116573
 31
0.0
  0
LINE
  5
16D
330
2
100
AcDbEntity
  8
GAIKEI
  6
Continuous
 62
     7
100
AcDbLine
 10
10.0619315607625
 20
35.31693164100572
 30
0.0
 11
10.0619315607625
 21
11.4500446885355
 31
0.0
  0
LINE
  5
16E
330
2
100
AcDbEntity
  8
GAIKEI
  6
Continuous
 62
     7
100
AcDbLine
 10
-30.27165180813501
 20
35.31693164100572
 30
0.0
 11
-30.27165180813501
 21
11.4500446885355
 31
0.0
  0
ARC
  5
16F
330
2
100
AcDbEntity
  8
GAIKEI
  6
Continuous
 62
     1
100
AcDbCircle
 10
-29.09821422272694
 20
12.48680346427956
 30
0.0
 40
0.1346545964928812
100
AcDbArc
 50
180.0
 51
270.0
  0
ARC
  5
170
330
2
100
AcDbEntity
  8
GAIKEI
  6
Continuous
 62
     1
100
AcDbCircle
 10
-29.09821422272694
 20
34.28017286526169
 30
0.0
 40
0.1346545964928812
100
AcDbArc
 50
90.0
 51
180.0
  0
ARC
  5
171
330
2
100
AcDbEntity
  8
GAIKEI
  6
Continuous
 62
     1
100
AcDbCircle
 10
8.888493975354492
 20
12.48680346427956
 30
0.0
 40
0.1346545964928812
100
AcDbArc
 50
270.0
 51
0.0
  0
ARC
  5
172
330
2
100
AcDbEntity
  8
GAIKEI
  6
Continuous
 62
     1
100
AcDbCircle
 10
8.888493975354492
 20
34.28017286526169
 30
0.0
 40
0.1346545964928812
100
AcDbArc
 50
0.0
 51
90.0
  0
ARC
  5
173
330
2
100
AcDbEntity
  8
GAIKEI
  6
Continuous
 62
     1
100
AcDbCircle
 10
-28.32981262205493
 20
11.66506379154351
 30
0.0
 40
0.0166681475200006
100
AcDbArc
 50
270.0
 51
0.0
  0
ARC
  5
174
330
2
100
AcDbEntity
  8
GAIKEI
  6
Continuous
 62
     1
100
AcDbCircle
 10
-28.52983039229497
 20
11.66506379154351
 30
0.0
 40
0.0166681475200006
100
AcDbArc
 50
180.0
 51
270.0
  0
ARC
  5
175
330
2
100
AcDbEntity
  8
GAIKEI
  6
Continuous
 62
     1
100
AcDbCircle
 10
-28.32981262205493
 20
11.86508156178352
 30
0.0
 40
0.0166681475200006
100
AcDbArc
 50
0.0
 51
90.0
  0
ARC
  5
176
330
2
100
AcDbEntity
  8
GAIKEI
  6
Continuous
 62
     1
100
AcDbCircle
 10
-28.52983039229497
 20
11.86508156178352
 30
0.0
 40
0.0166681475200006
100
AcDbArc
 50
90.0
 51
180.0
  0
ARC
  5
177
330
2
100
AcDbEntity
  8
GAIKEI
  6
Continuous
 62
     1
100
AcDbCircle
 10
8.888493975354492
 20
34.28017286526169
 30
0.0
 40
0.0666725900800025
100
AcDbArc
 50
0.0
 51
90.0
  0
ARC
  5
178
330
2
100
AcDbEntity
  8
GAIKEI
  6
Continuous
 62
     1
100
AcDbCircle
 10
-29.09821422272694
 20
34.28017286526169
 30
0.0
 40
0.0666725900800025
100
AcDbArc
 50
90.0
 51
180.0
  0
ARC
  5
179
330
2
100
AcDbEntity
  8
GAIKEI
  6
Continuous
 62
     1
100
AcDbCircle
 10
8.888493975354492
 20
12.48680346427956
 30
0.0
 40
0.0666725900800025
100
AcDbArc
 50
270.0
 51
0.0
  0
ARC
  5
17A
330
2
100
AcDbEntity
  8
GAIKEI
  6
Continuous
 62
     1
100
AcDbCircle
 10
-29.09821422272694
 20
12.48680346427956
 30
0.0
 40
0.0666725900800025
100
AcDbArc
 50
180.0
 51
270.0
  0
ARC
  5
17B
330
2
100
AcDbEntity
  8
GAIKEI
  6
Continuous
 62
     1
100
AcDbCircle
 10
8.286410884302028
 20
33.69975399893063
 30
0.0
 40
0.0655246547603001
100
AcDbArc
 50
15.61945599999471
 51
74.25064600000692
  0
ARC
  5
17C
330
2
100
AcDbEntity
  8
GAIKEI
  6
Continuous
 62
     1
100
AcDbCircle
 10
-28.49613113167453
 20
33.69975399893063
 30
0.0
 40
0.0655246547603001
100
AcDbArc
 50
105.7493539999931
 51
164.3805440000052
  0
ARC
  5
17D
330
2
100
AcDbEntity
  8
GAIKEI
  6
Continuous
 62
     7
100
AcDbCircle
 10
9.928586380602496
 20
35.31693164100572
 30
0.0
 40
0.133345180160005
100
AcDbArc
 50
0.0784680000136074
 51
89.9215319999986
  0
ARC
  5
17E
330
2
100
AcDbEntity
  8
GAIKEI
  6
Continuous
 62
     7
100
AcDbCircle
 10
-30.138306627975
 20
35.31693164100572
 30
0.0
 40
0.133345180160005
100
AcDbArc
 50
90.07846799999812
 51
179.9215319999864
  0
ARC
  5
17F
330
2
100
AcDbEntity
  8
GAIKEI
  6
Continuous
 62
     7
100
AcDbCircle
 10
9.928586380602496
 20
11.4500446885355
 30
0.0
 40
0.133345180160005
100
AcDbArc
 50
270.0784679999981
 51
359.9215319999864
  0
ARC
  5
180
330
2
100
AcDbEntity
  8
GAIKEI
  6
Continuous
 62
     7
100
AcDbCircle
 10
-30.138306627975
 20
11.4500446885355
 30
0.0
 40
0.133345180160005
100
AcDbArc
 50
180.0784680000136
 51
269.9215320000019
  0
ARC
  5
181
330
2
100
AcDbEntity
  8
GAIKEI
  6
Continuous
 62
     1
100
AcDbCircle
 10
9.928586380602496
 20
11.4500446885355
 30
0.0
 40
0.133345180160005
100
AcDbArc
 50
270.0
 51
270.0784679999981
  0
ARC
  5
182
330
2
100
AcDbEntity
  8
GAIKEI
  6
Continuous
 62
     1
100
AcDbCircle
 10
-30.138306627975
 20
11.4500446885355
 30
0.0
 40
0.133345180160005
100
AcDbArc
 50
269.9215320000019
 51
270.0
  0
ARC
  5
183
330
2
100
AcDbEntity
  8
GAIKEI
  6
Continuous
 62
     1
100
AcDbCircle
 10
-30.138306627975
 20
35.31693164100572
 30
0.0
 40
0.133345180160005
100
AcDbArc
 50
90.0
 51
90.07846799999812
  0
ARC
  5
184
330
2
100
AcDbEntity
  8
GAIKEI
  6
Continuous
 62
     1
100
AcDbCircle
 10
9.928586380602496
 20
35.31693164100572
 30
0.0
 40
0.133345180160005
100
AcDbArc
 50
89.9215319999986
 51
90.0
  0
ARC
  5
185
330
2
100
AcDbEntity
  8
GAIKEI
  6
Continuous
 62
     1
100
AcDbCircle
 10
9.928586380602496
 20
35.31693164100572
 30
0.0
 40
0.133345180160005
100
AcDbArc
 50
0.0
 51
0.0784680000136074
  0
ARC
  5
186
330
2
100
AcDbEntity
  8
GAIKEI
  6
Continuous
 62
     1
100
AcDbCircle
 10
9.928586380602496
 20
11.4500446885355
 30
0.0
 40
0.133345180160005
100
AcDbArc
 50
359.9215319999864
 51
0.0
  0
ARC
  5
187
330
2
100
AcDbEntity
  8
GAIKEI
  6
Continuous
 62
     1
100
AcDbCircle
 10
-30.138306627975
 20
11.4500446885355
 30
0.0
 40
0.133345180160005
100
AcDbArc
 50
180.0
 51
180.0784680000136
  0
ARC
  5
188
330
2
100
AcDbEntity
  8
GAIKEI
  6
Continuous
 62
     1
100
AcDbCircle
 10
-30.138306627975
 20
35.31693164100572
 30
0.0
 40
0.133345180160005
100
AcDbArc
 50
179.9215319999864
 51
180.0
  0
ELLIPSE
  5
189
330
2
100
AcDbEntity
  8
GAIKEI
  6
Continuous
 62
     1
100
AcDbEllipse
 10
-29.59911852472123
 20
34.77774353775199
 30
0.0
 11
-0.3876090726745502
 21
0.3876090726745502
 31
0.0
210
0.0
220
0.0
230
1.0
 40
0.4561100000000735
 41
-0.3850537013367683
 42
0.3850537013367188
  0
ELLIPSE
  5
18A
330
2
100
AcDbEntity
  8
GAIKEI
  6
Continuous
 62
     1
100
AcDbEllipse
 10
9.389398277348732
 20
34.77774353775199
 30
0.0
 11
0.3876090726745562
 21
0.3876090726745562
 31
0.0
210
0.0
220
0.0
230
1.0
 40
0.4561100000000421
 41
5.898131605842833
 42
6.668239008516371
  0
ELLIPSE
  5
18B
330
2
100
AcDbEntity
  8
GAIKEI
  6
Continuous
 62
     1
100
AcDbEllipse
 10
-29.59911852472123
 20
11.98923279178929
 30
0.0
 11
0.3876090726745644
 21
0.3876090726745644
 31
0.0
210
0.0
220
0.0
230
1.0
 40
0.4561099999999612
 41
2.756538952253047
 42
3.526646354926617
  0
ELLIPSE
  5
18C
330
2
100
AcDbEntity
  8
GAIKEI
  6
Continuous
 62
     1
100
AcDbEllipse
 10
9.389398277348732
 20
11.98923279178929
 30
0.0
 11
-0.3876090726745644
 21
0.3876090726745644
 31
0.0
210
0.0
220
0.0
230
1.0
 40
0.4561099999999687
 41
2.756538952252958
 42
3.526646354926537
  0
ELLIPSE
  5
18D
330
2
100
AcDbEntity
  8
GAIKEI
  6
Continuous
 62
     1
100
AcDbEllipse
 10
9.957225825025489
 20
11.42140524411262
 30
0.0
 11
0.0305357090723699
 21
0.3230407415195018
 31
0.0
210
0.0
220
0.0
230
1.0
 40
0.0083090000001242
 41
-1.279026757203155
 42
-1.192616584199406
  0
ELLIPSE
  5
18E
330
2
100
AcDbEntity
  8
GAIKEI
  6
Continuous
 62
     1
100
AcDbEllipse
 10
9.957225825025489
 20
11.42140524411262
 30
0.0
 11
0.3230407423313618
 21
0.0305357091442317
 31
0.0
210
0.0
220
0.0
230
1.0
 40
0.0083089999819143
 41
4.334209238787228
 42
4.420619411547537
  0
ELLIPSE
  5
18F
330
2
100
AcDbEntity
  8
GAIKEI
  6
Continuous
 62
     1
100
AcDbEllipse
 10
9.957225825025489
 20
35.34557108542866
 30
0.0
 11
-0.3230407423314021
 21
0.0305357091442352
 31
0.0
210
0.0
220
0.0
230
1.0
 40
0.0083089999819134
 41
-1.279026757957789
 42
-1.192616585197497
  0
ELLIPSE
  5
190
330
2
100
AcDbEntity
  8
GAIKEI
  6
Continuous
 62
     1
100
AcDbEllipse
 10
9.957225825025489
 20
35.34557108542866
 30
0.0
 11
-0.030535709066745
 21
0.3230407414557805
 31
0.0
210
0.0
220
0.0
230
1.0
 40
0.0083090000015409
 41
4.33420923771091
 42
4.420619410733783
  0
ELLIPSE
  5
191
330
2
100
AcDbEntity
  8
GAIKEI
  6
Continuous
 62
     1
100
AcDbEllipse
 10
-30.16694607239794
 20
11.42140524411262
 30
0.0
 11
-0.3230407423546608
 21
0.0305357091463026
 31
0.0
210
0.0
220
0.0
230
1.0
 40
0.0083089999813824
 41
1.862565895610391
 42
1.948976068363679
  0
ELLIPSE
  5
192
330
2
100
AcDbEntity
  8
GAIKEI
  6
Continuous
 62
     1
100
AcDbEllipse
 10
-30.16694607239794
 20
11.42140524411262
 30
0.0
 11
-0.030535709049866
 21
0.3230407412645781
 31
0.0
210
0.0
220
0.0
230
1.0
 40
0.0083090000057778
 41
1.192616583886016
 42
1.279026756966244
  0
ELLIPSE
  5
193
330
2
100
AcDbEntity
  8
GAIKEI
  6
Continuous
 62
     1
100
AcDbEllipse
 10
-30.16694607239794
 20
35.34557108542866
 30
0.0
 11
0.0305357090498701
 21
0.3230407412646187
 31
0.0
210
0.0
220
0.0
230
1.0
 40
0.0083090000057821
 41
1.862565896623444
 42
1.948976069703653
  0
ELLIPSE
  5
194
330
2
100
AcDbEntity
  8
GAIKEI
  6
Continuous
 62
     1
100
AcDbEllipse
 10
-30.16694607239794
 20
35.34557108542866
 30
0.0
 11
0.3230407423546598
 21
0.0305357091463026
 31
0.0
210
0.0
220
0.0
230
1.0
 40
0.0083089999813824
 41
1.192616585226102
 42
1.279026757979404
  0
ELLIPSE
  5
195
330
2
100
AcDbEntity
  8
GAIKEI
  6
Continuous
 62
     1
100
AcDbEllipse
 10
8.281729535062197
 20
13.0700467482079
 30
0.0
 11
-0.0823124171856116
 21
0.0606728015098772
 31
0.0
210
0.0
220
0.0
230
1.0
 40
0.9775040000007887
 41
3.491160237179388
 42
3.765959554391168
  0
ELLIPSE
  5
196
330
2
100
AcDbEntity
  8
GAIKEI
  6
Continuous
 62
     1
100
AcDbEllipse
 10
8.281729535062197
 20
33.69692958133338
 30
0.0
 11
0.0823124171885619
 21
0.0606728015057627
 31
0.0
210
0.0
220
0.0
230
1.0
 40
0.9775039999996579
 41
-0.6243669007516715
 42
-0.349567583539371
  0
ELLIPSE
  5
197
330
2
100
AcDbEntity
  8
GAIKEI
  6
Continuous
 62
     1
100
AcDbEllipse
 10
-28.49144978243464
 20
33.69692958133338
 30
0.0
 11
-0.0823124171911972
 21
0.0606728015020962
 31
0.0
210
0.0
220
0.0
230
1.0
 40
0.9775039999983139
 41
0.3495675834948664
 42
0.6243669007078401
  0
ELLIPSE
  5
198
330
2
100
AcDbEntity
  8
GAIKEI
  6
Continuous
 62
     1
100
AcDbEllipse
 10
-28.49144978243464
 20
13.0700467482079
 30
0.0
 11
0.0823124171870749
 21
0.0606728015078452
 31
0.0
210
0.0
220
0.0
230
1.0
 40
0.9775040000002562
 41
2.517225752813203
 42
2.792025070024934
  0
ELLIPSE
  5
199
330
2
100
AcDbEntity
  8
GAIKEI
  6
Continuous
 62
     1
100
AcDbEllipse
 10
8.283589400298751
 20
33.69511091975748
 30
0.0
 11
0.0607808270141988
 21
0.0822184915774339
 31
0.0
210
0.0
220
0.0
230
1.0
 40
0.9776260000029461
 41
0.3486902261527096
 42
0.6258116351479744
  0
ELLIPSE
  5
19A
330
2
100
AcDbEntity
  8
GAIKEI
  6
Continuous
 62
     1
100
AcDbEllipse
 10
-28.49330964767125
 20
33.69511091975748
 30
0.0
 11
-0.0607808270158121
 21
0.082218491576272
 31
0.0
210
0.0
220
0.0
230
0.9999999999999998
 40
0.9776260000034472
 41
-0.625811635167389
 42
-0.3486902261722637
  0
ELLIPSE
  5
19B
330
2
100
AcDbEntity
  8
GAIKEI
  6
Continuous
 62
     1
100
AcDbEllipse
 10
-28.49330964767125
 20
13.07186540978382
 30
0.0
 11
0.0607808269967871
 21
0.0822184915900438
 31
0.0
210
0.0
220
0.0
230
1.0
 40
0.977625999995409
 41
3.490282879530687
 42
3.767404288529979
  0
ELLIPSE
  5
19C
330
2
100
AcDbEntity
  8
GAIKEI
  6
Continuous
 62
     1
100
AcDbEllipse
 10
8.283589400298751
 20
13.07186540978382
 30
0.0
 11
-0.0607808270033003
 21
0.0822184915853297
 31
0.0
210
0.0
220
0.0
230
1.0
 40
0.9776259999984945
 41
2.515781018572056
 42
2.792902427569963
  0
ELLIPSE
  5
19D
330
2
100
AcDbEntity
  8
GAIKEI
  6
Continuous
 62
     1
100
AcDbEllipse
 10
8.283582099650175
 20
13.0700467482079
 30
0.0
 11
-0.0547195731247495
 21
0.0426917914117292
 31
0.0
210
0.0
220
0.0
230
1.0
 40
0.9600419999999962
 41
3.516854090128136
 42
3.791653407339537
  0
ELLIPSE
  5
19E
330
2
100
AcDbEntity
  8
GAIKEI
  6
Continuous
 62
     1
100
AcDbEllipse
 10
8.283582099650175
 20
33.69692958133338
 30
0.0
 11
0.0547195731240741
 21
0.0426917914126376
 31
0.0
210
0.0
220
0.0
230
1.0
 40
0.9600420000007662
 41
-0.6500607537652972
 42
-0.3752614365537126
  0
ELLIPSE
  5
19F
330
2
100
AcDbEntity
  8
GAIKEI
  6
Continuous
 62
     1
100
AcDbEllipse
 10
-28.49330234702262
 20
13.0700467482079
 30
0.0
 11
0.054719573126713
 21
0.0426917914091056
 31
0.0
210
0.0
220
0.0
230
1.0
 40
0.9600419999976159
 41
2.491531899886615
 42
2.766331217099247
  0
ELLIPSE
  5
1A0
330
2
100
AcDbEntity
  8
GAIKEI
  6
Continuous
 62
     1
100
AcDbEllipse
 10
-28.49330234702262
 20
33.69692958133338
 30
0.0
 11
-0.05471957312403
 21
0.042691791412705
 31
0.0
210
0.0
220
0.0
230
1.0
 40
0.9600420000005415
 41
0.3752614365549947
 42
0.6500607537665788
  0
ELLIPSE
  5
1A1
330
2
100
AcDbEntity
  8
GAIKEI
  6
Continuous
 62
     1
100
AcDbEllipse
 10
8.283589400298751
 20
13.07003944755929
 30
0.0
 11
-0.042753784866503
 21
0.0546568828102033
 31
0.0
210
0.0
220
0.0
230
0.9999999999999998
 40
0.9602120000078178
 41
2.490198768239826
 42
2.767320177232909
  0
ELLIPSE
  5
1A2
330
2
100
AcDbEntity
  8
GAIKEI
  6
Continuous
 62
     1
100
AcDbEllipse
 10
-28.49330964767125
 20
13.07003944755929
 30
0.0
 11
0.0427537848582486
 21
0.0546568828163674
 31
0.0
210
0.0
220
0.0
230
1.0
 40
0.9602120000005857
 41
3.515865129796059
 42
3.792986538793065
  0
ELLIPSE
  5
1A3
330
2
100
AcDbEntity
  8
GAIKEI
  6
Continuous
 62
     1
100
AcDbEllipse
 10
8.283589400298751
 20
33.69693688198199
 30
0.0
 11
0.0427537848527262
 21
0.0546568828205145
 31
0.0
210
0.0
220
0.0
230
1.0
 40
0.9602119999955242
 41
0.3742724761062375
 42
0.6513938851051569
  0
ELLIPSE
  5
1A4
330
2
100
AcDbEntity
  8
GAIKEI
  6
Continuous
 62
     1
100
AcDbEllipse
 10
-28.49330964767125
 20
33.69693688198199
 30
0.0
 11
-0.0427537848529118
 21
0.0546568828203793
 31
0.0
210
0.0
220
0.0
230
1.0
 40
0.960211999995565
 41
-0.6513938851084821
 42
-0.3742724761095297
  0
ELLIPSE
  5
1A5
330
2
100
AcDbEntity
  8
GAIKEI
  6
Continuous
 62
     1
100
AcDbEllipse
 10
9.957225825025489
 20
11.37146934097522
 30
0.0
 11
-0.2879170138799422
 21
0.0052978427250903
 31
0.0
210
0.0
220
0.0
230
1.0
 40
0.0404429999981349
 41
-1.230218566717536
 42
-1.143808393720374
  0
ELLIPSE
  5
1A6
330
2
100
AcDbEntity
  8
GAIKEI
  6
Continuous
 62
     1
100
AcDbEllipse
 10
9.957225825025489
 20
35.39550698856606
 30
0.0
 11
0.2879170138798924
 21
0.005297842725091
 31
0.0
210
0.0
220
0.0
230
1.0
 40
0.0404429999981408
 41
4.285401047310096
 42
4.371811220307267
  0
ELLIPSE
  5
1A7
330
2
100
AcDbEntity
  8
GAIKEI
  6
Continuous
 62
     1
100
AcDbEllipse
 10
10.00716172816283
 20
35.34557108542866
 30
0.0
 11
0.0052978427250493
 21
0.2879170138793219
 31
0.0
210
0.0
220
0.0
230
1.0
 40
0.0404429999982778
 41
1.911374086873103
 42
1.997784259870286
  0
ELLIPSE
  5
1A8
330
2
100
AcDbEntity
  8
GAIKEI
  6
Continuous
 62
     1
100
AcDbEllipse
 10
10.00716172816283
 20
11.42140524411262
 30
0.0
 11
-0.0052978427254085
 21
0.2879170138543368
 31
0.0
210
0.0
220
0.0
230
1.0
 40
0.0404430000012197
 41
1.14380839367993
 42
1.230218566685839
  0
ELLIPSE
  5
1A9
330
2
100
AcDbEntity
  8
GAIKEI
  6
Continuous
 62
     1
100
AcDbEllipse
 10
-30.16694607239794
 20
11.37146934097522
 30
0.0
 11
0.2879170138799391
 21
0.0052978427250901
 31
0.0
210
0.0
220
0.0
230
1.0
 40
0.0404429999981356
 41
1.143808393720369
 42
1.23021856671755
  0
ELLIPSE
  5
1AA
330
2
100
AcDbEntity
  8
GAIKEI
  6
Continuous
 62
     1
100
AcDbEllipse
 10
-30.16694607239794
 20
35.39550698856606
 30
0.0
 11
-0.2879170138797297
 21
0.0052978427250935
 31
0.0
210
0.0
220
0.0
230
1.0
 40
0.0404429999981596
 41
1.911374086872534
 42
1.997784259869754
  0
ELLIPSE
  5
1AB
330
2
100
AcDbEntity
  8
GAIKEI
  6
Continuous
 62
     1
100
AcDbEllipse
 10
-30.21688197553533
 20
11.42140524411262
 30
0.0
 11
0.0052978427251001
 21
0.2879170138793289
 31
0.0
210
0.0
220
0.0
230
1.0
 40
0.0404429999982055
 41
-1.230218566716693
 42
-1.143808393719511
  0
ELLIPSE
  5
1AC
330
2
100
AcDbEntity
  8
GAIKEI
  6
Continuous
 62
     1
100
AcDbEllipse
 10
-30.21688197553533
 20
35.34557108542866
 30
0.0
 11
-0.0052978427251001
 21
0.2879170138793281
 31
0.0
210
0.0
220
0.0
230
1.0
 40
0.0404429999982056
 41
4.285401047309302
 42
4.371811220306485
  0
LINE
  5
1AD
330
2
100
AcDbEntity
  8
GAIKEI
  6
S10
 62
     1
100
AcDbLine
 10
-8.669732622213814
 20
30.59441180706846
 30
0.0
 11
-8.669732622213814
 21
29.99435849634846
 31
0.0
  0
LINE
  5
1AF
330
2
100
AcDbEntity
  8
GAIKEI
  6
S10
 62
     1
100
AcDbLine
 10
-11.63999651027785
 20
30.59441180706846
 30
0.0
 11
-11.63999651027785
 21
29.99435849634846
 31
0.0
  0
LINE
  5
1B0
330
2
100
AcDbEntity
  8
GAIKEI
  6
S10
 62
     1
100
AcDbLine
 10
-8.413043150405826
 20
30.54459238094593
 30
0.0
 11
-8.413043150405826
 21
30.04417758910803
 31
0.0
  0
LINE
  5
1B1
330
2
100
AcDbEntity
  8
GAIKEI
  6
S10
 62
     1
100
AcDbLine
 10
-8.629729068165829
 20
29.99435849634846
 30
0.0
 11
-8.669732622213814
 21
29.99435849634846
 31
0.0
  0
LINE
  5
1B2
330
2
100
AcDbEntity
  8
GAIKEI
  6
S10
 62
     1
100
AcDbLine
 10
-8.669732622213814
 20
30.59441180706846
 30
0.0
 11
-8.629729068165829
 21
30.59441180706846
 31
0.0
  0
LINE
  5
1B3
330
2
100
AcDbEntity
  8
GAIKEI
  6
S10
 62
     1
100
AcDbLine
 10
-8.629729068165829
 20
30.59441180706846
 30
0.0
 11
-8.629729068165829
 21
29.99435849634846
 31
0.0
  0
LINE
  5
1B4
330
2
100
AcDbEntity
  8
GAIKEI
  6
S10
 62
     1
100
AcDbLine
 10
-8.413043150405826
 20
30.04417758910803
 30
0.0
 11
-8.629729068165829
 21
30.04417758910803
 31
0.0
  0
LINE
  5
1B5
330
2
100
AcDbEntity
  8
GAIKEI
  6
S10
 62
     1
100
AcDbLine
 10
-8.413043150405826
 20
30.16103997154845
 30
0.0
 11
-8.629729068165829
 21
30.16103997154845
 31
0.0
  0
LINE
  5
1B6
330
2
100
AcDbEntity
  8
GAIKEI
  6
S10
 62
     1
100
AcDbLine
 10
-8.629729068165829
 20
30.42773033186846
 30
0.0
 11
-8.413043150405826
 21
30.42773033186846
 31
0.0
  0
LINE
  5
1B7
330
2
100
AcDbEntity
  8
GAIKEI
  6
S10
 62
     1
100
AcDbLine
 10
-8.413043150405826
 20
30.54459238094593
 30
0.0
 11
-8.629729068165829
 21
30.54459238094593
 31
0.0
  0
LINE
  5
1B8
330
2
100
AcDbEntity
  8
GAIKEI
  6
S10
 62
     1
100
AcDbLine
 10
-11.8966859820859
 20
30.54459238094593
 30
0.0
 11
-11.8966859820859
 21
30.04417758910803
 31
0.0
  0
LINE
  5
1B9
330
2
100
AcDbEntity
  8
GAIKEI
  6
S10
 62
     1
100
AcDbLine
 10
-11.68000006432584
 20
29.99435849634846
 30
0.0
 11
-11.63999651027785
 21
29.99435849634846
 31
0.0
  0
LINE
  5
1BA
330
2
100
AcDbEntity
  8
GAIKEI
  6
S10
 62
     1
100
AcDbLine
 10
-11.63999651027785
 20
30.59441180706846
 30
0.0
 11
-11.68000006432584
 21
30.59441180706846
 31
0.0
  0
LINE
  5
1BB
330
2
100
AcDbEntity
  8
GAIKEI
  6
S10
 62
     1
100
AcDbLine
 10
-11.68000006432584
 20
30.59441180706846
 30
0.0
 11
-11.68000006432584
 21
29.99435849634846
 31
0.0
  0
LINE
  5
1BC
330
2
100
AcDbEntity
  8
GAIKEI
  6
S10
 62
     1
100
AcDbLine
 10
-11.8966859820859
 20
30.04417758910803
 30
0.0
 11
-11.68000006432584
 21
30.04417758910803
 31
0.0
  0
LINE
  5
1BD
330
2
100
AcDbEntity
  8
GAIKEI
  6
S10
 62
     1
100
AcDbLine
 10
-11.8966859820859
 20
30.16103997154845
 30
0.0
 11
-11.68000006432584
 21
30.16103997154845
 31
0.0
  0
LINE
  5
1BE
330
2
100
AcDbEntity
  8
GAIKEI
  6
S10
 62
     1
100
AcDbLine
 10
-11.68000006432584
 20
30.42773033186846
 30
0.0
 11
-11.8966859820859
 21
30.42773033186846
 31
0.0
  0
LINE
  5
1BF
330
2
100
AcDbEntity
  8
GAIKEI
  6
S10
 62
     1
100
AcDbLine
 10
-11.8966859820859
 20
30.54459238094593
 30
0.0
 11
-11.68000006432584
 21
30.54459238094593
 31
0.0
  0
LINE
  5
1C0
330
2
100
AcDbEntity
  8
GAIKEI
  6
S10
 62
     1
100
AcDbLine
 10
-11.97169264592588
 20
27.69415413858842
 30
0.0
 11
-11.67166599056588
 21
27.69415413858842
 31
0.0
  0
LINE
  5
1C1
330
2
100
AcDbEntity
  8
GAIKEI
  6
S10
 62
     1
100
AcDbLine
 10
-8.63806314192584
 20
27.69415413858842
 30
0.0
 11
-8.33803648656584
 21
27.69415413858842
 31
0.0
  0
ARC
  5
1C2
330
2
100
AcDbEntity
  8
GAIKEI
  6
S10
 62
     1
100
AcDbCircle
 10
-21.90482523451271
 20
30.07103197494045
 30
0.0
 40
0.1000088851200014
100
AcDbArc
 50
0.0
 51
90.0
  0
ARC
  5
1C3
330
2
100
AcDbEntity
  8
GAIKEI
  6
S10
 62
     1
100
AcDbCircle
 10
-20.40469195771266
 20
30.07103197494045
 30
0.0
 40
0.1000088851200014
100
AcDbArc
 50
90.0
 51
180.0
  0
ARC
  5
1C4
330
2
100
AcDbEntity
  8
GAIKEI
  6
S10
 62
     1
100
AcDbCircle
 10
-21.6381348741927
 20
29.96535358612299
 30
0.0
 40
0.1666814752000023
100
AcDbArc
 50
180.0
 51
229.9697410000002
  0
ARC
  5
1C5
330
2
100
AcDbEntity
  8
GAIKEI
  6
S10
 62
     1
100
AcDbCircle
 10
-20.67138231803267
 20
29.96535358612299
 30
0.0
 40
0.1666814752000023
100
AcDbArc
 50
310.0302589999997
 51
0.0
  0
ARC
  5
1C6
330
2
100
AcDbEntity
  8
GAIKEI
  6
S10
 62
     1
100
AcDbCircle
 10
-21.7214756117927
 20
29.38230845313241
 30
0.0
 40
0.3333629504000047
100
AcDbArc
 50
0.0
 51
49.96974100000024
  0
ARC
  5
1C7
330
2
100
AcDbEntity
  8
GAIKEI
  6
S10
 62
     1
100
AcDbCircle
 10
-20.58804158043267
 20
29.38230845313241
 30
0.0
 40
0.3333629504000047
100
AcDbArc
 50
130.0302589999997
 51
180.0
  0
LINE
  5
1C8
330
2
100
AcDbEntity
  8
GAIKEI
  6
S10
 62
     1
100
AcDbLine
 10
-21.50705922899903
 20
29.63756613106845
 30
0.0
 11
-21.74534306558951
 21
29.83772458047351
 31
0.0
  0
LINE
  5
1C9
330
2
100
AcDbEntity
  8
GAIKEI
  6
S10
 62
     1
100
AcDbLine
 10
-20.56417412663581
 20
29.83772458047351
 30
0.0
 11
-20.80245796322635
 21
29.63756613106845
 31
0.0
  0
ARC
  5
1CA
330
2
100
AcDbEntity
  8
GAIKEI
  6
S10
 62
     1
100
AcDbCircle
 10
-21.5547941365927
 20
18.27533167259356
 30
0.0
 40
0.1666814752000023
100
AcDbArc
 50
0.0
 51
56.07276800000096
  0
ARC
  5
1CB
330
2
100
AcDbEntity
  8
GAIKEI
  6
S10
 62
     1
100
AcDbCircle
 10
-20.75472305563267
 20
18.27533167259356
 30
0.0
 40
0.1666814752000023
100
AcDbArc
 50
123.927231999999
 51
180.0
  0
LINE
  5
1CC
330
2
100
AcDbEntity
  8
GAIKEI
  6
S10
 62
     1
100
AcDbLine
 10
-21.70480746427267
 20
18.87003684150029
 30
0.0
 11
-21.70480746427267
 21
19.03654630141788
 31
0.0
  0
LINE
  5
1CD
330
2
100
AcDbEntity
  8
GAIKEI
  6
S10
 62
     1
100
AcDbLine
 10
-20.6047097279527
 20
18.87003684150029
 30
0.0
 11
-20.6047097279527
 21
19.03665931145808
 31
0.0
  0
ARC
  5
1CE
330
2
100
AcDbEntity
  8
GAIKEI
  6
S10
 62
     1
100
AcDbCircle
 10
-21.7046354489903
 20
19.10339090678029
 30
0.0
 40
0.0668446053624074
100
AcDbArc
 50
86.66036600000108
 51
269.8524600000009
  0
ARC
  5
1CF
330
2
100
AcDbEntity
  8
GAIKEI
  6
S10
 62
     1
100
AcDbCircle
 10
-21.15475859611269
 20
18.87003684150029
 30
0.0
 40
0.5500488681600077
100
AcDbArc
 50
180.0
 51
236.072768000001
  0
ARC
  5
1D0
330
2
100
AcDbEntity
  8
GAIKEI
  6
S10
 62
     1
100
AcDbCircle
 10
-21.15475859611269
 20
18.87003684150029
 30
0.0
 40
0.5500488681600077
100
AcDbArc
 50
303.927231999999
 51
0.0
  0
ARC
  5
1D1
330
2
100
AcDbEntity
  8
GAIKEI
  6
S10
 62
     1
100
AcDbCircle
 10
-21.15475859611269
 20
19.10339090678029
 30
0.0
 40
0.5500488681600077
100
AcDbArc
 50
6.973575999999504
 51
173.0689550000004
  0
ARC
  5
1D2
330
2
100
AcDbEntity
  8
GAIKEI
  6
S10
 62
     1
100
AcDbCircle
 10
-20.60488207659802
 20
19.10339090678029
 30
0.0
 40
0.0668446053624074
100
AcDbArc
 50
270.1475399999991
 51
93.33963399999893
  0
ARC
  5
1D3
330
2
100
AcDbEntity
  8
GAIKEI
  6
S10
 62
     1
100
AcDbCircle
 10
-21.13809044859266
 20
18.13663835062029
 30
0.0
 40
0.2166859177600031
100
AcDbArc
 50
270.0
 51
0.0
  0
ARC
  5
1D4
330
2
100
AcDbEntity
  8
GAIKEI
  6
S10
 62
     1
100
AcDbCircle
 10
-21.17142674363271
 20
18.13663835062029
 30
0.0
 40
0.2166859177600031
100
AcDbArc
 50
180.0
 51
270.0
  0
LINE
  5
1D5
330
2
100
AcDbEntity
  8
GAIKEI
  6
S10
 62
     1
100
AcDbLine
 10
-21.17142674363271
 20
17.91995243286028
 30
0.0
 11
-21.13809044859266
 21
17.91995243286028
 31
0.0
  0
LINE
  5
1D6
330
2
100
AcDbEntity
  8
GAIKEI
  6
S10
 62
     1
100
AcDbLine
 10
-21.38811266139265
 20
18.13663835062029
 30
0.0
 11
-21.38811266139265
 21
18.27533167259356
 31
0.0
  0
LINE
  5
1D7
330
2
100
AcDbEntity
  8
GAIKEI
  6
S10
 62
     1
100
AcDbLine
 10
-20.92140453083266
 20
18.13663835062029
 30
0.0
 11
-20.92140453083266
 21
18.27533167259356
 31
0.0
  0
LINE
  5
1D8
330
2
100
AcDbEntity
  8
GAIKEI
  6
S10
 62
     1
100
AcDbLine
 10
-21.80481634939269
 20
30.07103197494045
 30
0.0
 11
-21.80481634939269
 21
29.96535358612299
 31
0.0
  0
LINE
  5
1D9
330
2
100
AcDbEntity
  8
GAIKEI
  6
S10
 62
     1
100
AcDbLine
 10
-20.50470084283268
 20
30.07103197494045
 30
0.0
 11
-20.50470084283268
 21
29.96535358612299
 31
0.0
  0
ARC
  5
1DA
330
2
100
AcDbEntity
  8
GAIKEI
  6
S10
 62
     1
100
AcDbCircle
 10
-21.17142674363271
 20
28.80425276342042
 30
0.0
 40
0.2166859177600031
100
AcDbArc
 50
180.0
 51
270.0
  0
ARC
  5
1DB
330
2
100
AcDbEntity
  8
GAIKEI
  6
S10
 62
     1
100
AcDbCircle
 10
-21.13809044859266
 20
28.80425276342042
 30
0.0
 40
0.2166859177600031
100
AcDbArc
 50
270.0
 51
0.0
  0
LINE
  5
1DC
330
2
100
AcDbEntity
  8
GAIKEI
  6
S10
 62
     1
100
AcDbLine
 10
-21.17142674363271
 20
28.58756684566045
 30
0.0
 11
-21.13809044859266
 21
28.58756684566045
 31
0.0
  0
LINE
  5
1DD
330
2
100
AcDbEntity
  8
GAIKEI
  6
S10
 62
     1
100
AcDbLine
 10
-21.38811266139265
 20
28.80425276342042
 30
0.0
 11
-21.38811266139265
 21
29.38230845313241
 31
0.0
  0
LINE
  5
1DE
330
2
100
AcDbEntity
  8
GAIKEI
  6
S10
 62
     1
100
AcDbLine
 10
-20.92140453083266
 20
28.80425276342042
 30
0.0
 11
-20.92140453083266
 21
29.38230845313241
 31
0.0
  0
LINE
  5
1DF
330
2
100
AcDbEntity
  8
GAIKEI
  6
S10
 62
     1
100
AcDbLine
 10
-20.40469195771266
 20
30.17104086006047
 30
0.0
 11
-20.15466974491267
 21
30.17104086006047
 31
0.0
  0
LINE
  5
1E0
330
2
100
AcDbEntity
  8
GAIKEI
  6
S10
 62
     1
100
AcDbLine
 10
-21.90482523451271
 20
30.17104086006047
 30
0.0
 11
-22.1548474473127
 21
30.17104086006047
 31
0.0
  0
LINE
  5
1E1
330
2
100
AcDbEntity
  8
GAIKEI
  6
S10
 62
     1
100
AcDbLine
 10
-20.15466974491267
 20
15.80309769782023
 30
0.0
 11
-20.15466974491267
 21
30.17104086006047
 31
0.0
  0
LINE
  5
1E2
330
2
100
AcDbEntity
  8
GAIKEI
  6
S10
 62
     1
100
AcDbLine
 10
-20.15466974491267
 20
15.80309769782023
 30
0.0
 11
-22.1548474473127
 21
15.80309769782023
 31
0.0
  0
LINE
  5
1E3
330
2
100
AcDbEntity
  8
GAIKEI
  6
S10
 62
     1
100
AcDbLine
 10
-22.1548474473127
 20
30.17104086006047
 30
0.0
 11
-22.1548474473127
 21
15.80309769782023
 31
0.0
  0
ARC
  5
1E4
330
2
100
AcDbEntity
  8
GAIKEI
  6
S10
 62
     1
100
AcDbCircle
 10
1.595096102020988
 20
30.07103197494045
 30
0.0
 40
0.1000088851200014
100
AcDbArc
 50
90.0
 51
180.0
  0
ARC
  5
1E5
330
2
100
AcDbEntity
  8
GAIKEI
  6
S10
 62
     1
100
AcDbCircle
 10
0.0949628252209891
 20
30.07103197494045
 30
0.0
 40
0.1000088851200014
100
AcDbArc
 50
0.0
 51
90.0
  0
ARC
  5
1E6
330
2
100
AcDbEntity
  8
GAIKEI
  6
S10
 62
     1
100
AcDbCircle
 10
1.328405741700976
 20
29.96535358612299
 30
0.0
 40
0.1666814752000023
100
AcDbArc
 50
310.0302589999997
 51
0.0
  0
ARC
  5
1E7
330
2
100
AcDbEntity
  8
GAIKEI
  6
S10
 62
     1
100
AcDbCircle
 10
0.3616531855410017
 20
29.96535358612299
 30
0.0
 40
0.1666814752000023
100
AcDbArc
 50
180.0
 51
229.9697410000002
  0
ARC
  5
1E8
330
2
100
AcDbEntity
  8
GAIKEI
  6
S10
 62
     1
100
AcDbCircle
 10
1.411746479300973
 20
29.38230845313241
 30
0.0
 40
0.3333629504000047
100
AcDbArc
 50
130.0302589999997
 51
180.0
  0
ARC
  5
1E9
330
2
100
AcDbEntity
  8
GAIKEI
  6
S10
 62
     1
100
AcDbCircle
 10
0.278312447940948
 20
29.38230845313241
 30
0.0
 40
0.3333629504000047
100
AcDbArc
 50
0.0
 51
49.96974100000024
  0
LINE
  5
1EA
330
2
100
AcDbEntity
  8
GAIKEI
  6
S10
 62
     1
100
AcDbLine
 10
1.1973300965073
 20
29.63756613106845
 30
0.0
 11
1.43561393309784
 21
29.83772458047351
 31
0.0
  0
LINE
  5
1EB
330
2
100
AcDbEntity
  8
GAIKEI
  6
S10
 62
     1
100
AcDbLine
 10
0.2544449941441371
 20
29.83772458047351
 30
0.0
 11
0.4927288307346203
 21
29.63756613106845
 31
0.0
  0
ARC
  5
1EC
330
2
100
AcDbEntity
  8
GAIKEI
  6
S10
 62
     1
100
AcDbCircle
 10
1.245065004100979
 20
18.27533167259356
 30
0.0
 40
0.1666814752000023
100
AcDbArc
 50
123.927231999999
 51
180.0
  0
ARC
  5
1ED
330
2
100
AcDbEntity
  8
GAIKEI
  6
S10
 62
     1
100
AcDbCircle
 10
0.4449939231409985
 20
18.27533167259356
 30
0.0
 40
0.1666814752000023
100
AcDbArc
 50
0.0
 51
56.07276800000096
  0
LINE
  5
1EE
330
2
100
AcDbEntity
  8
GAIKEI
  6
S10
 62
     1
100
AcDbLine
 10
1.395078331781007
 20
18.87003684150029
 30
0.0
 11
1.395078331781007
 21
19.03654630141788
 31
0.0
  0
LINE
  5
1EF
330
2
100
AcDbEntity
  8
GAIKEI
  6
S10
 62
     1
100
AcDbLine
 10
0.2949805954609701
 20
18.87003684150029
 30
0.0
 11
0.2949805954609701
 21
19.03665931145808
 31
0.0
  0
ARC
  5
1F0
330
2
100
AcDbEntity
  8
GAIKEI
  6
S10
 62
     1
100
AcDbCircle
 10
1.394905983135629
 20
19.10339090678029
 30
0.0
 40
0.0668446053624074
100
AcDbArc
 50
270.1475399999991
 51
93.33963399999893
  0
ARC
  5
1F1
330
2
100
AcDbEntity
  8
GAIKEI
  6
S10
 62
     1
100
AcDbCircle
 10
0.8450294636209605
 20
18.87003684150029
 30
0.0
 40
0.5500488681600077
100
AcDbArc
 50
303.927231999999
 51
0.0
  0
ARC
  5
1F2
330
2
100
AcDbEntity
  8
GAIKEI
  6
S10
 62
     1
100
AcDbCircle
 10
0.8450294636209605
 20
18.87003684150029
 30
0.0
 40
0.5500488681600077
100
AcDbArc
 50
180.0
 51
236.072768000001
  0
ARC
  5
1F3
330
2
100
AcDbEntity
  8
GAIKEI
  6
S10
 62
     1
100
AcDbCircle
 10
0.8450294636209605
 20
19.10339090678029
 30
0.0
 40
0.5500488681600077
100
AcDbArc
 50
6.93104499999958
 51
173.0264240000005
  0
ARC
  5
1F4
330
2
100
AcDbEntity
  8
GAIKEI
  6
S10
 62
     1
100
AcDbCircle
 10
0.2951526107433437
 20
19.10339090678029
 30
0.0
 40
0.0668446053624074
100
AcDbArc
 50
86.66036600000108
 51
269.8524600000009
  0
ARC
  5
1F5
330
2
100
AcDbEntity
  8
GAIKEI
  6
S10
 62
     1
100
AcDbCircle
 10
0.8283613161009952
 20
18.13663835062029
 30
0.0
 40
0.2166859177600031
100
AcDbArc
 50
180.0
 51
270.0
  0
ARC
  5
1F6
330
2
100
AcDbEntity
  8
GAIKEI
  6
S10
 62
     1
100
AcDbCircle
 10
0.8616976111409826
 20
18.13663835062029
 30
0.0
 40
0.2166859177600031
100
AcDbArc
 50
270.0
 51
0.0
  0
LINE
  5
1F7
330
2
100
AcDbEntity
  8
GAIKEI
  6
S10
 62
     1
100
AcDbLine
 10
0.8616976111409826
 20
17.91995243286028
 30
0.0
 11
0.8283613161009952
 21
17.91995243286028
 31
0.0
  0
LINE
  5
1F8
330
2
100
AcDbEntity
  8
GAIKEI
  6
S10
 62
     1
100
AcDbLine
 10
1.078383528900985
 20
18.13663835062029
 30
0.0
 11
1.078383528900985
 21
18.27533167259356
 31
0.0
  0
LINE
  5
1F9
330
2
100
AcDbEntity
  8
GAIKEI
  6
S10
 62
     1
100
AcDbLine
 10
0.6116753983409922
 20
18.13663835062029
 30
0.0
 11
0.6116753983409922
 21
18.27533167259356
 31
0.0
  0
LINE
  5
1FA
330
2
100
AcDbEntity
  8
GAIKEI
  6
S10
 62
     1
100
AcDbLine
 10
1.495087216900969
 20
30.07103197494045
 30
0.0
 11
1.495087216900969
 21
29.96535358612299
 31
0.0
  0
LINE
  5
1FB
330
2
100
AcDbEntity
  8
GAIKEI
  6
S10
 62
     1
100
AcDbLine
 10
0.1949717103409512
 20
30.07103197494045
 30
0.0
 11
0.1949717103409512
 21
29.96535358612299
 31
0.0
  0
ARC
  5
1FC
330
2
100
AcDbEntity
  8
GAIKEI
  6
S10
 62
     1
100
AcDbCircle
 10
0.8616976111409826
 20
28.80425276342042
 30
0.0
 40
0.2166859177600031
100
AcDbArc
 50
270.0
 51
0.0
  0
ARC
  5
1FD
330
2
100
AcDbEntity
  8
GAIKEI
  6
S10
 62
     1
100
AcDbCircle
 10
0.8283613161009952
 20
28.80425276342042
 30
0.0
 40
0.2166859177600031
100
AcDbArc
 50
180.0
 51
270.0
  0
LINE
  5
1FE
330
2
100
AcDbEntity
  8
GAIKEI
  6
S10
 62
     1
100
AcDbLine
 10
0.8616976111409826
 20
28.58756684566045
 30
0.0
 11
0.8283613161009952
 21
28.58756684566045
 31
0.0
  0
LINE
  5
1FF
330
2
100
AcDbEntity
  8
GAIKEI
  6
S10
 62
     1
100
AcDbLine
 10
1.078383528900985
 20
28.80425276342042
 30
0.0
 11
1.078383528900985
 21
29.38230845313241
 31
0.0
  0
LINE
  5
200
330
2
100
AcDbEntity
  8
GAIKEI
  6
S10
 62
     1
100
AcDbLine
 10
0.6116753983409922
 20
28.80425276342042
 30
0.0
 11
0.6116753983409922
 21
29.38230845313241
 31
0.0
  0
LINE
  5
201
330
2
100
AcDbEntity
  8
GAIKEI
  6
S10
 62
     1
100
AcDbLine
 10
0.0949628252209891
 20
30.17104086006047
 30
0.0
 11
-0.1550593875790014
 21
30.17104086006047
 31
0.0
  0
LINE
  5
202
330
2
100
AcDbEntity
  8
GAIKEI
  6
S10
 62
     1
100
AcDbLine
 10
1.595096102020988
 20
30.17104086006047
 30
0.0
 11
1.845118314820979
 21
30.17104086006047
 31
0.0
  0
LINE
  5
203
330
2
100
AcDbEntity
  8
GAIKEI
  6
S10
 62
     1
100
AcDbLine
 10
-0.1550593875790014
 20
15.80309769782023
 30
0.0
 11
-0.1550593875790014
 21
30.17104086006047
 31
0.0
  0
LINE
  5
204
330
2
100
AcDbEntity
  8
GAIKEI
  6
S10
 62
     1
100
AcDbLine
 10
-0.1550593875790014
 20
15.80309769782023
 30
0.0
 11
1.845118314820979
 21
15.80309769782023
 31
0.0
  0
LINE
  5
205
330
2
100
AcDbEntity
  8
GAIKEI
  6
S10
 62
     1
100
AcDbLine
 10
1.845118314820979
 20
30.17104086006047
 30
0.0
 11
1.845118314820979
 21
15.80309769782023
 31
0.0
  0
ARC
  5
206
330
2
100
AcDbEntity
  8
GAIKEI
  6
Continuous
 62
     1
100
AcDbCircle
 10
-11.66040265656073
 20
47.1125459993887
 30
0.0
 40
0.1000088851200014
100
AcDbArc
 50
208.6286379999997
 51
270.0
  0
ARC
  5
207
330
2
100
AcDbEntity
  8
GAIKEI
  6
Continuous
 62
     1
100
AcDbCircle
 10
-11.66040265656073
 20
47.57925412994869
 30
0.0
 40
0.1000088851200014
100
AcDbArc
 50
90.0
 51
151.3713620000002
  0
LINE
  5
208
330
2
100
AcDbEntity
  8
GAIKEI
  6
Continuous
 62
     1
100
AcDbLine
 10
-11.74818478874886
 20
47.0646284088982
 30
0.0
 11
-11.84163809144928
 21
47.23583061906855
 31
0.0
  0
LINE
  5
209
330
2
100
AcDbEntity
  8
GAIKEI
  6
Continuous
 62
     1
100
AcDbLine
 10
-11.74818478874886
 20
47.62717138707624
 30
0.0
 11
-11.84163809144928
 21
47.4559691769059
 31
0.0
  0
ARC
  5
20A
330
2
100
AcDbEntity
  8
GAIKEI
  6
Continuous
 62
     1
100
AcDbCircle
 10
-11.63999651027785
 20
47.34590006466869
 30
0.0
 40
0.2297270763796512
100
AcDbArc
 50
151.3713620000002
 51
208.6286379999997
  0
LINE
  5
20B
330
2
100
AcDbEntity
  8
GAIKEI
  6
Continuous
 62
     1
100
AcDbLine
 10
-11.63999651027785
 20
47.01253711426867
 30
0.0
 11
-11.66040265656073
 21
47.01253711426867
 31
0.0
  0
LINE
  5
20C
330
2
100
AcDbEntity
  8
GAIKEI
  6
Continuous
 62
     1
100
AcDbLine
 10
-11.63999651027785
 20
47.67926301506871
 30
0.0
 11
-11.66040265656073
 21
47.67926301506871
 31
0.0
  0
ARC
  5
20D
330
2
100
AcDbEntity
  8
GAIKEI
  6
Continuous
 62
     1
100
AcDbCircle
 10
-8.649326809293938
 20
47.1125459993887
 30
0.0
 40
0.1000088851200014
100
AcDbArc
 50
270.0
 51
331.3713620000003
  0
ARC
  5
20E
330
2
100
AcDbEntity
  8
GAIKEI
  6
Continuous
 62
     1
100
AcDbCircle
 10
-8.649326809293938
 20
47.57925412994869
 30
0.0
 40
0.1000088851200014
100
AcDbArc
 50
28.62863799999976
 51
90.0
  0
LINE
  5
20F
330
2
100
AcDbEntity
  8
GAIKEI
  6
Continuous
 62
     1
100
AcDbLine
 10
-8.561544677105757
 20
47.0646284088982
 30
0.0
 11
-8.468091041042441
 21
47.23583061906855
 31
0.0
  0
LINE
  5
210
330
2
100
AcDbEntity
  8
GAIKEI
  6
Continuous
 62
     1
100
AcDbLine
 10
-8.561544677105757
 20
47.62717138707624
 30
0.0
 11
-8.468091041042441
 21
47.4559691769059
 31
0.0
  0
ARC
  5
211
330
2
100
AcDbEntity
  8
GAIKEI
  6
Continuous
 62
     1
100
AcDbCircle
 10
-8.669732622213814
 20
47.34590006466869
 30
0.0
 40
0.2297270763796512
100
AcDbArc
 50
331.3713620000003
 51
28.62863799999976
  0
LINE
  5
212
330
2
100
AcDbEntity
  8
GAIKEI
  6
Continuous
 62
     1
100
AcDbLine
 10
-8.669732622213814
 20
47.01253711426867
 30
0.0
 11
-8.649326809293938
 21
47.01253711426867
 31
0.0
  0
LINE
  5
213
330
2
100
AcDbEntity
  8
GAIKEI
  6
Continuous
 62
     1
100
AcDbLine
 10
-8.669732622213814
 20
47.67926301506871
 30
0.0
 11
-8.649326809293938
 21
47.67926301506871
 31
0.0
  0
LINE
  5
214
330
2
100
AcDbEntity
  8
GAIKEI
  6
Continuous
 62
     7
100
AcDbLine
 10
35.09663414947011
 20
49.41275035714873
 30
0.0
 11
38.06689803753409
 21
49.41275035714873
 31
0.0
  0
LINE
  5
215
330
2
100
AcDbEntity
  8
GAIKEI
  6
Continuous
 62
     7
100
AcDbLine
 10
35.09663414947011
 20
29.79434072610845
 30
0.0
 11
38.06689803753409
 21
29.79434072610845
 31
0.0
  0
LINE
  5
216
330
2
100
AcDbEntity
  8
GAIKEI
  6
Continuous
 62
     7
100
AcDbLine
 10
38.06689803753409
 20
49.41275035714873
 30
0.0
 11
38.06689803753409
 21
29.79434072610845
 31
0.0
  0
LINE
  5
217
330
2
100
AcDbEntity
  8
GAIKEI
  6
Continuous
 62
     7
100
AcDbLine
 10
35.09663414947011
 20
49.41275035714873
 30
0.0
 11
35.09663414947011
 21
29.79434072610845
 31
0.0
  0
ARC
  5
218
330
2
100
AcDbEntity
  8
GAIKEI
  6
Continuous
 62
     1
100
AcDbCircle
 10
35.07622833655017
 20
48.44599780098874
 30
0.0
 40
0.1000088851200014
100
AcDbArc
 50
208.6286379999997
 51
270.0
  0
ARC
  5
219
330
2
100
AcDbEntity
  8
GAIKEI
  6
Continuous
 62
     1
100
AcDbCircle
 10
35.07622833655017
 20
48.9127059315487
 30
0.0
 40
0.1000088851200014
100
AcDbArc
 50
90.0
 51
151.3713620000002
  0
LINE
  5
21A
330
2
100
AcDbEntity
  8
GAIKEI
  6
Continuous
 62
     1
100
AcDbLine
 10
34.98844620436205
 20
48.39808021049821
 30
0.0
 11
34.89499256829868
 21
48.56928242066858
 31
0.0
  0
LINE
  5
21B
330
2
100
AcDbEntity
  8
GAIKEI
  6
Continuous
 62
     1
100
AcDbLine
 10
34.98844620436205
 20
48.96062318867625
 30
0.0
 11
34.89499256829868
 21
48.7894209785059
 31
0.0
  0
ARC
  5
21C
330
2
100
AcDbEntity
  8
GAIKEI
  6
Continuous
 62
     1
100
AcDbCircle
 10
35.09663414947011
 20
48.67935186626873
 30
0.0
 40
0.2297270763796512
100
AcDbArc
 50
151.3713620000002
 51
208.6286379999997
  0
LINE
  5
21D
330
2
100
AcDbEntity
  8
GAIKEI
  6
Continuous
 62
     1
100
AcDbLine
 10
35.09663414947011
 20
48.34598891586871
 30
0.0
 11
35.07622833655017
 21
48.34598891586871
 31
0.0
  0
LINE
  5
21E
330
2
100
AcDbEntity
  8
GAIKEI
  6
Continuous
 62
     1
100
AcDbLine
 10
35.09663414947011
 20
49.01271481666872
 30
0.0
 11
35.07622833655017
 21
49.01271481666872
 31
0.0
  0
ARC
  5
21F
330
2
100
AcDbEntity
  8
GAIKEI
  6
Continuous
 62
     1
100
AcDbCircle
 10
38.08730418381697
 20
48.44599780098874
 30
0.0
 40
0.1000088851200014
100
AcDbArc
 50
270.0
 51
331.3713620000003
  0
ARC
  5
220
330
2
100
AcDbEntity
  8
GAIKEI
  6
Continuous
 62
     1
100
AcDbCircle
 10
38.08730418381697
 20
48.9127059315487
 30
0.0
 40
0.1000088851200014
100
AcDbArc
 50
28.62863799999976
 51
90.0
  0
LINE
  5
221
330
2
100
AcDbEntity
  8
GAIKEI
  6
Continuous
 62
     1
100
AcDbLine
 10
38.17508631600515
 20
48.39808021049821
 30
0.0
 11
38.26853961870552
 21
48.56928242066858
 31
0.0
  0
LINE
  5
222
330
2
100
AcDbEntity
  8
GAIKEI
  6
Continuous
 62
     1
100
AcDbLine
 10
38.17508631600515
 20
48.96062318867625
 30
0.0
 11
38.26853961870552
 21
48.7894209785059
 31
0.0
  0
ARC
  5
223
330
2
100
AcDbEntity
  8
GAIKEI
  6
Continuous
 62
     1
100
AcDbCircle
 10
38.06689803753409
 20
48.67935186626873
 30
0.0
 40
0.2297270763796512
100
AcDbArc
 50
331.3713620000003
 51
28.62863799999976
  0
LINE
  5
224
330
2
100
AcDbEntity
  8
GAIKEI
  6
Continuous
 62
     1
100
AcDbLine
 10
38.06689803753409
 20
48.34598891586871
 30
0.0
 11
38.08730418381697
 21
48.34598891586871
 31
0.0
  0
LINE
  5
225
330
2
100
AcDbEntity
  8
GAIKEI
  6
Continuous
 62
     1
100
AcDbLine
 10
38.06689803753409
 20
49.01271481666872
 30
0.0
 11
38.08730418381697
 21
49.01271481666872
 31
0.0
  0
LINE
  5
226
330
2
100
AcDbEntity
  8
GAIKEI
  6
S10
 62
     1
100
AcDbLine
 10
-8.704735732005815
 20
27.67748599106842
 30
0.0
 11
-8.721403879525837
 21
27.69415413858842
 31
0.0
  0
LINE
  5
227
330
2
100
AcDbEntity
  8
GAIKEI
  6
S10
 62
     1
100
AcDbLine
 10
-11.42664422202188
 20
27.01076009026842
 30
0.0
 11
-11.42664422202188
 21
27.02742823778841
 31
0.0
  0
LINE
  5
228
330
2
100
AcDbEntity
  8
GAIKEI
  6
S10
 62
     1
100
AcDbLine
 10
-8.883084910469847
 20
27.01076009026842
 30
0.0
 11
-8.883084910469847
 21
27.02742823778841
 31
0.0
  0
LINE
  5
229
330
2
100
AcDbEntity
  8
GAIKEI
  6
S10
 62
     1
100
AcDbLine
 10
-11.42664422202188
 20
29.79434072610845
 30
0.0
 11
-11.42664422202188
 21
29.31429807753243
 31
0.0
  0
LINE
  5
22A
330
2
100
AcDbEntity
  8
GAIKEI
  6
S10
 62
     1
100
AcDbLine
 10
-8.883084910469847
 20
29.79434072610845
 30
0.0
 11
-8.883084910469847
 21
29.31429807753243
 31
0.0
  0
LINE
  5
22B
330
2
100
AcDbEntity
  8
GAIKEI
  6
S10
 62
     1
100
AcDbLine
 10
-11.58832525296588
 20
27.02742823778841
 30
0.0
 11
-8.721403879525837
 21
27.02742823778841
 31
0.0
  0
LINE
  5
22C
330
2
100
AcDbEntity
  8
GAIKEI
  6
S10
 62
     1
100
AcDbLine
 10
-8.704735732005815
 20
27.04409638530841
 30
0.0
 11
-8.721403879525837
 21
27.02742823778841
 31
0.0
  0
LINE
  5
22D
330
2
100
AcDbEntity
  8
GAIKEI
  6
S10
 62
     1
100
AcDbLine
 10
-11.60499340048585
 20
27.04409638530841
 30
0.0
 11
-11.58832525296588
 21
27.02742823778841
 31
0.0
  0
LINE
  5
22E
330
2
100
AcDbEntity
  8
GAIKEI
  6
S10
 62
     1
100
AcDbLine
 10
-11.60499340048585
 20
27.67748599106842
 30
0.0
 11
-11.58832525296588
 21
27.69415413858842
 31
0.0
  0
LINE
  5
22F
330
2
100
AcDbEntity
  8
GAIKEI
  6
S10
 62
     1
100
AcDbLine
 10
-11.60499340048585
 20
27.67748599106842
 30
0.0
 11
-11.60499340048585
 21
27.04409638530841
 31
0.0
  0
LINE
  5
230
330
2
100
AcDbEntity
  8
GAIKEI
  6
S10
 62
     1
100
AcDbLine
 10
-8.704735732005815
 20
27.67748599106842
 30
0.0
 11
-8.704735732005815
 21
27.04409638530841
 31
0.0
  0
LINE
  5
231
330
2
100
AcDbEntity
  8
GAIKEI
  6
S10
 62
     1
100
AcDbLine
 10
-11.42664422202188
 20
27.01076009026842
 30
0.0
 11
-8.883084910469847
 21
27.01076009026842
 31
0.0
  0
LINE
  5
232
330
2
100
AcDbEntity
  8
GAIKEI
  6
Continuous
 62
     7
100
AcDbLine
 10
38.03189492774214
 20
27.67748599106842
 30
0.0
 11
38.01522678022212
 21
27.69415413858842
 31
0.0
  0
LINE
  5
233
330
2
100
AcDbEntity
  8
GAIKEI
  6
Continuous
 62
     7
100
AcDbLine
 10
35.30998643772608
 20
27.01076009026842
 30
0.0
 11
35.30998643772608
 21
27.02742823778841
 31
0.0
  0
LINE
  5
234
330
2
100
AcDbEntity
  8
GAIKEI
  6
Continuous
 62
     1
100
AcDbLine
 10
37.85354574927811
 20
27.01076009026842
 30
0.0
 11
37.85354574927811
 21
27.02742823778841
 31
0.0
  0
LINE
  5
235
330
2
100
AcDbEntity
  8
GAIKEI
  6
Continuous
 62
     7
100
AcDbLine
 10
35.30998643772608
 20
29.79434072610845
 30
0.0
 11
35.30998643772608
 21
29.31429807753243
 31
0.0
  0
LINE
  5
236
330
2
100
AcDbEntity
  8
GAIKEI
  6
Continuous
 62
     7
100
AcDbLine
 10
37.85354574927811
 20
29.79434072610845
 30
0.0
 11
37.85354574927811
 21
29.31429807753243
 31
0.0
  0
LINE
  5
237
330
2
100
AcDbEntity
  8
GAIKEI
  6
Continuous
 62
     7
100
AcDbLine
 10
35.14830540678207
 20
27.02742823778841
 30
0.0
 11
38.01522678022212
 21
27.02742823778841
 31
0.0
  0
LINE
  5
238
330
2
100
AcDbEntity
  8
GAIKEI
  6
Continuous
 62
     7
100
AcDbLine
 10
38.03189492774214
 20
27.04409638530841
 30
0.0
 11
38.01522678022212
 21
27.02742823778841
 31
0.0
  0
LINE
  5
239
330
2
100
AcDbEntity
  8
GAIKEI
  6
Continuous
 62
     7
100
AcDbLine
 10
35.13163725926211
 20
27.04409638530841
 30
0.0
 11
35.14830540678207
 21
27.02742823778841
 31
0.0
  0
LINE
  5
23A
330
2
100
AcDbEntity
  8
GAIKEI
  6
Continuous
 62
     7
100
AcDbLine
 10
35.13163725926211
 20
27.51177360196523
 30
0.0
 11
35.13163725926211
 21
27.04409638530841
 31
0.0
  0
LINE
  5
23B
330
2
100
AcDbEntity
  8
GAIKEI
  6
Continuous
 62
     7
100
AcDbLine
 10
38.03189492774214
 20
27.67748599106842
 30
0.0
 11
38.03189492774214
 21
27.04409638530841
 31
0.0
  0
LINE
  5
23C
330
2
100
AcDbEntity
  8
GAIKEI
  6
Continuous
 62
     7
100
AcDbLine
 10
35.30998643772608
 20
27.01076009026842
 30
0.0
 11
37.85354574927811
 21
27.01076009026842
 31
0.0
  0
LWPOLYLINE
  5
23D
330
2
100
AcDbEntity
  8
GAIKEI
  6
Continuous
 62
     1
100
AcDbPolyline
 90
       72
 70
     1
 43
0.0
 10
37.67217996947596
 20
28.63757128822046
 10
37.66329951384023
 20
28.63706357644701
 10
37.65448639752055
 20
28.63554544157087
 10
37.64580829319573
 20
28.63302755120649
 10
37.63733054000409
 20
28.62952957376796
 10
37.62911814372103
 20
28.62507784492833
 10
37.6212334432181
 20
28.61970636770853
 10
37.6137367771895
 20
28.61345581238852
 10
37.60668448397382
 20
28.60637418323317
 10
37.60013090173192
 20
28.59851515167749
 10
37.59412570154342
 20
28.58993872305255
 10
37.58871422076959
 20
28.58070956977072
 10
37.5839381297792
 20
28.57089869814045
 10
37.57983376513386
 20
28.56058011473671
 10
37.576432129588
 20
28.5498328265788
 10
37.57375889208873
 20
28.53873817422651
 10
37.571835054502
 20
28.52738116523229
 10
37.57067495143457
 20
28.51584780723731
 10
37.57028725032325
 20
28.50422610806045
 10
37.57067495143457
 20
28.49260407552065
 10
37.571835054502
 20
28.48107071752567
 10
37.57375889208873
 20
28.46971370853145
 10
37.576432129588
 20
28.45861938954214
 10
37.57983376513386
 20
28.44787176802125
 10
37.5839381297792
 20
28.43755351798045
 10
37.58871422076959
 20
28.42774231298724
 10
37.59412570154342
 20
28.41851349306838
 10
37.60013090173192
 20
28.40993673108047
 10
37.60668448397382
 20
28.40207769952478
 10
37.6137367771895
 20
28.39499607036943
 10
37.6212334432181
 20
28.38874551504945
 10
37.62911814372103
 20
28.38337403782965
 10
37.63733054000409
 20
28.37892264235295
 10
37.64580829319573
 20
28.37542433155146
 10
37.65448639752055
 20
28.37290644118708
 10
37.66329951384023
 20
28.37138830631095
 10
37.67217996947596
 20
28.37088092790045
 10
37.6810604251117
 20
28.37138830631095
 10
37.68987354143138
 20
28.37290644118708
 10
37.69855197911915
 20
28.37542433155146
 10
37.70702939894784
 20
28.37892264235295
 10
37.71524179523095
 20
28.38337403782965
 10
37.72312649573382
 20
28.38874551504945
 10
37.73062349512532
 20
28.39499607036943
 10
37.7376754549781
 20
28.40207769952478
 10
37.74422903722001
 20
28.40993673108047
 10
37.75023457077145
 20
28.41851349306838
 10
37.75564571818234
 20
28.42774231298724
 10
37.76042180917273
 20
28.43755351798045
 10
37.76452650718102
 20
28.44787176802125
 10
37.76792814272687
 20
28.45861938954214
 10
37.77060104686319
 20
28.46971370853145
 10
37.77252488444998
 20
28.48107071752567
 10
37.77368532088031
 20
28.49260407552065
 10
37.77407302199163
 20
28.50422610806045
 10
37.77368532088031
 20
28.51584780723731
 10
37.77252488444998
 20
28.52738116523229
 10
37.77060104686319
 20
28.53873817422651
 10
37.76792814272687
 20
28.5498328265788
 10
37.76452650718102
 20
28.56058011473671
 10
37.76042180917273
 20
28.57089869814045
 10
37.75564571818234
 20
28.58070956977072
 10
37.75023457077145
 20
28.58993872305255
 10
37.74422903722001
 20
28.59851515167749
 10
37.7376754549781
 20
28.60637418323317
 10
37.73062349512532
 20
28.61345581238852
 10
37.72312649573382
 20
28.61970636770853
 10
37.71524179523095
 20
28.62507784492833
 10
37.70702939894784
 20
28.62952957376796
 10
37.69855197911915
 20
28.63302755120649
 10
37.68987354143138
 20
28.63554544157087
 10
37.6810604251117
 20
28.63706357644701
  0
LINE
  5
23E
330
2
100
AcDbEntity
  8
GAIKEI
  6
Continuous
 62
     7
100
AcDbLine
 10
38.01344262171159
 20
29.11653750782959
 30
0.0
 11
38.01344262171159
 21
27.89207605595926
 31
0.0
  0
ARC
  5
23F
330
2
100
AcDbEntity
  8
GAIKEI
  6
Continuous
 62
     7
100
AcDbCircle
 10
39.02518584165762
 20
28.72924609958044
 30
0.0
 40
0.5000444256000071
100
AcDbArc
 50
55.17770999999992
 51
90.0
  0
ARC
  5
240
330
2
100
AcDbEntity
  8
GAIKEI
  6
Continuous
 62
     7
100
AcDbCircle
 10
39.02518584165762
 20
28.27920611654043
 30
0.0
 40
0.5000444256000071
100
AcDbArc
 50
270.0
 51
304.8222900000001
  0
LINE
  5
241
330
2
100
AcDbEntity
  8
GAIKEI
  6
Continuous
 62
     7
100
AcDbLine
 10
39.31072787682268
 20
27.86870597968441
 30
0.0
 11
39.63422061698725
 21
28.09372597120442
 31
0.0
  0
LINE
  5
242
330
2
100
AcDbEntity
  8
GAIKEI
  6
Continuous
 62
     7
100
AcDbLine
 10
39.31072787682268
 20
29.13974590307349
 30
0.0
 11
39.63422061698725
 21
28.91472591155351
 31
0.0
  0
ARC
  5
243
330
2
100
AcDbEntity
  8
GAIKEI
  6
Continuous
 62
     7
100
AcDbCircle
 10
39.34867858182213
 20
28.50422610806042
 30
0.0
 40
0.5000444256000071
100
AcDbArc
 50
304.8222900000001
 51
55.17770999999992
  0
LINE
  5
244
330
2
100
AcDbEntity
  8
GAIKEI
  6
Continuous
 62
     7
100
AcDbLine
 10
35.43549625509991
 20
27.77916169094043
 30
0.0
 11
39.02518584165762
 21
27.77916169094043
 31
0.0
  0
LINE
  5
245
330
2
100
AcDbEntity
  8
GAIKEI
  6
Continuous
 62
     7
100
AcDbLine
 10
35.38153546104457
 20
29.22929052518045
 30
0.0
 11
39.02518584165762
 21
29.22929052518045
 31
0.0
  0
LINE
  5
246
330
2
100
AcDbEntity
  8
GAIKEI
  6
Continuous
 62
     7
100
AcDbLine
 10
35.20497710835008
 20
29.58098843785244
 30
0.0
 11
35.28165058694208
 21
29.58098843785244
 31
0.0
  0
LINE
  5
247
330
2
100
AcDbEntity
  8
GAIKEI
  6
Continuous
 62
     7
100
AcDbLine
 10
35.20497710835008
 20
29.37550484867767
 30
0.0
 11
35.20497710835008
 21
29.58098843785244
 31
0.0
  0
LINE
  5
248
330
2
100
AcDbEntity
  8
GAIKEI
  6
Continuous
 62
     7
100
AcDbLine
 10
35.28165058694208
 20
29.32153272028204
 30
0.0
 11
35.28165058694208
 21
29.58098843785244
 31
0.0
  0
LINE
  5
249
330
2
100
AcDbEntity
  8
GAIKEI
  6
Continuous
 62
     7
100
AcDbLine
 10
35.3678865817663
 20
27.69415413858842
 30
0.0
 11
38.2751828755811
 21
27.69415413858842
 31
0.0
  0
LINE
  5
24A
330
2
100
AcDbEntity
  8
GAIKEI
  6
Continuous
 62
     7
100
AcDbLine
 10
35.42982008414345
 20
27.77082761718042
 30
0.0
 11
38.2751828755811
 21
27.77082761718042
 31
0.0
  0
LINE
  5
24B
330
2
100
AcDbEntity
  8
GAIKEI
  6
Continuous
 62
     7
100
AcDbLine
 10
38.2751828755811
 20
27.69415413858842
 30
0.0
 11
38.2751828755811
 21
27.77082761718042
 31
0.0
  0
LINE
  5
24C
330
2
100
AcDbEntity
  8
GAIKEI
  6
Continuous
 62
     7
100
AcDbLine
 10
35.30998643772608
 20
29.31429807753243
 30
0.0
 11
38.2751828755811
 21
29.31429807753243
 31
0.0
  0
LINE
  5
24D
330
2
100
AcDbEntity
  8
GAIKEI
  6
Continuous
 62
     7
100
AcDbLine
 10
35.37405579652642
 20
29.23762459894043
 30
0.0
 11
38.2751828755811
 21
29.23762459894043
 31
0.0
  0
LINE
  5
24E
330
2
100
AcDbEntity
  8
GAIKEI
  6
Continuous
 62
     7
100
AcDbLine
 10
38.2751828755811
 20
29.31429807753243
 30
0.0
 11
38.2751828755811
 21
29.23762459894043
 31
0.0
  0
CIRCLE
  5
24F
330
2
100
AcDbEntity
  8
GAIKEI
  6
Continuous
 62
     1
100
AcDbCircle
 10
33.34814547462207
 20
18.6200146287003
 30
0.0
 40
0.0833407376000012
  0
CIRCLE
  5
250
330
2
100
AcDbEntity
  8
GAIKEI
  6
Continuous
 62
     1
100
AcDbCircle
 10
33.78151731014208
 20
29.67099643446046
 30
0.0
 40
0.1083429588800015
  0
LINE
  5
251
330
2
100
AcDbEntity
  8
GAIKEI
  6
Continuous
 62
     7
100
AcDbLine
 10
33.11479140934205
 20
30.17104086006047
 30
0.0
 11
33.11479140934205
 21
15.80309769782026
 31
0.0
  0
CIRCLE
  5
252
330
2
100
AcDbEntity
  8
GAIKEI
  6
Continuous
 62
     1
100
AcDbCircle
 10
34.11488026054207
 20
18.13663835062031
 30
0.0
 40
0.1083429588800015
  0
ARC
  5
253
330
2
100
AcDbEntity
  8
GAIKEI
  6
Continuous
 62
     7
100
AcDbCircle
 10
34.7816061613421
 20
26.48961445663399
 30
0.0
 40
0.6667259008000094
100
AcDbArc
 50
124.9024960000008
 51
180.0
  0
LINE
  5
254
330
2
100
AcDbEntity
  8
GAIKEI
  6
Continuous
 62
     7
100
AcDbLine
 10
34.11488026054207
 20
26.48961445663399
 30
0.0
 11
34.11488026054207
 21
18.89521141142568
 31
0.0
  0
LINE
  5
255
330
2
100
AcDbEntity
  8
GAIKEI
  6
Continuous
 62
     7
100
AcDbLine
 10
33.11479140934205
 20
30.17104086006047
 30
0.0
 11
33.90528597282594
 21
30.17104086006047
 31
0.0
  0
LINE
  5
256
330
2
100
AcDbEntity
  8
GAIKEI
  6
Continuous
 62
     7
100
AcDbLine
 10
33.11479140934205
 20
15.80309769782026
 30
0.0
 11
33.96741315907718
 21
15.80309769782026
 31
0.0
  0
ARC
  5
257
330
2
100
AcDbEntity
  8
GAIKEI
  6
Continuous
 62
     7
100
AcDbCircle
 10
34.88161504646212
 20
28.18529710668686
 30
0.0
 40
0.6667259008000094
100
AcDbArc
 50
304.9024960000008
 51
0.0
  0
ARC
  5
258
330
2
100
AcDbEntity
  8
GAIKEI
  6
Continuous
 62
     7
100
AcDbCircle
 10
34.88161504646212
 20
28.82315510943401
 30
0.0
 40
0.6667259008000094
100
AcDbArc
 50
0.0
 51
55.09750399999923
  0
ARC
  5
259
330
2
100
AcDbEntity
  8
GAIKEI
  6
Continuous
 62
     7
100
AcDbCircle
 10
33.90528597282594
 20
29.50431495926044
 30
0.0
 40
0.6667259008000094
100
AcDbArc
 50
55.09750399999923
 51
90.0
  0
LINE
  5
25A
330
2
100
AcDbEntity
  8
GAIKEI
  6
Continuous
 62
     7
100
AcDbLine
 10
34.40011793533347
 20
27.03641403611646
 30
0.0
 11
35.26310327247069
 21
27.63849719384145
 31
0.0
  0
LINE
  5
25B
330
2
100
AcDbEntity
  8
GAIKEI
  6
Continuous
 62
     7
100
AcDbLine
 10
34.28677419883451
 20
30.05111453874291
 30
0.0
 11
35.26310327247069
 21
29.36995468891648
 31
0.0
  0
LINE
  5
25C
330
2
100
AcDbEntity
  8
GAIKEI
  6
Continuous
 62
     7
100
AcDbLine
 10
35.54834094726209
 20
28.82315510943401
 30
0.0
 11
35.54834094726209
 21
28.18529710668686
 31
0.0
  0
ARC
  5
25D
330
2
100
AcDbEntity
  8
GAIKEI
  6
Continuous
 62
     7
100
AcDbCircle
 10
33.96741315907718
 20
16.46982359862026
 30
0.0
 40
0.6667259008000094
100
AcDbArc
 50
270.0
 51
294.9439050000001
  0
ARC
  5
25E
330
2
100
AcDbEntity
  8
GAIKEI
  6
Continuous
 62
     7
100
AcDbCircle
 10
34.88161504646212
 20
16.89503370902564
 30
0.0
 40
0.6667259008000094
100
AcDbArc
 50
294.9439050000001
 51
0.0
  0
ARC
  5
25F
330
2
100
AcDbEntity
  8
GAIKEI
  6
Continuous
 62
     7
100
AcDbCircle
 10
34.88161504646212
 20
17.37806495645198
 30
0.0
 40
0.6667259008000094
100
AcDbArc
 50
0.0
 51
65.0560949999999
  0
ARC
  5
260
330
2
100
AcDbEntity
  8
GAIKEI
  6
Continuous
 62
     7
100
AcDbCircle
 10
34.7816061613421
 20
18.89521141142568
 30
0.0
 40
0.6667259008000094
100
AcDbArc
 50
180.0
 51
245.0560949999999
  0
LINE
  5
261
330
2
100
AcDbEntity
  8
GAIKEI
  6
Continuous
 62
     7
100
AcDbLine
 10
34.24859180658456
 20
15.86528888975805
 30
0.0
 11
35.16279402733238
 21
16.29049933352634
 31
0.0
  0
LINE
  5
262
330
2
100
AcDbEntity
  8
GAIKEI
  6
Continuous
 62
     7
100
AcDbLine
 10
34.50042751383473
 20
18.29067703592638
 30
0.0
 11
35.16279402733238
 21
17.98259933195128
 31
0.0
  0
LINE
  5
263
330
2
100
AcDbEntity
  8
GAIKEI
  6
Continuous
 62
     7
100
AcDbLine
 10
35.54834094726209
 20
17.37806495645198
 30
0.0
 11
35.54834094726209
 21
16.89503370902564
 31
0.0
  0
LINE
  5
264
330
2
100
AcDbEntity
  8
GAIKEI
  6
Continuous
 62
     7
100
AcDbLine
 10
40.12957195897155
 20
28.66012229172616
 30
0.0
 11
39.73220598899832
 21
28.82508628100568
 31
0.0
  0
LINE
  5
265
330
2
100
AcDbEntity
  8
GAIKEI
  6
Continuous
 62
     7
100
AcDbLine
 10
37.26647225839486
 20
21.7634795711853
 30
0.0
 11
36.3859186937716
 21
22.12903604843136
 31
0.0
  0
LINE
  5
266
330
2
100
AcDbEntity
  8
GAIKEI
  6
Continuous
 62
     7
100
AcDbLine
 10
40.12957195897155
 20
28.66012229172616
 30
0.0
 11
37.26647225839486
 21
21.7634795711853
 31
0.0
  0
LINE
  5
267
330
2
100
AcDbEntity
  8
GAIKEI
  6
Continuous
 62
     7
100
AcDbLine
 10
38.73153441936103
 20
27.77916169094043
 30
0.0
 11
36.3859186937716
 21
22.12903604843136
 31
0.0
  0
CIRCLE
  5
268
330
2
100
AcDbEntity
  8
GAIKEI
  6
Continuous
 62
     1
100
AcDbCircle
 10
35.93973171971232
 20
19.81094143457515
 30
0.0
 40
0.1166770326400016
  0
CIRCLE
  5
269
330
2
100
AcDbEntity
  8
GAIKEI
  6
Continuous
 62
     1
100
AcDbCircle
 10
36.13145708656111
 20
20.27277013163014
 30
0.0
 40
0.1166770326400016
  0
CIRCLE
  5
26A
330
2
100
AcDbEntity
  8
GAIKEI
  6
Continuous
 62
     1
100
AcDbCircle
 10
36.32318245340992
 20
20.73459916204813
 30
0.0
 40
0.1166770326400016
  0
CIRCLE
  5
26B
330
2
100
AcDbEntity
  8
GAIKEI
  6
Continuous
 62
     1
100
AcDbCircle
 10
36.51490782025871
 20
21.19642785910311
 30
0.0
 40
0.1166770326400016
  0
CIRCLE
  5
26C
330
2
100
AcDbEntity
  8
GAIKEI
  6
Continuous
 62
     1
100
AcDbCircle
 10
36.70663352047052
 20
21.65825655615809
 30
0.0
 40
0.1166770326400016
  0
LINE
  5
26D
330
2
100
AcDbEntity
  8
GAIKEI
  6
Continuous
 62
     7
100
AcDbLine
 10
37.21721054848837
 20
21.78393038810348
 30
0.0
 11
35.48835295106352
 21
17.61945373556251
 31
0.0
  0
LINE
  5
26E
330
2
100
AcDbEntity
  8
GAIKEI
  6
Continuous
 62
     7
100
AcDbLine
 10
36.43518040367809
 20
22.10858523151317
 30
0.0
 11
34.79359143014517
 21
18.15432161278103
 31
0.0
  0
CIRCLE
  5
26F
330
2
100
AcDbEntity
  8
GAIKEI
  6
Continuous
 62
     1
100
AcDbCircle
 10
34.81494245638208
 20
17.10154638962827
 30
0.0
 40
0.4233709470080061
  0
CIRCLE
  5
270
330
2
100
AcDbEntity
  8
GAIKEI
  6
Continuous
 62
     1
100
AcDbCircle
 10
34.81494245638208
 20
17.10154638962827
 30
0.0
 40
0.356698356928005
  0
POINT
  5
271
330
2
100
AcDbEntity
  8
GAIKEI
  6
Continuous
 62
     1
100
AcDbPoint
 10
34.81494245638208
 20
17.10154638962827
 30
0.0
  0
LINE
  5
272
330
2
100
AcDbEntity
  8
GAIKEI
  6
S10
 62
     1
100
AcDbLine
 10
-11.96335857216587
 20
27.66748510255643
 30
0.0
 11
-11.96335857216587
 21
27.62414791900442
 31
0.0
  0
LINE
  5
273
330
2
100
AcDbEntity
  8
GAIKEI
  6
S10
 62
     1
100
AcDbLine
 10
-11.68000006432584
 20
27.66748510255643
 30
0.0
 11
-11.68000006432584
 21
27.62414791900442
 31
0.0
  0
LINE
  5
274
330
2
100
AcDbEntity
  8
GAIKEI
  6
S10
 62
     1
100
AcDbLine
 10
-12.02169708848589
 20
27.66748510255643
 30
0.0
 11
-12.02169708848589
 21
27.69415413858842
 31
0.0
  0
LINE
  5
275
330
2
100
AcDbEntity
  8
GAIKEI
  6
S10
 62
     1
100
AcDbLine
 10
-11.62166154800587
 20
27.66748510255643
 30
0.0
 11
-11.62166154800587
 21
27.69415413858842
 31
0.0
  0
LINE
  5
276
330
2
100
AcDbEntity
  8
GAIKEI
  6
S10
 62
     1
100
AcDbLine
 10
-11.62166154800587
 20
27.66748510255643
 30
0.0
 11
-12.02169708848589
 21
27.66748510255643
 31
0.0
  0
LINE
  5
277
330
2
100
AcDbEntity
  8
GAIKEI
  6
S10
 62
     1
100
AcDbLine
 10
-11.62166154800587
 20
27.69415413858842
 30
0.0
 11
-12.02169708848589
 21
27.69415413858842
 31
0.0
  0
ARC
  5
278
330
2
100
AcDbEntity
  8
GAIKEI
  6
S10
 62
     1
100
AcDbCircle
 10
-11.73833858064586
 20
27.5808107354524
 30
0.0
 40
0.0666725900800009
100
AcDbArc
 50
270.0
 51
0.0
  0
ARC
  5
279
330
2
100
AcDbEntity
  8
GAIKEI
  6
S10
 62
     1
100
AcDbCircle
 10
-11.90502005584591
 20
27.5808107354524
 30
0.0
 40
0.0666725900800009
100
AcDbArc
 50
180.0
 51
270.0
  0
LINE
  5
27A
330
2
100
AcDbEntity
  8
GAIKEI
  6
S10
 62
     1
100
AcDbLine
 10
-11.73833858064586
 20
27.51413814537243
 30
0.0
 11
-11.90502005584591
 21
27.51413814537243
 31
0.0
  0
LINE
  5
27B
330
2
100
AcDbEntity
  8
GAIKEI
  6
S10
 62
     1
100
AcDbLine
 10
-11.67166599056588
 20
27.62414791900442
 30
0.0
 11
-11.97169264592588
 21
27.62414791900442
 31
0.0
  0
LINE
  5
27C
330
2
100
AcDbEntity
  8
GAIKEI
  6
S10
 62
     1
100
AcDbLine
 10
-11.67166599056588
 20
27.62414791900442
 30
0.0
 11
-11.67166599056588
 21
27.5808107354524
 31
0.0
  0
LINE
  5
27D
330
2
100
AcDbEntity
  8
GAIKEI
  6
S10
 62
     1
100
AcDbLine
 10
-11.97169264592588
 20
27.62414791900442
 30
0.0
 11
-11.97169264592588
 21
27.5808107354524
 31
0.0
  0
LINE
  5
27E
330
2
100
AcDbEntity
  8
GAIKEI
  6
S10
 62
     1
100
AcDbLine
 10
-11.88835190832588
 20
27.66748510255643
 30
0.0
 11
-11.96335857216587
 21
27.66748510255643
 31
0.0
  0
LINE
  5
27F
330
2
100
AcDbEntity
  8
GAIKEI
  6
S10
 62
     1
100
AcDbLine
 10
-8.629729068165829
 20
27.66748510255643
 30
0.0
 11
-8.629729068165829
 21
27.62414791900442
 31
0.0
  0
LINE
  5
280
330
2
100
AcDbEntity
  8
GAIKEI
  6
S10
 62
     1
100
AcDbLine
 10
-8.346370560325851
 20
27.66748510255643
 30
0.0
 11
-8.346370560325851
 21
27.62414791900442
 31
0.0
  0
LINE
  5
281
330
2
100
AcDbEntity
  8
GAIKEI
  6
S10
 62
     1
100
AcDbLine
 10
-8.629729068165829
 20
27.66748510255643
 30
0.0
 11
-8.346370560325851
 21
27.66748510255643
 31
0.0
  0
LINE
  5
282
330
2
100
AcDbEntity
  8
GAIKEI
  6
S10
 62
     1
100
AcDbLine
 10
-8.68806758448585
 20
27.66748510255643
 30
0.0
 11
-8.68806758448585
 21
27.69415413858842
 31
0.0
  0
LINE
  5
283
330
2
100
AcDbEntity
  8
GAIKEI
  6
S10
 62
     1
100
AcDbLine
 10
-8.288032044005831
 20
27.66748510255643
 30
0.0
 11
-8.288032044005831
 21
27.69415413858842
 31
0.0
  0
LINE
  5
284
330
2
100
AcDbEntity
  8
GAIKEI
  6
S10
 62
     1
100
AcDbLine
 10
-8.288032044005831
 20
27.66748510255643
 30
0.0
 11
-8.68806758448585
 21
27.66748510255643
 31
0.0
  0
LINE
  5
285
330
2
100
AcDbEntity
  8
GAIKEI
  6
S10
 62
     1
100
AcDbLine
 10
-8.288032044005831
 20
27.69415413858842
 30
0.0
 11
-8.68806758448585
 21
27.69415413858842
 31
0.0
  0
ARC
  5
286
330
2
100
AcDbEntity
  8
GAIKEI
  6
S10
 62
     1
100
AcDbCircle
 10
-8.404709076645815
 20
27.5808107354524
 30
0.0
 40
0.0666725900800009
100
AcDbArc
 50
270.0
 51
0.0
  0
ARC
  5
287
330
2
100
AcDbEntity
  8
GAIKEI
  6
S10
 62
     1
100
AcDbCircle
 10
-8.571390551845809
 20
27.5808107354524
 30
0.0
 40
0.0666725900800009
100
AcDbArc
 50
180.0
 51
270.0
  0
LINE
  5
288
330
2
100
AcDbEntity
  8
GAIKEI
  6
S10
 62
     1
100
AcDbLine
 10
-8.404709076645815
 20
27.51413814537243
 30
0.0
 11
-8.571390551845809
 21
27.51413814537243
 31
0.0
  0
LINE
  5
289
330
2
100
AcDbEntity
  8
GAIKEI
  6
S10
 62
     1
100
AcDbLine
 10
-8.33803648656584
 20
27.62414791900442
 30
0.0
 11
-8.63806314192584
 21
27.62414791900442
 31
0.0
  0
LINE
  5
28A
330
2
100
AcDbEntity
  8
GAIKEI
  6
S10
 62
     1
100
AcDbLine
 10
-8.33803648656584
 20
27.62414791900442
 30
0.0
 11
-8.33803648656584
 21
27.5808107354524
 31
0.0
  0
LINE
  5
28B
330
2
100
AcDbEntity
  8
GAIKEI
  6
S10
 62
     1
100
AcDbLine
 10
-8.63806314192584
 20
27.62414791900442
 30
0.0
 11
-8.63806314192584
 21
27.5808107354524
 31
0.0
  0
LINE
  5
28C
330
2
100
AcDbEntity
  8
GAIKEI
  6
S10
 62
     1
100
AcDbLine
 10
-8.554722404325843
 20
27.66748510255643
 30
0.0
 11
-8.629729068165829
 21
27.66748510255643
 31
0.0
  0
CIRCLE
  5
28D
330
2
100
AcDbEntity
  8
GAIKEI
  6
Continuous
 62
     1
100
AcDbCircle
 10
39.54869635206217
 20
28.50422610806042
 30
0.0
 40
0.0800071080960011
  0
LINE
  5
28E
330
2
100
AcDbEntity
  8
GAIKEI
  6
Continuous
 62
     1
100
AcDbLine
 10
39.64492990176888
 20
28.33754463286043
 30
0.0
 11
39.74116345147559
 21
28.50422610806042
 31
0.0
  0
LINE
  5
28F
330
2
100
AcDbEntity
  8
GAIKEI
  6
Continuous
 62
     1
100
AcDbLine
 10
39.4524628023554
 20
28.33754463286043
 30
0.0
 11
39.64492990176888
 21
28.33754463286043
 31
0.0
  0
LINE
  5
290
330
2
100
AcDbEntity
  8
GAIKEI
  6
Continuous
 62
     1
100
AcDbLine
 10
39.35622925264869
 20
28.50422610806042
 30
0.0
 11
39.4524628023554
 21
28.33754463286043
 31
0.0
  0
LINE
  5
291
330
2
100
AcDbEntity
  8
GAIKEI
  6
Continuous
 62
     1
100
AcDbLine
 10
39.4524628023554
 20
28.67090758326045
 30
0.0
 11
39.35622925264869
 21
28.50422610806042
 31
0.0
  0
LINE
  5
292
330
2
100
AcDbEntity
  8
GAIKEI
  6
Continuous
 62
     1
100
AcDbLine
 10
39.64492990176888
 20
28.67090758326045
 30
0.0
 11
39.4524628023554
 21
28.67090758326045
 31
0.0
  0
LINE
  5
293
330
2
100
AcDbEntity
  8
GAIKEI
  6
Continuous
 62
     1
100
AcDbLine
 10
39.74116345147559
 20
28.50422610806042
 30
0.0
 11
39.64492990176888
 21
28.67090758326045
 31
0.0
  0
CIRCLE
  5
294
330
2
100
AcDbEntity
  8
GAIKEI
  6
Continuous
 62
     1
100
AcDbCircle
 10
39.54869635206217
 20
28.50422610806042
 30
0.0
 40
0.2333540652800033
  0
LINE
  5
295
330
2
100
AcDbEntity
  8
GAIKEI
  6
Continuous
 62
     1
100
AcDbLine
 10
37.8868820443181
 20
29.75267035730844
 30
0.0
 11
37.85354574927811
 21
29.75267035730844
 31
0.0
  0
LINE
  5
296
330
2
100
AcDbEntity
  8
GAIKEI
  6
Continuous
 62
     1
100
AcDbLine
 10
37.8868820443181
 20
29.36930296434845
 30
0.0
 11
37.85354574927811
 21
29.36930296434845
 31
0.0
  0
ARC
  5
297
330
2
100
AcDbEntity
  8
GAIKEI
  6
Continuous
 62
     1
100
AcDbCircle
 10
37.55018546441409
 20
29.56098666082845
 30
0.0
 40
0.4667081305600066
100
AcDbArc
 50
344.3400829999992
 51
15.65991700000082
  0
ARC
  5
298
330
2
100
AcDbEntity
  8
GAIKEI
  6
Continuous
 62
     1
100
AcDbCircle
 10
37.93858197084387
 20
29.45210632087241
 30
0.0
 40
0.0633389605760009
100
AcDbArc
 50
273.0000000000023
 51
344.3400829999992
  0
ARC
  5
299
330
2
100
AcDbEntity
  8
GAIKEI
  6
Continuous
 62
     1
100
AcDbCircle
 10
37.93858197084387
 20
29.66986666742155
 30
0.0
 40
0.0633389605760009
100
AcDbArc
 50
15.65991700000082
 51
86.99999999999766
  0
LINE
  5
29A
330
2
100
AcDbEntity
  8
GAIKEI
  6
Continuous
 62
     1
100
AcDbLine
 10
37.8868820443181
 20
29.75267035730844
 30
0.0
 11
37.8868820443181
 21
29.36930296434845
 31
0.0
  0
LINE
  5
29B
330
2
100
AcDbEntity
  8
GAIKEI
  6
Continuous
 62
     1
100
AcDbLine
 10
37.8868820443181
 20
29.38597111186844
 30
0.0
 11
37.94189693202265
 21
29.38885403466348
 31
0.0
  0
LINE
  5
29C
330
2
100
AcDbEntity
  8
GAIKEI
  6
Continuous
 62
     1
100
AcDbLine
 10
37.8868820443181
 20
29.73600220978845
 30
0.0
 11
37.94189693202265
 21
29.73311895363044
 31
0.0
  0
ARC
  5
29D
330
2
100
AcDbEntity
  8
GAIKEI
  6
S10
 62
     1
100
AcDbCircle
 10
1.61176424954101
 20
27.43746466678043
 30
0.0
 40
0.0666725900800009
100
AcDbArc
 50
0.0
 51
90.0
  0
ARC
  5
29E
330
2
100
AcDbEntity
  8
GAIKEI
  6
S10
 62
     1
100
AcDbCircle
 10
0.078294677700967
 20
27.43746466678043
 30
0.0
 40
0.0666725900800009
100
AcDbArc
 50
90.0
 51
180.0
  0
ARC
  5
29F
330
2
100
AcDbEntity
  8
GAIKEI
  6
S10
 62
     1
100
AcDbCircle
 10
1.61176424954101
 20
20.90355083894032
 30
0.0
 40
0.0666725900800009
100
AcDbArc
 50
270.0
 51
0.0
  0
ARC
  5
2A0
330
2
100
AcDbEntity
  8
GAIKEI
  6
S10
 62
     1
100
AcDbCircle
 10
0.078294677700967
 20
20.90355083894032
 30
0.0
 40
0.0666725900800009
100
AcDbArc
 50
180.0
 51
270.0
  0
LINE
  5
2A1
330
2
100
AcDbEntity
  8
GAIKEI
  6
S10
 62
     1
100
AcDbLine
 10
0.078294677700967
 20
20.83687824886032
 30
0.0
 11
1.61176424954101
 21
20.83687824886032
 31
0.0
  0
LINE
  5
2A2
330
2
100
AcDbEntity
  8
GAIKEI
  6
S10
 62
     1
100
AcDbLine
 10
0.078294677700967
 20
27.50413725686043
 30
0.0
 11
1.61176424954101
 21
27.50413725686043
 31
0.0
  0
LINE
  5
2A3
330
2
100
AcDbEntity
  8
GAIKEI
  6
S10
 62
     1
100
AcDbLine
 10
1.678436839620985
 20
20.90355083894032
 30
0.0
 11
1.678436839620985
 21
27.43746466678043
 31
0.0
  0
LINE
  5
2A4
330
2
100
AcDbEntity
  8
GAIKEI
  6
S10
 62
     1
100
AcDbLine
 10
0.0116220876209923
 20
20.90355083894032
 30
0.0
 11
0.0116220876209923
 21
27.43746466678043
 31
0.0
  0
LINE
  5
2A5
330
2
100
AcDbEntity
  8
GAIKEI
  6
S10
 62
     1
100
AcDbLine
 10
-9.48480503594186
 20
22.06170406643547
 30
0.0
 11
-9.48480503594186
 21
22.29505813171547
 31
0.0
  0
LINE
  5
2A6
330
2
100
AcDbEntity
  8
GAIKEI
  6
S10
 62
     1
100
AcDbLine
 10
-10.68491165738186
 20
21.98669740259545
 30
0.0
 11
-10.68491165738186
 21
22.37006479555545
 31
0.0
  0
LINE
  5
2A7
330
2
100
AcDbEntity
  8
GAIKEI
  6
S10
 62
     1
100
AcDbLine
 10
-9.401464298341807
 20
22.07837221395543
 30
0.0
 11
-9.401464298341807
 21
22.27838998419547
 31
0.0
  0
ARC
  5
2A8
330
2
100
AcDbEntity
  8
GAIKEI
  6
S10
 62
     1
100
AcDbCircle
 10
-10.54287137138658
 20
22.17838109907545
 30
0.0
 40
0.3253899087152878
100
AcDbArc
 50
162.8697630000006
 51
197.1302369999994
  0
ARC
  5
2A9
330
2
100
AcDbEntity
  8
GAIKEI
  6
S10
 62
     1
100
AcDbCircle
 10
-10.78150090535666
 20
22.03461832671546
 30
0.0
 40
0.0867607081081548
100
AcDbArc
 50
146.4726420000019
 51
213.5273579999981
  0
ARC
  5
2AA
330
2
100
AcDbEntity
  8
GAIKEI
  6
S10
 62
     1
100
AcDbCircle
 10
-10.78150090535666
 20
22.32214387143547
 30
0.0
 40
0.0867607081081548
100
AcDbArc
 50
146.4726420000019
 51
213.5273579999981
  0
LINE
  5
2AB
330
2
100
AcDbEntity
  8
GAIKEI
  6
S10
 62
     1
100
AcDbLine
 10
-9.401464298341807
 20
22.27838998419547
 30
0.0
 11
-9.418132445861829
 21
22.29505813171547
 31
0.0
  0
LINE
  5
2AC
330
2
100
AcDbEntity
  8
GAIKEI
  6
S10
 62
     1
100
AcDbLine
 10
-9.418132445861829
 20
22.06170406643547
 30
0.0
 11
-9.401464298341807
 21
22.07837221395543
 31
0.0
  0
LINE
  5
2AD
330
2
100
AcDbEntity
  8
GAIKEI
  6
S10
 62
     1
100
AcDbLine
 10
-9.678155547173844
 20
22.29505813171547
 30
0.0
 11
-9.418132445861829
 21
22.29505813171547
 31
0.0
  0
LINE
  5
2AE
330
2
100
AcDbEntity
  8
GAIKEI
  6
S10
 62
     1
100
AcDbLine
 10
-9.418132445861829
 20
22.06170406643547
 30
0.0
 11
-9.678155547173844
 21
22.06170406643547
 31
0.0
  0
LINE
  5
2AF
330
2
100
AcDbEntity
  8
GAIKEI
  6
S10
 62
     1
100
AcDbLine
 10
-10.68491165738186
 20
22.38673294307544
 30
0.0
 11
-10.68491165738186
 21
21.97002925507546
 31
0.0
  0
LINE
  5
2B0
330
2
100
AcDbEntity
  8
GAIKEI
  6
S10
 62
     1
100
AcDbLine
 10
-10.63157358531788
 20
22.38673294307544
 30
0.0
 11
-10.63157358531788
 21
21.97002925507546
 31
0.0
  0
LINE
  5
2B1
330
2
100
AcDbEntity
  8
GAIKEI
  6
S10
 62
     1
100
AcDbLine
 10
-10.68491165738186
 20
21.97002925507546
 30
0.0
 11
-10.63157358531788
 21
21.97002925507546
 31
0.0
  0
LINE
  5
2B2
330
2
100
AcDbEntity
  8
GAIKEI
  6
S10
 62
     1
100
AcDbLine
 10
-10.68491165738186
 20
22.38673294307544
 30
0.0
 11
-10.63157358531788
 21
22.38673294307544
 31
0.0
  0
LINE
  5
2B3
330
2
100
AcDbEntity
  8
GAIKEI
  6
S10
 62
     1
100
AcDbLine
 10
-10.85382633098658
 20
22.08253925083547
 30
0.0
 11
-10.73491609994187
 21
22.08253925083547
 31
0.0
  0
LINE
  5
2B4
330
2
100
AcDbEntity
  8
GAIKEI
  6
S10
 62
     1
100
AcDbLine
 10
-10.85382633098658
 20
22.27422294731546
 30
0.0
 11
-10.73491609994187
 21
22.27422294731546
 31
0.0
  0
LINE
  5
2B5
330
2
100
AcDbEntity
  8
GAIKEI
  6
S10
 62
     1
100
AcDbLine
 10
-10.73491609994187
 20
21.98669740259545
 30
0.0
 11
-10.73491609994187
 21
22.37006479555545
 31
0.0
  0
LINE
  5
2B6
330
2
100
AcDbEntity
  8
GAIKEI
  6
S10
 62
     1
100
AcDbLine
 10
-10.86826128010187
 20
22.03461832671546
 30
0.0
 11
-10.86826128010187
 21
22.32214387143547
 31
0.0
  0
LINE
  5
2B7
330
2
100
AcDbEntity
  8
GAIKEI
  6
S10
 62
     1
100
AcDbLine
 10
-10.85382633098658
 20
21.98669740259545
 30
0.0
 11
-10.68491165738186
 21
21.98669740259545
 31
0.0
  0
LINE
  5
2B8
330
2
100
AcDbEntity
  8
GAIKEI
  6
S10
 62
     1
100
AcDbLine
 10
-10.85382633098658
 20
22.37006479555545
 30
0.0
 11
-10.68491165738186
 21
22.37006479555545
 31
0.0
  0
LINE
  5
2B9
330
2
100
AcDbEntity
  8
GAIKEI
  6
S10
 62
     1
100
AcDbLine
 10
-9.528142219493815
 20
22.39506701683545
 30
0.0
 11
-9.528142219493815
 21
21.96169518131545
 31
0.0
  0
LINE
  5
2BA
330
2
100
AcDbEntity
  8
GAIKEI
  6
S10
 62
     1
100
AcDbLine
 10
-9.678155547173844
 20
21.96169518131545
 30
0.0
 11
-9.528142219493815
 21
21.96169518131545
 31
0.0
  0
LINE
  5
2BB
330
2
100
AcDbEntity
  8
GAIKEI
  6
S10
 62
     1
100
AcDbLine
 10
-9.678155547173844
 20
22.39506701683545
 30
0.0
 11
-9.528142219493815
 21
22.39506701683545
 31
0.0
  0
LINE
  5
2BC
330
2
100
AcDbEntity
  8
GAIKEI
  6
S10
 62
     1
100
AcDbLine
 10
-11.63999651027785
 20
35.53639153555328
 30
0.0
 11
-11.63999651027785
 21
29.79434072610845
 31
0.0
  0
LINE
  5
2BD
330
2
100
AcDbEntity
  8
GAIKEI
  6
S10
 62
     1
100
AcDbLine
 10
-8.669732622213814
 20
35.53639153555328
 30
0.0
 11
-8.669732622213814
 21
29.79434072610845
 31
0.0
  0
LINE
  5
2BE
330
2
100
AcDbEntity
  8
GAIKEI
  6
Continuous
 62
     7
100
AcDbLine
 10
-11.63999651027785
 20
49.41275035714873
 30
0.0
 11
-8.669732622213814
 21
49.41275035714873
 31
0.0
  0
LINE
  5
2BF
330
2
100
AcDbEntity
  8
GAIKEI
  6
S10
 62
     1
100
AcDbLine
 10
-11.63999651027785
 20
29.79434072610845
 30
0.0
 11
-8.669732622213814
 21
29.79434072610845
 31
0.0
  0
LINE
  5
2C0
330
2
100
AcDbEntity
  8
GAIKEI
  6
Continuous
 62
     7
100
AcDbLine
 10
-8.669732622213814
 20
49.41275035714873
 30
0.0
 11
-8.669732622213814
 21
35.53639153555328
 31
0.0
  0
LINE
  5
2C1
330
2
100
AcDbEntity
  8
GAIKEI
  6
Continuous
 62
     7
100
AcDbLine
 10
-11.63999651027785
 20
49.41275035714873
 30
0.0
 11
-11.63999651027785
 21
35.53639153555328
 31
0.0
  0
POINT
  5
2C2
330
2
100
AcDbEntity
  8
GAIKEI
  6
Continuous
 62
     7
100
AcDbPoint
 10
34.24822544070128
 20
28.51756062607551
 30
0.0
  0
CIRCLE
  5
2C3
330
2
100
AcDbEntity
  8
GAIKEI
  6
Continuous
 62
     1
100
AcDbCircle
 10
36.5817660935013
 20
33.62801465570753
 30
0.0
 40
0.15834740144
  0
CIRCLE
  5
2C4
330
2
100
AcDbEntity
  8
GAIKEI
  6
Continuous
 62
     1
100
AcDbCircle
 10
36.59092957428186
 20
30.29438515170752
 30
0.0
 40
0.3000266553599999
  0
LINE
  5
2C5
330
2
100
AcDbEntity
  8
GAIKEI
  6
Continuous
 62
     1
100
AcDbLine
 10
36.37424365652191
 20
30.16928137040729
 30
0.0
 11
36.59092957428186
 21
30.04417758910709
 31
0.0
  0
LINE
  5
2C6
330
2
100
AcDbEntity
  8
GAIKEI
  6
Continuous
 62
     1
100
AcDbLine
 10
36.59092957428186
 20
30.54459238094499
 30
0.0
 11
36.80761549204192
 21
30.4194885996448
 31
0.0
  0
LINE
  5
2C7
330
2
100
AcDbEntity
  8
GAIKEI
  6
Continuous
 62
     1
100
AcDbLine
 10
36.59092957428186
 20
30.04417758910709
 30
0.0
 11
36.80761549204192
 21
30.16928137040729
 31
0.0
  0
LINE
  5
2C8
330
2
100
AcDbEntity
  8
GAIKEI
  6
Continuous
 62
     1
100
AcDbLine
 10
36.37424365652191
 20
30.4194885996448
 30
0.0
 11
36.59092957428186
 21
30.54459238094499
 31
0.0
  0
LINE
  5
2C9
330
2
100
AcDbEntity
  8
GAIKEI
  6
Continuous
 62
     1
100
AcDbLine
 10
36.37424365652191
 20
30.4194885996448
 30
0.0
 11
36.37424365652191
 21
30.16928137040729
 31
0.0
  0
LINE
  5
2CA
330
2
100
AcDbEntity
  8
GAIKEI
  6
Continuous
 62
     1
100
AcDbLine
 10
36.80761549204192
 20
30.4194885996448
 30
0.0
 11
36.80761549204192
 21
30.16928137040729
 31
0.0
  0
CIRCLE
  5
2CB
330
2
100
AcDbEntity
  8
GAIKEI
  6
Continuous
 62
     1
100
AcDbCircle
 10
36.5817660935013
 20
47.34590006466753
 30
0.0
 40
0.0833407376
  0
CIRCLE
  5
2CC
330
2
100
AcDbEntity
  8
GAIKEI
  6
Continuous
 62
     1
100
AcDbCircle
 10
37.00668084433261
 20
22.38402570255444
 30
0.0
 40
0.3000266553599999
  0
LINE
  5
2CD
330
2
100
AcDbEntity
  8
GAIKEI
  6
Continuous
 62
     1
100
AcDbLine
 10
36.76752493026385
 20
22.31048550233324
 30
0.0
 11
36.95079054552036
 21
22.14014070167131
 31
0.0
  0
LINE
  5
2CE
330
2
100
AcDbEntity
  8
GAIKEI
  6
Continuous
 62
     1
100
AcDbLine
 10
37.06257114314485
 20
22.62791103680051
 30
0.0
 11
37.24583675840137
 21
22.45756590277562
 31
0.0
  0
LINE
  5
2CF
330
2
100
AcDbEntity
  8
GAIKEI
  6
Continuous
 62
     1
100
AcDbLine
 10
36.95079054552036
 20
22.14014070167131
 30
0.0
 11
37.18994645958912
 21
22.21368056852954
 31
0.0
  0
LINE
  5
2D0
330
2
100
AcDbEntity
  8
GAIKEI
  6
Continuous
 62
     1
100
AcDbLine
 10
36.82341522907609
 20
22.55437083657934
 30
0.0
 11
37.06257114314485
 21
22.62791103680051
 31
0.0
  0
LINE
  5
2D1
330
2
100
AcDbEntity
  8
GAIKEI
  6
Continuous
 62
     1
100
AcDbLine
 10
36.82341522907609
 20
22.55437083657934
 30
0.0
 11
36.76752493026385
 21
22.31048550233324
 31
0.0
  0
LINE
  5
2D2
330
2
100
AcDbEntity
  8
GAIKEI
  6
Continuous
 62
     1
100
AcDbLine
 10
37.24583675840137
 20
22.45756590277562
 30
0.0
 11
37.18994645958912
 21
22.21368056852954
 31
0.0
  0
CIRCLE
  5
2D3
330
2
100
AcDbEntity
  8
GAIKEI
  6
Continuous
 62
     1
100
AcDbCircle
 10
34.24822544070128
 20
28.51756062607551
 30
0.0
 40
0.635056420512
  0
CIRCLE
  5
2D4
330
2
100
AcDbEntity
  8
GAIKEI
  6
Continuous
 62
     1
100
AcDbCircle
 10
34.24822544070128
 20
28.51756062607551
 30
0.0
 40
0.7117298991040001
  0
LINE
  5
2D5
330
2
100
AcDbEntity
  8
GAIKEI
  6
Continuous
 62
     7
100
AcDbLine
 10
37.03131136592288
 20
27.69415413858751
 30
0.0
 11
37.03131136592288
 21
27.02742823778753
 31
0.0
  0
CIRCLE
  5
2D6
330
2
100
AcDbEntity
  8
GAIKEI
  6
Continuous
 62
     1
100
AcDbCircle
 10
36.5817660935013
 20
47.34590006466753
 30
0.0
 40
0.3333629504
  0
LINE
  5
2D7
330
2
100
AcDbEntity
  8
GAIKEI
  6
Continuous
 62
     1
100
AcDbLine
 10
36.74844756870129
 20
47.44213361437424
 30
0.0
 11
36.74844756870129
 21
47.24966618159784
 31
0.0
  0
LINE
  5
2D8
330
2
100
AcDbEntity
  8
GAIKEI
  6
Continuous
 62
     1
100
AcDbLine
 10
36.5817660935013
 20
47.15343263189111
 30
0.0
 11
36.74844756870129
 21
47.24966618159784
 31
0.0
  0
LINE
  5
2D9
330
2
100
AcDbEntity
  8
GAIKEI
  6
Continuous
 62
     1
100
AcDbLine
 10
36.41508461830131
 20
47.24966618159784
 30
0.0
 11
36.5817660935013
 21
47.15343263189111
 31
0.0
  0
LINE
  5
2DA
330
2
100
AcDbEntity
  8
GAIKEI
  6
Continuous
 62
     1
100
AcDbLine
 10
36.41508461830131
 20
47.44213361437424
 30
0.0
 11
36.41508461830131
 21
47.24966618159784
 31
0.0
  0
LINE
  5
2DB
330
2
100
AcDbEntity
  8
GAIKEI
  6
Continuous
 62
     1
100
AcDbLine
 10
36.41508461830131
 20
47.44213361437424
 30
0.0
 11
36.5817660935013
 21
47.53836716408095
 31
0.0
  0
LINE
  5
2DC
330
2
100
AcDbEntity
  8
GAIKEI
  6
Continuous
 62
     1
100
AcDbLine
 10
36.5817660935013
 20
47.53836716408095
 30
0.0
 11
36.74844756870129
 21
47.44213361437424
 31
0.0
  0
LINE
  5
2DD
330
2
100
AcDbEntity
  8
GAIKEI
  6
Continuous
 62
     7
100
AcDbLine
 10
35.19830984934129
 20
49.44937427760435
 30
0.0
 11
35.19830984934129
 21
49.41275035714752
 31
0.0
  0
LINE
  5
2DE
330
2
100
AcDbEntity
  8
GAIKEI
  6
Continuous
 62
     7
100
AcDbLine
 10
37.96522233766132
 20
49.44937427760435
 30
0.0
 11
37.96522233766132
 21
49.41275035714752
 31
0.0
  0
ARC
  5
2DF
330
2
100
AcDbEntity
  8
GAIKEI
  6
Continuous
 62
     7
100
AcDbCircle
 10
39.68726032920983
 20
49.24935650736436
 30
0.0
 40
0.6667259008
100
AcDbArc
 50
90.0
 51
136.9367999999798
  0
ARC
  5
2E0
330
2
100
AcDbEntity
  8
GAIKEI
  6
Continuous
 62
     7
100
AcDbCircle
 10
40.53822226481492
 20
50.31611794864436
 30
0.0
 40
0.560049756672
100
AcDbArc
 50
90.0
 51
136.9367999999798
  0
ARC
  5
2E1
330
2
100
AcDbEntity
  8
GAIKEI
  6
Continuous
 62
     7
100
AcDbCircle
 10
32.62531025555063
 20
50.31611794864436
 30
0.0
 40
0.560049756672
100
AcDbArc
 50
43.0632000000196
 51
90.0
  0
ARC
  5
2E2
330
2
100
AcDbEntity
  8
GAIKEI
  6
Continuous
 62
     7
100
AcDbCircle
 10
38.67215747744968
 20
50.11610017840435
 30
0.0
 40
0.6667259008
100
AcDbArc
 50
270.0
 51
316.9367999999798
  0
LINE
  5
2E3
330
2
100
AcDbEntity
  8
GAIKEI
  6
Continuous
 62
     7
100
AcDbLine
 10
39.15926808730006
 20
49.66085673307155
 30
0.0
 11
40.12904924586445
 21
50.69852258940359
 31
0.0
  0
ARC
  5
2E4
330
2
100
AcDbEntity
  8
GAIKEI
  6
Continuous
 62
     7
100
AcDbCircle
 10
34.49137504291582
 20
50.11610017840435
 30
0.0
 40
0.6667259008
100
AcDbArc
 50
223.0632000000196
 51
270.0
  0
LINE
  5
2E5
330
2
100
AcDbEntity
  8
GAIKEI
  6
Continuous
 62
     7
100
AcDbLine
 10
34.00426443306549
 20
49.66085673307155
 30
0.0
 11
33.03448294113815
 21
50.69852258940359
 31
0.0
  0
LINE
  5
2E6
330
2
100
AcDbEntity
  8
GAIKEI
  6
Continuous
 62
     7
100
AcDbLine
 10
30.7479144615013
 20
50.98284384944436
 30
0.0
 11
40.5171157229733
 21
50.98284384944436
 31
0.0
  0
LINE
  5
2E7
330
2
100
AcDbEntity
  8
GAIKEI
  6
Continuous
 62
     7
100
AcDbLine
 10
34.49137504291582
 20
49.44937427760435
 30
0.0
 11
38.67215747744968
 21
49.44937427760435
 31
0.0
  0
LINE
  5
2E8
330
2
100
AcDbEntity
  8
GAIKEI
  6
Continuous
 62
     7
100
AcDbLine
 10
39.68726032920983
 20
49.91608240816434
 30
0.0
 11
42.4156177255013
 21
49.91608240816434
 31
0.0
  0
LINE
  5
2E9
330
2
100
AcDbEntity
  8
GAIKEI
  6
Continuous
 62
     7
100
AcDbLine
 10
30.7479144615013
 20
50.87616770531635
 30
0.0
 11
42.4156177255013
 21
50.87616770531635
 31
0.0
  0
LINE
  5
2EA
330
2
100
AcDbEntity
  8
GAIKEI
  6
Continuous
 62
     7
100
AcDbLine
 10
42.4156177255013
 20
50.98284384944436
 30
0.0
 11
42.4156177255013
 21
49.91608240816434
 31
0.0
  0
LINE
  5
2EB
330
2
100
AcDbEntity
  8
GAIKEI
  6
Continuous
 62
     7
100
AcDbLine
 10
30.7479144615013
 20
50.98284384944436
 30
0.0
 11
30.7479144615013
 21
50.87616770531635
 31
0.0
  0
LINE
  5
2EC
330
2
100
AcDbEntity
  8
GAIKEI
  6
Continuous
 62
     7
100
AcDbLine
 10
40.53822226481492
 20
50.98284384944436
 30
0.0
 11
42.4156177255013
 21
50.98284384944436
 31
0.0
  0
LINE
  5
2ED
330
2
100
AcDbEntity
  8
GAIKEI
  6
S10
 62
     1
100
AcDbLine
 10
0.6116753983404238
 20
29.21595600716351
 30
0.0
 11
1.078383528900417
 21
29.21595600716351
 31
0.0
  0
LINE
  5
2EE
330
2
100
AcDbEntity
  8
GAIKEI
  6
S10
 62
     1
100
AcDbLine
 10
-20.92140453083294
 20
29.21595600716351
 30
0.0
 11
-21.38811266139294
 21
29.21595600716351
 31
0.0
  0
ARC
  5
2EF
330
2
100
AcDbEntity
  8
GAIKEI
  6
S10
 62
     1
100
AcDbCircle
 10
-10.30487789392629
 20
21.81168185363462
 30
0.0
 40
0.10000888512
100
AcDbArc
 50
270.0
 51
0.0
  0
ARC
  5
2F0
330
2
100
AcDbEntity
  8
GAIKEI
  6
S10
 62
     1
100
AcDbCircle
 10
-10.00485123856629
 20
21.81168185363462
 30
0.0
 40
0.10000888512
100
AcDbArc
 50
180.0
 51
270.0
  0
LINE
  5
2F1
330
2
100
AcDbEntity
  8
GAIKEI
  6
S10
 62
     1
100
AcDbLine
 10
-10.30487789392629
 20
21.71167296851463
 30
0.0
 11
-10.63157358531822
 21
21.71167296851463
 31
0.0
  0
LINE
  5
2F2
330
2
100
AcDbEntity
  8
GAIKEI
  6
S10
 62
     1
100
AcDbLine
 10
-10.20486900880627
 20
23.37848772051463
 30
0.0
 11
-10.20486900880627
 21
21.81168185363462
 31
0.0
  0
LINE
  5
2F3
330
2
100
AcDbEntity
  8
GAIKEI
  6
S10
 62
     1
100
AcDbLine
 10
-10.10486012368625
 20
23.37848772051463
 30
0.0
 11
-10.10486012368625
 21
21.81168185363462
 31
0.0
  0
LINE
  5
2F4
330
2
100
AcDbEntity
  8
GAIKEI
  6
S10
 62
     1
100
AcDbLine
 10
-10.10486012368625
 20
23.37848772051463
 30
0.0
 11
-10.20486900880627
 21
23.37848772051463
 31
0.0
  0
LINE
  5
2F5
330
2
100
AcDbEntity
  8
GAIKEI
  6
S10
 62
     1
100
AcDbLine
 10
-9.678155547174299
 20
21.71167296851463
 30
0.0
 11
-10.00485123856629
 21
21.71167296851463
 31
0.0
  0
LINE
  5
2F6
330
2
100
AcDbEntity
  8
GAIKEI
  6
S10
 62
     1
100
AcDbLine
 10
-9.678155547174299
 20
27.01076009026751
 30
0.0
 11
-9.678155547174299
 21
21.71167296851463
 31
0.0
  0
LINE
  5
2F7
330
2
100
AcDbEntity
  8
GAIKEI
  6
S10
 62
     1
100
AcDbLine
 10
-10.63157358531822
 20
27.01076009026751
 30
0.0
 11
-10.63157358531822
 21
21.71167296851463
 31
0.0
  0
LINE
  5
2F8
330
2
100
AcDbEntity
  8
GAIKEI
  6
S10
 62
     1
100
AcDbLine
 10
-0.1550593875795698
 20
16.71317855241152
 30
0.0
 11
-20.15466974491295
 21
16.71317855241152
 31
0.0
  0
LINE
  5
2F9
330
2
100
AcDbEntity
  8
GAIKEI
  6
S10
 62
     1
100
AcDbLine
 10
-0.1550593875795698
 20
17.55992044642751
 30
0.0
 11
-9.731493619238278
 21
17.55992044642751
 31
0.0
  0
LINE
  5
2FA
330
2
100
AcDbEntity
  8
GAIKEI
  6
S10
 62
     1
100
AcDbLine
 10
-22.15484744731293
 20
16.71317855241152
 30
0.0
 11
-22.33819707003289
 21
16.71317855241152
 31
0.0
  0
LINE
  5
2FB
330
2
100
AcDbEntity
  8
GAIKEI
  6
S10
 62
     1
100
AcDbLine
 10
-20.15466974491295
 20
17.55992044642751
 30
0.0
 11
-10.57823551325424
 21
17.55992044642751
 31
0.0
  0
LINE
  5
2FC
330
2
100
AcDbEntity
  8
GAIKEI
  6
S10
 62
     1
100
AcDbLine
 10
-22.15484744731293
 20
27.79249620895551
 30
0.0
 11
-22.33819707003289
 21
27.79249620895551
 31
0.0
  0
LINE
  5
2FD
330
2
100
AcDbEntity
  8
GAIKEI
  6
S10
 62
     1
100
AcDbLine
 10
-22.15484744731293
 20
29.21595600716351
 30
0.0
 11
-22.33819707003289
 21
29.21595600716351
 31
0.0
  0
LINE
  5
2FE
330
2
100
AcDbEntity
  8
GAIKEI
  6
S10
 62
     1
100
AcDbLine
 10
-0.1550593875795698
 20
27.79249620895551
 30
0.0
 11
-7.487960963046305
 21
27.79249620895551
 31
0.0
  0
LINE
  5
2FF
330
2
100
AcDbEntity
  8
GAIKEI
  6
S10
 62
     1
100
AcDbLine
 10
-0.1550593875795698
 20
29.21595600716351
 30
0.0
 11
-7.487960963046305
 21
29.21595600716351
 31
0.0
  0
LINE
  5
300
330
2
100
AcDbEntity
  8
GAIKEI
  6
S10
 62
     1
100
AcDbLine
 10
-12.82176816944627
 20
27.79249620895551
 30
0.0
 11
-20.15466974491295
 21
27.79249620895551
 31
0.0
  0
LINE
  5
301
330
2
100
AcDbEntity
  8
GAIKEI
  6
S10
 62
     1
100
AcDbLine
 10
-12.82176816944627
 20
29.21595600716351
 30
0.0
 11
-20.15466974491295
 21
29.21595600716351
 31
0.0
  0
LINE
  5
302
330
2
100
AcDbEntity
  8
GAIKEI
  6
S10
 62
     1
100
AcDbLine
 10
-10.45489122160626
 20
27.50610043127442
 30
0.0
 11
-10.45489122160626
 21
27.69415413858751
 31
0.0
  0
LINE
  5
303
330
2
100
AcDbEntity
  8
GAIKEI
  6
S10
 62
     1
100
AcDbLine
 10
-9.854837910886317
 20
27.50610043127442
 30
0.0
 11
-9.854837910886317
 21
27.69415413858751
 31
0.0
  0
CIRCLE
  5
304
330
2
100
AcDbEntity
  8
GAIKEI
  6
S10
 62
     1
100
AcDbCircle
 10
-10.15486456624626
 20
27.36079118818752
 30
0.0
 40
0.3333629504
  0
LINE
  5
305
330
2
100
AcDbEntity
  8
GAIKEI
  6
S10
 62
     1
100
AcDbLine
 10
-9.988183091046323
 20
27.45702473789423
 30
0.0
 11
-9.988183091046323
 21
27.26455730511786
 31
0.0
  0
LINE
  5
306
330
2
100
AcDbEntity
  8
GAIKEI
  6
S10
 62
     1
100
AcDbLine
 10
-10.15486456624626
 20
27.16832375541113
 30
0.0
 11
-9.988183091046323
 21
27.26455730511786
 31
0.0
  0
LINE
  5
307
330
2
100
AcDbEntity
  8
GAIKEI
  6
S10
 62
     1
100
AcDbLine
 10
-10.32154604144625
 20
27.26455730511786
 30
0.0
 11
-10.15486456624626
 21
27.16832375541113
 31
0.0
  0
LINE
  5
308
330
2
100
AcDbEntity
  8
GAIKEI
  6
S10
 62
     1
100
AcDbLine
 10
-10.32154604144625
 20
27.45702473789423
 30
0.0
 11
-10.32154604144625
 21
27.26455730511786
 31
0.0
  0
LINE
  5
309
330
2
100
AcDbEntity
  8
GAIKEI
  6
S10
 62
     1
100
AcDbLine
 10
-10.32154604144625
 20
27.45702473789423
 30
0.0
 11
-10.15486456624626
 21
27.55325828760097
 31
0.0
  0
LINE
  5
30A
330
2
100
AcDbEntity
  8
GAIKEI
  6
S10
 62
     1
100
AcDbLine
 10
-10.15486456624626
 20
27.55325828760097
 30
0.0
 11
-9.988183091046323
 21
27.45702473789423
 31
0.0
  0
LINE
  5
30B
330
2
100
AcDbEntity
  8
GAIKEI
  6
S10
 62
     1
100
AcDbLine
 10
-22.33819707003289
 20
17.55992044642751
 30
0.0
 11
-22.15484744731293
 21
17.55992044642751
 31
0.0
  0
LINE
  5
30C
330
2
100
AcDbEntity
  8
GAIKEI
  6
S10
 62
     1
100
AcDbLine
 10
-22.33819707003289
 20
16.71317855241152
 30
0.0
 11
-22.33819707003289
 21
17.55992044642751
 31
0.0
  0
LINE
  5
30D
330
2
100
AcDbEntity
  8
GAIKEI
  6
S10
 62
     1
100
AcDbLine
 10
2.028467937540369
 20
16.71317855241152
 30
0.0
 11
1.84511831482041
 21
16.71317855241152
 31
0.0
  0
ARC
  5
30E
330
2
100
AcDbEntity
  8
GAIKEI
  6
S10
 62
     1
100
AcDbCircle
 10
-10.15486456624626
 20
17.55992044642751
 30
0.0
 40
0.4233709470079999
100
AcDbArc
 50
180.0
 51
0.0
  0
LINE
  5
30F
330
2
100
AcDbEntity
  8
GAIKEI
  6
S10
 62
     1
100
AcDbLine
 10
-9.731493619238278
 20
21.71167296851463
 30
0.0
 11
-9.731493619238278
 21
17.55992044642751
 31
0.0
  0
LINE
  5
310
330
2
100
AcDbEntity
  8
GAIKEI
  6
S10
 62
     1
100
AcDbLine
 10
-10.57823551325424
 20
21.71167296851463
 30
0.0
 11
-10.57823551325424
 21
17.55992044642751
 31
0.0
  0
LINE
  5
311
330
2
100
AcDbEntity
  8
GAIKEI
  6
S10
 62
     1
100
AcDbLine
 10
2.028467937540369
 20
17.55992044642751
 30
0.0
 11
1.84511831482041
 21
17.55992044642751
 31
0.0
  0
LINE
  5
312
330
2
100
AcDbEntity
  8
GAIKEI
  6
S10
 62
     1
100
AcDbLine
 10
2.028467937540369
 20
16.71317855241152
 30
0.0
 11
2.028467937540369
 21
17.55992044642751
 31
0.0
  0
LINE
  5
313
330
2
100
AcDbEntity
  8
GAIKEI
  6
S10
 62
     1
100
AcDbLine
 10
-22.33819707003289
 20
27.79249620895551
 30
0.0
 11
-22.33819707003289
 21
29.21595600716351
 31
0.0
  0
LINE
  5
314
330
2
100
AcDbEntity
  8
GAIKEI
  6
S10
 62
     1
100
AcDbLine
 10
2.028467937540369
 20
27.79249620895551
 30
0.0
 11
2.028467937540369
 21
29.21595600716351
 31
0.0
  0
LINE
  5
315
330
2
100
AcDbEntity
  8
GAIKEI
  6
S10
 62
     1
100
AcDbLine
 10
2.028467937540369
 20
27.79249620895551
 30
0.0
 11
1.84511831482041
 21
27.79249620895551
 31
0.0
  0
LINE
  5
316
330
2
100
AcDbEntity
  8
GAIKEI
  6
S10
 62
     1
100
AcDbLine
 10
2.028467937540369
 20
29.21595600716351
 30
0.0
 11
1.84511831482041
 21
29.21595600716351
 31
0.0
  0
ARC
  5
317
330
2
100
AcDbEntity
  8
GAIKEI
  6
S10
 62
     1
100
AcDbCircle
 10
-10.25487345136622
 20
29.51431584777153
 30
0.0
 40
0.06667259008
100
AcDbArc
 50
90.0
 51
180.0
  0
ARC
  5
318
330
2
100
AcDbEntity
  8
GAIKEI
  6
S10
 62
     1
100
AcDbCircle
 10
-10.0548556811263
 20
29.51431584777153
 30
0.0
 40
0.06667259008
100
AcDbArc
 50
0.0
 51
90.0
  0
LINE
  5
319
330
2
100
AcDbEntity
  8
GAIKEI
  6
S10
 62
     1
100
AcDbLine
 10
-10.0548556811263
 20
29.58098843785153
 30
0.0
 11
-10.25487345136622
 21
29.58098843785153
 31
0.0
  0
LINE
  5
31A
330
2
100
AcDbEntity
  8
GAIKEI
  6
S10
 62
     1
100
AcDbLine
 10
-10.32154604144625
 20
29.51431584777153
 30
0.0
 11
-10.32154604144625
 21
29.31429807753152
 31
0.0
  0
LINE
  5
31B
330
2
100
AcDbEntity
  8
GAIKEI
  6
S10
 62
     1
100
AcDbLine
 10
-9.988183091046323
 20
29.51431584777153
 30
0.0
 11
-9.988183091046323
 21
29.31429807753152
 31
0.0
  0
LINE
  5
31C
330
2
100
AcDbEntity
  8
GAIKEI
  6
S10
 62
     1
100
AcDbLine
 10
-7.487960963046305
 20
29.31429807753152
 30
0.0
 11
-7.487960963046305
 21
27.69415413858751
 31
0.0
  0
LINE
  5
31D
330
2
100
AcDbEntity
  8
GAIKEI
  6
S10
 62
     1
100
AcDbLine
 10
-12.82176816944627
 20
29.31429807753152
 30
0.0
 11
-12.82176816944627
 21
27.69415413858751
 31
0.0
  0
LINE
  5
31E
330
2
100
AcDbEntity
  8
GAIKEI
  6
S10
 62
     1
100
AcDbLine
 10
-7.487960963046305
 20
29.31429807753152
 30
0.0
 11
-12.82176816944627
 21
29.31429807753152
 31
0.0
  0
LINE
  5
31F
330
2
100
AcDbEntity
  8
GAIKEI
  6
S10
 62
     1
100
AcDbLine
 10
-9.854837910886317
 20
27.02742823778753
 30
0.0
 11
-9.854837910886317
 21
27.21548161173767
 31
0.0
  0
LINE
  5
320
330
2
100
AcDbEntity
  8
GAIKEI
  6
S10
 62
     1
100
AcDbLine
 10
-10.45489122160626
 20
27.02742823778753
 30
0.0
 11
-10.45489122160626
 21
27.21548161173767
 31
0.0
  0
LINE
  5
321
330
2
100
AcDbEntity
  8
GAIKEI
  6
S10
 62
     1
100
AcDbLine
 10
-7.487960963046305
 20
27.69415413858751
 30
0.0
 11
-12.82176816944627
 21
27.69415413858751
 31
0.0
  0
LINE
  5
322
330
2
100
AcDbEntity
  8
GAIKEI
  6
S10
 62
     1
100
AcDbLine
 10
-11.63999651027825
 20
29.79434072610751
 30
0.0
 11
-8.669732622214269
 21
29.79434072610751
 31
0.0
  0
LINE
  5
323
330
2
100
AcDbEntity
  8
GAIKEI
  6
Continuous
 62
     7
100
AcDbLine
 10
-11.63999651027825
 20
49.41275035714752
 30
0.0
 11
-8.669732622214269
 21
49.41275035714752
 31
0.0
  0
CIRCLE
  5
324
330
2
100
AcDbEntity
  8
GAIKEI
  6
Continuous
 62
     1
100
AcDbCircle
 10
-10.15486456624626
 20
48.67935186626751
 30
0.0
 40
0.3333629504
  0
LINE
  5
325
330
2
100
AcDbEntity
  8
GAIKEI
  6
Continuous
 62
     1
100
AcDbLine
 10
-9.988183091046323
 20
48.77558541597425
 30
0.0
 11
-9.988183091046323
 21
48.58311798319782
 31
0.0
  0
LINE
  5
326
330
2
100
AcDbEntity
  8
GAIKEI
  6
Continuous
 62
     1
100
AcDbLine
 10
-10.15486456624626
 20
48.48688443349111
 30
0.0
 11
-9.988183091046323
 21
48.58311798319782
 31
0.0
  0
LINE
  5
327
330
2
100
AcDbEntity
  8
GAIKEI
  6
Continuous
 62
     1
100
AcDbLine
 10
-10.32154604144625
 20
48.58311798319782
 30
0.0
 11
-10.15486456624626
 21
48.48688443349111
 31
0.0
  0
LINE
  5
328
330
2
100
AcDbEntity
  8
GAIKEI
  6
Continuous
 62
     1
100
AcDbLine
 10
-10.32154604144625
 20
48.77558541597425
 30
0.0
 11
-10.32154604144625
 21
48.58311798319782
 31
0.0
  0
LINE
  5
329
330
2
100
AcDbEntity
  8
GAIKEI
  6
Continuous
 62
     1
100
AcDbLine
 10
-10.32154604144625
 20
48.77558541597425
 30
0.0
 11
-10.15486456624626
 21
48.87181896568096
 31
0.0
  0
LINE
  5
32A
330
2
100
AcDbEntity
  8
GAIKEI
  6
Continuous
 62
     1
100
AcDbLine
 10
-10.15486456624626
 20
48.87181896568096
 30
0.0
 11
-9.988183091046323
 21
48.77558541597425
 31
0.0
  0
LINE
  5
32B
330
2
100
AcDbEntity
  8
GAIKEI
  6
Continuous
 62
     7
100
AcDbLine
 10
-11.53832081040627
 20
49.44937427760435
 30
0.0
 11
-11.53832081040627
 21
49.41275035714752
 31
0.0
  0
LINE
  5
32C
330
2
100
AcDbEntity
  8
GAIKEI
  6
Continuous
 62
     7
100
AcDbLine
 10
-8.771408322086244
 20
49.44937427760435
 30
0.0
 11
-8.771408322086244
 21
49.41275035714752
 31
0.0
  0
ARC
  5
32D
330
2
100
AcDbEntity
  8
GAIKEI
  6
Continuous
 62
     7
100
AcDbCircle
 10
-6.198408728295646
 20
50.31611794864436
 30
0.0
 40
0.560049756672
100
AcDbArc
 50
90.0
 51
136.9367999999798
  0
ARC
  5
32E
330
2
100
AcDbEntity
  8
GAIKEI
  6
Continuous
 62
     7
100
AcDbCircle
 10
-14.11132073755988
 20
50.31611794864436
 30
0.0
 40
0.560049756672
100
AcDbArc
 50
43.0632000000196
 51
90.0
  0
ARC
  5
32F
330
2
100
AcDbEntity
  8
GAIKEI
  6
Continuous
 62
     7
100
AcDbCircle
 10
-8.064473515660779
 20
50.11610017840435
 30
0.0
 40
0.6667259008
100
AcDbArc
 50
270.0
 51
316.9367999999798
  0
LINE
  5
330
330
2
100
AcDbEntity
  8
GAIKEI
  6
Continuous
 62
     7
100
AcDbLine
 10
-7.577362905810446
 20
49.66085673307155
 30
0.0
 11
-6.60758141388311
 21
50.69852258940359
 31
0.0
  0
ARC
  5
331
330
2
100
AcDbEntity
  8
GAIKEI
  6
Continuous
 62
     7
100
AcDbCircle
 10
-12.24525595019463
 20
50.11610017840435
 30
0.0
 40
0.6667259008
100
AcDbArc
 50
223.0632000000196
 51
270.0
  0
LINE
  5
332
330
2
100
AcDbEntity
  8
GAIKEI
  6
Continuous
 62
     7
100
AcDbLine
 10
-12.73236656004502
 20
49.66085673307155
 30
0.0
 11
-13.70214771860941
 21
50.69852258940359
 31
0.0
  0
LINE
  5
333
330
2
100
AcDbEntity
  8
GAIKEI
  6
Continuous
 62
     7
100
AcDbLine
 10
-12.24525595019463
 20
49.44937427760435
 30
0.0
 11
-8.064473515660779
 21
49.44937427760435
 31
0.0
  0
LINE
  5
334
330
2
100
AcDbEntity
  8
GAIKEI
  6
Continuous
 62
     7
100
AcDbLine
 10
-15.98871619824626
 20
50.87616770531635
 30
0.0
 11
-4.321012934246255
 21
50.87616770531635
 31
0.0
  0
LINE
  5
335
330
2
100
AcDbEntity
  8
GAIKEI
  6
Continuous
 62
     7
100
AcDbLine
 10
-4.321012934246255
 20
50.98284384944436
 30
0.0
 11
-4.321012934246255
 21
50.87616770531635
 31
0.0
  0
LINE
  5
336
330
2
100
AcDbEntity
  8
GAIKEI
  6
Continuous
 62
     7
100
AcDbLine
 10
-15.98871619824626
 20
50.98284384944436
 30
0.0
 11
-15.98871619824626
 21
50.87616770531635
 31
0.0
  0
LINE
  5
337
330
2
100
AcDbEntity
  8
GAIKEI
  6
Continuous
 62
     7
100
AcDbLine
 10
-15.98871619824626
 20
50.98284384944436
 30
0.0
 11
-4.321012934246255
 21
50.98284384944436
 31
0.0
  0
TEXT
  5
338
330
2
100
AcDbEntity
  8
MOJI1
100
AcDbText
 10
-59.38363353951706
 20
-32.11239606170774
 30
0.0
 40
3.0
  1
階調数
100
AcDbText
  0
TEXT
  5
33A
330
2
100
AcDbEntity
  8
MOJI1
100
AcDbText
 10
-59.38363353951706
 20
-27.11239606170774
 30
0.0
 40
3.0
  1
コントラスト
100
AcDbText
  0
LINE
  5
33B
330
2
100
AcDbEntity
  8
WAKU
 62
     1
100
AcDbLine
 10
-61.88363353951706
 20
-33.11239606170774
 30
0.0
 11
63.1163664604827
 21
-33.11239606170774
 31
0.0
  0
LINE
  5
33D
330
2
100
AcDbEntity
  8
WAKU
 62
     1
100
AcDbLine
 10
-61.88363353951706
 20
-28.11239606170774
 30
0.0
 11
63.1163664604827
 21
-28.11239606170774
 31
0.0
  0
TEXT
  5
33E
330
2
100
AcDbEntity
  8
MOJI1
100
AcDbText
 10
-59.38363353951706
 20
-7.112396061707741
 30
0.0
 40
3.0
  1
電  源
100
AcDbText
  0
TEXT
  5
33F
330
2
100
AcDbEntity
  8
MOJI1
100
AcDbText
 10
-59.38363353951706
 20
-12.11239606170774
 30
0.0
 40
3.0
  1
消費電力
100
AcDbText
  0
TEXT
  5
340
330
2
100
AcDbEntity
  8
MOJI1
100
AcDbText
 10
-59.38363353951706
 20
-17.11239606170774
 30
0.0
 40
3.0
  1
画面サイズ
100
AcDbText
  0
TEXT
  5
341
330
2
100
AcDbEntity
  8
MOJI1
100
AcDbText
 10
-20.38363353951706
 20
-12.11239606170774
 30
0.0
 40
3.0
  1
５９０Ｗ
100
AcDbText
  0
TEXT
  5
342
330
2
100
AcDbEntity
  8
MOJI1
100
AcDbText
 10
-20.38363353951706
 20
-17.11239606170774
 30
0.0
 40
3.0
  1
５０Ｖ型（１６：９）
100
AcDbText
  0
TEXT
  5
343
330
2
100
AcDbEntity
  8
MOJI1
100
AcDbText
 10
-20.38363353951706
 20
-7.112396061707741
 30
0.0
 40
3.0
  1
ＡＣ１００Ｖ±１０％　５０Ｈｚ／６０Ｈｚ
100
AcDbText
  0
TEXT
  5
344
330
2
100
AcDbEntity
  8
MOJI1
100
AcDbText
 10
-59.38363353951706
 20
-42.11239606170773
 30
0.0
 40
3.0
  1
接続端子
100
AcDbText
  0
TEXT
  5
345
330
2
100
AcDbEntity
  8
MOJI1
100
AcDbText
 10
-59.38363353951706
 20
-37.11239606170774
 30
0.0
 40
3.0
  1
音声最大出力
100
AcDbText
  0
TEXT
  5
346
330
2
100
AcDbEntity
  8
MOJI1
100
AcDbText
 10
-20.38363353951706
 20
-37.11239606170774
 30
0.0
 40
3.0
  1
１６Ｗ（８Ｗ＋８Ｗ）
100
AcDbText
  0
TEXT
  5
347
330
2
100
AcDbEntity
  8
MOJI1
100
AcDbText
 10
-20.38363353951706
 20
-42.11239606170773
 30
0.0
 40
3.0
  1
ＤＶＩ－Ｄ／コンポーネントビデオ／ＰＣ
100
AcDbText
  0
TEXT
  5
348
330
2
100
AcDbEntity
  8
MOJI1
100
AcDbText
 10
-20.38363353951706
 20
-22.11239606170774
 30
0.0
 40
3.0
  1
水平１９２０×垂直１０８０　画素
100
AcDbText
  0
LINE
  5
349
330
2
100
AcDbEntity
  8
WAKU
 62
     4
100
AcDbLine
 10
-21.88363353951729
 20
-3.112396061707741
 30
0.0
 11
-21.88363353951729
 21
-48.11239606170774
 31
0.0
  0
TEXT
  5
34A
330
2
100
AcDbEntity
  8
MOJI1
100
AcDbText
 10
-59.38363353951706
 20
-22.11239606170774
 30
0.0
 40
3.0
  1
画素数
100
AcDbText
  0
LINE
  5
34B
330
2
100
AcDbEntity
  8
WAKU
 62
     4
100
AcDbLine
 10
63.1163664604827
 20
-3.112396061707741
 30
0.0
 11
63.1163664604827
 21
-48.11239606170774
 31
0.0
  0
LINE
  5
34C
330
2
100
AcDbEntity
  8
WAKU
 62
     4
100
AcDbLine
 10
-61.88363353951729
 20
-3.112396061707741
 30
0.0
 11
-61.88363353951706
 21
-48.11239606170774
 31
0.0
  0
LINE
  5
34D
330
2
100
AcDbEntity
  8
WAKU
 62
     4
100
AcDbLine
 10
63.1163664604827
 20
-48.11239606170774
 30
0.0
 11
-61.88363353951706
 21
-48.11239606170774
 31
0.0
  0
LINE
  5
34E
330
2
100
AcDbEntity
  8
WAKU
 62
     1
100
AcDbLine
 10
-61.88363353951706
 20
-43.11239606170774
 30
0.0
 11
63.1163664604827
 21
-43.11239606170774
 31
0.0
  0
LINE
  5
34F
330
2
100
AcDbEntity
  8
WAKU
 62
     1
100
AcDbLine
 10
-61.88363353951706
 20
-38.11239606170774
 30
0.0
 11
63.1163664604827
 21
-38.11239606170774
 31
0.0
  0
LINE
  5
350
330
2
100
AcDbEntity
  8
WAKU
 62
     1
100
AcDbLine
 10
-61.88363353951706
 20
-18.11239606170774
 30
0.0
 11
63.1163664604827
 21
-18.11239606170774
 31
0.0
  0
LINE
  5
351
330
2
100
AcDbEntity
  8
WAKU
 62
     1
100
AcDbLine
 10
-61.88363353951706
 20
-8.112396061707741
 30
0.0
 11
63.1163664604827
 21
-8.112396061707741
 31
0.0
  0
LINE
  5
352
330
2
100
AcDbEntity
  8
WAKU
 62
     4
100
AcDbLine
 10
-61.88363353951706
 20
-3.112396061707741
 30
0.0
 11
63.1163664604827
 21
-3.112396061707741
 31
0.0
  0
LINE
  5
353
330
2
100
AcDbEntity
  8
WAKU
 62
     1
100
AcDbLine
 10
-61.88363353951706
 20
-23.11239606170774
 30
0.0
 11
63.1163664604827
 21
-23.11239606170774
 31
0.0
  0
LINE
  5
354
330
2
100
AcDbEntity
  8
WAKU
 62
     1
100
AcDbLine
 10
-61.88363353951706
 20
-13.11239606170774
 30
0.0
 11
63.1163664604827
 21
-13.11239606170774
 31
0.0
  0
TEXT
  5
355
330
2
100
AcDbEntity
  8
MOJI1
100
AcDbText
 10
-20.38363353951706
 20
-32.11239606170774
 30
0.0
 40
3.0
  1
５１２０階調（相当）
100
AcDbText
  0
TEXT
  5
356
330
2
100
AcDbEntity
  8
MOJI1
100
AcDbText
 10
-20.38363353951706
 20
-27.11239606170774
 30
0.0
 40
3.0
  1
３００００：１
100
AcDbText
  0
TEXT
  5
357
330
2
100
AcDbEntity
  8
MOJI1
100
AcDbText
 10
-20.38363353951706
 20
-47.11239606170773
 30
0.0
 40
3.0
  1
外部スピーカ／シリアル
100
AcDbText
  0
TEXT
  5
358
330
2
100
AcDbEntity
  8
MOJI1
100
AcDbText
 10
-34.88363353951752
 20
60.88760393829222
 30
0.0
 40
4.0
  1
ハイビジョンプラズマディスプレイ天吊り金具付
 41
0.9200000000000001
  7
KANJI
100
AcDbText
  0
TEXT
  5
35A
330
2
100
AcDbEntity
  8
TOUROKU
100
AcDbText
 10
15.91631649341024
 20
54.8876039382921
 30
0.0
 40
2.0
  1
ＴＨ５０ＰＦ１１ＫＲ＋ＴＹＣＥ４２ＰＳ７
 72
     2
 11
63.11631649341023
 21
54.8876039382921
 31
0.0
100
AcDbText
  0
ENDSEC
  0
SECTION
  2
OBJECTS
  0
DICTIONARY
  5
7
330
0
100
AcDbDictionary
281
     1
  3
ACAD_COLOR
350
2C
  3
ACAD_GROUP
350
28
  3
ACAD_LAYOUT
350
B
  3
ACAD_MATERIAL
350
2B
  3
ACAD_MLINESTYLE
350
29
  3
ACAD_PLOTSETTINGS
350
2A
  3
ACAD_PLOTSTYLENAME
350
6
  3
ACDBHEADERROUNDTRIPXREC
350
3A3
  3
AcDbVariableDictionary
350
39E
  0
DICTIONARY
  5
11
330
10
100
AcDbDictionary
280
     1
281
     1
  3
ACAD_LAYERSTATES
360
12
  0
DICTIONARY
  5
2C
102
{ACAD_REACTORS
330
7
102
}
330
7
100
AcDbDictionary
281
     1
  0
DICTIONARY
  5
28
102
{ACAD_REACTORS
330
7
102
}
330
7
100
AcDbDictionary
281
     1
  0
DICTIONARY
  5
B
102
{ACAD_REACTORS
330
7
102
}
330
7
100
AcDbDictionary
281
     1
  3
Model
350
A
  3
レイアウト1
350
F
  0
DICTIONARY
  5
2B
102
{ACAD_REACTORS
330
7
102
}
330
7
100
AcDbDictionary
281
     1
  0
DICTIONARY
  5
29
102
{ACAD_REACTORS
330
7
102
}
330
7
100
AcDbDictionary
281
     1
  3
Standard
350
2E
  0
DICTIONARY
  5
2A
102
{ACAD_REACTORS
330
7
102
}
330
7
100
AcDbDictionary
281
     1
  0
ACDBDICTIONARYWDFLT
  5
6
102
{ACAD_REACTORS
330
7
102
}
330
7
100
AcDbDictionary
281
     1
  3
Normal
350
5
100
AcDbDictionaryWithDefault
340
5
  0
DICTIONARY
  5
3A3
102
{ACAD_REACTORS
330
7
102
}
330
7
100
AcDbDictionary
281
     1
  3
COLORDICT
350
3A5
  3
MATERIALDICT
350
3A4
  0
DICTIONARY
  5
39E
102
{ACAD_REACTORS
330
7
102
}
330
7
100
AcDbDictionary
281
     1
  3
DIMASSOC
350
3A0
  3
HIDETEXT
350
39F
  3
PROJECTNAME
350
3A1
  0
DICTIONARY
  5
12
102
{ACAD_REACTORS
330
11
102
}
330
11
100
AcDbDictionary
281
     1
  0
LAYOUT
  5
A
102
{ACAD_XDICTIONARY
360
3A6
102
}
102
{ACAD_REACTORS
330
B
102
}
330
B
100
AcDbPlotSettings
  1

  2
Ａ４－縦3FRIM01.pc3
  4
A4
  6

 40
5.873749732971191
 41
5.873747825622558
 42
5.873748779296875
 43
5.873748779296875
 44
209.9733276367187
 45
296.9259948730469
 46
5.419999999999999
 47
0.0
 48
6.882095232559095
 49
141.0756786076379
140
239.450961859417
141
347.3703312460464
142
1.0
143
1.382352038090321
 70
 11956
 72
     1
 73
     0
 74
     1
  7
tmsacad.ctb
 75
     0
147
0.7234047279168268
148
0.009347667835641
149
0.0009286512015478
100
AcDbLayout
  1
Model
 70
     1
 71
     0
 10
0.0
 20
0.0
 11
12.0
 21
9.0
 12
0.0
 22
0.0
 32
0.0
 14
0.0
 24
0.0
 34
0.0
 15
0.0
 25
0.0
 35
0.0
146
0.0
 13
0.0
 23
0.0
 33
0.0
 16
1.0
 26
0.0
 36
0.0
 17
0.0
 27
1.0
 37
0.0
 76
     0
330
2
  0
LAYOUT
  5
F
102
{ACAD_XDICTIONARY
360
3A8
102
}
102
{ACAD_REACTORS
330
B
102
}
330
B
100
AcDbPlotSettings
  1

  2
None
  4

  6

 40
0.0
 41
0.0
 42
0.0
 43
0.0
 44
0.0
 45
0.0
 46
0.0
 47
0.0
 48
0.0
 49
0.0
140
0.0
141
0.0
142
1.0
143
1.0
 70
   688
 72
     0
 73
     0
 74
     5
  7
tmsacad.ctb
 75
    16
147
1.0
148
0.0
149
0.0
100
AcDbLayout
  1
レイアウト1
 70
     1
 71
     1
 10
0.0
 20
0.0
 11
12.0
 21
9.0
 12
0.0
 22
0.0
 32
0.0
 14
0.0
 24
0.0
 34
0.0
 15
0.0
 25
0.0
 35
0.0
146
0.0
 13
0.0
 23
0.0
 33
0.0
 16
1.0
 26
0.0
 36
0.0
 17
0.0
 27
1.0
 37
0.0
 76
     0
330
C
  0
MLINESTYLE
  5
2E
102
{ACAD_REACTORS
330
29
102
}
330
29
100
AcDbMlineStyle
  2
STANDARD
 70
     0
  3

 62
   256
 51
90.0
 52
90.0
 71
     2
 49
0.5
 62
   256
  6
BYLAYER
 49
-0.5
 62
   256
  6
BYLAYER
  0
ACDBPLACEHOLDER
  5
5
102
{ACAD_REACTORS
330
6
102
}
330
6
  0
XRECORD
  5
3A5
102
{ACAD_REACTORS
330
3A3
102
}
330
3A3
100
AcDbXrecord
280
     1
340
2C
  0
XRECORD
  5
3A4
102
{ACAD_REACTORS
330
3A3
102
}
330
3A3
100
AcDbXrecord
280
     1
340
2B
  0
DICTIONARYVAR
  5
3A0
102
{ACAD_REACTORS
330
39E
102
}
330
39E
100
DictionaryVariables
280
     0
  1
1
  0
DICTIONARYVAR
  5
39F
102
{ACAD_REACTORS
330
39E
102
}
330
39E
100
DictionaryVariables
280
     0
  1
1
  0
DICTIONARYVAR
  5
3A1
102
{ACAD_REACTORS
330
39E
102
}
330
39E
100
DictionaryVariables
280
     0
  1

  0
DICTIONARY
  5
3A6
330
A
100
AcDbDictionary
280
     1
281
     1
  3
ACAD_XREC_ROUNDTRIP
360
3A7
  0
DICTIONARY
  5
3A8
330
F
100
AcDbDictionary
280
     1
281
     1
  3
ACAD_XREC_ROUNDTRIP
360
3A9
  0
XRECORD
  5
3A7
102
{ACAD_REACTORS
330
3A6
102
}
330
3A6
100
AcDbXrecord
280
     1
102
SHADEPLOT
 70
     0
102
SHADEPLOTRESLEVEL
 70
     2
102
SHADEPLOTCUSTOMDPI
 70
   300
  0
XRECORD
  5
3A9
102
{ACAD_REACTORS
330
3A8
102
}
330
3A8
100
AcDbXrecord
280
     1
102
SHADEPLOT
 70
     0
102
SHADEPLOTRESLEVEL
 70
     2
102
SHADEPLOTCUSTOMDPI
 70
   300
  0
ENDSEC
  0
EOF
