  0
SECTION
  2
HEADER
  9
$ACADVER
  1
AC1015
  9
$ACADMAINTVER
 70
    20
  9
$DWGCODEPAGE
  3
ANSI_932
  9
$INSBASE
 10
0.4999999440410648
 20
246.5008351249344
 30
0.0
  9
$EXTMIN
 10
-64.00360017084006
 20
-50.58462461152192
 30
-0.0015258207003583
  9
$EXTMAX
 10
61.02996882171135
 20
62.43997234227129
 30
0.0000000349246037
  9
$LIMMIN
 10
0.0
 20
0.0
  9
$LIMMAX
 10
420.0
 20
297.0
  9
$ORTHOMODE
 70
     0
  9
$REGENMODE
 70
     0
  9
$FILLMODE
 70
     1
  9
$QTEXTMODE
 70
     0
  9
$MIRRTEXT
 70
     0
  9
$LTSCALE
 40
1.0
  9
$ATTMODE
 70
     1
  9
$TEXTSIZE
 40
2.5
  9
$TRACEWID
 40
1.0
  9
$TEXTSTYLE
  7
Standard
  9
$CLAYER
  8
SUNPO
  9
$CELTYPE
  6
ByLayer
  9
$CECOLOR
 62
   256
  9
$CELTSCALE
 40
1.0
  9
$DISPSILH
 70
     0
  9
$DIMSCALE
 40
1.0
  9
$DIMASZ
 40
2.0
  9
$DIMEXO
 40
2.0
  9
$DIMDLI
 40
8.0
  9
$DIMRND
 40
0.0
  9
$DIMDLE
 40
0.0
  9
$DIMEXE
 40
2.0
  9
$DIMTP
 40
0.0
  9
$DIMTM
 40
0.0
  9
$DIMTXT
 40
2.5
  9
$DIMCEN
 40
0.0
  9
$DIMTSZ
 40
0.0
  9
$DIMTOL
 70
     0
  9
$DIMLIM
 70
     0
  9
$DIMTIH
 70
     0
  9
$DIMTOH
 70
     0
  9
$DIMSE1
 70
     0
  9
$DIMSE2
 70
     0
  9
$DIMTAD
 70
     3
  9
$DIMZIN
 70
     0
  9
$DIMBLK
  1

  9
$DIMASO
 70
     1
  9
$DIMSHO
 70
     1
  9
$DIMPOST
  1

  9
$DIMAPOST
  1

  9
$DIMALT
 70
     0
  9
$DIMALTD
 70
     2
  9
$DIMALTF
 40
25.4
  9
$DIMLFAC
 40
1.0
  9
$DIMTOFL
 70
     1
  9
$DIMTVP
 40
0.0
  9
$DIMTIX
 70
     0
  9
$DIMSOXD
 70
     0
  9
$DIMSAH
 70
     1
  9
$DIMBLK1
  1
OPEN30
  9
$DIMBLK2
  1
OPEN30
  9
$DIMSTYLE
  2
STANDARD
  9
$DIMCLRD
 70
     0
  9
$DIMCLRE
 70
     0
  9
$DIMCLRT
 70
     0
  9
$DIMTFAC
 40
1.0
  9
$DIMGAP
 40
0.5
  9
$DIMJUST
 70
     0
  9
$DIMSD1
 70
     0
  9
$DIMSD2
 70
     0
  9
$DIMTOLJ
 70
     1
  9
$DIMTZIN
 70
     0
  9
$DIMALTZ
 70
     0
  9
$DIMALTTZ
 70
     0
  9
$DIMUPT
 70
     0
  9
$DIMDEC
 70
     4
  9
$DIMTDEC
 70
     4
  9
$DIMALTU
 70
     2
  9
$DIMALTTD
 70
     2
  9
$DIMTXSTY
  7
Standard
  9
$DIMAUNIT
 70
     0
  9
$DIMADEC
 70
     0
  9
$DIMALTRND
 40
0.0
  9
$DIMAZIN
 70
     0
  9
$DIMDSEP
 70
    46
  9
$DIMATFIT
 70
     3
  9
$DIMFRAC
 70
     0
  9
$DIMLDRBLK
  1
OPEN30
  9
$DIMLUNIT
 70
     2
  9
$DIMLWD
 70
    -2
  9
$DIMLWE
 70
    -2
  9
$DIMTMOVE
 70
     0
  9
$LUNITS
 70
     2
  9
$LUPREC
 70
     4
  9
$SKETCHINC
 40
1.0
  9
$FILLETRAD
 40
0.0
  9
$AUNITS
 70
     0
  9
$AUPREC
 70
     0
  9
$MENU
  1
.
  9
$ELEVATION
 40
0.0
  9
$PELEVATION
 40
0.0
  9
$THICKNESS
 40
0.0
  9
$LIMCHECK
 70
     0
  9
$CHAMFERA
 40
0.0
  9
$CHAMFERB
 40
0.0
  9
$CHAMFERC
 40
0.0
  9
$CHAMFERD
 40
0.0
  9
$SKPOLY
 70
     0
  9
$TDCREATE
 40
2454349.434269746
  9
$TDUCREATE
 40
2454349.059269746
  9
$TDUPDATE
 40
2454803.580614699
  9
$TDUUPDATE
 40
2454803.205614699
  9
$TDINDWG
 40
1.2766545023
  9
$TDUSRTIMER
 40
1.2766545023
  9
$USRTIMER
 70
     1
  9
$ANGBASE
 50
0.0
  9
$ANGDIR
 70
     0
  9
$PDMODE
 70
     0
  9
$PDSIZE
 40
0.0
  9
$PLINEWID
 40
0.0
  9
$SPLFRAME
 70
     0
  9
$SPLINETYPE
 70
     6
  9
$SPLINESEGS
 70
     8
  9
$HANDSEED
  5
236
  9
$SURFTAB1
 70
     6
  9
$SURFTAB2
 70
     6
  9
$SURFTYPE
 70
     6
  9
$SURFU
 70
     6
  9
$SURFV
 70
     6
  9
$UCSBASE
  2

  9
$UCSNAME
  2

  9
$UCSORG
 10
0.0
 20
0.0
 30
0.0
  9
$UCSXDIR
 10
1.0
 20
0.0
 30
0.0
  9
$UCSYDIR
 10
0.0
 20
1.0
 30
0.0
  9
$UCSORTHOREF
  2

  9
$UCSORTHOVIEW
 70
     0
  9
$UCSORGTOP
 10
0.0
 20
0.0
 30
0.0
  9
$UCSORGBOTTOM
 10
0.0
 20
0.0
 30
0.0
  9
$UCSORGLEFT
 10
0.0
 20
0.0
 30
0.0
  9
$UCSORGRIGHT
 10
0.0
 20
0.0
 30
0.0
  9
$UCSORGFRONT
 10
0.0
 20
0.0
 30
0.0
  9
$UCSORGBACK
 10
0.0
 20
0.0
 30
0.0
  9
$PUCSBASE
  2

  9
$PUCSNAME
  2

  9
$PUCSORG
 10
0.0
 20
0.0
 30
0.0
  9
$PUCSXDIR
 10
1.0
 20
0.0
 30
0.0
  9
$PUCSYDIR
 10
0.0
 20
1.0
 30
0.0
  9
$PUCSORTHOREF
  2

  9
$PUCSORTHOVIEW
 70
     0
  9
$PUCSORGTOP
 10
0.0
 20
0.0
 30
0.0
  9
$PUCSORGBOTTOM
 10
0.0
 20
0.0
 30
0.0
  9
$PUCSORGLEFT
 10
0.0
 20
0.0
 30
0.0
  9
$PUCSORGRIGHT
 10
0.0
 20
0.0
 30
0.0
  9
$PUCSORGFRONT
 10
0.0
 20
0.0
 30
0.0
  9
$PUCSORGBACK
 10
0.0
 20
0.0
 30
0.0
  9
$USERI1
 70
     0
  9
$USERI2
 70
     0
  9
$USERI3
 70
     0
  9
$USERI4
 70
     0
  9
$USERI5
 70
     0
  9
$USERR1
 40
0.0
  9
$USERR2
 40
0.0
  9
$USERR3
 40
0.0
  9
$USERR4
 40
0.0
  9
$USERR5
 40
0.0
  9
$WORLDVIEW
 70
     1
  9
$SHADEDGE
 70
     3
  9
$SHADEDIF
 70
    70
  9
$TILEMODE
 70
     1
  9
$MAXACTVP
 70
    64
  9
$PINSBASE
 10
0.0
 20
0.0
 30
0.0
  9
$PLIMCHECK
 70
     0
  9
$PEXTMIN
 10
0.0
 20
0.0
 30
0.0
  9
$PEXTMAX
 10
0.0
 20
0.0
 30
0.0
  9
$PLIMMIN
 10
0.0
 20
0.0
  9
$PLIMMAX
 10
12.0
 20
9.0
  9
$UNITMODE
 70
     0
  9
$VISRETAIN
 70
     1
  9
$PLINEGEN
 70
     0
  9
$PSLTSCALE
 70
     1
  9
$TREEDEPTH
 70
  3020
  9
$CMLSTYLE
  2
Standard
  9
$CMLJUST
 70
     0
  9
$CMLSCALE
 40
20.0
  9
$PROXYGRAPHICS
 70
     1
  9
$MEASUREMENT
 70
     1
  9
$CELWEIGHT
370
    -1
  9
$ENDCAPS
280
     0
  9
$JOINSTYLE
280
     0
  9
$LWDISPLAY
290
     0
  9
$INSUNITS
 70
     4
  9
$HYPERLINKBASE
  1

  9
$STYLESHEET
  1

  9
$XEDIT
290
     1
  9
$CEPSNTYPE
380
     0
  9
$PSTYLEMODE
290
     1
  9
$FINGERPRINTGUID
  2
{FDEAD578-A652-11D2-9A35-0060089B3A3F}
  9
$VERSIONGUID
  2
{6AB2BAFF-9C09-4AD8-BD6D-4CB99CD1A023}
  9
$EXTNAMES
290
     1
  9
$PSVPSCALE
 40
0.0
  9
$OLESTARTUP
290
     0
  0
ENDSEC
  0
SECTION
  2
CLASSES
  0
CLASS
  1
ACDBDICTIONARYWDFLT
  2
AcDbDictionaryWithDefault
  3
ObjectDBX Classes
 90
        0
280
     0
281
     0
  0
CLASS
  1
ACDBPLACEHOLDER
  2
AcDbPlaceHolder
  3
ObjectDBX Classes
 90
        0
280
     0
281
     0
  0
CLASS
  1
LAYOUT
  2
AcDbLayout
  3
ObjectDBX Classes
 90
        0
280
     0
281
     0
  0
CLASS
  1
DICTIONARYVAR
  2
AcDbDictionaryVar
  3
ObjectDBX Classes
 90
        0
280
     0
281
     0
  0
CLASS
  1
DIMASSOC
  2
AcDbDimAssoc
  3
"AcDbDimAssoc|Product Desc:     AcDim ARX App For Dimension|Company:          Autodesk, Inc.|WEB Address:      www.autodesk.com"
 90
    32768
280
     0
281
     0
  0
CLASS
  1
SORTENTSTABLE
  2
AcDbSortentsTable
  3
ObjectDBX Classes
 90
    32768
280
     0
281
     0
  0
ENDSEC
  0
SECTION
  2
TABLES
  0
TABLE
  2
VPORT
  5
1B
330
0
100
AcDbSymbolTable
 70
     3
  0
VPORT
  5
22E
330
1B
100
AcDbSymbolTableRecord
100
AcDbViewportTableRecord
  2
*Active
 70
     0
 10
0.0
 20
0.0
 11
1.0
 21
1.0
 12
-1.486815674564358
 22
5.927673865374686
 13
0.0
 23
0.0
 14
10.0
 24
10.0
 15
10.0
 25
10.0
 16
0.0
 26
0.0
 36
1.0
 17
0.0
 27
0.0
 37
0.0
 40
113.8973737642472
 41
1.387886597938144
 42
50.0
 43
0.0
 44
0.0
 50
0.0
 51
0.0
 71
     0
 72
  1000
 73
     1
 74
     2
 75
     0
 76
     0
 77
     0
 78
     0
281
     0
 65
     1
110
0.0
120
0.0
130
0.0
111
1.0
121
0.0
131
0.0
112
0.0
122
1.0
132
0.0
 79
     0
146
0.0
  0
ENDTAB
  0
TABLE
  2
LTYPE
  5
16
330
0
100
AcDbSymbolTable
 70
     1
  0
LTYPE
  5
17
330
16
100
AcDbSymbolTableRecord
100
AcDbLinetypeTableRecord
  2
ByBlock
 70
     0
  3

 72
    65
 73
     0
 40
0.0
  0
LTYPE
  5
18
330
16
100
AcDbSymbolTableRecord
100
AcDbLinetypeTableRecord
  2
ByLayer
 70
     0
  3

 72
    65
 73
     0
 40
0.0
  0
LTYPE
  5
8
330
16
100
AcDbSymbolTableRecord
100
AcDbLinetypeTableRecord
  2
Continuous
 70
     0
  3
Solid line
 72
    65
 73
     0
 40
0.0
  0
ENDTAB
  0
TABLE
  2
LAYER
  5
10
102
{ACAD_XDICTIONARY
360
11
102
}
330
0
100
AcDbSymbolTable
 70
     7
  0
LAYER
  5
4
330
10
100
AcDbSymbolTableRecord
100
AcDbLayerTableRecord
  2
0
 70
     0
 62
     7
  6
Continuous
370
    -3
390
5
  0
LAYER
  5
1C7
330
10
100
AcDbSymbolTableRecord
100
AcDbLayerTableRecord
  2
WAKU
 70
     0
 62
     4
  6
Continuous
370
    -3
390
5
  0
LAYER
  5
1C4
330
10
100
AcDbSymbolTableRecord
100
AcDbLayerTableRecord
  2
MOJI1
 70
     0
 62
     2
  6
Continuous
370
    -3
390
5
  0
LAYER
  5
30
330
10
100
AcDbSymbolTableRecord
100
AcDbLayerTableRecord
  2
TOUROKU
 70
     0
 62
     1
  6
Continuous
370
    -3
390
5
  0
LAYER
  5
69
330
10
100
AcDbSymbolTableRecord
100
AcDbLayerTableRecord
  2
GAIKEI
 70
     0
 62
     7
  6
Continuous
370
    -3
390
5
  0
LAYER
  5
2D
330
10
100
AcDbSymbolTableRecord
100
AcDbLayerTableRecord
  2
SUNPO
 70
     0
 62
     3
  6
Continuous
370
    -3
390
5
  0
LAYER
  5
3B
330
10
100
AcDbSymbolTableRecord
100
AcDbLayerTableRecord
  2
Defpoints
 70
     0
 62
     7
  6
Continuous
290
     0
370
    -3
390
5
  0
ENDTAB
  0
TABLE
  2
STYLE
  5
13
330
0
100
AcDbSymbolTable
 70
     1
  0
STYLE
  5
14
330
13
100
AcDbSymbolTableRecord
100
AcDbTextStyleTableRecord
  2
Standard
 70
     0
 40
0.0
 41
1.0
 50
0.0
 71
     0
 42
2.5
  3
MONOTXT.shx
  4
BIGFONT.shx
  0
ENDTAB
  0
TABLE
  2
VIEW
  5
19
330
0
100
AcDbSymbolTable
 70
     0
  0
ENDTAB
  0
TABLE
  2
UCS
  5
1A
330
0
100
AcDbSymbolTable
 70
     0
  0
ENDTAB
  0
TABLE
  2
APPID
  5
1D
330
0
100
AcDbSymbolTable
 70
     1
  0
APPID
  5
1E
330
1D
100
AcDbSymbolTableRecord
100
AcDbRegAppTableRecord
  2
ACAD
 70
     0
  0
ENDTAB
  0
TABLE
  2
DIMSTYLE
  5
1F
330
0
100
AcDbSymbolTable
 70
     1
100
AcDbDimStyleTable
 71
     1
340
20
  0
DIMSTYLE
105
20
102
{ACAD_REACTORS
330
5B
330
4E
330
3F
330
31
102
}
330
1F
100
AcDbSymbolTableRecord
100
AcDbDimStyleTableRecord
  2
STANDARD
 70
     0
 40
0.0
 41
2.0
 42
2.0
 43
8.0
 44
2.0
 73
     0
 74
     0
 77
     3
140
3.0
141
0.0
173
     1
279
     2
288
     1
340
14
341
21
343
21
344
21
  0
ENDTAB
  0
TABLE
  2
BLOCK_RECORD
  5
1
330
0
100
AcDbSymbolTable
 70
     9
  0
BLOCK_RECORD
  5
2
330
1
100
AcDbSymbolTableRecord
100
AcDbBlockTableRecord
  2
*Model_Space
340
A
  0
BLOCK_RECORD
  5
C
330
1
100
AcDbSymbolTableRecord
100
AcDbBlockTableRecord
  2
*Paper_Space
340
F
  0
BLOCK_RECORD
  5
21
330
1
100
AcDbSymbolTableRecord
100
AcDbBlockTableRecord
  2
_OPEN30
340
0
102
{BLKREFS
331
37
331
38
331
54
331
55
331
61
331
62
331
47
331
48
331
1FC
331
1FD
331
208
331
209
331
216
331
217
331
222
331
223
102
}
  0
BLOCK_RECORD
  5
5C
330
1
100
AcDbSymbolTableRecord
100
AcDbBlockTableRecord
  2
*D1
340
0
  0
BLOCK_RECORD
  5
4F
330
1
100
AcDbSymbolTableRecord
100
AcDbBlockTableRecord
  2
*D2
340
0
  0
BLOCK_RECORD
  5
40
330
1
100
AcDbSymbolTableRecord
100
AcDbBlockTableRecord
  2
*D3
340
0
  0
BLOCK_RECORD
  5
32
330
1
100
AcDbSymbolTableRecord
100
AcDbBlockTableRecord
  2
*D4
340
0
  0
BLOCK_RECORD
  5
1F8
330
1
100
AcDbSymbolTableRecord
100
AcDbBlockTableRecord
  2
*D5
340
0
  0
BLOCK_RECORD
  5
204
330
1
100
AcDbSymbolTableRecord
100
AcDbBlockTableRecord
  2
*D6
340
0
  0
BLOCK_RECORD
  5
210
330
1
100
AcDbSymbolTableRecord
100
AcDbBlockTableRecord
  2
*D7
340
0
  0
BLOCK_RECORD
  5
21E
330
1
100
AcDbSymbolTableRecord
100
AcDbBlockTableRecord
  2
*D8
340
0
  0
ENDTAB
  0
ENDSEC
  0
SECTION
  2
BLOCKS
  0
BLOCK
  5
3
330
2
100
AcDbEntity
  8
0
100
AcDbBlockBegin
  2
*Model_Space
 70
     0
 10
0.0
 20
0.0
 30
0.0
  3
*Model_Space
  1

  0
ENDBLK
  5
9
330
2
100
AcDbEntity
  8
0
100
AcDbBlockEnd
  0
BLOCK
  5
D
330
C
100
AcDbEntity
 67
     1
  8
0
100
AcDbBlockBegin
  2
*Paper_Space
 70
     0
 10
0.0
 20
0.0
 30
0.0
  3
*Paper_Space
  1

  0
ENDBLK
  5
E
330
C
100
AcDbEntity
 67
     1
  8
0
100
AcDbBlockEnd
  0
BLOCK
  5
22
330
21
100
AcDbEntity
  8
0
100
AcDbBlockBegin
  2
_OPEN30
 70
     0
 10
0.0
 20
0.0
 30
0.0
  3
_OPEN30
  1

  0
LINE
  5
23
330
21
100
AcDbEntity
  8
0
  6
ByBlock
 62
     0
100
AcDbLine
 10
-1.0
 20
0.26794919
 30
0.0
 11
0.0
 21
0.0
 31
0.0
  0
LINE
  5
24
330
21
100
AcDbEntity
  8
0
  6
ByBlock
 62
     0
100
AcDbLine
 10
0.0
 20
0.0
 30
0.0
 11
-1.0
 21
-0.26794919
 31
0.0
  0
LINE
  5
25
330
21
100
AcDbEntity
  8
0
  6
ByBlock
 62
     0
100
AcDbLine
 10
0.0
 20
0.0
 30
0.0
 11
-1.0
 21
0.0
 31
0.0
  0
ENDBLK
  5
26
330
21
100
AcDbEntity
  8
0
100
AcDbBlockEnd
  0
BLOCK
  5
5D
330
5C
100
AcDbEntity
  8
0
100
AcDbBlockBegin
  2
*D1
 70
     1
 10
0.0
 20
0.0
 30
0.0
  3
*D1
  1

  0
LINE
  5
5E
330
5C
100
AcDbEntity
  8
SUNPO
 62
     0
370
    -2
100
AcDbLine
 10
31.99846214659721
 20
215.6436645924327
 30
0.0
 11
31.99846214659721
 21
223.6436645924327
 31
0.0
  0
LINE
  5
5F
330
5C
100
AcDbEntity
  8
SUNPO
 62
     0
370
    -2
100
AcDbLine
 10
72.33179327086071
 20
215.6436645924327
 30
0.0
 11
72.33179327086071
 21
223.6436645924327
 31
0.0
  0
LINE
  5
60
330
5C
100
AcDbEntity
  8
SUNPO
 62
     0
370
    -2
100
AcDbLine
 10
33.99846214659721
 20
221.6436645924327
 30
0.0
 11
70.33179327086071
 21
221.6436645924327
 31
0.0
  0
INSERT
  5
61
330
5C
100
AcDbEntity
  8
SUNPO
 62
     0
370
    -2
100
AcDbBlockReference
  2
_OPEN30
 10
31.99846214659721
 20
221.6436645924327
 30
0.0
 41
2.0
 42
2.0
 43
2.0
 50
180.0
  0
INSERT
  5
62
330
5C
100
AcDbEntity
  8
SUNPO
 62
     0
370
    -2
100
AcDbBlockReference
  2
_OPEN30
 10
72.33179327086071
 20
221.6436645924327
 30
0.0
 41
2.0
 42
2.0
 43
2.0
  0
MTEXT
  5
63
330
5C
100
AcDbEntity
  8
SUNPO
 62
     0
100
AcDbMText
 10
52.16512770872895
 20
223.3936645924327
 30
0.0
 40
2.5
 41
0.0
 71
     5
 72
     1
  1
\A1;1210
 73
     1
 44
1.0
1001
ACAD
1000
MTEXTBEGIN
1070
    73
1070
     1
1070
    44
1040
1.0
1070
    74
1070
     0
1000
MTEXTEND
  0
POINT
  5
64
330
5C
100
AcDbEntity
  8
Defpoints
 62
     0
100
AcDbPoint
 10
31.99846214659721
 20
213.6436645924327
 30
0.0
  0
POINT
  5
65
330
5C
100
AcDbEntity
  8
Defpoints
 62
     0
100
AcDbPoint
 10
72.33179327086071
 20
213.6436645924327
 30
0.0
  0
POINT
  5
66
330
5C
100
AcDbEntity
  8
Defpoints
 62
     0
100
AcDbPoint
 10
72.33179327086071
 20
221.6436645924327
 30
0.0
  0
ENDBLK
  5
67
330
5C
100
AcDbEntity
  8
0
100
AcDbBlockEnd
  0
BLOCK
  5
50
330
4F
100
AcDbEntity
  8
0
100
AcDbBlockBegin
  2
*D2
 70
     1
 10
0.0
 20
0.0
 30
0.0
  3
*D2
  1

  0
LINE
  5
51
330
4F
100
AcDbEntity
  8
SUNPO
 62
     0
370
    -2
100
AcDbLine
 10
77.6404028057891
 20
189.4993730351587
 30
0.0
 11
85.64040280578911
 21
189.4993730351587
 31
0.0
  0
LINE
  5
52
330
4F
100
AcDbEntity
  8
SUNPO
 62
     0
370
    -2
100
AcDbLine
 10
77.6404028057891
 20
213.632698381118
 30
0.0
 11
85.64040280578911
 21
213.632698381118
 31
0.0
  0
LINE
  5
53
330
4F
100
AcDbEntity
  8
SUNPO
 62
     0
370
    -2
100
AcDbLine
 10
83.6404028057891
 20
191.4993730351587
 30
0.0
 11
83.6404028057891
 21
211.632698381118
 31
0.0
  0
INSERT
  5
54
330
4F
100
AcDbEntity
  8
SUNPO
 62
     0
370
    -2
100
AcDbBlockReference
  2
_OPEN30
 10
83.6404028057891
 20
189.4993730351587
 30
0.0
 41
2.0
 42
2.0
 43
2.0
 50
270.0
  0
INSERT
  5
55
330
4F
100
AcDbEntity
  8
SUNPO
 62
     0
370
    -2
100
AcDbBlockReference
  2
_OPEN30
 10
83.6404028057891
 20
213.632698381118
 30
0.0
 41
2.0
 42
2.0
 43
2.0
 50
90.0
  0
MTEXT
  5
56
330
4F
100
AcDbEntity
  8
SUNPO
 62
     0
100
AcDbMText
 10
81.89040280578907
 20
201.5660357081384
 30
0.0
 40
2.5
 41
0.0
 71
     5
 72
     1
  1
\A1;724
 11
0.0000000000000001
 21
1.0
 31
0.0
 73
     1
 44
1.0
1001
ACAD
1000
MTEXTBEGIN
1070
    73
1070
     1
1070
    44
1040
1.0
1070
    74
1070
     0
1000
MTEXTEND
  0
POINT
  5
57
330
4F
100
AcDbEntity
  8
Defpoints
 62
     0
100
AcDbPoint
 10
75.64040280578911
 20
189.4993730351587
 30
0.0
  0
POINT
  5
58
330
4F
100
AcDbEntity
  8
Defpoints
 62
     0
100
AcDbPoint
 10
75.64040280578911
 20
213.632698381118
 30
0.0
  0
POINT
  5
59
330
4F
100
AcDbEntity
  8
Defpoints
 62
     0
100
AcDbPoint
 10
83.6404028057891
 20
213.632698381118
 30
0.0
  0
ENDBLK
  5
5A
330
4F
100
AcDbEntity
  8
0
100
AcDbBlockEnd
  0
BLOCK
  5
41
330
40
100
AcDbEntity
  8
0
100
AcDbBlockBegin
  2
*D3
 70
     1
 10
0.0
 20
0.0
 30
0.0
  3
*D3
  1

  0
LINE
  5
42
330
40
100
AcDbEntity
  8
SUNPO
 62
     0
370
    -2
100
AcDbLine
 10
97.59625546114003
 20
215.6436645924328
 30
0.0
 11
97.59625546114003
 21
223.6436645924328
 31
0.0
  0
LINE
  5
43
330
40
100
AcDbEntity
  8
SUNPO
 62
     0
370
    -2
100
AcDbLine
 10
100.7627689719241
 20
215.6436645924328
 30
0.0
 11
100.7627689719241
 21
223.6436645924328
 31
0.0
  0
LINE
  5
44
330
40
100
AcDbEntity
  8
SUNPO
 62
     0
370
    -2
100
AcDbLine
 10
95.59625546114004
 20
221.6436645924328
 30
0.0
 11
93.59625546114003
 21
221.6436645924328
 31
0.0
  0
LINE
  5
45
330
40
100
AcDbEntity
  8
SUNPO
 62
     0
370
    -2
100
AcDbLine
 10
102.7627689719241
 20
221.6436645924328
 30
0.0
 11
109.9294356385908
 21
221.6436645924328
 31
0.0
  0
LINE
  5
46
330
40
100
AcDbEntity
  8
SUNPO
 62
     0
370
    -2
100
AcDbLine
 10
97.59625546114003
 20
221.6436645924328
 30
0.0
 11
100.7627689719241
 21
221.6436645924328
 31
0.0
  0
INSERT
  5
47
330
40
100
AcDbEntity
  8
SUNPO
 62
     0
370
    -2
100
AcDbBlockReference
  2
_OPEN30
 10
97.59625546114003
 20
221.6436645924328
 30
0.0
 41
2.0
 42
2.0
 43
2.0
  0
INSERT
  5
48
330
40
100
AcDbEntity
  8
SUNPO
 62
     0
370
    -2
100
AcDbBlockReference
  2
_OPEN30
 10
100.7627689719241
 20
221.6436645924328
 30
0.0
 41
2.0
 42
2.0
 43
2.0
 50
180.0
  0
MTEXT
  5
49
330
40
100
AcDbEntity
  8
SUNPO
 62
     0
100
AcDbMText
 10
107.3461023052574
 20
223.3936645924327
 30
0.0
 40
2.5
 41
0.0
 71
     5
 72
     1
  1
\A1;95
 73
     1
 44
1.0
1001
ACAD
1000
MTEXTBEGIN
1070
    73
1070
     1
1070
    44
1040
1.0
1070
    74
1070
     0
1000
MTEXTEND
  0
POINT
  5
4A
330
40
100
AcDbEntity
  8
Defpoints
 62
     0
100
AcDbPoint
 10
97.59625546114003
 20
213.6436645924328
 30
0.0
  0
POINT
  5
4B
330
40
100
AcDbEntity
  8
Defpoints
 62
     0
100
AcDbPoint
 10
100.7627689719241
 20
213.6436645924328
 30
0.0
  0
POINT
  5
4C
330
40
100
AcDbEntity
  8
Defpoints
 62
     0
100
AcDbPoint
 10
100.7627689719241
 20
221.6436645924328
 30
0.0
  0
ENDBLK
  5
4D
330
40
100
AcDbEntity
  8
0
100
AcDbBlockEnd
  0
BLOCK
  5
33
330
32
100
AcDbEntity
  8
0
100
AcDbBlockBegin
  2
*D4
 70
     1
 10
0.0
 20
0.0
 30
0.0
  3
*D4
  1

  0
LINE
  5
34
330
32
100
AcDbEntity
  8
SUNPO
 62
     0
370
    -2
100
AcDbLine
 10
28.49765158009061
 20
215.632698381118
 30
0.0
 11
28.49765158009061
 21
228.6436645924327
 31
0.0
  0
LINE
  5
35
330
32
100
AcDbEntity
  8
SUNPO
 62
     0
370
    -2
100
AcDbLine
 10
75.83260383736728
 20
215.6200371234204
 30
0.0
 11
75.83260383736728
 21
228.6436645924327
 31
0.0
  0
LINE
  5
36
330
32
100
AcDbEntity
  8
SUNPO
 62
     0
370
    -2
100
AcDbLine
 10
30.49765158009061
 20
226.6436645924327
 30
0.0
 11
73.83260383736729
 21
226.6436645924327
 31
0.0
  0
INSERT
  5
37
330
32
100
AcDbEntity
  8
SUNPO
 62
     0
370
    -2
100
AcDbBlockReference
  2
_OPEN30
 10
28.49765158009061
 20
226.6436645924327
 30
0.0
 41
2.0
 42
2.0
 43
2.0
 50
180.0
  0
INSERT
  5
38
330
32
100
AcDbEntity
  8
SUNPO
 62
     0
370
    -2
100
AcDbBlockReference
  2
_OPEN30
 10
75.83260383736728
 20
226.6436645924327
 30
0.0
 41
2.0
 42
2.0
 43
2.0
  0
MTEXT
  5
39
330
32
100
AcDbEntity
  8
SUNPO
 62
     0
100
AcDbMText
 10
52.16512770872895
 20
228.3936645924327
 30
0.0
 40
2.5
 41
0.0
 71
     5
 72
     1
  1
\A1;1420
 73
     1
 44
1.0
1001
ACAD
1000
MTEXTBEGIN
1070
    73
1070
     1
1070
    44
1040
1.0
1070
    74
1070
     0
1000
MTEXTEND
  0
POINT
  5
3A
330
32
100
AcDbEntity
  8
Defpoints
 62
     0
100
AcDbPoint
 10
28.49765158009061
 20
213.632698381118
 30
0.0
  0
POINT
  5
3C
330
32
100
AcDbEntity
  8
Defpoints
 62
     0
100
AcDbPoint
 10
75.83260383736728
 20
213.6200371234204
 30
0.0
  0
POINT
  5
3D
330
32
100
AcDbEntity
  8
Defpoints
 62
     0
100
AcDbPoint
 10
75.83260383736728
 20
226.6436645924327
 30
0.0
  0
ENDBLK
  5
3E
330
32
100
AcDbEntity
  8
0
100
AcDbBlockEnd
  0
BLOCK
  5
202
330
1F8
100
AcDbEntity
  8
0
100
AcDbBlockBegin
  2
*D5
 70
     1
 10
0.0
 20
0.0
 30
0.0
  3
*D5
  1

  0
LINE
  5
1F9
330
1F8
100
AcDbEntity
  8
SUNPO
 62
     0
370
    -2
100
AcDbLine
 10
-34.49332362935962
 20
33.56501500012149
 30
0.0
 11
-34.49332362935962
 21
41.56501500012149
 31
0.0
  0
LINE
  5
1FA
330
1F8
100
AcDbEntity
  8
SUNPO
 62
     0
370
    -2
100
AcDbLine
 10
5.840007494903886
 20
33.56501500012149
 30
0.0
 11
5.840007494903887
 21
41.56501500012149
 31
0.0
  0
LINE
  5
1FB
330
1F8
100
AcDbEntity
  8
SUNPO
 62
     0
370
    -2
100
AcDbLine
 10
-32.49332362935962
 20
39.56501500012149
 30
0.0
 11
3.840007494903887
 21
39.56501500012149
 31
0.0
  0
INSERT
  5
1FC
330
1F8
100
AcDbEntity
  8
SUNPO
 62
     0
370
    -2
100
AcDbBlockReference
  2
_OPEN30
 10
-34.49332362935962
 20
39.56501500012149
 30
0.0
 41
2.0
 42
2.0
 43
2.0
 50
180.0
  0
INSERT
  5
1FD
330
1F8
100
AcDbEntity
  8
SUNPO
 62
     0
370
    -2
100
AcDbBlockReference
  2
_OPEN30
 10
5.840007494903887
 20
39.56501500012149
 30
0.0
 41
2.0
 42
2.0
 43
2.0
  0
MTEXT
  5
1FE
330
1F8
100
AcDbEntity
  8
SUNPO
 62
     0
100
AcDbMText
 10
-14.32665806722787
 20
41.31501500012149
 30
0.0
 40
2.5
 41
0.0
 71
     5
 72
     1
  1
\A1;1210
 73
     1
 44
1.0
1001
ACAD
1000
MTEXTBEGIN
1070
    73
1070
     1
1070
    44
1040
1.0
1070
    74
1070
     0
1000
MTEXTEND
  0
POINT
  5
1FF
330
1F8
100
AcDbEntity
  8
Defpoints
 62
     0
100
AcDbPoint
 10
-34.49332362935962
 20
31.56501500012149
 30
0.0
  0
POINT
  5
200
330
1F8
100
AcDbEntity
  8
Defpoints
 62
     0
100
AcDbPoint
 10
5.840007494903886
 20
31.56501500012149
 30
0.0
  0
POINT
  5
201
330
1F8
100
AcDbEntity
  8
Defpoints
 62
     0
100
AcDbPoint
 10
5.840007494903887
 20
39.56501500012149
 30
0.0
  0
ENDBLK
  5
203
330
1F8
100
AcDbEntity
  8
0
100
AcDbBlockEnd
  0
BLOCK
  5
20E
330
204
100
AcDbEntity
  8
0
100
AcDbBlockBegin
  2
*D6
 70
     1
 10
0.0
 20
0.0
 30
0.0
  3
*D6
  1

  0
LINE
  5
205
330
204
100
AcDbEntity
  8
SUNPO
 62
     0
370
    -2
100
AcDbLine
 10
11.14861702983228
 20
7.420723442847559
 30
0.0
 11
19.14861702983227
 21
7.420723442847556
 31
0.0
  0
LINE
  5
206
330
204
100
AcDbEntity
  8
SUNPO
 62
     0
370
    -2
100
AcDbLine
 10
11.14861702983228
 20
31.55404878880683
 30
0.0
 11
19.14861702983228
 21
31.55404878880683
 31
0.0
  0
LINE
  5
207
330
204
100
AcDbEntity
  8
SUNPO
 62
     0
370
    -2
100
AcDbLine
 10
17.14861702983228
 20
9.420723442847556
 30
0.0
 11
17.14861702983228
 21
29.55404878880683
 31
0.0
  0
INSERT
  5
208
330
204
100
AcDbEntity
  8
SUNPO
 62
     0
370
    -2
100
AcDbBlockReference
  2
_OPEN30
 10
17.14861702983227
 20
7.420723442847557
 30
0.0
 41
2.0
 42
2.0
 43
2.0
 50
270.0
  0
INSERT
  5
209
330
204
100
AcDbEntity
  8
SUNPO
 62
     0
370
    -2
100
AcDbBlockReference
  2
_OPEN30
 10
17.14861702983228
 20
31.55404878880683
 30
0.0
 41
2.0
 42
2.0
 43
2.0
 50
90.0
  0
MTEXT
  5
20A
330
204
100
AcDbEntity
  8
SUNPO
 62
     0
100
AcDbMText
 10
15.39861702983227
 20
19.48738611582719
 30
0.0
 40
2.5
 41
0.0
 71
     5
 72
     1
  1
\A1;724
 11
0.0000000000000001
 21
1.0
 31
0.0
 73
     1
 44
1.0
1001
ACAD
1000
MTEXTBEGIN
1070
    73
1070
     1
1070
    44
1040
1.0
1070
    74
1070
     0
1000
MTEXTEND
  0
POINT
  5
20B
330
204
100
AcDbEntity
  8
Defpoints
 62
     0
100
AcDbPoint
 10
9.14861702983228
 20
7.42072344284756
 30
0.0
  0
POINT
  5
20C
330
204
100
AcDbEntity
  8
Defpoints
 62
     0
100
AcDbPoint
 10
9.14861702983228
 20
31.55404878880683
 30
0.0
  0
POINT
  5
20D
330
204
100
AcDbEntity
  8
Defpoints
 62
     0
100
AcDbPoint
 10
17.14861702983228
 20
31.55404878880683
 30
0.0
  0
ENDBLK
  5
20F
330
204
100
AcDbEntity
  8
0
100
AcDbBlockEnd
  0
BLOCK
  5
21C
330
210
100
AcDbEntity
  8
0
100
AcDbBlockBegin
  2
*D7
 70
     1
 10
0.0
 20
0.0
 30
0.0
  3
*D7
  1

  0
LINE
  5
211
330
210
100
AcDbEntity
  8
SUNPO
 62
     0
370
    -2
100
AcDbLine
 10
31.10446968518321
 20
33.56501500012155
 30
0.0
 11
31.10446968518321
 21
41.56501500012154
 31
0.0
  0
LINE
  5
212
330
210
100
AcDbEntity
  8
SUNPO
 62
     0
370
    -2
100
AcDbLine
 10
34.27098319596732
 20
33.56501500012155
 30
0.0
 11
34.27098319596732
 21
41.56501500012154
 31
0.0
  0
LINE
  5
213
330
210
100
AcDbEntity
  8
SUNPO
 62
     0
370
    -2
100
AcDbLine
 10
29.1044696851832
 20
39.56501500012155
 30
0.0
 11
27.10446968518321
 21
39.56501500012155
 31
0.0
  0
LINE
  5
214
330
210
100
AcDbEntity
  8
SUNPO
 62
     0
370
    -2
100
AcDbLine
 10
36.27098319596732
 20
39.56501500012155
 30
0.0
 11
43.43764986263398
 21
39.56501500012155
 31
0.0
  0
LINE
  5
215
330
210
100
AcDbEntity
  8
SUNPO
 62
     0
370
    -2
100
AcDbLine
 10
31.10446968518321
 20
39.56501500012155
 30
0.0
 11
34.27098319596732
 21
39.56501500012155
 31
0.0
  0
INSERT
  5
216
330
210
100
AcDbEntity
  8
SUNPO
 62
     0
370
    -2
100
AcDbBlockReference
  2
_OPEN30
 10
31.10446968518321
 20
39.56501500012155
 30
0.0
 41
2.0
 42
2.0
 43
2.0
  0
INSERT
  5
217
330
210
100
AcDbEntity
  8
SUNPO
 62
     0
370
    -2
100
AcDbBlockReference
  2
_OPEN30
 10
34.27098319596732
 20
39.56501500012155
 30
0.0
 41
2.0
 42
2.0
 43
2.0
 50
180.0
  0
MTEXT
  5
218
330
210
100
AcDbEntity
  8
SUNPO
 62
     0
100
AcDbMText
 10
40.85431652930065
 20
41.31501500012155
 30
0.0
 40
2.5
 41
0.0
 71
     5
 72
     1
  1
\A1;95
 73
     1
 44
1.0
1001
ACAD
1000
MTEXTBEGIN
1070
    73
1070
     1
1070
    44
1040
1.0
1070
    74
1070
     0
1000
MTEXTEND
  0
POINT
  5
219
330
210
100
AcDbEntity
  8
Defpoints
 62
     0
100
AcDbPoint
 10
31.10446968518321
 20
31.56501500012155
 30
0.0
  0
POINT
  5
21A
330
210
100
AcDbEntity
  8
Defpoints
 62
     0
100
AcDbPoint
 10
34.27098319596732
 20
31.56501500012155
 30
0.0
  0
POINT
  5
21B
330
210
100
AcDbEntity
  8
Defpoints
 62
     0
100
AcDbPoint
 10
34.27098319596732
 20
39.56501500012155
 30
0.0
  0
ENDBLK
  5
21D
330
210
100
AcDbEntity
  8
0
100
AcDbBlockEnd
  0
BLOCK
  5
228
330
21E
100
AcDbEntity
  8
0
100
AcDbBlockBegin
  2
*D8
 70
     1
 10
0.0
 20
0.0
 30
0.0
  3
*D8
  1

  0
LINE
  5
21F
330
21E
100
AcDbEntity
  8
SUNPO
 62
     0
370
    -2
100
AcDbLine
 10
-37.99413419586623
 20
33.55404878880682
 30
0.0
 11
-37.99413419586623
 21
46.56501500012149
 31
0.0
  0
LINE
  5
220
330
21E
100
AcDbEntity
  8
SUNPO
 62
     0
370
    -2
100
AcDbLine
 10
9.340818061410459
 20
33.54138753110925
 30
0.0
 11
9.340818061410461
 21
46.56501500012149
 31
0.0
  0
LINE
  5
221
330
21E
100
AcDbEntity
  8
SUNPO
 62
     0
370
    -2
100
AcDbLine
 10
-35.99413419586622
 20
44.56501500012149
 30
0.0
 11
7.340818061410459
 21
44.56501500012149
 31
0.0
  0
INSERT
  5
222
330
21E
100
AcDbEntity
  8
SUNPO
 62
     0
370
    -2
100
AcDbBlockReference
  2
_OPEN30
 10
-37.99413419586623
 20
44.56501500012149
 30
0.0
 41
2.0
 42
2.0
 43
2.0
 50
180.0
  0
INSERT
  5
223
330
21E
100
AcDbEntity
  8
SUNPO
 62
     0
370
    -2
100
AcDbBlockReference
  2
_OPEN30
 10
9.340818061410459
 20
44.56501500012149
 30
0.0
 41
2.0
 42
2.0
 43
2.0
  0
MTEXT
  5
224
330
21E
100
AcDbEntity
  8
SUNPO
 62
     0
100
AcDbMText
 10
-14.32665806722788
 20
46.31501500012149
 30
0.0
 40
2.5
 41
0.0
 71
     5
 72
     1
  1
\A1;1420
 73
     1
 44
1.0
1001
ACAD
1000
MTEXTBEGIN
1070
    73
1070
     1
1070
    44
1040
1.0
1070
    74
1070
     0
1000
MTEXTEND
  0
POINT
  5
225
330
21E
100
AcDbEntity
  8
Defpoints
 62
     0
100
AcDbPoint
 10
-37.99413419586623
 20
31.55404878880683
 30
0.0
  0
POINT
  5
226
330
21E
100
AcDbEntity
  8
Defpoints
 62
     0
100
AcDbPoint
 10
9.340818061410459
 20
31.54138753110925
 30
0.0
  0
POINT
  5
227
330
21E
100
AcDbEntity
  8
Defpoints
 62
     0
100
AcDbPoint
 10
9.340818061410459
 20
44.56501500012149
 30
0.0
  0
ENDBLK
  5
229
330
21E
100
AcDbEntity
  8
0
100
AcDbBlockEnd
  0
ENDSEC
  0
SECTION
  2
ENTITIES
  0
TEXT
  5
2F
330
2
100
AcDbEntity
  8
TOUROKU
100
AcDbText
 10
37.92882084337197
 20
8.089401990555302
 30
0.0
 40
1.5
  1
Ｓ＝１／３０
 41
0.7
 72
     2
 11
44.99882084337196
 21
8.089401990555302
 31
0.0
100
AcDbText
  0
DIMENSION
  5
31
330
2
100
AcDbEntity
  8
SUNPO
100
AcDbDimension
  2
*D8
 10
9.340818061410459
 20
44.56501500012149
 30
0.0
 11
-14.32665806722788
 21
46.31501500012149
 31
0.0
 70
    32
  1
1420
 71
     5
 42
47.33495225727668
  3
STANDARD
100
AcDbAlignedDimension
 13
-37.99413419586623
 23
31.55404878880683
 33
0.0
 14
9.340818061410459
 24
31.54138753110925
 34
0.0
100
AcDbRotatedDimension
1001
ACAD
1000
DSTYLE
1002
{
1070
    40
1040
1.0
1070
   140
1040
2.5
1070
   147
1040
0.5
1070
   172
1070
     1
1070
   279
1070
     0
1070
   288
1070
     0
1002
}
  0
DIMENSION
  5
3F
330
2
100
AcDbEntity
  8
SUNPO
100
AcDbDimension
  2
*D7
 10
34.27098319596732
 20
39.56501500012155
 30
0.0
 11
40.85431652930065
 21
41.31501500012155
 31
0.0
 70
    33
  1
95
 71
     5
 42
3.166513510784113
  3
STANDARD
100
AcDbAlignedDimension
 13
31.10446968518321
 23
31.56501500012155
 33
0.0
 14
34.27098319596732
 24
31.56501500012155
 34
0.0
1001
ACAD
1000
DSTYLE
1002
{
1070
    40
1040
1.0
1070
   140
1040
2.5
1070
   147
1040
0.5
1070
   172
1070
     1
1070
   279
1070
     0
1070
   288
1070
     0
1002
}
  0
DIMENSION
  5
4E
330
2
100
AcDbEntity
  8
SUNPO
100
AcDbDimension
  2
*D6
 10
17.14861702983228
 20
31.55404878880683
 30
0.0
 11
15.39861702983227
 21
19.48738611582719
 31
0.0
 70
    33
  1
724
 71
     5
 42
24.13332534595927
  3
STANDARD
100
AcDbAlignedDimension
 13
9.14861702983228
 23
7.42072344284756
 33
0.0
 14
9.14861702983228
 24
31.55404878880683
 34
0.0
1001
ACAD
1000
DSTYLE
1002
{
1070
    40
1040
1.0
1070
   140
1040
2.5
1070
   147
1040
0.5
1070
   172
1070
     1
1070
   279
1070
     0
1070
   288
1070
     0
1002
}
  0
DIMENSION
  5
5B
330
2
100
AcDbEntity
  8
SUNPO
100
AcDbDimension
  2
*D5
 10
5.840007494903887
 20
39.56501500012149
 30
0.0
 11
-14.32665806722787
 21
41.31501500012149
 31
0.0
 70
    33
  1
1210
 71
     5
 42
40.3333311242635
  3
STANDARD
100
AcDbAlignedDimension
 13
-34.49332362935962
 23
31.56501500012149
 33
0.0
 14
5.840007494903886
 24
31.56501500012149
 34
0.0
1001
ACAD
1000
DSTYLE
1002
{
1070
    40
1040
1.0
1070
   140
1040
2.5
1070
   147
1040
0.5
1070
   172
1070
     1
1070
   279
1070
     0
1070
   288
1070
     0
1002
}
  0
LINE
  5
68
330
2
100
AcDbEntity
  8
GAIKEI
 62
     1
100
AcDbLine
 10
31.2205013758943
 20
7.625211776645954
 30
0.0
 11
31.109435699437
 21
7.802944447366428
 31
0.0
  0
LINE
  5
6A
330
2
100
AcDbEntity
  8
GAIKEI
 62
     1
100
AcDbLine
 10
31.2205013758943
 20
7.625211776645954
 30
0.0
 11
31.86173590352009
 21
7.56081714980192
 31
0.0
  0
ARC
  5
6B
330
2
100
AcDbEntity
  8
GAIKEI
 62
     1
100
AcDbCircle
 10
31.1406989642887
 20
7.688581951857372
 30
0.0
 40
0.036560774588166
100
AcDbArc
 50
174.099286148778
 51
211.2270935956969
  0
ARC
  5
6C
330
2
100
AcDbEntity
  8
GAIKEI
 62
     7
100
AcDbCircle
 10
31.25048026214184
 20
7.539197847591168
 30
0.0
 40
0.0501423584161749
100
AcDbArc
 50
212.1189170118204
 51
265.708060992887
  0
LINE
  5
6D
330
2
100
AcDbEntity
  8
GAIKEI
 62
     7
100
AcDbLine
 10
31.10943514383129
 20
7.669627697219084
 30
0.0
 11
31.20801237086707
 21
7.512538246727473
 31
0.0
  0
LINE
  5
6E
330
2
100
AcDbEntity
  8
GAIKEI
 62
     7
100
AcDbLine
 10
31.2467276866991
 20
7.489196104770684
 30
0.0
 11
31.86331996918504
 21
7.427323375558898
 31
0.0
  0
ELLIPSE
  5
6F
330
2
100
AcDbEntity
  8
GAIKEI
 62
     1
100
AcDbEllipse
 10
32.02941411472861
 20
7.90518587887908
 30
0.0
 11
0.0028216851385802
 21
-0.1547352782023097
 31
0.0
210
0.0
220
0.0
230
1.0
 40
0.310649656473011
 41
0.0
 42
6.283185307179586
  0
ARC
  5
70
330
2
100
AcDbEntity
  8
GAIKEI
 62
     1
100
AcDbCircle
 10
32.75318541486512
 20
8.075072831895823
 30
0.0
 40
0.30533330678946
100
AcDbArc
 50
139.4813421796182
 51
180.3070326346161
  0
LINE
  5
71
330
2
100
AcDbEntity
  8
GAIKEI
 62
     1
100
AcDbLine
 10
32.44785649203946
 20
8.073436640857977
 30
0.0
 11
32.44785638786935
 21
7.55441202460733
 31
0.0
  0
LINE
  5
72
330
2
100
AcDbEntity
  8
GAIKEI
 62
     1
100
AcDbLine
 10
32.65415765674992
 20
8.271493246634747
 30
0.0
 11
31.95336026404822
 21
8.278605084760584
 31
0.0
  0
LINE
  5
73
330
2
100
AcDbEntity
  8
GAIKEI
 62
     1
100
AcDbLine
 10
32.58416424120937
 20
7.55441202460733
 30
0.0
 11
31.91146382751215
 21
7.55441202460733
 31
0.0
  0
LINE
  5
74
330
2
100
AcDbEntity
  8
GAIKEI
 62
     1
100
AcDbLine
 10
32.58420042707065
 20
8.093729125299347
 30
0.0
 11
32.58416424120937
 21
7.432172636249504
 31
0.0
  0
LINE
  5
75
330
2
100
AcDbEntity
  8
GAIKEI
 62
     7
100
AcDbLine
 10
32.6173544221519
 20
7.457949514155529
 30
0.0
 11
32.61750058216934
 21
8.210268131177969
 31
0.0
  0
LINE
  5
76
330
2
100
AcDbEntity
  8
GAIKEI
 62
     7
100
AcDbLine
 10
31.86331996918504
 20
7.427323375558898
 30
0.0
 11
32.59130088867791
 21
7.428504294886693
 31
0.0
  0
ARC
  5
77
330
2
100
AcDbEntity
  8
GAIKEI
 62
     7
100
AcDbCircle
 10
32.5841642412094
 20
7.461067769693727
 30
0.0
 40
0.0333363409599675
100
AcDbArc
 50
269.9999999999349
 51
356.7637596474808
  0
ARC
  5
78
330
2
100
AcDbEntity
  8
GAIKEI
 62
     1
100
AcDbCircle
 10
32.88382382808491
 20
8.07846460189782
 30
0.0
 40
0.3000110130389404
100
AcDbArc
 50
139.9537923843622
 51
176.7595130411
  0
LINE
  5
79
330
2
100
AcDbEntity
  8
GAIKEI
 62
     1
100
AcDbLine
 10
32.0917539660186
 20
8.445670760737215
 30
0.0
 11
33.6228892988219
 21
9.919845063533244
 31
0.0
  0
ARC
  5
7A
330
2
100
AcDbEntity
  8
GAIKEI
 62
     1
100
AcDbCircle
 10
32.78673160570547
 20
7.729846885801435
 30
0.0
 40
0.9978192992824462
100
AcDbArc
 50
134.0418697611555
 51
152.9577913790029
  0
LINE
  5
7B
330
2
100
AcDbEntity
  8
GAIKEI
 62
     1
100
AcDbLine
 10
32.03582387547674
 20
8.277768226830119
 30
0.0
 11
33.8213329661137
 21
9.738772102994886
 31
0.0
  0
LINE
  5
7C
330
2
100
AcDbEntity
  8
GAIKEI
 62
     7
100
AcDbLine
 10
32.65415765674992
 20
8.271493246634747
 30
0.0
 11
33.86740204668543
 21
9.718691361471968
 31
0.0
  0
LINE
  5
7D
330
2
100
AcDbEntity
  8
GAIKEI
 62
     7
100
AcDbLine
 10
33.77004988467515
 20
8.262168811751024
 30
0.0
 11
32.61750058216934
 21
8.20176613189875
 31
0.0
  0
ARC
  5
7E
330
2
100
AcDbEntity
  8
GAIKEI
 62
     7
100
AcDbCircle
 10
33.75260299185733
 20
8.595075358384093
 30
0.0
 40
0.3333634096000158
100
AcDbArc
 50
272.9999999999991
 51
359.9999999999968
  0
LINE
  5
7F
330
2
100
AcDbEntity
  8
GAIKEI
 62
     7
100
AcDbLine
 10
34.08598110132768
 20
10.80728912956743
 30
0.0
 11
34.08596640145733
 21
8.595075358384065
 31
0.0
  0
ARC
  5
80
330
2
100
AcDbEntity
  8
GAIKEI
 62
     1
100
AcDbCircle
 10
54.43819986326532
 20
-51.62791001635259
 30
0.0
 40
64.97628498578482
100
AcDbArc
 50
108.4551067593451
 51
108.6766106751913
  0
ARC
  5
81
330
2
100
AcDbEntity
  8
GAIKEI
 62
     1
100
AcDbCircle
 10
33.8159635150093
 20
10.25242560039981
 30
0.0
 40
0.2513563234062419
100
AcDbArc
 50
282.2297006437121
 51
335.2862852160586
  0
ARC
  5
82
330
2
100
AcDbEntity
  8
GAIKEI
 62
     1
100
AcDbCircle
 10
33.53656965098908
 20
10.15929627805838
 30
0.0
 40
0.5078688092938953
100
AcDbArc
 50
304.1043947865993
 51
358.6507224250833
  0
ARC
  5
83
330
2
100
AcDbEntity
  8
GAIKEI
 62
     7
100
AcDbCircle
 10
33.49845680602219
 20
10.12177341927489
 30
0.0
 40
0.5464391420192215
100
AcDbArc
 50
312.468195291033
 51
2.681439676979157
  0
ARC
  5
84
330
2
100
AcDbEntity
  8
GAIKEI
 62
     7
100
AcDbCircle
 10
34.25112074556783
 20
10.80577230173011
 30
0.0
 40
0.1651557752857223
100
AcDbArc
 50
131.2789217303652
 51
180.2385269562974
  0
ARC
  5
85
330
2
100
AcDbEntity
  8
GAIKEI
 62
     7
100
AcDbCircle
 10
34.11657760860676
 20
11.1100575367121
 30
0.0
 40
0.1545115617094552
100
AcDbArc
 50
307.8768217257108
 51
2.12320360363169
  0
LINE
  5
86
330
2
100
AcDbEntity
  8
GAIKEI
 62
     1
100
AcDbLine
 10
34.04429764207437
 20
10.92693129552015
 30
0.0
 11
34.26936100299482
 21
11.11578194486137
 31
0.0
  0
LINE
  5
87
330
2
100
AcDbEntity
  8
GAIKEI
 62
     7
100
AcDbLine
 10
34.04429764207437
 20
10.84784527143799
 30
0.0
 11
34.2114424442109
 21
10.9880965361107
 31
0.0
  0
LINE
  5
88
330
2
100
AcDbEntity
  8
GAIKEI
 62
     7
100
AcDbLine
 10
34.2709831959673
 20
27.21743586953733
 30
0.0
 11
34.2709831959673
 21
11.11577918802433
 31
0.0
  0
LINE
  5
89
330
2
100
AcDbEntity
  8
GAIKEI
 62
     1
100
AcDbLine
 10
34.04429764207437
 20
28.81961806637557
 30
0.0
 11
34.04429764207437
 21
10.14733741013216
 31
0.0
  0
LINE
  5
8A
330
2
100
AcDbEntity
  8
GAIKEI
 62
     7
100
AcDbLine
 10
34.0442977245411
 20
28.81961807376567
 30
0.0
 11
34.27098309378535
 21
27.21743573865154
 31
0.0
  0
ARC
  5
8B
330
2
100
AcDbEntity
  8
GAIKEI
 62
     1
100
AcDbCircle
 10
33.90752741261146
 20
28.79818169762638
 30
0.0
 40
0.1384399276671704
100
AcDbArc
 50
8.907655288637814
 51
59.00386356229109
  0
ARC
  5
8C
330
2
100
AcDbEntity
  8
GAIKEI
 62
     1
100
AcDbCircle
 10
33.76353596895901
 20
28.59853559947095
 30
0.0
 40
0.3842831201497643
100
AcDbArc
 50
55.92859297969443
 51
74.03878313188503
  0
ARC
  5
8D
330
2
100
AcDbEntity
  8
GAIKEI
 62
     1
100
AcDbCircle
 10
56.04040796642863
 20
95.36625622455188
 30
0.0
 40
70.00207136222759
100
AcDbArc
 50
251.3295934179256
 51
251.5351965038707
  0
LINE
  5
8E
330
2
100
AcDbEntity
  8
GAIKEI
 62
     1
100
AcDbLine
 10
33.76904400811826
 20
29.23347960026641
 30
0.0
 11
33.63108498848642
 21
29.04799154235394
 31
0.0
  0
ARC
  5
8F
330
2
100
AcDbEntity
  8
GAIKEI
 62
     7
100
AcDbCircle
 10
33.5193043575825
 20
28.85435481447746
 30
0.0
 40
0.5261413084959541
100
AcDbArc
 50
356.2144820540971
 51
43.85131920853773
  0
ARC
  5
90
330
2
100
AcDbEntity
  8
GAIKEI
 62
     1
100
AcDbCircle
 10
33.55013730353086
 20
28.81837939118702
 30
0.0
 40
0.4941619734738384
100
AcDbArc
 50
0.1436196268528112
 51
24.97346866073806
  0
ARC
  5
91
330
2
100
AcDbEntity
  8
GAIKEI
 62
     1
100
AcDbCircle
 10
33.3316658975787
 20
28.65229396154084
 30
0.0
 40
0.7645555280058886
100
AcDbArc
 50
29.34811999867648
 51
54.68931910532064
  0
ARC
  5
92
330
2
100
AcDbEntity
  8
GAIKEI
 62
     1
100
AcDbCircle
 10
33.6992930423083
 20
29.08199119185599
 30
0.0
 40
0.2046080114861957
100
AcDbArc
 50
326.144448928893
 51
33.85555107111054
  0
ARC
  5
93
330
2
100
AcDbEntity
  8
GAIKEI
 62
     1
100
AcDbCircle
 10
33.7416841068805
 20
29.2579879500322
 30
0.0
 40
0.0367317764882516
100
AcDbArc
 50
318.1467719571975
 51
29.71269670511109
  0
LINE
  5
94
330
2
100
AcDbEntity
  8
GAIKEI
 62
     7
100
AcDbLine
 10
33.82385132027433
 20
30.39894523780791
 30
0.0
 11
34.01679293835967
 21
29.02609280577386
 31
0.0
  0
ARC
  5
95
330
2
100
AcDbEntity
  8
GAIKEI
 62
     7
100
AcDbCircle
 10
33.65879215102662
 20
30.37574781918218
 30
0.0
 40
0.1666812814434652
100
AcDbArc
 50
7.999954115666439
 51
78.00011128326023
  0
LINE
  5
96
330
2
100
AcDbEntity
  8
GAIKEI
 62
     1
100
AcDbLine
 10
33.74449031548188
 20
30.34037276986786
 30
0.0
 11
33.89872589738447
 21
29.2188599195722
 31
0.0
  0
LINE
  5
97
330
2
100
AcDbEntity
  8
GAIKEI
 62
     1
100
AcDbLine
 10
33.61460470822784
 20
30.48030372786451
 30
0.0
 11
32.67171380665552
 21
30.68235167898612
 31
0.0
  0
LINE
  5
98
330
2
100
AcDbEntity
  8
GAIKEI
 62
     7
100
AcDbLine
 10
33.69344682141532
 20
30.53878678202202
 30
0.0
 11
32.61263804191482
 21
30.76851997734792
 31
0.0
  0
LINE
  5
99
330
2
100
AcDbEntity
  8
GAIKEI
 62
     7
100
AcDbLine
 10
32.58416424120937
 20
31.51802968207852
 30
0.0
 11
32.58416424120937
 21
30.89708130474384
 31
0.0
  0
ARC
  5
9A
330
2
100
AcDbEntity
  8
GAIKEI
 62
     1
100
AcDbCircle
 10
33.57984362561267
 20
30.31779189603933
 30
0.0
 40
0.166187930812541
100
AcDbArc
 50
7.809250808789952
 51
77.92644098243123
  0
LINE
  5
9B
330
2
100
AcDbEntity
  8
GAIKEI
 62
     7
100
AcDbLine
 10
32.65396232662711
 20
30.70352013700639
 30
0.0
 11
33.89872589738447
 21
29.2188599195722
 31
0.0
  0
LINE
  5
9C
330
2
100
AcDbEntity
  8
GAIKEI
 62
     1
100
AcDbLine
 10
32.03582387547674
 20
30.69700913291266
 30
0.0
 11
33.77358645183325
 21
29.27619409708476
 31
0.0
  0
ARC
  5
9D
330
2
100
AcDbEntity
  8
GAIKEI
 62
     7
100
AcDbCircle
 10
32.8852362344944
 20
30.89628258829913
 30
0.0
 40
0.3010730527439958
100
AcDbArc
 50
179.8479998971328
 51
219.8105702442835
  0
ARC
  5
9E
330
2
100
AcDbEntity
  8
GAIKEI
 62
     1
100
AcDbCircle
 10
32.75318613789598
 20
30.89970495059717
 30
0.0
 40
0.3053341310925439
100
AcDbArc
 50
179.6930692744338
 51
220.518629977401
  0
LINE
  5
9F
330
2
100
AcDbEntity
  8
GAIKEI
 62
     1
100
AcDbLine
 10
32.03582387547671
 20
30.69700913291266
 30
0.0
 11
32.65415765674989
 21
30.70329225186313
 31
0.0
  0
ARC
  5
A0
330
2
100
AcDbEntity
  8
GAIKEI
 62
     1
100
AcDbCircle
 10
32.24280046092709
 20
30.91957885902284
 30
0.0
 40
0.3039351738536516
100
AcDbArc
 50
179.6480118625691
 51
227.0790051900848
  0
ELLIPSE
  5
A1
330
2
100
AcDbEntity
  8
GAIKEI
 62
     1
100
AcDbEllipse
 10
32.03192066908909
 20
31.05498969733611
 30
0.0
 11
0.0048428985547114
 21
0.1699556818558149
 31
0.0
210
0.0
220
0.0
230
1.0
 40
0.2552453852602102
 41
0.0
 42
6.283185307179586
  0
LINE
  5
A2
330
2
100
AcDbEntity
  8
GAIKEI
 62
     1
100
AcDbLine
 10
32.00205618049553
 20
30.91914831508117
 30
0.0
 11
31.89800205742684
 21
30.9229322180037
 31
0.0
  0
LINE
  5
A3
330
2
100
AcDbEntity
  8
GAIKEI
 62
     1
100
AcDbLine
 10
32.58416424120937
 20
30.89708130474384
 30
0.0
 11
32.05773340425221
 21
30.91708107128142
 31
0.0
  0
ARC
  5
A4
330
2
100
AcDbEntity
  8
GAIKEI
 62
     1
100
AcDbCircle
 10
32.77751474320395
 20
31.20004904567898
 30
0.0
 40
0.03333630427746
100
AcDbArc
 50
0.0000064146184042
 51
88.00001314450661
  0
LINE
  5
A5
330
2
100
AcDbEntity
  8
GAIKEI
 62
     1
100
AcDbLine
 10
32.75452837692244
 20
31.23420835090312
 30
0.0
 11
32.77867817236019
 21
31.23336503688094
 31
0.0
  0
ARC
  5
A6
330
2
100
AcDbEntity
  8
GAIKEI
 62
     1
100
AcDbCircle
 10
32.75417934591339
 20
31.2242135629331
 30
0.0
 40
0.0100008885120045
100
AcDbArc
 50
88.00000000002242
 51
179.9999999998909
  0
LINE
  5
A7
330
2
100
AcDbEntity
  8
GAIKEI
 62
     1
100
AcDbLine
 10
32.74417845740136
 20
31.20460612094314
 30
0.0
 11
32.74417845740136
 21
31.2242135629331
 31
0.0
  0
ARC
  5
A8
330
2
100
AcDbEntity
  8
GAIKEI
 62
     1
100
AcDbCircle
 10
32.73450602816387
 20
31.20503852535492
 30
0.0
 40
0.0096820896984856
100
AcDbArc
 50
265.9875314113303
 51
357.4403055779344
  0
LINE
  5
A9
330
2
100
AcDbEntity
  8
GAIKEI
 62
     1
100
AcDbLine
 10
32.81085104748136
 20
31.15136135716895
 30
0.0
 11
32.81085104748136
 21
31.20004904941118
 31
0.0
  0
ARC
  5
AA
330
2
100
AcDbEntity
  8
GAIKEI
 62
     1
100
AcDbCircle
 10
32.71084013508924
 20
31.15136264550799
 30
0.0
 40
0.1000109124005768
100
AcDbArc
 50
294.6822153763288
 51
359.9992555506062
  0
LINE
  5
AB
330
2
100
AcDbEntity
  8
GAIKEI
  6
Continuous
 62
     1
100
AcDbLine
 10
32.73382853788032
 20
31.19538016794564
 30
0.0
 11
32.58416424120937
 21
31.20020452989124
 31
0.0
  0
LINE
  5
AC
330
2
100
AcDbEntity
  8
GAIKEI
  6
Continuous
 62
     1
100
AcDbLine
 10
32.58416424120937
 20
31.05289171004427
 30
0.0
 11
32.75264660974001
 21
31.06049091727198
 31
0.0
  0
LINE
  5
AD
330
2
100
AcDbEntity
  8
GAIKEI
 62
     7
100
AcDbLine
 10
31.89049185500316
 20
31.55005950538913
 30
0.0
 11
32.55059199788373
 21
31.55191210917716
 31
0.0
  0
ARC
  5
AE
330
2
100
AcDbEntity
  8
GAIKEI
 62
     7
100
AcDbCircle
 10
32.55345641630821
 20
31.52117664154701
 30
0.0
 40
0.0308686550298805
100
AcDbArc
 50
354.1487151821885
 51
95.32435032164219
  0
ARC
  5
AF
330
2
100
AcDbEntity
  8
GAIKEI
 62
     7
100
AcDbCircle
 10
31.14637170554104
 20
31.28992996732222
 30
0.0
 40
0.0421142387768983
100
AcDbArc
 50
151.3207753347368
 51
183.4071168973716
  0
LINE
  5
B0
330
2
100
AcDbEntity
  8
GAIKEI
 62
     7
100
AcDbLine
 10
31.2072072982329
 20
31.46610516752054
 30
0.0
 11
31.10942403171767
 21
31.31014081853633
 31
0.0
  0
ARC
  5
B1
330
2
100
AcDbEntity
  8
GAIKEI
 62
     7
100
AcDbCircle
 10
31.24959861815678
 20
31.43951760804418
 30
0.0
 40
0.0500393529319787
100
AcDbArc
 50
91.98271636162411
 51
147.9042790606871
  0
LINE
  5
B2
330
2
100
AcDbEntity
  8
GAIKEI
 62
     7
100
AcDbLine
 10
31.32454843305158
 20
31.49354577119132
 30
0.0
 11
31.24786735549897
 21
31.48952700287618
 31
0.0
  0
LINE
  5
B3
330
2
100
AcDbEntity
  8
GAIKEI
 62
     7
100
AcDbLine
 10
31.89049185500316
 20
31.55005950538913
 30
0.0
 11
31.32454843305158
 21
31.49354577119146
 31
0.0
  0
LINE
  5
B4
330
2
100
AcDbEntity
  8
GAIKEI
 62
     1
100
AcDbLine
 10
31.86173590352009
 20
31.41396834869596
 30
0.0
 11
31.20720590921872
 21
31.34820215138328
 31
0.0
  0
LINE
  5
B5
330
2
100
AcDbEntity
  8
GAIKEI
100
AcDbLine
 10
6.110391888008393
 20
7.556006057310895
 30
0.0
 11
6.110440225702802
 21
7.604356530633623
 31
0.0
  0
ARC
  5
B6
330
2
100
AcDbEntity
  8
GAIKEI
 62
     1
100
AcDbCircle
 10
6.504260837269782
 20
7.816722353315952
 30
0.0
 40
0.1477898521857294
100
AcDbArc
 50
185.3627964532823
 51
264.6604592730518
  0
LINE
  5
B7
330
2
100
AcDbEntity
  8
GAIKEI
 62
     1
100
AcDbLine
 10
6.35716692999324
 20
7.802917778293675
 30
0.0
 11
6.201358706205837
 21
7.646956207337865
 31
0.0
  0
LINE
  5
B8
330
2
100
AcDbEntity
  8
GAIKEI
 62
     1
100
AcDbLine
 10
6.334546555834833
 20
7.513765579680494
 30
0.0
 11
6.490507848987732
 21
7.669573803467869
 31
0.0
  0
ARC
  5
B9
330
2
100
AcDbEntity
  8
GAIKEI
 62
     1
100
AcDbCircle
 10
6.32647873308997
 20
7.638872611692562
 30
0.0
 40
0.1253808822988622
100
AcDbArc
 50
176.3034445759356
 51
273.7203198838055
  0
ARC
  5
BA
330
2
100
AcDbEntity
  8
GAIKEI
 62
     1
100
AcDbCircle
 10
6.313307467769078
 20
7.624108939399491
 30
0.0
 40
0.1353901447901534
100
AcDbArc
 50
180.2650426354837
 51
279.0544497008039
  0
ARC
  5
BB
330
2
100
AcDbEntity
  8
GAIKEI
100
AcDbCircle
 10
6.244538634461321
 20
7.556903244654336
 30
0.0
 40
0.134101295133962
100
AcDbArc
 50
180.3841152231924
 51
269.5913732137488
  0
LINE
  5
BC
330
2
100
AcDbEntity
  8
GAIKEI
 62
     1
100
AcDbLine
 10
9.130114051555693
 20
7.802882497332802
 30
0.0
 11
9.285873659845861
 21
7.646470330168369
 31
0.0
  0
LINE
  5
BD
330
2
100
AcDbEntity
  8
GAIKEI
 62
     1
100
AcDbLine
 10
8.996792856562933
 20
7.669578248313342
 30
0.0
 11
9.1543340144745
 21
7.512483797370578
 31
0.0
  0
ARC
  5
BE
330
2
100
AcDbEntity
  8
GAIKEI
 62
     1
100
AcDbCircle
 10
8.978080877337106
 20
7.821605310869415
 30
0.0
 40
0.153180089303778
100
AcDbArc
 50
277.0165901477274
 51
352.9834098522841
  0
ARC
  5
BF
330
2
100
AcDbEntity
  8
GAIKEI
 62
     1
100
AcDbCircle
 10
9.161115134046553
 20
7.637410121307112
 30
0.0
 40
0.1251102313759695
100
AcDbArc
 50
266.8929797803727
 51
4.147369451348244
  0
ARC
  5
C0
330
2
100
AcDbEntity
  8
GAIKEI
 62
     1
100
AcDbCircle
 10
9.177026511258759
 20
7.621479982487102
 30
0.0
 40
0.1323457111357501
100
AcDbArc
 50
269.6895454140697
 51
0.3384840745396717
  0
ARC
  5
C1
330
2
100
AcDbEntity
  8
GAIKEI
100
AcDbCircle
 10
9.2050948670622
 20
7.560585321404005
 30
0.0
 40
0.1357233045560985
100
AcDbArc
 50
270.3441359964477
 51
0.072583791953461
  0
LINE
  5
C2
330
2
100
AcDbEntity
  8
GAIKEI
100
AcDbLine
 10
6.243574109089308
 20
7.422846053729074
 30
0.0
 11
9.205910057888104
 21
7.424864464998108
 31
0.0
  0
LINE
  5
C3
330
2
100
AcDbEntity
  8
GAIKEI
 62
     1
100
AcDbLine
 10
6.334614223830186
 20
7.490405859956837
 30
0.0
 11
9.176309405526922
 21
7.489136214158548
 31
0.0
  0
LINE
  5
C4
330
2
100
AcDbEntity
  8
GAIKEI
 62
     1
100
AcDbLine
 10
6.334614223830186
 20
7.513755948388052
 30
0.0
 11
9.154261517914449
 21
7.512470025079551
 31
0.0
  0
LINE
  5
C5
330
2
100
AcDbEntity
  8
GAIKEI
 62
     1
100
AcDbLine
 10
6.49050395974794
 20
7.669572414453654
 30
0.0
 11
8.996792856562933
 21
7.669572414453654
 31
0.0
  0
ARC
  5
C6
330
2
100
AcDbEntity
  8
GAIKEI
 62
     1
100
AcDbCircle
 10
6.504202779455283
 20
31.15804463713804
 30
0.0
 40
0.1476771846261403
100
AcDbArc
 50
95.32251858901789
 51
174.6710350180321
  0
LINE
  5
C7
330
2
100
AcDbEntity
  8
GAIKEI
 62
     1
100
AcDbLine
 10
6.201355650374608
 20
31.32772157135011
 30
0.0
 11
6.357163874161983
 21
31.17176000039433
 31
0.0
  0
LINE
  5
C8
330
2
100
AcDbEntity
  8
GAIKEI
 62
     1
100
AcDbLine
 10
6.334543222200665
 20
31.46090080909099
 30
0.0
 11
6.490504515353677
 21
31.30509258530361
 31
0.0
  0
LINE
  5
C9
330
2
100
AcDbEntity
  8
GAIKEI
 62
     1
100
AcDbLine
 10
6.243574109089308
 20
31.55181966354457
 30
0.0
 11
6.311076944031299
 21
31.48434124486795
 31
0.0
  0
LINE
  5
CA
330
2
100
AcDbEntity
  8
GAIKEI
 62
     1
100
AcDbLine
 10
6.110399666487978
 20
31.41865338638954
 30
0.0
 11
6.17791877155895
 21
31.35117493364052
 31
0.0
  0
LINE
  5
CB
330
2
100
AcDbEntity
  8
GAIKEI
 62
     7
100
AcDbLine
 10
6.110440352882392
 20
31.41865335231714
 30
0.0
 11
6.110440225702802
 21
31.37030096844694
 31
0.0
  0
ARC
  5
CC
330
2
100
AcDbEntity
  8
GAIKEI
 62
     7
100
AcDbCircle
 10
6.24464387602768
 20
31.41771745803615
 30
0.0
 40
0.1342067864257195
100
AcDbArc
 50
97.21739309547105
 51
179.6004432531238
  0
ARC
  5
CD
330
2
100
AcDbEntity
  8
GAIKEI
 62
     1
100
AcDbCircle
 10
6.31059290010296
 20
31.35166708649189
 30
0.0
 40
0.1326750413579115
100
AcDbArc
 50
89.79096493632331
 51
180.2125369296195
  0
ARC
  5
CE
330
2
100
AcDbEntity
  8
GAIKEI
 62
     1
100
AcDbCircle
 10
6.326473146334365
 20
31.33578381787936
 30
0.0
 40
0.1253769819956731
100
AcDbArc
 50
86.30952065866793
 51
183.6868940004319
  0
LINE
  5
CF
330
2
100
AcDbEntity
  8
GAIKEI
 62
     1
100
AcDbLine
 10
6.334614223830186
 20
31.46090163013045
 30
0.0
 11
9.154261517914449
 21
31.46218755343895
 31
0.0
  0
ARC
  5
D0
330
2
100
AcDbEntity
  8
GAIKEI
 62
     7
100
AcDbCircle
 10
9.20508085173077
 20
31.41406648210466
 30
0.0
 40
0.1357373029648912
100
AcDbArc
 50
359.9332968071163
 51
89.64998340448273
  0
ARC
  5
D1
330
2
100
AcDbEntity
  8
GAIKEI
 62
     1
100
AcDbCircle
 10
9.174639261103152
 20
31.35219711840179
 30
0.0
 40
0.1347307982500144
100
AcDbArc
 50
0.0844690254387116
 51
98.73076176903744
  0
ARC
  5
D2
330
2
100
AcDbEntity
  8
GAIKEI
 62
     1
100
AcDbCircle
 10
9.161112087605943
 20
31.33728285879036
 30
0.0
 40
0.1250924180370581
100
AcDbArc
 50
355.8354739858283
 51
93.1393204935798
  0
LINE
  5
D3
330
2
100
AcDbEntity
  8
GAIKEI
 62
     1
100
AcDbLine
 10
9.285874215451542
 20
31.32819855882869
 30
0.0
 11
9.130114884964228
 21
31.1717861138614
 31
0.0
  0
LINE
  5
D4
330
2
100
AcDbEntity
  8
GAIKEI
 62
     1
100
AcDbLine
 10
9.154261517914449
 20
31.46218755343895
 30
0.0
 11
8.996787856111751
 21
31.30509619674055
 31
0.0
  0
ARC
  5
D5
330
2
100
AcDbEntity
  8
GAIKEI
 62
     1
100
AcDbCircle
 10
8.978087817488187
 20
31.15305799774712
 30
0.0
 40
0.1531734756148903
100
AcDbArc
 50
7.01774138870646
 51
82.98572097067419
  0
LINE
  5
D6
330
2
100
AcDbEntity
  8
GAIKEI
 62
     1
100
AcDbLine
 10
6.49050395974794
 20
31.30508508462691
 30
0.0
 11
8.996792856562933
 21
31.30508508462691
 31
0.0
  0
LINE
  5
D7
330
2
100
AcDbEntity
  8
GAIKEI
 62
     1
100
AcDbLine
 10
6.31107694403127
 20
31.48434124486795
 30
0.0
 11
9.154188269118321
 21
31.48536672801271
 31
0.0
  0
LINE
  5
D8
330
2
100
AcDbEntity
  8
GAIKEI
 62
     7
100
AcDbLine
 10
6.227782886824684
 20
31.55086087156389
 30
0.0
 11
9.205910057888104
 21
31.5498012522755
 31
0.0
  0
LINE
  5
D9
330
2
100
AcDbEntity
  8
GAIKEI
  6
Continuous
 62
     7
100
AcDbLine
 10
5.840133617220885
 20
7.604356530633594
 30
0.0
 11
5.840133617220885
 21
7.55894322274932
 31
0.0
  0
SPLINE
  5
DA
330
2
100
AcDbEntity
  8
GAIKEI
  6
Continuous
 62
     1
100
AcDbSpline
210
0.0
220
0.0
230
1.0
 70
     8
 71
     3
 72
    19
 73
    15
 74
    13
 42
0.0000000001
 43
0.0000000001
 44
0.000001
 12
0.995529879347374
 22
0.094447124501506
 32
0.0
 13
0.0944908229060039
 23
0.9955257326591546
 33
0.0
 40
0.0
 40
0.0
 40
0.0
 40
0.0
 40
0.0114746607579981
 40
0.0229538204374351
 40
0.0343591230296492
 40
0.0457936629856772
 40
0.0572035280089124
 40
0.0746287115524924
 40
0.0920556101582562
 40
0.1090656328910582
 40
0.1260693628544734
 40
0.1369222365398664
 40
0.1478018299472049
 40
0.1586464376139938
 40
0.1586464376139938
 40
0.1586464376139938
 40
0.1586464376139938
 10
5.642749027218172
 20
7.518949480072535
 30
0.0
 10
5.646556816431498
 20
7.519310729643621
 30
0.0
 10
5.654141963189687
 20
7.520447985628948
 30
0.0
 10
5.665228690629291
 20
7.523406982971437
 30
0.0
 10
5.675932062447145
 20
7.527499921732015
 30
0.0
 10
5.686156493163196
 20
7.532619907239734
 30
0.0
 10
5.697548698875792
 20
7.539754060044344
 30
0.0
 10
5.70959587405629
 20
7.549466334064334
 30
0.0
 10
5.721467146443728
 20
7.562109806914378
 30
0.0
 10
5.731375235135757
 20
7.576170023142083
 30
0.0
 10
5.738227469386288
 20
7.589526570879002
 30
0.0
 10
5.74266812604317
 20
7.601670961178712
 30
0.0
 10
5.745385136041448
 20
7.612203807357644
 30
0.0
 10
5.746440607770182
 20
7.619383937261062
 30
0.0
 10
5.746782179737692
 20
7.622982632592027
 30
0.0
 11
5.642749027218172
 21
7.518949480072535
 31
0.0
 11
5.654096787135074
 21
7.52065722193646
 31
0.0
 11
5.665191371173989
 21
7.523604099834699
 31
0.0
 11
5.675847894202718
 21
7.527668636446946
 31
0.0
 11
5.686075415195375
 21
7.532781993048786
 31
0.0
 11
5.695746446283749
 21
7.538836273788774
 31
0.0
 11
5.709321711559198
 21
7.549760298629337
 31
0.0
 11
5.721242805675274
 21
7.562470972108485
 31
0.0
 11
5.731037117774434
 21
7.576378011479391
 31
0.0
 11
5.738771555385767
 21
7.591520852810162
 31
0.0
 11
5.742495832065571
 21
7.601714729542038
 31
0.0
 11
5.745198665460065
 21
7.612253357166821
 31
0.0
 11
5.746782179737692
 21
7.622982632592027
 31
0.0
  0
SPLINE
  5
DB
330
2
100
AcDbEntity
  8
GAIKEI
  6
Continuous
 62
     1
100
AcDbSpline
210
0.0
220
0.0
230
1.0
 70
     8
 71
     3
 72
    19
 73
    15
 74
    13
 42
0.0000000001
 43
0.0000000001
 44
0.000001
 12
-0.0944471245025447
 22
0.9955298793472755
 32
0.0
 13
-0.9955257326591482
 23
0.0944908229060694
 33
0.0
 40
0.0
 40
0.0
 40
0.0
 40
0.0
 40
0.0114746607580198
 40
0.0229538204373652
 40
0.0343591230295508
 40
0.0457936629856297
 40
0.0572035280088288
 40
0.0746287115525418
 40
0.092055610158226
 40
0.1090656328910292
 40
0.1260693628544442
 40
0.136922236539876
 40
0.1478018299471185
 40
0.1586464376139896
 40
0.1586464376139896
 40
0.1586464376139896
 40
0.1586464376139896
 10
5.746782179737692
 20
31.36179076537684
 30
0.0
 10
5.746420930166607
 20
31.36559855459018
 30
0.0
 10
5.745283674181351
 20
31.37318370134833
 30
0.0
 10
5.742324676838691
 20
31.38427042878789
 30
0.0
 10
5.738231738078269
 20
31.39497380060573
 30
0.0
 10
5.733111752570565
 20
31.4051982313218
 30
0.0
 10
5.725977599765812
 20
31.41659043703441
 30
0.0
 10
5.716265325745922
 20
31.42863761221494
 30
0.0
 10
5.703621852895821
 20
31.44050888460234
 30
0.0
 10
5.68956163666813
 20
31.45041697329447
 30
0.0
 10
5.676205088931254
 20
31.45726920754493
 30
0.0
 10
5.664060698631431
 20
31.46170986420168
 30
0.0
 10
5.653527852452626
 20
31.46442687420017
 30
0.0
 10
5.646347722549165
 20
31.46548234592882
 30
0.0
 10
5.642749027218172
 20
31.46582391789633
 30
0.0
 11
5.746782179737692
 21
31.36179076537684
 31
0.0
 11
5.745074437873824
 21
31.37313852529377
 31
0.0
 11
5.7421275599755
 21
31.38423310933257
 31
0.0
 11
5.738063023363281
 21
31.3948896323613
 31
0.0
 11
5.732949666761442
 21
31.40511715335402
 31
0.0
 11
5.726895386021453
 21
31.41478818444233
 31
0.0
 11
5.715971361180834
 21
31.42836344971789
 31
0.0
 11
5.703260687701742
 21
31.44028454383391
 31
0.0
 11
5.689353648330836
 21
31.4500788559331
 31
0.0
 11
5.674210807000065
 21
31.4578132935444
 31
0.0
 11
5.664016930268132
 21
31.46153757022415
 31
0.0
 11
5.653478302643463
 21
31.4642404036187
 31
0.0
 11
5.642749027218172
 21
31.46582391789633
 31
0.0
  0
SPLINE
  5
DC
330
2
100
AcDbEntity
  8
GAIKEI
  6
Continuous
 62
     1
100
AcDbSpline
210
0.0
220
0.0
230
1.0
 70
     8
 71
     3
 72
    21
 73
    17
 74
    15
 42
0.0000000001
 43
0.0000000001
 44
0.000001
 12
0.9999999888881687
 22
0.0001490760296198
 32
0.0
 13
-0.0007086550231108
 23
-0.9999997489039975
 33
0.0
 40
0.0
 40
0.0
 40
0.0
 40
0.0
 40
0.0146800531684205
 40
0.0294098671610019
 40
0.0440944857460528
 40
0.0587961819046147
 40
0.0735433082182909
 40
0.0882452749644459
 40
0.1031289863564321
 40
0.1180596885229707
 40
0.1329432357531344
 40
0.1478756372180296
 40
0.1628556352591235
 40
0.1777879301771962
 40
0.1934470599829277
 40
0.2091023769871576
 40
0.2091023769871576
 40
0.2091023769871576
 40
0.2091023769871576
 10
5.639456404016982
 20
31.49166057740052
 30
0.0
 10
5.644349755018751
 20
31.49166130688187
 30
0.0
 10
5.65416199761978
 20
31.49112771725939
 30
0.0
 10
5.668688223860584
 20
31.48870920101342
 30
0.0
 10
5.682873997310665
 20
31.48471898193932
 30
0.0
 10
5.696521554740314
 20
31.479144943617
 30
0.0
 10
5.709482143798112
 20
31.47211226787451
 30
0.0
 10
5.721649540795723
 20
31.46367182620023
 30
0.0
 10
5.732826980227031
 20
31.45386385059928
 30
0.0
 10
5.742893999506478
 20
31.44283975045022
 30
0.0
 10
5.7516946106673
 20
31.43075777427282
 30
0.0
 10
5.75906147249239
 20
31.41773265146265
 30
0.0
 10
5.764945258040214
 20
31.40395813384055
 30
0.0
 10
5.769330150908189
 20
31.38938006525569
 30
0.0
 10
5.772019192465805
 20
31.3741652054006
 30
0.0
 10
5.772622537314902
 20
31.36371657986669
 30
0.0
 10
5.772618839241886
 20
31.35849814217562
 30
0.0
 11
5.639456404016982
 21
31.49166057740052
 31
0.0
 11
5.654115201725744
 21
31.49086045120095
 31
0.0
 11
5.668645615739706
 21
31.48844491715539
 31
0.0
 11
5.682778724343336
 21
31.48445822043567
 31
0.0
 11
5.696393067683345
 21
31.47890932302426
 31
0.0
 11
5.709355041729793
 21
31.47187614357444
 31
0.0
 11
5.721429609498898
 21
31.46348845866362
 31
0.0
 11
5.732623719587934
 21
31.45367941055094
 31
0.0
 11
5.742691887926014
 21
31.44265405310063
 31
0.0
 11
5.751446333855994
 21
31.43061742915035
 31
0.0
 11
5.758806533879521
 21
31.41762494447295
 31
0.0
 11
5.764689833698241
 21
31.4038485976817
 31
0.0
 11
5.768983474656067
 21
31.38954689114866
 31
0.0
 11
5.771715763529243
 21
31.37412796321536
 31
0.0
 11
5.772618839241886
 21
31.35849814217562
 31
0.0
  0
SPLINE
  5
DD
330
2
100
AcDbEntity
  8
GAIKEI
  6
Continuous
 62
     1
100
AcDbSpline
210
0.0
220
0.0
230
1.0
 70
     8
 71
     3
 72
    21
 73
    17
 74
    15
 42
0.0000000001
 43
0.0000000001
 44
0.000001
 12
0.0001490760298766
 22
-0.9999999888881687
 32
0.0
 13
-0.9999997489039975
 23
0.0007086550233522
 33
0.0
 40
0.0
 40
0.0
 40
0.0
 40
0.0
 40
0.0146800531684174
 40
0.0294098671609965
 40
0.0440944857461175
 40
0.0587961819047032
 40
0.0735433082183534
 40
0.0882452749645085
 40
0.1031289863565027
 40
0.1180596885229879
 40
0.1329432357532299
 40
0.1478756372181462
 40
0.1628556352591916
 40
0.1777879301773215
 40
0.1934470599829845
 40
0.2091023769872011
 40
0.2091023769872011
 40
0.2091023769872011
 40
0.2091023769872011
 10
5.772618839241886
 20
7.626275255793245
 30
0.0
 10
5.772619568723229
 20
7.621381904791491
 30
0.0
 10
5.772085979100793
 20
7.611569662190419
 30
0.0
 10
5.769667462854854
 20
7.597043435949615
 30
0.0
 10
5.765677243780714
 20
7.582857662499577
 30
0.0
 10
5.760103205458364
 20
7.569210105069856
 30
0.0
 10
5.753070529715898
 20
7.556249516012059
 30
0.0
 10
5.744630088041532
 20
7.544082119014404
 30
0.0
 10
5.734822112440696
 20
7.53290467958314
 30
0.0
 10
5.723798012291581
 20
7.522837660303594
 30
0.0
 10
5.711716036114097
 20
7.514037049142984
 30
0.0
 10
5.698690913304062
 20
7.506670187317752
 30
0.0
 10
5.684916395681781
 20
7.500786401770085
 30
0.0
 10
5.670338327097027
 20
7.496401508901925
 30
0.0
 10
5.655123467241949
 20
7.493712467344465
 30
0.0
 10
5.644674841708052
 20
7.493109122495326
 30
0.0
 10
5.639456404016982
 20
7.493112820568342
 30
0.0
 11
5.772618839241886
 21
7.626275255793245
 31
0.0
 11
5.771818713042364
 21
7.611616458084483
 31
0.0
 11
5.76940317899681
 21
7.597086044070522
 31
0.0
 11
5.765416482277032
 21
7.582952935466835
 31
0.0
 11
5.759867584865617
 21
7.569338592126825
 31
0.0
 11
5.752834405415796
 21
7.556376618080378
 31
0.0
 11
5.744446720504981
 21
7.544302050311273
 31
0.0
 11
5.734637672392267
 21
7.533107940222237
 31
0.0
 11
5.723612314942045
 21
7.523039771884157
 31
0.0
 11
5.711575690991651
 21
7.514285325954233
 31
0.0
 11
5.698583206314253
 21
7.506925125930649
 31
0.0
 11
5.684806859523035
 21
7.501041826111986
 31
0.0
 11
5.67050515298996
 21
7.496748185154103
 31
0.0
 11
5.65508622505672
 21
7.494015896280984
 31
0.0
 11
5.639456404016982
 21
7.493112820568342
 31
0.0
  0
LINE
  5
DE
330
2
100
AcDbEntity
  8
GAIKEI
  6
Continuous
 62
     1
100
AcDbLine
 10
5.593232815070678
 20
31.17946495398542
 30
0.0
 11
5.593232815070678
 21
7.80530844398342
 31
0.0
  0
LINE
  5
DF
330
2
100
AcDbEntity
  8
GAIKEI
  6
Continuous
 62
     1
100
AcDbLine
 10
5.593232815070678
 20
7.80530844398342
 30
0.0
 11
5.749197104787128
 21
7.64934415426697
 31
0.0
  0
LINE
  5
E0
330
2
100
AcDbEntity
  8
GAIKEI
  6
Continuous
 62
     1
100
AcDbLine
 10
5.616387505543229
 20
7.516534555023071
 30
0.0
 11
5.46042321582675
 21
7.67249884473955
 31
0.0
  0
LINE
  5
E1
330
2
100
AcDbEntity
  8
GAIKEI
  6
Continuous
 62
     1
100
AcDbLine
 10
5.46042321582675
 20
31.31227455322932
 30
0.0
 11
5.616387505543229
 21
31.4682388429458
 31
0.0
  0
LINE
  5
E2
330
2
100
AcDbEntity
  8
GAIKEI
  6
Continuous
 62
     1
100
AcDbLine
 10
5.749197104787128
 20
31.33542924370189
 30
0.0
 11
5.593232815070678
 21
31.17946495398542
 31
0.0
  0
LINE
  5
E3
330
2
100
AcDbEntity
  8
GAIKEI
  6
Continuous
 62
     1
100
AcDbLine
 10
5.749197104787128
 20
7.64934415426697
 30
0.0
 11
5.749197104787128
 21
31.33542924370189
 31
0.0
  0
LINE
  5
E4
330
2
100
AcDbEntity
  8
GAIKEI
  6
Continuous
 62
     1
100
AcDbLine
 10
5.772571114744806
 20
31.33542924370189
 30
0.0
 11
5.772571114744778
 21
7.624361668843704
 31
0.0
  0
LINE
  5
E5
330
2
100
AcDbEntity
  8
GAIKEI
  6
Continuous
 62
     1
100
AcDbLine
 10
5.840133483875689
 20
31.42601279144376
 30
0.0
 11
5.772618852319283
 21
31.35849812655104
 31
0.0
  0
LINE
  5
E6
330
2
100
AcDbEntity
  8
GAIKEI
  6
Continuous
 62
     1
100
AcDbLine
 10
5.639456388392432
 20
31.49166059047795
 30
0.0
 11
5.706971053285116
 21
31.55917522203438
 31
0.0
  0
LINE
  5
E7
330
2
100
AcDbEntity
  8
GAIKEI
  6
Continuous
 62
     1
100
AcDbLine
 10
5.706971053285116
 20
7.425598175934482
 30
0.0
 11
5.639456388392432
 21
7.493112807490916
 31
0.0
  0
LINE
  5
E8
330
2
100
AcDbEntity
  8
GAIKEI
  6
Continuous
 62
     1
100
AcDbLine
 10
5.772618852319283
 20
7.626275271417824
 30
0.0
 11
5.840133483875689
 21
7.558760606525083
 31
0.0
  0
LINE
  5
E9
330
2
100
AcDbEntity
  8
GAIKEI
  6
Continuous
 62
     7
100
AcDbLine
 10
5.840133617220885
 20
31.42583017521955
 30
0.0
 11
5.840133617220885
 21
31.37030096844697
 31
0.0
  0
ARC
  5
EA
330
2
100
AcDbEntity
  8
GAIKEI
  6
Continuous
 62
     7
100
AcDbCircle
 10
5.706788437060879
 20
31.42583017521955
 30
0.0
 40
0.133345180160005
100
AcDbArc
 50
0.0784680000127954
 51
89.92153200000023
  0
ARC
  5
EB
330
2
100
AcDbEntity
  8
GAIKEI
  6
Continuous
 62
     7
100
AcDbCircle
 10
5.706788437060879
 20
7.55894322274932
 30
0.0
 40
0.133345180160005
100
AcDbArc
 50
270.0784679999998
 51
359.9215319999871
  0
ARC
  5
EC
330
2
100
AcDbEntity
  8
GAIKEI
  6
Continuous
 62
   251
100
AcDbCircle
 10
5.706788437060879
 20
7.55894322274932
 30
0.0
 40
0.133345180160005
100
AcDbArc
 50
270.0
 51
270.0784679999998
  0
ARC
  5
ED
330
2
100
AcDbEntity
  8
GAIKEI
  6
Continuous
 62
   251
100
AcDbCircle
 10
5.706788437060879
 20
31.42583017521955
 30
0.0
 40
0.133345180160005
100
AcDbArc
 50
89.92153200000023
 51
90.0
  0
ARC
  5
EE
330
2
100
AcDbEntity
  8
GAIKEI
  6
Continuous
 62
   251
100
AcDbCircle
 10
5.706788437060879
 20
7.55894322274932
 30
0.0
 40
0.133345180160005
100
AcDbArc
 50
359.9215319999871
 51
0.0
  0
ARC
  5
EF
330
2
100
AcDbEntity
  8
GAIKEI
  6
Continuous
 62
   251
100
AcDbCircle
 10
5.706788437060879
 20
31.42583017521955
 30
0.0
 40
0.133345180160005
100
AcDbArc
 50
0.0
 51
0.0784680000127954
  0
ELLIPSE
  5
F0
330
2
100
AcDbEntity
  8
GAIKEI
  6
Continuous
 62
     1
100
AcDbEllipse
 10
5.167600333807115
 20
30.88664207196575
 30
0.0
 11
0.3876090726745502
 21
0.3876090726745502
 31
0.0
210
0.0
220
0.0
230
-1.0
 40
0.4561100000000735
 41
-0.3850537013367683
 42
0.3850537013367188
  0
ELLIPSE
  5
F1
330
2
100
AcDbEntity
  8
GAIKEI
  6
Continuous
 62
     1
100
AcDbEllipse
 10
5.167600333807115
 20
8.098131326003056
 30
0.0
 11
-0.3876090726745642
 21
0.3876090726745642
 31
0.0
210
0.0
220
0.0
230
-1.0
 40
0.4561099999999613
 41
2.756538952253047
 42
3.526646354926617
  0
ELLIPSE
  5
F2
330
2
100
AcDbEntity
  8
GAIKEI
  6
Continuous
 62
     1
100
AcDbEllipse
 10
5.735427881483786
 20
7.530303778326413
 30
0.0
 11
0.3230407423546608
 21
0.0305357091463026
 31
0.0
210
0.0
220
0.0
230
-1.0
 40
0.0083089999813824
 41
1.862565895610391
 42
1.948976068363679
  0
ELLIPSE
  5
F3
330
2
100
AcDbEntity
  8
GAIKEI
  6
Continuous
 62
     1
100
AcDbEllipse
 10
5.735427881483786
 20
7.530303778326413
 30
0.0
 11
0.030535709049866
 21
0.3230407412645782
 31
0.0
210
0.0
220
0.0
230
-1.0
 40
0.0083090000057778
 41
1.192616583886016
 42
1.279026756966244
  0
ELLIPSE
  5
F4
330
2
100
AcDbEntity
  8
GAIKEI
  6
Continuous
 62
     1
100
AcDbEllipse
 10
5.735427881483786
 20
31.45446961964245
 30
0.0
 11
-0.0305357090498701
 21
0.3230407412646186
 31
0.0
210
0.0
220
0.0
230
-1.0
 40
0.0083090000057821
 41
1.862565896623444
 42
1.948976069703653
  0
ELLIPSE
  5
F5
330
2
100
AcDbEntity
  8
GAIKEI
  6
Continuous
 62
     1
100
AcDbEllipse
 10
5.735427881483786
 20
31.45446961964245
 30
0.0
 11
-0.32304074235466
 21
0.0305357091463026
 31
0.0
210
0.0
220
0.0
230
-1.0
 40
0.0083089999813824
 41
1.192616585226102
 42
1.279026757979404
  0
ELLIPSE
  5
F6
330
2
100
AcDbEntity
  8
GAIKEI
  6
Continuous
 62
     1
100
AcDbEllipse
 10
5.735427881483786
 20
7.480367875189017
 30
0.0
 11
-0.2879170138799389
 21
0.0052978427250901
 31
0.0
210
0.0
220
0.0
230
-1.0
 40
0.0404429999981356
 41
1.143808393720369
 42
1.23021856671755
  0
ELLIPSE
  5
F7
330
2
100
AcDbEntity
  8
GAIKEI
  6
Continuous
 62
     1
100
AcDbEllipse
 10
5.735427881483786
 20
31.50440552277979
 30
0.0
 11
0.2879170138797296
 21
0.0052978427250935
 31
0.0
210
0.0
220
0.0
230
-1.0
 40
0.0404429999981596
 41
1.911374086872534
 42
1.997784259869754
  0
ELLIPSE
  5
F8
330
2
100
AcDbEntity
  8
GAIKEI
  6
Continuous
 62
     1
100
AcDbEllipse
 10
5.78536378462121
 20
31.45446961964245
 30
0.0
 11
0.0052978427251001
 21
0.2879170138793284
 31
0.0
210
0.0
220
0.0
230
-1.0
 40
0.0404429999982056
 41
4.285401047309302
 42
4.371811220306485
  0
LINE
  5
F9
330
2
100
AcDbEntity
  8
GAIKEI
  6
Continuous
 62
     1
100
AcDbLine
 10
6.153152412557801
 20
7.604356530633623
 30
0.0
 11
6.153152412557801
 21
7.624361668843704
 31
0.0
  0
LINE
  5
FA
330
2
100
AcDbEntity
  8
GAIKEI
  6
Continuous
 62
     1
100
AcDbLine
 10
6.173068098252997
 20
7.90956795589858
 30
0.0
 11
5.772571114744778
 21
7.90956795589858
 31
0.0
  0
LINE
  5
FB
330
2
100
AcDbEntity
  8
GAIKEI
  6
Continuous
 62
     1
100
AcDbLine
 10
6.357166652190386
 20
7.802909722011264
 30
0.0
 11
6.357166652190386
 21
31.17174805487215
 31
0.0
  0
LINE
  5
FC
330
2
100
AcDbEntity
  8
GAIKEI
  6
Continuous
100
AcDbLine
 10
9.340818061410459
 20
7.560757319306219
 30
0.0
 11
9.340818061410459
 21
31.41390851385955
 31
0.0
  0
LINE
  5
FD
330
2
100
AcDbEntity
  8
GAIKEI
  6
Continuous
 62
     1
100
AcDbLine
 10
9.130113773752896
 20
7.802893331643616
 30
0.0
 11
9.130113773752896
 21
31.17177222371933
 31
0.0
  0
LINE
  5
FE
330
2
100
AcDbEntity
  8
GAIKEI
  6
Continuous
 62
     1
100
AcDbLine
 10
9.309369912937825
 20
31.35239574690809
 30
0.0
 11
9.309369912937768
 21
7.622261831610387
 31
0.0
  0
LINE
  5
FF
330
2
100
AcDbEntity
  8
GAIKEI
  6
Continuous
 62
     1
100
AcDbLine
 10
9.285922275343096
 20
7.646458384646194
 30
0.0
 11
9.285922275343096
 21
31.32820744851961
 31
0.0
  0
LINE
  5
100
330
2
100
AcDbEntity
  8
GAIKEI
  6
Continuous
 62
     1
100
AcDbLine
 10
6.201358428402983
 20
7.64701176790615
 30
0.0
 11
6.201358428402983
 21
31.32765406525965
 31
0.0
  0
LINE
  5
101
330
2
100
AcDbEntity
  8
GAIKEI
  6
Continuous
 62
     1
100
AcDbLine
 10
6.178000209898016
 20
7.618656025871302
 30
0.0
 11
6.177918771559006
 21
31.35117493364052
 31
0.0
  0
LINE
  5
102
330
2
100
AcDbEntity
  8
GAIKEI
  6
Continuous
 62
     1
100
AcDbLine
 10
5.772571114744778
 20
31.06508954318198
 30
0.0
 11
6.178000209898016
 21
31.06508954318198
 31
0.0
  0
LINE
  5
103
330
2
100
AcDbEntity
  8
GAIKEI
  6
Continuous
100
AcDbLine
 10
6.17792432580012
 20
7.624361668843704
 30
0.0
 11
5.772571114744778
 21
7.624361668843704
 31
0.0
  0
LINE
  5
104
330
2
100
AcDbEntity
  8
GAIKEI
  6
Continuous
 62
     7
100
AcDbLine
 10
5.785150519196918
 20
31.37030096844697
 30
0.0
 11
6.153152412557801
 21
31.37030096844694
 31
0.0
  0
LINE
  5
105
330
2
100
AcDbEntity
  8
GAIKEI
  6
Continuous
 62
     1
100
AcDbLine
 10
5.785151147597844
 20
7.604356530633623
 30
0.0
 11
6.153152412557801
 21
7.604356530633623
 31
0.0
  0
LINE
  5
106
330
2
100
AcDbEntity
  8
GAIKEI
100
AcDbLine
 10
-34.76370802246413
 20
7.556006057310895
 30
0.0
 11
-34.76375636015854
 21
7.604356530633623
 31
0.0
  0
ARC
  5
107
330
2
100
AcDbEntity
  8
GAIKEI
 62
     1
100
AcDbCircle
 10
-35.15757697172552
 20
7.816722353315952
 30
0.0
 40
0.1477898521857294
100
AcDbArc
 50
275.3395407269481
 51
354.6372035467177
  0
LINE
  5
108
330
2
100
AcDbEntity
  8
GAIKEI
 62
     1
100
AcDbLine
 10
-35.01048306444898
 20
7.802917778293675
 30
0.0
 11
-34.85467484066158
 21
7.646956207337865
 31
0.0
  0
LINE
  5
109
330
2
100
AcDbEntity
  8
GAIKEI
 62
     1
100
AcDbLine
 10
-34.98786269029057
 20
7.513765579680494
 30
0.0
 11
-35.1438239834435
 21
7.669573803467869
 31
0.0
  0
ARC
  5
10A
330
2
100
AcDbEntity
  8
GAIKEI
 62
     1
100
AcDbCircle
 10
-34.97979486754571
 20
7.638872611692562
 30
0.0
 40
0.1253808822988622
100
AcDbArc
 50
266.2796801161945
 51
3.696555424064399
  0
ARC
  5
10B
330
2
100
AcDbEntity
  8
GAIKEI
 62
     1
100
AcDbCircle
 10
-34.96662360222484
 20
7.624108939399491
 30
0.0
 40
0.1353901447901534
100
AcDbArc
 50
260.9455502991961
 51
359.7349573645162
  0
ARC
  5
10C
330
2
100
AcDbEntity
  8
GAIKEI
100
AcDbCircle
 10
-34.89785476891706
 20
7.556903244654336
 30
0.0
 40
0.134101295133962
100
AcDbArc
 50
270.4086267862511
 51
359.6158847768076
  0
LINE
  5
10D
330
2
100
AcDbEntity
  8
GAIKEI
 62
     1
100
AcDbLine
 10
-37.78343018601146
 20
7.802882497332802
 30
0.0
 11
-37.93918979430163
 21
7.646470330168369
 31
0.0
  0
LINE
  5
10E
330
2
100
AcDbEntity
  8
GAIKEI
 62
     1
100
AcDbLine
 10
-37.65010899101867
 20
7.669578248313342
 30
0.0
 11
-37.80765014893024
 21
7.512483797370578
 31
0.0
  0
ARC
  5
10F
330
2
100
AcDbEntity
  8
GAIKEI
 62
     1
100
AcDbCircle
 10
-37.63139701179284
 20
7.821605310869415
 30
0.0
 40
0.153180089303778
100
AcDbArc
 50
187.0165901477159
 51
262.9834098522726
  0
ARC
  5
110
330
2
100
AcDbEntity
  8
GAIKEI
 62
     1
100
AcDbCircle
 10
-37.81443126850229
 20
7.637410121307112
 30
0.0
 40
0.1251102313759695
100
AcDbArc
 50
175.8526305486517
 51
273.1070202196272
  0
ARC
  5
111
330
2
100
AcDbEntity
  8
GAIKEI
 62
     1
100
AcDbCircle
 10
-37.8303426457145
 20
7.621479982487102
 30
0.0
 40
0.1323457111357501
100
AcDbArc
 50
179.6615159254603
 51
270.3104545859303
  0
ARC
  5
112
330
2
100
AcDbEntity
  8
GAIKEI
100
AcDbCircle
 10
-37.85841100151794
 20
7.560585321404005
 30
0.0
 40
0.1357233045560985
100
AcDbArc
 50
179.9274162080465
 51
269.6558640035523
  0
LINE
  5
113
330
2
100
AcDbEntity
  8
GAIKEI
100
AcDbLine
 10
-34.89689024354504
 20
7.422846053729074
 30
0.0
 11
-37.85922619234384
 21
7.424864464998108
 31
0.0
  0
LINE
  5
114
330
2
100
AcDbEntity
  8
GAIKEI
 62
     1
100
AcDbLine
 10
-34.98793035828595
 20
7.490405859956837
 30
0.0
 11
-37.82962553998266
 21
7.489136214158548
 31
0.0
  0
LINE
  5
115
330
2
100
AcDbEntity
  8
GAIKEI
 62
     1
100
AcDbLine
 10
-34.98793035828595
 20
7.513755948388052
 30
0.0
 11
-37.80757765237019
 21
7.512470025079551
 31
0.0
  0
LINE
  5
116
330
2
100
AcDbEntity
  8
GAIKEI
 62
     1
100
AcDbLine
 10
-35.14382009420371
 20
7.669572414453654
 30
0.0
 11
-37.65010899101867
 21
7.669572414453654
 31
0.0
  0
ARC
  5
117
330
2
100
AcDbEntity
  8
GAIKEI
 62
     1
100
AcDbCircle
 10
-35.15751891391102
 20
31.15804463713804
 30
0.0
 40
0.1476771846261403
100
AcDbArc
 50
5.32896498196785
 51
84.6774814109821
  0
LINE
  5
118
330
2
100
AcDbEntity
  8
GAIKEI
 62
     1
100
AcDbLine
 10
-34.85467178483037
 20
31.32772157135011
 30
0.0
 11
-35.01048000861772
 21
31.17176000039433
 31
0.0
  0
LINE
  5
119
330
2
100
AcDbEntity
  8
GAIKEI
 62
     1
100
AcDbLine
 10
-34.98785935665643
 20
31.46090080909099
 30
0.0
 11
-35.14382064980941
 21
31.30509258530361
 31
0.0
  0
LINE
  5
11A
330
2
100
AcDbEntity
  8
GAIKEI
 62
     1
100
AcDbLine
 10
-34.89689024354504
 20
31.55181966354457
 30
0.0
 11
-34.96439307848703
 21
31.48434124486795
 31
0.0
  0
LINE
  5
11B
330
2
100
AcDbEntity
  8
GAIKEI
 62
     1
100
AcDbLine
 10
-34.76371580094371
 20
31.41865338638954
 30
0.0
 11
-34.83123490601469
 21
31.35117493364052
 31
0.0
  0
LINE
  5
11C
330
2
100
AcDbEntity
  8
GAIKEI
 62
     7
100
AcDbLine
 10
-34.76375648733813
 20
31.41865335231714
 30
0.0
 11
-34.76375636015854
 21
31.37030096844694
 31
0.0
  0
ARC
  5
11D
330
2
100
AcDbEntity
  8
GAIKEI
 62
     7
100
AcDbCircle
 10
-34.89796001048342
 20
31.41771745803615
 30
0.0
 40
0.1342067864257195
100
AcDbArc
 50
0.3995567468761617
 51
82.78260690452894
  0
ARC
  5
11E
330
2
100
AcDbEntity
  8
GAIKEI
 62
     1
100
AcDbCircle
 10
-34.9639090345587
 20
31.35166708649189
 30
0.0
 40
0.1326750413579115
100
AcDbArc
 50
359.7874630703805
 51
90.2090350636767
  0
ARC
  5
11F
330
2
100
AcDbEntity
  8
GAIKEI
 62
     1
100
AcDbCircle
 10
-34.9797892807901
 20
31.33578381787936
 30
0.0
 40
0.1253769819956731
100
AcDbArc
 50
356.3131059995681
 51
93.69047934133206
  0
LINE
  5
120
330
2
100
AcDbEntity
  8
GAIKEI
 62
     1
100
AcDbLine
 10
-34.98793035828595
 20
31.46090163013045
 30
0.0
 11
-37.80757765237019
 21
31.46218755343895
 31
0.0
  0
ARC
  5
121
330
2
100
AcDbEntity
  8
GAIKEI
 62
     7
100
AcDbCircle
 10
-37.85839698618651
 20
31.41406648210466
 30
0.0
 40
0.1357373029648912
100
AcDbArc
 50
90.35001659551728
 51
180.0667031928837
  0
ARC
  5
122
330
2
100
AcDbEntity
  8
GAIKEI
 62
     1
100
AcDbCircle
 10
-37.82795539555889
 20
31.35219711840179
 30
0.0
 40
0.1347307982500144
100
AcDbArc
 50
81.26923823096257
 51
179.9155309745612
  0
ARC
  5
123
330
2
100
AcDbEntity
  8
GAIKEI
 62
     1
100
AcDbCircle
 10
-37.81442822206168
 20
31.33728285879036
 30
0.0
 40
0.1250924180370581
100
AcDbArc
 50
86.86067950642021
 51
184.1645260141716
  0
LINE
  5
124
330
2
100
AcDbEntity
  8
GAIKEI
 62
     1
100
AcDbLine
 10
-37.93919034990728
 20
31.32819855882869
 30
0.0
 11
-37.78343101941999
 21
31.1717861138614
 31
0.0
  0
LINE
  5
125
330
2
100
AcDbEntity
  8
GAIKEI
 62
     1
100
AcDbLine
 10
-37.80757765237019
 20
31.46218755343895
 30
0.0
 11
-37.65010399056752
 21
31.30509619674055
 31
0.0
  0
ARC
  5
126
330
2
100
AcDbEntity
  8
GAIKEI
 62
     1
100
AcDbCircle
 10
-37.63140395194393
 20
31.15305799774712
 30
0.0
 40
0.1531734756148903
100
AcDbArc
 50
97.01427902932582
 51
172.9822586112935
  0
LINE
  5
127
330
2
100
AcDbEntity
  8
GAIKEI
 62
     1
100
AcDbLine
 10
-35.14382009420371
 20
31.30508508462691
 30
0.0
 11
-37.65010899101867
 21
31.30508508462691
 31
0.0
  0
LINE
  5
128
330
2
100
AcDbEntity
  8
GAIKEI
 62
     1
100
AcDbLine
 10
-34.96439307848703
 20
31.48434124486795
 30
0.0
 11
-37.80750440357406
 21
31.48536672801271
 31
0.0
  0
LINE
  5
129
330
2
100
AcDbEntity
  8
GAIKEI
 62
     7
100
AcDbLine
 10
-34.88109902128042
 20
31.55086087156389
 30
0.0
 11
-37.85922619234384
 21
31.5498012522755
 31
0.0
  0
LINE
  5
12A
330
2
100
AcDbEntity
  8
GAIKEI
  6
Continuous
 62
     7
100
AcDbLine
 10
-34.49344975167662
 20
7.604356530633594
 30
0.0
 11
-34.49344975167662
 21
7.55894322274932
 31
0.0
  0
SPLINE
  5
12B
330
2
100
AcDbEntity
  8
GAIKEI
  6
Continuous
 62
     1
100
AcDbSpline
210
0.0
220
0.0
230
1.0
 70
     8
 71
     3
 72
    19
 73
    15
 74
    13
 42
0.0000000001
 43
0.0000000001
 44
0.000001
 12
-0.995529879347374
 22
0.0944471245015059
 32
0.0
 13
-0.0944908229060039
 23
0.9955257326591546
 33
0.0
 40
0.0
 40
0.0
 40
0.0
 40
0.0
 40
0.011474660757977
 40
0.0229538204373591
 40
0.0343591230295665
 40
0.0457936629856709
 40
0.0572035280088338
 40
0.0746287115524801
 40
0.0920556101581468
 40
0.1090656328910265
 40
0.1260693628544481
 40
0.1369222365398095
 40
0.1478018299471356
 40
0.1586464376139317
 40
0.1586464376139317
 40
0.1586464376139317
 40
0.1586464376139317
 10
-34.296065161674
 20
7.518949480072535
 30
0.0
 10
-34.29987295088731
 20
7.519310729643621
 30
0.0
 10
-34.30745809764548
 20
7.520447985629004
 30
0.0
 10
-34.31854482508504
 20
7.52340698297138
 30
0.0
 10
-34.32924819690292
 20
7.527499921732015
 30
0.0
 10
-34.33947262761897
 20
7.532619907239649
 30
0.0
 10
-34.35086483333156
 20
7.539754060044458
 30
0.0
 10
-34.36291200851211
 20
7.54946633406422
 30
0.0
 10
-34.3747832808994
 20
7.562109806914492
 30
0.0
 10
-34.3846913695916
 20
7.576170023142054
 30
0.0
 10
-34.39154360384214
 20
7.589526570878888
 30
0.0
 10
-34.39598426049891
 20
7.601670961178825
 30
0.0
 10
-34.39870127049709
 20
7.612203807357587
 30
0.0
 10
-34.39975674222592
 20
7.619383937261062
 30
0.0
 10
-34.40009831419343
 20
7.622982632592027
 30
0.0
 11
-34.296065161674
 21
7.518949480072535
 31
0.0
 11
-34.30741292159087
 21
7.52065722193646
 31
0.0
 11
-34.31850750562972
 21
7.523604099834699
 31
0.0
 11
-34.32916402865846
 21
7.527668636446946
 31
0.0
 11
-34.3393915496512
 21
7.532781993048786
 31
0.0
 11
-34.34906258073949
 21
7.538836273788774
 31
0.0
 11
-34.36263784601502
 21
7.549760298629337
 31
0.0
 11
-34.37455894013095
 21
7.562470972108485
 31
0.0
 11
-34.38435325223025
 21
7.576378011479391
 31
0.0
 11
-34.39208768984159
 21
7.591520852810162
 31
0.0
 11
-34.39581196652131
 21
7.601714729542038
 31
0.0
 11
-34.39851479991574
 21
7.612253357166821
 31
0.0
 11
-34.40009831419343
 21
7.622982632592027
 31
0.0
  0
SPLINE
  5
12C
330
2
100
AcDbEntity
  8
GAIKEI
  6
Continuous
 62
     1
100
AcDbSpline
210
0.0
220
0.0
230
1.0
 70
     8
 71
     3
 72
    19
 73
    15
 74
    13
 42
0.0000000001
 43
0.0000000001
 44
0.000001
 12
0.0944471245025448
 22
0.9955298793472755
 32
0.0
 13
0.9955257326591482
 23
0.0944908229060694
 33
0.0
 40
0.0
 40
0.0
 40
0.0
 40
0.0
 40
0.0114746607580188
 40
0.0229538204373441
 40
0.0343591230295601
 40
0.0457936629856676
 40
0.0572035280088666
 40
0.0746287115525396
 40
0.0920556101582237
 40
0.109065632891027
 40
0.1260693628544419
 40
0.1369222365398204
 40
0.1478018299471179
 40
0.1586464376139047
 40
0.1586464376139047
 40
0.1586464376139047
 40
0.1586464376139047
 10
-34.40009831419343
 20
31.36179076537684
 30
0.0
 10
-34.39973706462235
 20
31.36559855459018
 30
0.0
 10
-34.39859980863708
 20
31.3731837013483
 30
0.0
 10
-34.39564081129456
 20
31.38427042878794
 30
0.0
 10
-34.39154787253399
 20
31.39497380060567
 30
0.0
 10
-34.38642788702625
 20
31.40519823132175
 30
0.0
 10
-34.37929373422148
 20
31.41659043703441
 30
0.0
 10
-34.36958146020167
 20
31.42863761221491
 30
0.0
 10
-34.35693798735155
 20
31.44050888460237
 30
0.0
 10
-34.34287777112387
 20
31.45041697329444
 30
0.0
 10
-34.32952122338702
 20
31.45726920754493
 30
0.0
 10
-34.31737683308718
 20
31.46170986420174
 30
0.0
 10
-34.30684398690841
 20
31.46442687420015
 30
0.0
 10
-34.29966385700495
 20
31.46548234592882
 30
0.0
 10
-34.296065161674
 20
31.46582391789633
 30
0.0
 11
-34.40009831419343
 21
31.36179076537684
 31
0.0
 11
-34.39839057232956
 21
31.37313852529377
 31
0.0
 11
-34.39544369443132
 21
31.38423310933257
 31
0.0
 11
-34.39137915781902
 21
31.3948896323613
 31
0.0
 11
-34.38626580121712
 21
31.40511715335402
 31
0.0
 11
-34.38021152047713
 21
31.41478818444233
 31
0.0
 11
-34.36928749563657
 21
31.42836344971789
 31
0.0
 11
-34.35657682215748
 21
31.44028454383391
 31
0.0
 11
-34.34266978278657
 21
31.4500788559331
 31
0.0
 11
-34.3275269414558
 21
31.4578132935444
 31
0.0
 11
-34.31733306472393
 21
31.46153757022415
 31
0.0
 11
-34.3067944370992
 21
31.4642404036187
 31
0.0
 11
-34.296065161674
 21
31.46582391789633
 31
0.0
  0
SPLINE
  5
12D
330
2
100
AcDbEntity
  8
GAIKEI
  6
Continuous
 62
     1
100
AcDbSpline
210
0.0
220
0.0
230
1.0
 70
     8
 71
     3
 72
    19
 73
    15
 74
    13
 42
0.0000000001
 43
0.0000000001
 44
0.000001
 12
-0.2634414923284028
 22
0.9646753755122933
 32
0.0
 13
-0.9639886149825482
 23
0.2659435093850356
 33
0.0
 40
0.0
 40
0.0
 40
0.0
 40
0.0
 40
0.0080469836170571
 40
0.0160943919464247
 40
0.0243850109521451
 40
0.0326757504935622
 40
0.0406967337973208
 40
0.0487177849602449
 40
0.056985458941201
 40
0.0652530764933931
 40
0.0733066642993718
 40
0.0813601339664235
 40
0.0896586163757178
 40
0.0979566568646208
 40
0.0979566568646208
 40
0.0979566568646208
 40
0.0979566568646208
 10
4.157578280574796
 20
29.83527434268177
 30
0.0
 10
4.156871644117188
 20
29.83786191832928
 30
0.0
 10
4.155239241319975
 20
29.8429801204164
 30
0.0
 10
4.152127129261927
 20
29.85049903861721
 30
0.0
 10
4.148338012917974
 20
29.85779391808674
 30
0.0
 10
4.143932515858566
 20
29.86472342206338
 30
0.0
 10
4.138995876494362
 20
29.87117135599223
 30
0.0
 10
4.133535764936738
 20
29.87717209032993
 30
0.0
 10
4.127512644095546
 20
29.88273063774699
 30
0.0
 10
4.121018441430251
 20
29.88774845763453
 30
0.0
 10
4.114172644604778
 20
29.89214263065017
 30
0.0
 10
4.106970084041975
 20
29.89594603594361
 30
0.0
 10
4.099389830190432
 20
29.89914257334812
 30
0.0
 10
4.094118121121866
 20
29.90084669366595
 30
0.0
 10
4.091451715602545
 20
29.90158229700217
 30
0.0
 11
4.157578280574796
 21
29.83527434268177
 31
0.0
 11
4.155134640276941
 21
29.84294173352868
 31
0.0
 11
4.152054979745571
 21
29.85037653961001
 31
0.0
 11
4.148234243294155
 21
29.8577342982133
 31
0.0
 11
4.14378460761219
 21
29.86472982681511
 31
0.0
 11
4.138909483597387
 21
29.87109925897636
 31
0.0
 11
4.133510220256255
 21
29.87703099999061
 31
0.0
 11
4.127435468836608
 21
29.88263922531883
 31
0.0
 11
4.120892461758842
 21
29.88769322531465
 31
0.0
 11
4.114115842308194
 21
29.89204500598356
 31
0.0
 11
4.106993880343623
 21
29.89580482894803
 31
0.0
 11
4.099348346680329
 21
29.89903135912101
 31
0.0
 11
4.091451715602545
 21
29.90158229700217
 31
0.0
  0
SPLINE
  5
12E
330
2
100
AcDbEntity
  8
GAIKEI
  6
Continuous
 62
     1
100
AcDbSpline
210
0.0
220
0.0
230
1.0
 70
     8
 71
     3
 72
    19
 73
    15
 74
    13
 42
0.0000000001
 43
0.0000000001
 44
0.000001
 12
0.2634414923284027
 22
0.9646753755122933
 32
0.0
 13
0.9639886149825482
 23
0.2659435093850356
 33
0.0
 40
0.0
 40
0.0
 40
0.0
 40
0.0
 40
0.0080469836170312
 40
0.0160943919464505
 40
0.0243850109521185
 40
0.0326757504935242
 40
0.0406967337973346
 40
0.0487177849602587
 40
0.0569854589411731
 40
0.0652530764933257
 40
0.0733066642993224
 40
0.0813601339664495
 40
0.0896586163756718
 40
0.0979566568646492
 40
0.0979566568646492
 40
0.0979566568646492
 40
0.0979566568646492
 10
-32.81089441503053
 20
29.83527434268177
 30
0.0
 10
-32.81018777857293
 20
29.83786191832928
 30
0.0
 10
-32.80855537577589
 20
29.8429801204164
 30
0.0
 10
-32.80544326371757
 20
29.85049903861719
 30
0.0
 10
-32.8016541473738
 20
29.85779391808674
 30
0.0
 10
-32.7972486503144
 20
29.86472342206344
 30
0.0
 10
-32.7923120109501
 20
29.87117135599218
 30
0.0
 10
-32.78685189939248
 20
29.87717209032988
 30
0.0
 10
-32.78082877855136
 20
29.88273063774696
 30
0.0
 10
-32.77433457588609
 20
29.88774845763453
 30
0.0
 10
-32.76748877906057
 20
29.89214263065014
 30
0.0
 10
-32.76028621849774
 20
29.89594603594347
 30
0.0
 10
-32.75270596464622
 20
29.89914257334817
 30
0.0
 10
-32.74743425557763
 20
29.90084669366595
 30
0.0
 10
-32.74476785005828
 20
29.90158229700217
 30
0.0
 11
-32.81089441503053
 21
29.83527434268177
 31
0.0
 11
-32.80845077473276
 21
29.84294173352868
 31
0.0
 11
-32.80537111420125
 21
29.85037653961001
 31
0.0
 11
-32.80155037774995
 21
29.8577342982133
 31
0.0
 11
-32.79710074206801
 21
29.86472982681511
 31
0.0
 11
-32.79222561805312
 21
29.87109925897636
 31
0.0
 11
-32.78682635471199
 21
29.87703099999061
 31
0.0
 11
-32.7807516032924
 21
29.88263922531883
 31
0.0
 11
-32.77420859621469
 21
29.88769322531465
 31
0.0
 11
-32.76743197676402
 21
29.89204500598356
 31
0.0
 11
-32.76031001479936
 21
29.89580482894803
 31
0.0
 11
-32.75266448113615
 21
29.89903135912101
 31
0.0
 11
-32.74476785005828
 21
29.90158229700217
 31
0.0
  0
SPLINE
  5
12F
330
2
100
AcDbEntity
  8
GAIKEI
  6
Continuous
 62
     1
100
AcDbSpline
210
0.0
220
0.0
230
1.0
 70
     8
 71
     3
 72
    19
 73
    15
 74
    13
 42
0.0000000001
 43
0.0000000001
 44
0.000001
 12
0.9639938394678312
 22
0.2659245710122878
 32
0.0
 13
0.26346002757732
 23
0.9646703135625964
 33
0.0
 40
0.0
 40
0.0
 40
0.0
 40
0.0
 40
0.008045564480749
 40
0.0160915728627866
 40
0.0243810347115023
 40
0.0326706179663714
 40
0.0406926484298874
 40
0.0487147353963753
 40
0.0569835490402506
 40
0.0652522942794803
 40
0.0733062202837214
 40
0.0813600285366941
 40
0.0896585537563003
 40
0.0979566571399965
 40
0.0979566571399965
 40
0.0979566571399965
 40
0.0979566571399965
 10
4.091451715602545
 20
9.083191100966644
 30
0.0
 10
4.094037007134033
 20
9.083904272061005
 30
0.0
 10
4.099150062174871
 20
9.085549688562849
 30
0.0
 10
4.10665947232718
 20
9.088681256238942
 30
0.0
 10
4.113943008926199
 20
9.092489476277222
 30
0.0
 10
4.120860111250948
 20
9.096913645200658
 30
0.0
 10
4.127294658254086
 20
9.101868240701634
 30
0.0
 10
4.133280972472945
 20
9.107345757577149
 30
0.0
 10
4.138823410932161
 20
9.113385203444579
 30
0.0
 10
4.143823602797766
 20
9.119894082279159
 30
0.0
 10
4.148199104035796
 20
9.126752533729927
 30
0.0
 10
4.151982909584774
 20
9.133965670044716
 30
0.0
 10
4.155159166263402
 20
9.141554588309531
 30
0.0
 10
4.156849541059358
 20
9.146830743956172
 30
0.0
 10
4.157578280574796
 20
9.149499055287208
 30
0.0
 11
4.091451715602545
 21
9.083191100966644
 31
0.0
 11
4.099111377406728
 21
9.085654242012708
 31
0.0
 11
4.106536693412351
 21
9.088753081532331
 31
0.0
 11
4.113883097286873
 21
9.092593108188282
 31
0.0
 11
4.120865491241772
 21
9.097061181754554
 31
0.0
 11
4.127222296797924
 21
9.101954475478294
 31
0.0
 11
4.133139766754027
 21
9.107370910004306
 31
0.0
 11
4.138731777948407
 21
9.113462137562862
 31
0.0
 11
4.143768188367687
 21
9.120020115541308
 31
0.0
 11
4.148101365662398
 21
9.126809046816788
 31
0.0
 11
4.151841875488628
 21
9.133941553331681
 31
0.0
 11
4.155047937316169
 21
9.141595738862235
 31
0.0
 11
4.157578280574796
 21
9.149499055287208
 31
0.0
  0
SPLINE
  5
130
330
2
100
AcDbEntity
  8
GAIKEI
  6
Continuous
 62
     1
100
AcDbSpline
210
0.0
220
0.0
230
1.0
 70
     8
 71
     3
 72
    19
 73
    15
 74
    13
 42
0.0000000001
 43
0.0000000001
 44
0.000001
 12
-0.9639938394678313
 22
0.2659245710122878
 32
0.0
 13
-0.26346002757732
 23
0.9646703135625964
 33
0.0
 40
0.0
 40
0.0
 40
0.0
 40
0.0
 40
0.0080455644808234
 40
0.0160915728627954
 40
0.0243810347115111
 40
0.0326706179663743
 40
0.0406926484298902
 40
0.0487147353963729
 40
0.056983549040253
 40
0.0652522942794827
 40
0.0733062202837238
 40
0.0813600285367493
 40
0.0896585537563555
 40
0.097956657140017
 40
0.097956657140017
 40
0.097956657140017
 40
0.097956657140017
 10
-32.74476785005828
 20
9.083191100966644
 30
0.0
 10
-32.7473531415898
 20
9.083904272061005
 30
0.0
 10
-32.75246619663066
 20
9.085549688562736
 30
0.0
 10
-32.75997560678294
 20
9.088681256239055
 30
0.0
 10
-32.76725914338194
 20
9.09248947627708
 30
0.0
 10
-32.77417624570666
 20
9.096913645200686
 30
0.0
 10
-32.78061079270985
 20
9.101868240701634
 30
0.0
 10
-32.78659710692865
 20
9.107345757577093
 30
0.0
 10
-32.79213954538793
 20
9.113385203444636
 30
0.0
 10
-32.79713973725351
 20
9.119894082279159
 30
0.0
 10
-32.80151523849154
 20
9.126752533729955
 30
0.0
 10
-32.80529904404061
 20
9.133965670044659
 30
0.0
 10
-32.80847530071931
 20
9.141554588309503
 30
0.0
 10
-32.8101656755151
 20
9.146830743956172
 30
0.0
 10
-32.81089441503053
 20
9.149499055287208
 30
0.0
 11
-32.74476785005828
 21
9.083191100966644
 31
0.0
 11
-32.75242751186255
 21
9.085654242012708
 31
0.0
 11
-32.75985282786809
 21
9.088753081532331
 31
0.0
 11
-32.76719923174261
 21
9.092593108188282
 31
0.0
 11
-32.77418162569751
 21
9.097061181754554
 31
0.0
 11
-32.78053843125366
 21
9.101954475478294
 31
0.0
 11
-32.78645590120977
 21
9.107370910004306
 31
0.0
 11
-32.79204791240414
 21
9.113462137562862
 31
0.0
 11
-32.79708432282343
 21
9.120020115541308
 31
0.0
 11
-32.80141750011813
 21
9.126809046816788
 31
0.0
 11
-32.80515800994448
 21
9.133941553331681
 31
0.0
 11
-32.80836407177202
 21
9.141595738862235
 31
0.0
 11
-32.81089441503053
 21
9.149499055287208
 31
0.0
  0
SPLINE
  5
131
330
2
100
AcDbEntity
  8
GAIKEI
  6
Continuous
 62
     1
100
AcDbSpline
210
0.0
220
0.0
230
1.0
 70
     8
 71
     3
 72
    14
 73
    10
 74
     8
 42
0.0000000001
 43
0.0000000001
 44
0.000001
 12
-0.2697836156325396
 22
-0.962920973255975
 32
0.0
 13
-0.9616843088117285
 23
-0.2741592423853477
 33
0.0
 40
0.0
 40
0.0
 40
0.0
 40
0.0
 40
0.0000378405968626
 40
0.0111891984537598
 40
0.0223415869632936
 40
0.0334914632170126
 40
0.0446413298613813
 40
0.055804098643053
 40
0.0669660519622803
 40
0.0669660519622803
 40
0.0669660519622803
 40
0.0669660519622803
 10
4.12771786535518
 20
9.158478548707478
 30
0.0
 10
4.12771446243083
 20
9.158466402872704
 30
0.0
 10
4.126707088211247
 20
9.154875299830393
 30
0.0
 10
4.124066738845314
 20
9.147867559508483
 30
0.0
 10
4.118434962438811
 20
9.138182939234582
 30
0.0
 10
4.111208414978605
 20
9.12961893089087
 30
0.0
 10
4.102655981463641
 20
9.12237443258715
 30
0.0
 10
4.09297724502305
 20
9.116716026488376
 30
0.0
 10
4.085976379949869
 20
9.114076159417805
 30
0.0
 10
4.082398288162266
 20
9.113056108529292
 30
0.0
 11
4.12771786535518
 21
9.158478548707478
 31
0.0
 11
4.127707645939779
 21
9.15844211382415
 31
0.0
 11
4.123787807414146
 21
9.148001867526375
 31
0.0
 11
4.118169320926483
 21
9.138368232441905
 31
0.0
 11
4.110988567361403
 21
9.129838468852597
 31
0.0
 11
4.102472985743219
 21
9.122640909727408
 31
0.0
 11
4.092841175390361
 21
9.116998617703472
 31
0.0
 11
4.082398288162266
 21
9.113056108529292
 31
0.0
  0
SPLINE
  5
132
330
2
100
AcDbEntity
  8
GAIKEI
  6
Continuous
 62
     1
100
AcDbSpline
210
0.0
220
0.0
230
1.0
 70
     8
 71
     3
 72
    14
 73
    10
 74
     8
 42
0.0000000001
 43
0.0000000001
 44
0.000001
 12
0.2697836156325394
 22
-0.962920973255975
 32
0.0
 13
0.9616843088117285
 23
-0.2741592423853477
 33
0.0
 40
0.0
 40
0.0
 40
0.0
 40
0.0
 40
0.0000378405968588
 40
0.011189198453761
 40
0.0223415869632267
 40
0.0334914632169961
 40
0.0446413298612996
 40
0.0558040986429714
 40
0.0669660519623316
 40
0.0669660519623316
 40
0.0669660519623316
 40
0.0669660519623316
 10
-32.78103399981086
 20
9.158478548707478
 30
0.0
 10
-32.78103059688651
 20
9.158466402872704
 30
0.0
 10
-32.7800232226692
 20
9.154875299830735
 30
0.0
 10
-32.7773828732999
 20
9.147867559508341
 30
0.0
 10
-32.77175109689496
 20
9.138182939234582
 30
0.0
 10
-32.76452454943425
 20
9.129618930890899
 30
0.0
 10
-32.75597211591949
 20
9.12237443258715
 30
0.0
 10
-32.74629337947882
 20
9.116716026488262
 30
0.0
 10
-32.73929251440558
 20
9.114076159417805
 30
0.0
 10
-32.73571442261795
 20
9.113056108529292
 30
0.0
 11
-32.78103399981086
 21
9.158478548707478
 31
0.0
 11
-32.78102378039552
 21
9.15844211382415
 31
0.0
 11
-32.77710394186982
 21
9.148001867526375
 31
0.0
 11
-32.7714854553823
 21
9.138368232441905
 31
0.0
 11
-32.76430470181714
 21
9.129838468852597
 31
0.0
 11
-32.75578912019904
 21
9.122640909727408
 31
0.0
 11
-32.74615730984618
 21
9.116998617703472
 31
0.0
 11
-32.73571442261795
 21
9.113056108529292
 31
0.0
  0
SPLINE
  5
133
330
2
100
AcDbEntity
  8
GAIKEI
  6
Continuous
 62
     1
100
AcDbSpline
210
0.0
220
0.0
230
1.0
 70
     8
 71
     3
 72
    21
 73
    17
 74
    15
 42
0.0000000001
 43
0.0000000001
 44
0.000001
 12
-0.9999999888881687
 22
0.0001490760296198
 32
0.0
 13
0.0007086550231108
 23
-0.9999997489039975
 33
0.0
 40
0.0
 40
0.0
 40
0.0
 40
0.0
 40
0.0146800531684134
 40
0.0294098671610088
 40
0.0440944857461076
 40
0.0587961819046694
 40
0.0735433082183519
 40
0.0882452749645011
 40
0.1031289863564873
 40
0.1180596885230834
 40
0.1329432357532011
 40
0.1478756372180894
 40
0.162855635259186
 40
0.1777879301772587
 40
0.1934470599829902
 40
0.2091023769872168
 40
0.2091023769872168
 40
0.2091023769872168
 40
0.2091023769872168
 10
-34.29277253847266
 20
31.49166057740052
 30
0.0
 10
-34.29766588947443
 20
31.49166130688187
 30
0.0
 10
-34.30747813207548
 20
31.49112771725936
 30
0.0
 10
-34.32200435831626
 20
31.48870920101342
 30
0.0
 10
-34.33619013176638
 20
31.48471898193932
 30
0.0
 10
-34.34983768919604
 20
31.47914494361703
 30
0.0
 10
-34.36279827825385
 20
31.47211226787454
 30
0.0
 10
-34.37496567525143
 20
31.46367182620017
 30
0.0
 10
-34.3861431146828
 20
31.45386385059936
 30
0.0
 10
-34.39621013396228
 20
31.44283975045022
 30
0.0
 10
-34.40501074512305
 20
31.43075777427282
 30
0.0
 10
-34.41237760694813
 20
31.41773265146267
 30
0.0
 10
-34.41826139249595
 20
31.40395813384049
 30
0.0
 10
-34.42264628536392
 20
31.38938006525569
 30
0.0
 10
-34.42533532692157
 20
31.37416520540063
 30
0.0
 10
-34.42593867177058
 20
31.36371657986669
 30
0.0
 10
-34.42593497369756
 20
31.35849814217562
 30
0.0
 11
-34.29277253847266
 21
31.49166057740052
 31
0.0
 11
-34.30743133618142
 21
31.49086045120095
 31
0.0
 11
-34.32196175019539
 21
31.48844491715539
 31
0.0
 11
-34.33609485879907
 21
31.48445822043567
 31
0.0
 11
-34.34970920213908
 21
31.47890932302426
 31
0.0
 11
-34.36267117618553
 21
31.47187614357444
 31
0.0
 11
-34.37474574395463
 21
31.46348845866362
 31
0.0
 11
-34.38593985404367
 21
31.45367941055094
 31
0.0
 11
-34.39600802238184
 21
31.44265405310063
 31
0.0
 11
-34.40476246831173
 21
31.43061742915035
 31
0.0
 11
-34.41212266833526
 21
31.41762494447295
 31
0.0
 11
-34.41800596815398
 21
31.4038485976817
 31
0.0
 11
-34.42229960911181
 21
31.38954689114866
 31
0.0
 11
-34.42503189798498
 21
31.37412796321536
 31
0.0
 11
-34.42593497369756
 21
31.35849814217562
 31
0.0
  0
SPLINE
  5
134
330
2
100
AcDbEntity
  8
GAIKEI
  6
Continuous
 62
     1
100
AcDbSpline
210
0.0
220
0.0
230
1.0
 70
     8
 71
     3
 72
    21
 73
    17
 74
    15
 42
0.0000000001
 43
0.0000000001
 44
0.000001
 12
-0.0001490760298766
 22
-0.9999999888881687
 32
0.0
 13
0.9999997489039975
 23
0.0007086550233522
 33
0.0
 40
0.0
 40
0.0
 40
0.0
 40
0.0
 40
0.0146800531684147
 40
0.0294098671609938
 40
0.0440944857461148
 40
0.0587961819046523
 40
0.0735433082183872
 40
0.0882452749645139
 40
0.1031289863564659
 40
0.1180596885229931
 40
0.1329432357531662
 40
0.1478756372180825
 40
0.1628556352591213
 40
0.1777879301773397
 40
0.1934470599830587
 40
0.2091023769872752
 40
0.2091023769872752
 40
0.2091023769872752
 40
0.2091023769872752
 10
-34.42593497369756
 20
7.626275255793245
 30
0.0
 10
-34.42593570317892
 20
7.621381904791491
 30
0.0
 10
-34.42540211355656
 20
7.61156966219039
 30
0.0
 10
-34.42298359731059
 20
7.597043435949615
 30
0.0
 10
-34.41899337823638
 20
7.582857662499634
 30
0.0
 10
-34.41341933991429
 20
7.569210105069743
 30
0.0
 10
-34.40638666417154
 20
7.556249516012087
 30
0.0
 10
-34.39794622249728
 20
7.54408211901449
 30
0.0
 10
-34.3881382468965
 20
7.532904679583083
 30
0.0
 10
-34.37711414674732
 20
7.522837660303764
 30
0.0
 10
-34.36503217056991
 20
7.514037049142928
 30
0.0
 10
-34.35200704775989
 20
7.50667018731778
 30
0.0
 10
-34.33823253013757
 20
7.50078640177
 30
0.0
 10
-34.32365446155279
 20
7.496401508901954
 30
0.0
 10
-34.30843960169765
 20
7.493712467344465
 30
0.0
 10
-34.29799097616374
 20
7.493109122495326
 30
0.0
 10
-34.29277253847266
 20
7.493112820568342
 30
0.0
 11
-34.42593497369756
 21
7.626275255793245
 31
0.0
 11
-34.4251348474981
 21
7.611616458084483
 31
0.0
 11
-34.42271931345255
 21
7.597086044070522
 31
0.0
 11
-34.41873261673277
 21
7.582952935466835
 31
0.0
 11
-34.41318371932147
 21
7.569338592126825
 31
0.0
 11
-34.40615053987148
 21
7.556376618080378
 31
0.0
 11
-34.39776285496072
 21
7.544302050311273
 31
0.0
 11
-34.38795380684806
 21
7.533107940222237
 31
0.0
 11
-34.37692844939778
 21
7.523039771884157
 31
0.0
 11
-34.36489182544747
 21
7.514285325954233
 31
0.0
 11
-34.35189934077008
 21
7.506925125930649
 31
0.0
 11
-34.33812299397886
 21
7.501041826111986
 31
0.0
 11
-34.3238212874457
 21
7.496748185154103
 31
0.0
 11
-34.3084023595124
 21
7.494015896280984
 31
0.0
 11
-34.29277253847266
 21
7.493112820568342
 31
0.0
  0
LINE
  5
135
330
2
100
AcDbEntity
  8
GAIKEI
  6
Continuous
 62
     1
100
AcDbLine
 10
-34.11373935028251
 20
7.67249884473955
 30
0.0
 11
5.46042321582675
 21
7.67249884473955
 31
0.0
  0
LINE
  5
136
330
2
100
AcDbEntity
  8
GAIKEI
  6
Continuous
 62
     1
100
AcDbLine
 10
5.46042321582675
 20
31.31227455322932
 30
0.0
 11
-34.11373935028251
 21
31.31227455322932
 31
0.0
  0
LINE
  5
137
330
2
100
AcDbEntity
  8
GAIKEI
  6
Continuous
 62
     1
100
AcDbLine
 10
-34.24654894952642
 20
31.17946495398542
 30
0.0
 11
-34.24654894952642
 21
7.80530844398342
 31
0.0
  0
LINE
  5
138
330
2
100
AcDbEntity
  8
GAIKEI
  6
Continuous
 62
     1
100
AcDbLine
 10
-33.45466676276146
 20
30.38907139947551
 30
0.0
 11
-33.45466676276146
 21
8.595701998493353
 31
0.0
  0
LINE
  5
139
330
2
100
AcDbEntity
  8
GAIKEI
  6
Continuous
 62
     1
100
AcDbLine
 10
4.801350628305726
 20
30.38907139947551
 30
0.0
 11
4.801350628305726
 21
8.595701998493353
 31
0.0
  0
LINE
  5
13A
330
2
100
AcDbEntity
  8
GAIKEI
  6
Continuous
 62
     1
100
AcDbLine
 10
-33.32001216626855
 20
8.461047402000474
 30
0.0
 11
4.666696031812875
 21
8.461047402000474
 31
0.0
  0
LINE
  5
13B
330
2
100
AcDbEntity
  8
GAIKEI
  6
Continuous
 62
     1
100
AcDbLine
 10
4.666696031812875
 20
30.52372599596839
 30
0.0
 11
-33.32001216626855
 21
30.52372599596839
 31
0.0
  0
LINE
  5
13C
330
2
100
AcDbEntity
  8
GAIKEI
  6
Continuous
 62
     1
100
AcDbLine
 10
-32.75162833583659
 20
7.990648243517341
 30
0.0
 11
-32.55161056559655
 21
7.990648243517341
 31
0.0
  0
LINE
  5
13D
330
2
100
AcDbEntity
  8
GAIKEI
  6
Continuous
 62
     1
100
AcDbLine
 10
-32.76829648335655
 20
7.77396232575731
 30
0.0
 11
-32.76829648335655
 21
7.973980095997319
 31
0.0
  0
LINE
  5
13E
330
2
100
AcDbEntity
  8
GAIKEI
  6
Continuous
 62
     1
100
AcDbLine
 10
-32.55161056559655
 20
7.757294178237344
 30
0.0
 11
-32.75162833583659
 21
7.757294178237344
 31
0.0
  0
LINE
  5
13F
330
2
100
AcDbEntity
  8
GAIKEI
  6
Continuous
 62
     1
100
AcDbLine
 10
-33.7583844460446
 20
7.910641135421343
 30
0.0
 11
-33.7583844460446
 21
7.837301286333342
 31
0.0
  0
LINE
  5
140
330
2
100
AcDbEntity
  8
GAIKEI
  6
Continuous
 62
     1
100
AcDbLine
 10
-33.83172429513257
 20
7.910641135421343
 30
0.0
 11
-33.7583844460446
 21
7.910641135421343
 31
0.0
  0
LINE
  5
141
330
2
100
AcDbEntity
  8
GAIKEI
  6
Continuous
 62
     1
100
AcDbLine
 10
-33.83172429513257
 20
7.837301286333342
 30
0.0
 11
-33.83172429513257
 21
7.910641135421343
 31
0.0
  0
LINE
  5
142
330
2
100
AcDbEntity
  8
GAIKEI
  6
Continuous
 62
     1
100
AcDbLine
 10
-32.53494241807658
 20
7.973980095997319
 30
0.0
 11
-32.53494241807658
 21
7.77396232575731
 31
0.0
  0
LINE
  5
143
330
2
100
AcDbEntity
  8
GAIKEI
  6
Continuous
 62
     1
100
AcDbLine
 10
-33.7583844460446
 20
7.837301286333342
 30
0.0
 11
-33.83172429513257
 21
7.837301286333342
 31
0.0
  0
LINE
  5
144
330
2
100
AcDbEntity
  8
GAIKEI
  6
Continuous
 62
     1
100
AcDbLine
 10
-34.24654894952642
 20
7.80530844398342
 30
0.0
 11
-34.40251323924286
 21
7.64934415426697
 31
0.0
  0
LINE
  5
145
330
2
100
AcDbEntity
  8
GAIKEI
  6
Continuous
 62
     1
100
AcDbLine
 10
-34.26970363999897
 20
7.516534555023071
 30
0.0
 11
-34.11373935028251
 21
7.67249884473955
 31
0.0
  0
LINE
  5
146
330
2
100
AcDbEntity
  8
GAIKEI
  6
Continuous
 62
     1
100
AcDbLine
 10
-34.11373935028251
 20
31.31227455322932
 30
0.0
 11
-34.26970363999897
 21
31.4682388429458
 31
0.0
  0
LINE
  5
147
330
2
100
AcDbEntity
  8
GAIKEI
  6
Continuous
 62
     1
100
AcDbLine
 10
-34.40251323924286
 20
31.33542924370189
 30
0.0
 11
-34.24654894952642
 21
31.17946495398542
 31
0.0
  0
LINE
  5
148
330
2
100
AcDbEntity
  8
GAIKEI
  6
Continuous
 62
     1
100
AcDbLine
 10
5.616387505543229
 20
7.516534555023071
 30
0.0
 11
-34.26970363999897
 21
7.516534555023071
 31
0.0
  0
LINE
  5
149
330
2
100
AcDbEntity
  8
GAIKEI
  6
Continuous
 62
     1
100
AcDbLine
 10
-34.26970363999897
 20
31.4682388429458
 30
0.0
 11
5.616387505543229
 21
31.4682388429458
 31
0.0
  0
LINE
  5
14A
330
2
100
AcDbEntity
  8
GAIKEI
  6
Continuous
 62
     1
100
AcDbLine
 10
-34.40251323924286
 20
7.64934415426697
 30
0.0
 11
-34.40251323924286
 21
31.33542924370189
 31
0.0
  0
LINE
  5
14B
330
2
100
AcDbEntity
  8
GAIKEI
  6
Continuous
 62
     1
100
AcDbLine
 10
4.157578266774009
 20
29.83527433164636
 30
0.0
 11
4.727704285321124
 21
30.41373929105254
 31
0.0
  0
LINE
  5
14C
330
2
100
AcDbEntity
  8
GAIKEI
  6
Continuous
 62
     1
100
AcDbLine
 10
4.63762482843299
 20
30.45574398955551
 30
0.0
 11
4.091451725206752
 21
29.90158228933123
 31
0.0
  0
LINE
  5
14D
330
2
100
AcDbEntity
  8
GAIKEI
  6
Continuous
 62
     1
100
AcDbLine
 10
-33.29012361087052
 20
30.4549146825438
 30
0.0
 11
-32.74476785966249
 21
29.90158228933123
 31
0.0
  0
LINE
  5
14E
330
2
100
AcDbEntity
  8
GAIKEI
  6
Continuous
 62
     1
100
AcDbLine
 10
-32.81089440122975
 20
29.83527433164636
 30
0.0
 11
-33.38102041977686
 21
30.41373929105254
 31
0.0
  0
LINE
  5
14F
330
2
100
AcDbEntity
  8
GAIKEI
  6
Continuous
 62
     1
100
AcDbLine
 10
4.091451725206752
 20
9.083191108637635
 30
0.0
 11
4.637624828433018
 21
8.52902940841335
 31
0.0
  0
LINE
  5
150
330
2
100
AcDbEntity
  8
GAIKEI
  6
Continuous
 62
     1
100
AcDbLine
 10
4.727704285321124
 20
8.5710341069163
 30
0.0
 11
4.157578266774009
 21
9.149499066322505
 31
0.0
  0
LINE
  5
151
330
2
100
AcDbEntity
  8
GAIKEI
  6
Continuous
 62
     1
100
AcDbLine
 10
-32.74476785966249
 20
9.083191108637635
 30
0.0
 11
-33.29094096288879
 21
8.52902940841335
 31
0.0
  0
LINE
  5
152
330
2
100
AcDbEntity
  8
GAIKEI
  6
Continuous
 62
     1
100
AcDbLine
 10
-33.38102041977686
 20
8.5710341069163
 30
0.0
 11
-32.81089440122975
 21
9.149499066322505
 31
0.0
  0
LINE
  5
153
330
2
100
AcDbEntity
  8
GAIKEI
  6
Continuous
 62
     1
100
AcDbLine
 10
4.161384838295759
 20
9.176755454536817
 30
0.0
 11
4.161384838295759
 21
29.80801794343205
 31
0.0
  0
LINE
  5
154
330
2
100
AcDbEntity
  8
GAIKEI
  6
Continuous
 62
     1
100
AcDbLine
 10
4.73336862189285
 20
8.595701998493353
 30
0.0
 11
4.73336862189285
 21
30.38907139947551
 31
0.0
  0
LINE
  5
155
330
2
100
AcDbEntity
  8
GAIKEI
  6
Continuous
 62
     1
100
AcDbLine
 10
-32.8147009727515
 20
9.176755454536817
 30
0.0
 11
-32.8147009727515
 21
29.80801794343205
 31
0.0
  0
LINE
  5
156
330
2
100
AcDbEntity
  8
GAIKEI
  6
Continuous
 62
     1
100
AcDbLine
 10
-33.38668475634859
 20
8.595701998493353
 30
0.0
 11
-33.38668475634859
 21
30.38907139947551
 31
0.0
  0
LINE
  5
157
330
2
100
AcDbEntity
  8
GAIKEI
  6
Continuous
 62
     1
100
AcDbLine
 10
4.666696031812875
 20
8.52902940841335
 30
0.0
 11
-33.32001216626855
 21
8.52902940841335
 31
0.0
  0
LINE
  5
158
330
2
100
AcDbEntity
  8
GAIKEI
  6
Continuous
 62
     1
100
AcDbLine
 10
-33.32001216626855
 20
30.45574398955549
 30
0.0
 11
4.666696031812875
 21
30.45574398955549
 31
0.0
  0
LINE
  5
159
330
2
100
AcDbEntity
  8
GAIKEI
  6
Continuous
 62
     1
100
AcDbLine
 10
-32.71728735153664
 20
29.90545266652166
 30
0.0
 11
4.063971217080904
 21
29.90545266652166
 31
0.0
  0
LINE
  5
15A
330
2
100
AcDbEntity
  8
GAIKEI
  6
Continuous
 62
     1
100
AcDbLine
 10
4.063971217080904
 20
9.079320731447211
 30
0.0
 11
-32.71728735153664
 21
9.079320731447211
 31
0.0
  0
LINE
  5
15B
330
2
100
AcDbEntity
  8
GAIKEI
  6
Continuous
 62
     1
100
AcDbLine
 10
4.130149596586932
 20
29.80801794343205
 30
0.0
 11
4.130149596586932
 21
9.176755454536817
 31
0.0
  0
LINE
  5
15C
330
2
100
AcDbEntity
  8
GAIKEI
  6
Continuous
 62
     1
100
AcDbLine
 10
-32.78346573104267
 20
29.80801794343205
 30
0.0
 11
-32.78346573104267
 21
9.176755454536817
 31
0.0
  0
LINE
  5
15D
330
2
100
AcDbEntity
  8
GAIKEI
  6
Continuous
 62
     1
100
AcDbLine
 10
-32.71728735153664
 20
9.110582608855764
 30
0.0
 11
4.063971217080904
 21
9.110582608855764
 31
0.0
  0
LINE
  5
15E
330
2
100
AcDbEntity
  8
GAIKEI
  6
Continuous
 62
     1
100
AcDbLine
 10
4.063971217080904
 20
29.8741907891131
 30
0.0
 11
-32.71728735153664
 21
29.8741907891131
 31
0.0
  0
LINE
  5
15F
330
2
100
AcDbEntity
  8
GAIKEI
  6
Continuous
 62
     1
100
AcDbLine
 10
-34.26970363999897
 20
7.493160545065421
 30
0.0
 11
5.616387505543229
 21
7.493160545065421
 31
0.0
  0
LINE
  5
160
330
2
100
AcDbEntity
  8
GAIKEI
  6
Continuous
 62
     1
100
AcDbLine
 10
5.616387505543229
 20
31.49161285290345
 30
0.0
 11
-34.26970363999897
 21
31.49161285290345
 31
0.0
  0
LINE
  5
161
330
2
100
AcDbEntity
  8
GAIKEI
  6
Continuous
 62
     1
100
AcDbLine
 10
-34.42588724920057
 20
31.33542924370189
 30
0.0
 11
-34.42588724920052
 21
7.624361668843704
 31
0.0
  0
LINE
  5
162
330
2
100
AcDbEntity
  8
GAIKEI
  6
Continuous
 62
     1
100
AcDbLine
 10
-34.49344961833145
 20
31.42601279144376
 30
0.0
 11
-34.42593498677502
 21
31.35849812655104
 31
0.0
  0
LINE
  5
163
330
2
100
AcDbEntity
  8
GAIKEI
  6
Continuous
 62
     1
100
AcDbLine
 10
-34.29277252284817
 20
31.49166059047795
 30
0.0
 11
-34.36028718774088
 21
31.55917522203438
 31
0.0
  0
LINE
  5
164
330
2
100
AcDbEntity
  8
GAIKEI
  6
Continuous
 62
     1
100
AcDbLine
 10
-34.36028718774088
 20
7.425598175934482
 30
0.0
 11
-34.29277252284817
 21
7.493112807490916
 31
0.0
  0
LINE
  5
165
330
2
100
AcDbEntity
  8
GAIKEI
  6
Continuous
 62
     1
100
AcDbLine
 10
-34.42593498677502
 20
7.626275271417824
 30
0.0
 11
-34.49344961833145
 21
7.558760606525083
 31
0.0
  0
LINE
  5
166
330
2
100
AcDbEntity
  8
GAIKEI
  6
Continuous
 62
     7
100
AcDbLine
 10
-34.36010457151662
 20
7.425598042589314
 30
0.0
 11
5.706788437060879
 21
7.425598042589314
 31
0.0
  0
LINE
  5
167
330
2
100
AcDbEntity
  8
GAIKEI
  6
Continuous
 62
     7
100
AcDbLine
 10
-34.36010457151662
 20
31.55917535537955
 30
0.0
 11
5.706788437060879
 21
31.55917535537955
 31
0.0
  0
LINE
  5
168
330
2
100
AcDbEntity
  8
GAIKEI
  6
Continuous
 62
     7
100
AcDbLine
 10
-34.49344975167662
 20
31.42583017521955
 30
0.0
 11
-34.49344975167662
 21
31.37030096844697
 31
0.0
  0
ARC
  5
169
330
2
100
AcDbEntity
  8
GAIKEI
  6
Continuous
 62
     1
100
AcDbCircle
 10
-33.32001216626855
 20
8.595701998493353
 30
0.0
 40
0.1346545964928812
100
AcDbArc
 50
180.0
 51
270.0
  0
ARC
  5
16A
330
2
100
AcDbEntity
  8
GAIKEI
  6
Continuous
 62
     1
100
AcDbCircle
 10
-33.32001216626855
 20
30.38907139947551
 30
0.0
 40
0.1346545964928812
100
AcDbArc
 50
90.0
 51
180.0
  0
ARC
  5
16B
330
2
100
AcDbEntity
  8
GAIKEI
  6
Continuous
 62
     1
100
AcDbCircle
 10
4.666696031812875
 20
8.595701998493353
 30
0.0
 40
0.1346545964928812
100
AcDbArc
 50
270.0
 51
0.0
  0
ARC
  5
16C
330
2
100
AcDbEntity
  8
GAIKEI
  6
Continuous
 62
     1
100
AcDbCircle
 10
4.666696031812875
 20
30.38907139947551
 30
0.0
 40
0.1346545964928812
100
AcDbArc
 50
0.0
 51
90.0
  0
ARC
  5
16D
330
2
100
AcDbEntity
  8
GAIKEI
  6
Continuous
 62
     1
100
AcDbCircle
 10
-32.55161056559655
 20
7.77396232575731
 30
0.0
 40
0.0166681475200006
100
AcDbArc
 50
270.0
 51
0.0
  0
ARC
  5
16E
330
2
100
AcDbEntity
  8
GAIKEI
  6
Continuous
 62
     1
100
AcDbCircle
 10
-32.75162833583659
 20
7.77396232575731
 30
0.0
 40
0.0166681475200006
100
AcDbArc
 50
180.0
 51
270.0
  0
ARC
  5
16F
330
2
100
AcDbEntity
  8
GAIKEI
  6
Continuous
 62
     1
100
AcDbCircle
 10
-32.55161056559655
 20
7.973980095997319
 30
0.0
 40
0.0166681475200006
100
AcDbArc
 50
0.0
 51
90.0
  0
ARC
  5
170
330
2
100
AcDbEntity
  8
GAIKEI
  6
Continuous
 62
     1
100
AcDbCircle
 10
-32.75162833583659
 20
7.973980095997319
 30
0.0
 40
0.0166681475200006
100
AcDbArc
 50
90.0
 51
180.0
  0
ARC
  5
171
330
2
100
AcDbEntity
  8
GAIKEI
  6
Continuous
 62
     1
100
AcDbCircle
 10
4.666696031812875
 20
30.38907139947551
 30
0.0
 40
0.0666725900800025
100
AcDbArc
 50
0.0
 51
90.0
  0
ARC
  5
172
330
2
100
AcDbEntity
  8
GAIKEI
  6
Continuous
 62
     1
100
AcDbCircle
 10
-33.32001216626855
 20
30.38907139947551
 30
0.0
 40
0.0666725900800025
100
AcDbArc
 50
90.0
 51
180.0
  0
ARC
  5
173
330
2
100
AcDbEntity
  8
GAIKEI
  6
Continuous
 62
     1
100
AcDbCircle
 10
4.666696031812875
 20
8.595701998493353
 30
0.0
 40
0.0666725900800025
100
AcDbArc
 50
270.0
 51
0.0
  0
ARC
  5
174
330
2
100
AcDbEntity
  8
GAIKEI
  6
Continuous
 62
     1
100
AcDbCircle
 10
-33.32001216626855
 20
8.595701998493353
 30
0.0
 40
0.0666725900800025
100
AcDbArc
 50
180.0
 51
270.0
  0
ARC
  5
175
330
2
100
AcDbEntity
  8
GAIKEI
  6
Continuous
 62
     1
100
AcDbCircle
 10
4.064612940760412
 20
29.80865253314443
 30
0.0
 40
0.0655246547603001
100
AcDbArc
 50
15.61945599999427
 51
74.25064600000692
  0
ARC
  5
176
330
2
100
AcDbEntity
  8
GAIKEI
  6
Continuous
 62
     1
100
AcDbCircle
 10
-32.71792907521615
 20
29.80865253314443
 30
0.0
 40
0.0655246547603001
100
AcDbArc
 50
105.7493539999931
 51
164.3805440000057
  0
ARC
  5
177
330
2
100
AcDbEntity
  8
GAIKEI
  6
Continuous
 62
     7
100
AcDbCircle
 10
-34.36010457151662
 20
31.42583017521955
 30
0.0
 40
0.133345180160005
100
AcDbArc
 50
90.07846799999976
 51
179.9215319999872
  0
ARC
  5
178
330
2
100
AcDbEntity
  8
GAIKEI
  6
Continuous
 62
     7
100
AcDbCircle
 10
-34.36010457151662
 20
7.55894322274932
 30
0.0
 40
0.133345180160005
100
AcDbArc
 50
180.0784680000127
 51
269.9215320000003
  0
ARC
  5
179
330
2
100
AcDbEntity
  8
GAIKEI
  6
Continuous
 62
   251
100
AcDbCircle
 10
-34.36010457151662
 20
7.55894322274932
 30
0.0
 40
0.133345180160005
100
AcDbArc
 50
269.9215320000003
 51
270.0
  0
ARC
  5
17A
330
2
100
AcDbEntity
  8
GAIKEI
  6
Continuous
 62
   251
100
AcDbCircle
 10
-34.36010457151662
 20
31.42583017521955
 30
0.0
 40
0.133345180160005
100
AcDbArc
 50
90.0
 51
90.07846799999976
  0
ARC
  5
17B
330
2
100
AcDbEntity
  8
GAIKEI
  6
Continuous
 62
   251
100
AcDbCircle
 10
-34.36010457151662
 20
7.55894322274932
 30
0.0
 40
0.133345180160005
100
AcDbArc
 50
180.0
 51
180.0784680000127
  0
ARC
  5
17C
330
2
100
AcDbEntity
  8
GAIKEI
  6
Continuous
 62
   251
100
AcDbCircle
 10
-34.36010457151662
 20
31.42583017521955
 30
0.0
 40
0.133345180160005
100
AcDbArc
 50
179.9215319999872
 51
180.0
  0
ELLIPSE
  5
17D
330
2
100
AcDbEntity
  8
GAIKEI
  6
Continuous
 62
     1
100
AcDbEllipse
 10
-33.82091646826296
 20
30.88664207196575
 30
0.0
 11
-0.3876090726745502
 21
0.3876090726745502
 31
0.0
210
0.0
220
0.0
230
1.0
 40
0.4561100000000735
 41
-0.3850537013367683
 42
0.3850537013367188
  0
ELLIPSE
  5
17E
330
2
100
AcDbEntity
  8
GAIKEI
  6
Continuous
 62
     1
100
AcDbEllipse
 10
-33.82091646826296
 20
8.098131326003056
 30
0.0
 11
0.3876090726745644
 21
0.3876090726745644
 31
0.0
210
0.0
220
0.0
230
1.0
 40
0.4561099999999612
 41
2.756538952253047
 42
3.526646354926617
  0
ELLIPSE
  5
17F
330
2
100
AcDbEntity
  8
GAIKEI
  6
Continuous
 62
     1
100
AcDbEllipse
 10
-34.38874401593961
 20
7.530303778326413
 30
0.0
 11
-0.3230407423546609
 21
0.0305357091463026
 31
0.0
210
0.0
220
0.0
230
1.0
 40
0.0083089999813824
 41
1.862565895610391
 42
1.948976068363679
  0
ELLIPSE
  5
180
330
2
100
AcDbEntity
  8
GAIKEI
  6
Continuous
 62
     1
100
AcDbEllipse
 10
-34.38874401593961
 20
7.530303778326413
 30
0.0
 11
-0.030535709049866
 21
0.3230407412645782
 31
0.0
210
0.0
220
0.0
230
1.0
 40
0.0083090000057778
 41
1.192616583886016
 42
1.279026756966244
  0
ELLIPSE
  5
181
330
2
100
AcDbEntity
  8
GAIKEI
  6
Continuous
 62
     1
100
AcDbEllipse
 10
-34.38874401593961
 20
31.45446961964245
 30
0.0
 11
0.0305357090498701
 21
0.3230407412646186
 31
0.0
210
0.0
220
0.0
230
1.0
 40
0.0083090000057821
 41
1.862565896623444
 42
1.948976069703653
  0
ELLIPSE
  5
182
330
2
100
AcDbEntity
  8
GAIKEI
  6
Continuous
 62
     1
100
AcDbEllipse
 10
-34.38874401593961
 20
31.45446961964245
 30
0.0
 11
0.3230407423546601
 21
0.0305357091463026
 31
0.0
210
0.0
220
0.0
230
1.0
 40
0.0083089999813824
 41
1.192616585226102
 42
1.279026757979404
  0
ELLIPSE
  5
183
330
2
100
AcDbEntity
  8
GAIKEI
  6
Continuous
 62
     1
100
AcDbEllipse
 10
4.059931591520523
 20
9.178945282421693
 30
0.0
 11
-0.0823124171856117
 21
0.0606728015098772
 31
0.0
210
0.0
220
0.0
230
1.0
 40
0.9775040000007885
 41
3.491160237179388
 42
3.765959554391168
  0
ELLIPSE
  5
184
330
2
100
AcDbEntity
  8
GAIKEI
  6
Continuous
 62
     1
100
AcDbEllipse
 10
4.059931591520523
 20
29.80582811554717
 30
0.0
 11
0.0823124171885618
 21
0.0606728015057627
 31
0.0
210
0.0
220
0.0
230
1.0
 40
0.9775039999996581
 41
-0.6243669007516715
 42
-0.349567583539371
  0
ELLIPSE
  5
185
330
2
100
AcDbEntity
  8
GAIKEI
  6
Continuous
 62
     1
100
AcDbEllipse
 10
-32.71324772597626
 20
29.80582811554717
 30
0.0
 11
-0.0823124171911972
 21
0.0606728015020962
 31
0.0
210
0.0
220
0.0
230
1.0
 40
0.9775039999983135
 41
0.3495675834948664
 42
0.6243669007078401
  0
ELLIPSE
  5
186
330
2
100
AcDbEntity
  8
GAIKEI
  6
Continuous
 62
     1
100
AcDbEllipse
 10
-32.71324772597626
 20
9.178945282421693
 30
0.0
 11
0.0823124171870749
 21
0.0606728015078452
 31
0.0
210
0.0
220
0.0
230
1.0
 40
0.9775040000002558
 41
2.517225752813203
 42
2.792025070024934
  0
ELLIPSE
  5
187
330
2
100
AcDbEntity
  8
GAIKEI
  6
Continuous
 62
     1
100
AcDbEllipse
 10
4.061791456757134
 20
29.80400945397128
 30
0.0
 11
0.0607808270141987
 21
0.0822184915774339
 31
0.0
210
0.0
220
0.0
230
1.0
 40
0.9776260000029457
 41
0.3486902261527096
 42
0.6258116351479744
  0
ELLIPSE
  5
188
330
2
100
AcDbEntity
  8
GAIKEI
  6
Continuous
 62
     1
100
AcDbEllipse
 10
-32.71510759121287
 20
29.80400945397128
 30
0.0
 11
-0.0607808270158121
 21
0.0822184915762719
 31
0.0
210
0.0
220
0.0
230
1.0
 40
0.9776260000034472
 41
-0.625811635167389
 42
-0.3486902261722637
  0
ELLIPSE
  5
189
330
2
100
AcDbEntity
  8
GAIKEI
  6
Continuous
 62
     1
100
AcDbEllipse
 10
-32.71510759121287
 20
9.180763943997618
 30
0.0
 11
0.0607808269967872
 21
0.0822184915900438
 31
0.0
210
0.0
220
0.0
230
1.0
 40
0.977625999995409
 41
3.490282879530687
 42
3.767404288529979
  0
ELLIPSE
  5
18A
330
2
100
AcDbEntity
  8
GAIKEI
  6
Continuous
 62
     1
100
AcDbEllipse
 10
4.061791456757134
 20
9.180763943997618
 30
0.0
 11
-0.0607808270033003
 21
0.0822184915853298
 31
0.0
210
0.0
220
0.0
230
1.0
 40
0.9776259999984945
 41
2.515781018572056
 42
2.792902427569963
  0
ELLIPSE
  5
18B
330
2
100
AcDbEntity
  8
GAIKEI
  6
Continuous
 62
     1
100
AcDbEllipse
 10
4.061784156108444
 20
9.178945282421693
 30
0.0
 11
-0.0547195731247495
 21
0.0426917914117292
 31
0.0
210
0.0
220
0.0
230
1.0
 40
0.9600419999999962
 41
3.516854090128136
 42
3.791653407339537
  0
ELLIPSE
  5
18C
330
2
100
AcDbEntity
  8
GAIKEI
  6
Continuous
 62
     1
100
AcDbEllipse
 10
4.061784156108444
 20
29.80582811554717
 30
0.0
 11
0.054719573124074
 21
0.0426917914126376
 31
0.0
210
0.0
220
0.0
230
1.0
 40
0.9600420000007664
 41
-0.6500607537652972
 42
-0.3752614365537126
  0
ELLIPSE
  5
18D
330
2
100
AcDbEntity
  8
GAIKEI
  6
Continuous
 62
     1
100
AcDbEllipse
 10
-32.71510029056429
 20
9.178945282421693
 30
0.0
 11
0.0547195731267131
 21
0.0426917914091056
 31
0.0
210
0.0
220
0.0
230
1.0
 40
0.9600419999976157
 41
2.491531899886615
 42
2.766331217099247
  0
ELLIPSE
  5
18E
330
2
100
AcDbEntity
  8
GAIKEI
  6
Continuous
 62
     1
100
AcDbEllipse
 10
-32.71510029056429
 20
29.80582811554717
 30
0.0
 11
-0.05471957312403
 21
0.042691791412705
 31
0.0
210
0.0
220
0.0
230
1.0
 40
0.9600420000005415
 41
0.3752614365549947
 42
0.6500607537665788
  0
ELLIPSE
  5
18F
330
2
100
AcDbEntity
  8
GAIKEI
  6
Continuous
 62
     1
100
AcDbEllipse
 10
4.061791456757134
 20
9.178937981773117
 30
0.0
 11
-0.042753784866503
 21
0.0546568828102033
 31
0.0
210
0.0
220
0.0
230
1.0
 40
0.9602120000078178
 41
2.490198768239826
 42
2.767320177232909
  0
ELLIPSE
  5
190
330
2
100
AcDbEntity
  8
GAIKEI
  6
Continuous
 62
     1
100
AcDbEllipse
 10
-32.71510759121287
 20
9.178937981773117
 30
0.0
 11
0.0427537848582486
 21
0.0546568828163674
 31
0.0
210
0.0
220
0.0
230
1.0
 40
0.9602120000005859
 41
3.515865129796059
 42
3.792986538793065
  0
ELLIPSE
  5
191
330
2
100
AcDbEntity
  8
GAIKEI
  6
Continuous
 62
     1
100
AcDbEllipse
 10
4.061791456757134
 20
29.80583541619575
 30
0.0
 11
0.0427537848527262
 21
0.0546568828205145
 31
0.0
210
0.0
220
0.0
230
1.0
 40
0.9602119999955242
 41
0.3742724761062375
 42
0.6513938851051569
  0
ELLIPSE
  5
192
330
2
100
AcDbEntity
  8
GAIKEI
  6
Continuous
 62
     1
100
AcDbEllipse
 10
-32.71510759121287
 20
29.80583541619575
 30
0.0
 11
-0.0427537848529118
 21
0.0546568828203793
 31
0.0
210
0.0
220
0.0
230
1.0
 40
0.960211999995565
 41
-0.6513938851084821
 42
-0.3742724761095297
  0
ELLIPSE
  5
193
330
2
100
AcDbEntity
  8
GAIKEI
  6
Continuous
 62
     1
100
AcDbEllipse
 10
-34.38874401593961
 20
7.480367875189017
 30
0.0
 11
0.2879170138799391
 21
0.0052978427250901
 31
0.0
210
0.0
220
0.0
230
1.0
 40
0.0404429999981356
 41
1.143808393720369
 42
1.23021856671755
  0
ELLIPSE
  5
194
330
2
100
AcDbEntity
  8
GAIKEI
  6
Continuous
 62
     1
100
AcDbEllipse
 10
-34.38874401593961
 20
31.50440552277979
 30
0.0
 11
-0.2879170138797296
 21
0.0052978427250935
 31
0.0
210
0.0
220
0.0
230
1.0
 40
0.0404429999981596
 41
1.911374086872534
 42
1.997784259869754
  0
ELLIPSE
  5
195
330
2
100
AcDbEntity
  8
GAIKEI
  6
Continuous
 62
     1
100
AcDbEllipse
 10
-34.43867991907695
 20
31.45446961964245
 30
0.0
 11
-0.0052978427251001
 21
0.2879170138793282
 31
0.0
210
0.0
220
0.0
230
0.9999999999999998
 40
0.0404429999982056
 41
4.285401047309302
 42
4.371811220306485
  0
LINE
  5
196
330
2
100
AcDbEntity
  8
GAIKEI
  6
Continuous
 62
     1
100
AcDbLine
 10
33.39556189048484
 20
30.30200708626836
 30
0.0
 11
32.97796060311017
 21
30.31659006862131
 31
0.0
  0
LINE
  5
197
330
2
100
AcDbEntity
  8
GAIKEI
  6
Continuous
 62
     1
100
AcDbLine
 10
33.61094965624444
 20
29.56049713119563
 30
0.0
 11
33.53843061352855
 21
30.08781470613502
 31
0.0
  0
LINE
  5
198
330
2
100
AcDbEntity
  8
GAIKEI
  6
Continuous
 62
     1
100
AcDbLine
 10
33.5273707268094
 20
30.15408957438621
 30
0.0
 11
33.52283531762181
 21
30.18706810528659
 31
0.0
  0
LINE
  5
199
330
2
100
AcDbEntity
  8
GAIKEI
  6
Continuous
 62
     1
100
AcDbLine
 10
32.99938670285367
 20
30.29096108969128
 30
0.0
 11
33.0355863576993
 21
30.28836807797026
 31
0.0
  0
LINE
  5
19A
330
2
100
AcDbEntity
  8
GAIKEI
  6
Continuous
 62
     1
100
AcDbLine
 10
33.50216706402942
 20
30.16418159600619
 30
0.0
 11
33.58014715500021
 21
29.59715460512379
 31
0.0
  0
LINE
  5
19B
330
2
100
AcDbEntity
  8
GAIKEI
  6
Continuous
 62
     1
100
AcDbLine
 10
33.50216706402942
 20
30.16418159600619
 30
0.0
 11
33.50203121844006
 21
30.16416298321582
 31
0.0
  0
LINE
  5
19C
330
2
100
AcDbEntity
  8
GAIKEI
  6
Continuous
 62
     1
100
AcDbLine
 10
33.50203121844006
 20
30.16416298321582
 30
0.0
 11
33.57998186230965
 21
29.59735156733828
 31
0.0
  0
LINE
  5
19D
330
2
100
AcDbEntity
  8
GAIKEI
  6
Continuous
 62
     1
100
AcDbLine
 10
33.50216706402942
 20
30.16418159600619
 30
0.0
 11
33.50203121844006
 21
30.16416298321582
 31
0.0
  0
LINE
  5
19E
330
2
100
AcDbEntity
  8
GAIKEI
  6
Continuous
 62
     1
100
AcDbLine
 10
32.9994775443828
 20
30.29085246878029
 30
0.0
 11
33.03375647038344
 21
30.28839696946576
 31
0.0
  0
LINE
  5
19F
330
2
100
AcDbEntity
  8
GAIKEI
  6
Continuous
 62
     1
100
AcDbLine
 10
33.04514249763831
 20
30.28780802744214
 30
0.0
 11
33.04514472006106
 21
30.28787636694111
 31
0.0
  0
LINE
  5
1A0
330
2
100
AcDbEntity
  8
GAIKEI
  6
Continuous
 62
     1
100
AcDbLine
 10
33.04514249763831
 20
30.28780802744214
 30
0.0
 11
33.04514472006106
 21
30.28787636694111
 31
0.0
  0
LINE
  5
1A1
330
2
100
AcDbEntity
  8
GAIKEI
  6
Continuous
 62
     1
100
AcDbLine
 10
33.04514249763831
 20
30.28780802744214
 30
0.0
 11
33.37247508535579
 21
30.2763772739298
 31
0.0
  0
ELLIPSE
  5
1A2
330
2
100
AcDbEntity
  8
GAIKEI
  6
Continuous
 62
     1
100
AcDbEllipse
 10
33.00509138420051
 20
30.34058278881594
 30
0.0
 11
0.0035725988113773
 21
0.0498767250537357
 31
0.0
210
0.0
220
0.0
230
1.0
 40
0.572477999855677
 41
3.086861282493245
 42
3.141653428823357
  0
ELLIPSE
  5
1A3
330
2
100
AcDbEntity
  8
GAIKEI
  6
Continuous
 62
     1
100
AcDbEllipse
 10
33.00509138420051
 20
30.34058278881594
 30
0.0
 11
0.0035725988105359
 21
0.0498767250537959
 31
0.0
210
0.0
220
0.0
230
1.0
 40
0.572477999944682
 41
3.141653428793879
 42
3.205466611748557
  0
ELLIPSE
  5
1A4
330
2
100
AcDbEntity
  8
GAIKEI
  6
Continuous
 62
     1
100
AcDbEllipse
 10
33.03732901492293
 20
30.33827369159877
 30
0.0
 11
0.0035725988106486
 21
0.0498767250537937
 31
0.0
210
0.0
220
0.0
230
1.0
 40
0.5724779999765975
 41
3.141653430168135
 42
3.205466611748281
  0
SPLINE
  5
1A5
330
2
100
AcDbEntity
  8
GAIKEI
  6
Continuous
 62
     1
100
AcDbSpline
210
0.0
220
0.0
230
1.0
 70
     8
 71
     3
 72
    15
 73
    11
 74
     9
 42
0.0000000001
 43
0.0000000001
 44
0.000001
 12
-0.1364008987339492
 22
0.9906537209462097
 32
0.0
 13
-0.1677708966327061
 23
0.9858260121558256
 33
0.0
 40
0.0
 40
0.0
 40
0.0
 40
0.0
 40
0.0088099669645032
 40
0.0175208719810216
 40
0.0261354045936317
 40
0.0346547137944336
 40
0.0430782577488259
 40
0.0513554189266483
 40
0.0593953808328615
 40
0.0671961449034379
 40
0.0671961449034379
 40
0.0671961449034379
 40
0.0671961449034379
 10
33.53843067208453
 20
30.08781468802914
 30
0.0
 10
33.53803010961394
 20
30.09072389688075
 30
0.0
 10
33.53720237299514
 20
30.09650536321919
 30
0.0
 10
33.53587935368944
 20
30.10511625523398
 30
0.0
 10
33.53449070859749
 20
30.11361862855892
 30
0.0
 10
33.53305204564391
 20
30.12201546692165
 30
0.0
 10
33.53158530097706
 20
30.13029322158249
 30
0.0
 10
33.53012495458684
 20
30.13840977452267
 30
0.0
 10
33.52870338311449
 20
30.14632241525891
 30
0.0
 10
33.5278070514449
 20
30.15152606866209
 30
0.0
 10
33.52737080438405
 20
30.15408946737392
 30
0.0
 11
33.53843067208453
 21
30.08781468802914
 31
0.0
 11
33.53718370371252
 21
30.09653602614736
 31
0.0
 11
33.53586183876615
 21
30.10514605432508
 31
0.0
 11
33.53447547698792
 21
30.11364830008705
 31
0.0
 11
33.53303963737659
 21
30.1220457391508
 31
0.0
 11
33.5315740773089
 21
30.13034081015047
 31
0.0
 11
33.53011228276916
 21
30.13848786769524
 31
0.0
 11
33.52869988034826
 21
30.14640282908022
 31
0.0
 11
33.52737080438405
 21
30.15408946737392
 31
0.0
  0
SPLINE
  5
1A6
330
2
100
AcDbEntity
  8
GAIKEI
  6
Continuous
 62
     1
100
AcDbSpline
210
0.0
220
0.0
230
1.0
 70
     8
 71
     3
 72
    15
 73
    11
 74
     9
 42
0.0000000001
 43
0.0000000001
 44
0.000001
 12
-0.1345307900367005
 22
0.9909094138881219
 32
0.0
 13
-0.9994496190759493
 23
0.0331731657961701
 33
0.0
 40
0.0
 40
0.0
 40
0.0
 40
0.0
 40
0.0233154107153437
 40
0.0466019170827722
 40
0.0698680697465666
 40
0.0931238228146429
 40
0.1163795758826982
 40
0.1396457285464694
 40
0.1629322349136885
 40
0.1862476456289002
 40
0.1862476456289002
 40
0.1862476456289002
 40
0.1862476456289002
 10
33.52283543702692
 20
30.18706806715676
 30
0.0
 10
33.52178989015239
 20
30.19476922047892
 30
0.0
 10
33.51837277567258
 20
30.2100180539257
 30
0.0
 10
33.50932350116372
 20
30.23160286801957
 30
0.0
 10
33.49665477284671
 20
30.25126550295744
 30
0.0
 10
33.48074687719801
 20
30.26839831152728
 30
0.0
 10
33.46208669336393
 20
30.28248347438529
 30
0.0
 10
33.44123882161874
 20
30.29308923383772
 30
0.0
 10
33.41884639718005
 20
30.29989899861764
 30
0.0
 10
33.40332932019128
 20
30.30174938089593
 30
0.0
 10
33.39556179407197
 20
30.30200719622434
 30
0.0
 11
33.52283543702692
 21
30.18706806715676
 31
0.0
 11
33.51771589288313
 21
30.20981497938959
 31
0.0
 11
33.50871634606537
 21
30.23129218919758
 31
0.0
 11
33.49611250742132
 21
30.25084873754281
 31
0.0
 11
33.48028890109623
 21
30.26789118843237
 31
0.0
 11
33.46172717005158
 21
30.28190167700626
 31
0.0
 11
33.44099142792373
 21
30.29245365929166
 31
0.0
 11
33.41871110271247
 21
30.29922488462626
 31
0.0
 11
33.39556179407197
 21
30.30200719622434
 31
0.0
  0
SPLINE
  5
1A7
330
2
100
AcDbEntity
  8
GAIKEI
  6
Continuous
 62
     1
100
AcDbSpline
210
0.0
220
0.0
230
1.0
 70
     8
 71
     3
 72
     9
 73
     5
 74
     3
 42
0.0000000001
 43
0.0000000001
 44
0.000001
 12
0.9975886262087163
 22
-0.0694041271035517
 32
0.0
 13
0.9994438890951194
 23
-0.0333453527560095
 33
0.0
 40
0.0
 40
0.0
 40
0.0
 40
0.0
 40
0.0045526072862144
 40
0.0095716005016908
 40
0.0095716005016908
 40
0.0095716005016908
 40
0.0095716005016908
 10
33.03558628323293
 20
30.28836819119306
 30
0.0
 10
33.03710015964905
 20
30.28826286794814
 30
0.0
 10
33.04028495405676
 20
30.28806876452484
 30
0.0
 10
33.04347278398643
 20
30.2879321806131
 30
0.0
 10
33.04514485135263
 20
30.28787639391334
 30
0.0
 11
33.03558628323293
 21
30.28836819119306
 31
0.0
 11
33.04013045346079
 21
30.28809123007551
 31
0.0
 11
33.04514485135263
 21
30.28787639391334
 31
0.0
  0
SPLINE
  5
1A8
330
2
100
AcDbEntity
  8
GAIKEI
  6
Continuous
 62
     1
100
AcDbSpline
210
0.0
220
0.0
230
1.0
 70
     8
 71
     3
 72
    29
 73
    25
 74
    23
 42
0.0000000001
 43
0.0000000001
 44
0.000001
 12
0.9994197136940536
 22
-0.0340622353890022
 32
0.0
 13
0.134655474864125
 23
-0.9908924780666755
 33
0.0
 40
0.0
 40
0.0
 40
0.0
 40
0.0
 40
0.0104864379038689
 40
0.0217386084219013
 40
0.0256586843904523
 40
0.0296623075918268
 40
0.0337490262140311
 40
0.037918364298971
 40
0.0421698218555099
 40
0.0465028749806869
 40
0.0519799199023913
 40
0.0593984895772382
 40
0.0687491338676064
 40
0.0800193438507075
 40
0.0931933871300545
 40
0.1042603696922136
 40
0.1144483718147632
 40
0.123765163157485
 40
0.1322178721832188
 40
0.1398128926266448
 40
0.1522958849436772
 40
0.1642148893850034
 40
0.1755833184641013
 40
0.1864122300573179
 40
0.1864122300573179
 40
0.1864122300573179
 40
0.1864122300573179
 10
33.37247753406399
 20
30.2764456847533
 30
0.0
 10
33.37597098498651
 20
30.27632662091455
 30
0.0
 10
33.38320627814136
 20
30.27581380289291
 30
0.0
 10
33.3916770279059
 20
30.27456365238629
 30
0.0
 10
33.39794239182575
 20
30.27329498922546
 30
0.0
 10
33.40184317750814
 20
30.27239154121128
 30
0.0
 10
33.40579705324691
 20
30.27135647378759
 30
0.0
 10
33.40979847521416
 20
30.2701836128303
 30
0.0
 10
33.41384148943634
 20
30.26886718537196
 30
0.0
 10
33.4182526645664
 20
30.26728043129123
 30
0.0
 10
33.42358875761934
 20
30.26515375240456
 30
0.0
 10
33.43034688785839
 20
30.26209291759753
 30
0.0
 10
33.43861620908656
 20
30.25772114834263
 30
0.0
 10
33.44815878656766
 20
30.251710772411
 30
0.0
 10
33.45758136037819
 20
30.24451338847695
 30
0.0
 10
33.46603990910623
 20
30.23673769511379
 30
0.0
 10
33.4729630634497
 20
30.22924545685612
 30
0.0
 10
33.47876034429956
 20
30.22193875818278
 30
0.0
 10
33.48354802654514
 20
30.21496231869128
 30
0.0
 10
33.48842461287028
 20
30.20679170845327
 30
0.0
 10
33.49314878012385
 20
30.19720809995124
 30
0.0
 10
33.49736073726811
 20
30.18603423334105
 30
0.0
 10
33.5003668948162
 20
30.17505089336135
 30
0.0
 10
33.50168096330124
 20
30.16775841423572
 30
0.0
 10
33.50216702071219
 20
30.16418165188793
 30
0.0
 11
33.37247753406399
 21
30.2764456847533
 31
0.0
 11
33.38293805195377
 21
30.27570569223434
 31
0.0
 11
33.39406949744881
 21
30.27406186314232
 31
0.0
 11
33.39791160093092
 21
30.27328389933933
 31
0.0
 11
33.40181197201906
 21
30.27238050958016
 31
0.0
 11
33.40576545848336
 21
30.27134550483083
 31
0.0
 11
33.40976647155429
 21
30.27017277103624
 31
0.0
 11
33.41380897364701
 21
30.26885629623479
 31
0.0
 11
33.41788646725144
 21
30.26739019939487
 31
0.0
 11
33.42297392856321
 21
30.26536144554456
 31
0.0
 11
33.42973115842978
 21
30.26229955132624
 31
0.0
 11
33.43799721589955
 21
30.25792837937252
 31
0.0
 11
33.44753308628046
 21
30.25192127707561
 31
0.0
 11
33.45800007371082
 21
30.24392138323463
 31
0.0
 11
33.46614548077182
 21
30.23642932339039
 31
0.0
 11
33.47305916291356
 21
30.22894622080429
 31
0.0
 11
33.47884908005693
 21
30.22164691698077
 31
0.0
 11
33.4836309956998
 21
30.21467684598559
 31
0.0
 11
33.48752273803399
 21
30.20815465879133
 31
0.0
 11
33.49304166148494
 21
30.1969579066066
 31
0.0
 11
33.4972453177223
 21
30.18580476808728
 31
0.0
 11
33.50024663154073
 21
30.17483965580374
 31
0.0
 11
33.50216702071219
 21
30.16418165188793
 31
0.0
  0
SPLINE
  5
1A9
330
2
100
AcDbEntity
  8
GAIKEI
  6
Continuous
 62
     1
100
AcDbSpline
210
0.0
220
0.0
230
1.0
 70
     8
 71
     3
 72
     9
 73
     5
 74
     3
 42
0.0000000001
 43
0.0000000001
 44
0.000001
 12
0.9993670886879911
 22
-0.0355727711499859
 32
0.0
 13
0.9998869922469225
 23
0.0150333873562463
 33
0.0
 40
0.0
 40
0.0
 40
0.0
 40
0.0
 40
0.0050430160477349
 40
0.0122797538089854
 40
0.0122797538089854
 40
0.0122797538089854
 40
0.0122797538089854
 10
33.0328859513132
 20
30.28855389186492
 30
0.0
 10
33.03456589273515
 20
30.28849409384634
 30
0.0
 10
33.03865812962408
 20
30.28839101614102
 30
0.0
 10
33.04275213250264
 20
30.28839150550681
 30
0.0
 10
33.04516410582056
 20
30.28842776973414
 30
0.0
 11
33.0328859513132
 21
30.28855389186492
 31
0.0
 11
33.03792732681194
 21
30.2884268806273
 31
0.0
 11
33.04516410582056
 21
30.28842776973414
 31
0.0
  0
LINE
  5
1AA
330
2
100
AcDbEntity
  8
GAIKEI
  6
Continuous
 62
     7
100
AcDbLine
 10
31.104331905636
 20
7.692340579723662
 30
0.0
 11
31.104331905636
 21
31.28742710262324
 31
0.0
  0
LINE
  5
1AB
330
2
100
AcDbEntity
  8
GAIKEI
  6
Continuous
 62
     1
100
AcDbLine
 10
31.20720590921867
 20
7.646501999692304
 30
0.0
 11
31.20720590921869
 21
31.46610295204226
 31
0.0
  0
LINE
  5
1AC
330
2
100
AcDbEntity
  8
GAIKEI
  6
Continuous
 62
     1
100
AcDbLine
 10
31.20717535090614
 20
31.32825495280545
 30
0.0
 11
31.10433190563602
 21
31.16368018557444
 31
0.0
  0
LINE
  5
1AD
330
2
100
AcDbEntity
  8
GAIKEI
  6
Continuous
 62
     1
100
AcDbLine
 10
32.44785638786935
 20
31.42036548530067
 30
0.0
 11
32.58416424120937
 21
31.42036548530067
 31
0.0
  0
LINE
  5
1AE
330
2
100
AcDbEntity
  8
GAIKEI
  6
Continuous
 62
     1
100
AcDbLine
 10
31.86174406398455
 20
31.41396824147046
 30
0.0
 11
31.89800205742684
 21
31.41396824147043
 31
0.0
  0
LINE
  5
1AF
330
2
100
AcDbEntity
  8
GAIKEI
  6
Continuous
 62
     1
100
AcDbLine
 10
32.44785638786935
 20
30.90134060297794
 30
0.0
 11
32.44785638786935
 21
31.42036548530067
 31
0.0
  0
LINE
  5
1B0
330
2
100
AcDbEntity
  8
GAIKEI
  6
Continuous
 62
     1
100
AcDbLine
 10
33.63108508398712
 20
9.92679384023711
 30
0.0
 11
33.63108508398712
 21
29.04799144815047
 31
0.0
  0
LINE
  5
1B1
330
2
100
AcDbEntity
  8
GAIKEI
  6
Continuous
 62
     1
100
AcDbLine
 10
32.44785638786935
 20
31.42036548530067
 30
0.0
 11
31.91146382751215
 21
31.42036548530067
 31
0.0
  0
LINE
  5
1B2
330
2
100
AcDbEntity
  8
GAIKEI
  6
Continuous
 62
     1
100
AcDbLine
 10
31.89800205742684
 20
31.42036548530067
 30
0.0
 11
31.91146382751215
 21
31.42036548530067
 31
0.0
  0
LINE
  5
1B3
330
2
100
AcDbEntity
  8
GAIKEI
  6
Continuous
 62
     1
100
AcDbLine
 10
31.86174406398455
 20
7.42748753868247
 30
0.0
 11
31.86174406398455
 21
31.54728985664084
 31
0.0
  0
LINE
  5
1B4
330
2
100
AcDbEntity
  8
GAIKEI
  6
Continuous
 62
     1
100
AcDbLine
 10
31.2469475502913
 20
31.48947883425007
 30
0.0
 11
31.2469475502913
 21
7.646542558907128
 31
0.0
  0
LINE
  5
1B5
330
2
100
AcDbEntity
  8
GAIKEI
  6
Continuous
 62
     1
100
AcDbLine
 10
31.89800205742684
 20
31.55008058314471
 30
0.0
 11
31.89800205742684
 21
7.424704929428344
 31
0.0
  0
LINE
  5
1B6
330
2
100
AcDbEntity
  8
GAIKEI
  6
Continuous
 62
     1
100
AcDbLine
 10
-34.80646854701354
 20
7.604356530633623
 30
0.0
 11
-34.80646854701354
 21
7.624361668843704
 31
0.0
  0
LINE
  5
1B7
330
2
100
AcDbEntity
  8
GAIKEI
  6
Continuous
 62
     1
100
AcDbLine
 10
-34.82638423270874
 20
7.90956795589858
 30
0.0
 11
-34.42588724920052
 21
7.90956795589858
 31
0.0
  0
LINE
  5
1B8
330
2
100
AcDbEntity
  8
GAIKEI
  6
Continuous
 62
     1
100
AcDbLine
 10
-35.01048278664615
 20
7.802909722011264
 30
0.0
 11
-35.01048278664615
 21
31.17174805487215
 31
0.0
  0
LINE
  5
1B9
330
2
100
AcDbEntity
  8
GAIKEI
  6
Continuous
100
AcDbLine
 10
-37.9941341958662
 20
7.560757319306219
 30
0.0
 11
-37.9941341958662
 21
31.41390851385955
 31
0.0
  0
LINE
  5
1BA
330
2
100
AcDbEntity
  8
GAIKEI
  6
Continuous
 62
     1
100
AcDbLine
 10
-37.78342990820863
 20
7.802893331643616
 30
0.0
 11
-37.78342990820863
 21
31.17177222371933
 31
0.0
  0
LINE
  5
1BB
330
2
100
AcDbEntity
  8
GAIKEI
  6
Continuous
 62
     1
100
AcDbLine
 10
-37.96268604739356
 20
31.35239574690809
 30
0.0
 11
-37.96268604739351
 21
7.622261831610387
 31
0.0
  0
LINE
  5
1BC
330
2
100
AcDbEntity
  8
GAIKEI
  6
Continuous
 62
     1
100
AcDbLine
 10
-37.93923840979886
 20
7.646458384646194
 30
0.0
 11
-37.93923840979886
 21
31.32820744851961
 31
0.0
  0
LINE
  5
1BD
330
2
100
AcDbEntity
  8
GAIKEI
  6
Continuous
 62
     1
100
AcDbLine
 10
-34.85467456285875
 20
7.64701176790615
 30
0.0
 11
-34.85467456285875
 21
31.32765406525965
 31
0.0
  0
LINE
  5
1BE
330
2
100
AcDbEntity
  8
GAIKEI
  6
Continuous
 62
     1
100
AcDbLine
 10
-34.83131634435375
 20
7.618656025871302
 30
0.0
 11
-34.83123490601474
 21
31.35117493364052
 31
0.0
  0
LINE
  5
1BF
330
2
100
AcDbEntity
  8
GAIKEI
  6
Continuous
 62
     1
100
AcDbLine
 10
-34.42588724920052
 20
31.06508954318198
 30
0.0
 11
-34.83131634435375
 21
31.06508954318198
 31
0.0
  0
LINE
  5
1C0
330
2
100
AcDbEntity
  8
GAIKEI
  6
Continuous
100
AcDbLine
 10
-34.83124046025586
 20
7.624361668843704
 30
0.0
 11
-34.42588724920052
 21
7.624361668843704
 31
0.0
  0
LINE
  5
1C1
330
2
100
AcDbEntity
  8
GAIKEI
  6
Continuous
 62
     7
100
AcDbLine
 10
-34.43846665365266
 20
31.37030096844697
 30
0.0
 11
-34.80646854701354
 21
31.37030096844694
 31
0.0
  0
LINE
  5
1C2
330
2
100
AcDbEntity
  8
GAIKEI
  6
Continuous
 62
     1
100
AcDbLine
 10
-34.43846728205358
 20
7.604356530633623
 30
0.0
 11
-34.80646854701354
 21
7.604356530633623
 31
0.0
  0
TEXT
  5
1C3
330
2
100
AcDbEntity
  8
MOJI1
100
AcDbText
 10
-61.49178583191542
 20
-34.5778144673765
 30
0.0
 40
3.0
  1
階調数
100
AcDbText
  0
TEXT
  5
1C5
330
2
100
AcDbEntity
  8
MOJI1
100
AcDbText
 10
-61.49178583191542
 20
-29.5778144673765
 30
0.0
 40
3.0
  1
コントラスト
100
AcDbText
  0
LINE
  5
1C6
330
2
100
AcDbEntity
  8
WAKU
 62
     1
100
AcDbLine
 10
-63.99178583191542
 20
-35.5778144673765
 30
0.0
 11
61.00821416808435
 21
-35.5778144673765
 31
0.0
  0
LINE
  5
1C8
330
2
100
AcDbEntity
  8
WAKU
 62
     1
100
AcDbLine
 10
-63.99178583191542
 20
-30.5778144673765
 30
0.0
 11
61.00821416808435
 21
-30.5778144673765
 31
0.0
  0
TEXT
  5
1C9
330
2
100
AcDbEntity
  8
MOJI1
100
AcDbText
 10
-61.49178583191542
 20
-9.577814467376498
 30
0.0
 40
3.0
  1
電  源
100
AcDbText
  0
TEXT
  5
1CA
330
2
100
AcDbEntity
  8
MOJI1
100
AcDbText
 10
-61.49178583191542
 20
-14.5778144673765
 30
0.0
 40
3.0
  1
消費電力
100
AcDbText
  0
TEXT
  5
1CB
330
2
100
AcDbEntity
  8
MOJI1
100
AcDbText
 10
-61.49178583191542
 20
-19.5778144673765
 30
0.0
 40
3.0
  1
画面サイズ
100
AcDbText
  0
TEXT
  5
1CC
330
2
100
AcDbEntity
  8
MOJI1
100
AcDbText
 10
-22.49178583191542
 20
-14.5778144673765
 30
0.0
 40
3.0
  1
５９０Ｗ
100
AcDbText
  0
TEXT
  5
1CD
330
2
100
AcDbEntity
  8
MOJI1
100
AcDbText
 10
-22.49178583191542
 20
-19.5778144673765
 30
0.0
 40
3.0
  1
５０Ｖ型（１６：９）
100
AcDbText
  0
TEXT
  5
1CE
330
2
100
AcDbEntity
  8
MOJI1
100
AcDbText
 10
-22.49178583191542
 20
-9.577814467376498
 30
0.0
 40
3.0
  1
ＡＣ１００Ｖ±１０％　５０Ｈｚ／６０Ｈｚ
100
AcDbText
  0
TEXT
  5
1CF
330
2
100
AcDbEntity
  8
MOJI1
100
AcDbText
 10
-61.49178583191542
 20
-44.5778144673765
 30
0.0
 40
3.0
  1
接続端子
100
AcDbText
  0
TEXT
  5
1D0
330
2
100
AcDbEntity
  8
MOJI1
100
AcDbText
 10
-61.49178583191542
 20
-39.5778144673765
 30
0.0
 40
3.0
  1
音声最大出力
100
AcDbText
  0
TEXT
  5
1D1
330
2
100
AcDbEntity
  8
MOJI1
100
AcDbText
 10
-22.49178583191542
 20
-39.5778144673765
 30
0.0
 40
3.0
  1
１６Ｗ（８Ｗ＋８Ｗ）
100
AcDbText
  0
TEXT
  5
1D2
330
2
100
AcDbEntity
  8
MOJI1
100
AcDbText
 10
-22.49178583191542
 20
-44.5778144673765
 30
0.0
 40
3.0
  1
ＤＶＩ－Ｄ／コンポーネントビデオ／ＰＣ
100
AcDbText
  0
TEXT
  5
1D3
330
2
100
AcDbEntity
  8
MOJI1
100
AcDbText
 10
-22.49178583191542
 20
-24.5778144673765
 30
0.0
 40
3.0
  1
水平１９２０×垂直１０８０　画素
100
AcDbText
  0
LINE
  5
1D4
330
2
100
AcDbEntity
  8
WAKU
 62
     4
100
AcDbLine
 10
-23.99178583191565
 20
-5.577814467376498
 30
0.0
 11
-23.99178583191565
 21
-50.57781446737649
 31
0.0
  0
TEXT
  5
1D5
330
2
100
AcDbEntity
  8
MOJI1
100
AcDbText
 10
-61.49178583191542
 20
-24.5778144673765
 30
0.0
 40
3.0
  1
画素数
100
AcDbText
  0
LINE
  5
1D6
330
2
100
AcDbEntity
  8
WAKU
 62
     4
100
AcDbLine
 10
61.00821416808435
 20
-5.577814467376498
 30
0.0
 11
61.00821416808435
 21
-50.57781446737649
 31
0.0
  0
LINE
  5
1D7
330
2
100
AcDbEntity
  8
WAKU
 62
     4
100
AcDbLine
 10
-63.99178583191565
 20
-5.577814467376498
 30
0.0
 11
-63.99178583191542
 21
-50.57781446737649
 31
0.0
  0
LINE
  5
1D8
330
2
100
AcDbEntity
  8
WAKU
 62
     4
100
AcDbLine
 10
61.00821416808435
 20
-50.57781446737649
 30
0.0
 11
-63.99178583191542
 21
-50.57781446737649
 31
0.0
  0
LINE
  5
1D9
330
2
100
AcDbEntity
  8
WAKU
 62
     1
100
AcDbLine
 10
-63.99178583191542
 20
-45.57781446737649
 30
0.0
 11
61.00821416808435
 21
-45.57781446737649
 31
0.0
  0
LINE
  5
1DA
330
2
100
AcDbEntity
  8
WAKU
 62
     1
100
AcDbLine
 10
-63.99178583191542
 20
-40.57781446737649
 30
0.0
 11
61.00821416808435
 21
-40.57781446737649
 31
0.0
  0
LINE
  5
1DB
330
2
100
AcDbEntity
  8
WAKU
 62
     1
100
AcDbLine
 10
-63.99178583191542
 20
-20.5778144673765
 30
0.0
 11
61.00821416808435
 21
-20.5778144673765
 31
0.0
  0
LINE
  5
1DC
330
2
100
AcDbEntity
  8
WAKU
 62
     1
100
AcDbLine
 10
-63.99178583191542
 20
-10.5778144673765
 30
0.0
 11
61.00821416808435
 21
-10.5778144673765
 31
0.0
  0
LINE
  5
1DD
330
2
100
AcDbEntity
  8
WAKU
 62
     4
100
AcDbLine
 10
-63.99178583191542
 20
-5.577814467376498
 30
0.0
 11
61.00821416808435
 21
-5.577814467376498
 31
0.0
  0
LINE
  5
1DE
330
2
100
AcDbEntity
  8
WAKU
 62
     1
100
AcDbLine
 10
-63.99178583191542
 20
-25.5778144673765
 30
0.0
 11
61.00821416808435
 21
-25.5778144673765
 31
0.0
  0
LINE
  5
1DF
330
2
100
AcDbEntity
  8
WAKU
 62
     1
100
AcDbLine
 10
-63.99178583191542
 20
-15.5778144673765
 30
0.0
 11
61.00821416808435
 21
-15.5778144673765
 31
0.0
  0
TEXT
  5
1E0
330
2
100
AcDbEntity
  8
MOJI1
100
AcDbText
 10
-22.49178583191542
 20
-34.5778144673765
 30
0.0
 40
3.0
  1
５１２０階調（相当）
100
AcDbText
  0
TEXT
  5
1E1
330
2
100
AcDbEntity
  8
MOJI1
100
AcDbText
 10
-22.49178583191542
 20
-29.5778144673765
 30
0.0
 40
3.0
  1
３００００：１
100
AcDbText
  0
TEXT
  5
1E2
330
2
100
AcDbEntity
  8
MOJI1
100
AcDbText
 10
-22.49178583191542
 20
-49.5778144673765
 30
0.0
 40
3.0
  1
外部スピーカ／シリアル
100
AcDbText
  0
TEXT
  5
1E3
330
2
100
AcDbEntity
  8
TOUROKU
100
AcDbText
 10
13.80816420101189
 20
52.42218553262327
 30
0.0
 40
2.0
  1
ＴＨ５０ＰＦ１１ＫＲ＋ＴＹＳＰ５０Ｐ８Ｋ
 72
     2
 11
61.00816420101188
 21
52.42218553262327
 31
0.0
100
AcDbText
  0
TEXT
  5
1E4
330
2
100
AcDbEntity
  8
MOJI1
100
AcDbText
 10
-36.99178583191565
 20
58.4221855326235
 30
0.0
 40
4.0
  1
ハイビジョンプラズマディスプレイスピーカ付
 41
0.95
100
AcDbText
  0
ENDSEC
  0
SECTION
  2
OBJECTS
  0
DICTIONARY
  5
7
330
0
100
AcDbDictionary
281
     1
  3
ACAD_COLOR
350
2C
  3
ACAD_GROUP
350
28
  3
ACAD_LAYOUT
350
B
  3
ACAD_MATERIAL
350
2B
  3
ACAD_MLINESTYLE
350
29
  3
ACAD_PLOTSETTINGS
350
2A
  3
ACAD_PLOTSTYLENAME
350
6
  3
ACDBHEADERROUNDTRIPXREC
350
22F
  3
AcDbVariableDictionary
350
22A
  0
DICTIONARY
  5
11
330
10
100
AcDbDictionary
280
     1
281
     1
  3
ACAD_LAYERSTATES
360
12
  0
DICTIONARY
  5
2C
102
{ACAD_REACTORS
330
7
102
}
330
7
100
AcDbDictionary
281
     1
  0
DICTIONARY
  5
28
102
{ACAD_REACTORS
330
7
102
}
330
7
100
AcDbDictionary
281
     1
  0
DICTIONARY
  5
B
102
{ACAD_REACTORS
330
7
102
}
330
7
100
AcDbDictionary
281
     1
  3
Model
350
A
  3
レイアウト1
350
F
  0
DICTIONARY
  5
2B
102
{ACAD_REACTORS
330
7
102
}
330
7
100
AcDbDictionary
281
     1
  0
DICTIONARY
  5
29
102
{ACAD_REACTORS
330
7
102
}
330
7
100
AcDbDictionary
281
     1
  3
Standard
350
2E
  0
DICTIONARY
  5
2A
102
{ACAD_REACTORS
330
7
102
}
330
7
100
AcDbDictionary
281
     1
  0
ACDBDICTIONARYWDFLT
  5
6
102
{ACAD_REACTORS
330
7
102
}
330
7
100
AcDbDictionary
281
     1
  3
Normal
350
5
100
AcDbDictionaryWithDefault
340
5
  0
DICTIONARY
  5
22F
102
{ACAD_REACTORS
330
7
102
}
330
7
100
AcDbDictionary
281
     1
  3
COLORDICT
350
231
  3
MATERIALDICT
350
230
  0
DICTIONARY
  5
22A
102
{ACAD_REACTORS
330
7
102
}
330
7
100
AcDbDictionary
281
     1
  3
DIMASSOC
350
22C
  3
HIDETEXT
350
22B
  3
PROJECTNAME
350
22D
  0
DICTIONARY
  5
12
102
{ACAD_REACTORS
330
11
102
}
330
11
100
AcDbDictionary
281
     1
  0
LAYOUT
  5
A
102
{ACAD_XDICTIONARY
360
232
102
}
102
{ACAD_REACTORS
330
B
102
}
330
B
100
AcDbPlotSettings
  1

  2
Ａ４－縦3FRIM01.pc3
  4
A4
  6

 40
5.873749732971191
 41
5.873747825622558
 42
5.873748779296875
 43
5.873748779296875
 44
209.9733276367187
 45
296.9259948730469
 46
5.419999999999999
 47
0.0
 48
6.882095232559095
 49
141.0756786076379
140
239.450961859417
141
347.3703312460464
142
1.0
143
1.382352038090321
 70
 11956
 72
     1
 73
     0
 74
     1
  7
tmsacad.ctb
 75
     0
147
0.7234047279168268
148
0.009347667835641
149
0.0009286512015478
100
AcDbLayout
  1
Model
 70
     1
 71
     0
 10
0.0
 20
0.0
 11
12.0
 21
9.0
 12
0.0
 22
0.0
 32
0.0
 14
0.0
 24
0.0
 34
0.0
 15
0.0
 25
0.0
 35
0.0
146
0.0
 13
0.0
 23
0.0
 33
0.0
 16
1.0
 26
0.0
 36
0.0
 17
0.0
 27
1.0
 37
0.0
 76
     0
330
2
  0
LAYOUT
  5
F
102
{ACAD_XDICTIONARY
360
234
102
}
102
{ACAD_REACTORS
330
B
102
}
330
B
100
AcDbPlotSettings
  1

  2
None
  4

  6

 40
0.0
 41
0.0
 42
0.0
 43
0.0
 44
0.0
 45
0.0
 46
0.0
 47
0.0
 48
0.0
 49
0.0
140
0.0
141
0.0
142
1.0
143
1.0
 70
   688
 72
     0
 73
     0
 74
     5
  7
tmsacad.ctb
 75
    16
147
1.0
148
0.0
149
0.0
100
AcDbLayout
  1
レイアウト1
 70
     1
 71
     1
 10
0.0
 20
0.0
 11
12.0
 21
9.0
 12
0.0
 22
0.0
 32
0.0
 14
0.0
 24
0.0
 34
0.0
 15
0.0
 25
0.0
 35
0.0
146
0.0
 13
0.0
 23
0.0
 33
0.0
 16
1.0
 26
0.0
 36
0.0
 17
0.0
 27
1.0
 37
0.0
 76
     0
330
C
  0
MLINESTYLE
  5
2E
102
{ACAD_REACTORS
330
29
102
}
330
29
100
AcDbMlineStyle
  2
STANDARD
 70
     0
  3

 62
   256
 51
90.0
 52
90.0
 71
     2
 49
0.5
 62
   256
  6
BYLAYER
 49
-0.5
 62
   256
  6
BYLAYER
  0
ACDBPLACEHOLDER
  5
5
102
{ACAD_REACTORS
330
6
102
}
330
6
  0
XRECORD
  5
231
102
{ACAD_REACTORS
330
22F
102
}
330
22F
100
AcDbXrecord
280
     1
340
2C
  0
XRECORD
  5
230
102
{ACAD_REACTORS
330
22F
102
}
330
22F
100
AcDbXrecord
280
     1
340
2B
  0
DICTIONARYVAR
  5
22C
102
{ACAD_REACTORS
330
22A
102
}
330
22A
100
DictionaryVariables
280
     0
  1
1
  0
DICTIONARYVAR
  5
22B
102
{ACAD_REACTORS
330
22A
102
}
330
22A
100
DictionaryVariables
280
     0
  1
1
  0
DICTIONARYVAR
  5
22D
102
{ACAD_REACTORS
330
22A
102
}
330
22A
100
DictionaryVariables
280
     0
  1

  0
DICTIONARY
  5
232
330
A
100
AcDbDictionary
280
     1
281
     1
  3
ACAD_XREC_ROUNDTRIP
360
233
  0
DICTIONARY
  5
234
330
F
100
AcDbDictionary
280
     1
281
     1
  3
ACAD_XREC_ROUNDTRIP
360
235
  0
XRECORD
  5
233
102
{ACAD_REACTORS
330
232
102
}
330
232
100
AcDbXrecord
280
     1
102
SHADEPLOT
 70
     0
102
SHADEPLOTRESLEVEL
 70
     2
102
SHADEPLOTCUSTOMDPI
 70
   300
  0
XRECORD
  5
235
102
{ACAD_REACTORS
330
234
102
}
330
234
100
AcDbXrecord
280
     1
102
SHADEPLOT
 70
     0
102
SHADEPLOTRESLEVEL
 70
     2
102
SHADEPLOTCUSTOMDPI
 70
   300
  0
ENDSEC
  0
EOF
