  0
SECTION
  2
HEADER
  9
$ACADVER
  1
AC1015
  9
$ACADMAINTVER
 70
    20
  9
$DWGCODEPAGE
  3
ANSI_932
  9
$INSBASE
 10
129.499999944041
 20
120.5008351249346
 30
0.0
  9
$EXTMIN
 10
-61.79260163310982
 20
-59.67100462698261
 30
-0.0015258207003583
  9
$EXTMAX
 10
63.24096735944158
 20
53.3535923268106
 30
0.0000000349246037
  9
$LIMMIN
 10
0.0
 20
0.0
  9
$LIMMAX
 10
420.0
 20
297.0
  9
$ORTHOMODE
 70
     1
  9
$REGENMODE
 70
     0
  9
$FILLMODE
 70
     1
  9
$QTEXTMODE
 70
     0
  9
$MIRRTEXT
 70
     0
  9
$LTSCALE
 40
1.0
  9
$ATTMODE
 70
     1
  9
$TEXTSIZE
 40
2.5
  9
$TRACEWID
 40
1.0
  9
$TEXTSTYLE
  7
Standard
  9
$CLAYER
  8
SUNPO
  9
$CELTYPE
  6
ByLayer
  9
$CECOLOR
 62
   256
  9
$CELTSCALE
 40
1.0
  9
$DISPSILH
 70
     0
  9
$DIMSCALE
 40
1.0
  9
$DIMASZ
 40
2.0
  9
$DIMEXO
 40
2.0
  9
$DIMDLI
 40
8.0
  9
$DIMRND
 40
0.0
  9
$DIMDLE
 40
0.0
  9
$DIMEXE
 40
2.0
  9
$DIMTP
 40
0.0
  9
$DIMTM
 40
0.0
  9
$DIMTXT
 40
2.5
  9
$DIMCEN
 40
0.0
  9
$DIMTSZ
 40
0.0
  9
$DIMTOL
 70
     0
  9
$DIMLIM
 70
     0
  9
$DIMTIH
 70
     0
  9
$DIMTOH
 70
     0
  9
$DIMSE1
 70
     0
  9
$DIMSE2
 70
     0
  9
$DIMTAD
 70
     3
  9
$DIMZIN
 70
     0
  9
$DIMBLK
  1

  9
$DIMASO
 70
     1
  9
$DIMSHO
 70
     1
  9
$DIMPOST
  1

  9
$DIMAPOST
  1

  9
$DIMALT
 70
     0
  9
$DIMALTD
 70
     2
  9
$DIMALTF
 40
25.4
  9
$DIMLFAC
 40
1.0
  9
$DIMTOFL
 70
     1
  9
$DIMTVP
 40
0.0
  9
$DIMTIX
 70
     0
  9
$DIMSOXD
 70
     0
  9
$DIMSAH
 70
     1
  9
$DIMBLK1
  1
OPEN30
  9
$DIMBLK2
  1
OPEN30
  9
$DIMSTYLE
  2
STANDARD
  9
$DIMCLRD
 70
     0
  9
$DIMCLRE
 70
     0
  9
$DIMCLRT
 70
     0
  9
$DIMTFAC
 40
1.0
  9
$DIMGAP
 40
0.5
  9
$DIMJUST
 70
     0
  9
$DIMSD1
 70
     0
  9
$DIMSD2
 70
     0
  9
$DIMTOLJ
 70
     1
  9
$DIMTZIN
 70
     0
  9
$DIMALTZ
 70
     0
  9
$DIMALTTZ
 70
     0
  9
$DIMUPT
 70
     0
  9
$DIMDEC
 70
     4
  9
$DIMTDEC
 70
     4
  9
$DIMALTU
 70
     2
  9
$DIMALTTD
 70
     2
  9
$DIMTXSTY
  7
Standard
  9
$DIMAUNIT
 70
     0
  9
$DIMADEC
 70
     0
  9
$DIMALTRND
 40
0.0
  9
$DIMAZIN
 70
     0
  9
$DIMDSEP
 70
    46
  9
$DIMATFIT
 70
     3
  9
$DIMFRAC
 70
     0
  9
$DIMLDRBLK
  1
OPEN30
  9
$DIMLUNIT
 70
     2
  9
$DIMLWD
 70
    -2
  9
$DIMLWE
 70
    -2
  9
$DIMTMOVE
 70
     0
  9
$LUNITS
 70
     2
  9
$LUPREC
 70
     4
  9
$SKETCHINC
 40
1.0
  9
$FILLETRAD
 40
0.0
  9
$AUNITS
 70
     0
  9
$AUPREC
 70
     0
  9
$MENU
  1
.
  9
$ELEVATION
 40
0.0
  9
$PELEVATION
 40
0.0
  9
$THICKNESS
 40
0.0
  9
$LIMCHECK
 70
     0
  9
$CHAMFERA
 40
0.0
  9
$CHAMFERB
 40
0.0
  9
$CHAMFERC
 40
0.0
  9
$CHAMFERD
 40
0.0
  9
$SKPOLY
 70
     0
  9
$TDCREATE
 40
2454349.434269746
  9
$TDUCREATE
 40
2454349.059269746
  9
$TDUPDATE
 40
2455292.623942824
  9
$TDUUPDATE
 40
2455292.248942824
  9
$TDINDWG
 40
0.4172356829
  9
$TDUSRTIMER
 40
0.4172356829
  9
$USRTIMER
 70
     1
  9
$ANGBASE
 50
0.0
  9
$ANGDIR
 70
     0
  9
$PDMODE
 70
     0
  9
$PDSIZE
 40
0.0
  9
$PLINEWID
 40
0.0
  9
$SPLFRAME
 70
     0
  9
$SPLINETYPE
 70
     6
  9
$SPLINESEGS
 70
     8
  9
$HANDSEED
  5
30B
  9
$SURFTAB1
 70
     6
  9
$SURFTAB2
 70
     6
  9
$SURFTYPE
 70
     6
  9
$SURFU
 70
     6
  9
$SURFV
 70
     6
  9
$UCSBASE
  2

  9
$UCSNAME
  2

  9
$UCSORG
 10
0.0
 20
0.0
 30
0.0
  9
$UCSXDIR
 10
1.0
 20
0.0
 30
0.0
  9
$UCSYDIR
 10
0.0
 20
1.0
 30
0.0
  9
$UCSORTHOREF
  2

  9
$UCSORTHOVIEW
 70
     0
  9
$UCSORGTOP
 10
0.0
 20
0.0
 30
0.0
  9
$UCSORGBOTTOM
 10
0.0
 20
0.0
 30
0.0
  9
$UCSORGLEFT
 10
0.0
 20
0.0
 30
0.0
  9
$UCSORGRIGHT
 10
0.0
 20
0.0
 30
0.0
  9
$UCSORGFRONT
 10
0.0
 20
0.0
 30
0.0
  9
$UCSORGBACK
 10
0.0
 20
0.0
 30
0.0
  9
$PUCSBASE
  2

  9
$PUCSNAME
  2

  9
$PUCSORG
 10
0.0
 20
0.0
 30
0.0
  9
$PUCSXDIR
 10
1.0
 20
0.0
 30
0.0
  9
$PUCSYDIR
 10
0.0
 20
1.0
 30
0.0
  9
$PUCSORTHOREF
  2

  9
$PUCSORTHOVIEW
 70
     0
  9
$PUCSORGTOP
 10
0.0
 20
0.0
 30
0.0
  9
$PUCSORGBOTTOM
 10
0.0
 20
0.0
 30
0.0
  9
$PUCSORGLEFT
 10
0.0
 20
0.0
 30
0.0
  9
$PUCSORGRIGHT
 10
0.0
 20
0.0
 30
0.0
  9
$PUCSORGFRONT
 10
0.0
 20
0.0
 30
0.0
  9
$PUCSORGBACK
 10
0.0
 20
0.0
 30
0.0
  9
$USERI1
 70
     0
  9
$USERI2
 70
     0
  9
$USERI3
 70
     0
  9
$USERI4
 70
     0
  9
$USERI5
 70
     0
  9
$USERR1
 40
0.0
  9
$USERR2
 40
0.0
  9
$USERR3
 40
0.0
  9
$USERR4
 40
0.0
  9
$USERR5
 40
0.0
  9
$WORLDVIEW
 70
     1
  9
$SHADEDGE
 70
     3
  9
$SHADEDIF
 70
    70
  9
$TILEMODE
 70
     1
  9
$MAXACTVP
 70
    64
  9
$PINSBASE
 10
0.0
 20
0.0
 30
0.0
  9
$PLIMCHECK
 70
     0
  9
$PEXTMIN
 10
0.0
 20
0.0
 30
0.0
  9
$PEXTMAX
 10
0.0
 20
0.0
 30
0.0
  9
$PLIMMIN
 10
0.0
 20
0.0
  9
$PLIMMAX
 10
12.0
 20
9.0
  9
$UNITMODE
 70
     0
  9
$VISRETAIN
 70
     1
  9
$PLINEGEN
 70
     0
  9
$PSLTSCALE
 70
     1
  9
$TREEDEPTH
 70
  3020
  9
$CMLSTYLE
  2
Standard
  9
$CMLJUST
 70
     0
  9
$CMLSCALE
 40
20.0
  9
$PROXYGRAPHICS
 70
     1
  9
$MEASUREMENT
 70
     1
  9
$CELWEIGHT
370
    -1
  9
$ENDCAPS
280
     0
  9
$JOINSTYLE
280
     0
  9
$LWDISPLAY
290
     0
  9
$INSUNITS
 70
     4
  9
$HYPERLINKBASE
  1

  9
$STYLESHEET
  1

  9
$XEDIT
290
     1
  9
$CEPSNTYPE
380
     0
  9
$PSTYLEMODE
290
     1
  9
$FINGERPRINTGUID
  2
{FDEAD578-A652-11D2-9A35-0060089B3A3F}
  9
$VERSIONGUID
  2
{8BC3C85A-A214-40B7-A0EE-D719A0686852}
  9
$EXTNAMES
290
     1
  9
$PSVPSCALE
 40
0.0
  9
$OLESTARTUP
290
     0
  0
ENDSEC
  0
SECTION
  2
CLASSES
  0
CLASS
  1
ACDBDICTIONARYWDFLT
  2
AcDbDictionaryWithDefault
  3
ObjectDBX Classes
 90
        0
280
     0
281
     0
  0
CLASS
  1
ACDBPLACEHOLDER
  2
AcDbPlaceHolder
  3
ObjectDBX Classes
 90
        0
280
     0
281
     0
  0
CLASS
  1
LAYOUT
  2
AcDbLayout
  3
ObjectDBX Classes
 90
        0
280
     0
281
     0
  0
CLASS
  1
DICTIONARYVAR
  2
AcDbDictionaryVar
  3
ObjectDBX Classes
 90
        0
280
     0
281
     0
  0
CLASS
  1
SORTENTSTABLE
  2
AcDbSortentsTable
  3
ObjectDBX Classes
 90
    32768
280
     0
281
     0
  0
ENDSEC
  0
SECTION
  2
TABLES
  0
TABLE
  2
VPORT
  5
1C
330
0
100
AcDbSymbolTable
 70
     3
  0
VPORT
  5
303
330
1C
100
AcDbSymbolTableRecord
100
AcDbViewportTableRecord
  2
*Active
 70
     0
 10
0.0
 20
0.0
 11
1.0
 21
1.0
 12
0.7241828631658791
 22
-3.158706150086004
 13
0.0
 23
0.0
 14
10.0
 24
10.0
 15
10.0
 25
10.0
 16
0.0
 26
0.0
 36
1.0
 17
0.0
 27
0.0
 37
0.0
 40
113.8884792235037
 41
1.392857142857142
 42
50.0
 43
0.0
 44
0.0
 50
0.0
 51
0.0
 71
     0
 72
  1000
 73
     1
 74
     2
 75
     0
 76
     0
 77
     0
 78
     0
281
     0
 65
     1
110
0.0
120
0.0
130
0.0
111
1.0
121
0.0
131
0.0
112
0.0
122
1.0
132
0.0
 79
     0
146
0.0
  0
ENDTAB
  0
TABLE
  2
LTYPE
  5
17
330
0
100
AcDbSymbolTable
 70
     1
  0
LTYPE
  5
18
330
17
100
AcDbSymbolTableRecord
100
AcDbLinetypeTableRecord
  2
ByBlock
 70
     0
  3

 72
    65
 73
     0
 40
0.0
  0
LTYPE
  5
19
330
17
100
AcDbSymbolTableRecord
100
AcDbLinetypeTableRecord
  2
ByLayer
 70
     0
  3

 72
    65
 73
     0
 40
0.0
  0
LTYPE
  5
8
330
17
100
AcDbSymbolTableRecord
100
AcDbLinetypeTableRecord
  2
Continuous
 70
     0
  3
Solid line
 72
    65
 73
     0
 40
0.0
  0
ENDTAB
  0
TABLE
  2
LAYER
  5
10
102
{ACAD_XDICTIONARY
360
11
102
}
330
0
100
AcDbSymbolTable
 70
     7
  0
LAYER
  5
4
330
10
100
AcDbSymbolTableRecord
100
AcDbLayerTableRecord
  2
0
 70
     0
 62
     7
  6
Continuous
370
    -3
390
5
  0
LAYER
  5
38
330
10
100
AcDbSymbolTableRecord
100
AcDbLayerTableRecord
  2
WAKU
 70
     0
 62
     4
  6
Continuous
370
    -3
390
5
  0
LAYER
  5
31
330
10
100
AcDbSymbolTableRecord
100
AcDbLayerTableRecord
  2
MOJI1
 70
     0
 62
     2
  6
Continuous
370
    -3
390
5
  0
LAYER
  5
33
330
10
100
AcDbSymbolTableRecord
100
AcDbLayerTableRecord
  2
TOUROKU
 70
     0
 62
     1
  6
Continuous
370
    -3
390
5
  0
LAYER
  5
5D
330
10
100
AcDbSymbolTableRecord
100
AcDbLayerTableRecord
  2
DEFPOINTS
 70
     0
 62
     7
  6
Continuous
290
     0
370
    -3
390
5
  0
LAYER
  5
62
330
10
100
AcDbSymbolTableRecord
100
AcDbLayerTableRecord
  2
GAIKEI
 70
     0
 62
     7
  6
Continuous
370
    -3
390
5
  0
LAYER
  5
2E
330
10
100
AcDbSymbolTableRecord
100
AcDbLayerTableRecord
  2
SUNPO
 70
     0
 62
     3
  6
Continuous
370
    -3
390
5
  0
ENDTAB
  0
TABLE
  2
STYLE
  5
14
330
0
100
AcDbSymbolTable
 70
     1
  0
STYLE
  5
15
330
14
100
AcDbSymbolTableRecord
100
AcDbTextStyleTableRecord
  2
Standard
 70
     0
 40
0.0
 41
1.0
 50
0.0
 71
     0
 42
2.5
  3
MONOTXT.shx
  4
BIGFONT.shx
  0
ENDTAB
  0
TABLE
  2
VIEW
  5
1A
330
0
100
AcDbSymbolTable
 70
     0
  0
ENDTAB
  0
TABLE
  2
UCS
  5
1B
330
0
100
AcDbSymbolTable
 70
     0
  0
ENDTAB
  0
TABLE
  2
APPID
  5
1E
330
0
100
AcDbSymbolTable
 70
     1
  0
APPID
  5
1F
330
1E
100
AcDbSymbolTableRecord
100
AcDbRegAppTableRecord
  2
ACAD
 70
     0
  0
ENDTAB
  0
TABLE
  2
DIMSTYLE
  5
20
330
0
100
AcDbSymbolTable
 70
     1
100
AcDbDimStyleTable
 71
     1
340
21
  0
DIMSTYLE
105
21
102
{ACAD_REACTORS
330
2AB
330
16B
330
15E
330
53
102
}
330
20
100
AcDbSymbolTableRecord
100
AcDbDimStyleTableRecord
  2
STANDARD
 70
     0
 40
0.0
 41
2.0
 42
2.0
 43
8.0
 44
2.0
 73
     0
 74
     0
 77
     3
140
3.0
141
0.0
173
     1
279
     2
288
     1
340
15
341
22
343
22
344
22
  0
ENDTAB
  0
TABLE
  2
BLOCK_RECORD
  5
1
330
0
100
AcDbSymbolTable
 70
     9
  0
BLOCK_RECORD
  5
2
330
1
100
AcDbSymbolTableRecord
100
AcDbBlockTableRecord
  2
*Model_Space
340
A
  0
BLOCK_RECORD
  5
C
330
1
100
AcDbSymbolTableRecord
100
AcDbBlockTableRecord
  2
*Paper_Space
340
F
  0
BLOCK_RECORD
  5
22
330
1
100
AcDbSymbolTableRecord
100
AcDbBlockTableRecord
  2
_OPEN30
340
0
102
{BLKREFS
331
59
331
5A
331
164
331
165
331
2B3
331
2B4
331
171
331
172
331
2D3
331
2D4
331
2DF
331
2E0
331
2EB
331
2EC
331
2F7
331
2F8
102
}
  0
BLOCK_RECORD
  5
2AC
330
1
100
AcDbSymbolTableRecord
100
AcDbBlockTableRecord
  2
*D1
340
0
  0
BLOCK_RECORD
  5
16C
330
1
100
AcDbSymbolTableRecord
100
AcDbBlockTableRecord
  2
*D2
340
0
  0
BLOCK_RECORD
  5
15F
330
1
100
AcDbSymbolTableRecord
100
AcDbBlockTableRecord
  2
*D3
340
0
  0
BLOCK_RECORD
  5
54
330
1
100
AcDbSymbolTableRecord
100
AcDbBlockTableRecord
  2
*D4
340
0
  0
BLOCK_RECORD
  5
2CD
330
1
100
AcDbSymbolTableRecord
100
AcDbBlockTableRecord
  2
*D5
340
0
  0
BLOCK_RECORD
  5
2DB
330
1
100
AcDbSymbolTableRecord
100
AcDbBlockTableRecord
  2
*D6
340
0
  0
BLOCK_RECORD
  5
2E7
330
1
100
AcDbSymbolTableRecord
100
AcDbBlockTableRecord
  2
*D7
340
0
  0
BLOCK_RECORD
  5
2F3
330
1
100
AcDbSymbolTableRecord
100
AcDbBlockTableRecord
  2
*D8
340
0
  0
ENDTAB
  0
ENDSEC
  0
SECTION
  2
BLOCKS
  0
BLOCK
  5
3
330
2
100
AcDbEntity
  8
0
100
AcDbBlockBegin
  2
*Model_Space
 70
     0
 10
0.0
 20
0.0
 30
0.0
  3
*Model_Space
  1

  0
ENDBLK
  5
9
330
2
100
AcDbEntity
  8
0
100
AcDbBlockEnd
  0
BLOCK
  5
D
330
C
100
AcDbEntity
 67
     1
  8
0
100
AcDbBlockBegin
  2
*Paper_Space
 70
     0
 10
0.0
 20
0.0
 30
0.0
  3
*Paper_Space
  1

  0
ENDBLK
  5
E
330
C
100
AcDbEntity
 67
     1
  8
0
100
AcDbBlockEnd
  0
BLOCK
  5
23
330
22
100
AcDbEntity
  8
0
100
AcDbBlockBegin
  2
_OPEN30
 70
     0
 10
0.0
 20
0.0
 30
0.0
  3
_OPEN30
  1

  0
LINE
  5
24
330
22
100
AcDbEntity
  8
0
  6
ByBlock
 62
     0
100
AcDbLine
 10
-1.0
 20
0.26794919
 30
0.0
 11
0.0
 21
0.0
 31
0.0
  0
LINE
  5
25
330
22
100
AcDbEntity
  8
0
  6
ByBlock
 62
     0
100
AcDbLine
 10
0.0
 20
0.0
 30
0.0
 11
-1.0
 21
-0.26794919
 31
0.0
  0
LINE
  5
26
330
22
100
AcDbEntity
  8
0
  6
ByBlock
 62
     0
100
AcDbLine
 10
0.0
 20
0.0
 30
0.0
 11
-1.0
 21
0.0
 31
0.0
  0
ENDBLK
  5
27
330
22
100
AcDbEntity
  8
0
100
AcDbBlockEnd
  0
BLOCK
  5
2AD
330
2AC
100
AcDbEntity
  8
0
100
AcDbBlockBegin
  2
*D1
 70
     1
 10
0.0
 20
0.0
 30
0.0
  3
*D1
  1

  0
LINE
  5
2AE
330
2AC
100
AcDbEntity
  8
SUNPO
 62
     0
370
    -2
100
AcDbLine
 10
230.5293522297889
 20
93.89146376508534
 30
0.0
 11
230.5293522297889
 21
101.8914413856672
 31
0.0
  0
LINE
  5
2AF
330
2AC
100
AcDbEntity
  8
SUNPO
 62
     0
370
    -2
100
AcDbLine
 10
234.9793522297889
 20
93.89146376508534
 30
0.0
 11
234.9793522297889
 21
101.8914413856672
 31
0.0
  0
LINE
  5
2B0
330
2AC
100
AcDbEntity
  8
SUNPO
 62
     0
370
    -2
100
AcDbLine
 10
228.5293522297889
 20
99.89144138566725
 30
0.0
 11
226.5293522297889
 21
99.89144138566725
 31
0.0
  0
LINE
  5
2B1
330
2AC
100
AcDbEntity
  8
SUNPO
 62
     0
370
    -2
100
AcDbLine
 10
236.9793522297889
 20
99.89144138566725
 30
0.0
 11
244.1460188964556
 21
99.89144138566725
 31
0.0
  0
LINE
  5
2B2
330
2AC
100
AcDbEntity
  8
SUNPO
 62
     0
370
    -2
100
AcDbLine
 10
230.5293522297889
 20
99.89144138566725
 30
0.0
 11
234.9793522297889
 21
99.89144138566725
 31
0.0
  0
INSERT
  5
2B3
330
2AC
100
AcDbEntity
  8
SUNPO
 62
     0
370
    -2
100
AcDbBlockReference
  2
_OPEN30
 10
230.5293522297889
 20
99.89144138566725
 30
0.0
 41
2.0
 42
2.0
 43
2.0
  0
INSERT
  5
2B4
330
2AC
100
AcDbEntity
  8
SUNPO
 62
     0
370
    -2
100
AcDbBlockReference
  2
_OPEN30
 10
234.9793522297889
 20
99.89144138566725
 30
0.0
 41
2.0
 42
2.0
 43
2.0
 50
180.0
  0
MTEXT
  5
2B5
330
2AC
100
AcDbEntity
  8
SUNPO
 62
     0
100
AcDbMText
 10
241.5626855631222
 20
101.6414413856672
 30
0.0
 40
2.5
 41
0.0
 71
     5
 72
     1
  1
\A1;89
 73
     1
 44
1.0
1001
ACAD
1000
MTEXTBEGIN
1070
    73
1070
     1
1070
    44
1040
1.0
1070
    74
1070
     0
1000
MTEXTEND
  0
POINT
  5
2B6
330
2AC
100
AcDbEntity
  8
DEFPOINTS
 62
     0
100
AcDbPoint
 10
230.5293522297889
 20
91.89146376508535
 30
0.0
  0
POINT
  5
2B7
330
2AC
100
AcDbEntity
  8
DEFPOINTS
 62
     0
100
AcDbPoint
 10
234.9793522297889
 20
91.89146376508535
 30
0.0
  0
POINT
  5
2B8
330
2AC
100
AcDbEntity
  8
DEFPOINTS
 62
     0
100
AcDbPoint
 10
234.9793522297889
 20
99.89144138566725
 30
0.0
  0
ENDBLK
  5
2B9
330
2AC
100
AcDbEntity
  8
0
100
AcDbBlockEnd
  0
BLOCK
  5
16D
330
16C
100
AcDbEntity
  8
0
100
AcDbBlockBegin
  2
*D2
 70
     1
 10
0.0
 20
0.0
 30
0.0
  3
*D2
  1

  0
LINE
  5
16E
330
16C
100
AcDbEntity
  8
SUNPO
 62
     0
370
    -2
100
AcDbLine
 10
212.9235383955429
 20
55.68521770487757
 30
0.0
 11
220.9235383955429
 21
55.68521770487757
 31
0.0
  0
LINE
  5
16F
330
16C
100
AcDbEntity
  8
SUNPO
 62
     0
370
    -2
100
AcDbLine
 10
212.9235383955429
 20
91.88521770487756
 30
0.0
 11
220.9235383955429
 21
91.88521770487756
 31
0.0
  0
LINE
  5
170
330
16C
100
AcDbEntity
  8
SUNPO
 62
     0
370
    -2
100
AcDbLine
 10
218.9235383955429
 20
57.68521770487757
 30
0.0
 11
218.9235383955429
 21
89.88521770487755
 31
0.0
  0
INSERT
  5
171
330
16C
100
AcDbEntity
  8
SUNPO
 62
     0
370
    -2
100
AcDbBlockReference
  2
_OPEN30
 10
218.9235383955429
 20
55.68521770487757
 30
0.0
 41
2.0
 42
2.0
 43
2.0
 50
270.0
  0
INSERT
  5
172
330
16C
100
AcDbEntity
  8
SUNPO
 62
     0
370
    -2
100
AcDbBlockReference
  2
_OPEN30
 10
218.9235383955429
 20
91.88521770487756
 30
0.0
 41
2.0
 42
2.0
 43
2.0
 50
90.0
  0
MTEXT
  5
173
330
16C
100
AcDbEntity
  8
SUNPO
 62
     0
100
AcDbMText
 10
217.1735383955429
 20
73.78521770487759
 30
0.0
 40
2.5
 41
0.0
 71
     5
 72
     1
  1
\A1;724
 11
0.0000000000000001
 21
1.0
 31
0.0
 73
     1
 44
1.0
1001
ACAD
1000
MTEXTBEGIN
1070
    73
1070
     1
1070
    44
1040
1.0
1070
    74
1070
     0
1000
MTEXTEND
  0
POINT
  5
174
330
16C
100
AcDbEntity
  8
DEFPOINTS
 62
     0
100
AcDbPoint
 10
210.9235383955429
 20
55.68521770487757
 30
0.0
  0
POINT
  5
175
330
16C
100
AcDbEntity
  8
DEFPOINTS
 62
     0
100
AcDbPoint
 10
210.9235383955429
 20
91.88521770487756
 30
0.0
  0
POINT
  5
176
330
16C
100
AcDbEntity
  8
DEFPOINTS
 62
     0
100
AcDbPoint
 10
218.9235383955429
 20
91.88521770487756
 30
0.0
  0
ENDBLK
  5
177
330
16C
100
AcDbEntity
  8
0
100
AcDbBlockEnd
  0
BLOCK
  5
160
330
15F
100
AcDbEntity
  8
0
100
AcDbBlockBegin
  2
*D3
 70
     1
 10
0.0
 20
0.0
 30
0.0
  3
*D3
  1

  0
LINE
  5
161
330
15F
100
AcDbEntity
  8
SUNPO
 62
     0
370
    -2
100
AcDbLine
 10
139.9148326188207
 20
93.87396504921156
 30
0.0
 11
139.9148326188207
 21
106.8849413856671
 31
0.0
  0
LINE
  5
162
330
15F
100
AcDbEntity
  8
SUNPO
 62
     0
370
    -2
100
AcDbLine
 10
210.9052406188208
 20
93.86130379151394
 30
0.0
 11
210.9052406188208
 21
106.8849413856671
 31
0.0
  0
LINE
  5
163
330
15F
100
AcDbEntity
  8
SUNPO
 62
     0
370
    -2
100
AcDbLine
 10
141.9148326188207
 20
104.8849413856671
 30
0.0
 11
208.9052406188208
 21
104.8849413856671
 31
0.0
  0
INSERT
  5
164
330
15F
100
AcDbEntity
  8
SUNPO
 62
     0
370
    -2
100
AcDbBlockReference
  2
_OPEN30
 10
139.9148326188207
 20
104.8849413856671
 30
0.0
 41
2.0
 42
2.0
 43
2.0
 50
180.0
  0
INSERT
  5
165
330
15F
100
AcDbEntity
  8
SUNPO
 62
     0
370
    -2
100
AcDbBlockReference
  2
_OPEN30
 10
210.9052406188208
 20
104.8849413856671
 30
0.0
 41
2.0
 42
2.0
 43
2.0
  0
MTEXT
  5
166
330
15F
100
AcDbEntity
  8
SUNPO
 62
     0
100
AcDbMText
 10
175.4100366188207
 20
106.6349413856671
 30
0.0
 40
2.5
 41
0.0
 71
     5
 72
     1
  1
\A1;1427
 73
     1
 44
1.0
1001
ACAD
1000
MTEXTBEGIN
1070
    73
1070
     1
1070
    44
1040
1.0
1070
    74
1070
     0
1000
MTEXTEND
  0
POINT
  5
167
330
15F
100
AcDbEntity
  8
DEFPOINTS
 62
     0
100
AcDbPoint
 10
139.9148326188207
 20
91.87396504921157
 30
0.0
  0
POINT
  5
168
330
15F
100
AcDbEntity
  8
DEFPOINTS
 62
     0
100
AcDbPoint
 10
210.9052406188208
 20
91.86130379151393
 30
0.0
  0
POINT
  5
169
330
15F
100
AcDbEntity
  8
DEFPOINTS
 62
     0
100
AcDbPoint
 10
210.9052406188208
 20
104.8849413856671
 30
0.0
  0
ENDBLK
  5
16A
330
15F
100
AcDbEntity
  8
0
100
AcDbBlockEnd
  0
BLOCK
  5
55
330
54
100
AcDbEntity
  8
0
100
AcDbBlockBegin
  2
*D4
 70
     1
 10
0.0
 20
0.0
 30
0.0
  3
*D4
  1

  0
LINE
  5
56
330
54
100
AcDbEntity
  8
SUNPO
 62
     0
370
    -2
100
AcDbLine
 10
145.1600366188207
 20
93.88493126052622
 30
0.0
 11
145.1600366188207
 21
101.8849413856672
 31
0.0
  0
LINE
  5
57
330
54
100
AcDbEntity
  8
SUNPO
 62
     0
370
    -2
100
AcDbLine
 10
205.6600366188208
 20
93.88493126052622
 30
0.0
 11
205.6600366188208
 21
101.8849413856672
 31
0.0
  0
LINE
  5
58
330
54
100
AcDbEntity
  8
SUNPO
 62
     0
370
    -2
100
AcDbLine
 10
147.1600366188207
 20
99.8849413856672
 30
0.0
 11
203.6600366188208
 21
99.8849413856672
 31
0.0
  0
INSERT
  5
59
330
54
100
AcDbEntity
  8
SUNPO
 62
     0
370
    -2
100
AcDbBlockReference
  2
_OPEN30
 10
145.1600366188207
 20
99.8849413856672
 30
0.0
 41
2.0
 42
2.0
 43
2.0
 50
180.0
  0
INSERT
  5
5A
330
54
100
AcDbEntity
  8
SUNPO
 62
     0
370
    -2
100
AcDbBlockReference
  2
_OPEN30
 10
205.6600366188208
 20
99.8849413856672
 30
0.0
 41
2.0
 42
2.0
 43
2.0
  0
MTEXT
  5
5B
330
54
100
AcDbEntity
  8
SUNPO
 62
     0
100
AcDbMText
 10
175.4100366188207
 20
101.6349413856672
 30
0.0
 40
2.5
 41
0.0
 71
     5
 72
     1
  1
\A1;1210
 73
     1
 44
1.0
1001
ACAD
1000
MTEXTBEGIN
1070
    73
1070
     1
1070
    44
1040
1.0
1070
    74
1070
     0
1000
MTEXTEND
  0
POINT
  5
5C
330
54
100
AcDbEntity
  8
DEFPOINTS
 62
     0
100
AcDbPoint
 10
145.1600366188207
 20
91.88493126052623
 30
0.0
  0
POINT
  5
5E
330
54
100
AcDbEntity
  8
DEFPOINTS
 62
     0
100
AcDbPoint
 10
205.6600366188208
 20
91.88493126052623
 30
0.0
  0
POINT
  5
5F
330
54
100
AcDbEntity
  8
DEFPOINTS
 62
     0
100
AcDbPoint
 10
205.6600366188208
 20
99.8849413856672
 30
0.0
  0
ENDBLK
  5
60
330
54
100
AcDbEntity
  8
0
100
AcDbBlockEnd
  0
BLOCK
  5
2D9
330
2CD
100
AcDbEntity
  8
0
100
AcDbBlockBegin
  2
*D5
 70
     1
 10
0.0
 20
0.0
 30
0.0
  3
*D5
  1

  0
LINE
  5
2CE
330
2CD
100
AcDbEntity
  8
SUNPO
 62
     0
370
    -2
100
AcDbLine
 10
37.24084873726912
 20
28.73537642497689
 30
0.0
 11
37.24084873726912
 21
36.7353540455588
 31
0.0
  0
LINE
  5
2CF
330
2CD
100
AcDbEntity
  8
SUNPO
 62
     0
370
    -2
100
AcDbLine
 10
41.69084873726911
 20
28.73537642497689
 30
0.0
 11
41.69084873726911
 21
36.7353540455588
 31
0.0
  0
LINE
  5
2D0
330
2CD
100
AcDbEntity
  8
SUNPO
 62
     0
370
    -2
100
AcDbLine
 10
35.24084873726912
 20
34.73535404555879
 30
0.0
 11
33.24084873726912
 21
34.73535404555879
 31
0.0
  0
LINE
  5
2D1
330
2CD
100
AcDbEntity
  8
SUNPO
 62
     0
370
    -2
100
AcDbLine
 10
43.69084873726911
 20
34.73535404555879
 30
0.0
 11
50.85751540393577
 21
34.73535404555879
 31
0.0
  0
LINE
  5
2D2
330
2CD
100
AcDbEntity
  8
SUNPO
 62
     0
370
    -2
100
AcDbLine
 10
37.24084873726912
 20
34.73535404555879
 30
0.0
 11
41.69084873726911
 21
34.73535404555879
 31
0.0
  0
INSERT
  5
2D3
330
2CD
100
AcDbEntity
  8
SUNPO
 62
     0
370
    -2
100
AcDbBlockReference
  2
_OPEN30
 10
37.24084873726912
 20
34.73535404555879
 30
0.0
 41
2.0
 42
2.0
 43
2.0
  0
INSERT
  5
2D4
330
2CD
100
AcDbEntity
  8
SUNPO
 62
     0
370
    -2
100
AcDbBlockReference
  2
_OPEN30
 10
41.69084873726911
 20
34.73535404555879
 30
0.0
 41
2.0
 42
2.0
 43
2.0
 50
180.0
  0
MTEXT
  5
2D5
330
2CD
100
AcDbEntity
  8
SUNPO
 62
     0
100
AcDbMText
 10
48.27418207060244
 20
36.48535404555879
 30
0.0
 40
2.5
 41
0.0
 71
     5
 72
     1
  1
\A1;89
 73
     1
 44
1.0
1001
ACAD
1000
MTEXTBEGIN
1070
    73
1070
     1
1070
    44
1040
1.0
1070
    74
1070
     0
1000
MTEXTEND
  0
POINT
  5
2D6
330
2CD
100
AcDbEntity
  8
DEFPOINTS
 62
     0
100
AcDbPoint
 10
37.24084873726912
 20
26.73537642497689
 30
0.0
  0
POINT
  5
2D7
330
2CD
100
AcDbEntity
  8
DEFPOINTS
 62
     0
100
AcDbPoint
 10
41.69084873726911
 20
26.73537642497689
 30
0.0
  0
POINT
  5
2D8
330
2CD
100
AcDbEntity
  8
DEFPOINTS
 62
     0
100
AcDbPoint
 10
41.69084873726911
 20
34.73535404555879
 30
0.0
  0
ENDBLK
  5
2DA
330
2CD
100
AcDbEntity
  8
0
100
AcDbBlockEnd
  0
BLOCK
  5
2E5
330
2DB
100
AcDbEntity
  8
0
100
AcDbBlockBegin
  2
*D6
 70
     1
 10
0.0
 20
0.0
 30
0.0
  3
*D6
  1

  0
LINE
  5
2DC
330
2DB
100
AcDbEntity
  8
SUNPO
 62
     0
370
    -2
100
AcDbLine
 10
19.6350349030231
 20
-9.470869635230883
 30
0.0
 11
27.63503490302309
 21
-9.470869635230885
 31
0.0
  0
LINE
  5
2DD
330
2DB
100
AcDbEntity
  8
SUNPO
 62
     0
370
    -2
100
AcDbLine
 10
19.6350349030231
 20
26.72913036476911
 30
0.0
 11
27.6350349030231
 21
26.7291303647691
 31
0.0
  0
LINE
  5
2DE
330
2DB
100
AcDbEntity
  8
SUNPO
 62
     0
370
    -2
100
AcDbLine
 10
25.63503490302309
 20
-7.470869635230885
 30
0.0
 11
25.6350349030231
 21
24.7291303647691
 31
0.0
  0
INSERT
  5
2DF
330
2DB
100
AcDbEntity
  8
SUNPO
 62
     0
370
    -2
100
AcDbBlockReference
  2
_OPEN30
 10
25.63503490302309
 20
-9.470869635230885
 30
0.0
 41
2.0
 42
2.0
 43
2.0
 50
270.0
  0
INSERT
  5
2E0
330
2DB
100
AcDbEntity
  8
SUNPO
 62
     0
370
    -2
100
AcDbBlockReference
  2
_OPEN30
 10
25.6350349030231
 20
26.7291303647691
 30
0.0
 41
2.0
 42
2.0
 43
2.0
 50
90.0
  0
MTEXT
  5
2E1
330
2DB
100
AcDbEntity
  8
SUNPO
 62
     0
100
AcDbMText
 10
23.88503490302309
 20
8.629130364769112
 30
0.0
 40
2.5
 41
0.0
 71
     5
 72
     1
  1
\A1;724
 11
0.0000000000000001
 21
1.0
 31
0.0
 73
     1
 44
1.0
1001
ACAD
1000
MTEXTBEGIN
1070
    73
1070
     1
1070
    44
1040
1.0
1070
    74
1070
     0
1000
MTEXTEND
  0
POINT
  5
2E2
330
2DB
100
AcDbEntity
  8
DEFPOINTS
 62
     0
100
AcDbPoint
 10
17.6350349030231
 20
-9.470869635230883
 30
0.0
  0
POINT
  5
2E3
330
2DB
100
AcDbEntity
  8
DEFPOINTS
 62
     0
100
AcDbPoint
 10
17.6350349030231
 20
26.72913036476911
 30
0.0
  0
POINT
  5
2E4
330
2DB
100
AcDbEntity
  8
DEFPOINTS
 62
     0
100
AcDbPoint
 10
25.6350349030231
 20
26.7291303647691
 30
0.0
  0
ENDBLK
  5
2E6
330
2DB
100
AcDbEntity
  8
0
100
AcDbBlockEnd
  0
BLOCK
  5
2F1
330
2E7
100
AcDbEntity
  8
0
100
AcDbBlockBegin
  2
*D7
 70
     1
 10
0.0
 20
0.0
 30
0.0
  3
*D7
  1

  0
LINE
  5
2E8
330
2E7
100
AcDbEntity
  8
SUNPO
 62
     0
370
    -2
100
AcDbLine
 10
-53.37367087369909
 20
28.71787770910311
 30
0.0
 11
-53.37367087369909
 21
41.72885404555867
 31
0.0
  0
LINE
  5
2E9
330
2E7
100
AcDbEntity
  8
SUNPO
 62
     0
370
    -2
100
AcDbLine
 10
17.61673712630099
 20
28.70521645140548
 30
0.0
 11
17.61673712630099
 21
41.72885404555867
 31
0.0
  0
LINE
  5
2EA
330
2E7
100
AcDbEntity
  8
SUNPO
 62
     0
370
    -2
100
AcDbLine
 10
-51.37367087369909
 20
39.72885404555868
 30
0.0
 11
15.61673712630099
 21
39.72885404555868
 31
0.0
  0
INSERT
  5
2EB
330
2E7
100
AcDbEntity
  8
SUNPO
 62
     0
370
    -2
100
AcDbBlockReference
  2
_OPEN30
 10
-53.37367087369909
 20
39.72885404555868
 30
0.0
 41
2.0
 42
2.0
 43
2.0
 50
180.0
  0
INSERT
  5
2EC
330
2E7
100
AcDbEntity
  8
SUNPO
 62
     0
370
    -2
100
AcDbBlockReference
  2
_OPEN30
 10
17.61673712630099
 20
39.72885404555868
 30
0.0
 41
2.0
 42
2.0
 43
2.0
  0
MTEXT
  5
2ED
330
2E7
100
AcDbEntity
  8
SUNPO
 62
     0
100
AcDbMText
 10
-17.87846687369905
 20
41.47885404555867
 30
0.0
 40
2.5
 41
0.0
 71
     5
 72
     1
  1
\A1;1427
 73
     1
 44
1.0
1001
ACAD
1000
MTEXTBEGIN
1070
    73
1070
     1
1070
    44
1040
1.0
1070
    74
1070
     0
1000
MTEXTEND
  0
POINT
  5
2EE
330
2E7
100
AcDbEntity
  8
DEFPOINTS
 62
     0
100
AcDbPoint
 10
-53.37367087369909
 20
26.71787770910311
 30
0.0
  0
POINT
  5
2EF
330
2E7
100
AcDbEntity
  8
DEFPOINTS
 62
     0
100
AcDbPoint
 10
17.61673712630099
 20
26.70521645140548
 30
0.0
  0
POINT
  5
2F0
330
2E7
100
AcDbEntity
  8
DEFPOINTS
 62
     0
100
AcDbPoint
 10
17.61673712630099
 20
39.72885404555868
 30
0.0
  0
ENDBLK
  5
2F2
330
2E7
100
AcDbEntity
  8
0
100
AcDbBlockEnd
  0
BLOCK
  5
2FD
330
2F3
100
AcDbEntity
  8
0
100
AcDbBlockBegin
  2
*D8
 70
     1
 10
0.0
 20
0.0
 30
0.0
  3
*D8
  1

  0
LINE
  5
2F4
330
2F3
100
AcDbEntity
  8
SUNPO
 62
     0
370
    -2
100
AcDbLine
 10
-48.12846687369904
 20
28.72884392041778
 30
0.0
 11
-48.12846687369904
 21
36.72885404555874
 31
0.0
  0
LINE
  5
2F5
330
2F3
100
AcDbEntity
  8
SUNPO
 62
     0
370
    -2
100
AcDbLine
 10
12.37153312630099
 20
28.72884392041778
 30
0.0
 11
12.37153312630099
 21
36.72885404555874
 31
0.0
  0
LINE
  5
2F6
330
2F3
100
AcDbEntity
  8
SUNPO
 62
     0
370
    -2
100
AcDbLine
 10
-46.12846687369904
 20
34.72885404555873
 30
0.0
 11
10.37153312630099
 21
34.72885404555873
 31
0.0
  0
INSERT
  5
2F7
330
2F3
100
AcDbEntity
  8
SUNPO
 62
     0
370
    -2
100
AcDbBlockReference
  2
_OPEN30
 10
-48.12846687369904
 20
34.72885404555873
 30
0.0
 41
2.0
 42
2.0
 43
2.0
 50
180.0
  0
INSERT
  5
2F8
330
2F3
100
AcDbEntity
  8
SUNPO
 62
     0
370
    -2
100
AcDbBlockReference
  2
_OPEN30
 10
12.37153312630099
 20
34.72885404555873
 30
0.0
 41
2.0
 42
2.0
 43
2.0
  0
MTEXT
  5
2F9
330
2F3
100
AcDbEntity
  8
SUNPO
 62
     0
100
AcDbMText
 10
-17.87846687369902
 20
36.47885404555874
 30
0.0
 40
2.5
 41
0.0
 71
     5
 72
     1
  1
\A1;1210
 73
     1
 44
1.0
1001
ACAD
1000
MTEXTBEGIN
1070
    73
1070
     1
1070
    44
1040
1.0
1070
    74
1070
     0
1000
MTEXTEND
  0
POINT
  5
2FA
330
2F3
100
AcDbEntity
  8
DEFPOINTS
 62
     0
100
AcDbPoint
 10
-48.12846687369904
 20
26.72884392041777
 30
0.0
  0
POINT
  5
2FB
330
2F3
100
AcDbEntity
  8
DEFPOINTS
 62
     0
100
AcDbPoint
 10
12.37153312630099
 20
26.72884392041777
 30
0.0
  0
POINT
  5
2FC
330
2F3
100
AcDbEntity
  8
DEFPOINTS
 62
     0
100
AcDbPoint
 10
12.37153312630099
 20
34.72885404555873
 30
0.0
  0
ENDBLK
  5
2FE
330
2F3
100
AcDbEntity
  8
0
100
AcDbBlockEnd
  0
ENDSEC
  0
SECTION
  2
ENTITIES
  0
TEXT
  5
30
330
2
100
AcDbEntity
  8
MOJI1
100
AcDbText
 10
-34.78850354847907
 20
49.34474778482661
 30
0.0
 40
4.0
  1
ハイビジョンプラズマディスプレイスピーカ付
 41
0.95
100
AcDbText
  0
TEXT
  5
32
330
2
100
AcDbEntity
  8
TOUROKU
100
AcDbText
 10
18.41144648444858
 20
43.34474778482615
 30
0.0
 40
2.0
  1
ＴＨ５０ＰＦ２０Ｊ＋ＴＹＳＰ４２Ｐ８Ｋ
 72
     2
 11
63.21144648444857
 21
43.34474778482615
 31
0.0
100
AcDbText
  0
TEXT
  5
34
330
2
100
AcDbEntity
  8
MOJI1
100
AcDbText
 10
-20.28850354847882
 20
-23.65525221517385
 30
0.0
 40
3.0
  1
４６０Ｗ
100
AcDbText
  0
TEXT
  5
35
330
2
100
AcDbEntity
  8
MOJI1
100
AcDbText
 10
-20.28850354847882
 20
-28.65525221517385
 30
0.0
 40
3.0
  1
５０型（１２６８ｃｍ）１６：９
100
AcDbText
  0
TEXT
  5
36
330
2
100
AcDbEntity
  8
MOJI1
100
AcDbText
 10
-20.28850354847882
 20
-38.65525221517385
 30
0.0
 40
3.0
  1
５００００００：１
100
AcDbText
  0
LINE
  5
37
330
2
100
AcDbEntity
  8
WAKU
 62
     1
100
AcDbLine
 10
-61.78850354847881
 20
-24.65525221517385
 30
0.0
 11
63.21149645152093
 21
-24.65525221517385
 31
0.0
  0
LINE
  5
39
330
2
100
AcDbEntity
  8
WAKU
 62
     1
100
AcDbLine
 10
-61.78850354847881
 20
-34.65525221517385
 30
0.0
 11
63.21149645152093
 21
-34.65525221517385
 31
0.0
  0
LINE
  5
3A
330
2
100
AcDbEntity
  8
WAKU
 62
     4
100
AcDbLine
 10
-61.78850354847881
 20
-14.65525221517384
 30
0.0
 11
63.21149645152093
 21
-14.65525221517384
 31
0.0
  0
LINE
  5
3B
330
2
100
AcDbEntity
  8
WAKU
 62
     1
100
AcDbLine
 10
-61.78850354847881
 20
-19.65525221517384
 30
0.0
 11
63.21149645152093
 21
-19.65525221517384
 31
0.0
  0
LINE
  5
3C
330
2
100
AcDbEntity
  8
WAKU
 62
     1
100
AcDbLine
 10
-61.78850354847881
 20
-29.65525221517385
 30
0.0
 11
63.21149645152093
 21
-29.65525221517385
 31
0.0
  0
LINE
  5
3D
330
2
100
AcDbEntity
  8
WAKU
 62
     1
100
AcDbLine
 10
-61.78850354847881
 20
-39.65525221517385
 30
0.0
 11
63.21149645152093
 21
-39.65525221517385
 31
0.0
  0
LINE
  5
3E
330
2
100
AcDbEntity
  8
WAKU
 62
     1
100
AcDbLine
 10
-61.78850354847881
 20
-44.65525221517384
 30
0.0
 11
63.21149645152093
 21
-44.65525221517384
 31
0.0
  0
LINE
  5
3F
330
2
100
AcDbEntity
  8
WAKU
 62
     4
100
AcDbLine
 10
63.21149645152093
 20
-59.65525221517385
 30
0.0
 11
-61.78850354847881
 21
-59.65525221517385
 31
0.0
  0
TEXT
  5
40
330
2
100
AcDbEntity
  8
MOJI1
100
AcDbText
 10
-20.28850354847882
 20
-33.65525221517385
 30
0.0
 40
3.0
  1
１９２０×１０８０画素
100
AcDbText
  0
TEXT
  5
41
330
2
100
AcDbEntity
  8
MOJI1
100
AcDbText
 10
-20.28850354847882
 20
-43.65525221517384
 30
0.0
 40
3.0
  1
ＲＣＡ×２(左右)
100
AcDbText
  0
TEXT
  5
42
330
2
100
AcDbEntity
  8
MOJI1
100
AcDbText
 10
-20.28850354847882
 20
-18.65525221517384
 30
0.0
 40
3.0
  1
ＡＣ１００Ｖ　５０Ｈｚ／６０Ｈｚ
100
AcDbText
  0
TEXT
  5
43
330
2
100
AcDbEntity
  8
MOJI1
100
AcDbText
 10
-20.28850354847882
 20
-48.65525221517384
 30
0.0
 40
3.0
  1
ビデオ入力、ＲＧＢ／コンポーネントビデオ入力、ＨＤＭＩ入力
 41
0.7800000000000001
100
AcDbText
  0
LINE
  5
44
330
2
100
AcDbEntity
  8
WAKU
 62
     4
100
AcDbLine
 10
-21.78850354847904
 20
-14.65525221517384
 30
0.0
 11
-21.78850354847904
 21
-59.65525221517385
 31
0.0
  0
LINE
  5
45
330
2
100
AcDbEntity
  8
WAKU
 62
     4
100
AcDbLine
 10
-61.78850354847904
 20
-14.65525221517384
 30
0.0
 11
-61.78850354847881
 21
-59.65525221517385
 31
0.0
  0
TEXT
  5
46
330
2
100
AcDbEntity
  8
MOJI1
100
AcDbText
 10
-59.28850354847881
 20
-28.65525221517385
 30
0.0
 40
3.0
  1
画面サイズ
100
AcDbText
  0
TEXT
  5
47
330
2
100
AcDbEntity
  8
MOJI1
100
AcDbText
 10
-59.28850354847881
 20
-38.65525221517385
 30
0.0
 40
3.0
  1
コントラスト
100
AcDbText
  0
TEXT
  5
48
330
2
100
AcDbEntity
  8
MOJI1
100
AcDbText
 10
-59.28850354847881
 20
-43.65525221517384
 30
0.0
 40
3.0
  1
音声出力
100
AcDbText
  0
TEXT
  5
49
330
2
100
AcDbEntity
  8
MOJI1
100
AcDbText
 10
-59.28850354847881
 20
-23.65525221517385
 30
0.0
 40
3.0
  1
消費電力
100
AcDbText
  0
TEXT
  5
4A
330
2
100
AcDbEntity
  8
MOJI1
100
AcDbText
 10
-59.28850354847881
 20
-18.65525221517384
 30
0.0
 40
3.0
  1
電  源
100
AcDbText
  0
TEXT
  5
4B
330
2
100
AcDbEntity
  8
MOJI1
100
AcDbText
 10
-59.28850354847881
 20
-33.65525221517385
 30
0.0
 40
3.0
  1
画素数
100
AcDbText
  0
LINE
  5
4C
330
2
100
AcDbEntity
  8
WAKU
 62
     4
100
AcDbLine
 10
63.21149645152093
 20
-14.65525221517384
 30
0.0
 11
63.21149645152093
 21
-59.65525221517385
 31
0.0
  0
TEXT
  5
4D
330
2
100
AcDbEntity
  8
MOJI1
100
AcDbText
 10
-20.28850354847882
 20
-53.65525221517384
 30
0.0
 40
3.0
  1
ＤＶＩ入力、ＰＣ入力、ＬＡＮ、ＲＳ２３２Ｃ、スロット２．０
 41
0.7900000000000001
100
AcDbText
  0
LINE
  5
4E
330
2
100
AcDbEntity
  8
WAKU
 62
     1
100
AcDbLine
 10
-61.78850354847881
 20
-49.65525221517385
 30
0.0
 11
63.21149645152093
 21
-49.65525221517385
 31
0.0
  0
TEXT
  5
4F
330
2
100
AcDbEntity
  8
MOJI1
100
AcDbText
 10
-59.28850354847881
 20
-48.65525221517384
 30
0.0
 40
3.0
  1
入出力端子
100
AcDbText
  0
LINE
  5
50
330
2
100
AcDbEntity
  8
WAKU
 62
     1
100
AcDbLine
 10
-61.78850354847881
 20
-54.65525221517385
 30
0.0
 11
63.21149645152093
 21
-54.65525221517385
 31
0.0
  0
TEXT
  5
51
330
2
100
AcDbEntity
  8
MOJI1
100
AcDbText
 10
-20.28850354847882
 20
-58.65525221517384
 30
0.0
 40
3.0
  1
約３１．０ ｋｇ
100
AcDbText
  0
TEXT
  5
52
330
2
100
AcDbEntity
  8
MOJI1
100
AcDbText
 10
-59.28850354847881
 20
-58.65525221517384
 30
0.0
 40
3.0
  1
質　量
100
AcDbText
  0
DIMENSION
  5
53
330
2
100
AcDbEntity
  8
SUNPO
100
AcDbDimension
  2
*D8
 10
12.37153312630099
 20
34.72885404555873
 30
0.0
 11
-17.87846687369902
 21
36.47885404555874
 31
0.0
 70
    33
  1
1210
 71
     5
 42
60.50000000000003
  3
STANDARD
100
AcDbAlignedDimension
 13
-48.12846687369904
 23
26.72884392041777
 33
0.0
 14
12.37153312630099
 24
26.72884392041777
 34
0.0
1001
ACAD
1000
DSTYLE
1002
{
1070
   287
1070
     3
1070
   287
1070
     3
1070
   287
1070
     3
1070
   287
1070
     3
1070
   287
1070
     3
1070
   287
1070
     3
1070
   287
1070
     3
1070
   287
1070
     3
1070
   287
1070
     3
1070
   287
1070
     3
1070
   287
1070
     3
1070
   287
1070
     3
1070
   287
1070
     3
1070
   287
1070
     3
1070
   287
1070
     3
1070
   287
1070
     3
1070
   287
1070
     3
1070
   287
1070
     3
1070
   287
1070
     3
1070
   287
1070
     3
1070
   287
1070
     3
1070
   287
1070
     3
1070
   287
1070
     3
1070
   287
1070
     3
1070
   287
1070
     3
1070
   287
1070
     3
1070
   287
1070
     3
1070
   287
1070
     3
1070
   287
1070
     3
1070
   287
1070
     3
1070
   287
1070
     3
1070
   287
1070
     3
1070
   287
1070
     3
1070
   287
1070
     3
1070
    40
1040
1.0
1070
   140
1040
2.5
1070
   147
1040
0.5
1070
   172
1070
     1
1070
   279
1070
     0
1002
}
  0
SPLINE
  5
61
330
2
100
AcDbEntity
  8
GAIKEI
  6
Continuous
 62
     1
100
AcDbSpline
210
0.0
220
0.0
230
1.0
 70
     8
 71
     3
 72
    15
 73
    11
 74
     9
 42
0.0000000001
 43
0.0000000001
 44
0.000001
 12
-0.2924958065310857
 22
0.9562668054270888
 32
0.0
 13
-0.9560185359242824
 23
0.2933062545688235
 33
0.0
 40
0.0
 40
0.0
 40
0.0
 40
0.0
 40
0.0168063404896156
 40
0.0336211194742663
 40
0.0503583126183956
 40
0.06700084293541
 40
0.0837880166497456
 40
0.1004733571095624
 40
0.1170568982760804
 40
0.1337837633035181
 40
0.1337837633035181
 40
0.1337837633035181
 40
0.1337837633035181
 10
9.989011084519916
 20
24.41582408622259
 30
0.0
 10
9.987372489814475
 20
24.42118120139956
 30
0.0
 10
9.983442909761436
 20
24.43171136195967
 30
0.0
 10
9.975687239177261
 20
24.44664355486887
 30
0.0
 10
9.966191494104975
 20
24.46047117755056
 30
0.0
 10
9.955081626148114
 20
24.47302511975227
 30
0.0
 10
9.942526943215511
 20
24.48410941629503
 30
0.0
 10
9.928723264869205
 20
24.4935577559391
 30
0.0
 10
9.913895810209339
 20
24.50124960975133
 30
0.0
 10
9.903465455449321
 20
24.50514896020583
 30
0.0
 10
9.898135057777949
 20
24.50678432491645
 30
0.0
 11
9.989011084519916
 21
24.41582408622259
 31
0.0
 11
9.983132683489486
 21
24.43156925648015
 31
0.0
 11
9.975379662760929
 21
24.44648995091723
 31
0.0
 11
9.965903413665841
 21
24.46028614445732
 31
0.0
 11
9.954873604265856
 21
24.4727488063096
 31
0.0
 11
9.942289562978771
 21
24.48385970006439
 31
0.0
 11
9.928521726680571
 21
24.49328561597861
 31
0.0
 11
9.913802348289976
 21
24.50092455407122
 31
0.0
 11
9.898135057777949
 21
24.50678432491645
 31
0.0
  0
SPLINE
  5
63
330
2
100
AcDbEntity
  8
GAIKEI
  6
Continuous
 62
     1
100
AcDbSpline
210
0.0
220
0.0
230
1.0
 70
     8
 71
     3
 72
    15
 73
    11
 74
     9
 42
0.0000000001
 43
0.0000000001
 44
0.000001
 12
0.9999398593324002
 22
0.0109671198725969
 32
0.0
 13
-0.0109745129035742
 23
-0.9999397782199332
 33
0.0
 40
0.0
 40
0.0
 40
0.0
 40
0.0
 40
0.0144545412891382
 40
0.0288481230524299
 40
0.0432449733897705
 40
0.0575864329608084
 40
0.0720053976517431
 40
0.0863379338911621
 40
0.1007485460548252
 40
0.1151186774904409
 40
0.1151186774904409
 40
0.1151186774904409
 40
0.1151186774904409
 10
10.40387426182633
 20
24.99722994627007
 30
0.0
 10
10.40869215248744
 20
24.99728278783241
 30
0.0
 10
10.41834579308408
 20
24.99646062597991
 30
0.0
 10
10.4322737515109
 20
24.99240516250937
 30
0.0
 10
10.44509284372469
 20
24.98568107161844
 30
0.0
 10
10.45631026499282
 20
24.97651911101181
 30
0.0
 10
10.46544289596042
 20
24.96530371823963
 30
0.0
 10
10.47215141046479
 20
24.95246647217387
 30
0.0
 10
10.47617883116899
 20
24.93857590641176
 30
0.0
 10
10.47699342795374
 20
24.92894537287305
 30
0.0
 10
10.47694085955612
 20
24.92415561752614
 30
0.0
 11
10.40387426182633
 21
24.99722994627007
 31
0.0
 11
10.4182757937545
 21
24.99598689547827
 31
0.0
 11
10.43209441082703
 21
24.9919592477238
 31
0.0
 11
10.44484105068989
 21
24.9852664304625
 31
0.0
 11
10.45594762444065
 21
24.97619323235614
 31
0.0
 11
10.46505337615474
 21
24.96501319249489
 31
0.0
 11
10.47169686730842
 21
24.95231331324965
 31
0.0
 11
10.47571360082048
 21
24.93847378544433
 31
0.0
 11
10.47694085955612
 21
24.92415561752614
 31
0.0
  0
SPLINE
  5
64
330
2
100
AcDbEntity
  8
GAIKEI
  6
Continuous
 62
     1
100
AcDbSpline
210
0.0
220
0.0
230
1.0
 70
     8
 71
     3
 72
    15
 73
    11
 74
     9
 42
0.0000000001
 43
0.0000000001
 44
0.000001
 12
-0.9999398593324002
 22
0.0109671198725968
 32
0.0
 13
0.0109745129035741
 23
-0.9999397782199332
 33
0.0
 40
0.0
 40
0.0
 40
0.0
 40
0.0
 40
0.0144545412891382
 40
0.0288481230524572
 40
0.0432449733898229
 40
0.0575864329608388
 40
0.0720053976517915
 40
0.0863379338912105
 40
0.1007485460548578
 40
0.1151186774904759
 40
0.1151186774904759
 40
0.1151186774904759
 40
0.1151186774904759
 10
-46.16080800922435
 20
24.99722994627007
 30
0.0
 10
-46.16562589988546
 20
24.99728278783241
 30
0.0
 10
-46.17527954048211
 20
24.99646062597991
 30
0.0
 10
-46.18920749890901
 20
24.99240516250936
 30
0.0
 10
-46.20202659112274
 20
24.98568107161847
 30
0.0
 10
-46.21324401239085
 20
24.97651911101177
 30
0.0
 10
-46.2223766433585
 20
24.96530371823961
 30
0.0
 10
-46.22908515786295
 20
24.9524664721739
 30
0.0
 10
-46.23311257856693
 20
24.93857590641173
 30
0.0
 10
-46.23392717535179
 20
24.92894537287305
 30
0.0
 10
-46.23387460695417
 20
24.92415561752614
 30
0.0
 11
-46.16080800922435
 21
24.99722994627007
 31
0.0
 11
-46.17520954115252
 21
24.99598689547827
 31
0.0
 11
-46.18902815822508
 21
24.9919592477238
 31
0.0
 11
-46.20177479808797
 21
24.9852664304625
 31
0.0
 11
-46.2128813718387
 21
24.97619323235614
 31
0.0
 11
-46.22198712355282
 21
24.96501319249489
 31
0.0
 11
-46.2286306147065
 21
24.95231331324965
 31
0.0
 11
-46.23264734821851
 21
24.93847378544433
 31
0.0
 11
-46.23387460695417
 21
24.92415561752614
 31
0.0
  0
SPLINE
  5
65
330
2
100
AcDbEntity
  8
GAIKEI
  6
Continuous
 62
     1
100
AcDbSpline
210
0.0
220
0.0
230
1.0
 70
     8
 71
     3
 72
    15
 73
    11
 74
     9
 42
0.0000000001
 43
0.0000000001
 44
0.000001
 12
0.2924958065310856
 22
0.9562668054270886
 32
0.0
 13
0.9560185359243778
 23
0.293306254568513
 33
0.0
 40
0.0
 40
0.0
 40
0.0
 40
0.0
 40
0.0168063404896156
 40
0.0336211194742401
 40
0.0503583126183694
 40
0.0670008429354026
 40
0.083788016649717
 40
0.1004733571095572
 40
0.1170568982760752
 40
0.1337837633034863
 40
0.1337837633034863
 40
0.1337837633034863
 40
0.1337837633034863
 10
-45.74594483191794
 20
24.41582408622259
 30
0.0
 10
-45.7443062372125
 20
24.42118120139956
 30
0.0
 10
-45.74037665715946
 20
24.43171136195969
 30
0.0
 10
-45.73262098657531
 20
24.44664355486887
 30
0.0
 10
-45.72312524150308
 20
24.46047117755059
 30
0.0
 10
-45.71201537354613
 20
24.47302511975225
 30
0.0
 10
-45.69946069061361
 20
24.48410941629506
 30
0.0
 10
-45.68565701226723
 20
24.49355775593908
 30
0.0
 10
-45.67082955760741
 20
24.5012496097513
 30
0.0
 10
-45.66039920284739
 20
24.50514896020583
 30
0.0
 10
-45.65506880517602
 20
24.50678432491645
 30
0.0
 11
-45.74594483191794
 21
24.41582408622259
 31
0.0
 11
-45.7400664308875
 21
24.43156925648015
 31
0.0
 11
-45.732313410159
 21
24.44648995091723
 31
0.0
 11
-45.72283716106392
 21
24.46028614445732
 31
0.0
 11
-45.7118073516639
 21
24.4727488063096
 31
0.0
 11
-45.69922331037685
 21
24.48385970006439
 31
0.0
 11
-45.68545547407862
 21
24.49328561597861
 31
0.0
 11
-45.67073609568803
 21
24.50092455407122
 31
0.0
 11
-45.65506880517602
 21
24.50678432491645
 31
0.0
  0
SPLINE
  5
66
330
2
100
AcDbEntity
  8
GAIKEI
  6
Continuous
 62
     1
100
AcDbSpline
210
0.0
220
0.0
230
1.0
 70
     8
 71
     3
 72
    15
 73
    11
 74
     9
 42
0.0000000001
 43
0.0000000001
 44
0.000001
 12
-0.9560175965648596
 22
0.2933093163510996
 32
0.0
 13
-0.2924928147296205
 23
0.9562677205320401
 33
0.0
 40
0.0
 40
0.0
 40
0.0
 40
0.0
 40
0.0168063827191639
 40
0.0336212646659003
 40
0.0503584224868337
 40
0.0670009486666081
 40
0.0837881260374097
 40
0.1004733754750033
 40
0.1170569269589407
 40
0.1337837630426042
 40
0.1337837630426042
 40
0.1337837630426042
 40
0.1337837630426042
 10
-45.65506880517583
 20
-7.233143895660475
 30
0.0
 10
-45.66042453771387
 20
-7.231500739451909
 30
0.0
 10
-45.67095134020334
 20
-7.227561960044575
 30
0.0
 10
-45.68587643663213
 20
-7.219792501774776
 30
0.0
 10
-45.69969505221883
 20
-7.210283590900523
 30
0.0
 10
-45.71223824762728
 20
-7.199161600540335
 30
0.0
 10
-45.72331038370129
 20
-7.186596240424648
 30
0.0
 10
-45.73274558177664
 20
-7.172783626095075
 30
0.0
 10
-45.74042375396991
 20
-7.15794915276556
 30
0.0
 10
-45.74431400546234
 20
-7.147515434770916
 30
0.0
 10
-45.74594483191822
 20
-7.142183656966437
 30
0.0
 11
-45.65506880517583
 21
-7.233143895660475
 31
0.0
 11
-45.67080887967813
 21
-7.22725173815678
 31
0.0
 11
-45.68572254098222
 21
-7.219484973778435
 31
0.0
 11
-45.69950970896741
 21
-7.209995660247273
 31
0.0
 11
-45.71196173182227
 21
-7.19895384765374
 31
0.0
 11
-45.72306049664362
 21
-7.186359102838252
 31
0.0
 11
-45.73247330789619
 21
-7.172582414108603
 31
0.0
 11
-45.74009874675994
 21
-7.157856026465935
 31
0.0
 11
-45.74594483191822
 21
-7.142183656966437
 31
0.0
  0
SPLINE
  5
67
330
2
100
AcDbEntity
  8
GAIKEI
  6
Continuous
 62
     1
100
AcDbSpline
210
0.0
220
0.0
230
1.0
 70
     8
 71
     3
 72
    15
 73
    11
 74
     9
 42
0.0000000001
 43
0.0000000001
 44
0.000001
 12
-0.0109562642203222
 22
-0.999939978335867
 32
0.0
 13
0.9999396584535913
 23
0.0109854199608156
 33
0.0
 40
0.0
 40
0.0
 40
0.0
 40
0.0
 40
0.0144545160022977
 40
0.0288481527290739
 40
0.043244988342609
 40
0.0575864997005964
 40
0.0720054578610224
 40
0.0863379547938061
 40
0.1007485652535202
 40
0.1151186776865662
 40
0.1151186776865662
 40
0.1151186776865662
 40
0.1151186776865662
 10
-46.23387460695397
 20
-7.650515188269821
 30
0.0
 10
-46.23392739611946
 20
-7.655333071075887
 30
0.0
 10
-46.2331054049213
 20
-7.664986687545216
 30
0.0
 10
-46.22905115534774
 20
-7.67891494367349
 30
0.0
 10
-46.22232884874563
 20
-7.691734958897555
 30
0.0
 10
-46.21316878551033
 20
-7.702953923787184
 30
0.0
 10
-46.20195491775649
 20
-7.712088455496356
 30
0.0
 10
-46.1891185767812
 20
-7.718798755629137
 30
0.0
 10
-46.17522831754621
 20
-7.722827374948536
 30
0.0
 10
-46.16559775766373
 20
-7.723642137586899
 30
0.0
 10
-46.16080800922432
 20
-7.723589517013579
 30
0.0
 11
-46.23387460695397
 21
-7.650515188269821
 31
0.0
 11
-46.23263184036005
 21
-7.664916718422603
 31
0.0
 11
-46.22860532978075
 21
-7.678735724037949
 31
0.0
 11
-46.22191423989266
 21
-7.691483254056549
 31
0.0
 11
-46.21284282790225
 21
-7.702591353528532
 31
0.0
 11
-46.2016642804167
 21
-7.711698926957353
 31
0.0
 11
-46.18896532918109
 21
-7.7183441071341
 31
0.0
 11
-46.17512613570662
 21
-7.722361986635576
 31
0.0
 11
-46.16080800922432
 21
-7.723589517013579
 31
0.0
  0
SPLINE
  5
68
330
2
100
AcDbEntity
  8
GAIKEI
  6
Continuous
 62
     1
100
AcDbSpline
210
0.0
220
0.0
230
1.0
 70
     8
 71
     3
 72
    15
 73
    11
 74
     9
 42
0.0000000001
 43
0.0000000001
 44
0.000001
 12
0.0109562642203223
 22
-0.999939978335867
 32
0.0
 13
-0.9999396584535913
 23
0.0109854199608153
 33
0.0
 40
0.0
 40
0.0
 40
0.0
 40
0.0
 40
0.0144545160023002
 40
0.0288481527290683
 40
0.0432449883426167
 40
0.0575864997005861
 40
0.0720054578610122
 40
0.0863379547938461
 40
0.100748565253533
 40
0.115118677686579
 40
0.115118677686579
 40
0.115118677686579
 40
0.115118677686579
 10
10.47694085955595
 20
-7.650515188269821
 30
0.0
 10
10.47699364872144
 20
-7.655333071075887
 30
0.0
 10
10.47617165752319
 20
-7.66498668754518
 30
0.0
 10
10.47211740794984
 20
-7.678914943673532
 30
0.0
 10
10.46539510134749
 20
-7.691734958897527
 30
0.0
 10
10.45623503811234
 20
-7.702953923787205
 30
0.0
 10
10.4450211703585
 20
-7.71208845549637
 30
0.0
 10
10.43218482938309
 20
-7.718798755629109
 30
0.0
 10
10.41829457014819
 20
-7.722827374948558
 30
0.0
 10
10.40866401026568
 20
-7.723642137586899
 30
0.0
 10
10.40387426182627
 20
-7.723589517013579
 30
0.0
 11
10.47694085955595
 21
-7.650515188269821
 31
0.0
 11
10.475698092962
 21
-7.664916718422603
 31
0.0
 11
10.47167158238272
 21
-7.678735724037949
 31
0.0
 11
10.46498049249461
 21
-7.691483254056549
 31
0.0
 11
10.45590908050423
 21
-7.702591353528532
 31
0.0
 11
10.44473053301868
 21
-7.711698926957353
 31
0.0
 11
10.43203158178301
 21
-7.7183441071341
 31
0.0
 11
10.41819238830857
 21
-7.722361986635576
 31
0.0
 11
10.40387426182627
 21
-7.723589517013579
 31
0.0
  0
SPLINE
  5
69
330
2
100
AcDbEntity
  8
GAIKEI
  6
Continuous
 62
     1
100
AcDbSpline
210
0.0
220
0.0
230
1.0
 70
     8
 71
     3
 72
    15
 73
    11
 74
     9
 42
0.0000000001
 43
0.0000000001
 44
0.000001
 12
0.9560175965647365
 22
0.2933093163515013
 32
0.0
 13
0.2924928147293096
 23
0.9562677205321351
 33
0.0
 40
0.0
 40
0.0
 40
0.0
 40
0.0
 40
0.0168063827191905
 40
0.0336212646659017
 40
0.0503584224868117
 40
0.0670009486665861
 40
0.0837881260374065
 40
0.100473375475
 40
0.1170569269589506
 40
0.1337837630426141
 40
0.1337837630426141
 40
0.1337837630426141
 40
0.1337837630426141
 10
9.898135057777778
 20
-7.233143895660475
 30
0.0
 10
9.903490790315828
 20
-7.231500739451909
 30
0.0
 10
9.914017592805294
 20
-7.227561960044596
 30
0.0
 10
9.928942689234077
 20
-7.219792501774783
 30
0.0
 10
9.942761304820805
 20
-7.210283590900516
 30
0.0
 10
9.955304500229146
 20
-7.19916160054035
 30
0.0
 10
9.966376636303266
 20
-7.186596240424663
 30
0.0
 10
9.975811834378646
 20
-7.172783626095068
 30
0.0
 10
9.983490006571884
 20
-7.15794915276556
 30
0.0
 10
9.98738025806432
 20
-7.147515434770916
 30
0.0
 10
9.9890110845202
 20
-7.142183656966437
 30
0.0
 11
9.898135057777778
 21
-7.233143895660475
 31
0.0
 11
9.913875132280111
 21
-7.22725173815678
 31
0.0
 11
9.928788793584175
 21
-7.219484973778435
 31
0.0
 11
9.942575961569332
 21
-7.209995660247273
 31
0.0
 11
9.955027984424191
 21
-7.19895384765374
 31
0.0
 11
9.966126749245574
 21
-7.186359102838252
 31
0.0
 11
9.975539560498134
 21
-7.172582414108603
 31
0.0
 11
9.983164999361918
 21
-7.157856026465935
 31
0.0
 11
9.9890110845202
 21
-7.142183656966437
 31
0.0
  0
LINE
  5
6A
330
2
100
AcDbEntity
  8
GAIKEI
  6
Continuous
 62
     1
100
AcDbLine
 10
11.81156482630098
 20
-9.100950585371833
 30
0.0
 11
-47.56849857369902
 21
-9.100950585371833
 31
0.0
  0
LINE
  5
6B
330
2
100
AcDbEntity
  8
GAIKEI
  6
Continuous
 62
     1
100
AcDbLine
 10
-46.39243177369905
 20
24.93109346462814
 30
0.0
 11
-46.39243177369905
 21
-7.657453035371815
 31
0.0
  0
LINE
  5
6C
330
2
100
AcDbEntity
  8
GAIKEI
  6
Continuous
 62
     1
100
AcDbLine
 10
10.41080637630097
 20
-7.882144685371827
 30
0.0
 11
-46.16774012369901
 21
-7.882144685371827
 31
0.0
  0
LINE
  5
6D
330
2
100
AcDbEntity
  8
GAIKEI
  6
Continuous
 62
     1
100
AcDbLine
 10
10.63549802630098
 20
24.93109346462814
 30
0.0
 11
10.63549802630098
 21
-7.657453035371815
 31
0.0
  0
LINE
  5
6E
330
2
100
AcDbEntity
  8
GAIKEI
  6
Continuous
 62
     1
100
AcDbLine
 10
-46.16774012369901
 20
25.15578511462815
 30
0.0
 11
10.41080637630097
 21
25.15578511462815
 31
0.0
  0
LINE
  5
6F
330
2
100
AcDbEntity
  8
GAIKEI
  6
Continuous
 62
     1
100
AcDbLine
 10
-47.134716873699
 20
-8.844429785371801
 30
0.0
 11
-47.02221687369902
 21
-8.844429785371801
 31
0.0
  0
LINE
  5
70
330
2
100
AcDbEntity
  8
GAIKEI
  6
Continuous
 62
     1
100
AcDbLine
 10
-47.134716873699
 20
-8.731929785371846
 30
0.0
 11
-47.02221687369902
 21
-8.731929785371846
 31
0.0
  0
LINE
  5
71
330
2
100
AcDbEntity
  8
GAIKEI
  6
Continuous
 62
     1
100
AcDbLine
 10
-45.18846687369901
 20
-8.93827493537185
 30
0.0
 11
-45.18846687369901
 21
-8.638084635371853
 31
0.0
  0
LINE
  5
72
330
2
100
AcDbEntity
  8
GAIKEI
  6
Continuous
 62
     1
100
AcDbLine
 10
-45.538466873699
 20
-8.93827493537185
 30
0.0
 11
-45.538466873699
 21
-8.638084635371853
 31
0.0
  0
LINE
  5
73
330
2
100
AcDbEntity
  8
GAIKEI
  6
Continuous
 62
     1
100
AcDbLine
 10
-47.02221687369902
 20
-8.844429785371801
 30
0.0
 11
-47.02221687369902
 21
-8.731929785371846
 31
0.0
  0
LINE
  5
74
330
2
100
AcDbEntity
  8
GAIKEI
  6
Continuous
 62
     1
100
AcDbLine
 10
-47.134716873699
 20
-8.844429785371801
 30
0.0
 11
-47.134716873699
 21
-8.731929785371846
 31
0.0
  0
LINE
  5
75
330
2
100
AcDbEntity
  8
GAIKEI
  6
Continuous
 62
     1
100
AcDbLine
 10
-45.51356202369902
 20
-8.613179785371869
 30
0.0
 11
-45.21337172369899
 21
-8.613179785371869
 31
0.0
  0
LINE
  5
76
330
2
100
AcDbEntity
  8
GAIKEI
  6
Continuous
 62
     1
100
AcDbLine
 10
-45.51356202369902
 20
-8.963179785371835
 30
0.0
 11
-45.21337172369899
 21
-8.963179785371835
 31
0.0
  0
LINE
  5
77
330
2
100
AcDbEntity
  8
GAIKEI
  6
Continuous
 62
     1
100
AcDbLine
 10
-47.56849857369902
 20
26.37459101462815
 30
0.0
 11
11.81156482630098
 21
26.37459101462815
 31
0.0
  0
LINE
  5
78
330
2
100
AcDbEntity
  8
GAIKEI
  6
Continuous
 62
     1
100
AcDbLine
 10
-47.79532762369905
 20
-9.327779635371882
 30
0.0
 11
12.038393876301
 21
-9.327779635371882
 31
0.0
  0
LINE
  5
79
330
2
100
AcDbEntity
  8
GAIKEI
  6
Continuous
 62
     1
100
AcDbLine
 10
12.038393876301
 20
26.60142006462815
 30
0.0
 11
-47.79532762369905
 21
26.60142006462815
 31
0.0
  0
LINE
  5
7A
330
2
100
AcDbEntity
  8
GAIKEI
  6
Continuous
 62
     1
100
AcDbLine
 10
10.38613387630096
 20
24.99701581462819
 30
0.0
 11
9.898135076300945
 21
24.50678431462814
 31
0.0
  0
LINE
  5
7B
330
2
100
AcDbEntity
  8
GAIKEI
  6
Continuous
 62
     1
100
AcDbLine
 10
10.38613387630096
 20
24.99701581462819
 30
0.0
 11
10.40387427630099
 21
24.99722996462816
 31
0.0
  0
LINE
  5
7C
330
2
100
AcDbEntity
  8
GAIKEI
  6
Continuous
 62
     1
100
AcDbLine
 10
10.47694087630097
 20
24.92415561462815
 30
0.0
 11
10.476719026301
 21
24.90576336462812
 31
0.0
  0
LINE
  5
7D
330
2
100
AcDbEntity
  8
GAIKEI
  6
Continuous
 62
     1
100
AcDbLine
 10
9.989011076300982
 20
24.41582406462817
 30
0.0
 11
10.476719026301
 21
24.90576336462812
 31
0.0
  0
LINE
  5
7E
330
2
100
AcDbEntity
  8
GAIKEI
  6
Continuous
 62
     1
100
AcDbLine
 10
-46.23387462369902
 20
24.92415561462815
 30
0.0
 11
-46.23365277369901
 21
24.90576336462812
 31
0.0
  0
LINE
  5
7F
330
2
100
AcDbEntity
  8
GAIKEI
  6
Continuous
 62
     1
100
AcDbLine
 10
-46.14306762369904
 20
24.99701581462819
 30
0.0
 11
-46.16080802369902
 21
24.99722996462816
 31
0.0
  0
LINE
  5
80
330
2
100
AcDbEntity
  8
GAIKEI
  6
Continuous
 62
     1
100
AcDbLine
 10
-46.14306762369904
 20
24.99701581462819
 30
0.0
 11
-45.65506882369902
 21
24.50678431462814
 31
0.0
  0
LINE
  5
81
330
2
100
AcDbEntity
  8
GAIKEI
  6
Continuous
 62
     1
100
AcDbLine
 10
-45.74594482369903
 20
24.41582406462817
 30
0.0
 11
-46.23365277369901
 21
24.90576336462812
 31
0.0
  0
LINE
  5
82
330
2
100
AcDbEntity
  8
GAIKEI
  6
Continuous
 62
     1
100
AcDbLine
 10
-45.65506882369902
 20
-7.233143885371816
 30
0.0
 11
-46.14306762369904
 21
-7.723375385371866
 31
0.0
  0
LINE
  5
83
330
2
100
AcDbEntity
  8
GAIKEI
  6
Continuous
 62
     1
100
AcDbLine
 10
-46.16080802369902
 20
-7.723589535371843
 30
0.0
 11
-46.14306762369904
 21
-7.723375385371866
 31
0.0
  0
LINE
  5
84
330
2
100
AcDbEntity
  8
GAIKEI
  6
Continuous
 62
     1
100
AcDbLine
 10
-46.23365277369901
 20
-7.632122935371796
 30
0.0
 11
-46.23387462369902
 21
-7.65051518537183
 31
0.0
  0
LINE
  5
85
330
2
100
AcDbEntity
  8
GAIKEI
  6
Continuous
 62
     1
100
AcDbLine
 10
-46.23365277369901
 20
-7.632122935371796
 30
0.0
 11
-45.74594482369903
 21
-7.14218363537185
 31
0.0
  0
LINE
  5
86
330
2
100
AcDbEntity
  8
GAIKEI
  6
Continuous
 62
     1
100
AcDbLine
 10
10.476719026301
 20
-7.632122935371796
 30
0.0
 11
10.47694087630097
 21
-7.65051518537183
 31
0.0
  0
LINE
  5
87
330
2
100
AcDbEntity
  8
GAIKEI
  6
Continuous
 62
     1
100
AcDbLine
 10
10.40387427630099
 20
-7.723589535371843
 30
0.0
 11
10.38613387630096
 21
-7.723375385371866
 31
0.0
  0
LINE
  5
88
330
2
100
AcDbEntity
  8
GAIKEI
  6
Continuous
 62
     1
100
AcDbLine
 10
9.898135076300945
 20
-7.233143885371816
 30
0.0
 11
10.38613387630096
 21
-7.723375385371866
 31
0.0
  0
LINE
  5
89
330
2
100
AcDbEntity
  8
GAIKEI
  6
Continuous
 62
     1
100
AcDbLine
 10
10.476719026301
 20
-7.632122935371796
 30
0.0
 11
9.989011076300982
 21
-7.14218363537185
 31
0.0
  0
LINE
  5
8A
330
2
100
AcDbEntity
  8
GAIKEI
  6
Continuous
 62
     1
100
AcDbLine
 10
-46.14306762369904
 20
24.99701581462819
 30
0.0
 11
10.38613387630096
 21
24.99701581462819
 31
0.0
  0
LINE
  5
8B
330
2
100
AcDbEntity
  8
GAIKEI
  6
Continuous
 62
     1
100
AcDbLine
 10
10.38613387630096
 20
-7.723375385371866
 30
0.0
 11
-46.14306762369904
 21
-7.723375385371866
 31
0.0
  0
LINE
  5
8C
330
2
100
AcDbEntity
  8
GAIKEI
  6
Continuous
 62
     1
100
AcDbLine
 10
-46.23365277369901
 20
24.90576336462812
 30
0.0
 11
-46.23365277369901
 21
-7.632122935371796
 31
0.0
  0
LINE
  5
8D
330
2
100
AcDbEntity
  8
GAIKEI
  6
Continuous
 62
     1
100
AcDbLine
 10
10.476719026301
 20
24.90576336462812
 30
0.0
 11
10.476719026301
 21
-7.632122935371796
 31
0.0
  0
LINE
  5
8E
330
2
100
AcDbEntity
  8
GAIKEI
  6
Continuous
 62
     1
100
AcDbLine
 10
9.852007626300974
 20
24.51414106462818
 30
0.0
 11
-45.60894137369899
 21
24.51414106462818
 31
0.0
  0
LINE
  5
8F
330
2
100
AcDbEntity
  8
GAIKEI
  6
Continuous
 62
     1
100
AcDbLine
 10
-45.60894137369899
 20
-7.240500635371859
 30
0.0
 11
9.852007626300974
 21
-7.240500635371859
 31
0.0
  0
LINE
  5
90
330
2
100
AcDbEntity
  8
GAIKEI
  6
Continuous
 62
     1
100
AcDbLine
 10
9.996335476300941
 20
-7.096156385371784
 30
0.0
 11
9.996335476300941
 21
24.36979681462811
 31
0.0
  0
LINE
  5
91
330
2
100
AcDbEntity
  8
GAIKEI
  6
Continuous
 62
     1
100
AcDbLine
 10
-45.75326922369902
 20
-7.096156385371784
 30
0.0
 11
-45.75326922369902
 21
24.36979681462811
 31
0.0
  0
LINE
  5
92
330
2
100
AcDbEntity
  8
GAIKEI
  6
Continuous
 62
     1
100
AcDbLine
 10
9.936533126300986
 20
24.35506561462819
 30
0.0
 11
9.936533126300986
 21
-7.08142518537187
 31
0.0
  0
LINE
  5
93
330
2
100
AcDbEntity
  8
GAIKEI
  6
Continuous
 62
     1
100
AcDbLine
 10
-45.69346687369903
 20
24.35506561462819
 30
0.0
 11
-45.69346687369903
 21
-7.08142518537187
 31
0.0
  0
LINE
  5
94
330
2
100
AcDbEntity
  8
GAIKEI
  6
Continuous
 62
     1
100
AcDbLine
 10
9.837278526300991
 20
24.45432021462818
 30
0.0
 11
-45.59421227369904
 21
24.45432021462818
 31
0.0
  0
LINE
  5
95
330
2
100
AcDbEntity
  8
GAIKEI
  6
Continuous
 62
     1
100
AcDbLine
 10
9.837278526300991
 20
-7.180679785371864
 30
0.0
 11
-45.59421227369904
 21
-7.180679785371864
 31
0.0
  0
LINE
  5
96
330
2
100
AcDbEntity
  8
GAIKEI
  6
Continuous
100
AcDbLine
 10
12.17180722630095
 20
26.73682021462815
 30
0.0
 11
-47.928740973699
 21
26.73682021462815
 31
0.0
  0
LINE
  5
97
330
2
100
AcDbEntity
  8
GAIKEI
  6
Continuous
100
AcDbLine
 10
12.17180722630095
 20
-9.463179785371835
 30
0.0
 11
-47.928740973699
 21
-9.463179785371835
 31
0.0
  0
ELLIPSE
  5
98
330
2
100
AcDbEntity
  8
GAIKEI
  6
Continuous
 62
     1
100
AcDbEllipse
 10
-45.213562373699
 20
-8.638275285371832
 30
0.0
 11
0.0178124651972453
 21
0.0178124651972453
 31
0.0
210
0.0
220
0.0
230
1.0
 40
0.9924330000012384
 41
5.50158524205745
 42
7.064785372302008
  0
ELLIPSE
  5
99
330
2
100
AcDbEntity
  8
GAIKEI
  6
Continuous
 62
     1
100
AcDbEllipse
 10
-46.167122973699
 20
-7.656835885371833
 30
0.0
 11
0.1595354047728925
 21
0.1595354047728925
 31
0.0
210
0.0
220
0.0
230
1.0
 40
0.997265000000023
 41
2.357564018062564
 42
3.925621289116989
  0
ELLIPSE
  5
9A
330
2
100
AcDbEntity
  8
GAIKEI
  6
Continuous
 62
     1
100
AcDbEllipse
 10
10.41018922630096
 20
-7.656835885371833
 30
0.0
 11
-0.1595354047728925
 21
0.1595354047728925
 31
0.0
210
0.0
220
0.0
230
1.0
 40
0.997265000000023
 41
2.357564018062596
 42
3.925621289117021
  0
ELLIPSE
  5
9B
330
2
100
AcDbEntity
  8
GAIKEI
  6
Continuous
 62
     1
100
AcDbEllipse
 10
10.41018922630096
 20
24.93047631462815
 30
0.0
 11
0.159535404772889
 21
0.159535404772889
 31
0.0
210
0.0
220
0.0
230
0.9999999999999998
 40
0.9972650000000992
 41
5.499156671652616
 42
7.067213942706619
  0
ELLIPSE
  5
9C
330
2
100
AcDbEntity
  8
GAIKEI
  6
Continuous
 62
     1
100
AcDbEllipse
 10
-46.167122973699
 20
24.93047631462815
 30
0.0
 11
-0.159535404772889
 21
0.159535404772889
 31
0.0
210
0.0
220
0.0
230
0.9999999999999998
 40
0.9972650000000992
 41
-0.7840286355270326
 42
0.7840286355269695
  0
ELLIPSE
  5
9D
330
2
100
AcDbEntity
  8
GAIKEI
  6
Continuous
 62
     1
100
AcDbEllipse
 10
-45.213562373699
 20
-8.938084285371871
 30
0.0
 11
-0.0178124651972667
 21
0.0178124651972667
 31
0.0
210
0.0
220
0.0
230
1.0
 40
0.9924329999999773
 41
2.359992588465603
 42
3.923192718713703
  0
ELLIPSE
  5
9E
330
2
100
AcDbEntity
  8
GAIKEI
  6
Continuous
 62
     1
100
AcDbEllipse
 10
-45.51337137369901
 20
-8.638275285371832
 30
0.0
 11
-0.0178124651972667
 21
0.0178124651972667
 31
0.0
210
0.0
220
0.0
230
1.0
 40
0.992432999998279
 41
-0.7816000651239091
 42
0.7816000651241919
  0
ELLIPSE
  5
9F
330
2
100
AcDbEntity
  8
GAIKEI
  6
Continuous
 62
     1
100
AcDbEllipse
 10
-45.51337137369901
 20
-8.938084285371871
 30
0.0
 11
0.0178124651972631
 21
0.0178124651972631
 31
0.0
210
0.0
220
0.0
230
1.0
 40
0.9924330000003765
 41
2.359992588465516
 42
3.923192718713782
  0
ELLIPSE
  5
A0
330
2
100
AcDbEntity
  8
GAIKEI
  6
Continuous
 62
     1
100
AcDbEllipse
 10
9.848053726300975
 20
24.36130526462813
 30
0.0
 11
0.085259189355603
 21
0.1284167499149077
 31
0.0
210
0.0
220
0.0
230
1.0
 40
0.9720119999987916
 41
0.2615629867885685
 42
0.5730948651545389
  0
ELLIPSE
  5
A1
330
2
100
AcDbEntity
  8
GAIKEI
  6
Continuous
 62
     1
100
AcDbEllipse
 10
-45.60498747369902
 20
24.36130526462813
 30
0.0
 11
-0.0852591893556044
 21
0.1284167499149068
 31
0.0
210
0.0
220
0.0
230
1.0
 40
0.9720119999987918
 41
-0.5730948651545499
 42
-0.2615629867885796
  0
ELLIPSE
  5
A2
330
2
100
AcDbEntity
  8
GAIKEI
  6
Continuous
 62
     1
100
AcDbEllipse
 10
-45.60498747369902
 20
-7.087664835371811
 30
0.0
 11
0.0852591893545455
 21
0.1284167499155941
 31
0.0
210
0.0
220
0.0
230
1.0
 40
0.9720119999983715
 41
3.403155640370685
 42
3.714687518736063
  0
ELLIPSE
  5
A3
330
2
100
AcDbEntity
  8
GAIKEI
  6
Continuous
 62
     1
100
AcDbEllipse
 10
9.848053726300975
 20
-7.087664835371811
 30
0.0
 11
-0.0852591893577444
 21
0.1284167499135195
 31
0.0
210
0.0
220
0.0
230
1.0
 40
0.9720119999996089
 41
2.568497788419069
 42
2.880029666783867
  0
ELLIPSE
  5
A4
330
2
100
AcDbEntity
  8
GAIKEI
  6
Continuous
 62
     1
100
AcDbEllipse
 10
9.84349172630101
 20
-7.092194585371828
 30
0.0
 11
-0.12846358223822
 21
0.0852052786893615
 31
0.0
210
0.0
220
0.0
230
1.0
 40
0.9719460000015663
 41
3.403369935232094
 42
3.714202442917041
  0
ELLIPSE
  5
A5
330
2
100
AcDbEntity
  8
GAIKEI
  6
Continuous
 62
     1
100
AcDbEllipse
 10
9.84349172630101
 20
24.36583501462815
 30
0.0
 11
0.1284635822350019
 21
0.0852052786943477
 31
0.0
210
0.0
220
0.0
230
1.0
 40
0.9719460000026607
 41
-0.5726097893656941
 42
-0.2617772816832753
  0
ELLIPSE
  5
A6
330
2
100
AcDbEntity
  8
GAIKEI
  6
Continuous
 62
     1
100
AcDbEllipse
 10
-45.60042547369903
 20
24.36583501462815
 30
0.0
 11
-0.1284635822448187
 21
0.085205278679174
 31
0.0
210
0.0
220
0.0
230
1.0
 40
0.9719459999970283
 41
0.2617772815647359
 42
0.5726097892496785
  0
ELLIPSE
  5
A7
330
2
100
AcDbEntity
  8
GAIKEI
  6
Continuous
 62
     1
100
AcDbEllipse
 10
-45.60042547369903
 20
-7.092194585371828
 30
0.0
 11
0.1284635822291533
 21
0.0852052787034152
 31
0.0
210
0.0
220
0.0
230
1.0
 40
0.9719460000057027
 41
2.568982864154635
 42
2.879815371837112
  0
ELLIPSE
  5
A8
330
2
100
AcDbEntity
  8
GAIKEI
  6
Continuous
 62
     1
100
AcDbEllipse
 10
9.835782126301012
 20
-7.079928785371805
 30
0.0
 11
-0.0717687988192779
 21
0.0717687988192779
 31
0.0
210
0.0
220
0.0
230
1.0
 40
0.9852569999999586
 41
2.363620831665282
 42
3.919564475514587
  0
ELLIPSE
  5
A9
330
2
100
AcDbEntity
  8
GAIKEI
  6
Continuous
 62
     1
100
AcDbEllipse
 10
-45.59271587369903
 20
-7.079928785371805
 30
0.0
 11
0.0717687988192779
 21
0.0717687988192779
 31
0.0
210
0.0
220
0.0
230
1.0
 40
0.9852570000000294
 41
2.363620831664963
 42
3.91956447551427
  0
ELLIPSE
  5
AA
330
2
100
AcDbEntity
  8
GAIKEI
  6
Continuous
 62
     1
100
AcDbEllipse
 10
-45.59271587369903
 20
24.35356921462812
 30
0.0
 11
-0.0717687988192637
 21
0.0717687988192637
 31
0.0
210
0.0
220
0.0
230
1.0
 40
0.9852570000004961
 41
-0.7779718219248054
 42
0.7779718219250871
  0
ELLIPSE
  5
AB
330
2
100
AcDbEntity
  8
GAIKEI
  6
Continuous
 62
     1
100
AcDbEllipse
 10
9.835782126301012
 20
24.35356921462812
 30
0.0
 11
0.0717687988192637
 21
0.0717687988192637
 31
0.0
210
0.0
220
0.0
230
1.0
 40
0.9852570000004959
 41
5.505213485254499
 42
7.061157129104673
  0
LINE
  5
AC
330
2
100
AcDbEntity
  8
GAIKEI
  6
Continuous
 62
     7
100
AcDbLine
 10
12.86554082630098
 20
26.00403823962819
 30
0.0
 11
12.86554082630098
 21
-8.730409960371844
 31
0.0
  0
SPLINE
  5
AD
330
2
100
AcDbEntity
  8
GAIKEI
  6
Continuous
 62
     7
100
AcDbSpline
210
0.0
220
0.0
230
1.0
 70
     8
 71
     3
 72
     9
 73
     5
 74
     0
 42
0.0000000001
 43
0.0000000001
 40
0.0
 40
0.0
 40
0.0
 40
0.0
 40
14.91719755737096
 40
30.09423971494808
 40
30.09423971494808
 40
30.09423971494808
 40
30.09423971494808
 10
14.47601447005101
 20
-9.460073070918724
 30
0.0
 10
14.22739455483511
 20
-9.46022110868887
 30
0.0
 10
13.72582392011438
 20
-9.46041839245845
 30
0.0
 10
13.2242532584415
 20
-9.460478747570448
 30
0.0
 10
12.9713025559885
 20
-9.460488109981213
 30
0.0
  0
SPLINE
  5
AE
330
2
100
AcDbEntity
  8
GAIKEI
  6
Continuous
 62
     7
100
AcDbSpline
210
0.0
220
0.0
230
1.0
 70
     8
 71
     3
 72
     9
 73
     5
 74
     0
 42
0.0000000001
 43
0.0000000001
 40
0.0
 40
0.0
 40
0.0
 40
0.0
 40
3.131012357143871
 40
6.214320535329698
 40
6.214320535329698
 40
6.214320535329698
 40
6.214320535329698
 10
17.61673712630099
 20
-9.253578930293713
 30
0.0
 10
17.61666770809134
 20
-9.305762423406918
 30
0.0
 10
17.57339024153927
 20
-9.413496150939863
 30
0.0
 10
17.46578144567186
 20
-9.457602555900166
 30
0.0
 10
17.41439337630103
 20
-9.457399731074929
 30
0.0
  0
SPLINE
  5
AF
330
2
100
AcDbEntity
  8
GAIKEI
  6
Continuous
 62
     1
100
AcDbSpline
210
0.0
220
0.0
230
1.0
 70
     8
 71
     3
 72
     9
 73
     5
 74
     0
 42
0.0000000001
 43
0.0000000001
 40
0.0
 40
0.0
 40
0.0
 40
0.0
 40
0.0078534411293542
 40
0.0157394946032041
 40
0.0157394946032041
 40
0.0157394946032041
 40
0.0157394946032041
 10
14.47523322005102
 20
-9.459987621699951
 30
0.0
 10
14.47536098658898
 20
-9.46001604850619
 30
0.0
 10
14.47562068243226
 20
-9.46005746928904
 30
0.0
 10
14.47588304331
 20
-9.460071668373473
 30
0.0
 10
14.47601447005101
 20
-9.460073070918724
 30
0.0
  0
SPLINE
  5
B0
330
2
100
AcDbEntity
  8
GAIKEI
  6
Continuous
 62
     7
100
AcDbSpline
210
0.0
220
0.0
230
1.0
 70
     8
 71
     3
 72
     9
 73
     5
 74
     0
 42
0.0000000001
 43
0.0000000001
 40
0.0
 40
0.0
 40
0.0
 40
0.0
 40
29.39737301754986
 40
58.7946987442469
 40
58.7946987442469
 40
58.7946987442469
 40
58.7946987442469
 10
17.41574835676974
 20
-9.457680492793713
 30
0.0
 10
16.92579262340823
 20
-9.458368884462856
 30
0.0
 10
15.94588135409182
 20
-9.459324945835987
 30
0.0
 10
14.96596983993706
 20
-9.459832843693732
 30
0.0
 10
14.47601447005101
 20
-9.460073070918724
 30
0.0
  0
SPLINE
  5
B1
330
2
100
AcDbEntity
  8
GAIKEI
  6
Continuous
 62
     1
100
AcDbSpline
210
0.0
220
0.0
230
1.0
 70
     8
 71
     3
 72
     9
 73
     5
 74
     0
 42
0.0000000001
 43
0.0000000001
 40
0.0
 40
0.0
 40
0.0
 40
0.0
 40
0.0137885163468726
 40
0.0277971563202312
 40
0.0277971563202312
 40
0.0277971563202312
 40
0.0277971563202312
 10
17.41574835676974
 20
-9.457680492793713
 30
0.0
 10
17.41551855083972
 20
-9.457679383830225
 30
0.0
 10
17.41505457457808
 20
-9.457625482209039
 30
0.0
 10
17.4146102688563
 20
-9.45748615609699
 30
0.0
 10
17.41439337630103
 20
-9.457399731074929
 30
0.0
  0
SPLINE
  5
B2
330
2
100
AcDbEntity
  8
GAIKEI
  6
Continuous
 62
     7
100
AcDbSpline
210
0.0
220
0.0
230
1.0
 70
     8
 71
     3
 72
     9
 73
     5
 74
     0
 42
0.0000000001
 43
0.0000000001
 40
0.0
 40
0.0
 40
0.0
 40
0.0
 40
2.608801521942092
 40
5.218901201754872
 40
5.218901201754872
 40
5.218901201754872
 40
5.218901201754872
 10
12.77160773176976
 20
-9.260707836543701
 30
0.0
 10
12.77163968992889
 20
-9.30418785016468
 30
0.0
 10
12.8026767506436
 20
-9.393312491901042
 30
0.0
 10
12.88198306767188
 20
-9.444511782445431
 30
0.0
 10
12.92425665755101
 20
-9.454775219356179
 30
0.0
  0
LINE
  5
B3
330
2
100
AcDbEntity
  8
GAIKEI
  6
Continuous
 62
     1
100
AcDbLine
 10
12.77160781193743
 20
-9.260791139848436
 30
0.0
 11
13.141664076301
 21
-8.890371060371819
 31
0.0
  0
SPLINE
  5
B4
330
2
100
AcDbEntity
  8
GAIKEI
  6
Continuous
 62
     1
100
AcDbSpline
210
0.0
220
0.0
230
1.0
 70
     8
 71
     3
 72
     9
 73
     5
 74
     0
 42
0.0000000001
 43
0.0000000001
 40
0.0
 40
0.0
 40
0.0
 40
0.0
 40
3.00649021551401
 40
6.013928399846387
 40
6.013928399846387
 40
6.013928399846387
 40
6.013928399846387
 10
13.34165167708224
 20
-9.090370922481213
 30
0.0
 10
13.29182131322577
 20
-9.08510180826795
 30
0.0
 10
13.19178514669349
 20
-9.040225118694593
 30
0.0
 10
13.14693128366511
 20
-8.940221768019114
 30
0.0
 10
13.141590641926
 20
-8.890383129512429
 30
0.0
  0
LINE
  5
B5
330
2
100
AcDbEntity
  8
GAIKEI
  6
Continuous
 62
     1
100
AcDbLine
 10
12.97123593560798
 20
-9.460427013369951
 30
0.0
 11
13.34165772630101
 21
-9.090368960371847
 31
0.0
  0
SPLINE
  5
B6
330
2
100
AcDbEntity
  8
GAIKEI
  6
Continuous
 62
     1
100
AcDbSpline
210
0.0
220
0.0
230
1.0
 70
     8
 71
     3
 72
     9
 73
     5
 74
     0
 42
0.0000000001
 43
0.0000000001
 40
0.0
 40
0.0
 40
0.0
 40
0.0
 40
0.0029296476091856
 40
0.8659950720233828
 40
0.8659950720233828
 40
0.8659950720233828
 40
0.8659950720233828
 10
13.10783820051975
 20
-9.324074535762463
 30
0.0
 10
13.10778951899905
 20
-9.324078308083699
 30
0.0
 10
13.0933341253598
 20
-9.323533339932339
 30
0.0
 10
13.07921811537531
 20
-9.319919308714247
 30
0.0
 10
13.06491827864474
 20
-9.318361645137429
 30
0.0
  0
LINE
  5
B7
330
2
100
AcDbEntity
  8
GAIKEI
  6
Continuous
 62
     1
100
AcDbLine
 10
13.34165167630098
 20
-9.090370910371802
 30
0.0
 11
17.10074592630101
 21
-9.090370910371802
 31
0.0
  0
LINE
  5
B8
330
2
100
AcDbEntity
  8
GAIKEI
  6
Continuous
 62
     1
100
AcDbLine
 10
17.53432792630096
 20
-9.125021060371807
 30
0.0
 11
17.30070982630101
 21
-8.890423660371823
 31
0.0
  0
SPLINE
  5
B9
330
2
100
AcDbEntity
  8
GAIKEI
  6
Continuous
 62
     1
100
AcDbSpline
210
0.0
220
0.0
230
1.0
 70
     8
 71
     3
 72
     9
 73
     5
 74
     0
 42
0.0000000001
 43
0.0000000001
 40
0.0
 40
0.0
 40
0.0
 40
0.0
 40
0.432326092216564
 40
0.8912202709941183
 40
0.8912202709941183
 40
0.8912202709941183
 40
0.8912202709941183
 10
17.52848029036349
 20
-9.16920393029369
 30
0.0
 10
17.52925276276173
 20
-9.162040022277551
 30
0.0
 10
17.53091113634028
 20
-9.147278410285537
 30
0.0
 10
17.53306881464905
 20
-9.132576650039766
 30
0.0
 10
17.53436407942601
 20
-9.125038891231213
 30
0.0
  0
SPLINE
  5
BA
330
2
100
AcDbEntity
  8
GAIKEI
  6
Continuous
 62
     1
100
AcDbSpline
210
0.0
220
0.0
230
1.0
 70
     8
 71
     3
 72
     9
 73
     5
 74
     0
 42
0.0000000001
 43
0.0000000001
 40
0.0
 40
0.0
 40
0.0
 40
0.0
 40
1.656235736553358
 40
4.523581821308481
 40
4.523581821308481
 40
4.523581821308481
 40
4.523581821308481
 10
17.37735724348849
 20
-9.320705395137451
 30
0.0
 10
17.40481162440838
 20
-9.317835924563951
 30
0.0
 10
17.47909932111659
 20
-9.292285485528054
 30
0.0
 10
17.52339291298599
 20
-9.216721472372796
 30
0.0
 10
17.52848029036349
 20
-9.16920393029369
 30
0.0
  0
SPLINE
  5
BB
330
2
100
AcDbEntity
  8
GAIKEI
  6
Continuous
 62
     1
100
AcDbSpline
210
0.0
220
0.0
230
1.0
 70
     8
 71
     3
 72
     9
 73
     5
 74
     0
 42
0.0000000001
 43
0.0000000001
 40
0.0
 40
0.0
 40
0.0
 40
0.0
 40
0.4082020433341026
 40
0.8156013125728581
 40
0.8156013125728581
 40
0.8156013125728581
 40
0.8156013125728581
 10
17.33692755598852
 20
-9.32600324669994
 30
0.0
 10
17.34363870949997
 20
-9.324886901603747
 30
0.0
 10
17.35709602100454
 20
-9.322942498017766
 30
0.0
 10
17.37060374020089
 20
-9.321408337488321
 30
0.0
 10
17.37735724348849
 20
-9.320705395137451
 30
0.0
  0
LINE
  5
BC
330
2
100
AcDbEntity
  8
GAIKEI
  6
Continuous
 62
     1
100
AcDbLine
 10
17.10074587630098
 20
-9.090362310371801
 30
0.0
 11
17.337036126301
 21
-9.325982560371812
 31
0.0
  0
SPLINE
  5
BD
330
2
100
AcDbEntity
  8
GAIKEI
  6
Continuous
 62
     1
100
AcDbSpline
210
0.0
220
0.0
230
1.0
 70
     8
 71
     3
 72
     9
 73
     5
 74
     0
 42
0.0000000001
 43
0.0000000001
 40
0.0
 40
0.0
 40
0.0
 40
0.0
 40
1.517294349229331
 40
5.91932657678531
 40
5.91932657678531
 40
5.91932657678531
 40
5.91932657678531
 10
17.30070929426975
 20
-8.890419750606213
 30
0.0
 10
17.29883231705733
 20
-8.9156382358114
 30
0.0
 10
17.2727457176716
 20
-9.012631300107386
 30
0.0
 10
17.17370337693919
 20
-9.082627835707967
 30
0.0
 10
17.10074591536349
 20
-9.090370922481213
 30
0.0
  0
SPLINE
  5
BE
330
2
100
AcDbEntity
  8
GAIKEI
  6
Continuous
 62
     1
100
AcDbSpline
210
0.0
220
0.0
230
1.0
 70
     8
 71
     3
 72
     9
 73
     5
 74
     0
 42
0.0000000001
 43
0.0000000001
 40
0.0
 40
0.0
 40
0.0
 40
0.0
 40
0.4323703203184989
 40
0.8655681094042307
 40
0.8655681094042307
 40
0.8655681094042307
 40
0.8655681094042307
 10
12.91367316145724
 20
-9.167104320918724
 30
0.0
 10
12.9128915890989
 20
-9.15994065847417
 30
0.0
 10
12.91121311664207
 20
-9.145611544243877
 30
0.0
 10
12.90914009247396
 20
-9.131331726049779
 30
0.0
 10
12.90796027083226
 20
-9.124208813106179
 30
0.0
  0
SPLINE
  5
BF
330
2
100
AcDbEntity
  8
GAIKEI
  6
Continuous
 62
     7
100
AcDbSpline
210
0.0
220
0.0
230
1.0
 70
     8
 71
     3
 72
     9
 73
     5
 74
     0
 42
0.0000000001
 43
0.0000000001
 40
0.0
 40
0.0
 40
0.0
 40
0.0
 40
0.4745863747763912
 40
0.9491031297469218
 40
0.9491031297469218
 40
0.9491031297469218
 40
0.9491031297469218
 10
12.97129034895724
 20
-9.460427074824963
 30
0.0
 10
12.96338057994254
 20
-9.460419221925405
 30
0.0
 10
12.9475500273758
 20
-9.459457518895248
 30
0.0
 10
12.93194122852876
 20
-9.456644315895516
 30
0.0
 10
12.92425665755101
 20
-9.454775219356179
 30
0.0
  0
LINE
  5
C0
330
2
100
AcDbEntity
  8
GAIKEI
  6
Continuous
 62
     7
100
AcDbLine
 10
12.92425607630102
 20
-9.454773910371841
 30
0.0
 11
12.924231476301
 21
-9.454875510371834
 31
0.0
  0
SPLINE
  5
C1
330
2
100
AcDbEntity
  8
GAIKEI
  6
Continuous
 62
     7
100
AcDbSpline
210
0.0
220
0.0
230
1.0
 70
     8
 71
     3
 72
     9
 73
     5
 74
     0
 42
0.0000000001
 43
0.0000000001
 40
0.0
 40
0.0
 40
0.0
 40
0.0
 40
0.000307133192375
 40
0.0012511406223669
 40
0.0012511406223669
 40
0.0012511406223669
 40
0.0012511406223669
 10
12.9713025559885
 20
-9.460488109981213
 30
0.0
 10
12.97129763377344
 20
-9.460489515256426
 30
0.0
 10
12.97129676954265
 20
-9.460454727882051
 30
0.0
 10
12.97129171876068
 20
-9.460442748539037
 30
0.0
 10
12.97129034895724
 20
-9.460427074824963
 30
0.0
  0
SPLINE
  5
C2
330
2
100
AcDbEntity
  8
GAIKEI
  6
Continuous
 62
     7
100
AcDbSpline
210
0.0
220
0.0
230
1.0
 70
     8
 71
     3
 72
     9
 73
     5
 74
     0
 42
0.0000000001
 43
0.0000000001
 40
0.0
 40
0.0
 40
0.0
 40
0.0
 40
29.39312756231776
 40
58.78322706070662
 40
58.78322706070662
 40
58.78322706070662
 40
58.78322706070662
 10
14.47523322005102
 20
-9.459987621699951
 30
0.0
 10
14.96511852952593
 20
-9.459604392354208
 30
0.0
 10
15.94483881562038
 20
-9.459081174792686
 30
0.0
 10
16.92455899099073
 20
-9.458170446648239
 30
0.0
 10
17.41439337630103
 20
-9.457399731074929
 30
0.0
  0
SPLINE
  5
C3
330
2
100
AcDbEntity
  8
GAIKEI
  6
Continuous
 62
     7
100
AcDbSpline
210
0.0
220
0.0
230
1.0
 70
     8
 71
     3
 72
     9
 73
     5
 74
     0
 42
0.0000000001
 43
0.0000000001
 40
0.0
 40
0.0
 40
0.0
 40
0.0
 40
15.17019098155854
 40
30.07885903948136
 40
30.07885903948136
 40
30.07885903948136
 40
30.07885903948136
 10
12.97129034895724
 20
-9.460427074824963
 30
0.0
 10
13.22412686510759
 20
-9.460416794624904
 30
0.0
 10
13.72544118233563
 20
-9.460355757684283
 30
0.0
 10
14.22675546960531
 20
-9.460146070571511
 30
0.0
 10
14.47523322005102
 20
-9.459987621699951
 30
0.0
  0
LINE
  5
C4
330
2
100
AcDbEntity
  8
GAIKEI
  6
Continuous
 62
     7
100
AcDbLine
 10
12.85221868306678
 20
-9.188185860371845
 30
0.0
 11
12.865547076301
 21
-8.730408610371796
 31
0.0
  0
LINE
  5
C5
330
2
100
AcDbEntity
  8
GAIKEI
  6
Continuous
 62
     1
100
AcDbLine
 10
12.86554082630098
 20
-8.730409960371844
 30
0.0
 11
12.303736626301
 21
-8.730409960371844
 31
0.0
  0
SPLINE
  5
C6
330
2
100
AcDbEntity
  8
GAIKEI
  6
Continuous
 62
     1
100
AcDbSpline
210
0.0
220
0.0
230
1.0
 70
     8
 71
     3
 72
     9
 73
     5
 74
     0
 42
0.0000000001
 43
0.0000000001
 40
0.0
 40
0.0
 40
0.0
 40
0.0
 40
42.29127472562083
 40
84.58180013910597
 40
84.58180013910597
 40
84.58180013910597
 40
84.58180013910597
 10
17.33692755598852
 20
-9.32600324669994
 30
0.0
 10
16.63207334968589
 20
-9.325278638566203
 30
0.0
 10
15.22237706795212
 20
-9.324146859708946
 30
0.0
 10
13.8126802708413
 20
-9.323907032767806
 30
0.0
 10
13.10783820051975
 20
-9.324074535762463
 30
0.0
  0
SPLINE
  5
C7
330
2
100
AcDbEntity
  8
GAIKEI
  6
Continuous
 62
     1
100
AcDbSpline
210
0.0
220
0.0
230
1.0
 70
     8
 71
     3
 72
     9
 73
     5
 74
     0
 42
0.0000000001
 43
0.0000000001
 40
0.0
 40
0.0
 40
0.0
 40
0.0
 40
1.945368404595981
 40
4.533175250603751
 40
4.533175250603751
 40
4.533175250603751
 40
4.533175250603751
 10
13.06491827864474
 20
-9.318361645137429
 30
0.0
 10
13.03257917662509
 20
-9.316033367303191
 30
0.0
 10
12.9582630067321
 20
-9.284333143449885
 30
0.0
 10
12.9183099126092
 20
-9.209984471117195
 30
0.0
 10
12.91367316145724
 20
-9.167104320918724
 30
0.0
  0
LINE
  5
C8
330
2
100
AcDbEntity
  8
GAIKEI
  6
Continuous
 62
     7
100
AcDbLine
 10
12.77160772630097
 20
-9.260707860371837
 30
0.0
 11
12.77160772630097
 21
-9.188185860371845
 31
0.0
  0
LINE
  5
C9
330
2
100
AcDbEntity
  8
GAIKEI
  6
Continuous
 62
     1
100
AcDbLine
 10
12.77160772630097
 20
-9.260707860371837
 30
0.0
 11
12.77154667630097
 21
-9.260707860371837
 31
0.0
  0
LINE
  5
CA
330
2
100
AcDbEntity
  8
GAIKEI
  6
Continuous
 62
     1
100
AcDbLine
 10
12.77154717630103
 20
-9.260705110371816
 30
0.0
 11
12.77153497630101
 21
-9.260705110371816
 31
0.0
  0
LINE
  5
CB
330
2
100
AcDbEntity
  8
GAIKEI
  6
Continuous
 62
     1
100
AcDbLine
 10
17.61673712630099
 20
-9.253578910371857
 30
0.0
 11
17.61679817630099
 21
-9.253578910371857
 31
0.0
  0
SPLINE
  5
CC
330
2
100
AcDbEntity
  8
GAIKEI
  6
Continuous
 62
     7
100
AcDbSpline
210
0.0
220
0.0
230
1.0
 70
     8
 71
     3
 72
     9
 73
     5
 74
     0
 42
0.0000000001
 43
0.0000000001
 40
0.0
 40
0.0
 40
0.0
 40
0.0
 40
15.17688766217361
 40
30.09423971492175
 40
30.09423971492175
 40
30.09423971492175
 40
30.09423971492175
 10
12.9713025559885
 20
26.73412858923752
 30
0.0
 10
13.22425068354053
 20
26.73411985311742
 30
0.0
 10
13.7258213453716
 20
26.73405888199415
 30
0.0
 10
14.22739197953106
 20
26.73386094719552
 30
0.0
 10
14.47601447005101
 20
26.73371355017508
 30
0.0
  0
SPLINE
  5
CD
330
2
100
AcDbEntity
  8
GAIKEI
  6
Continuous
 62
     7
100
AcDbSpline
210
0.0
220
0.0
230
1.0
 70
     8
 71
     3
 72
    10
 73
     6
 74
     0
 42
0.0000000001
 43
0.0000000001
 40
0.0
 40
0.0
 40
0.0
 40
0.0
 40
0.2724492370619989
 40
0.9948730228349431
 40
6.021982962936184
 40
6.021982962936184
 40
6.021982962936184
 40
6.021982962936184
 10
17.42104620833228
 20
26.74335710486258
 30
0.0
 10
17.42043125616939
 20
26.7388581176744
 30
0.0
 10
17.43080789331034
 20
26.72159861531355
 30
0.0
 10
17.54366121016895
 20
26.74418236890443
 30
0.0
 10
17.61733141708063
 20
26.61100295503747
 30
0.0
 10
17.6168103684885
 20
26.52721940955002
 30
0.0
  0
SPLINE
  5
CE
330
2
100
AcDbEntity
  8
GAIKEI
  6
Continuous
 62
     1
100
AcDbSpline
210
0.0
220
0.0
230
1.0
 70
     8
 71
     3
 72
     9
 73
     5
 74
     0
 42
0.0000000001
 43
0.0000000001
 40
0.0
 40
0.0
 40
0.0
 40
0.0
 40
0.0078759195154627
 40
0.0157679125147925
 40
0.0157679125147925
 40
0.0157679125147925
 40
0.0157679125147925
 10
14.47523322005102
 20
26.73361589392505
 30
0.0
 10
14.47536135228674
 20
26.73364440209548
 30
0.0
 10
14.47562019201169
 20
26.73369180250387
 30
0.0
 10
14.47588294432356
 20
26.73371214657346
 30
0.0
 10
14.47601447005101
 20
26.73371355017508
 30
0.0
  0
SPLINE
  5
CF
330
2
100
AcDbEntity
  8
GAIKEI
  6
Continuous
 62
     7
100
AcDbSpline
210
0.0
220
0.0
230
1.0
 70
     8
 71
     3
 72
     9
 73
     5
 74
     0
 42
0.0000000001
 43
0.0000000001
 40
0.0
 40
0.0
 40
0.0
 40
0.0
 40
29.41054305853916
 40
58.9011871801054
 40
58.9011871801054
 40
58.9011871801054
 40
58.9011871801054
 10
14.47601447005101
 20
26.73371355017508
 30
0.0
 10
14.96619013266118
 20
26.73348127694578
 30
0.0
 10
15.94787575184304
 20
26.73296138307325
 30
0.0
 10
16.92956437086948
 20
26.73802733772033
 30
0.0
 10
17.42104620833228
 20
26.74335710486258
 30
0.0
  0
SPLINE
  5
D0
330
2
100
AcDbEntity
  8
GAIKEI
  6
Continuous
 62
     7
100
AcDbSpline
210
0.0
220
0.0
230
1.0
 70
     8
 71
     3
 72
     9
 73
     5
 74
     0
 42
0.0000000001
 43
0.0000000001
 40
0.0
 40
0.0
 40
0.0
 40
0.0
 40
2.608801521942092
 40
5.218901201754872
 40
5.218901201754872
 40
5.218901201754872
 40
5.218901201754872
 10
12.77160773176976
 20
26.5343361087688
 30
0.0
 10
12.77163968992889
 20
26.57781612238972
 30
0.0
 10
12.8026767506436
 20
26.66694076412608
 30
0.0
 10
12.88198306767188
 20
26.71814005467053
 30
0.0
 10
12.92425665755101
 20
26.72840349158133
 30
0.0
  0
LINE
  5
D1
330
2
100
AcDbEntity
  8
GAIKEI
  6
Continuous
 62
     1
100
AcDbLine
 10
13.14165957630101
 20
26.16402958962817
 30
0.0
 11
12.77160784423819
 21
26.53444505317276
 31
0.0
  0
SPLINE
  5
D2
330
2
100
AcDbEntity
  8
GAIKEI
  6
Continuous
 62
     1
100
AcDbSpline
210
0.0
220
0.0
230
1.0
 70
     8
 71
     3
 72
     9
 73
     5
 74
     0
 42
0.0000000001
 43
0.0000000001
 40
0.0
 40
0.0
 40
0.0
 40
0.0
 40
3.00649021551401
 40
6.013928399846387
 40
6.013928399846387
 40
6.013928399846387
 40
6.013928399846387
 10
13.34165167708224
 20
26.36401140173751
 30
0.0
 10
13.29182131322577
 20
26.35874228752425
 30
0.0
 10
13.19178514669349
 20
26.31386559795095
 30
0.0
 10
13.14693128366511
 20
26.21386224727547
 30
0.0
 10
13.141590641926
 20
26.16402360876879
 30
0.0
  0
LINE
  5
D3
330
2
100
AcDbEntity
  8
GAIKEI
  6
Continuous
 62
     1
100
AcDbLine
 10
12.9712316710322
 20
26.73406748712114
 30
0.0
 11
13.341652626301
 21
26.36401018962818
 31
0.0
  0
SPLINE
  5
D4
330
2
100
AcDbEntity
  8
GAIKEI
  6
Continuous
 62
     1
100
AcDbSpline
210
0.0
220
0.0
230
1.0
 70
     8
 71
     3
 72
     9
 73
     5
 74
     0
 42
0.0000000001
 43
0.0000000001
 40
0.0
 40
0.0
 40
0.0
 40
0.0
 40
0.0029398165566283
 40
0.8660048802469422
 40
0.8660048802469422
 40
0.8660048802469422
 40
0.8660048802469422
 10
13.10783820051975
 20
26.59770280798756
 30
0.0
 10
13.10778935002318
 20
26.59770659340273
 30
0.0
 10
13.0934082158611
 20
26.5989509144344
 30
0.0
 10
13.07921810939857
 20
26.59355978731952
 30
0.0
 10
13.06491827864474
 20
26.59200212439379
 30
0.0
  0
LINE
  5
D5
330
2
100
AcDbEntity
  8
GAIKEI
  6
Continuous
 62
     1
100
AcDbLine
 10
13.34165167630098
 20
26.36399918962815
 30
0.0
 11
17.10074592630101
 21
26.36399918962815
 31
0.0
  0
LINE
  5
D6
330
2
100
AcDbEntity
  8
GAIKEI
  6
Continuous
 62
     1
100
AcDbLine
 10
17.53432877630101
 20
26.39866603962815
 30
0.0
 11
17.30071067630101
 21
26.16406863962817
 31
0.0
  0
SPLINE
  5
D7
330
2
100
AcDbEntity
  8
GAIKEI
  6
Continuous
 62
     1
100
AcDbSpline
210
0.0
220
0.0
230
1.0
 70
     8
 71
     3
 72
     9
 73
     5
 74
     0
 42
0.0000000001
 43
0.0000000001
 40
0.0
 40
0.0
 40
0.0
 40
0.0
 40
0.4322048384549121
 40
0.8909782849838181
 40
0.8909782849838181
 40
0.8909782849838181
 40
0.8909782849838181
 10
17.52848029036349
 20
26.44283220251879
 30
0.0
 10
17.5292525461077
 20
26.43567030375169
 30
0.0
 10
17.53091112384979
 20
26.4209127622961
 30
0.0
 10
17.53306915542529
 20
26.40621514615793
 30
0.0
 10
17.53436407942601
 20
26.39867937048752
 30
0.0
  0
SPLINE
  5
D8
330
2
100
AcDbEntity
  8
GAIKEI
  6
Continuous
 62
     1
100
AcDbSpline
210
0.0
220
0.0
230
1.0
 70
     8
 71
     3
 72
     9
 73
     5
 74
     0
 42
0.0000000001
 43
0.0000000001
 40
0.0
 40
0.0
 40
0.0
 40
0.0
 40
1.656235735949052
 40
4.523791651747365
 40
4.523791651747365
 40
4.523791651747365
 40
4.523791651747365
 10
17.37735724348849
 20
26.59434587439381
 30
0.0
 10
17.40481162439837
 20
26.59147640382133
 30
0.0
 10
17.47910406118811
 20
26.56592527614606
 30
0.0
 10
17.52339254069412
 20
26.4903532219094
 30
0.0
 10
17.52848029036349
 20
26.44283220251879
 30
0.0
  0
SPLINE
  5
D9
330
2
100
AcDbEntity
  8
GAIKEI
  6
Continuous
 62
     1
100
AcDbSpline
210
0.0
220
0.0
230
1.0
 70
     8
 71
     3
 72
     9
 73
     5
 74
     0
 42
0.0000000001
 43
0.0000000001
 40
0.0
 40
0.0
 40
0.0
 40
0.0
 40
0.4081843447942165
 40
0.8155696340608679
 40
0.8155696340608679
 40
0.8155696340608679
 40
0.8155696340608679
 10
17.33692755598852
 20
26.59963151892504
 30
0.0
 10
17.34363841852249
 20
26.59851522223056
 30
0.0
 10
17.35709617118411
 20
26.59657683767273
 30
0.0
 10
17.37060397194844
 20
26.59504879262306
 30
0.0
 10
17.37735724348849
 20
26.59434587439381
 30
0.0
  0
LINE
  5
DA
330
2
100
AcDbEntity
  8
GAIKEI
  6
Continuous
 62
     1
100
AcDbLine
 10
17.10073837630099
 20
26.3640157396282
 30
0.0
 11
17.33702857630098
 21
26.59963593962817
 31
0.0
  0
SPLINE
  5
DB
330
2
100
AcDbEntity
  8
GAIKEI
  6
Continuous
 62
     1
100
AcDbSpline
210
0.0
220
0.0
230
1.0
 70
     8
 71
     3
 72
     9
 73
     5
 74
     0
 42
0.0000000001
 43
0.0000000001
 40
0.0
 40
0.0
 40
0.0
 40
0.0
 40
1.517294350060504
 40
5.919467210682682
 40
5.919467210682682
 40
5.919467210682682
 40
5.919467210682682
 10
17.30070929426975
 20
26.16404802283131
 30
0.0
 10
17.29883231705631
 20
26.18926650805031
 30
0.0
 10
17.27274388519331
 20
26.2862603888787
 30
0.0
 10
17.17370570773349
 20
26.35626806759359
 30
0.0
 10
17.10074591536349
 20
26.36401140173751
 30
0.0
  0
SPLINE
  5
DC
330
2
100
AcDbEntity
  8
GAIKEI
  6
Continuous
 62
     1
100
AcDbSpline
210
0.0
220
0.0
230
1.0
 70
     8
 71
     3
 72
     9
 73
     5
 74
     0
 42
0.0000000001
 43
0.0000000001
 40
0.0
 40
0.0
 40
0.0
 40
0.0
 40
0.4322491288119172
 40
0.8653261276181417
 40
0.8653261276181417
 40
0.8653261276181417
 40
0.8653261276181417
 10
12.91367316145724
 20
26.44073259314377
 30
0.0
 10
12.9128918081702
 20
26.4335709386425
 30
0.0
 10
12.91121316326897
 20
26.419245894423
 30
0.0
 10
12.90913976349961
 20
26.40497021919572
 30
0.0
 10
12.90796027083226
 20
26.39784929236254
 30
0.0
  0
SPLINE
  5
DD
330
2
100
AcDbEntity
  8
GAIKEI
  6
Continuous
 62
     7
100
AcDbSpline
210
0.0
220
0.0
230
1.0
 70
     8
 71
     3
 72
     9
 73
     5
 74
     0
 42
0.0000000001
 43
0.0000000001
 40
0.0
 40
0.0
 40
0.0
 40
0.0
 40
0.4745936221338634
 40
0.9491322391598641
 40
0.9491322391598641
 40
0.9491322391598641
 40
0.9491322391598641
 10
12.97129034895724
 20
26.73406755408127
 30
0.0
 10
12.96338045915328
 20
26.73405970106183
 30
0.0
 10
12.9475494402225
 20
26.73309179639967
 30
0.0
 10
12.93194158257424
 20
26.73027267423407
 30
0.0
 10
12.92425665755101
 20
26.72840349158133
 30
0.0
  0
LINE
  5
DE
330
2
100
AcDbEntity
  8
GAIKEI
  6
Continuous
 62
     7
100
AcDbLine
 10
12.92426082630098
 20
26.72841588962814
 30
0.0
 11
12.92423782630098
 21
26.72851078962816
 31
0.0
  0
SPLINE
  5
DF
330
2
100
AcDbEntity
  8
GAIKEI
  6
Continuous
 62
     7
100
AcDbSpline
210
0.0
220
0.0
230
1.0
 70
     8
 71
     3
 72
     9
 73
     5
 74
     0
 42
0.0000000001
 43
0.0000000001
 40
0.0
 40
0.0
 40
0.0
 40
0.0
 40
0.000307133192375
 40
0.0012511406223669
 40
0.0012511406223669
 40
0.0012511406223669
 40
0.0012511406223669
 10
12.9713025559885
 20
26.73412858923752
 30
0.0
 10
12.97129763377344
 20
26.73412999451278
 30
0.0
 10
12.97129676954265
 20
26.73409520713841
 30
0.0
 10
12.97129171876068
 20
26.73408322779534
 30
0.0
 10
12.97129034895724
 20
26.73406755408127
 30
0.0
  0
SPLINE
  5
E0
330
2
100
AcDbEntity
  8
GAIKEI
  6
Continuous
 62
     7
100
AcDbSpline
210
0.0
220
0.0
230
1.0
 70
     8
 71
     3
 72
     9
 73
     5
 74
     0
 42
0.0000000001
 43
0.0000000001
 40
0.0
 40
0.0
 40
0.0
 40
0.0
 40
15.17019099972979
 40
30.07885911212641
 40
30.07885911212641
 40
30.07885911212641
 40
30.07885911212641
 10
12.97129034895724
 20
26.73406755408127
 30
0.0
 10
13.2241268654104
 20
26.73405727388121
 30
0.0
 10
13.72544118388319
 20
26.73399023956733
 30
0.0
 10
14.2267554686974
 20
26.73377434279718
 30
0.0
 10
14.47523322005102
 20
26.73361589392505
 30
0.0
  0
LINE
  5
E1
330
2
100
AcDbEntity
  8
GAIKEI
  6
Continuous
 62
     7
100
AcDbLine
 10
12.85221918497086
 20
26.46181413962825
 30
0.0
 11
12.86554747630097
 21
26.00404038962819
 31
0.0
  0
LINE
  5
E2
330
2
100
AcDbEntity
  8
GAIKEI
  6
Continuous
 62
     1
100
AcDbLine
 10
12.30216192630101
 20
26.00403823962819
 30
0.0
 11
12.86554082630098
 21
26.00403823962819
 31
0.0
  0
SPLINE
  5
E3
330
2
100
AcDbEntity
  8
GAIKEI
  6
Continuous
 62
     1
100
AcDbSpline
210
0.0
220
0.0
230
1.0
 70
     8
 71
     3
 72
     9
 73
     5
 74
     0
 42
0.0000000001
 43
0.0000000001
 40
0.0
 40
0.0
 40
0.0
 40
0.0
 40
42.29127472562083
 40
84.58180013910597
 40
84.58180013910597
 40
84.58180013910597
 40
84.58180013910597
 10
17.33692755598852
 20
26.59963151892504
 30
0.0
 10
16.63207334968589
 20
26.5989069107913
 30
0.0
 10
15.22237706795218
 20
26.59777513193404
 30
0.0
 10
13.8126802708413
 20
26.59753530499296
 30
0.0
 10
13.10783820051975
 20
26.59770280798756
 30
0.0
  0
SPLINE
  5
E4
330
2
100
AcDbEntity
  8
GAIKEI
  6
Continuous
 62
     1
100
AcDbSpline
210
0.0
220
0.0
230
1.0
 70
     8
 71
     3
 72
     9
 73
     5
 74
     0
 42
0.0000000001
 43
0.0000000001
 40
0.0
 40
0.0
 40
0.0
 40
0.0
 40
1.945462263820249
 40
4.533269112037771
 40
4.533269112037771
 40
4.533269112037771
 40
4.533269112037771
 10
13.06491827864474
 20
26.59200212439379
 30
0.0
 10
13.03257761634322
 20
26.58967373422587
 30
0.0
 10
12.95826691854225
 20
26.55795578419918
 30
0.0
 10
12.91830991261318
 20
26.4836127433789
 30
0.0
 10
12.91367316145724
 20
26.44073259314377
 30
0.0
  0
LINE
  5
E5
330
2
100
AcDbEntity
  8
GAIKEI
  6
Continuous
 62
     7
100
AcDbLine
 10
12.77160772630097
 20
26.46181413962819
 30
0.0
 11
12.77160772630097
 21
26.5343360896282
 31
0.0
  0
LINE
  5
E6
330
2
100
AcDbEntity
  8
GAIKEI
  6
Continuous
 62
     1
100
AcDbLine
 10
12.77160772630097
 20
26.5343360896282
 30
0.0
 11
12.77154667630097
 21
26.5343360896282
 31
0.0
  0
LINE
  5
E7
330
2
100
AcDbEntity
  8
GAIKEI
  6
Continuous
 62
     1
100
AcDbLine
 10
13.14166387630101
 20
26.16401138962817
 30
0.0
 11
13.14166387630101
 21
-8.890383110371828
 31
0.0
  0
LINE
  5
E8
330
2
100
AcDbEntity
  8
GAIKEI
  6
Continuous
 62
     7
100
AcDbLine
 10
17.61673712630099
 20
26.52721938962816
 30
0.0
 11
17.61673712630099
 21
-9.253578910371857
 31
0.0
  0
LINE
  5
E9
330
2
100
AcDbEntity
  8
GAIKEI
  6
Continuous
 62
     7
100
AcDbLine
 10
17.61673712630099
 20
26.52721938962816
 30
0.0
 11
17.61679817630099
 21
26.52721938962816
 31
0.0
  0
LINE
  5
EA
330
2
100
AcDbEntity
  8
GAIKEI
  6
Continuous
 62
     1
100
AcDbLine
 10
17.30070927630098
 20
26.1640480396282
 30
0.0
 11
17.30070927630098
 21
-8.890407560371841
 31
0.0
  0
LINE
  5
EB
330
2
100
AcDbEntity
  8
GAIKEI
  6
Continuous
 62
     1
100
AcDbLine
 10
17.53440067630097
 20
26.39867938962817
 30
0.0
 11
17.53440067630097
 21
-9.125038910371813
 31
0.0
  0
LINE
  5
EC
330
2
100
AcDbEntity
  8
GAIKEI
  6
Continuous
 62
     1
100
AcDbLine
 10
12.90797247630101
 20
26.39784928962814
 30
0.0
 11
12.90797247630101
 21
-9.12420881037184
 31
0.0
  0
LINE
  5
ED
330
2
100
AcDbEntity
  8
GAIKEI
  6
Continuous
 62
     7
100
AcDbLine
 10
12.31527348845088
 20
26.46181413962819
 30
0.0
 11
12.30217142630098
 21
26.01181083962814
 31
0.0
  0
LINE
  5
EE
330
2
100
AcDbEntity
  8
GAIKEI
  6
Continuous
 62
     7
100
AcDbLine
 10
12.30217217630101
 20
-8.738179060371805
 30
0.0
 11
12.3152742903548
 21
-9.188185860371845
 31
0.0
  0
LINE
  5
EF
330
2
100
AcDbEntity
  8
GAIKEI
  6
Continuous
 62
     7
100
AcDbLine
 10
12.30216192630101
 20
-8.7381858603718
 30
0.0
 11
12.30216192630101
 21
26.01181413962815
 31
0.0
  0
LINE
  5
F0
330
2
100
AcDbEntity
  8
GAIKEI
  6
Continuous
 62
     7
100
AcDbLine
 10
12.31527348845088
 20
26.46181413962819
 30
0.0
 11
12.85221918497086
 21
26.46181413962825
 31
0.0
  0
LINE
  5
F1
330
2
100
AcDbEntity
  8
GAIKEI
  6
Continuous
 62
     7
100
AcDbLine
 10
12.3152742903548
 20
-9.188185860371845
 30
0.0
 11
12.85221868306678
 21
-9.188185860371845
 31
0.0
  0
LINE
  5
F2
330
2
100
AcDbEntity
  8
GAIKEI
  6
Continuous
 62
     1
100
AcDbLine
 10
12.31527227630099
 20
-9.188185860371845
 30
0.0
 11
12.33360722630098
 21
-9.188185860371845
 31
0.0
  0
LINE
  5
F3
330
2
100
AcDbEntity
  8
GAIKEI
  6
Continuous
 62
     7
100
AcDbLine
 10
12.37153312630099
 20
-9.188185860371788
 30
0.0
 11
12.37153312630099
 21
-9.263453860371782
 31
0.0
  0
LINE
  5
F4
330
2
100
AcDbEntity
  8
GAIKEI
  6
Continuous
 62
     1
100
AcDbLine
 10
12.00930392630098
 20
26.17685193962814
 30
0.0
 11
12.00930392630098
 21
-8.903211510371875
 31
0.0
  0
LINE
  5
F5
330
2
100
AcDbEntity
  8
GAIKEI
  6
Continuous
 62
     1
100
AcDbLine
 10
12.00930392630098
 20
-8.903211510371875
 30
0.0
 11
12.23613292630099
 21
-9.130040510371827
 31
0.0
  0
LINE
  5
F6
330
2
100
AcDbEntity
  8
GAIKEI
  6
Continuous
 62
     1
100
AcDbLine
 10
12.038393876301
 20
-9.327779610371862
 30
0.0
 11
11.81156482630101
 21
-9.100950560371813
 31
0.0
  0
LINE
  5
F7
330
2
100
AcDbEntity
  8
GAIKEI
  6
Continuous
 62
     1
100
AcDbLine
 10
11.81156482630101
 20
26.37459103962817
 30
0.0
 11
12.038393876301
 21
26.60142003962818
 31
0.0
  0
LINE
  5
F8
330
2
100
AcDbEntity
  8
GAIKEI
  6
Continuous
 62
     1
100
AcDbLine
 10
12.23613292630099
 20
26.40368098962813
 30
0.0
 11
12.00930392630098
 21
26.17685193962814
 31
0.0
  0
LINE
  5
F9
330
2
100
AcDbEntity
  8
GAIKEI
  6
Continuous
 62
     1
100
AcDbLine
 10
12.23613292630099
 20
-9.130040510371827
 30
0.0
 11
12.23613292630099
 21
26.40368098962813
 31
0.0
  0
LINE
  5
FA
330
2
100
AcDbEntity
  8
GAIKEI
  6
Continuous
 62
     1
100
AcDbLine
 10
12.37153312630099
 20
26.5370943396282
 30
0.0
 11
12.23613292630099
 21
26.40169413962826
 31
0.0
  0
LINE
  5
FB
330
2
100
AcDbEntity
  8
GAIKEI
  6
Continuous
 62
     1
100
AcDbLine
 10
12.03640698549321
 20
26.60142006462815
 30
0.0
 11
12.17180722630101
 21
26.73682023962817
 31
0.0
  0
LINE
  5
FC
330
2
100
AcDbEntity
  8
GAIKEI
  6
Continuous
 62
     1
100
AcDbLine
 10
12.17180722630101
 20
-9.463179760371815
 30
0.0
 11
12.03640703549331
 21
-9.327779635371825
 31
0.0
  0
LINE
  5
FD
330
2
100
AcDbEntity
  8
GAIKEI
  6
Continuous
 62
     1
100
AcDbLine
 10
12.23613292630099
 20
-9.128053549625121
 30
0.0
 11
12.37153312667937
 21
-9.263454211043153
 31
0.0
  0
LINE
  5
FE
330
2
100
AcDbEntity
  8
GAIKEI
  6
Continuous
 62
     7
100
AcDbLine
 10
12.37153312630099
 20
26.5370943396282
 30
0.0
 11
12.37153312630099
 21
26.46181413962819
 31
0.0
  0
ELLIPSE
  5
FF
330
2
100
AcDbEntity
  8
GAIKEI
  6
Continuous
 62
     1
100
AcDbEllipse
 10
11.450052676301
 20
-8.541699310371825
 30
0.0
 11
-0.502196524369623
 21
0.502196524369623
 31
0.0
210
0.0
220
0.0
230
1.0
 40
0.4928099999998565
 41
2.730628648546518
 42
3.552556658633039
  0
ELLIPSE
  5
100
330
2
100
AcDbEntity
  8
GAIKEI
  6
Continuous
 62
     1
100
AcDbEllipse
 10
11.450052676301
 20
25.81533978962813
 30
0.0
 11
0.502196524369623
 21
0.502196524369623
 31
0.0
210
0.0
220
0.0
230
1.0
 40
0.4928099999999944
 41
5.872221302136416
 42
6.694149312222723
  0
ELLIPSE
  5
101
330
2
100
AcDbEntity
  8
GAIKEI
  6
Continuous
 62
     7
100
AcDbEllipse
 10
12.17125862630101
 20
26.5365457396282
 30
0.0
 11
0.1418092486869966
 21
0.1418092486869966
 31
0.0
210
0.0
220
0.0
230
1.0
 40
0.9972650000003218
 41
5.499156671652783
 42
7.067213942706318
  0
ELLIPSE
  5
102
330
2
100
AcDbEntity
  8
GAIKEI
  6
Continuous
 62
     7
100
AcDbEllipse
 10
12.17125862630101
 20
-9.26290531037182
 30
0.0
 11
-0.1418092486870215
 21
0.1418092486870215
 31
0.0
210
0.0
220
0.0
230
1.0
 40
0.9972649999999706
 41
2.357564018062885
 42
3.925621289116736
  0
SPLINE
  5
103
330
2
100
AcDbEntity
  8
GAIKEI
  6
Continuous
 62
     1
100
AcDbSpline
210
0.0
220
0.0
230
1.0
 70
     8
 71
     3
 72
    19
 73
    15
 74
    13
 42
0.0000000001
 43
0.0000000001
 44
0.000001
 12
-0.0752275696311223
 22
-0.997166391715743
 32
0.0
 13
-0.9971651028730411
 23
-0.075244651718227
 33
0.0
 40
0.0
 40
0.0
 40
0.0
 40
0.0
 40
0.0307154355883356
 40
0.0474030577480272
 40
0.065172507741036
 40
0.09077159015165
 40
0.1187843457784919
 40
0.1493748434985914
 40
0.1799684721587743
 40
0.2079831863822805
 40
0.2335829247320371
 40
0.251351949162842
 40
0.2680383245397899
 40
0.2987487388429288
 40
0.2987487388429288
 40
0.2987487388429288
 40
0.2987487388429288
 10
12.23613294492978
 20
-9.130040535358148
 30
0.0
 10
12.2353627290733
 20
-9.140250002050017
 30
0.0
 10
12.23264105921333
 20
-9.155960626601441
 30
0.0
 10
12.22551038934614
 20
-9.17651195013893
 30
0.0
 10
12.21719397252911
 20
-9.194752783090066
 30
0.0
 10
12.20505542605903
 20
-9.21528069984987
 30
0.0
 10
12.18821790648644
 20
-9.237798234656914
 30
0.0
 10
12.16811406983481
 20
-9.259762233696065
 30
0.0
 10
12.14614821584897
 20
-9.279864989614473
 30
0.0
 10
12.1236285202828
 20
-9.296702775064829
 30
0.0
 10
12.1030997866975
 20
-9.308841343136322
 30
0.0
 10
12.08485927750766
 20
-9.317157625730956
 30
0.0
 10
12.06431016812777
 20
-9.324287861816181
 30
0.0
 10
12.0486016582731
 20
-9.327009341684778
 30
0.0
 10
12.03839387379381
 20
-9.327779606494232
 30
0.0
 11
12.23613294492978
 21
-9.130040535358148
 31
0.0
 11
12.23079978427077
 21
-9.160289529950432
 31
0.0
 11
12.22539288642818
 21
-9.176076748504044
 31
0.0
 11
12.21804738040347
 21
-9.192256756494998
 31
0.0
 11
12.20509937195774
 21
-9.214339668431193
 31
0.0
 11
12.18839215592206
 21
-9.236824681878488
 31
0.0
 11
12.16779487357266
 21
-9.259441535137057
 31
0.0
 11
12.14517442222515
 21
-9.280039516480485
 31
0.0
 11
12.12268716583585
 21
-9.296746997850902
 31
0.0
 11
12.10060346071
 21
-9.309694950431321
 31
0.0
 11
12.08442383876675
 21
-9.317040277504986
 31
0.0
 11
12.06863785563129
 21
-9.322446935006155
 31
0.0
 11
12.03839387379381
 21
-9.327779606494232
 31
0.0
  0
SPLINE
  5
104
330
2
100
AcDbEntity
  8
GAIKEI
  6
Continuous
 62
     1
100
AcDbSpline
210
0.0
220
0.0
230
1.0
 70
     8
 71
     3
 72
    19
 73
    15
 74
    13
 42
0.0000000001
 43
0.0000000001
 44
0.000001
 12
0.9971663916999085
 22
-0.0752275698410131
 32
0.0
 13
0.0752446515490343
 23
-0.9971651028858081
 33
0.0
 40
0.0
 40
0.0
 40
0.0
 40
0.0
 40
0.0307154356042622
 40
0.047403057768145
 40
0.0651725077625378
 40
0.0907715901708528
 40
0.1187843457902544
 40
0.1493748434977984
 40
0.1799684721688314
 40
0.2079831863987802
 40
0.2335829247505551
 40
0.2513519491801077
 40
0.2680383245533526
 40
0.2987487388425655
 40
0.2987487388425655
 40
0.2987487388425655
 40
0.2987487388425655
 10
12.03839387379375
 20
26.60142005797565
 30
0.0
 10
12.04860334049075
 20
26.60064984211661
 30
0.0
 10
12.06431396504828
 20
26.59792817225295
 30
0.0
 10
12.08486528859203
 20
26.59079750238215
 30
0.0
 10
12.10310612154404
 20
26.58248108556423
 30
0.0
 10
12.12363403830105
 20
26.57034253909511
 30
0.0
 10
12.14615157310172
 20
26.55350501952622
 30
0.0
 10
12.16811557213728
 20
26.53340118287534
 30
0.0
 10
12.18821832805491
 20
26.51143532888659
 30
0.0
 10
12.20505611350842
 20
26.48891563331479
 30
0.0
 10
12.21719468158088
 20
26.46838689972725
 30
0.0
 10
12.22551096417447
 20
26.450146390538
 30
0.0
 10
12.23264120025706
 20
26.42959728116384
 30
0.0
 10
12.23536268012239
 20
26.41388877131446
 30
0.0
 10
12.23613294492978
 20
26.40368098683968
 30
0.0
 11
12.03839387379375
 21
26.60142005797565
 31
0.0
 11
12.06864286840087
 21
26.59608689730897
 31
0.0
 11
12.08443008695806
 21
26.59067999946393
 31
0.0
 11
12.10061009495004
 21
26.58333449343814
 31
0.0
 11
12.1226930068839
 21
26.57038648499298
 31
0.0
 11
12.14517802032455
 21
26.55367926896082
 31
0.0
 11
12.16779487357266
 21
26.53308198661858
 31
0.0
 11
12.18839285492194
 21
26.51046153526176
 31
0.0
 11
12.20510033629532
 21
26.4879742788666
 31
0.0
 11
12.21804828887619
 21
26.46589057373871
 31
0.0
 11
12.22539361594889
 21
26.44971095179637
 31
0.0
 11
12.23080027344807
 21
26.43392496866415
 31
0.0
 11
12.23613294492978
 21
26.40368098683968
 31
0.0
  0
SPLINE
  5
105
330
2
100
AcDbEntity
  8
GAIKEI
  6
Continuous
 62
     1
100
AcDbSpline
210
0.0
220
0.0
230
1.0
 70
     8
 71
     3
 72
    19
 73
    15
 74
    13
 42
0.0000000001
 43
0.0000000001
 44
0.000001
 12
-0.9971663916999085
 22
-0.0752275698410131
 32
0.0
 13
-0.0752446515490343
 23
-0.9971651028858081
 33
0.0
 40
0.0
 40
0.0
 40
0.0
 40
0.0
 40
0.0307154356042622
 40
0.047403057768145
 40
0.0651725077625378
 40
0.0907715901708528
 40
0.1187843457902544
 40
0.1493748434977984
 40
0.1799684721688314
 40
0.2079831863987802
 40
0.2335829247505551
 40
0.2513519491801077
 40
0.2680383245533526
 40
0.2987487388425655
 40
0.2987487388425655
 40
0.2987487388425655
 40
0.2987487388425655
 10
-47.79532762119183
 20
26.60142005797565
 30
0.0
 10
-47.80553708788883
 20
26.60064984211661
 30
0.0
 10
-47.82124771244633
 20
26.59792817225295
 30
0.0
 10
-47.8417990359901
 20
26.59079750238215
 30
0.0
 10
-47.86003986894209
 20
26.58248108556423
 30
0.0
 10
-47.88056778569921
 20
26.57034253909511
 30
0.0
 10
-47.90308532049974
 20
26.55350501952622
 30
0.0
 10
-47.92504931953527
 20
26.53340118287534
 30
0.0
 10
-47.94515207545313
 20
26.51143532888659
 30
0.0
 10
-47.9619898609065
 20
26.48891563331479
 30
0.0
 10
-47.97412842897884
 20
26.46838689972725
 30
0.0
 10
-47.98244471157267
 20
26.450146390538
 30
0.0
 10
-47.98957494765509
 20
26.42959728116384
 30
0.0
 10
-47.99229642752047
 20
26.41388877131446
 30
0.0
 10
-47.99306669232786
 20
26.40368098683968
 30
0.0
 11
-47.79532762119183
 21
26.60142005797565
 31
0.0
 11
-47.82557661579895
 21
26.59608689730897
 31
0.0
 11
-47.84136383435614
 21
26.59067999946393
 31
0.0
 11
-47.85754384234812
 21
26.58333449343814
 31
0.0
 11
-47.87962675428198
 21
26.57038648499298
 31
0.0
 11
-47.90211176772262
 21
26.55367926896082
 31
0.0
 11
-47.92472862097073
 21
26.53308198661858
 31
0.0
 11
-47.94532660232002
 21
26.51046153526176
 31
0.0
 11
-47.96203408369339
 21
26.4879742788666
 31
0.0
 11
-47.97498203627426
 21
26.46589057373871
 31
0.0
 11
-47.98232736334696
 21
26.44971095179637
 31
0.0
 11
-47.98773402084615
 21
26.43392496866415
 31
0.0
 11
-47.99306669232786
 21
26.40368098683968
 31
0.0
  0
SPLINE
  5
106
330
2
100
AcDbEntity
  8
GAIKEI
  6
Continuous
 62
     1
100
AcDbSpline
210
0.0
220
0.0
230
1.0
 70
     8
 71
     3
 72
    19
 73
    15
 74
    13
 42
0.0000000001
 43
0.0000000001
 44
0.000001
 12
0.0752275696311223
 22
-0.997166391715743
 32
0.0
 13
0.9971651028730411
 23
-0.075244651718227
 33
0.0
 40
0.0
 40
0.0
 40
0.0
 40
0.0
 40
0.0307154355883356
 40
0.0474030577480272
 40
0.065172507741036
 40
0.09077159015165
 40
0.1187843457784919
 40
0.1493748434985914
 40
0.1799684721587743
 40
0.2079831863822805
 40
0.2335829247320371
 40
0.251351949162842
 40
0.2680383245397899
 40
0.2987487388429288
 40
0.2987487388429288
 40
0.2987487388429288
 40
0.2987487388429288
 10
-47.99306669232786
 20
-9.130040535358148
 30
0.0
 10
-47.99229647647138
 20
-9.140250002050017
 30
0.0
 10
-47.98957480661147
 20
-9.155960626601441
 30
0.0
 10
-47.98244413674419
 20
-9.17651195013893
 30
0.0
 10
-47.97412771992711
 20
-9.194752783090066
 30
0.0
 10
-47.96198917345705
 20
-9.21528069984987
 30
0.0
 10
-47.94515165388446
 20
-9.237798234656914
 30
0.0
 10
-47.92504781723306
 20
-9.259762233696065
 30
0.0
 10
-47.90308196324704
 20
-9.279864989614473
 30
0.0
 10
-47.88056226768086
 20
-9.296702775064829
 30
0.0
 10
-47.86003353409557
 20
-9.308841343136322
 30
0.0
 10
-47.84179302490568
 20
-9.317157625730956
 30
0.0
 10
-47.82124391552588
 20
-9.324287861816181
 30
0.0
 10
-47.80553540567118
 20
-9.327009341684778
 30
0.0
 10
-47.79532762119188
 20
-9.327779606494232
 30
0.0
 11
-47.99306669232786
 21
-9.130040535358148
 31
0.0
 11
-47.98773353166885
 21
-9.160289529950432
 31
0.0
 11
-47.98232663382626
 21
-9.176076748504044
 31
0.0
 11
-47.97498112780155
 21
-9.192256756494998
 31
0.0
 11
-47.96203311935582
 21
-9.214339668431193
 31
0.0
 11
-47.94532590332013
 21
-9.236824681878488
 31
0.0
 11
-47.92472862097073
 21
-9.259441535137057
 31
0.0
 11
-47.90210816962323
 21
-9.280039516480485
 31
0.0
 11
-47.87962091323393
 21
-9.296746997850902
 31
0.0
 11
-47.85753720810808
 21
-9.309694950431321
 31
0.0
 11
-47.84135758616483
 21
-9.317040277504986
 31
0.0
 11
-47.82557160302937
 21
-9.322446935006155
 31
0.0
 11
-47.79532762119188
 21
-9.327779606494232
 31
0.0
  0
ELLIPSE
  5
107
330
2
100
AcDbEntity
  8
GAIKEI
  6
Continuous
 62
     7
100
AcDbEllipse
 10
-47.92819237369909
 20
-9.26290531037182
 30
0.0
 11
0.1418092486870215
 21
0.1418092486870215
 31
0.0
210
0.0
220
0.0
230
-1.0
 40
0.9972649999999706
 41
2.357564018062885
 42
3.925621289116736
  0
ELLIPSE
  5
108
330
2
100
AcDbEntity
  8
GAIKEI
  6
Continuous
 62
     7
100
AcDbEllipse
 10
-47.92819237369909
 20
26.5365457396282
 30
0.0
 11
-0.1418092486869966
 21
0.1418092486869966
 31
0.0
210
0.0
220
0.0
230
-1.0
 40
0.9972650000003218
 41
5.499156671652783
 42
7.067213942706318
  0
ELLIPSE
  5
109
330
2
100
AcDbEntity
  8
GAIKEI
  6
Continuous
 62
     1
100
AcDbEllipse
 10
-47.20698642369907
 20
25.81533978962813
 30
0.0
 11
-0.502196524369623
 21
0.502196524369623
 31
0.0
210
0.0
220
0.0
230
-1.0
 40
0.4928099999999944
 41
5.872221302136416
 42
6.694149312222723
  0
ELLIPSE
  5
10A
330
2
100
AcDbEntity
  8
GAIKEI
  6
Continuous
 62
     1
100
AcDbEllipse
 10
-47.20698642369907
 20
-8.541699310371825
 30
0.0
 11
0.502196524369623
 21
0.502196524369623
 31
0.0
210
0.0
220
0.0
230
-1.0
 40
0.4928099999998565
 41
2.730628648546518
 42
3.552556658633039
  0
LINE
  5
10B
330
2
100
AcDbEntity
  8
GAIKEI
  6
Continuous
 62
     7
100
AcDbLine
 10
-48.12846687369907
 20
26.5370943396282
 30
0.0
 11
-48.12846687369907
 21
26.46181413962819
 31
0.0
  0
LINE
  5
10C
330
2
100
AcDbEntity
  8
GAIKEI
  6
Continuous
 62
     1
100
AcDbLine
 10
-47.99306667369907
 20
-9.128053549625121
 30
0.0
 11
-48.12846687407745
 21
-9.263454211043153
 31
0.0
  0
LINE
  5
10D
330
2
100
AcDbEntity
  8
GAIKEI
  6
Continuous
 62
     1
100
AcDbLine
 10
-47.92874097369909
 20
-9.463179760371815
 30
0.0
 11
-47.79334078289139
 21
-9.327779635371825
 31
0.0
  0
LINE
  5
10E
330
2
100
AcDbEntity
  8
GAIKEI
  6
Continuous
 62
     1
100
AcDbLine
 10
-47.79334073289129
 20
26.60142006462815
 30
0.0
 11
-47.92874097369909
 21
26.73682023962817
 31
0.0
  0
LINE
  5
10F
330
2
100
AcDbEntity
  8
GAIKEI
  6
Continuous
 62
     1
100
AcDbLine
 10
-48.12846687369907
 20
26.5370943396282
 30
0.0
 11
-47.99306667369907
 21
26.40169413962826
 31
0.0
  0
LINE
  5
110
330
2
100
AcDbEntity
  8
GAIKEI
  6
Continuous
 62
     1
100
AcDbLine
 10
-47.99306667369907
 20
-9.130040510371827
 30
0.0
 11
-47.99306667369907
 21
26.40368098962813
 31
0.0
  0
LINE
  5
111
330
2
100
AcDbEntity
  8
GAIKEI
  6
Continuous
 62
     1
100
AcDbLine
 10
-47.99306667369907
 20
26.40368098962813
 30
0.0
 11
-47.76623767369907
 21
26.17685193962814
 31
0.0
  0
LINE
  5
112
330
2
100
AcDbEntity
  8
GAIKEI
  6
Continuous
 62
     1
100
AcDbLine
 10
-47.56849857369909
 20
26.37459103962817
 30
0.0
 11
-47.79532762369908
 21
26.60142003962818
 31
0.0
  0
LINE
  5
113
330
2
100
AcDbEntity
  8
GAIKEI
  6
Continuous
 62
     1
100
AcDbLine
 10
-47.79532762369908
 20
-9.327779610371862
 30
0.0
 11
-47.56849857369909
 21
-9.100950560371813
 31
0.0
  0
LINE
  5
114
330
2
100
AcDbEntity
  8
GAIKEI
  6
Continuous
 62
     1
100
AcDbLine
 10
-47.76623767369907
 20
-8.903211510371875
 30
0.0
 11
-47.99306667369907
 21
-9.130040510371827
 31
0.0
  0
LINE
  5
115
330
2
100
AcDbEntity
  8
GAIKEI
  6
Continuous
 62
     1
100
AcDbLine
 10
-47.76623767369907
 20
26.17685193962814
 30
0.0
 11
-47.76623767369907
 21
-8.903211510371875
 31
0.0
  0
LINE
  5
116
330
2
100
AcDbEntity
  8
GAIKEI
  6
Continuous
 62
     7
100
AcDbLine
 10
-48.12846687369907
 20
-9.188185860371788
 30
0.0
 11
-48.12846687369907
 21
-9.263453860371782
 31
0.0
  0
LINE
  5
117
330
2
100
AcDbEntity
  8
GAIKEI
  6
Continuous
 62
     1
100
AcDbLine
 10
-48.07220602369906
 20
-9.188185860371845
 30
0.0
 11
-48.09054097369906
 21
-9.188185860371845
 31
0.0
  0
LINE
  5
118
330
2
100
AcDbEntity
  8
GAIKEI
  6
Continuous
 62
     7
100
AcDbLine
 10
-48.07220803775289
 20
-9.188185860371845
 30
0.0
 11
-48.60915243046486
 21
-9.188185860371845
 31
0.0
  0
LINE
  5
119
330
2
100
AcDbEntity
  8
GAIKEI
  6
Continuous
 62
     7
100
AcDbLine
 10
-48.07220723584896
 20
26.46181413962819
 30
0.0
 11
-48.60915293236894
 21
26.46181413962825
 31
0.0
  0
LINE
  5
11A
330
2
100
AcDbEntity
  8
GAIKEI
  6
Continuous
 62
     7
100
AcDbLine
 10
-48.05909567369909
 20
-8.7381858603718
 30
0.0
 11
-48.05909567369909
 21
26.01181413962815
 31
0.0
  0
LINE
  5
11B
330
2
100
AcDbEntity
  8
GAIKEI
  6
Continuous
 62
     7
100
AcDbLine
 10
-48.05910592369909
 20
-8.738179060371805
 30
0.0
 11
-48.07220803775289
 21
-9.188185860371845
 31
0.0
  0
LINE
  5
11C
330
2
100
AcDbEntity
  8
GAIKEI
  6
Continuous
 62
     7
100
AcDbLine
 10
-48.07220723584896
 20
26.46181413962819
 30
0.0
 11
-48.05910517369906
 21
26.01181083962814
 31
0.0
  0
LINE
  5
11D
330
2
100
AcDbEntity
  8
GAIKEI
  6
Continuous
 62
     1
100
AcDbLine
 10
-48.66490622369909
 20
26.39784928962814
 30
0.0
 11
-48.66490622369909
 21
-9.12420881037184
 31
0.0
  0
LINE
  5
11E
330
2
100
AcDbEntity
  8
GAIKEI
  6
Continuous
 62
     1
100
AcDbLine
 10
-53.29133442369905
 20
26.39867938962817
 30
0.0
 11
-53.29133442369905
 21
-9.125038910371813
 31
0.0
  0
LINE
  5
11F
330
2
100
AcDbEntity
  8
GAIKEI
  6
Continuous
 62
     1
100
AcDbLine
 10
-53.05764302369905
 20
26.1640480396282
 30
0.0
 11
-53.05764302369905
 21
-8.890407560371841
 31
0.0
  0
LINE
  5
120
330
2
100
AcDbEntity
  8
GAIKEI
  6
Continuous
 62
     7
100
AcDbLine
 10
-53.37367087369907
 20
26.52721938962816
 30
0.0
 11
-53.37373192369907
 21
26.52721938962816
 31
0.0
  0
LINE
  5
121
330
2
100
AcDbEntity
  8
GAIKEI
  6
Continuous
 62
     7
100
AcDbLine
 10
-53.37367087369907
 20
26.52721938962816
 30
0.0
 11
-53.37367087369907
 21
-9.253578910371857
 31
0.0
  0
LINE
  5
122
330
2
100
AcDbEntity
  8
GAIKEI
  6
Continuous
 62
     1
100
AcDbLine
 10
-48.89859762369908
 20
26.16401138962817
 30
0.0
 11
-48.89859762369908
 21
-8.890383110371828
 31
0.0
  0
LINE
  5
123
330
2
100
AcDbEntity
  8
GAIKEI
  6
Continuous
 62
     1
100
AcDbLine
 10
-48.52854147369905
 20
26.5343360896282
 30
0.0
 11
-48.52848042369905
 21
26.5343360896282
 31
0.0
  0
LINE
  5
124
330
2
100
AcDbEntity
  8
GAIKEI
  6
Continuous
 62
     7
100
AcDbLine
 10
-48.52854147369905
 20
26.46181413962819
 30
0.0
 11
-48.52854147369905
 21
26.5343360896282
 31
0.0
  0
SPLINE
  5
125
330
2
100
AcDbEntity
  8
GAIKEI
  6
Continuous
 62
     1
100
AcDbSpline
210
0.0
220
0.0
230
1.0
 70
     8
 71
     3
 72
     9
 73
     5
 74
     0
 42
0.0000000001
 43
0.0000000001
 40
0.0
 40
0.0
 40
0.0
 40
0.0
 40
1.945462263820249
 40
4.533269112037771
 40
4.533269112037771
 40
4.533269112037771
 40
4.533269112037771
 10
-48.82185202604282
 20
26.59200212439379
 30
0.0
 10
-48.7895113637413
 20
26.58967373422587
 30
0.0
 10
-48.71520066594033
 20
26.55795578419918
 30
0.0
 10
-48.67524366001126
 20
26.4836127433789
 30
0.0
 10
-48.67060690885532
 20
26.44073259314377
 30
0.0
  0
SPLINE
  5
126
330
2
100
AcDbEntity
  8
GAIKEI
  6
Continuous
 62
     1
100
AcDbSpline
210
0.0
220
0.0
230
1.0
 70
     8
 71
     3
 72
     9
 73
     5
 74
     0
 42
0.0000000001
 43
0.0000000001
 40
0.0
 40
0.0
 40
0.0
 40
0.0
 40
42.29127472562083
 40
84.58180013910597
 40
84.58180013910597
 40
84.58180013910597
 40
84.58180013910597
 10
-53.0938613033866
 20
26.59963151892504
 30
0.0
 10
-52.38900709708397
 20
26.5989069107913
 30
0.0
 10
-50.97931081535026
 20
26.59777513193404
 30
0.0
 10
-49.56961401823938
 20
26.59753530499296
 30
0.0
 10
-48.86477194791783
 20
26.59770280798756
 30
0.0
  0
LINE
  5
127
330
2
100
AcDbEntity
  8
GAIKEI
  6
Continuous
 62
     1
100
AcDbLine
 10
-48.05909567369909
 20
26.00403823962819
 30
0.0
 11
-48.62247457369907
 21
26.00403823962819
 31
0.0
  0
LINE
  5
128
330
2
100
AcDbEntity
  8
GAIKEI
  6
Continuous
 62
     7
100
AcDbLine
 10
-48.60915293236894
 20
26.46181413962825
 30
0.0
 11
-48.62248122369905
 21
26.00404038962819
 31
0.0
  0
SPLINE
  5
129
330
2
100
AcDbEntity
  8
GAIKEI
  6
Continuous
 62
     7
100
AcDbSpline
210
0.0
220
0.0
230
1.0
 70
     8
 71
     3
 72
     9
 73
     5
 74
     0
 42
0.0000000001
 43
0.0000000001
 40
0.0
 40
0.0
 40
0.0
 40
0.0
 40
15.17019099972979
 40
30.07885911212641
 40
30.07885911212641
 40
30.07885911212641
 40
30.07885911212641
 10
-48.72822409635531
 20
26.73406755408127
 30
0.0
 10
-48.98106061280848
 20
26.73405727388121
 30
0.0
 10
-49.48237493128127
 20
26.73399023956733
 30
0.0
 10
-49.98368921609548
 20
26.73377434279718
 30
0.0
 10
-50.2321669674491
 20
26.73361589392505
 30
0.0
  0
SPLINE
  5
12A
330
2
100
AcDbEntity
  8
GAIKEI
  6
Continuous
 62
     7
100
AcDbSpline
210
0.0
220
0.0
230
1.0
 70
     8
 71
     3
 72
     9
 73
     5
 74
     0
 42
0.0000000001
 43
0.0000000001
 40
0.0
 40
0.0
 40
0.0
 40
0.0
 40
0.000307133192375
 40
0.0012511406223669
 40
0.0012511406223669
 40
0.0012511406223669
 40
0.0012511406223669
 10
-48.72823630338658
 20
26.73412858923752
 30
0.0
 10
-48.72823138117152
 20
26.73412999451278
 30
0.0
 10
-48.72823051694073
 20
26.73409520713841
 30
0.0
 10
-48.72822546615876
 20
26.73408322779534
 30
0.0
 10
-48.72822409635531
 20
26.73406755408127
 30
0.0
  0
LINE
  5
12B
330
2
100
AcDbEntity
  8
GAIKEI
  6
Continuous
 62
     7
100
AcDbLine
 10
-48.68119457369906
 20
26.72841588962814
 30
0.0
 11
-48.68117157369906
 21
26.72851078962816
 31
0.0
  0
SPLINE
  5
12C
330
2
100
AcDbEntity
  8
GAIKEI
  6
Continuous
 62
     7
100
AcDbSpline
210
0.0
220
0.0
230
1.0
 70
     8
 71
     3
 72
     9
 73
     5
 74
     0
 42
0.0000000001
 43
0.0000000001
 40
0.0
 40
0.0
 40
0.0
 40
0.0
 40
0.4745936221338634
 40
0.9491322391598641
 40
0.9491322391598641
 40
0.9491322391598641
 40
0.9491322391598641
 10
-48.72822409635531
 20
26.73406755408127
 30
0.0
 10
-48.72031420655137
 20
26.73405970106183
 30
0.0
 10
-48.70448318762058
 20
26.73309179639967
 30
0.0
 10
-48.68887532997232
 20
26.73027267423407
 30
0.0
 10
-48.68119040494909
 20
26.72840349158133
 30
0.0
  0
SPLINE
  5
12D
330
2
100
AcDbEntity
  8
GAIKEI
  6
Continuous
 62
     1
100
AcDbSpline
210
0.0
220
0.0
230
1.0
 70
     8
 71
     3
 72
     9
 73
     5
 74
     0
 42
0.0000000001
 43
0.0000000001
 40
0.0
 40
0.0
 40
0.0
 40
0.0
 40
0.4322491288119172
 40
0.8653261276181417
 40
0.8653261276181417
 40
0.8653261276181417
 40
0.8653261276181417
 10
-48.67060690885532
 20
26.44073259314377
 30
0.0
 10
-48.66982555556828
 20
26.4335709386425
 30
0.0
 10
-48.66814691066704
 20
26.419245894423
 30
0.0
 10
-48.66607351089768
 20
26.40497021919572
 30
0.0
 10
-48.66489401823034
 20
26.39784929236254
 30
0.0
  0
SPLINE
  5
12E
330
2
100
AcDbEntity
  8
GAIKEI
  6
Continuous
 62
     1
100
AcDbSpline
210
0.0
220
0.0
230
1.0
 70
     8
 71
     3
 72
     9
 73
     5
 74
     0
 42
0.0000000001
 43
0.0000000001
 40
0.0
 40
0.0
 40
0.0
 40
0.0
 40
1.517294350060504
 40
5.919467210682682
 40
5.919467210682682
 40
5.919467210682682
 40
5.919467210682682
 10
-53.05764304166783
 20
26.16404802283131
 30
0.0
 10
-53.05576606445439
 20
26.18926650805031
 30
0.0
 10
-53.02967763259139
 20
26.2862603888787
 30
0.0
 10
-52.93063945513157
 20
26.35626806759359
 30
0.0
 10
-52.85767966276157
 20
26.36401140173751
 30
0.0
  0
LINE
  5
12F
330
2
100
AcDbEntity
  8
GAIKEI
  6
Continuous
 62
     1
100
AcDbLine
 10
-52.85767212369908
 20
26.3640157396282
 30
0.0
 11
-53.09396232369905
 21
26.59963593962817
 31
0.0
  0
SPLINE
  5
130
330
2
100
AcDbEntity
  8
GAIKEI
  6
Continuous
 62
     1
100
AcDbSpline
210
0.0
220
0.0
230
1.0
 70
     8
 71
     3
 72
     9
 73
     5
 74
     0
 42
0.0000000001
 43
0.0000000001
 40
0.0
 40
0.0
 40
0.0
 40
0.0
 40
0.4081843447942165
 40
0.8155696340608679
 40
0.8155696340608679
 40
0.8155696340608679
 40
0.8155696340608679
 10
-53.0938613033866
 20
26.59963151892504
 30
0.0
 10
-53.10057216592056
 20
26.59851522223056
 30
0.0
 10
-53.11402991858219
 20
26.59657683767273
 30
0.0
 10
-53.12753771934652
 20
26.59504879262306
 30
0.0
 10
-53.13429099088657
 20
26.59434587439381
 30
0.0
  0
SPLINE
  5
131
330
2
100
AcDbEntity
  8
GAIKEI
  6
Continuous
 62
     1
100
AcDbSpline
210
0.0
220
0.0
230
1.0
 70
     8
 71
     3
 72
     9
 73
     5
 74
     0
 42
0.0000000001
 43
0.0000000001
 40
0.0
 40
0.0
 40
0.0
 40
0.0
 40
1.656235735949052
 40
4.523791651747365
 40
4.523791651747365
 40
4.523791651747365
 40
4.523791651747365
 10
-53.13429099088657
 20
26.59434587439381
 30
0.0
 10
-53.16174537179645
 20
26.59147640382133
 30
0.0
 10
-53.23603780858618
 20
26.56592527614606
 30
0.0
 10
-53.2803262880922
 20
26.4903532219094
 30
0.0
 10
-53.28541403776156
 20
26.44283220251879
 30
0.0
  0
SPLINE
  5
132
330
2
100
AcDbEntity
  8
GAIKEI
  6
Continuous
 62
     1
100
AcDbSpline
210
0.0
220
0.0
230
1.0
 70
     8
 71
     3
 72
     9
 73
     5
 74
     0
 42
0.0000000001
 43
0.0000000001
 40
0.0
 40
0.0
 40
0.0
 40
0.0
 40
0.4322048384549121
 40
0.8909782849838181
 40
0.8909782849838181
 40
0.8909782849838181
 40
0.8909782849838181
 10
-53.28541403776156
 20
26.44283220251879
 30
0.0
 10
-53.28618629350578
 20
26.43567030375169
 30
0.0
 10
-53.28784487124787
 20
26.4209127622961
 30
0.0
 10
-53.29000290282337
 20
26.40621514615793
 30
0.0
 10
-53.29129782682409
 20
26.39867937048752
 30
0.0
  0
LINE
  5
133
330
2
100
AcDbEntity
  8
GAIKEI
  6
Continuous
 62
     1
100
AcDbLine
 10
-53.29126252369909
 20
26.39866603962815
 30
0.0
 11
-53.05764442369909
 21
26.16406863962817
 31
0.0
  0
LINE
  5
134
330
2
100
AcDbEntity
  8
GAIKEI
  6
Continuous
 62
     1
100
AcDbLine
 10
-49.09858542369907
 20
26.36399918962815
 30
0.0
 11
-52.8576796736991
 21
26.36399918962815
 31
0.0
  0
SPLINE
  5
135
330
2
100
AcDbEntity
  8
GAIKEI
  6
Continuous
 62
     1
100
AcDbSpline
210
0.0
220
0.0
230
1.0
 70
     8
 71
     3
 72
     9
 73
     5
 74
     0
 42
0.0000000001
 43
0.0000000001
 40
0.0
 40
0.0
 40
0.0
 40
0.0
 40
0.0029398165566283
 40
0.8660048802469422
 40
0.8660048802469422
 40
0.8660048802469422
 40
0.8660048802469422
 10
-48.86477194791783
 20
26.59770280798756
 30
0.0
 10
-48.86472309742126
 20
26.59770659340273
 30
0.0
 10
-48.85034196325918
 20
26.5989509144344
 30
0.0
 10
-48.83615185679665
 20
26.59355978731952
 30
0.0
 10
-48.82185202604282
 20
26.59200212439379
 30
0.0
  0
LINE
  5
136
330
2
100
AcDbEntity
  8
GAIKEI
  6
Continuous
 62
     1
100
AcDbLine
 10
-48.72816541843028
 20
26.73406748712114
 30
0.0
 11
-49.09858637369907
 21
26.36401018962818
 31
0.0
  0
SPLINE
  5
137
330
2
100
AcDbEntity
  8
GAIKEI
  6
Continuous
 62
     1
100
AcDbSpline
210
0.0
220
0.0
230
1.0
 70
     8
 71
     3
 72
     9
 73
     5
 74
     0
 42
0.0000000001
 43
0.0000000001
 40
0.0
 40
0.0
 40
0.0
 40
0.0
 40
3.00649021551401
 40
6.013928399846387
 40
6.013928399846387
 40
6.013928399846387
 40
6.013928399846387
 10
-49.09858542448032
 20
26.36401140173751
 30
0.0
 10
-49.04875506062385
 20
26.35874228752425
 30
0.0
 10
-48.94871889409157
 20
26.31386559795095
 30
0.0
 10
-48.90386503106319
 20
26.21386224727547
 30
0.0
 10
-48.89852438932408
 20
26.16402360876879
 30
0.0
  0
LINE
  5
138
330
2
100
AcDbEntity
  8
GAIKEI
  6
Continuous
 62
     1
100
AcDbLine
 10
-48.89859332369908
 20
26.16402958962817
 30
0.0
 11
-48.52854159163626
 21
26.53444505317276
 31
0.0
  0
SPLINE
  5
139
330
2
100
AcDbEntity
  8
GAIKEI
  6
Continuous
 62
     7
100
AcDbSpline
210
0.0
220
0.0
230
1.0
 70
     8
 71
     3
 72
     9
 73
     5
 74
     0
 42
0.0000000001
 43
0.0000000001
 40
0.0
 40
0.0
 40
0.0
 40
0.0
 40
2.608801521942092
 40
5.218901201754872
 40
5.218901201754872
 40
5.218901201754872
 40
5.218901201754872
 10
-48.52854147916784
 20
26.5343361087688
 30
0.0
 10
-48.52857343732697
 20
26.57781612238972
 30
0.0
 10
-48.55961049804168
 20
26.66694076412608
 30
0.0
 10
-48.63891681506996
 20
26.71814005467053
 30
0.0
 10
-48.68119040494909
 20
26.72840349158133
 30
0.0
  0
SPLINE
  5
13A
330
2
100
AcDbEntity
  8
GAIKEI
  6
Continuous
 62
     7
100
AcDbSpline
210
0.0
220
0.0
230
1.0
 70
     8
 71
     3
 72
     9
 73
     5
 74
     0
 42
0.0000000001
 43
0.0000000001
 40
0.0
 40
0.0
 40
0.0
 40
0.0
 40
29.41054305853916
 40
58.9011871801054
 40
58.9011871801054
 40
58.9011871801054
 40
58.9011871801054
 10
-50.23294821744909
 20
26.73371355017508
 30
0.0
 10
-50.72312388005926
 20
26.73348127694578
 30
0.0
 10
-51.70480949924112
 20
26.73296138307325
 30
0.0
 10
-52.68649811826756
 20
26.73802733772033
 30
0.0
 10
-53.17797995573037
 20
26.74335710486258
 30
0.0
  0
SPLINE
  5
13B
330
2
100
AcDbEntity
  8
GAIKEI
  6
Continuous
 62
     1
100
AcDbSpline
210
0.0
220
0.0
230
1.0
 70
     8
 71
     3
 72
     9
 73
     5
 74
     0
 42
0.0000000001
 43
0.0000000001
 40
0.0
 40
0.0
 40
0.0
 40
0.0
 40
0.0078759195154627
 40
0.0157679125147925
 40
0.0157679125147925
 40
0.0157679125147925
 40
0.0157679125147925
 10
-50.2321669674491
 20
26.73361589392505
 30
0.0
 10
-50.23229509968482
 20
26.73364440209548
 30
0.0
 10
-50.23255393940977
 20
26.73369180250387
 30
0.0
 10
-50.23281669172163
 20
26.73371214657346
 30
0.0
 10
-50.23294821744909
 20
26.73371355017508
 30
0.0
  0
SPLINE
  5
13C
330
2
100
AcDbEntity
  8
GAIKEI
  6
Continuous
 62
     7
100
AcDbSpline
210
0.0
220
0.0
230
1.0
 70
     8
 71
     3
 72
    10
 73
     6
 74
     0
 42
0.0000000001
 43
0.0000000001
 40
0.0
 40
0.0
 40
0.0
 40
0.0
 40
0.2724492370619989
 40
0.9948730228349431
 40
6.021982962936184
 40
6.021982962936184
 40
6.021982962936184
 40
6.021982962936184
 10
-53.17797995573037
 20
26.74335710486258
 30
0.0
 10
-53.17736500356748
 20
26.7388581176744
 30
0.0
 10
-53.18774164070842
 20
26.72159861531355
 30
0.0
 10
-53.30059495756703
 20
26.74418236890443
 30
0.0
 10
-53.37426516447871
 20
26.61100295503747
 30
0.0
 10
-53.37374411588658
 20
26.52721940955002
 30
0.0
  0
SPLINE
  5
13D
330
2
100
AcDbEntity
  8
GAIKEI
  6
Continuous
 62
     7
100
AcDbSpline
210
0.0
220
0.0
230
1.0
 70
     8
 71
     3
 72
     9
 73
     5
 74
     0
 42
0.0000000001
 43
0.0000000001
 40
0.0
 40
0.0
 40
0.0
 40
0.0
 40
15.17688766217361
 40
30.09423971492175
 40
30.09423971492175
 40
30.09423971492175
 40
30.09423971492175
 10
-48.72823630338658
 20
26.73412858923752
 30
0.0
 10
-48.98118443093861
 20
26.73411985311742
 30
0.0
 10
-49.48275509276967
 20
26.73405888199415
 30
0.0
 10
-49.98432572692914
 20
26.73386094719552
 30
0.0
 10
-50.23294821744909
 20
26.73371355017508
 30
0.0
  0
LINE
  5
13E
330
2
100
AcDbEntity
  8
GAIKEI
  6
Continuous
 62
     1
100
AcDbLine
 10
-53.37367087369907
 20
-9.253578910371857
 30
0.0
 11
-53.37373192369907
 21
-9.253578910371857
 31
0.0
  0
LINE
  5
13F
330
2
100
AcDbEntity
  8
GAIKEI
  6
Continuous
 62
     1
100
AcDbLine
 10
-48.5284809236991
 20
-9.260705110371816
 30
0.0
 11
-48.52846872369909
 21
-9.260705110371816
 31
0.0
  0
LINE
  5
140
330
2
100
AcDbEntity
  8
GAIKEI
  6
Continuous
 62
     1
100
AcDbLine
 10
-48.52854147369905
 20
-9.260707860371837
 30
0.0
 11
-48.52848042369905
 21
-9.260707860371837
 31
0.0
  0
LINE
  5
141
330
2
100
AcDbEntity
  8
GAIKEI
  6
Continuous
 62
     7
100
AcDbLine
 10
-48.52854147369905
 20
-9.260707860371837
 30
0.0
 11
-48.52854147369905
 21
-9.188185860371845
 31
0.0
  0
SPLINE
  5
142
330
2
100
AcDbEntity
  8
GAIKEI
  6
Continuous
 62
     1
100
AcDbSpline
210
0.0
220
0.0
230
1.0
 70
     8
 71
     3
 72
     9
 73
     5
 74
     0
 42
0.0000000001
 43
0.0000000001
 40
0.0
 40
0.0
 40
0.0
 40
0.0
 40
1.945368404595981
 40
4.533175250603751
 40
4.533175250603751
 40
4.533175250603751
 40
4.533175250603751
 10
-48.82185202604282
 20
-9.318361645137429
 30
0.0
 10
-48.78951292402317
 20
-9.316033367303191
 30
0.0
 10
-48.71519675413018
 20
-9.284333143449885
 30
0.0
 10
-48.67524366000728
 20
-9.209984471117195
 30
0.0
 10
-48.67060690885532
 20
-9.167104320918724
 30
0.0
  0
SPLINE
  5
143
330
2
100
AcDbEntity
  8
GAIKEI
  6
Continuous
 62
     1
100
AcDbSpline
210
0.0
220
0.0
230
1.0
 70
     8
 71
     3
 72
     9
 73
     5
 74
     0
 42
0.0000000001
 43
0.0000000001
 40
0.0
 40
0.0
 40
0.0
 40
0.0
 40
42.29127472562083
 40
84.58180013910597
 40
84.58180013910597
 40
84.58180013910597
 40
84.58180013910597
 10
-53.0938613033866
 20
-9.32600324669994
 30
0.0
 10
-52.38900709708397
 20
-9.325278638566203
 30
0.0
 10
-50.9793108153502
 20
-9.324146859708946
 30
0.0
 10
-49.56961401823938
 20
-9.323907032767806
 30
0.0
 10
-48.86477194791783
 20
-9.324074535762463
 30
0.0
  0
LINE
  5
144
330
2
100
AcDbEntity
  8
GAIKEI
  6
Continuous
 62
     1
100
AcDbLine
 10
-48.62247457369907
 20
-8.730409960371844
 30
0.0
 11
-48.06067037369908
 21
-8.730409960371844
 31
0.0
  0
LINE
  5
145
330
2
100
AcDbEntity
  8
GAIKEI
  6
Continuous
 62
     7
100
AcDbLine
 10
-48.60915243046486
 20
-9.188185860371845
 30
0.0
 11
-48.62248082369908
 21
-8.730408610371796
 31
0.0
  0
SPLINE
  5
146
330
2
100
AcDbEntity
  8
GAIKEI
  6
Continuous
 62
     7
100
AcDbSpline
210
0.0
220
0.0
230
1.0
 70
     8
 71
     3
 72
     9
 73
     5
 74
     0
 42
0.0000000001
 43
0.0000000001
 40
0.0
 40
0.0
 40
0.0
 40
0.0
 40
15.17019098155854
 40
30.07885903948136
 40
30.07885903948136
 40
30.07885903948136
 40
30.07885903948136
 10
-48.72822409635531
 20
-9.460427074824963
 30
0.0
 10
-48.98106061250567
 20
-9.460416794624904
 30
0.0
 10
-49.48237492973371
 20
-9.460355757684283
 30
0.0
 10
-49.98368921700339
 20
-9.460146070571511
 30
0.0
 10
-50.2321669674491
 20
-9.459987621699951
 30
0.0
  0
SPLINE
  5
147
330
2
100
AcDbEntity
  8
GAIKEI
  6
Continuous
 62
     7
100
AcDbSpline
210
0.0
220
0.0
230
1.0
 70
     8
 71
     3
 72
     9
 73
     5
 74
     0
 42
0.0000000001
 43
0.0000000001
 40
0.0
 40
0.0
 40
0.0
 40
0.0
 40
29.39312756231776
 40
58.78322706070662
 40
58.78322706070662
 40
58.78322706070662
 40
58.78322706070662
 10
-50.2321669674491
 20
-9.459987621699951
 30
0.0
 10
-50.72205227692402
 20
-9.459604392354208
 30
0.0
 10
-51.70177256301847
 20
-9.459081174792686
 30
0.0
 10
-52.68149273838881
 20
-9.458170446648239
 30
0.0
 10
-53.17132712369911
 20
-9.457399731074929
 30
0.0
  0
SPLINE
  5
148
330
2
100
AcDbEntity
  8
GAIKEI
  6
Continuous
 62
     7
100
AcDbSpline
210
0.0
220
0.0
230
1.0
 70
     8
 71
     3
 72
     9
 73
     5
 74
     0
 42
0.0000000001
 43
0.0000000001
 40
0.0
 40
0.0
 40
0.0
 40
0.0
 40
0.000307133192375
 40
0.0012511406223669
 40
0.0012511406223669
 40
0.0012511406223669
 40
0.0012511406223669
 10
-48.72823630338658
 20
-9.460488109981213
 30
0.0
 10
-48.72823138117152
 20
-9.460489515256426
 30
0.0
 10
-48.72823051694073
 20
-9.460454727882051
 30
0.0
 10
-48.72822546615876
 20
-9.460442748539037
 30
0.0
 10
-48.72822409635531
 20
-9.460427074824963
 30
0.0
  0
LINE
  5
149
330
2
100
AcDbEntity
  8
GAIKEI
  6
Continuous
 62
     7
100
AcDbLine
 10
-48.6811898236991
 20
-9.454773910371841
 30
0.0
 11
-48.68116522369908
 21
-9.454875510371834
 31
0.0
  0
SPLINE
  5
14A
330
2
100
AcDbEntity
  8
GAIKEI
  6
Continuous
 62
     7
100
AcDbSpline
210
0.0
220
0.0
230
1.0
 70
     8
 71
     3
 72
     9
 73
     5
 74
     0
 42
0.0000000001
 43
0.0000000001
 40
0.0
 40
0.0
 40
0.0
 40
0.0
 40
0.4745863747763912
 40
0.9491031297469218
 40
0.9491031297469218
 40
0.9491031297469218
 40
0.9491031297469218
 10
-48.72822409635531
 20
-9.460427074824963
 30
0.0
 10
-48.72031432734061
 20
-9.460419221925405
 30
0.0
 10
-48.70448377477387
 20
-9.459457518895248
 30
0.0
 10
-48.68887497592684
 20
-9.456644315895516
 30
0.0
 10
-48.68119040494909
 20
-9.454775219356179
 30
0.0
  0
SPLINE
  5
14B
330
2
100
AcDbEntity
  8
GAIKEI
  6
Continuous
 62
     1
100
AcDbSpline
210
0.0
220
0.0
230
1.0
 70
     8
 71
     3
 72
     9
 73
     5
 74
     0
 42
0.0000000001
 43
0.0000000001
 40
0.0
 40
0.0
 40
0.0
 40
0.0
 40
0.4323703203184989
 40
0.8655681094042307
 40
0.8655681094042307
 40
0.8655681094042307
 40
0.8655681094042307
 10
-48.67060690885532
 20
-9.167104320918724
 30
0.0
 10
-48.66982533649698
 20
-9.15994065847417
 30
0.0
 10
-48.66814686404016
 20
-9.145611544243877
 30
0.0
 10
-48.66607383987204
 20
-9.131331726049779
 30
0.0
 10
-48.66489401823034
 20
-9.124208813106179
 30
0.0
  0
SPLINE
  5
14C
330
2
100
AcDbEntity
  8
GAIKEI
  6
Continuous
 62
     1
100
AcDbSpline
210
0.0
220
0.0
230
1.0
 70
     8
 71
     3
 72
     9
 73
     5
 74
     0
 42
0.0000000001
 43
0.0000000001
 40
0.0
 40
0.0
 40
0.0
 40
0.0
 40
1.517294349229331
 40
5.91932657678531
 40
5.91932657678531
 40
5.91932657678531
 40
5.91932657678531
 10
-53.05764304166783
 20
-8.890419750606213
 30
0.0
 10
-53.05576606445541
 20
-8.9156382358114
 30
0.0
 10
-53.02967946506967
 20
-9.012631300107386
 30
0.0
 10
-52.93063712433727
 20
-9.082627835707967
 30
0.0
 10
-52.85767966276157
 20
-9.090370922481213
 30
0.0
  0
LINE
  5
14D
330
2
100
AcDbEntity
  8
GAIKEI
  6
Continuous
 62
     1
100
AcDbLine
 10
-52.85767962369906
 20
-9.090362310371801
 30
0.0
 11
-53.09396987369908
 21
-9.325982560371812
 31
0.0
  0
SPLINE
  5
14E
330
2
100
AcDbEntity
  8
GAIKEI
  6
Continuous
 62
     1
100
AcDbSpline
210
0.0
220
0.0
230
1.0
 70
     8
 71
     3
 72
     9
 73
     5
 74
     0
 42
0.0000000001
 43
0.0000000001
 40
0.0
 40
0.0
 40
0.0
 40
0.0
 40
0.4082020433341026
 40
0.8156013125728581
 40
0.8156013125728581
 40
0.8156013125728581
 40
0.8156013125728581
 10
-53.0938613033866
 20
-9.32600324669994
 30
0.0
 10
-53.10057245689804
 20
-9.324886901603747
 30
0.0
 10
-53.11402976840262
 20
-9.322942498017766
 30
0.0
 10
-53.12753748759897
 20
-9.321408337488321
 30
0.0
 10
-53.13429099088657
 20
-9.320705395137451
 30
0.0
  0
SPLINE
  5
14F
330
2
100
AcDbEntity
  8
GAIKEI
  6
Continuous
 62
     1
100
AcDbSpline
210
0.0
220
0.0
230
1.0
 70
     8
 71
     3
 72
     9
 73
     5
 74
     0
 42
0.0000000001
 43
0.0000000001
 40
0.0
 40
0.0
 40
0.0
 40
0.0
 40
1.656235736553358
 40
4.523581821308481
 40
4.523581821308481
 40
4.523581821308481
 40
4.523581821308481
 10
-53.13429099088657
 20
-9.320705395137451
 30
0.0
 10
-53.16174537180646
 20
-9.317835924563951
 30
0.0
 10
-53.23603306851467
 20
-9.292285485528054
 30
0.0
 10
-53.28032666038407
 20
-9.216721472372796
 30
0.0
 10
-53.28541403776156
 20
-9.16920393029369
 30
0.0
  0
SPLINE
  5
150
330
2
100
AcDbEntity
  8
GAIKEI
  6
Continuous
 62
     1
100
AcDbSpline
210
0.0
220
0.0
230
1.0
 70
     8
 71
     3
 72
     9
 73
     5
 74
     0
 42
0.0000000001
 43
0.0000000001
 40
0.0
 40
0.0
 40
0.0
 40
0.0
 40
0.432326092216564
 40
0.8912202709941183
 40
0.8912202709941183
 40
0.8912202709941183
 40
0.8912202709941183
 10
-53.28541403776156
 20
-9.16920393029369
 30
0.0
 10
-53.28618651015981
 20
-9.162040022277551
 30
0.0
 10
-53.28784488373836
 20
-9.147278410285537
 30
0.0
 10
-53.29000256204714
 20
-9.132576650039766
 30
0.0
 10
-53.29129782682409
 20
-9.125038891231213
 30
0.0
  0
LINE
  5
151
330
2
100
AcDbEntity
  8
GAIKEI
  6
Continuous
 62
     1
100
AcDbLine
 10
-53.29126167369904
 20
-9.125021060371807
 30
0.0
 11
-53.05764357369909
 21
-8.890423660371823
 31
0.0
  0
LINE
  5
152
330
2
100
AcDbEntity
  8
GAIKEI
  6
Continuous
 62
     1
100
AcDbLine
 10
-49.09858542369907
 20
-9.090370910371802
 30
0.0
 11
-52.8576796736991
 21
-9.090370910371802
 31
0.0
  0
SPLINE
  5
153
330
2
100
AcDbEntity
  8
GAIKEI
  6
Continuous
 62
     1
100
AcDbSpline
210
0.0
220
0.0
230
1.0
 70
     8
 71
     3
 72
     9
 73
     5
 74
     0
 42
0.0000000001
 43
0.0000000001
 40
0.0
 40
0.0
 40
0.0
 40
0.0
 40
0.0029296476091856
 40
0.8659950720233828
 40
0.8659950720233828
 40
0.8659950720233828
 40
0.8659950720233828
 10
-48.86477194791783
 20
-9.324074535762463
 30
0.0
 10
-48.86472326639713
 20
-9.324078308083699
 30
0.0
 10
-48.85026787275788
 20
-9.323533339932339
 30
0.0
 10
-48.83615186277339
 20
-9.319919308714247
 30
0.0
 10
-48.82185202604282
 20
-9.318361645137429
 30
0.0
  0
LINE
  5
154
330
2
100
AcDbEntity
  8
GAIKEI
  6
Continuous
 62
     1
100
AcDbLine
 10
-48.72816968300606
 20
-9.460427013369951
 30
0.0
 11
-49.09859147369909
 21
-9.090368960371847
 31
0.0
  0
SPLINE
  5
155
330
2
100
AcDbEntity
  8
GAIKEI
  6
Continuous
 62
     1
100
AcDbSpline
210
0.0
220
0.0
230
1.0
 70
     8
 71
     3
 72
     9
 73
     5
 74
     0
 42
0.0000000001
 43
0.0000000001
 40
0.0
 40
0.0
 40
0.0
 40
0.0
 40
3.00649021551401
 40
6.013928399846387
 40
6.013928399846387
 40
6.013928399846387
 40
6.013928399846387
 10
-49.09858542448032
 20
-9.090370922481213
 30
0.0
 10
-49.04875506062385
 20
-9.08510180826795
 30
0.0
 10
-48.94871889409157
 20
-9.040225118694593
 30
0.0
 10
-48.90386503106319
 20
-8.940221768019114
 30
0.0
 10
-48.89852438932408
 20
-8.890383129512429
 30
0.0
  0
LINE
  5
156
330
2
100
AcDbEntity
  8
GAIKEI
  6
Continuous
 62
     1
100
AcDbLine
 10
-48.52854155933551
 20
-9.260791139848436
 30
0.0
 11
-48.89859782369907
 21
-8.890371060371819
 31
0.0
  0
SPLINE
  5
157
330
2
100
AcDbEntity
  8
GAIKEI
  6
Continuous
 62
     7
100
AcDbSpline
210
0.0
220
0.0
230
1.0
 70
     8
 71
     3
 72
     9
 73
     5
 74
     0
 42
0.0000000001
 43
0.0000000001
 40
0.0
 40
0.0
 40
0.0
 40
0.0
 40
2.608801521942092
 40
5.218901201754872
 40
5.218901201754872
 40
5.218901201754872
 40
5.218901201754872
 10
-48.52854147916784
 20
-9.260707836543701
 30
0.0
 10
-48.52857343732697
 20
-9.30418785016468
 30
0.0
 10
-48.55961049804168
 20
-9.393312491901042
 30
0.0
 10
-48.63891681506996
 20
-9.444511782445431
 30
0.0
 10
-48.68119040494909
 20
-9.454775219356179
 30
0.0
  0
SPLINE
  5
158
330
2
100
AcDbEntity
  8
GAIKEI
  6
Continuous
 62
     1
100
AcDbSpline
210
0.0
220
0.0
230
1.0
 70
     8
 71
     3
 72
     9
 73
     5
 74
     0
 42
0.0000000001
 43
0.0000000001
 40
0.0
 40
0.0
 40
0.0
 40
0.0
 40
0.0137885163468726
 40
0.0277971563202312
 40
0.0277971563202312
 40
0.0277971563202312
 40
0.0277971563202312
 10
-53.17268210416782
 20
-9.457680492793713
 30
0.0
 10
-53.1724522982378
 20
-9.457679383830225
 30
0.0
 10
-53.17198832197616
 20
-9.457625482209039
 30
0.0
 10
-53.17154401625439
 20
-9.45748615609699
 30
0.0
 10
-53.17132712369911
 20
-9.457399731074929
 30
0.0
  0
SPLINE
  5
159
330
2
100
AcDbEntity
  8
GAIKEI
  6
Continuous
 62
     7
100
AcDbSpline
210
0.0
220
0.0
230
1.0
 70
     8
 71
     3
 72
     9
 73
     5
 74
     0
 42
0.0000000001
 43
0.0000000001
 40
0.0
 40
0.0
 40
0.0
 40
0.0
 40
29.39737301754986
 40
58.7946987442469
 40
58.7946987442469
 40
58.7946987442469
 40
58.7946987442469
 10
-53.17268210416782
 20
-9.457680492793713
 30
0.0
 10
-52.68272637080631
 20
-9.458368884462856
 30
0.0
 10
-51.7028151014899
 20
-9.459324945835987
 30
0.0
 10
-50.72290358733514
 20
-9.459832843693732
 30
0.0
 10
-50.23294821744909
 20
-9.460073070918724
 30
0.0
  0
SPLINE
  5
15A
330
2
100
AcDbEntity
  8
GAIKEI
  6
Continuous
 62
     1
100
AcDbSpline
210
0.0
220
0.0
230
1.0
 70
     8
 71
     3
 72
     9
 73
     5
 74
     0
 42
0.0000000001
 43
0.0000000001
 40
0.0
 40
0.0
 40
0.0
 40
0.0
 40
0.0078534411293542
 40
0.0157394946032041
 40
0.0157394946032041
 40
0.0157394946032041
 40
0.0157394946032041
 10
-50.2321669674491
 20
-9.459987621699951
 30
0.0
 10
-50.23229473398706
 20
-9.46001604850619
 30
0.0
 10
-50.23255442983034
 20
-9.46005746928904
 30
0.0
 10
-50.23281679070809
 20
-9.460071668373473
 30
0.0
 10
-50.23294821744909
 20
-9.460073070918724
 30
0.0
  0
SPLINE
  5
15B
330
2
100
AcDbEntity
  8
GAIKEI
  6
Continuous
 62
     7
100
AcDbSpline
210
0.0
220
0.0
230
1.0
 70
     8
 71
     3
 72
     9
 73
     5
 74
     0
 42
0.0000000001
 43
0.0000000001
 40
0.0
 40
0.0
 40
0.0
 40
0.0
 40
3.131012357143871
 40
6.214320535329698
 40
6.214320535329698
 40
6.214320535329698
 40
6.214320535329698
 10
-53.37367087369907
 20
-9.253578930293713
 30
0.0
 10
-53.37360145548942
 20
-9.305762423406918
 30
0.0
 10
-53.33032398893735
 20
-9.413496150939863
 30
0.0
 10
-53.22271519306994
 20
-9.457602555900166
 30
0.0
 10
-53.17132712369911
 20
-9.457399731074929
 30
0.0
  0
SPLINE
  5
15C
330
2
100
AcDbEntity
  8
GAIKEI
  6
Continuous
 62
     7
100
AcDbSpline
210
0.0
220
0.0
230
1.0
 70
     8
 71
     3
 72
     9
 73
     5
 74
     0
 42
0.0000000001
 43
0.0000000001
 40
0.0
 40
0.0
 40
0.0
 40
0.0
 40
14.91719755737096
 40
30.09423971494808
 40
30.09423971494808
 40
30.09423971494808
 40
30.09423971494808
 10
-50.23294821744909
 20
-9.460073070918724
 30
0.0
 10
-49.98432830223319
 20
-9.46022110868887
 30
0.0
 10
-49.48275766751246
 20
-9.46041839245845
 30
0.0
 10
-48.98118700583959
 20
-9.460478747570448
 30
0.0
 10
-48.72823630338658
 20
-9.460488109981213
 30
0.0
  0
LINE
  5
15D
330
2
100
AcDbEntity
  8
GAIKEI
  6
Continuous
 62
     7
100
AcDbLine
 10
-48.62247457369907
 20
26.00403823962819
 30
0.0
 11
-48.62247457369907
 21
-8.730409960371844
 31
0.0
  0
DIMENSION
  5
15E
330
2
100
AcDbEntity
  8
SUNPO
100
AcDbDimension
  2
*D7
 10
17.61673712630099
 20
39.72885404555868
 30
0.0
 11
-17.87846687369905
 21
41.47885404555867
 31
0.0
 70
    32
  1
1427
 71
     5
 42
70.99040800000008
  3
STANDARD
100
AcDbAlignedDimension
 13
-53.37367087369909
 23
26.71787770910311
 33
0.0
 14
17.61673712630099
 24
26.70521645140548
 34
0.0
100
AcDbRotatedDimension
1001
ACAD
1000
DSTYLE
1002
{
1070
   287
1070
     3
1070
   287
1070
     3
1070
    40
1040
1.0
1070
   140
1040
2.5
1070
   147
1040
0.5
1070
   172
1070
     1
1070
   279
1070
     0
1070
   288
1070
     0
1002
}
  0
DIMENSION
  5
16B
330
2
100
AcDbEntity
  8
SUNPO
100
AcDbDimension
  2
*D6
 10
25.6350349030231
 20
26.7291303647691
 30
0.0
 11
23.88503490302309
 21
8.629130364769112
 31
0.0
 70
    33
  1
724
 71
     5
 42
36.19999999999999
  3
STANDARD
100
AcDbAlignedDimension
 13
17.6350349030231
 23
-9.470869635230883
 33
0.0
 14
17.6350349030231
 24
26.72913036476911
 34
0.0
1001
ACAD
1000
DSTYLE
1002
{
1070
   287
1070
     3
1070
   287
1070
     3
1070
   287
1070
     3
1070
   287
1070
     3
1070
   287
1070
     3
1070
   287
1070
     3
1070
   287
1070
     3
1070
   287
1070
     3
1070
   287
1070
     3
1070
   287
1070
     3
1070
   287
1070
     3
1070
   287
1070
     3
1070
   287
1070
     3
1070
   287
1070
     3
1070
   287
1070
     3
1070
   287
1070
     3
1070
   287
1070
     3
1070
   287
1070
     3
1070
   287
1070
     3
1070
   287
1070
     3
1070
   287
1070
     3
1070
   287
1070
     3
1070
   287
1070
     3
1070
   287
1070
     3
1070
   287
1070
     3
1070
   287
1070
     3
1070
   287
1070
     3
1070
   287
1070
     3
1070
   287
1070
     3
1070
   287
1070
     3
1070
   287
1070
     3
1070
   287
1070
     3
1070
   287
1070
     3
1070
   287
1070
     3
1070
    40
1040
1.0
1070
   140
1040
2.5
1070
   147
1040
0.5
1070
   172
1070
     1
1070
   279
1070
     0
1002
}
  0
SPLINE
  5
178
330
2
100
AcDbEntity
  8
GAIKEI
  6
Continuous
 62
     1
100
AcDbSpline
210
0.0
220
0.0
230
1.0
 70
     8
 71
     3
 72
    13
 73
     9
 74
     7
 42
0.0000000001
 43
0.0000000001
 44
0.000001
 12
-0.1367026333584174
 22
0.9906121289550588
 32
0.0
 13
-0.1693098136655528
 23
0.9855628782561444
 33
0.0
 40
0.0
 40
0.0
 40
0.0
 40
0.0
 40
0.0167470476316635
 40
0.0333774141265641
 40
0.0502571988826622
 40
0.0667711969075428
 40
0.1235173939548199
 40
0.1402380169356289
 40
0.1402380169356289
 40
0.1402380169356289
 40
0.1402380169356289
 10
40.89996778246552
 20
24.56005858845026
 30
0.0
 10
40.89920466062809
 20
24.5655885312863
 30
0.0
 10
40.8976179553687
 20
24.5766010255589
 30
0.0
 10
40.89499830056246
 20
24.59314770344523
 30
0.0
 10
40.89224378400612
 20
24.6095935017778
 30
0.0
 10
40.88678355056479
 20
24.63914336876147
 30
0.0
 10
40.88336318717617
 20
24.66897336653689
 30
0.0
 10
40.87894655803654
 20
24.69306379856052
 30
0.0
 10
40.87800290284945
 20
24.69855687366425
 30
0.0
 11
40.89996778246552
 21
24.56005858845026
 31
0.0
 11
40.89757287661268
 21
24.57663351980932
 31
0.0
 11
40.89498605718347
 21
24.59306145785502
 31
0.0
 11
40.89217562931895
 21
24.6097056276393
 31
0.0
 11
40.88930362067998
 21
24.62596796225887
 31
0.0
 11
40.88087381971422
 21
24.68208456292121
 31
0.0
 11
40.87800290284945
 21
24.69855687366425
 31
0.0
  0
SPLINE
  5
179
330
2
100
AcDbEntity
  8
GAIKEI
  6
Continuous
 62
     1
100
AcDbSpline
210
0.0
220
0.0
230
1.0
 70
     8
 71
     3
 72
    35
 73
    31
 74
    29
 42
0.0000000001
 43
0.0000000001
 44
0.000001
 12
-0.0254197298119269
 22
0.9996768664605022
 32
0.0
 13
-0.555524397846804
 23
0.8315002365585627
 33
0.0
 40
0.0
 40
0.0
 40
0.0
 40
0.0
 40
0.0275806639849073
 40
0.0463466764000972
 40
0.0658667687191301
 40
0.0863243287775273
 40
0.107556179521046
 40
0.1301098550111812
 40
0.1534456693045686
 40
0.1777301339391415
 40
0.2027520453587402
 40
0.2283265340758608
 40
0.2545592826343661
 40
0.2816029609292953
 40
0.309234403936909
 40
0.3380150010157092
 40
0.3673196186614396
 40
0.3973079319911159
 40
0.4277336080971323
 40
0.4740829563056059
 40
0.5213227404662599
 40
0.5580878557223703
 40
0.5729895593536203
 40
0.5734845308519342
 40
0.579249939372056
 40
0.5800416187173556
 40
0.5816820830763396
 40
0.5817084320311905
 40
0.5819521501676825
 40
0.5831999734319623
 40
0.5831999734319623
 40
0.5831999734319623
 40
0.5831999734319623
 10
41.47510972626583
 20
-6.997304495119124
 30
0.0
 10
41.47487602859032
 20
-6.988113911203349
 30
0.0
 10
41.4738145268019
 20
-6.972673833884257
 30
0.0
 10
41.47058792964108
 20
-6.950946719968072
 30
0.0
 10
41.46675640371268
 20
-6.931736537906466
 30
0.0
 10
41.46185778589551
 20
-6.911923708339053
 30
0.0
 10
41.45589121703088
 20
-6.89135216407557
 30
0.0
 10
41.44888796578453
 20
-6.870098038158637
 30
0.0
 10
41.44085438375458
 20
-6.848125724779585
 30
0.0
 10
41.43188601438962
 20
-6.825630497269067
 30
0.0
 10
41.4220462340804
 20
-6.802688871862713
 30
0.0
 10
41.41141014078425
 20
-6.779390057579263
 30
0.0
 10
41.40000207790473
 20
-6.75570938132305
 30
0.0
 10
41.38784277164058
 20
-6.73163508939546
 30
0.0
 10
41.37487984324105
 20
-6.707019993458629
 30
0.0
 10
41.36117220231812
 20
-6.68194941034892
 30
0.0
 10
41.34672002201483
 20
-6.656394161327938
 30
0.0
 10
41.33165799156953
 20
-6.630556905911056
 30
0.0
 10
41.31336747710719
 20
-6.600028243845493
 30
0.0
 10
41.29163671178568
 20
-6.564860489208527
 30
0.0
 10
41.26826747440316
 20
-6.528226953017558
 30
0.0
 10
41.25022865691795
 20
-6.500630250617774
 30
0.0
 10
41.24062677140506
 20
-6.486134675997007
 30
0.0
 10
41.23672106940253
 20
-6.480260597292051
 30
0.0
 10
41.23541817919829
 20
-6.478304016421546
 30
0.0
 10
41.23390193281642
 20
-6.476030770372325
 30
0.0
 10
41.23344712709422
 20
-6.475349060450014
 30
0.0
 10
41.233093135193
 20
-6.474819664774166
 30
0.0
 10
41.23281191251007
 20
-6.474399054720976
 30
0.0
 10
41.23253564809977
 20
-6.473985694823902
 30
0.0
 10
41.23230458267727
 20
-6.473639839710756
 30
0.0
 11
41.47510972626583
 21
-6.997304495119124
 31
0.0
 11
41.47318357433738
 21
-6.969790822637435
 31
0.0
 11
41.47047453284125
 21
-6.951221449457534
 31
0.0
 11
41.4666754466939
 21
-6.932074660086925
 31
0.0
 11
41.46178981896326
 21
-6.912209077593274
 31
0.0
 11
41.45589497906501
 21
-6.891811982147544
 31
0.0
 11
41.44885613688808
 21
-6.870384844796546
 31
0.0
 11
41.44085931591269
 21
-6.848462016288465
 31
0.0
 11
41.43188101909982
 21
-6.825898222364628
 31
0.0
 11
41.42203082589105
 21
-6.802896718255169
 31
0.0
 11
41.41142148370716
 21
-6.779626655225342
 31
0.0
 11
41.40004597973564
 21
-6.755988665651045
 31
0.0
 11
41.38786267133219
 21
-6.731844782188602
 31
0.0
 11
41.37499520186958
 21
-6.707392287766083
 31
0.0
 11
41.36119547721046
 21
-6.682135803559219
 31
0.0
 11
41.34677633992914
 21
-6.656624066018082
 31
0.0
 11
41.33167924678798
 21
-6.630713134069026
 31
0.0
 11
41.31604736211648
 21
-6.604610152384623
 31
0.0
 11
41.29169882965766
 21
-6.565171460089004
 31
0.0
 11
41.26630607911397
 21
-6.525336740316504
 31
0.0
 11
41.24619577245272
 21
-6.494559329942887
 31
0.0
 11
41.23796683860649
 21
-6.48213574848205
 31
0.0
 11
41.23769278100371
 21
-6.481723572347618
 31
0.0
 11
41.23449720204121
 21
-6.476924801273526
 31
0.0
 11
41.23405791939956
 21
-6.476266176346541
 31
0.0
 11
41.23314740468851
 21
-6.474901816939166
 31
0.0
 11
41.23313278106354
 21
-6.474879912887047
 31
0.0
 11
41.23299750642456
 21
-6.474677304267288
 31
0.0
 11
41.23230458267727
 21
-6.473639839710756
 31
0.0
  0
SPLINE
  5
17A
330
2
100
AcDbEntity
  8
GAIKEI
  6
Continuous
 62
     1
100
AcDbSpline
210
0.0
220
0.0
230
1.0
 70
     8
 71
     3
 72
    20
 73
    16
 74
    14
 42
0.0000000001
 43
0.0000000001
 44
0.000001
 12
0.299379595244951
 22
-0.9541340880353082
 32
0.0
 13
0.0543241289414467
 23
-0.9985233542660647
 33
0.0
 40
0.0
 40
0.0
 40
0.0
 40
0.0
 40
0.0063807478429947
 40
0.0340721766799074
 40
0.0639604415144966
 40
0.096044420709983
 40
0.1303192580884646
 40
0.1667773842440195
 40
0.203422368353348
 40
0.2421105810853491
 40
0.2827305287953021
 40
0.3157167484610425
 40
0.3498659610588975
 40
0.3850650557778393
 40
0.4212011070297878
 40
0.4212011070297878
 40
0.4212011070297878
 40
0.4212011070297878
 10
41.28165921721012
 20
-7.387761367125165
 30
0.0
 10
41.28229597244564
 20
-7.389790730133221
 30
0.0
 10
41.28565502338022
 20
-7.40064012374146
 30
0.0
 10
41.29147381363509
 20
-7.421156191616901
 30
0.0
 10
41.29868356368911
 20
-7.450165970669736
 30
0.0
 10
41.30551904140747
 20
-7.481515853826891
 30
0.0
 10
41.31195117841548
 20
-7.515182659259551
 30
0.0
 10
41.31784192168967
 20
-7.550490286256142
 30
0.0
 10
41.32320923118925
 20
-7.587367796606045
 30
0.0
 10
41.3280702960277
 20
-7.625713971821383
 30
0.0
 10
41.33214046144087
 20
-7.662925284834471
 30
0.0
 10
41.33553275500747
 20
-7.698684042580033
 30
0.0
 10
41.33834693732689
 20
-7.732680082349318
 30
0.0
 10
41.34084397238126
 20
-7.767753455976603
 30
0.0
 10
41.34227001671743
 20
-7.791489627915908
 30
0.0
 10
41.34292436988665
 20
-7.803517191617913
 30
0.0
 11
41.28165921721012
 21
-7.387761367125165
 31
0.0
 11
41.283544124554
 21
-7.393857595808867
 31
0.0
 11
41.29113235190579
 21
-7.420488978876392
 31
0.0
 11
41.29837077095823
 21
-7.44948746667228
 31
0.0
 11
41.30523128780254
 21
-7.480829358122321
 31
0.0
 11
41.31168580853
 21
-7.5144909521523
 31
0.0
 11
41.31770623923182
 21
-7.550448547687835
 31
0.0
 11
41.323001667965
 21
-7.586708893161812
 31
0.0
 11
41.32788124377168
 21
-7.62508814463996
 31
0.0
 11
41.33230943012313
 21
-7.665465994222188
 31
0.0
 11
41.33543068169342
 21
-7.698304204367957
 31
0.0
 11
41.33825276557314
 21
-7.732336600723158
 31
0.0
 11
41.34075691666867
 21
-7.767446493176805
 31
0.0
 11
41.34292436988665
 21
-7.803517191617913
 31
0.0
  0
SPLINE
  5
17B
330
2
100
AcDbEntity
  8
GAIKEI
  6
Continuous
 62
     1
100
AcDbSpline
210
0.0
220
0.0
230
1.0
 70
     8
 71
     3
 72
    18
 73
    14
 74
    12
 42
0.0000000001
 43
0.0000000001
 44
0.000001
 12
-0.9988897441339355
 22
-0.0471092248295469
 32
0.0
 13
-0.3585121632137753
 23
0.9335250552758502
 33
0.0
 40
0.0
 40
0.0
 40
0.0
 40
0.0
 40
0.0119805905300651
 40
0.024331061290752
 40
0.0376234896336699
 40
0.0522411295060456
 40
0.0668180788349941
 40
0.0830395302716152
 40
0.1011283162673229
 40
0.1216709828861066
 40
0.1446528964452394
 40
0.1703155568409978
 40
0.1739624955742539
 40
0.1739624955742539
 40
0.1739624955742539
 40
0.1739624955742539
 10
39.73026474820847
 20
-8.295450576396262
 30
0.0
 10
39.72627565187207
 20
-8.295638708507219
 30
0.0
 10
39.71810633201733
 20
-8.295233599502935
 30
0.0
 10
39.70592294003515
 20
-8.291911731628268
 30
0.0
 10
39.69382635589074
 20
-8.28593286147084
 30
0.0
 10
39.68232509660442
 20
-8.277571179755383
 30
0.0
 10
39.67134923745988
 20
-8.267097346865398
 30
0.0
 10
39.66082915761751
 20
-8.254616237289447
 30
0.0
 10
39.65036865762335
 20
-8.239593681632385
 30
0.0
 10
39.63998624371612
 20
-8.22185162418846
 30
0.0
 10
39.62974018540624
 20
-8.201172700175405
 30
0.0
 10
39.62295988681209
 20
-8.185103435099748
 30
0.0
 10
39.61942179095899
 20
-8.175996820812052
 30
0.0
 10
39.61898596699422
 20
-8.174861984584538
 30
0.0
 11
39.73026474820847
 21
-8.295450576396262
 31
0.0
 11
39.71830004934185
 21
-8.2948166229815
 31
0.0
 11
39.70636623171754
 21
-8.291636050617228
 31
0.0
 11
39.6944122952404
 21
-8.285823093170733
 31
0.0
 11
39.68252602445648
 21
-8.277314823088147
 31
0.0
 11
39.67192896009954
 21
-8.267305388194131
 31
0.0
 11
39.66141846328805
 21
-8.254949654205859
 31
0.0
 11
39.65102429184355
 21
-8.240145442437608
 31
0.0
 11
39.64059500917171
 21
-8.222447120733534
 31
0.0
 11
39.63033708788368
 21
-8.201881546735648
 31
0.0
 11
39.62030622548622
 21
-8.178260520224625
 31
0.0
 11
39.61898596699422
 21
-8.174861984584538
 31
0.0
  0
SPLINE
  5
17C
330
2
100
AcDbEntity
  8
GAIKEI
  6
Continuous
 62
     1
100
AcDbSpline
210
0.0
220
0.0
230
1.0
 70
     8
 71
     3
 72
    11
 73
     7
 74
     5
 42
0.0000000001
 43
0.0000000001
 44
0.000001
 12
0.9703345670641711
 22
0.2417660603980373
 32
0.0
 13
0.9797500259308318
 23
0.2002245906189711
 33
0.0
 40
0.0
 40
0.0
 40
0.0
 40
0.0
 40
0.0041473159911531
 40
0.0230972194081771
 40
0.0430134616241683
 40
0.063731099072353
 40
0.063731099072353
 40
0.063731099072353
 40
0.063731099072353
 10
39.52574010044282
 20
-8.319602718459123
 30
0.0
 10
39.52708152846506
 20
-8.319268491709657
 30
0.0
 10
39.53455594331951
 20
-8.317422100596829
 30
0.0
 10
39.54851746038037
 20
-8.314154997798439
 30
0.0
 10
39.56792012334992
 20
-8.309910177639039
 30
0.0
 10
39.58117612964907
 20
-8.307127872287068
 30
0.0
 10
39.58794216492476
 20
-8.305745145461514
 30
0.0
 11
39.52574010044282
 21
-8.319602718459123
 31
0.0
 11
39.52976646794508
 21
-8.318608214243852
 31
0.0
 11
39.54821380647422
 21
-8.314272910218392
 31
0.0
 11
39.56766520298714
 21
-8.309995265724978
 31
0.0
 11
39.58794216492476
 21
-8.305745145461514
 31
0.0
  0
SPLINE
  5
17D
330
2
100
AcDbEntity
  8
GAIKEI
  6
Continuous
 62
     1
100
AcDbSpline
210
0.0
220
0.0
230
1.0
 70
     8
 71
     3
 72
     9
 73
     5
 74
     3
 42
0.0000000001
 43
0.0000000001
 44
0.000001
 12
0.9999857704525481
 22
-0.0053346876594615
 32
0.0
 13
0.9999959155307976
 23
-0.0028581325584514
 33
0.0
 40
0.0
 40
0.0
 40
0.0
 40
0.0
 40
0.3908998216266075
 40
0.4190327266555318
 40
0.4190327266555318
 40
0.4190327266555318
 40
0.4190327266555318
 10
38.44717407450639
 20
-9.475110785284584
 30
0.0
 10
38.57747216093941
 20
-9.475805894769422
 30
0.0
 10
38.71714869952433
 20
-9.476389685015178
 30
0.0
 10
38.85682566850753
 20
-9.476800514236138
 30
0.0
 10
38.8662032652145
 20
-9.476827316760079
 30
0.0
 11
38.44717407450639
 21
-9.475110785284584
 31
0.0
 11
38.83807048296649
 21
-9.476744570347307
 31
0.0
 11
38.8662032652145
 21
-9.476827316760079
 31
0.0
  0
SPLINE
  5
17E
330
2
100
AcDbEntity
  8
GAIKEI
  6
Continuous
 62
     7
100
AcDbSpline
210
0.0
220
0.0
230
1.0
 70
     8
 71
     3
 72
     9
 73
     5
 74
     3
 42
0.0000000001
 43
0.0000000001
 44
0.000001
 12
-0.9999967948792836
 22
-0.0025318434312368
 32
0.0
 13
-0.9999860532931538
 23
-0.0052814031451416
 33
0.0
 40
0.0
 40
0.0
 40
0.0
 40
0.0
 40
0.0968157403298449
 40
0.4877122289167754
 40
0.4877122289167754
 40
0.4877122289167754
 40
0.4877122289167754
 10
38.93488583545348
 20
26.71527684402145
 30
0.0
 10
38.90261402544559
 20
26.71519513658939
 30
0.0
 10
38.74004392203071
 20
26.7147391658367
 30
0.0
 10
38.57747441383944
 20
26.714059694822
 30
0.0
 10
38.44717740155005
 20
26.71337153417392
 30
0.0
 11
38.93488583545348
 21
26.71527684402145
 31
0.0
 11
38.83807048296643
 21
26.71500529988549
 31
0.0
 11
38.44717740155005
 21
26.71337153417392
 31
0.0
  0
SPLINE
  5
17F
330
2
100
AcDbEntity
  8
GAIKEI
  6
Continuous
 62
     7
100
AcDbSpline
210
0.0
220
0.0
230
1.0
 70
     8
 71
     3
 72
     9
 73
     5
 74
     3
 42
0.0000000001
 43
0.0000000001
 44
0.000001
 12
-0.9947747753350332
 22
-0.1020938115516043
 32
0.0
 13
-0.9947988961165853
 23
-0.1018585111084175
 33
0.0
 40
0.0
 40
0.0
 40
0.0
 40
0.0
 40
0.1977011781494299
 40
0.944782611872483
 40
0.944782611872483
 40
0.944782611872483
 40
0.944782611872483
 10
38.44178586053789
 20
26.71329992097094
 30
0.0
 10
38.37622981217888
 20
26.70657189869577
 30
0.0
 10
38.06294704640749
 20
26.67442749916187
 30
0.0
 10
37.7496604786648
 20
26.64232015053088
 30
0.0
 10
37.50192855013916
 20
26.61695461635896
 30
0.0
 11
38.44178586053789
 21
26.71329992097094
 31
0.0
 11
38.24511721611043
 21
26.69312072130527
 31
0.0
 11
37.50192855013916
 21
26.61695461635896
 31
0.0
  0
SPLINE
  5
180
330
2
100
AcDbEntity
  8
GAIKEI
  6
Continuous
 62
     1
100
AcDbSpline
210
0.0
220
0.0
230
1.0
 70
     8
 71
     3
 72
    21
 73
    17
 74
    15
 42
0.0000000001
 43
0.0000000001
 44
0.000001
 12
0.0382553536958656
 22
0.9992679960419048
 32
0.0
 13
-0.7595848949301688
 23
0.6504081698394668
 33
0.0
 40
0.0
 40
0.0
 40
0.0
 40
0.0
 40
0.0221910289686871
 40
0.0441849332591015
 40
0.0655784734027641
 40
0.0863132603141312
 40
0.1060380685474968
 40
0.1243777896296458
 40
0.1409618325684401
 40
0.1558604188062607
 40
0.16879454101976
 40
0.1794887649079415
 40
0.1880571758778945
 40
0.1943546315347328
 40
0.1985899972598501
 40
0.200311883501781
 40
0.200311883501781
 40
0.200311883501781
 40
0.200311883501781
 10
37.5047526336316
 20
26.41726988024994
 30
0.0
 10
37.5050356088523
 20
26.42466147526582
 30
0.0
 10
37.50552753844556
 20
26.43938190036336
 30
0.0
 10
37.50602146625198
 20
26.46123613201786
 30
0.0
 10
37.50633410102722
 20
26.48260810540283
 30
0.0
 10
37.5064961812572
 20
26.50322529764745
 30
0.0
 10
37.506530107674
 20
26.52282524316738
 30
0.0
 10
37.50645389502509
 20
26.54104109198924
 30
0.0
 10
37.50628809972227
 20
26.55764873390993
 30
0.0
 10
37.50602877360643
 20
26.57244937002577
 30
0.0
 10
37.50570505644172
 20
26.585296241164
 30
0.0
 10
37.5052400698118
 20
26.59599574108663
 30
0.0
 10
37.50483991799101
 20
26.60456739139914
 30
0.0
 10
37.50395347055258
 20
26.61074876494027
 30
0.0
 10
37.5037766488706
 20
26.61509254735852
 30
0.0
 10
37.50235623739013
 20
26.61658034950436
 30
0.0
 10
37.50192026446342
 20
26.61695365913079
 30
0.0
 11
37.5047526336316
 21
26.41726988024994
 31
0.0
 11
37.50548869744341
 21
26.43944822499168
 31
0.0
 11
37.50599547710425
 21
26.46143628985181
 31
0.0
 11
37.50631191684732
 21
26.48282748813631
 31
0.0
 11
37.50647621967352
 21
26.50356162202792
 31
0.0
 11
37.50650986164749
 21
26.52328639904658
 31
0.0
 11
37.5064319373285
 21
26.54162595141384
 31
0.0
 11
37.50625966780428
 21
26.55820909549027
 31
0.0
 11
37.5059959703907
 21
26.57310534230874
 31
0.0
 11
37.50564259198512
 21
26.58603462823089
 31
0.0
 11
37.5052012890979
 21
26.59671973084483
 31
0.0
 11
37.50465162389498
 21
26.60527047255579
 31
0.0
 11
37.50397733909006
 21
26.61153168369754
 31
0.0
 11
37.5030651910688
 21
26.61566742528208
 31
0.0
 11
37.50192026446342
 21
26.61695365913079
 31
0.0
  0
SPLINE
  5
181
330
2
100
AcDbEntity
  8
GAIKEI
  6
Continuous
 62
     1
100
AcDbSpline
210
0.0
220
0.0
230
1.0
 70
     8
 71
     3
 72
    25
 73
    21
 74
    19
 42
0.0000000001
 43
0.0000000001
 44
0.000001
 12
-0.0255134206165988
 22
-0.9996744797024883
 32
0.0
 13
0.9743074816367307
 23
-0.2252219599121975
 33
0.0
 40
0.0
 40
0.0
 40
0.0
 40
0.0
 40
0.0204813486621756
 40
0.0409688729825677
 40
0.0576179634096592
 40
0.0741051539890635
 40
0.0901792402221535
 40
0.1058345015999207
 40
0.1202818072328477
 40
0.1339991181210809
 40
0.1470723265839186
 40
0.1591864839562975
 40
0.1697261044376251
 40
0.1792402916126943
 40
0.1877892930673852
 40
0.1951896496431825
 40
0.2012055425433604
 40
0.2062281867816495
 40
0.2104862133427884
 40
0.2122113217879108
 40
0.2122113217879108
 40
0.2122113217879108
 40
0.2122113217879108
 10
38.40480670705029
 20
-9.271268024297171
 30
0.0
 10
38.40463252396253
 20
-9.278092918152992
 30
0.0
 10
38.40443333212801
 20
-9.291749007858271
 30
0.0
 10
38.40457042514083
 20
-9.310956052388959
 30
0.0
 10
38.40506620648435
 20
-9.328824826547794
 30
0.0
 10
38.40584061206448
 20
-9.345211107864329
 30
0.0
 10
38.40693286822679
 20
-9.361247367353698
 30
0.0
 10
38.40832458812653
 20
-9.376577995284776
 30
0.0
 10
38.4100005566028
 20
-9.391089707929438
 30
0.0
 10
38.41194302365892
 20
-9.404699583702765
 30
0.0
 10
38.41416965863832
 20
-9.417477645760641
 30
0.0
 10
38.41663855325655
 20
-9.429131123592028
 30
0.0
 10
38.41930700006429
 20
-9.439520281020243
 30
0.0
 10
38.42214727068591
 20
-9.448626909374979
 30
0.0
 10
38.42519832693262
 20
-9.456556005450622
 30
0.0
 10
38.42841459392571
 20
-9.463146423102067
 30
0.0
 10
38.43175658331018
 20
-9.468330530424694
 30
0.0
 10
38.43520947585273
 20
-9.472116925538081
 30
0.0
 10
38.43833289961364
 20
-9.474179481401542
 30
0.0
 10
38.44025284420133
 20
-9.474755245175529
 30
0.0
 10
38.44081310622289
 20
-9.47488475594389
 30
0.0
 11
38.40480670705029
 21
-9.271268024297171
 31
0.0
 11
38.40450813303403
 21
-9.291746407214077
 31
0.0
 11
38.40465778383492
 21
-9.31223338063711
 31
0.0
 11
38.4051226181133
 21
-9.328875976989877
 31
0.0
 11
38.40590546324535
 21
-9.345344567133849
 31
0.0
 11
38.40700391838414
 21
-9.361381071710411
 31
0.0
 11
38.40842760220449
 21
-9.376971457856996
 31
0.0
 11
38.4100947046112
 21
-9.391322248890162
 31
0.0
 11
38.41204508343543
 21
-9.40490018695533
 31
0.0
 11
38.41430566644317
 21
-9.41777645420916
 31
0.0
 11
38.41683762526526
 21
-9.429623042701052
 31
0.0
 11
38.41948314303875
 21
-9.439825222895933
 31
0.0
 11
38.42234645113519
 21
-9.448898304310375
 31
0.0
 11
38.42545834088281
 21
-9.456860782297269
 31
0.0
 11
38.42875988034655
 21
-9.463483810027241
 31
0.0
 11
38.4320828097691
 21
-9.468498629328564
 31
0.0
 11
38.43554018348891
 21
-9.472141794086724
 31
0.0
 11
38.43916426863433
 21
-9.474376884079617
 31
0.0
 11
38.44081310622289
 21
-9.47488475594389
 31
0.0
  0
SPLINE
  5
182
330
2
100
AcDbEntity
  8
GAIKEI
  6
Continuous
 62
     1
100
AcDbSpline
210
0.0
220
0.0
230
1.0
 70
     8
 71
     3
 72
    21
 73
    17
 74
    15
 42
0.0000000001
 43
0.0000000001
 44
0.000001
 12
0.0382553536963009
 22
-0.9992679960418882
 32
0.0
 13
-0.7595848949307547
 23
-0.6504081698387826
 33
0.0
 40
0.0
 40
0.0
 40
0.0
 40
0.0
 40
0.0221910289687439
 40
0.0441849332590944
 40
0.0655784734027641
 40
0.0863132603141809
 40
0.1060380685475536
 40
0.1243777896297098
 40
0.1409618325684899
 40
0.1558604188063247
 40
0.1687945410197601
 40
0.1794887649079913
 40
0.1880571758779442
 40
0.194354631534726
 40
0.1985899972598988
 40
0.2003118835017926
 40
0.2003118835017926
 40
0.2003118835017926
 40
0.2003118835017926
 10
37.5047526336316
 20
-9.179009150711692
 30
0.0
 10
37.5050356088523
 20
-9.186400745727596
 30
0.0
 10
37.50552753844559
 20
-9.201121170825153
 30
0.0
 10
37.50602146625193
 20
-9.222975402479598
 30
0.0
 10
37.50633410102728
 20
-9.244347375864634
 30
0.0
 10
37.50649618125709
 20
-9.26496456810922
 30
0.0
 10
37.50653010767405
 20
-9.284564513629192
 30
0.0
 10
37.50645389502498
 20
-9.302780362451024
 30
0.0
 10
37.50628809972233
 20
-9.319388004371781
 30
0.0
 10
37.5060287736064
 20
-9.334188640487532
 30
0.0
 10
37.50570505644168
 20
-9.347035511625804
 30
0.0
 10
37.5052400698118
 20
-9.357735011548427
 30
0.0
 10
37.50483991799104
 20
-9.366306661860946
 30
0.0
 10
37.50395347055249
 20
-9.372488035402007
 30
0.0
 10
37.50377664887066
 20
-9.376831817820331
 30
0.0
 10
37.50235623739013
 20
-9.378319619966127
 30
0.0
 10
37.50192026446342
 20
-9.378692929592546
 30
0.0
 11
37.5047526336316
 21
-9.179009150711692
 31
0.0
 11
37.50548869744341
 21
-9.201187495453496
 31
0.0
 11
37.50599547710425
 21
-9.223175560313563
 31
0.0
 11
37.50631191684732
 21
-9.244566758598068
 31
0.0
 11
37.50647621967352
 21
-9.265300892489733
 31
0.0
 11
37.50650986164749
 21
-9.285025669508399
 31
0.0
 11
37.5064319373285
 21
-9.303365221875651
 31
0.0
 11
37.50625966780428
 21
-9.319948365952086
 31
0.0
 11
37.5059959703907
 21
-9.334844612770552
 31
0.0
 11
37.50564259198512
 21
-9.347773898692651
 31
0.0
 11
37.5052012890979
 21
-9.358459001306641
 31
0.0
 11
37.50465162389498
 21
-9.367009743017604
 31
0.0
 11
37.50397733909006
 21
-9.373270954159295
 31
0.0
 11
37.5030651910688
 21
-9.3774066957439
 31
0.0
 11
37.50192026446342
 21
-9.378692929592546
 31
0.0
  0
SPLINE
  5
183
330
2
100
AcDbEntity
  8
GAIKEI
  6
Continuous
 62
     7
100
AcDbSpline
210
0.0
220
0.0
230
1.0
 70
     8
 71
     3
 72
     9
 73
     5
 74
     3
 42
0.0000000001
 43
0.0000000001
 44
0.000001
 12
0.9946733934099068
 22
-0.1030768666695919
 32
0.0
 13
0.9996677582123131
 23
-0.0257754377415425
 33
0.0
 40
0.0
 40
0.0
 40
0.0
 40
0.0
 40
0.00192921952105
 40
0.0047028439137039
 40
0.0047028439137039
 40
0.0047028439137039
 40
0.0047028439137039
 10
38.44200593319607
 20
-9.474754224102923
 30
0.0
 10
38.44264558097194
 20
-9.474820510070706
 30
0.0
 10
38.44420747129039
 20
-9.474957294928309
 30
0.0
 10
38.44577390767742
 20
-9.475033527765184
 30
0.0
 10
38.44669814197033
 20
-9.475057358226138
 30
0.0
 11
38.44200593319607
 21
-9.474754224102923
 31
0.0
 11
38.44392775733235
 21
-9.474922566591146
 31
0.0
 11
38.44669814197033
 21
-9.475057358226138
 31
0.0
  0
SPLINE
  5
184
330
2
100
AcDbEntity
  8
GAIKEI
  6
Continuous
 62
     1
100
AcDbSpline
210
0.0
220
0.0
230
1.0
 70
     8
 71
     3
 72
     9
 73
     5
 74
     3
 42
0.0000000001
 43
0.0000000001
 44
0.000001
 12
0.0107468806351511
 22
0.9999422506108111
 32
0.0
 13
0.1266484047962899
 23
0.9919476707783307
 33
0.0
 40
0.0
 40
0.0
 40
0.0
 40
0.0
 40
0.0181772876333758
 40
0.0364254517197337
 40
0.0364254517197337
 40
0.0364254517197337
 40
0.0364254517197337
 10
37.50224710897436
 20
26.38094610532892
 30
0.0
 10
37.5023122253545
 20
26.38700485129762
 30
0.0
 10
37.50279542699662
 20
26.39914470291927
 30
0.0
 10
37.50398226667426
 20
26.41123613896278
 30
0.0
 10
37.5047526336316
 20
26.41726988024994
 30
0.0
 11
37.50224710897436
 21
26.38094610532892
 31
0.0
 11
37.50296904286193
 21
26.39910906312963
 31
0.0
 11
37.5047526336316
 21
26.41726988024994
 31
0.0
  0
SPLINE
  5
185
330
2
100
AcDbEntity
  8
GAIKEI
  6
Continuous
 62
     1
100
AcDbSpline
210
0.0
220
0.0
230
1.0
 70
     8
 71
     3
 72
     9
 73
     5
 74
     3
 42
0.0000000001
 43
0.0000000001
 44
0.000001
 12
0.0107468806355603
 22
-0.9999422506108064
 32
0.0
 13
0.1266484047959066
 23
-0.9919476707783793
 33
0.0
 40
0.0
 40
0.0
 40
0.0
 40
0.0
 40
0.0181772876333676
 40
0.0364254517196732
 40
0.0364254517196732
 40
0.0364254517196732
 40
0.0364254517196732
 10
37.50224710897442
 20
-9.142685375790733
 30
0.0
 10
37.50231222535459
 20
-9.148744121759435
 30
0.0
 10
37.50279542699664
 20
-9.160883973381082
 30
0.0
 10
37.50398226667426
 20
-9.172975409424559
 30
0.0
 10
37.5047526336316
 20
-9.179009150711692
 30
0.0
 11
37.50224710897442
 21
-9.142685375790733
 31
0.0
 11
37.50296904286193
 21
-9.160848333591445
 31
0.0
 11
37.5047526336316
 21
-9.179009150711692
 31
0.0
  0
SPLINE
  5
186
330
2
100
AcDbEntity
  8
GAIKEI
  6
Continuous
 62
     1
100
AcDbSpline
210
0.0
220
0.0
230
1.0
 70
     8
 71
     3
 72
    17
 73
    13
 74
    11
 42
0.0000000001
 43
0.0000000001
 44
0.000001
 12
0.3612359225596014
 22
-0.9324744544771796
 32
0.0
 13
-0.0627016803872264
 23
-0.9980323137437075
 33
0.0
 40
0.0
 40
0.0
 40
0.0
 40
0.0
 40
0.0028300885610925
 40
0.0073793218412024
 40
0.0162740123555915
 40
0.0284944018718172
 40
0.0435304452718028
 40
0.0615754826925127
 40
0.0817126975661947
 40
0.1041653858556464
 40
0.1273126048373586
 40
0.1517927467179394
 40
0.1517927467179394
 40
0.1517927467179394
 40
0.1517927467179394
 10
37.44326175184665
 20
26.5766539568923
 30
0.0
 10
37.44360252839741
 20
26.57577429512993
 30
0.0
 10
37.44437653180003
 20
26.57342682971782
 30
0.0
 10
37.44497022051869
 20
26.56801075571598
 30
0.0
 10
37.44555225619035
 20
26.55948574193293
 30
0.0
 10
37.4458327057651
 20
26.54743047066694
 30
0.0
 10
37.4459081176862
 20
26.53233219534637
 30
0.0
 10
37.44572609047248
 20
26.51459223767691
 30
0.0
 10
37.4452946769274
 20
26.49438515070926
 30
0.0
 10
37.44459622393887
 20
26.47248341569718
 30
0.0
 10
37.44360550013832
 20
26.44914391063003
 30
0.0
 10
37.44271314912584
 20
26.43329259094229
 30
0.0
 10
37.44220150044851
 20
26.42514860006168
 30
0.0
 11
37.44326175184665
 21
26.5766539568923
 31
0.0
 11
37.44412103627098
 21
26.57395739893809
 31
0.0
 11
37.44478949015883
 21
26.56945763073384
 31
0.0
 11
37.44541995835357
 21
26.56058534755369
 31
0.0
 11
37.44577650710807
 21
26.5483701781975
 31
0.0
 11
37.44586738202901
 21
26.53333441981397
 31
0.0
 11
37.44570076294877
 21
26.51529015867038
 31
0.0
 11
37.44527675475587
 21
26.49515741316202
 31
0.0
 11
37.4445637980009
 21
26.47271605083512
 31
0.0
 11
37.44357162735963
 21
26.44959010697153
 31
0.0
 11
37.44220150044851
 21
26.42514860006168
 31
0.0
  0
SPLINE
  5
187
330
2
100
AcDbEntity
  8
GAIKEI
  6
Continuous
 62
     1
100
AcDbSpline
210
0.0
220
0.0
230
1.0
 70
     8
 71
     3
 72
    17
 73
    13
 74
    11
 42
0.0000000001
 43
0.0000000001
 44
0.000001
 12
0.3612359225583266
 22
0.9324744544776734
 32
0.0
 13
-0.0627016803875014
 23
0.9980323137436903
 33
0.0
 40
0.0
 40
0.0
 40
0.0
 40
0.0
 40
0.0028300885610925
 40
0.0073793218411953
 40
0.0162740123556482
 40
0.0284944018718171
 40
0.0435304452717957
 40
0.0615754826925055
 40
0.0817126975661946
 40
0.1041653858556463
 40
0.1273126048373657
 40
0.1517927467179393
 40
0.1517927467179393
 40
0.1517927467179393
 40
0.1517927467179393
 10
37.44326175184665
 20
-9.338393227354117
 30
0.0
 10
37.44360252839741
 20
-9.337513565591741
 30
0.0
 10
37.4443765318
 20
-9.335166100179655
 30
0.0
 10
37.44497022051866
 20
-9.329750026177769
 30
0.0
 10
37.44555225619035
 20
-9.321225012394734
 30
0.0
 10
37.4458327057651
 20
-9.309169741128762
 30
0.0
 10
37.44590811768623
 20
-9.294071465808137
 30
0.0
 10
37.44572609047256
 20
-9.276331508138781
 30
0.0
 10
37.44529467692738
 20
-9.256124421171044
 30
0.0
 10
37.44459622393885
 20
-9.234222686158986
 30
0.0
 10
37.44360550013829
 20
-9.210883181091865
 30
0.0
 10
37.44271314912584
 20
-9.195031861404103
 30
0.0
 10
37.44220150044851
 20
-9.186887870523491
 30
0.0
 11
37.44326175184665
 21
-9.338393227354117
 31
0.0
 11
37.44412103627098
 21
-9.335696669399908
 31
0.0
 11
37.44478949015883
 21
-9.331196901195653
 31
0.0
 11
37.44541995835357
 21
-9.322324618015443
 31
0.0
 11
37.44577650710807
 21
-9.310109448659318
 31
0.0
 11
37.44586738202901
 21
-9.295073690275785
 31
0.0
 11
37.44570076294877
 21
-9.277029429132198
 31
0.0
 11
37.44527675475587
 21
-9.256896683623835
 31
0.0
 11
37.4445637980009
 21
-9.234455321296934
 31
0.0
 11
37.44357162735963
 21
-9.211329377433344
 31
0.0
 11
37.44220150044851
 21
-9.186887870523491
 31
0.0
  0
SPLINE
  5
188
330
2
100
AcDbEntity
  8
GAIKEI
  6
Continuous
 62
     1
100
AcDbSpline
210
0.0
220
0.0
230
1.0
 70
     8
 71
     3
 72
    11
 73
     7
 74
     5
 42
0.0000000001
 43
0.0000000001
 44
0.000001
 12
-0.0654000757821216
 22
-0.9978591233674684
 32
0.0
 13
0.0982885050871231
 23
-0.9951579622189326
 33
0.0
 40
0.0
 40
0.0
 40
0.0
 40
0.0
 40
0.0110413870342985
 40
0.0220816452102942
 40
0.0331549967802795
 40
0.0442276311423504
 40
0.0442276311423504
 40
0.0442276311423504
 40
0.0442276311423504
 10
37.44220150044851
 20
26.42514860006168
 30
0.0
 10
37.44196079793224
 20
26.42147601713273
 30
0.0
 10
37.44160464006728
 20
26.41412254798584
 30
0.0
 10
37.4414273679113
 20
26.40307024739954
 30
0.0
 10
37.44168669574944
 20
26.39200739853675
 30
0.0
 10
37.44223637786126
 20
26.38464211599782
 30
0.0
 10
37.4425991487542
 20
26.38096910924844
 30
0.0
 11
37.44220150044851
 21
26.42514860006168
 31
0.0
 11
37.44166513259017
 21
26.41412048753319
 31
0.0
 11
37.44150082563959
 21
26.4030819313943
 31
0.0
 11
37.44177990742537
 21
26.39201175731768
 31
0.0
 11
37.4425991487542
 21
26.38096910924844
 31
0.0
  0
SPLINE
  5
189
330
2
100
AcDbEntity
  8
GAIKEI
  6
Continuous
 62
     1
100
AcDbSpline
210
0.0
220
0.0
230
1.0
 70
     8
 71
     3
 72
    11
 73
     7
 74
     5
 42
0.0000000001
 43
0.0000000001
 44
0.000001
 12
-0.0654000757818637
 22
0.9978591233674855
 32
0.0
 13
0.098288505086618
 23
0.9951579622189827
 33
0.0
 40
0.0
 40
0.0
 40
0.0
 40
0.0
 40
0.0110413870343056
 40
0.0220816452102942
 40
0.0331549967803434
 40
0.0442276311424072
 40
0.0442276311424072
 40
0.0442276311424072
 40
0.0442276311424072
 10
37.44220150044851
 20
-9.186887870523491
 30
0.0
 10
37.44196079793224
 20
-9.183215287594556
 30
0.0
 10
37.44160464006728
 20
-9.17586181844765
 30
0.0
 10
37.44142736791133
 20
-9.164809517861321
 30
0.0
 10
37.44168669574944
 20
-9.153746668998536
 30
0.0
 10
37.44223637786126
 20
-9.14638138645958
 30
0.0
 10
37.4425991487542
 20
-9.1427083797102
 30
0.0
 11
37.44220150044851
 21
-9.186887870523491
 31
0.0
 11
37.44166513259017
 21
-9.175859757994999
 31
0.0
 11
37.44150082563959
 21
-9.164821201856113
 31
0.0
 11
37.44177990742537
 21
-9.153751027779435
 31
0.0
 11
37.4425991487542
 21
-9.1427083797102
 31
0.0
  0
SPLINE
  5
18A
330
2
100
AcDbEntity
  8
GAIKEI
  6
Continuous
 62
     1
100
AcDbSpline
210
0.0
220
0.0
230
1.0
 70
     8
 71
     3
 72
    12
 73
     8
 74
     6
 42
0.0000000001
 43
0.0000000001
 44
0.000001
 12
-0.9997199128824609
 22
0.0236663429005118
 32
0.0
 13
-0.5897290979336681
 23
-0.8076011336361174
 33
0.0
 40
0.0
 40
0.0
 40
0.0
 40
0.0
 40
0.0096251542167735
 40
0.0199387934551342
 40
0.0318105192887571
 40
0.0457159054561243
 40
0.050248664879283
 40
0.050248664879283
 40
0.050248664879283
 40
0.050248664879283
 10
38.52048771250554
 20
25.77082557824895
 30
0.0
 10
38.51728022639387
 20
25.77090150898234
 30
0.0
 10
38.51056739696958
 20
25.77024759784364
 30
0.0
 10
38.50065054848645
 20
25.76613743567131
 30
0.0
 10
38.49089249433808
 20
25.75894539457098
 30
0.0
 10
38.48403366818192
 20
25.75145863388714
 30
0.0
 10
38.48027972326494
 20
25.74659223011945
 30
0.0
 10
38.47938868988967
 20
25.74537200956991
 30
0.0
 11
38.52048771250554
 21
25.77082557824895
 31
0.0
 11
38.51091407336469
 21
25.76982258869157
 31
0.0
 11
38.50133364243021
 21
25.76600278325589
 31
0.0
 11
38.49168244595574
 21
25.75908934140421
 31
0.0
 11
38.48215012065629
 21
25.74896524547256
 31
0.0
 11
38.47938868988967
 21
25.74537200956991
 31
0.0
  0
SPLINE
  5
18B
330
2
100
AcDbEntity
  8
GAIKEI
  6
Continuous
 62
     7
100
AcDbSpline
210
0.0
220
0.0
230
1.0
 70
     8
 71
     3
 72
    12
 73
     8
 74
     6
 42
0.0000000001
 43
0.0000000001
 44
0.000001
 12
-0.5210043848710568
 22
0.853554000017065
 32
0.0
 13
0.4724306694582073
 23
0.8813678361247761
 33
0.0
 40
0.0
 40
0.0
 40
0.0
 40
0.0
 40
0.0000005781458884
 40
0.0017333552898061
 40
0.0031452536161891
 40
0.0043832590831246
 40
0.0055717860833932
 40
0.0055717860833932
 40
0.0055717860833932
 40
0.0055717860833932
 10
37.44385117895706
 20
-9.343673239223846
 30
0.0
 10
37.44385107855155
 20
-9.343673074730936
 30
0.0
 10
37.44355007173183
 20
-9.343179891301829
 30
0.0
 10
37.44305723307707
 20
-9.342245494425682
 30
0.0
 10
37.44270889733937
 20
-9.340807540649052
 30
0.0
 10
37.44278545135811
 20
-9.339511422569614
 30
0.0
 10
37.44307458631118
 20
-9.33874240384425
 30
0.0
 10
37.44326175184665
 20
-9.338393227354117
 30
0.0
 11
37.44385117895706
 21
-9.343673239223846
 31
0.0
 11
37.44385087775749
 21
-9.343672745740775
 31
0.0
 11
37.44308003088008
 21
-9.342121316009524
 31
0.0
 11
37.44276910438884
 21
-9.340743930104338
 31
0.0
 11
37.44284823965597
 21
-9.339508325427175
 31
0.0
 11
37.44326175184665
 21
-9.338393227354117
 31
0.0
  0
SPLINE
  5
18C
330
2
100
AcDbEntity
  8
GAIKEI
  6
Continuous
 62
     1
100
AcDbSpline
210
0.0
220
0.0
230
1.0
 70
     8
 71
     3
 72
    24
 73
    20
 74
    18
 42
0.0000000001
 43
0.0000000001
 44
0.000001
 12
0.7763403989906265
 22
0.6303138780758956
 32
0.0
 13
0.7636803984192571
 23
0.6455944927508327
 33
0.0
 40
0.0
 40
0.0
 40
0.0
 40
0.0
 40
0.1773959314708884
 40
0.354481689505558
 40
0.5312969872922505
 40
0.7078822487365557
 40
0.8842795981092773
 40
1.115062369227088
 40
1.345689816078973
 40
1.576255225736605
 40
1.825996539094067
 40
2.075879877313447
 40
2.326007099412219
 40
2.576472834072538
 40
2.734121019363011
 40
2.891957822213213
 40
3.050003090005589
 40
3.208276939979012
 40
3.366799997369962
 40
3.366799997369962
 40
3.366799997369962
 40
3.366799997369962
 10
38.66590772929533
 20
-8.195931029637222
 30
0.0
 10
38.71181427203448
 20
-8.158659323797124
 30
0.0
 10
38.80360817646561
 20
-8.084256251562592
 30
0.0
 10
38.94140194049874
 20
-7.973004468926717
 30
0.0
 10
39.07911706679667
 20
-7.86208573095206
 30
0.0
 10
39.21673453506742
 20
-7.751411664675686
 30
0.0
 10
39.36840394481072
 20
-7.629505723957649
 30
0.0
 10
39.53408626950738
 20
-7.496279586003851
 30
0.0
 10
39.71370562852809
 20
-7.351572031372
 30
0.0
 10
39.89801482279304
 20
-7.20261304182275
 30
0.0
 10
40.08698253409477
 20
-7.049207438565318
 30
0.0
 10
40.28057376361144
 20
-6.891152783805679
 30
0.0
 10
40.47385473271629
 20
-6.732338127336007
 30
0.0
 10
40.64291154583933
 20
-6.592472589080287
 30
0.0
 10
40.78793563623228
 20
-6.471820313556179
 30
0.0
 10
40.90907236898376
 20
-6.370625100836541
 30
0.0
 10
41.03016964066753
 20
-6.269057846570909
 30
0.0
 10
41.15126411405549
 20
-6.167131722074614
 30
0.0
 10
41.23196040070348
 20
-6.099019606748335
 30
0.0
 10
41.27231405124581
 20
-6.064905735806462
 30
0.0
 11
38.66590772929533
 21
-8.195931029637222
 31
0.0
 11
38.80372472631177
 21
-8.084235961617366
 31
0.0
 11
38.94149469138188
 21
-7.972975894399667
 31
0.0
 11
39.0791909405956
 21
-7.862055236560536
 31
0.0
 11
39.21678905802713
 21
-7.751379527849223
 31
0.0
 11
39.35427122225929
 21
-7.640859487580144
 31
0.0
 11
39.53410486572256
 21
-7.496220114966206
 31
0.0
 11
39.71368482756816
 21
-7.351513319402386
 31
0.0
 11
39.89299354480494
 21
-7.20656921867436
 31
0.0
 11
40.08687331869618
 21
-7.049148262729318
 31
0.0
 11
40.28042866117732
 21
-6.891103924750666
 31
0.0
 11
40.47367903083375
 21
-6.732302405091957
 31
0.0
 11
40.66666106779689
 21
-6.572643335420877
 31
0.0
 11
40.78785386949641
 21
-6.471820443674175
 31
0.0
 11
40.90898648276175
 21
-6.370630786600202
 31
0.0
 11
41.03008227864762
 21
-6.269072354320996
 31
0.0
 11
41.15117787422195
 21
-6.167158330363747
 31
0.0
 11
41.27231405124581
 21
-6.064905735806462
 31
0.0
  0
SPLINE
  5
18D
330
2
100
AcDbEntity
  8
GAIKEI
  6
Continuous
 62
     1
100
AcDbSpline
210
0.0
220
0.0
230
1.0
 70
     8
 71
     3
 72
    24
 73
    20
 74
    18
 42
0.0000000001
 43
0.0000000001
 44
0.000001
 12
-0.763673541079552
 22
0.6456026042814714
 32
0.0
 13
-0.7763366358761542
 23
0.6303185129730015
 33
0.0
 40
0.0
 40
0.0
 40
0.0
 40
0.0
 40
0.1681222979462012
 40
0.3359656667857203
 40
0.5035547199692778
 40
0.6709132512745523
 40
0.8380651924213889
 40
1.005035010179513
 40
1.267110524497988
 40
1.528908353362705
 40
1.79054478854399
 40
2.010629314999003
 40
2.230766503968597
 40
2.451037449810018
 40
2.67152427472332
 40
2.844969077275459
 40
3.018637932547799
 40
3.192569038560268
 40
3.366800025634332
 40
3.366800025634332
 40
3.366800025634332
 40
3.366800025634332
 10
41.27231405124581
 20
23.3031664653447
 30
0.0
 10
41.22951720104348
 20
23.33934652980865
 30
0.0
 10
41.14393493856659
 20
23.41157619147363
 30
0.0
 10
41.01550317322247
 20
23.51964772493777
 30
0.0
 10
40.8870619677684
 20
23.62731223020812
 30
0.0
 10
40.75857101547813
 20
23.73455804912584
 30
0.0
 10
40.63000703174509
 20
23.84139365480243
 30
0.0
 10
40.47687496643334
 20
23.96806333939533
 30
0.0
 10
40.29900866226358
 20
24.11432737148843
 30
0.0
 10
40.09621966807268
 20
24.2799632567984
 30
0.0
 10
39.90381081404314
 20
24.4361792866827
 30
0.0
 10
39.72186177415764
 20
24.58324550415063
 30
0.0
 10
39.55042729301877
 20
24.7213850263003
 30
0.0
 10
39.37875892300022
 20
24.85944778598008
 30
0.0
 10
39.21917721781347
 20
24.9877044340347
 30
0.0
 10
39.07174436591038
 20
25.10628039455742
 30
0.0
 10
38.93648525366803
 20
25.21523118237496
 30
0.0
 10
38.80115129267998
 20
25.32450669184534
 30
0.0
 10
38.71099502466083
 20
25.39758475693607
 30
0.0
 10
38.66590772520402
 20
25.43419176249819
 30
0.0
 11
41.27231405124581
 21
23.3031664653447
 31
0.0
 11
41.14383800240182
 21
23.41160547665134
 31
0.0
 11
41.01540482274072
 21
23.51966247448462
 31
0.0
 11
40.88696590164824
 21
23.62731717532824
 31
0.0
 11
40.75848012166727
 21
23.73455654657539
 31
0.0
 11
40.62992091104229
 21
23.84138491914985
 31
0.0
 11
40.50126335753271
 21
23.94780932587957
 31
0.0
 11
40.29884606472456
 21
24.11427498495948
 31
0.0
 11
40.09609755403198
 21
24.27989848973164
 31
0.0
 11
39.8929935445052
 21
24.44482994845521
 31
0.0
 11
39.72184123258069
 21
24.58319210066918
 31
0.0
 11
39.55044107545848
 21
24.72133104607542
 31
0.0
 11
39.37880813694176
 21
24.85939416206981
 31
0.0
 11
39.20696426747571
 21
24.99753946369072
 31
0.0
 11
39.07181665835373
 21
25.10625111504424
 31
0.0
 11
38.93657544340897
 21
25.21520378790831
 31
0.0
 11
38.80126403739831
 21
25.3244871497044
 31
0.0
 11
38.66590772520402
 21
25.43419176249819
 31
0.0
  0
SPLINE
  5
18E
330
2
100
AcDbEntity
  8
GAIKEI
  6
Continuous
 62
     1
100
AcDbSpline
210
0.0
220
0.0
230
1.0
 70
     8
 71
     3
 72
     9
 73
     5
 74
     3
 42
0.0000000001
 43
0.0000000001
 44
0.000001
 12
-0.9990717831929515
 22
0.0430763511413879
 32
0.0
 13
-0.999295462920273
 23
0.0375310243259837
 33
0.0
 40
0.0
 40
0.0
 40
0.0
 40
0.0
 40
0.3820310702061925
 40
0.5852208952986771
 40
0.5852208952986771
 40
0.5852208952986771
 40
0.5852208952986771
 10
39.28390368267486
 20
25.7406641188054
 30
0.0
 10
39.15667819515951
 20
25.74614962031444
 30
0.0
 10
38.96177017744057
 20
25.75419964955508
 30
0.0
 10
38.7668410306855
 20
25.7617087770727
 30
0.0
 10
38.69915880724335
 20
25.76425075116214
 30
0.0
 11
39.28390368267486
 21
25.7406641188054
 31
0.0
 11
38.9021980007384
 21
25.75642920704814
 31
0.0
 11
38.69915880724335
 21
25.76425075116214
 31
0.0
  0
SPLINE
  5
18F
330
2
100
AcDbEntity
  8
GAIKEI
  6
Continuous
 62
     7
100
AcDbSpline
210
0.0
220
0.0
230
1.0
 70
     8
 71
     3
 72
    12
 73
     8
 74
     6
 42
0.0000000001
 43
0.0000000001
 44
0.000001
 12
-0.9999805350888751
 22
-0.0062393463894028
 32
0.0
 13
-0.9999865056737116
 23
-0.0051950428756892
 33
0.0
 40
0.0
 40
0.0
 40
0.0
 40
0.0
 40
0.0822251272315459
 40
0.2143529371258685
 40
0.3902500169262791
 40
0.5839592036668935
 40
0.7876350594105253
 40
0.7876350594105253
 40
0.7876350594105253
 40
0.7876350594105253
 10
39.23527641196375
 20
26.71587427219947
 30
0.0
 10
39.20786856972151
 20
26.71570326184923
 30
0.0
 10
39.13641834031464
 20
26.715337261865
 30
0.0
 10
39.00633473913984
 20
26.71530126271032
 30
0.0
 10
38.83909001206047
 20
26.71525214659047
 30
0.0
 10
38.64799701195537
 20
26.71454639708954
 30
0.0
 10
38.51553660477677
 20
26.71397118997049
 30
0.0
 10
38.44764556901839
 20
26.71361848836938
 30
0.0
 11
39.23527641196375
 21
26.71587427219947
 31
0.0
 11
39.15305225351932
 21
26.71547441496023
 31
0.0
 11
39.02092455530118
 21
26.71530598024458
 31
0.0
 11
38.84502753702106
 21
26.71516003199804
 31
0.0
 11
38.65131934507059
 21
26.7145392319278
 31
0.0
 11
38.44764556901839
 21
26.71361848836938
 31
0.0
  0
SPLINE
  5
190
330
2
100
AcDbEntity
  8
GAIKEI
  6
Continuous
 62
     1
100
AcDbSpline
210
0.0
220
0.0
230
1.0
 70
     8
 71
     3
 72
    23
 73
    19
 74
    17
 42
0.0000000001
 43
0.0000000001
 44
0.000001
 12
0.3343172427704102
 22
-0.9424605992753177
 32
0.0
 13
0.3418030246288111
 23
0.9397716171254568
 33
0.0
 40
0.0
 40
0.0
 40
0.0
 40
0.0
 40
0.0110606287305111
 40
0.0213816636358984
 40
0.0308284440343225
 40
0.0395086579665473
 40
0.0486747493217483
 40
0.0567474334353731
 40
0.0639195722325976
 40
0.0703086053834799
 40
0.0760678104611677
 40
0.0819273845724734
 40
0.0884765884175895
 40
0.0960764009306272
 40
0.1045711874195131
 40
0.1145725698843008
 40
0.1260215743937907
 40
0.1391753226881902
 40
0.1391753226881902
 40
0.1391753226881902
 40
0.1391753226881902
 10
38.61488048241904
 20
25.76738720827251
 30
0.0
 10
38.61611306871921
 20
25.7639124726786
 30
0.0
 10
38.61875196577361
 20
25.7572839536044
 30
0.0
 10
38.62319999640173
 20
25.74801116162394
 30
0.0
 10
38.62795750006535
 20
25.73979583450674
 30
0.0
 10
38.6331749494083
 20
25.73232888542491
 30
0.0
 10
38.63885461298506
 20
25.72578802754944
 30
0.0
 10
38.64501947029316
 20
25.72042702840702
 30
0.0
 10
38.65126211839072
 20
25.71671748697887
 30
0.0
 10
38.65749236439209
 20
25.71479920652477
 30
0.0
 10
38.66359001603823
 20
25.71477831030619
 30
0.0
 10
38.66944191532269
 20
25.71667108454534
 30
0.0
 10
38.67501274243631
 20
25.72046680017843
 30
0.0
 10
38.68020762891646
 20
25.72600057794789
 30
0.0
 10
38.68514616405372
 20
25.733187263247
 30
0.0
 10
38.68990557932682
 20
25.74197676705209
 30
0.0
 10
38.6946246286557
 20
25.7525076919417
 30
0.0
 10
38.6976601435926
 20
25.76013024472684
 30
0.0
 10
38.69915880724335
 20
25.76425075116214
 30
0.0
 11
38.61488048241904
 21
25.76738720827251
 31
0.0
 11
38.61896220957203
 21
25.75710653093722
 31
0.0
 11
38.62344943639385
 21
25.74781195478835
 31
0.0
 11
38.62820316769779
 21
25.73964835070342
 31
0.0
 11
38.6331998627652
 21
25.73255046995075
 31
0.0
 11
38.6392568469999
 21
25.72567070154037
 31
0.0
 11
38.64540070704141
 21
25.72043407731474
 31
0.0
 11
38.65161665499341
 21
25.71685600524165
 31
0.0
 11
38.65774972019642
 21
25.71506539434643
 31
0.0
 11
38.66350899402187
 21
25.71507815528128
 31
0.0
 11
38.66909911389513
 21
25.71683489176644
 31
0.0
 11
38.67457193660607
 21
25.7204322878838
 31
0.0
 11
38.67985847310024
 21
25.72589220161501
 31
0.0
 11
38.68474319498699
 21
25.73284214939793
 31
0.0
 11
38.68957070945226
 21
25.74160135172031
 31
0.0
 11
38.69432340113588
 21
25.7520173120123
 31
0.0
 11
38.69915880724335
 21
25.76425075116214
 31
0.0
  0
SPLINE
  5
191
330
2
100
AcDbEntity
  8
GAIKEI
  6
Continuous
 62
     1
100
AcDbSpline
210
0.0
220
0.0
230
1.0
 70
     8
 71
     3
 72
    18
 73
    14
 74
    12
 42
0.0000000001
 43
0.0000000001
 44
0.000001
 12
0.9998994732917083
 22
0.0141789742564268
 32
0.0
 13
0.9974225315167563
 23
0.0717516105931105
 33
0.0
 40
0.0
 40
0.0
 40
0.0
 40
0.0
 40
0.0246557873785945
 40
0.0480435918468772
 40
0.0698213471902205
 40
0.0993046363999563
 40
0.1250283545728647
 40
0.1471181734152186
 40
0.1653689307141082
 40
0.1798007874401328
 40
0.1903565079763488
 40
0.1966250082130421
 40
0.1996259748885314
 40
0.1996259748885314
 40
0.1996259748885314
 40
0.1996259748885314
 10
39.39372539280282
 20
25.44067931769234
 30
0.0
 10
39.40194316240729
 20
25.44079584895051
 30
0.0
 10
39.4179563193203
 20
25.44100685347912
 30
0.0
 10
39.441228703425
 20
25.44126277482678
 30
0.0
 10
39.46611033464473
 20
25.44151869788457
 30
0.0
 10
39.49177037497492
 20
25.44180146648543
 30
0.0
 10
39.51753409083557
 20
25.44211263489312
 30
0.0
 10
39.53955363022308
 20
25.4424061087405
 30
0.0
 10
39.55780880478824
 20
25.44268758745199
 30
0.0
 10
39.5722198568152
 20
25.44293439393726
 30
0.0
 10
39.5826348179171
 20
25.44318748550154
 30
0.0
 10
39.58924269406961
 20
25.44334126009524
 30
0.0
 10
39.5923264861863
 20
25.44354100369088
 30
0.0
 10
39.59332423011245
 20
25.44361277842166
 30
0.0
 11
39.39372539280282
 21
25.44067931769234
 31
0.0
 11
39.41837900451935
 21
25.44100422782043
 31
0.0
 11
39.44176533374747
 21
25.44126680462085
 31
0.0
 11
39.46354188756385
 21
25.44149554319245
 31
0.0
 11
39.49302337157616
 21
25.44182182597854
 31
0.0
 11
39.51874519515036
 21
25.44213402813369
 31
0.0
 11
39.54083299584204
 21
25.44243259022085
 31
0.0
 11
39.55908158236156
 21
25.44271401068636
 31
0.0
 11
39.57351103293127
 21
25.44297743329333
 31
0.0
 11
39.5840639404239
 21
25.44322094183383
 31
0.0
 11
39.59032906744676
 21
25.44342606781981
 31
0.0
 11
39.59332423011245
 21
25.44361277842166
 31
0.0
  0
SPLINE
  5
192
330
2
100
AcDbEntity
  8
GAIKEI
  6
Continuous
 62
     1
100
AcDbSpline
210
0.0
220
0.0
230
1.0
 70
     8
 71
     3
 72
    13
 73
     9
 74
     7
 42
0.0000000001
 43
0.0000000001
 44
0.000001
 12
0.7637990337596269
 22
0.6454541316219614
 32
0.0
 13
0.7678688356383296
 23
0.640607095851612
 33
0.0
 40
0.0
 40
0.0
 40
0.0
 40
0.0
 40
0.0372574737544062
 40
0.0738478101340961
 40
0.110432910852573
 40
0.1457620816897375
 40
0.1668062753165458
 40
0.1872171619431539
 40
0.1872171619431539
 40
0.1872171619431539
 40
0.1872171619431539
 10
41.27231405124581
 20
-6.064905735806462
 30
0.0
 10
41.28179979206379
 20
-6.056889739016938
 30
0.0
 10
41.3006152345792
 20
-6.041017619977395
 30
0.0
 10
41.32879020418596
 20
-6.017327547925333
 30
0.0
 10
41.35650390043273
 20
-5.994087698824259
 30
0.0
 10
41.38026938477463
 20
-5.974204442044815
 30
0.0
 10
41.39991177567677
 20
-5.957795061534554
 30
0.0
 10
41.41052069036351
 20
-5.948940795928876
 30
0.0
 10
41.41574498494628
 20
-5.944582342993669
 30
0.0
 11
41.27231405124581
 21
-6.064905735806462
 31
0.0
 11
41.3007910715491
 21
-6.040881164515269
 31
0.0
 11
41.32879664350264
 21
-6.01733243024887
 31
0.0
 11
41.35682984483594
 21
-5.993824790586302
 31
0.0
 11
41.38392554382261
 21
-5.971153846823426
 31
0.0
 11
41.40007516177639
 21
-5.957661358357938
 31
0.0
 11
41.41574498494628
 21
-5.944582342993669
 31
0.0
  0
SPLINE
  5
193
330
2
100
AcDbEntity
  8
GAIKEI
  6
Continuous
 62
     7
100
AcDbSpline
210
0.0
220
0.0
230
1.0
 70
     8
 71
     3
 72
    25
 73
    21
 74
    19
 42
0.0000000001
 43
0.0000000001
 44
0.000001
 12
-0.6451586320068095
 22
-0.764048649987095
 32
0.0
 13
-0.6425976094944907
 23
-0.7662038320655713
 33
0.0
 40
0.0
 40
0.0
 40
0.0
 40
0.0
 40
0.1346775211142815
 40
0.2689615854355115
 40
0.4028938603756683
 40
0.5365171031036788
 40
0.6698748802144531
 40
0.8030107075722039
 40
0.9596952600508295
 40
1.11619837675817
 40
1.272586262931826
 40
1.428923207316386
 40
1.605307533803209
 40
1.781795357924578
 40
1.958471045709827
 40
2.135417707816523
 40
2.274690598981896
 40
2.414220734252835
 40
2.554047619677736
 40
2.694210893736128
 40
2.694210893736128
 40
2.694210893736128
 40
2.694210893736128
 10
41.32392814503987
 20
-6.140462837694769
 30
0.0
 10
41.29496535661181
 20
-6.17476289709176
 30
0.0
 10
41.23714428114726
 20
-6.243279602942564
 30
0.0
 10
41.15057976399495
 20
-6.34595640835996
 30
0.0
 10
41.06430795410645
 20
-6.448420304266306
 30
0.0
 10
40.97830690795262
 20
-6.550708500431063
 30
0.0
 10
40.89254454062685
 20
-6.652850483024501
 30
0.0
 10
40.8019086758095
 20
-6.760937914295226
 30
0.0
 10
40.70638725059729
 20
-6.874997160659866
 30
0.0
 10
40.60595225686967
 20
-6.995051094351566
 30
0.0
 10
40.50563178307572
 20
-7.115049749398224
 30
0.0
 10
40.40108965168428
 20
-7.240156927356686
 30
0.0
 10
40.29225569169244
 20
-7.370409001089122
 30
0.0
 10
40.17905824362841
 20
-7.505849827099027
 30
0.0
 10
40.06570696551361
 20
-7.641406373096366
 30
0.0
 10
39.96027208350824
 20
-7.767412148633638
 30
0.0
 10
39.86274789079755
 20
-7.883892509289054
 30
0.0
 10
39.77313832536763
 20
-7.990861943838091
 30
0.0
 10
39.68331169596496
 20
-8.098036707659133
 30
0.0
 10
39.62334711447434
 20
-8.169554173704746
 30
0.0
 10
39.59332425285806
 20
-8.205352052937541
 30
0.0
 11
41.32392814503987
 21
-6.140462837694769
 31
0.0
 11
41.23706715849152
 21
-6.243386137775758
 31
0.0
 11
41.15051448435514
 21
-6.346054752876909
 31
0.0
 11
41.06425286090519
 21
-6.448508580692873
 31
0.0
 11
40.97826052931878
 21
-6.550785119069303
 31
0.0
 11
40.89250716167486
 21
-6.652915708073692
 31
0.0
 11
40.80696136647526
 21
-6.754930738291761
 31
0.0
 11
40.70635812227573
 21
-6.875051676060195
 31
0.0
 11
40.60593337224793
 21
-6.995085818791892
 31
0.0
 11
40.50562626796062
 21
-7.11506730262954
 31
0.0
 11
40.40537596098272
 21
-7.235030263715884
 31
0.0
 11
40.2922758344439
 21
-7.370380884021528
 31
0.0
 11
40.1790935716126
 21
-7.505797746799714
 31
0.0
 11
40.06575830752535
 21
-7.641331566115695
 31
0.0
 11
39.95220645460171
 21
-7.777037489722317
 31
0.0
 11
39.86279896692252
 21
-7.883823440438163
 31
0.0
 11
39.77319821363119
 21
-7.990783075815159
 31
0.0
 11
39.68338104807168
 21
-8.097948530246185
 31
0.0
 11
39.59332425285806
 21
-8.205352052937541
 31
0.0
  0
SPLINE
  5
194
330
2
100
AcDbEntity
  8
GAIKEI
  6
Continuous
 62
     1
100
AcDbSpline
210
0.0
220
0.0
230
1.0
 70
     8
 71
     3
 72
    18
 73
    14
 74
    12
 42
0.0000000001
 43
0.0000000001
 44
0.000001
 12
-0.9974326142388006
 22
0.0716113123239069
 32
0.0
 13
-0.9998995674987709
 23
0.0141723292288498
 33
0.0
 40
0.0
 40
0.0
 40
0.0
 40
0.0
 40
0.0030194903368492
 40
0.0093326477798688
 40
0.0197551294145397
 40
0.0339541950662335
 40
0.0519723480691575
 40
0.0737685187587457
 40
0.0995369569738442
 40
0.1291137252950859
 40
0.1510865399618099
 40
0.1747062822794232
 40
0.1996259723085328
 40
0.1996259723085328
 40
0.1996259723085328
 40
0.1996259723085328
 10
39.59332423022386
 20
-8.205352048897964
 30
0.0
 10
39.5923203175104
 20
-8.205279972342772
 30
0.0
 10
39.58921548235162
 20
-8.205079256668852
 30
0.0
 10
39.58263094103092
 20
-8.204926659837099
 30
0.0
 10
39.57232306313839
 20
-8.204676060529614
 30
0.0
 10
39.55811154939244
 20
-8.204431908324387
 30
0.0
 10
39.54010937006268
 20
-8.204153419391403
 30
0.0
 10
39.5182503429518
 20
-8.203860985868153
 30
0.0
 10
39.49253845010174
 20
-8.203549560749273
 30
0.0
 10
39.46676733828957
 20
-8.203264828793031
 30
0.0
 10
39.4417122236689
 20
-8.203007172277416
 30
0.0
 10
39.41820954638576
 20
-8.202749363775573
 30
0.0
 10
39.40203112151341
 20
-8.202536311498988
 30
0.0
 10
39.3937253924193
 20
-8.202418588148532
 30
0.0
 11
39.59332423022386
 21
-8.205352048897964
 31
0.0
 11
39.59031055678901
 21
-8.205164554827149
 31
0.0
 11
39.58400077894282
 21
-8.204958503768239
 31
0.0
 11
39.57358107340531
 21
-8.204718131125844
 31
0.0
 11
39.5593843863698
 21
-8.204458342010866
 31
0.0
 11
39.54136839083464
 21
-8.204179580201582
 31
0.0
 11
39.5195742260525
 21
-8.203883911226853
 31
0.0
 11
39.49380769765202
 21
-8.203570186752358
 31
0.0
 11
39.46423274821126
 21
-8.203242151242307
 31
0.0
 11
39.44226114548843
 21
-8.203011396067893
 31
0.0
 11
39.41864288771154
 21
-8.202746690284982
 31
0.0
 11
39.3937253924193
 21
-8.202418588148532
 31
0.0
  0
SPLINE
  5
195
330
2
100
AcDbEntity
  8
GAIKEI
  6
Continuous
 62
     1
100
AcDbSpline
210
0.0
220
0.0
230
1.0
 70
     8
 71
     3
 72
     9
 73
     5
 74
     3
 42
0.0000000001
 43
0.0000000001
 44
0.000001
 12
0.0052933080883875
 22
-0.9999859903466054
 32
0.0
 13
0.5270313734190337
 23
-0.8498458280370901
 33
0.0
 40
0.0
 40
0.0
 40
0.0
 40
0.0
 40
0.0139639987875722
 40
0.0279279975751703
 40
0.0279279975751703
 40
0.0279279975751703
 40
0.0279279975751703
 10
37.28834873726913
 20
-9.081480758963607
 30
0.0
 10
37.28837337585171
 20
-9.086135360015873
 30
0.0
 10
37.28964096534122
 20
-9.095497357078485
 30
0.0
 10
37.29354337298798
 20
-9.104101134543853
 30
0.0
 10
37.29599652814113
 20
-9.108056883247968
 30
0.0
 11
37.28834873726913
 21
-9.081480758963607
 31
0.0
 11
37.29029870887996
 21
-9.095308078725565
 31
0.0
 11
37.29599652814113
 21
-9.108056883247968
 31
0.0
  0
SPLINE
  5
196
330
2
100
AcDbEntity
  8
GAIKEI
  6
Continuous
 62
     1
100
AcDbSpline
210
0.0
220
0.0
230
1.0
 70
     8
 71
     3
 72
     9
 73
     5
 74
     3
 42
0.0000000001
 43
0.0000000001
 44
0.000001
 12
0.0052933080883382
 22
0.9999859903466058
 32
0.0
 13
0.5270313734190872
 23
0.8498458280370568
 33
0.0
 40
0.0
 40
0.0
 40
0.0
 40
0.0
 40
0.0139639987875651
 40
0.0279279975751697
 40
0.0279279975751697
 40
0.0279279975751697
 40
0.0279279975751697
 10
37.28834873726913
 20
26.31974148850179
 30
0.0
 10
37.28837337585171
 20
26.32439608955406
 30
0.0
 10
37.28964096534133
 20
26.3337580866167
 30
0.0
 10
37.29354337298798
 20
26.34236186408204
 30
0.0
 10
37.29599652814113
 20
26.34631761278615
 30
0.0
 11
37.28834873726913
 21
26.31974148850179
 31
0.0
 11
37.29029870887996
 21
26.33356880826375
 31
0.0
 11
37.29599652814113
 21
26.34631761278615
 31
0.0
  0
SPLINE
  5
197
330
2
100
AcDbEntity
  8
GAIKEI
  6
Continuous
 62
     1
100
AcDbSpline
210
0.0
220
0.0
230
1.0
 70
     8
 71
     3
 72
    59
 73
    55
 74
    53
 42
0.0000000001
 43
0.0000000001
 44
0.000001
 12
0.0089977794764152
 22
0.9999595191628978
 32
0.0
 13
-0.0199099484093854
 23
0.9998017773310547
 33
0.0
 40
0.0
 40
0.0
 40
0.0
 40
0.0
 40
0.0071046365436246
 40
0.0133021197047546
 40
0.0186828374795563
 40
0.023207550758405
 40
0.0286483835345599
 40
0.0332208135312284
 40
0.03834020931683
 40
0.0448916697000703
 40
0.0538566994810862
 40
0.0650468629299171
 40
0.0789337931676355
 40
0.0950521309527147
 40
0.111409154480846
 40
0.1293542498608177
 40
0.1492834698740562
 40
0.1706479900162211
 40
0.1891104049333325
 40
0.2084022034233933
 40
0.2288841586038661
 40
0.2501074508352288
 40
0.2691450956822694
 40
0.288643199428342
 40
0.3090214531403832
 40
0.3297475279782809
 40
0.3514651643548687
 40
0.3733585751871123
 40
0.396093410788665
 40
0.4187634841688394
 40
0.4405020959232127
 40
0.461955698965015
 40
0.4836621002266093
 40
0.5048792278715308
 40
0.5313551695999787
 40
0.5567647186620614
 40
0.5817988231016758
 40
0.6054398798716815
 40
0.625366577467506
 40
0.6439742128153788
 40
0.661548524561986
 40
0.6775243190967542
 40
0.6904031703393687
 40
0.7018285423541064
 40
0.7119382780791089
 40
0.7204241040763286
 40
0.7270822523453921
 40
0.7323924469401421
 40
0.7368318806871216
 40
0.7410607540037339
 40
0.7458848144140494
 40
0.7520052499216162
 40
0.7599420076097207
 40
0.7696500026631578
 40
0.7696500026631578
 40
0.7696500026631578
 40
0.7696500026631578
 10
41.67834873726917
 20
3.512398315142604
 30
0.0
 10
41.67837004592013
 20
3.514766431456607
 30
0.0
 10
41.67824563877471
 20
3.519202473503611
 30
0.0
 10
41.67773319079095
 20
3.525411589723816
 30
0.0
 10
41.67680779560427
 20
3.530714716805803
 30
0.0
 10
41.67529095432723
 20
3.535602404104295
 30
0.0
 10
41.67283657662068
 20
3.539928555019514
 30
0.0
 10
41.6683097601097
 20
3.542708003160583
 30
0.0
 10
41.66266908321574
 20
3.54246251810305
 30
0.0
 10
41.65627506634701
 20
3.539778071853277
 30
0.0
 10
41.64888111627639
 20
3.534746104859223
 30
0.0
 10
41.64037018242214
 20
3.527215226727037
 30
0.0
 10
41.63091822884697
 20
3.517234644178131
 30
0.0
 10
41.6210615166288
 20
3.505320344058773
 30
0.0
 10
41.61103559546297
 20
3.491823945781646
 30
0.0
 10
41.60091586201352
 20
3.476837972723927
 30
0.0
 10
41.59057622188277
 20
3.460008000246233
 30
0.0
 10
41.58089049391779
 20
3.442595282779066
 30
0.0
 10
41.57200761943338
 20
3.424999814702246
 30
0.0
 10
41.56392070944034
 20
3.407346988251418
 30
0.0
 10
41.5562056900899
 20
3.388528776814325
 30
0.0
 10
41.54934443375174
 20
3.369471603768587
 30
0.0
 10
41.54341987321808
 20
3.350447435998489
 30
0.0
 10
41.53838905101719
 20
3.331458049235507
 30
0.0
 10
41.53412628551862
 20
3.311704217835284
 30
0.0
 10
41.53071010528432
 20
3.291035155656004
 30
0.0
 10
41.52833023150509
 20
3.269711409507536
 30
0.0
 10
41.52706725130198
 20
3.247620958979155
 30
0.0
 10
41.52707074220313
 20
3.225175661099598
 30
0.0
 10
41.52834549219355
 20
3.202818567013025
 30
0.0
 10
41.53082804069652
 20
3.180994524453851
 30
0.0
 10
41.53439849787207
 20
3.159648576447139
 30
0.0
 10
41.53903460631741
 20
3.138686603568999
 30
0.0
 10
41.5451354967088
 20
3.116363700987278
 30
0.0
 10
41.55280504837827
 20
3.093219758845364
 30
0.0
 10
41.56219567931799
 20
3.069348992165885
 30
0.0
 10
41.57241461671162
 20
3.046855972267479
 30
0.0
 10
41.58288211819976
 20
3.026515329417165
 30
0.0
 10
41.59317287554324
 20
3.008518948265191
 30
0.0
 10
41.60311834448776
 20
2.992673339521388
 30
0.0
 10
41.61297543980649
 20
2.978345122842867
 30
0.0
 10
41.62232168998428
 20
2.966001951615439
 30
0.0
 10
41.63094479286087
 20
2.955703294875789
 30
0.0
 10
41.63878137505406
 20
2.947316410659979
 30
0.0
 10
41.64610914748613
 20
2.940486715202183
 30
0.0
 10
41.6527907016881
 20
2.935336810327186
 30
0.0
 10
41.65873499839082
 20
2.931938367227459
 30
0.0
 10
41.66398842182585
 20
2.930223370635545
 30
0.0
 10
41.66881391913384
 20
2.930418850140029
 30
0.0
 10
41.67275286234328
 20
2.932981122222656
 30
0.0
 10
41.6754038110518
 20
2.937409812172788
 30
0.0
 10
41.67718750305829
 20
2.94348063189426
 30
0.0
 10
41.67815480653493
 20
2.951361825157874
 30
0.0
 10
41.67841316582939
 20
2.957247307774579
 30
0.0
 10
41.67834873726917
 20
2.960482664677499
 30
0.0
 11
41.67834873726917
 21
3.512398315142604
 31
0.0
 11
41.67816797114329
 21
3.519501473061211
 31
0.0
 11
41.67761053904405
 21
3.525673830508367
 31
0.0
 11
41.67663702170091
 21
3.530965715144304
 31
0.0
 11
41.67523700965688
 21
3.535268346066743
 31
0.0
 11
41.67230387193007
 21
3.539850782946359
 31
0.0
 11
41.66836863700376
 21
3.542179064652032
 31
0.0
 11
41.66324940129436
 21
3.54222604013114
 31
0.0
 11
41.65711319007823
 21
3.539930493263852
 31
0.0
 11
41.64960329810236
 21
3.535034138272578
 31
0.0
 11
41.64114626625388
 21
3.527706172393664
 31
0.0
 11
41.63153763167525
 21
3.517680132214877
 31
0.0
 11
41.62122152668104
 21
3.505295500074964
 31
0.0
 11
41.61144610508944
 21
3.492180871390871
 31
0.0
 11
41.60138788962718
 21
3.477319554383484
 31
0.0
 11
41.5909457488263
 21
3.460345005823342
 31
0.0
 11
41.58055491259261
 21
3.441677580870532
 31
0.0
 11
41.57223426225749
 21
3.425196471007211
 31
0.0
 11
41.56420100294996
 21
3.407656818745863
 31
0.0
 11
41.55643464822015
 21
3.388704431051962
 31
0.0
 11
41.5492512155779
 21
3.368733833326132
 31
0.0
 11
41.5435939083124
 21
3.350556232015037
 31
0.0
 11
41.53860677984574
 21
3.331706758796372
 31
0.0
 11
41.53431104257168
 21
3.311786481829471
 31
0.0
 11
41.53093902942299
 21
3.291336618331399
 31
0.0
 11
41.52852991874982
 21
3.26975309197013
 31
0.0
 11
41.52728728283989
 21
3.247895055204253
 31
0.0
 11
41.52728527931947
 21
3.225160304564951
 31
0.0
 11
41.52857868302584
 21
3.202527241053473
 31
0.0
 11
41.53102733479414
 21
3.180927054742824
 31
0.0
 11
41.53456490482478
 21
3.15976719371622
 31
0.0
 11
41.53924337998034
 21
3.13857103811307
 31
0.0
 11
41.5448327906069
 21
3.118103435768716
 31
0.0
 11
41.55314800122778
 21
3.092967209186269
 31
0.0
 11
41.56244356435974
 21
3.069319045229121
 31
0.0
 11
41.57279454124278
 21
3.046525137374771
 31
0.0
 11
41.58361392324451
 21
3.025505154297491
 31
0.0
 11
41.59351141184174
 21
3.008210281187302
 31
0.0
 11
41.60341300790793
 21
2.992455842121955
 31
0.0
 11
41.61339014287722
 21
2.977988180271324
 31
0.0
 11
41.62305733836717
 21
2.965269237465406
 31
0.0
 11
41.63134820356839
 21
2.955413955253277
 31
0.0
 11
41.63917937095454
 21
2.947094564380506
 31
0.0
 11
41.64661724045356
 21
2.940247278509843
 31
0.0
 11
41.65339712330694
 21
2.935144036821952
 31
0.0
 11
41.65923524490142
 21
2.931942785545174
 31
0.0
 11
41.66433861942175
 21
2.930474989197023
 31
0.0
 11
41.6687645546923
 21
2.930821421476537
 31
0.0
 11
41.67234668591072
 21
2.933068984283579
 31
0.0
 11
41.67500594909722
 21
2.937093829726734
 31
0.0
 11
41.67687196208123
 21
2.942922819380669
 31
0.0
 11
41.67798901436185
 21
2.950780563073351
 31
0.0
 11
41.67834873726917
 21
2.960482664677499
 31
0.0
  0
SPLINE
  5
198
330
2
100
AcDbEntity
  8
GAIKEI
  6
Continuous
 62
     1
100
AcDbSpline
210
0.0
220
0.0
230
1.0
 70
     8
 71
     3
 72
    59
 73
    55
 74
    53
 42
0.0000000001
 43
0.0000000001
 44
0.000001
 12
0.0089977794764248
 22
0.9999595191628976
 32
0.0
 13
-0.0199099484093985
 23
0.9998017773310543
 33
0.0
 40
0.0
 40
0.0
 40
0.0
 40
0.0
 40
0.0071046365436246
 40
0.0133021197047476
 40
0.0186828374795563
 40
0.0232075507583981
 40
0.028648383534553
 40
0.0332208135312287
 40
0.0383402093168304
 40
0.0448916697000707
 40
0.0538566994810943
 40
0.0650468629299207
 40
0.078933793167639
 40
0.0950521309527183
 40
0.1114091544808438
 40
0.1293542498608214
 40
0.1492834698740539
 40
0.1706479900162312
 40
0.1891104049333426
 40
0.2084022034233905
 40
0.2288841586038698
 40
0.2501074508352326
 40
0.2691450956822663
 40
0.2886431994283458
 40
0.30902145314038
 40
0.3297475279782847
 40
0.3514651643548796
 40
0.3733585751871199
 40
0.3960934107886655
 40
0.418763484168847
 40
0.4405020959232062
 40
0.4619556989650225
 40
0.4836621002266029
 40
0.5048792278715381
 40
0.5313551695999792
 40
0.5567647186620553
 40
0.5817988231016309
 40
0.6054398798716872
 40
0.6253665774674562
 40
0.6439742128153771
 40
0.6615485245619785
 40
0.677524319096758
 40
0.690403170339367
 40
0.7018285423540995
 40
0.7119382780791068
 40
0.7204241040763222
 40
0.7270822523453927
 40
0.7323924469401544
 40
0.7368318806871417
 40
0.7410607540037237
 40
0.7458848144140453
 40
0.7520052499216119
 40
0.7599420076097165
 40
0.7696500026631536
 40
0.7696500026631536
 40
0.7696500026631536
 40
0.7696500026631536
 10
41.67834873726917
 20
-3.95491180999835
 30
0.0
 10
41.67837004592013
 20
-3.952543693684354
 30
0.0
 10
41.67824563877471
 20
-3.948107651637343
 30
0.0
 10
41.677733190791
 20
-3.941898535417124
 30
0.0
 10
41.6768077956043
 20
-3.936595408335151
 30
0.0
 10
41.67529095432718
 20
-3.931707721036644
 30
0.0
 10
41.67283657662068
 20
-3.927381570121482
 30
0.0
 10
41.66830976010979
 20
-3.924602121980313
 30
0.0
 10
41.66266908321574
 20
-3.924847607037911
 30
0.0
 10
41.65627506634712
 20
-3.927532053287656
 30
0.0
 10
41.64888111627639
 20
-3.932564020281716
 30
0.0
 10
41.64037018242223
 20
-3.940094898413917
 30
0.0
 10
41.63091822884706
 20
-3.950075480962823
 30
0.0
 10
41.62106151662882
 20
-3.961989781082145
 30
0.0
 10
41.61103559546288
 20
-3.975486179359336
 30
0.0
 10
41.60091586201346
 20
-3.990472152417005
 30
0.0
 10
41.5905762218828
 20
-4.007302124894735
 30
0.0
 10
41.58089049391776
 20
-4.024714842361902
 30
0.0
 10
41.57200761943338
 20
-4.042310310438679
 30
0.0
 10
41.56392070944031
 20
-4.059963136889543
 30
0.0
 10
41.55620569008999
 20
-4.078781348326614
 30
0.0
 10
41.54934443375168
 20
-4.097838521372395
 30
0.0
 10
41.54341987321808
 20
-4.11686268914245
 30
0.0
 10
41.53838905101721
 20
-4.135852075905447
 30
0.0
 10
41.53412628551859
 20
-4.155605907305655
 30
0.0
 10
41.53071010528435
 20
-4.176274969484964
 30
0.0
 10
41.52833023150515
 20
-4.197598715633411
 30
0.0
 10
41.52706725130204
 20
-4.219689166161813
 30
0.0
 10
41.52707074220319
 20
-4.242134464041342
 30
0.0
 10
41.52834549219346
 20
-4.26449155812795
 30
0.0
 10
41.53082804069661
 20
-4.286315600687103
 30
0.0
 10
41.53439849787204
 20
-4.307661548693843
 30
0.0
 10
41.53903460631747
 20
-4.328623521571969
 30
0.0
 10
41.54513549670875
 20
-4.350946424153647
 30
0.0
 10
41.5528050483783
 20
-4.37409036629559
 30
0.0
 10
41.56219567931802
 20
-4.397961132975055
 30
0.0
 10
41.57241461671162
 20
-4.420454152873432
 30
0.0
 10
41.58288211819973
 20
-4.440794795723796
 30
0.0
 10
41.59317287554324
 20
-4.45879117687572
 30
0.0
 10
41.60311834448771
 20
-4.474636785619537
 30
0.0
 10
41.61297543980651
 20
-4.488965002298094
 30
0.0
 10
41.6223216899842
 20
-4.501308173525529
 30
0.0
 10
41.63094479286087
 20
-4.511606830265137
 30
0.0
 10
41.63878137505406
 20
-4.51999371448096
 30
0.0
 10
41.64610914748607
 20
-4.526823409938778
 30
0.0
 10
41.6527907016881
 20
-4.531973314813768
 30
0.0
 10
41.65873499839086
 20
-4.535371757913466
 30
0.0
 10
41.66398842182593
 20
-4.537086754505494
 30
0.0
 10
41.66881391913375
 20
-4.536891275000854
 30
0.0
 10
41.67275286234337
 20
-4.534329002918298
 30
0.0
 10
41.67540381105178
 20
-4.52990031296818
 30
0.0
 10
41.67718750305829
 20
-4.523829493246651
 30
0.0
 10
41.67815480653493
 20
-4.51594829998308
 30
0.0
 10
41.67841316582939
 20
-4.510062817366367
 30
0.0
 10
41.67834873726917
 20
-4.506827460463455
 30
0.0
 11
41.67834873726917
 21
-3.95491180999835
 31
0.0
 11
41.67816797114329
 21
-3.947808652079743
 31
0.0
 11
41.67761053904405
 21
-3.941636294632587
 31
0.0
 11
41.67663702170091
 21
-3.93634440999665
 31
0.0
 11
41.67523700965688
 21
-3.932041779074211
 31
0.0
 11
41.67230387193007
 21
-3.927459342194595
 31
0.0
 11
41.66836863700376
 21
-3.925131060488922
 31
0.0
 11
41.66324940129436
 21
-3.925084085009814
 31
0.0
 11
41.65711319007823
 21
-3.927379631877101
 31
0.0
 11
41.64960329810236
 21
-3.932275986868376
 31
0.0
 11
41.64114626625388
 21
-3.93960395274729
 31
0.0
 11
41.63153763167525
 21
-3.949629992926077
 31
0.0
 11
41.62122152668104
 21
-3.96201462506599
 31
0.0
 11
41.61144610508944
 21
-3.975129253750083
 31
0.0
 11
41.60138788962718
 21
-3.98999057075747
 31
0.0
 11
41.5909457488263
 21
-4.006965119317612
 31
0.0
 11
41.58055491259261
 21
-4.025632544270422
 31
0.0
 11
41.57223426225749
 21
-4.042113654133743
 31
0.0
 11
41.56420100294996
 21
-4.059653306395091
 31
0.0
 11
41.55643464822015
 21
-4.078605694088992
 31
0.0
 11
41.5492512155779
 21
-4.098576291814822
 31
0.0
 11
41.5435939083124
 21
-4.116753893125917
 31
0.0
 11
41.53860677984574
 21
-4.135603366344582
 31
0.0
 11
41.53431104257168
 21
-4.155523643311482
 31
0.0
 11
41.53093902942299
 21
-4.175973506809555
 31
0.0
 11
41.52852991874982
 21
-4.197557033170824
 31
0.0
 11
41.52728728283995
 21
-4.219415069936701
 31
0.0
 11
41.52728527931947
 21
-4.242149820576003
 31
0.0
 11
41.52857868302584
 21
-4.26478288408748
 31
0.0
 11
41.53102733479414
 21
-4.28638307039813
 31
0.0
 11
41.53456490482478
 21
-4.307542931424734
 31
0.0
 11
41.53924337998034
 21
-4.328739087027884
 31
0.0
 11
41.5448327906069
 21
-4.349206689372238
 31
0.0
 11
41.55314800122778
 21
-4.374342915954684
 31
0.0
 11
41.56244356435974
 21
-4.397991079911832
 31
0.0
 11
41.57279454124278
 21
-4.420784987766126
 31
0.0
 11
41.58361392324451
 21
-4.441804970843463
 31
0.0
 11
41.59351141184174
 21
-4.459099843953595
 31
0.0
 11
41.60341300790793
 21
-4.474854283018999
 31
0.0
 11
41.61339014287722
 21
-4.489321944869629
 31
0.0
 11
41.62305733836717
 21
-4.502040887675548
 31
0.0
 11
41.63134820356839
 21
-4.511896169887677
 31
0.0
 11
41.63917937095454
 21
-4.520215560760448
 31
0.0
 11
41.64661724045356
 21
-4.52706284663111
 31
0.0
 11
41.65339712330694
 21
-4.532166088319002
 31
0.0
 11
41.65923524490142
 21
-4.535367339595779
 31
0.0
 11
41.66433861942175
 21
-4.536835135943988
 31
0.0
 11
41.6687645546923
 21
-4.53648870366436
 31
0.0
 11
41.67234668591072
 21
-4.534241140857375
 31
0.0
 11
41.67500594909722
 21
-4.53021629541422
 31
0.0
 11
41.67687196208123
 21
-4.524387305760285
 31
0.0
 11
41.67798901436185
 21
-4.516529562067603
 31
0.0
 11
41.67834873726917
 21
-4.506827460463455
 31
0.0
  0
SPLINE
  5
199
330
2
100
AcDbEntity
  8
GAIKEI
  6
Continuous
 62
     1
100
AcDbSpline
210
0.0
220
0.0
230
1.0
 70
     8
 71
     3
 72
    28
 73
    24
 74
    22
 42
0.0000000001
 43
0.0000000001
 44
0.000001
 12
0.9487589978366965
 22
-0.3160005759866704
 32
0.0
 13
0.0000054313803437
 23
-0.9999999999852501
 33
0.0
 40
0.0
 40
0.0
 40
0.0
 40
0.0
 40
0.0250363978119375
 40
0.0492743128618559
 40
0.0728614350637536
 40
0.0956093481586832
 40
0.1179746860340971
 40
0.1394496267202395
 40
0.1601754566906428
 40
0.1800039393190089
 40
0.1965316207031554
 40
0.2124004227282538
 40
0.2277014845916788
 40
0.2423732225697875
 40
0.2566537090712524
 40
0.2703439991034581
 40
0.2835481095936195
 40
0.2962417674944317
 40
0.3185295474440469
 40
0.3397575339669954
 40
0.3518752639972074
 40
0.3638915827049836
 40
0.3643443720623475
 40
0.3643443720623475
 40
0.3643443720623475
 40
0.3643443720623475
 10
41.41574498494572
 20
22.84091763450044
 30
0.0
 10
41.42366282084489
 20
22.83828046245738
 30
0.0
 10
41.43917423156276
 20
22.83287243101177
 30
0.0
 10
41.46189106800614
 20
22.82427299424833
 30
0.0
 10
41.48364407016981
 20
22.81530811682362
 30
0.0
 10
41.50454250105321
 20
22.80593553419405
 30
0.0
 10
41.52448603800183
 20
22.79618261514655
 30
0.0
 10
41.54347201363862
 20
22.78603637498443
 30
0.0
 10
41.56131907137821
 20
22.77558509553966
 30
0.0
 10
41.57732316767073
 20
22.76528221065493
 30
0.0
 10
41.59154517314465
 20
22.75523460929797
 30
0.0
 10
41.60412871328117
 20
22.74550800451634
 30
0.0
 10
41.61577509337027
 20
22.73560650998218
 30
0.0
 10
41.62652292553562
 20
22.7254932962727
 30
0.0
 10
41.63632890690036
 20
22.71519226165779
 30
0.0
 10
41.64518456781428
 20
22.7046950699772
 30
0.0
 10
41.65302434873649
 20
22.69406683317265
 30
0.0
 10
41.66163016507957
 20
22.6804917770701
 30
0.0
 10
41.66995379459183
 20
22.66362588140639
 30
0.0
 10
41.67544962041211
 20
22.6458167333892
 30
0.0
 10
41.67787452725701
 20
22.6308684440817
 30
0.0
 10
41.67834352907701
 20
22.62266793214164
 30
0.0
 10
41.67834873644941
 20
22.6185116160158
 30
0.0
 10
41.67834873726917
 20
22.61836068623001
 30
0.0
 11
41.41574498494572
 21
22.84091763450044
 31
0.0
 11
41.43938622975276
 21
22.83267963682374
 31
0.0
 11
41.46204940536148
 21
22.82408565364034
 31
0.0
 11
41.48385327049243
 21
22.81508879374667
 31
0.0
 11
41.50460407893092
 21
22.80576832137013
 31
0.0
 11
41.52468953716499
 21
22.79593051715005
 31
0.0
 11
41.54362208274227
 21
22.78579486412929
 31
0.0
 11
41.56149842841864
 21
22.77530696966102
 31
0.0
 11
41.57816060504171
 21
22.76455800692025
 31
0.0
 11
41.5916519432455
 21
22.75501087523969
 31
0.0
 11
41.60419866764067
 21
22.74529499971988
 31
0.0
 11
41.6158466538144
 21
22.73537297708799
 31
0.0
 11
41.62652100645817
 21
22.72530730868812
 31
0.0
 11
41.63635519249129
 21
22.7149525696359
 31
0.0
 11
41.64516947737325
 21
22.70447726897254
 31
0.0
 11
41.65299370312829
 21
22.69384103485447
 31
0.0
 11
41.65977526566649
 21
22.68311076177389
 31
0.0
 11
41.66954720029195
 21
22.66307948250489
 31
0.0
 11
41.67573628722192
 21
22.64277381899359
 31
0.0
 11
41.67767009030098
 21
22.63081143316214
 31
0.0
 11
41.67834783905175
 21
22.61881374648999
 31
0.0
 11
41.67834873726917
 21
22.61836068623001
 31
0.0
  0
SPLINE
  5
19A
330
2
100
AcDbEntity
  8
GAIKEI
  6
Continuous
 62
     1
100
AcDbSpline
210
0.0
220
0.0
230
1.0
 70
     8
 71
     3
 72
    59
 73
    55
 74
    53
 42
0.0000000001
 43
0.0000000001
 44
0.000001
 12
0.0089977794764132
 22
0.9999595191628978
 32
0.0
 13
-0.0199099484095603
 23
0.9998017773310511
 33
0.0
 40
0.0
 40
0.0
 40
0.0
 40
0.0
 40
0.0071046365435678
 40
0.0133021197046978
 40
0.0186828374794995
 40
0.0232075507583481
 40
0.028648383534503
 40
0.0332208135312005
 40
0.0383402093168016
 40
0.0448916697000419
 40
0.0538566994810577
 40
0.0650468629298887
 40
0.078933793167566
 40
0.095052130952689
 40
0.1114091544808202
 40
0.1293542498607449
 40
0.1492834698740802
 40
0.1706479900161457
 40
0.1891104049333079
 40
0.2084022034233687
 40
0.2288841586038415
 40
0.2501074508351508
 40
0.2691450956822456
 40
0.2886431994282632
 40
0.30902145314036
 40
0.3297475279782577
 40
0.3514651643548455
 40
0.3733585751870891
 40
0.3960934107885849
 40
0.4187634841688161
 40
0.4405020959231329
 40
0.4619556989649912
 40
0.4836621002265855
 40
0.5048792278714522
 40
0.5313551695999541
 40
0.5567647186619837
 40
0.5817988231016499
 40
0.6054398798716556
 40
0.6253665774674308
 40
0.6439742128153517
 40
0.661548524561959
 40
0.6775243190967271
 40
0.6904031703393416
 40
0.7018285423540794
 40
0.7119382780790817
 40
0.7204241040762673
 40
0.7270822523453582
 40
0.7323924469401239
 40
0.7368318806871078
 40
0.7410607540037201
 40
0.7458848144140044
 40
0.7520052499215884
 40
0.7599420076096849
 40
0.7696500026631242
 40
0.7696500026631242
 40
0.7696500026631242
 40
0.7696500026631242
 10
41.67834873726917
 20
14.58739831514265
 30
0.0
 10
41.67837004592013
 20
14.58976643145662
 30
0.0
 10
41.67824563877474
 20
14.59420247350364
 30
0.0
 10
41.67773319079095
 20
14.6004115897238
 30
0.0
 10
41.67680779560424
 20
14.60571471680578
 30
0.0
 10
41.67529095432723
 20
14.6106024041043
 30
0.0
 10
41.67283657662056
 20
14.61492855501946
 30
0.0
 10
41.66830976010979
 20
14.61770800316068
 30
0.0
 10
41.66266908321571
 20
14.61746251810299
 30
0.0
 10
41.65627506634709
 20
14.61477807185331
 30
0.0
 10
41.64888111627635
 20
14.60974610485919
 30
0.0
 10
41.64037018242228
 20
14.60221522672704
 30
0.0
 10
41.63091822884689
 20
14.59223464417815
 30
0.0
 10
41.62106151662891
 20
14.58032034405879
 30
0.0
 10
41.61103559546297
 20
14.56682394578166
 30
0.0
 10
41.60091586201338
 20
14.55183797272393
 30
0.0
 10
41.59057622188288
 20
14.5350080002462
 30
0.0
 10
41.58089049391768
 20
14.51759528277907
 30
0.0
 10
41.5720076194334
 20
14.49999981470225
 30
0.0
 10
41.56392070944025
 20
14.48234698825138
 30
0.0
 10
41.55620569009005
 20
14.46352877681434
 30
0.0
 10
41.54934443375163
 20
14.44447160376859
 30
0.0
 10
41.5434198732182
 20
14.42544743599852
 30
0.0
 10
41.53838905101716
 20
14.40645804923551
 30
0.0
 10
41.53412628551871
 20
14.3867042178353
 30
0.0
 10
41.53071010528424
 20
14.36603515565596
 30
0.0
 10
41.52833023150518
 20
14.34471140950755
 30
0.0
 10
41.52706725130193
 20
14.32262095897914
 30
0.0
 10
41.52707074220322
 20
14.30017566109963
 30
0.0
 10
41.52834549219346
 20
14.27781856701301
 30
0.0
 10
41.53082804069661
 20
14.25599452445387
 30
0.0
 10
41.53439849787207
 20
14.23464857644714
 30
0.0
 10
41.53903460631744
 20
14.21368660356899
 30
0.0
 10
41.54513549670887
 20
14.19136370098732
 30
0.0
 10
41.55280504837816
 20
14.16821975884537
 30
0.0
 10
41.56219567931805
 20
14.14434899216593
 30
0.0
 10
41.57241461671151
 20
14.12185597226747
 30
0.0
 10
41.58288211819979
 20
14.10151532941715
 30
0.0
 10
41.59317287554324
 20
14.08351894826522
 30
0.0
 10
41.60311834448771
 20
14.0676733395214
 30
0.0
 10
41.61297543980651
 20
14.05334512284285
 30
0.0
 10
41.62232168998423
 20
14.04100195161544
 30
0.0
 10
41.63094479286087
 20
14.03070329487579
 30
0.0
 10
41.63878137505406
 20
14.02231641065998
 30
0.0
 10
41.64610914748607
 20
14.01548671520214
 30
0.0
 10
41.65279070168816
 20
14.01033681032726
 30
0.0
 10
41.65873499839074
 20
14.00693836722747
 30
0.0
 10
41.66398842182593
 20
14.00522337063543
 30
0.0
 10
41.66881391913384
 20
14.00541885014004
 30
0.0
 10
41.67275286234331
 20
14.00798112222263
 30
0.0
 10
41.67540381105166
 20
14.0124098121728
 30
0.0
 10
41.6771875030584
 20
14.01848063189426
 30
0.0
 10
41.67815480653485
 20
14.02636182515788
 30
0.0
 10
41.67841316582939
 20
14.03224730777457
 30
0.0
 10
41.67834873726917
 20
14.03548266467749
 30
0.0
 11
41.67834873726917
 21
14.58739831514265
 31
0.0
 11
41.67816797114329
 21
14.5945014730612
 31
0.0
 11
41.67761053904405
 21
14.60067383050835
 31
0.0
 11
41.67663702170091
 21
14.60596571514429
 31
0.0
 11
41.67523700965688
 21
14.61026834606673
 31
0.0
 11
41.67230387193007
 21
14.61485078294635
 31
0.0
 11
41.66836863700376
 21
14.61717906465208
 31
0.0
 11
41.66324940129436
 21
14.61722604013113
 31
0.0
 11
41.65711319007823
 21
14.61493049326384
 31
0.0
 11
41.64960329810236
 21
14.61003413827256
 31
0.0
 11
41.64114626625388
 21
14.60270617239365
 31
0.0
 11
41.63153763167525
 21
14.59268013221492
 31
0.0
 11
41.62122152668104
 21
14.58029550007495
 31
0.0
 11
41.61144610508944
 21
14.56718087139086
 31
0.0
 11
41.60138788962718
 21
14.55231955438353
 31
0.0
 11
41.5909457488263
 21
14.53534500582327
 31
0.0
 11
41.58055491259261
 21
14.51667758087058
 31
0.0
 11
41.57223426225749
 21
14.5001964710072
 31
0.0
 11
41.56420100294996
 21
14.48265681874585
 31
0.0
 11
41.55643464822015
 21
14.46370443105195
 31
0.0
 11
41.5492512155779
 21
14.44373383332617
 31
0.0
 11
41.5435939083124
 21
14.42555623201502
 31
0.0
 11
41.53860677984574
 21
14.40670675879642
 31
0.0
 11
41.53431104257168
 21
14.38678648182946
 31
0.0
 11
41.53093902942299
 21
14.36633661833139
 31
0.0
 11
41.52852991874982
 21
14.34475309197012
 31
0.0
 11
41.52728728283989
 21
14.32289505520424
 31
0.0
 11
41.52728527931947
 21
14.30016030456499
 31
0.0
 11
41.52857868302584
 21
14.27752724105346
 31
0.0
 11
41.53102733479414
 21
14.25592705474287
 31
0.0
 11
41.53456490482478
 21
14.23476719371621
 31
0.0
 11
41.53924337998034
 21
14.21357103811306
 31
0.0
 11
41.5448327906069
 21
14.19310343576876
 31
0.0
 11
41.55314800122778
 21
14.16796720918626
 31
0.0
 11
41.56244356435974
 21
14.14431904522917
 31
0.0
 11
41.57279454124278
 21
14.12152513737476
 31
0.0
 11
41.58361392324451
 21
14.10050515429748
 31
0.0
 11
41.59351141184174
 21
14.08321028118735
 31
0.0
 11
41.60341300790793
 21
14.06745584212194
 31
0.0
 11
41.61339014287722
 21
14.05298818027131
 31
0.0
 11
41.62305733836717
 21
14.04026923746539
 31
0.0
 11
41.63134820356839
 21
14.03041395525326
 31
0.0
 11
41.63917937095454
 21
14.02209456438049
 31
0.0
 11
41.64661724045356
 21
14.01524727850983
 31
0.0
 11
41.65339712330694
 21
14.010144036822
 31
0.0
 11
41.65923524490142
 21
14.00694278554516
 31
0.0
 11
41.66433861942175
 21
14.00547498919695
 31
0.0
 11
41.6687645546923
 21
14.00582142147652
 31
0.0
 11
41.67234668591072
 21
14.00806898428356
 31
0.0
 11
41.67500594909717
 21
14.01209382972672
 31
0.0
 11
41.67687196208123
 21
14.01792281938066
 31
0.0
 11
41.6779890143618
 21
14.02578056307334
 31
0.0
 11
41.67834873726917
 21
14.03548266467749
 31
0.0
  0
SPLINE
  5
19B
330
2
100
AcDbEntity
  8
GAIKEI
  6
Continuous
 62
     1
100
AcDbSpline
210
0.0
220
0.0
230
1.0
 70
     8
 71
     3
 72
    59
 73
    55
 74
     0
 42
0.0000000001
 43
0.0000000001
 40
0.0349945438237978
 40
0.0349945438237978
 40
0.0349945438237978
 40
0.0349945438237978
 40
0.1421083323969185
 40
0.2660578875024012
 40
0.3736716343104173
 40
0.4641651363129852
 40
0.5729806802563652
 40
0.6644289759125779
 40
0.7668179451501672
 40
0.8978485888745707
 40
1.077150255517389
 40
1.300954130308442
 40
1.578693083064459
 40
1.901060028867446
 40
2.228200577322882
 40
2.587102481366617
 40
2.985686782952937
 40
3.412976968399689
 40
3.782224978463207
 40
4.16806053834409
 40
4.57769907473212
 40
5.00216417850695
 40
5.382916273834956
 40
5.772877394409236
 40
6.180441335270956
 40
6.594961553926577
 40
7.02931283558277
 40
7.467179523693534
 40
7.92187462311888
 40
8.375274510883524
 40
8.810045305201219
 40
9.239116053932869
 40
9.673242891533488
 40
10.09758443760665
 40
10.62710224024265
 40
11.1352924621226
 40
11.6359740092462
 40
12.10879480318595
 40
12.50732858316551
 40
12.87948121950628
 40
13.23096746971053
 40
13.55048345776405
 40
13.80806064780194
 40
14.03656835537501
 40
14.23876351157454
 40
14.40848075290273
 40
14.54164476715823
 40
14.64784989521401
 40
14.73663931130097
 40
14.82121640271464
 40
14.91769663157091
 40
15.0401044011609
 40
15.19883933843787
 40
15.39301392549999
 40
15.39301392549999
 40
15.39301392549999
 40
15.39301392549999
 10
41.67834873726912
 20
8.889148099833107
 30
0.0
 10
41.67833297643738
 20
8.890933435808676
 30
0.0
 10
41.67819690716259
 20
8.894784483291118
 30
0.0
 10
41.6777326830508
 20
8.900412344395476
 30
0.0
 10
41.67680717323361
 20
8.90571543754811
 30
0.0
 10
41.6752902758809
 20
8.910603059541813
 30
0.0
 10
41.67283578345165
 20
8.914929123477577
 30
0.0
 10
41.66830881492024
 20
8.917708335747136
 30
0.0
 10
41.66266812069807
 20
8.917462534001231
 30
0.0
 10
41.65627415613665
 20
8.914777847877076
 30
0.0
 10
41.64888026512119
 20
8.909745707992271
 30
0.0
 10
41.64036938555677
 20
8.902214722448718
 30
0.0
 10
41.6309174709786
 20
8.892234078076626
 30
0.0
 10
41.62106078084571
 20
8.880319747274199
 30
0.0
 10
41.61103486865624
 20
8.866823337157882
 30
0.0
 10
41.60091513410168
 20
8.851837365594633
 30
0.0
 10
41.59057548412692
 20
8.835007405600833
 30
0.0
 10
41.58088973965584
 20
8.817594708983563
 30
0.0
 10
41.57200684484826
 20
8.79999926832761
 30
0.0
 10
41.56391991258556
 20
8.782346475333156
 30
0.0
 10
41.55620486831435
 20
8.763528305100862
 30
0.0
 10
41.54934358647517
 20
8.744471178624394
 30
0.0
 10
41.54341900159272
 20
8.72544706201404
 30
0.0
 10
41.53838815714181
 20
8.706457730933607
 30
0.0
 10
41.53412537144425
 20
8.686703961221553
 30
0.0
 10
41.530709174158
 20
8.666034966931192
 30
0.0
 10
41.5283292879543
 20
8.644711293355214
 30
0.0
 10
41.52706630104126
 20
8.622620919631003
 30
0.0
 10
41.52706979190128
 20
8.600175700256272
 30
0.0
 10
41.52834454871123
 20
8.577818683736609
 30
0.0
 10
41.53082711001718
 20
8.555994715180759
 30
0.0
 10
41.53439758493021
 20
8.534648836630594
 30
0.0
 10
41.5390337150589
 20
8.513686928335459
 30
0.0
 10
41.545134632187
 20
8.49136408877041
 30
0.0
 10
41.55280421421998
 20
8.468220205820387
 30
0.0
 10
41.56219487667885
 20
8.444349493390973
 30
0.0
 10
41.57241384230371
 20
8.421856516498905
 30
0.0
 10
41.5828813657842
 20
8.401515904893415
 30
0.0
 10
41.59317213791098
 20
8.38351954354681
 30
0.0
 10
41.60311761431375
 20
8.367673944132036
 30
0.0
 10
41.61297470871204
 20
8.353345726214797
 30
0.0
 10
41.62232094791682
 20
8.341002541280545
 30
0.0
 10
41.63094402919819
 20
8.330703855424474
 30
0.0
 10
41.63878057980662
 20
8.322316922692266
 30
0.0
 10
41.64610830985646
 20
8.315487148383908
 30
0.0
 10
41.65278981330755
 20
8.310337122014004
 30
0.0
 10
41.65873406408173
 20
8.306938504424124
 30
0.0
 10
41.66398745860113
 20
8.3052232865316
 30
0.0
 10
41.6688129906297
 20
8.305418499978031
 30
0.0
 10
41.67275206359812
 20
8.307980578258707
 30
0.0
 10
41.67540310534389
 20
8.312409176241658
 30
0.0
 10
41.67718692593132
 20
8.31847993799613
 30
0.0
 10
41.67815397122416
 20
8.326361370984727
 30
0.0
 10
41.67841317070269
 20
8.33224706305657
 30
0.0
 10
41.67834873726917
 20
8.335482664677499
 30
0.0
  0
SPLINE
  5
19C
330
2
100
AcDbEntity
  8
GAIKEI
  6
Continuous
 62
     1
100
AcDbSpline
210
0.0
220
0.0
230
1.0
 70
     8
 71
     3
 72
    19
 73
    15
 74
    13
 42
0.0000000001
 43
0.0000000001
 44
0.000001
 12
-0.0912154340821383
 22
0.995831182774072
 32
0.0
 13
-0.7628105112760477
 23
0.646622087379309
 33
0.0
 40
0.0
 40
0.0
 40
0.0
 40
0.0
 40
0.0467890381476132
 40
0.0987195309954746
 40
0.1429451523508886
 40
0.1873884241884096
 40
0.2319948084613284
 40
0.2767107229894731
 40
0.3214864445947492
 40
0.3716404223558689
 40
0.4222145537762471
 40
0.4731010924728824
 40
0.5241952257139959
 40
0.5754007836255317
 40
0.5754007836255317
 40
0.5754007836255317
 40
0.5754007836255317
 10
41.67529284706335
 20
22.68532966170665
 30
0.0
 10
41.67387021958839
 20
22.70086098943977
 30
0.0
 10
41.66982757064142
 20
22.73354353298135
 30
0.0
 10
41.66082509277396
 20
22.78037451038526
 30
0.0
 10
41.64895959832935
 20
22.82574296458436
 30
0.0
 10
41.63514193090676
 20
22.8679927487399
 30
0.0
 10
41.61876446760672
 20
22.90949313746981
 30
0.0
 10
41.59988168404583
 20
22.95003801451013
 30
0.0
 10
41.57770433664987
 20
22.99099641080719
 30
0.0
 10
41.55184967560043
 20
23.03207782066083
 30
0.0
 10
41.52206763649928
 20
23.07295558330806
 30
0.0
 10
41.48940021009548
 20
23.11197707590496
 30
0.0
 10
41.45403131295651
 20
23.14885843652026
 30
0.0
 10
41.42876503088317
 20
23.17180619095113
 30
0.0
 10
41.41574498494628
 20
23.18284307253185
 30
0.0
 11
41.67529284706335
 21
22.68532966170665
 31
0.0
 11
41.66955049105609
 21
22.73176538774317
 31
0.0
 11
41.65974015616143
 21
22.78276079963484
 31
0.0
 11
41.64855342292804
 21
22.82554821920109
 31
0.0
 11
41.6347436669738
 21
22.86779151333712
 31
0.0
 11
41.61836932252436
 21
22.90928381143203
 31
0.0
 11
41.59948882380513
 21
22.94981824287498
 31
0.0
 11
41.57816060504171
 21
22.98918793705496
 31
0.0
 11
41.55145715187797
 21
23.03164200444519
 31
0.0
 11
41.5216835692292
 21
23.07252325069089
 31
0.0
 11
41.48902015115271
 21
23.11154297678922
 31
0.0
 11
41.45364719170584
 21
23.14841248373728
 31
0.0
 11
41.41574498494628
 21
23.18284307253185
 31
0.0
  0
SPLINE
  5
19D
330
2
100
AcDbEntity
  8
GAIKEI
  6
Continuous
 62
     1
100
AcDbSpline
210
0.0
220
0.0
230
1.0
 70
     8
 71
     3
 72
    16
 73
    12
 74
    10
 42
0.0000000001
 43
0.0000000001
 44
0.000001
 12
0.0063007628878109
 22
-0.9999801499965045
 32
0.0
 13
-0.4249637329286279
 23
-0.905210376484586
 33
0.0
 40
0.0
 40
0.0
 40
0.0
 40
0.0
 40
0.0456928155558235
 40
0.0729223277433817
 40
0.1001494218405929
 40
0.1275729237482571
 40
0.1553508338207632
 40
0.1831848896977218
 40
0.2113769263847817
 40
0.2397509725392922
 40
0.2997926694746515
 40
0.2997926694746515
 40
0.2997926694746515
 40
0.2997926694746515
 10
41.66435167026856
 20
-5.436395961968116
 30
0.0
 10
41.66444763680073
 20
-5.451626598152543
 30
0.0
 10
41.66367200863027
 20
-5.475952437359651
 30
0.0
 10
41.66056708446854
 20
-5.509199740169719
 30
0.0
 10
41.65679748425555
 20
-5.5362415195045
 30
0.0
 10
41.65176835220563
 20
-5.563263250190573
 30
0.0
 10
41.64545712476427
 20
-5.590222040112756
 30
0.0
 10
41.6378545543298
 20
-5.617114513429932
 30
0.0
 10
41.62890335977263
 20
-5.643791019398413
 30
0.0
 10
41.61508723952238
 20
-5.680156213020467
 30
0.0
 10
41.60149768107006
 20
-5.706368831629205
 30
0.0
 10
41.59299249984974
 20
-5.724485620658413
 30
0.0
 11
41.66435167026856
 21
-5.436395961968116
 31
0.0
 11
41.66289340319145
 21
-5.482065928812573
 31
0.0
 11
41.6603631953904
 21
-5.509177621562685
 31
0.0
 11
41.65660430574746
 21
-5.536143994083317
 31
0.0
 11
41.65158659292029
 21
-5.563104538528534
 31
0.0
 11
41.64525816005045
 21
-5.59015196345814
 31
0.0
 11
41.63767582889369
 21
-5.616933354260254
 31
0.0
 11
41.62874895191635
 21
-5.643674740851281
 31
0.0
 11
41.61851956278428
 21
-5.67014068119704
 31
0.0
 11
41.59299249984974
 21
-5.724485620658413
 31
0.0
  0
SPLINE
  5
19E
330
2
100
AcDbEntity
  8
GAIKEI
  6
Continuous
 62
     7
100
AcDbSpline
210
0.0
220
0.0
230
1.0
 70
     8
 71
     3
 72
    19
 73
    15
 74
    13
 42
0.0000000001
 43
0.0000000001
 44
0.000001
 12
0.6454515731427639
 22
-0.7638011958144158
 32
0.0
 13
0.1202067029641735
 23
-0.9927488849464818
 33
0.0
 40
0.0
 40
0.0
 40
0.0
 40
0.0
 40
0.0355153739049589
 40
0.0709953650762931
 40
0.1065946142794694
 40
0.14216633649175
 40
0.1784911525315489
 40
0.2148012359927105
 40
0.2512585163379541
 40
0.2877170051074889
 40
0.3352601626282626
 40
0.382880637567705
 40
0.4192250038097903
 40
0.4386283337596443
 40
0.4386283337596443
 40
0.4386283337596443
 40
0.4386283337596443
 10
41.50018841917125
 20
23.16935064914872
 30
0.0
 10
41.50782957049048
 20
23.16030842079593
 30
0.0
 10
41.5226795336386
 20
23.14186907834369
 30
0.0
 10
41.54364352272551
 20
23.11316558589678
 30
0.0
 10
41.5632395134167
 20
23.08348765365697
 30
0.0
 10
41.58155539255449
 20
23.05267527422373
 30
0.0
 10
41.59849262847155
 20
23.02081452718422
 30
0.0
 10
41.6140022499677
 20
22.98790841660434
 30
0.0
 10
41.62792522161663
 20
22.95425155605228
 30
0.0
 10
41.64147095551425
 20
22.9164367266403
 30
0.0
 10
41.65395813536721
 20
22.87434606639672
 30
0.0
 10
41.66376702061879
 20
22.83159127053806
 30
0.0
 10
41.66959981033508
 20
22.7976189776127
 30
0.0
 10
41.67207146600228
 20
22.7791994536604
 30
0.0
 10
41.67284893610889
 20
22.77277857560307
 30
0.0
 11
41.50018841917125
 21
23.16935064914872
 31
0.0
 11
41.52246584028683
 21
23.1416905142645
 31
0.0
 11
41.5433919945184
 21
23.11303876431958
 31
0.0
 11
41.56300773882958
 21
23.08333138597902
 31
0.0
 11
41.58118407082975
 21
23.05275413688093
 31
0.0
 11
41.5982350536583
 21
23.02067990624266
 31
0.0
 11
41.61371590664322
 21
22.98783534207394
 31
0.0
 11
41.62765223350248
 21
22.95414688660992
 31
0.0
 11
41.63994722372888
 21
22.91982409118384
 31
0.0
 11
41.65346994515096
 21
22.87424461829449
 31
0.0
 11
41.6641185403273
 21
22.82782998220324
 31
0.0
 11
41.67027019962648
 21
22.79201000165938
 31
0.0
 11
41.67284893610889
 21
22.77277857560307
 31
0.0
  0
SPLINE
  5
19F
330
2
100
AcDbEntity
  8
GAIKEI
  6
Continuous
 62
     1
100
AcDbSpline
210
0.0
220
0.0
230
1.0
 70
     8
 71
     3
 72
     9
 73
     5
 74
     3
 42
0.0000000001
 43
0.0000000001
 44
0.000001
 12
-0.0085731655573233
 22
-0.9999632497408725
 32
0.0
 13
-0.2441696530740563
 23
-0.9697325304008808
 33
0.0
 40
0.0
 40
0.0
 40
0.0
 40
0.0
 40
0.0009645689144569
 40
0.0010700851662007
 40
0.0010700851662007
 40
0.0010700851662007
 40
0.0010700851662007
 10
41.67442183561388
 20
4.027145953402509
 30
0.0
 10
41.67441907914422
 20
4.026824442247075
 30
0.0
 10
41.6743779483063
 20
4.026466124824793
 30
0.0
 10
41.67429503783816
 20
4.02611925836463
 30
0.0
 10
41.67428644988262
 20
4.02608515085069
 30
0.0
 11
41.67442183561388
 21
4.027145953402509
 31
0.0
 11
41.67431099770277
 21
4.026187725667057
 31
0.0
 11
41.67428644988262
 21
4.02608515085069
 31
0.0
  0
SPLINE
  5
1A0
330
2
100
AcDbEntity
  8
GAIKEI
  6
Continuous
 62
     1
100
AcDbSpline
210
0.0
220
0.0
230
1.0
 70
     8
 71
     3
 72
     9
 73
     5
 74
     3
 42
0.0000000001
 43
0.0000000001
 44
0.000001
 12
-0.0000018445944591
 22
0.9999999999982989
 32
0.0
 13
-0.0427938538119136
 23
0.9990839234398302
 33
0.0
 40
0.0
 40
0.0
 40
0.0
 40
0.0
 40
0.0139258080615728
 40
0.0321069066857096
 40
0.0321069066857096
 40
0.0321069066857096
 40
0.0321069066857096
 10
41.67834873726917
 20
3.950728980228632
 30
0.0
 10
41.67834872870668
 20
3.955370916249151
 30
0.0
 10
41.67824933176271
 20
3.9660733782366
 30
0.0
 10
41.67792092536345
 20
3.976771911967233
 30
0.0
 10
41.67766157893789
 20
3.982826726415851
 30
0.0
 11
41.67834873726917
 21
3.950728980228632
 31
0.0
 11
41.67821945293371
 21
3.964654129733617
 31
0.0
 11
41.67766157893789
 21
3.982826726415851
 31
0.0
  0
SPLINE
  5
1A1
330
2
100
AcDbEntity
  8
GAIKEI
  6
Continuous
 62
     1
100
AcDbSpline
210
0.0
220
0.0
230
1.0
 70
     8
 71
     3
 72
    15
 73
    11
 74
     9
 42
0.0000000001
 43
0.0000000001
 44
0.000001
 12
-0.9993069237086784
 22
0.0372246185728951
 32
0.0
 13
-0.9993043250040532
 23
0.0372943162987813
 33
0.0
 40
0.0
 40
0.0
 40
0.0
 40
0.0
 40
0.0135550260818612
 40
0.0286448009222158
 40
0.0452836984744065
 40
0.1309398183227203
 40
0.1506979104907946
 40
0.171985562236962
 40
0.1948202008235673
 40
0.2191826589616368
 40
0.2191826589616368
 40
0.2191826589616368
 40
0.2191826589616368
 10
39.50302763726916
 20
25.73627912314873
 30
0.0
 10
39.49851242679762
 20
25.73644731670729
 30
0.0
 10
39.48897033798994
 20
25.73679273298083
 30
0.0
 10
39.47388379931871
 20
25.73727787714783
 30
0.0
 10
39.43477693612152
 20
25.73864567069907
 30
0.0
 10
39.39406922519243
 20
25.73753886673116
 30
0.0
 10
39.35185474395789
 20
25.7388967486591
 30
0.0
 10
39.33056915361252
 20
25.73947335041717
 30
0.0
 10
39.30774320431522
 20
25.7398364034992
 30
0.0
 10
39.29201886493195
 20
25.7403612440646
 30
0.0
 10
39.28390369500358
 20
25.74066410447114
 30
0.0
 11
39.50302763726916
 21
25.73627912314873
 31
0.0
 11
39.48948135987075
 21
25.7367665975296
 31
0.0
 11
39.47439995154281
 21
25.73726901776058
 31
0.0
 11
39.45776910026462
 21
25.73778638848819
 31
0.0
 11
39.3721146119824
 21
25.73831737677676
 31
0.0
 11
39.35236408462845
 21
25.73886327452703
 31
0.0
 11
39.33108377350925
 21
25.73942212591362
 31
0.0
 11
39.30825412001826
 21
25.73989357302025
 31
0.0
 11
39.28390369500358
 21
25.74066410447114
 31
0.0
  0
SPLINE
  5
1A2
330
2
100
AcDbEntity
  8
GAIKEI
  6
Continuous
 62
     7
100
AcDbSpline
210
0.0
220
0.0
230
1.0
 70
     8
 71
     3
 72
    31
 73
    27
 74
    25
 42
0.0000000001
 43
0.0000000001
 44
0.000001
 12
0.999992804131436
 22
-0.0037936374823846
 32
0.0
 13
0.9989808044861298
 23
0.045137038762472
 33
0.0
 40
0.0
 40
0.0
 40
0.0
 40
0.0
 40
0.0026515889139971
 40
0.0190927368870625
 40
0.0353660989886413
 40
0.0521905496061845
 40
0.0681247117096913
 40
0.0831708709086167
 40
0.0973305489381677
 40
0.11060498366266
 40
0.1229945225111862
 40
0.1344996903740392
 40
0.1451210522003011
 40
0.1548589278232497
 40
0.1637121493750056
 40
0.1716610059610677
 40
0.1787060528869275
 40
0.1848481303573379
 40
0.190087663371175
 40
0.1944245152608512
 40
0.1978575922584349
 40
0.2003834863694502
 40
0.2020573366526684
 40
0.2033054059350345
 40
0.2045049137450708
 40
0.20509282600629
 40
0.20509282600629
 40
0.20509282600629
 40
0.20509282600629
 10
39.23542065238576
 20
-9.477743883987159
 30
0.0
 10
39.23630450899694
 20
-9.477747237042855
 30
0.0
 10
39.24266869572847
 20
-9.47777478835534
 30
0.0
 10
39.25445737531965
 20
-9.477801296393131
 30
0.0
 10
39.27097031830442
 20
-9.477837779606772
 30
0.0
 10
39.2873142724489
 20
-9.477873233415223
 30
0.0
 10
39.30324916004929
 20
-9.477907164747072
 30
0.0
 10
39.3182957936358
 20
-9.477938640842609
 30
0.0
 10
39.33245585430848
 20
-9.477967772224786
 30
0.0
 10
39.34573037760043
 20
-9.477994668360118
 30
0.0
 10
39.35812006665316
 20
-9.478019437848544
 30
0.0
 10
39.36962540033557
 20
-9.478042190609997
 30
0.0
 10
39.38024684832578
 20
-9.478063031830302
 30
0.0
 10
39.38998431602471
 20
-9.478082082241911
 30
0.0
 10
39.39883095040824
 20
-9.478099358497644
 30
0.0
 10
39.40677997694923
 20
-9.478114877977489
 30
0.0
 10
39.41382529040536
 20
-9.478128684913087
 30
0.0
 10
39.41996749769188
 20
-9.478140764258114
 30
0.0
 10
39.425206974455
 20
-9.478151313100362
 30
0.0
 10
39.4295434534599
 20
-9.478159904788199
 30
0.0
 10
39.43297538491157
 20
-9.478167817906374
 30
0.0
 10
39.43551965679925
 20
-9.47817196093969
 30
0.0
 10
39.43733557914806
 20
-9.478179968986388
 30
0.0
 10
39.43870940672409
 20
-9.478175506276592
 30
0.0
 10
39.43972110257772
 20
-9.478153028924964
 30
0.0
 10
39.44031636396298
 20
-9.478127272148448
 30
0.0
 10
39.44051213498421
 20
-9.478118426608943
 30
0.0
 11
39.23542065238576
 21
-9.477743883987159
 31
0.0
 11
39.23807220069864
 21
-9.477753634462544
 31
0.0
 11
39.25451328260761
 21
-9.477800314271632
 31
0.0
 11
39.27078660417453
 21
-9.477836266889937
 31
0.0
 11
39.28761101450204
 21
-9.477872762564402
 31
0.0
 11
39.30354514003284
 21
-9.477906692891224
 31
0.0
 11
39.31859126600472
 21
-9.477938169776678
 31
0.0
 11
39.33275091384502
 21
-9.477967303641889
 31
0.0
 11
39.34602532114656
 21
-9.477994204559195
 31
0.0
 11
39.35841483508898
 21
-9.478018981130276
 31
0.0
 11
39.36991998032545
 21
-9.478041742728635
 31
0.0
 11
39.38054132157595
 21
-9.478062599241354
 31
0.0
 11
39.39027917846369
 21
-9.478081653368974
 31
0.0
 11
39.39913238303012
 21
-9.478098946676652
 31
0.0
 11
39.40708122433972
 21
-9.478114476744053
 31
0.0
 11
39.4141262576083
 21
-9.478128283645446
 31
0.0
 11
39.42026832294147
 21
-9.478140407780244
 31
0.0
 11
39.42550784521961
 21
-9.478150888497907
 31
0.0
 11
39.42984468760995
 21
-9.478159763730104
 31
0.0
 11
39.43327775605946
 21
-9.478167068855725
 31
0.0
 11
39.43580364195418
 21
-9.478172832265329
 31
0.0
 11
39.43747748262098
 21
-9.478177147499025
 31
0.0
 11
39.43872552712657
 21
-9.478170430893271
 31
0.0
 11
39.43992468713941
 21
-9.478141862144525
 31
0.0
 11
39.44051213498421
 21
-9.478118426608943
 31
0.0
  0
SPLINE
  5
1A3
330
2
100
AcDbEntity
  8
GAIKEI
  6
Continuous
 62
     7
100
AcDbSpline
210
0.0
220
0.0
230
1.0
 70
     8
 71
     3
 72
    33
 73
    29
 74
    27
 42
0.0000000001
 43
0.0000000001
 44
0.000001
 12
-0.9989727477710509
 22
0.045314999842833
 32
0.0
 13
-0.9999928005234256
 23
-0.0037945884251499
 33
0.0
 40
0.0
 40
0.0
 40
0.0
 40
0.0
 40
0.0003193646769821
 40
0.0011748899394403
 40
0.0019753776501472
 40
0.0028201779244463
 40
0.0037318287471469
 40
0.0049417168605845
 40
0.0075302588399667
 40
0.0110310545682711
 40
0.0154384379156915
 40
0.0207475065557477
 40
0.0269566282603146
 40
0.034065384364909
 40
0.0420740035210246
 40
0.0509831623433055
 40
0.0607939595965728
 40
0.0715076027536322
 40
0.0831059906884473
 40
0.095590036124345
 40
0.1089601796620204
 40
0.1232171652372821
 40
0.1383615413946444
 40
0.1543938196920376
 40
0.1713154071310187
 40
0.1869950681571027
 40
0.2032650978171542
 40
0.205092653612687
 40
0.205092653612687
 40
0.205092653612687
 40
0.205092653612687
 10
39.44051235400684
 20
26.71637914619748
 30
0.0
 10
39.44040600847055
 20
26.71638397020091
 30
0.0
 10
39.44001481807402
 20
26.7164026093217
 30
0.0
 10
39.43935658953117
 20
26.71642186539376
 30
0.0
 10
39.43852310229792
 20
26.71643642569228
 30
0.0
 10
39.43767077556865
 20
26.71644024821319
 30
0.0
 10
39.43668200291711
 20
26.71643640513483
 30
0.0
 10
39.43511197916078
 20
26.716433050192
 30
0.0
 10
39.43267891079293
 20
26.71642733737932
 30
0.0
 10
39.42918001112719
 20
26.71642010392522
 30
0.0
 10
39.42477427115017
 20
26.71641109244655
 30
0.0
 10
39.41946575708141
 20
26.71640052722641
 30
0.0
 10
39.41325678699755
 20
26.71638828952125
 30
0.0
 10
39.40614796829095
 20
26.71637437527567
 30
0.0
 10
39.39813913886553
 20
26.71635873679081
 30
0.0
 10
39.3892296307788
 20
26.71634133686206
 30
0.0
 10
39.37941844981649
 20
26.71632213936815
 30
0.0
 10
39.3687108610001
 20
26.71630111936469
 30
0.0
 10
39.35711219153964
 20
26.7162781636517
 30
0.0
 10
39.34462802423735
 20
26.71625317916669
 30
0.0
 10
39.33125766022809
 20
26.71622605481936
 30
0.0
 10
39.31700052207583
 20
26.71619668273472
 30
0.0
 10
39.30185600856495
 20
26.71616495100217
 30
0.0
 10
39.28582329801458
 20
26.71613076313895
 30
0.0
 10
39.26961215959563
 20
26.71609550574049
 30
0.0
 10
39.25332177732526
 20
26.71605957351014
 30
0.0
 10
39.24206271327853
 20
26.71603393883663
 30
0.0
 10
39.23603024450145
 20
26.71600692669351
 30
0.0
 10
39.23542106362209
 20
26.71600461508615
 30
0.0
 11
39.44051235400684
 21
26.71637914619748
 31
0.0
 11
39.44019327510347
 21
26.71639267869153
 31
0.0
 11
39.43933817951899
 21
26.71641966755874
 31
0.0
 11
39.4385378160863
 21
26.71643348298017
 31
0.0
 11
39.43769303241982
 21
26.71643801487494
 31
0.0
 11
39.43678138709595
 21
26.71643602037659
 31
0.0
 11
39.43557150458088
 21
26.71643300538733
 31
0.0
 11
39.43298297066411
 21
26.71642715457585
 31
0.0
 11
39.4294821834917
 21
26.7164197402725
 31
0.0
 11
39.4250748097113
 21
26.71641074422018
 31
0.0
 11
39.41976575189796
 21
26.71640014029765
 31
0.0
 11
39.41355664243202
 21
26.71638789398696
 31
0.0
 11
39.40644790009065
 21
26.71637396782245
 31
0.0
 11
39.39843929631826
 21
26.71635832278963
 31
0.0
 11
39.38953015458884
 21
26.71634091877604
 31
0.0
 11
39.37971937621637
 21
26.71632171846477
 31
0.0
 11
39.36900575383231
 21
26.71630067097897
 31
0.0
 11
39.3574073887429
 21
26.71627770697171
 31
0.0
 11
39.34492336845608
 21
26.71625271545486
 31
0.0
 11
39.33155325260981
 21
26.71622558686579
 31
0.0
 11
39.31729629752079
 21
26.71619621146806
 31
0.0
 11
39.30215195491775
 21
26.71616448032035
 31
0.0
 11
39.28611971355355
 21
26.71613028494562
 31
0.0
 11
39.26919816680294
 21
26.71609351527752
 31
0.0
 11
39.25351854489793
 21
26.71605882544787
 31
0.0
 11
39.23724858753519
 21
26.71601140235515
 31
0.0
 11
39.23542106362209
 21
26.71600461508615
 31
0.0
  0
SPLINE
  5
1A4
330
2
100
AcDbEntity
  8
GAIKEI
  6
Continuous
 62
     1
100
AcDbSpline
210
0.0
220
0.0
230
1.0
 70
     8
 71
     3
 72
     9
 73
     5
 74
     3
 42
0.0000000001
 43
0.0000000001
 44
0.000001
 12
-0.1197400498887226
 22
0.9928052782155454
 32
0.0
 13
-0.1402453033452655
 23
0.9901167885101203
 33
0.0
 40
0.0
 40
0.0
 40
0.0
 40
0.0
 40
0.0092459895577719
 40
0.0156881724027867
 40
0.0156881724027867
 40
0.0156881724027867
 40
0.0156881724027867
 10
41.67289039439134
 20
22.7724144035505
 30
0.0
 10
41.67252135597436
 20
22.77547422596226
 30
0.0
 10
41.67186353970538
 20
22.78066223939298
 30
0.0
 10
41.67115212772094
 20
22.78584307460402
 30
0.0
 10
41.67085096575852
 20
22.78796924573385
 30
0.0
 11
41.67289039439134
 21
22.7724144035505
 31
0.0
 11
41.67172735820975
 21
22.78158696220129
 31
0.0
 11
41.67085096575852
 21
22.78796924573385
 31
0.0
  0
SPLINE
  5
1A5
330
2
100
AcDbEntity
  8
GAIKEI
  6
Continuous
 62
     7
100
AcDbSpline
210
0.0
220
0.0
230
1.0
 70
     8
 71
     3
 72
    23
 73
    19
 74
    17
 42
0.0000000001
 43
0.0000000001
 44
0.000001
 12
0.0049688130497012
 22
0.9999876553722437
 32
0.0
 13
0.1822247323104926
 23
0.9832569079006614
 33
0.0
 40
0.0
 40
0.0
 40
0.0
 40
0.0
 40
0.0072074501703136
 40
0.016160804614415
 40
0.0250756285633327
 40
0.0338013202979102
 40
0.0421697133357867
 40
0.050022301499075
 40
0.0572230662354535
 40
0.0636517750001245
 40
0.0694283394929529
 40
0.0747395269944793
 40
0.0796635137653787
 40
0.0946187857611875
 40
0.0978764069160453
 40
0.0998931476227535
 40
0.1009987819249754
 40
0.1012579302451571
 40
0.1012579302451571
 40
0.1012579302451571
 40
0.1012579302451571
 10
41.67045023854797
 20
-4.786708069742701
 30
0.0
 10
41.67046217603879
 20
-4.784305616010357
 30
0.0
 10
41.67051404912396
 20
-4.778918827670544
 30
0.0
 10
41.67069237732945
 20
-4.770561970066012
 30
0.0
 10
41.67098524801949
 20
-4.761701989847338
 30
0.0
 10
41.67137296357447
 20
-4.753040827614704
 30
0.0
 10
41.67184150585024
 20
-4.744738292939146
 30
0.0
 10
41.67237391136128
 20
-4.73694901735238
 30
0.0
 10
41.67295141713043
 20
-4.729811484294828
 30
0.0
 10
41.6735578154915
 20
-4.723371009624571
 30
0.0
 10
41.67419721637543
 20
-4.717567212806031
 30
0.0
 10
41.67481832840102
 20
-4.712266050539454
 30
0.0
 10
41.67593860576565
 20
-4.703944166289758
 30
0.0
 10
41.67671658898098
 20
-4.696267866344953
 30
0.0
 10
41.67772481047919
 20
-4.689599940243191
 30
0.0
 10
41.67806082922337
 20
-4.687500013042836
 30
0.0
 10
41.67824965536695
 20
-4.686388703106629
 30
0.0
 10
41.67833299619135
 20
-4.685941471689588
 30
0.0
 10
41.67834873726912
 20
-4.685856535230925
 30
0.0
 11
41.67045023854797
 21
-4.786708069742701
 31
0.0
 11
41.67052197151997
 21
-4.779501142555886
 31
0.0
 11
41.6707111371523
 21
-4.77054978807314
 31
0.0
 11
41.67100585874504
 21
-4.761639842634338
 31
0.0
 11
41.67139653022298
 21
-4.752922906194157
 31
0.0
 11
41.67186922601951
 21
-4.744567877856297
 31
0.0
 11
41.67240671693861
 21
-4.736733707325242
 31
0.0
 11
41.67298975925314
 21
-4.729556582947907
 31
0.0
 11
41.67359697054957
 21
-4.723156607814473
 31
0.0
 11
41.67422207508889
 21
-4.71741395609257
 31
0.0
 11
41.67484999228219
 21
-4.712140009675124
 31
0.0
 11
41.67548024883308
 21
-4.707256518746476
 31
0.0
 11
41.67731001820311
 21
-4.692413618798525
 31
0.0
 11
41.67779333007615
 21
-4.689192053171552
 31
0.0
 11
41.67811393169813
 21
-4.687200962085853
 31
0.0
 11
41.67830201405377
 21
-4.686111439163425
 31
0.0
 11
41.67834873726912
 21
-4.685856535230925
 31
0.0
  0
SPLINE
  5
1A6
330
2
100
AcDbEntity
  8
GAIKEI
  6
Continuous
 62
     7
100
AcDbSpline
210
0.0
220
0.0
230
1.0
 70
     8
 71
     3
 72
    24
 73
    20
 74
    18
 42
0.0000000001
 43
0.0000000001
 44
0.000001
 12
-0.6450891826635058
 22
0.764107287238206
 32
0.0
 13
-0.6426010606713997
 23
0.7662009376292831
 33
0.0
 40
0.0
 40
0.0
 40
0.0
 40
0.0
 40
0.1279172834885418
 40
0.2554857142357851
 40
0.3827436792159488
 40
0.5097301885678475
 40
0.6364847985758504
 40
0.7630456544739852
 40
0.9616300444448327
 40
1.159970670116569
 40
1.358188676903859
 40
1.54739082842433
 40
1.736690393909553
 40
1.926182773689498
 40
2.115963864905431
 40
2.265343010524392
 40
2.415007555575902
 40
2.565005854690993
 40
2.695047218680627
 40
2.695047218680627
 40
2.695047218680627
 40
2.695047218680627
 10
41.32429939065628
 20
23.37832384812327
 30
0.0
 10
41.29679337203822
 20
23.41090469094904
 30
0.0
 10
41.24187419790468
 20
23.47599259300834
 30
0.0
 10
41.15964390843433
 20
23.57353822410357
 30
0.0
 10
41.07767143465764
 20
23.67089537686561
 30
0.0
 10
40.99593700152198
 20
23.76809829412334
 30
0.0
 10
40.91441227536529
 20
23.86517391247179
 30
0.0
 10
40.81760726561407
 20
23.9805826610403
 30
0.0
 10
40.70556316779749
 20
24.11435385648053
 30
0.0
 10
40.57827292408592
 20
24.2665123948474
 30
0.0
 10
40.45304980484684
 20
24.41632273358596
 30
0.0
 10
40.32977840618116
 20
24.56383661199737
 30
0.0
 10
40.20836023430137
 20
24.7091087490178
 30
0.0
 10
40.08678644967154
 20
24.85450232996523
 30
0.0
 10
39.97370377612765
 20
24.98965014258178
 30
0.0
 10
39.86910203324644
 20
25.11458388125885
 30
0.0
 10
39.77298138263052
 20
25.22932324705036
 30
0.0
 10
39.68097185582832
 20
25.33909772910185
 30
0.0
 10
39.6209956424731
 20
25.41062697605766
 30
0.0
 10
39.59314073632948
 20
25.44383958106414
 30
0.0
 11
41.32429939065628
 21
23.37832384812327
 31
0.0
 11
41.24180584221216
 21
23.47608707129422
 31
0.0
 11
41.15958611254444
 21
23.57362486179977
 31
0.0
 11
41.07762297137725
 21
23.6709728631522
 31
0.0
 11
40.99589653525884
 21
23.76816526809398
 31
0.0
 11
40.91437951822825
 21
23.86523074923792
 31
0.0
 11
40.83304424314497
 21
23.96219581587866
 31
0.0
 11
40.70552539343577
 21
24.11442823833465
 31
0.0
 11
40.57825766644464
 21
24.26655298182561
 31
0.0
 11
40.45112649618852
 21
24.41863200360831
 31
0.0
 11
40.32979801894038
 21
24.56381069538736
 31
0.0
 11
40.20839691521996
 21
24.70905564919736
 31
0.0
 11
40.08684092816861
 21
24.85442243884796
 31
0.0
 11
39.96505389698967
 21
24.99997236620709
 31
0.0
 11
39.86915857330536
 21
25.11450714667706
 31
0.0
 11
39.77304867337648
 21
25.22923448916742
 31
0.0
 11
39.67669556843998
 21
25.34419347693211
 31
0.0
 11
39.59314073632948
 21
25.44383958106414
 31
0.0
  0
SPLINE
  5
1A7
330
2
100
AcDbEntity
  8
GAIKEI
  6
Continuous
 62
     1
100
AcDbSpline
210
0.0
220
0.0
230
1.0
 70
     8
 71
     3
 72
    25
 73
    21
 74
    19
 42
0.0000000001
 43
0.0000000001
 44
0.000001
 12
0.6426013748113089
 22
0.7662006741648142
 32
0.0
 13
0.6450872868150431
 23
0.7641088877834143
 33
0.0
 40
0.0
 40
0.0
 40
0.0
 40
0.0
 40
0.1326317859703268
 40
0.2853164647643686
 40
0.437657623649872
 40
0.5897066217165989
 40
0.7415140041421128
 40
0.9400270843770522
 40
1.138322514449763
 40
1.336512972729854
 40
1.487863052283618
 40
1.639279180542459
 40
1.790817643098574
 40
1.942535579609289
 40
2.094494994475092
 40
2.214104019007496
 40
2.333933796202126
 40
2.454016354398273
 40
2.574382521159546
 40
2.695062719916482
 40
2.695062719916482
 40
2.695062719916482
 40
2.695062719916482
 10
39.59313078482125
 20
-8.205590718594521
 30
0.0
 10
39.62154057415734
 20
-8.171716530652474
 30
0.0
 10
39.68264682603723
 20
-8.098839373648253
 30
0.0
 10
39.77635875101851
 20
-7.987032558751764
 30
0.0
 10
39.87419766441312
 20
-7.87023961076364
 30
0.0
 10
39.97181567681415
 20
-7.753643101739584
 30
0.0
 10
40.07927834622623
 20
-7.625216272773855
 30
0.0
 10
40.19658984009888
 20
-7.484930244029172
 30
0.0
 10
40.32378188779546
 20
-7.332752196757709
 30
0.0
 10
40.44087868411907
 20
-7.192625543827453
 30
0.0
 10
40.54796940398779
 20
-7.064501565742929
 30
0.0
 10
40.6451192072235
 20
-6.948335983876582
 30
0.0
 10
40.74238949274664
 20
-6.832111323878407
 30
0.0
 10
40.83983867623948
 20
-6.715800259563295
 30
0.0
 10
40.93052562229542
 20
-6.607708586805941
 30
0.0
 10
41.01444506235558
 20
-6.507814015383694
 30
0.0
 10
41.09158442811474
 20
-6.416101124818652
 30
0.0
 10
41.168942364787
 20
-6.324242319290249
 30
0.0
 10
41.24653340814655
 20
-6.232209246476678
 30
0.0
 10
41.29834963666013
 20
-6.170800722734973
 30
0.0
 10
41.32429939065628
 20
-6.140063118585089
 30
0.0
 11
39.59313078482125
 21
-8.205590718594521
 31
0.0
 11
39.67834986872004
 21
-8.103959532069382
 31
0.0
 11
39.77642794557846
 21
-7.986941149162475
 31
0.0
 11
39.87425543409006
 21
-7.870160966285425
 31
0.0
 11
39.97186279726077
 21
-7.753577518239865
 31
0.0
 11
40.06928296401741
 21
-7.637152468084877
 31
0.0
 11
40.19663086534876
 21
-7.48486998527926
 31
0.0
 11
40.32380268457695
 21
-7.332723986191808
 31
0.0
 11
40.45089446900351
 21
-7.180647907618038
 31
0.0
 11
40.54796135871953
 21
-7.064523578529701
 31
0.0
 11
40.64509918264696
 21
-6.948372521876478
 31
0.0
 11
40.74236074290354
 21
-6.832165303351303
 31
0.0
 11
40.83979927690262
 21
-6.715872280998439
 31
0.0
 11
40.93746974120546
 21
-6.599458599448098
 31
0.0
 11
41.01440603843889
 21
-6.50787734954315
 31
0.0
 11
41.09153874430882
 21
-6.416172815889865
 31
0.0
 11
41.16888908762155
 21
-6.324321058405701
 31
0.0
 11
41.24647158855703
 21
-6.232294053420275
 31
0.0
 11
41.32429939065628
 21
-6.140063118585089
 31
0.0
  0
SPLINE
  5
1A8
330
2
100
AcDbEntity
  8
GAIKEI
  6
Continuous
 62
     7
100
AcDbSpline
210
0.0
220
0.0
230
1.0
 70
     8
 71
     3
 72
     9
 73
     5
 74
     3
 42
0.0000000001
 43
0.0000000001
 44
0.000001
 12
0.0384362357486041
 22
-0.9992610548707869
 32
0.0
 13
-0.0923148581174367
 23
-0.995729866465176
 33
0.0
 40
0.0
 40
0.0
 40
0.0
 40
0.0
 40
0.0028425387675167
 40
0.0039161070031314
 40
0.0039161070031314
 40
0.0039161070031314
 40
0.0039161070031314
 10
39.48834860334648
 20
-9.424266736408867
 30
0.0
 10
39.48838502217654
 20
-9.425213549171317
 30
0.0
 10
39.48837327904056
 20
-9.426521526930137
 30
0.0
 10
39.48827620809621
 20
-9.427823426975628
 30
0.0
 10
39.48824317266309
 20
-9.428179754960922
 30
0.0
 11
39.48834860334648
 21
-9.424266736408867
 31
0.0
 11
39.48832307895532
 21
-9.427109311141691
 31
0.0
 11
39.48824317266309
 21
-9.428179754960922
 31
0.0
  0
SPLINE
  5
1A9
330
2
100
AcDbEntity
  8
GAIKEI
  6
Continuous
 62
     7
100
AcDbSpline
210
0.0
220
0.0
230
1.0
 70
     8
 71
     3
 72
    14
 73
    10
 74
     8
 42
0.0000000001
 43
0.0000000001
 44
0.000001
 12
0.1947808622282301
 22
0.9808467850330282
 32
0.0
 13
0.0153479363363905
 23
0.9998822134882757
 33
0.0
 40
0.0
 40
0.0
 40
0.0
 40
0.0
 40
0.0013591386716992
 40
0.0035651883618917
 40
0.0052671280297612
 40
0.006666679763429
 40
0.0078708380490388
 40
0.0090561891698571
 40
0.0104212077209439
 40
0.0104212077209439
 40
0.0104212077209439
 40
0.0104212077209439
 10
39.48728512926465
 20
-9.437746134384212
 30
0.0
 10
39.48737337399876
 20
-9.437301765452026
 30
0.0
 10
39.48758760416064
 20
-9.436132691591261
 30
0.0
 10
39.48784652533965
 20
-9.434395605246983
 30
0.0
 10
39.48803961120066
 20
-9.432636674988174
 30
0.0
 10
39.48815450943084
 20
-9.43120591311392
 30
0.0
 10
39.48822673924286
 20
-9.429944863934721
 30
0.0
 10
39.48827365912723
 20
-9.428694193409775
 30
0.0
 10
39.488295368233
 20
-9.427844306625587
 30
0.0
 10
39.48830235163894
 20
-9.427389354035483
 30
0.0
 11
39.48728512926465
 21
-9.437746134384212
 31
0.0
 11
39.48753204899004
 21
-9.436409390449796
 31
0.0
 11
39.48785639192244
 21
-9.43422730084103
 31
0.0
 11
39.48804255675293
 21
-9.432535570476375
 31
0.0
 11
39.48815498708774
 21
-9.431140533982386
 31
0.0
 11
39.48822411022417
 21
-9.429938343806497
 31
0.0
 11
39.48827020476949
 21
-9.428753804902157
 31
0.0
 11
39.48830235163894
 21
-9.427389354035483
 31
0.0
  0
LINE
  5
1AA
330
2
100
AcDbEntity
  8
GAIKEI
  6
Continuous
 62
     1
100
AcDbLine
 10
39.87486453726916
 20
25.10769206476908
 30
0.0
 11
41.07952938726913
 21
25.0656242647691
 31
0.0
  0
LINE
  5
1AB
330
2
100
AcDbEntity
  8
GAIKEI
  6
Continuous
 62
     1
100
AcDbLine
 10
40.73483298726915
 20
24.82785176476909
 30
0.0
 11
40.09023663726913
 21
24.85036156476906
 31
0.0
  0
LINE
  5
1AC
330
2
100
AcDbEntity
  8
GAIKEI
  6
Continuous
 62
     1
100
AcDbLine
 10
41.07952938726913
 20
25.0656242647691
 30
0.0
 11
41.3090968872691
 21
23.39634031476908
 31
0.0
  0
LINE
  5
1AD
330
2
100
AcDbEntity
  8
GAIKEI
  6
Continuous
 62
     1
100
AcDbLine
 10
41.57292133726912
 20
23.06691186476911
 30
0.0
 11
41.32017668726916
 21
24.90472656476914
 31
0.0
  0
LINE
  5
1AE
330
2
100
AcDbEntity
  8
GAIKEI
  6
Continuous
 62
     1
100
AcDbLine
 10
41.00879573726911
 20
23.76872406476912
 30
0.0
 11
40.89996778726913
 21
24.56005856476906
 31
0.0
  0
LINE
  5
1AF
330
2
100
AcDbEntity
  8
GAIKEI
  6
Continuous
 62
     1
100
AcDbLine
 10
39.54333998726912
 20
25.52131416476908
 30
0.0
 11
39.54261328726915
 21
25.51792296476913
 31
0.0
  0
LINE
  5
1B0
330
2
100
AcDbEntity
  8
GAIKEI
  6
Continuous
 62
     1
100
AcDbLine
 10
41.04691818726917
 20
25.19911881476912
 30
0.0
 11
39.54333998726912
 21
25.52131416476908
 31
0.0
  0
ARC
  5
1B1
330
2
100
AcDbEntity
  8
GAIKEI
  6
Continuous
 62
     1
100
AcDbCircle
 10
40.97365288726916
 20
24.85709601476913
 30
0.0
 40
0.34978195
100
AcDbArc
 50
7.826403999997514
 51
77.90929700000479
  0
ARC
  5
1B2
330
2
100
AcDbEntity
  8
GAIKEI
  6
Continuous
 62
     1
100
AcDbCircle
 10
39.53286353726912
 20
25.47242401476911
 30
0.0
 40
0.05
100
AcDbArc
 50
77.90524300000484
 51
81.20675999999384
  0
ELLIPSE
  5
1B3
330
2
100
AcDbEntity
  8
GAIKEI
  6
Continuous
 62
     1
100
AcDbEllipse
 10
40.72960523726914
 20
24.67814856476912
 30
0.0
 11
-0.1113231012696504
 21
0.100534407660774
 31
0.0
210
0.0
220
0.0
230
1.0
 40
0.997662000000159
 41
4.013930599304742
 42
5.410847361485449
  0
LINE
  5
1B4
330
2
100
AcDbEntity
  8
GAIKEI
  6
Continuous
 62
     1
100
AcDbLine
 10
39.59729993726916
 20
-8.834634885230912
 30
0.0
 11
39.59729993726916
 21
-8.820869635230906
 31
0.0
  0
LINE
  5
1B5
330
2
100
AcDbEntity
  8
GAIKEI
  6
Continuous
 62
     1
100
AcDbLine
 10
39.59729993726916
 20
-8.820869635230906
 30
0.0
 11
39.56557083726915
 21
-8.820869635230906
 31
0.0
  0
ARC
  5
1B6
330
2
100
AcDbEntity
  8
GAIKEI
  6
Continuous
 62
     1
100
AcDbCircle
 10
39.59729993726916
 20
-8.885869635230903
 30
0.0
 40
0.065
100
AcDbArc
 50
16.60154999999833
 51
90.0
  0
ARC
  5
1B7
330
2
100
AcDbEntity
  8
GAIKEI
  6
Continuous
 62
     1
100
AcDbCircle
 10
39.59729993726916
 20
-9.105869635230874
 30
0.0
 40
0.065
100
AcDbArc
 50
299.0713460000007
 51
343.3984500000017
  0
ARC
  5
1B8
330
2
100
AcDbEntity
  8
GAIKEI
  6
Continuous
 62
     1
100
AcDbCircle
 10
39.22834873726913
 20
-8.995869635230917
 30
0.0
 40
0.45
100
AcDbArc
 50
343.3984500000017
 51
0.0
  0
ARC
  5
1B9
330
2
100
AcDbEntity
  8
GAIKEI
  6
Continuous
 62
     1
100
AcDbCircle
 10
39.22834873726913
 20
-8.995869635230917
 30
0.0
 40
0.45
100
AcDbArc
 50
0.0
 51
16.60154999999833
  0
LINE
  5
1BA
330
2
100
AcDbEntity
  8
GAIKEI
  6
Continuous
 62
     1
100
AcDbLine
 10
39.55729993726914
 20
-8.820869635230906
 30
0.0
 11
39.52584873726915
 21
-8.820869635230906
 31
0.0
  0
LINE
  5
1BB
330
2
100
AcDbEntity
  8
GAIKEI
  6
Continuous
 62
     1
100
AcDbLine
 10
39.52584873726915
 20
-9.170869635230872
 30
0.0
 11
39.55729993726914
 21
-9.170869635230872
 31
0.0
  0
ARC
  5
1BC
330
2
100
AcDbEntity
  8
GAIKEI
  6
Continuous
 62
     1
100
AcDbCircle
 10
39.55729993726914
 20
-8.885869635230903
 30
0.0
 40
0.065
100
AcDbArc
 50
16.60154999999833
 51
90.0
  0
ARC
  5
1BD
330
2
100
AcDbEntity
  8
GAIKEI
  6
Continuous
 62
     1
100
AcDbCircle
 10
39.55729993726914
 20
-9.105869635230874
 30
0.0
 40
0.065
100
AcDbArc
 50
270.0
 51
343.3984500000017
  0
ARC
  5
1BE
330
2
100
AcDbEntity
  8
GAIKEI
  6
Continuous
 62
     1
100
AcDbCircle
 10
39.18834873726917
 20
-8.995869635230917
 30
0.0
 40
0.45
100
AcDbArc
 50
343.3984500000017
 51
0.0
  0
ARC
  5
1BF
330
2
100
AcDbEntity
  8
GAIKEI
  6
Continuous
 62
     1
100
AcDbCircle
 10
39.18834873726917
 20
-8.995869635230917
 30
0.0
 40
0.45
100
AcDbArc
 50
0.0
 51
16.60154999999833
  0
LINE
  5
1C0
330
2
100
AcDbEntity
  8
GAIKEI
  6
Continuous
 62
     1
100
AcDbLine
 10
39.55729993726914
 20
26.46663036476912
 30
0.0
 11
39.52584873726915
 21
26.46663036476912
 31
0.0
  0
LINE
  5
1C1
330
2
100
AcDbEntity
  8
GAIKEI
  6
Continuous
 62
     1
100
AcDbLine
 10
39.52584873726915
 20
26.1166303647691
 30
0.0
 11
39.55729993726914
 21
26.1166303647691
 31
0.0
  0
ARC
  5
1C2
330
2
100
AcDbEntity
  8
GAIKEI
  6
Continuous
 62
     1
100
AcDbCircle
 10
39.55729993726914
 20
26.40163036476906
 30
0.0
 40
0.065
100
AcDbArc
 50
16.60154999999833
 51
90.0
  0
ARC
  5
1C3
330
2
100
AcDbEntity
  8
GAIKEI
  6
Continuous
 62
     1
100
AcDbCircle
 10
39.55729993726914
 20
26.18163036476909
 30
0.0
 40
0.065
100
AcDbArc
 50
270.0
 51
343.3984500000017
  0
ARC
  5
1C4
330
2
100
AcDbEntity
  8
GAIKEI
  6
Continuous
 62
     1
100
AcDbCircle
 10
39.18834873726917
 20
26.2916303647691
 30
0.0
 40
0.45
100
AcDbArc
 50
343.3984500000017
 51
0.0
  0
ARC
  5
1C5
330
2
100
AcDbEntity
  8
GAIKEI
  6
Continuous
 62
     1
100
AcDbCircle
 10
39.18834873726917
 20
26.2916303647691
 30
0.0
 40
0.45
100
AcDbArc
 50
0.0
 51
16.60154999999833
  0
LINE
  5
1C6
330
2
100
AcDbEntity
  8
GAIKEI
  6
Continuous
 62
     1
100
AcDbLine
 10
39.61959043726916
 20
-9.199441085230887
 30
0.0
 11
39.61959043726916
 21
-9.124441085230898
 31
0.0
  0
LINE
  5
1C7
330
2
100
AcDbEntity
  8
GAIKEI
  6
Continuous
 62
     1
100
AcDbLine
 10
39.55729993726914
 20
-9.245869635230917
 30
0.0
 11
39.55729993726914
 21
-9.170869635230872
 31
0.0
  0
LINE
  5
1C8
330
2
100
AcDbEntity
  8
GAIKEI
  6
Continuous
 62
     1
100
AcDbLine
 10
39.52584873726915
 20
-9.245869635230917
 30
0.0
 11
39.55729993726914
 21
-9.245869635230917
 31
0.0
  0
ARC
  5
1C9
330
2
100
AcDbEntity
  8
GAIKEI
  6
Continuous
 62
     1
100
AcDbCircle
 10
39.55729993726914
 20
-9.180869635230862
 30
0.0
 40
0.065
100
AcDbArc
 50
270.0
 51
343.3984500000017
  0
ARC
  5
1CA
330
2
100
AcDbEntity
  8
GAIKEI
  6
Continuous
 62
     1
100
AcDbCircle
 10
39.18834873726917
 20
-9.070869635230906
 30
0.0
 40
0.45
100
AcDbArc
 50
343.3984500000017
 51
0.0
  0
ARC
  5
1CB
330
2
100
AcDbEntity
  8
GAIKEI
  6
Continuous
 62
     1
100
AcDbCircle
 10
39.18834873726917
 20
-9.070869635230906
 30
0.0
 40
0.45
100
AcDbArc
 50
0.0
 51
4.780191999998843
  0
ARC
  5
1CC
330
2
100
AcDbEntity
  8
GAIKEI
  6
Continuous
 62
     1
100
AcDbCircle
 10
39.48635338726916
 20
-8.586885585230902
 30
0.0
 40
0.05
100
AcDbArc
 50
16.25702800000192
 51
37.82319200000003
  0
ARC
  5
1CD
330
2
100
AcDbEntity
  8
GAIKEI
  6
Continuous
 62
     1
100
AcDbCircle
 10
39.52635338726913
 20
-8.621885585230927
 30
0.0
 40
0.05
100
AcDbArc
 50
16.25702800000192
 51
80.92142900000551
  0
ARC
  5
1CE
330
2
100
AcDbEntity
  8
GAIKEI
  6
Continuous
 62
     1
100
AcDbCircle
 10
39.52635338726913
 20
-8.789853685230866
 30
0.0
 40
0.05
100
AcDbArc
 50
320.9555469999992
 51
343.7429719999981
  0
ARC
  5
1CF
330
2
100
AcDbEntity
  8
GAIKEI
  6
Continuous
 62
     1
100
AcDbCircle
 10
39.23834873726912
 20
-8.705869635230897
 30
0.0
 40
0.35
100
AcDbArc
 50
343.7429719999981
 51
0.0
  0
ARC
  5
1D0
330
2
100
AcDbEntity
  8
GAIKEI
  6
Continuous
 62
     1
100
AcDbCircle
 10
39.23834873726912
 20
-8.705869635230897
 30
0.0
 40
0.35
100
AcDbArc
 50
0.0
 51
16.25702800000192
  0
LINE
  5
1D1
330
2
100
AcDbEntity
  8
GAIKEI
  6
Continuous
 62
     1
100
AcDbLine
 10
41.68834873726916
 20
-4.058369635230917
 30
0.0
 11
41.73071118726915
 21
-4.054663385230867
 31
0.0
  0
LINE
  5
1D2
330
2
100
AcDbEntity
  8
GAIKEI
  6
Continuous
 62
     1
100
AcDbLine
 10
41.73071118726915
 20
-3.787075885230876
 30
0.0
 11
41.68834873726916
 21
-3.783369635230883
 31
0.0
  0
LINE
  5
1D3
330
2
100
AcDbEntity
  8
GAIKEI
  6
Continuous
 62
     1
100
AcDbLine
 10
41.67834873726912
 20
-4.055869635230862
 30
0.0
 11
41.68834873726916
 21
-4.055869635230862
 31
0.0
  0
LINE
  5
1D4
330
2
100
AcDbEntity
  8
GAIKEI
  6
Continuous
 62
     1
100
AcDbLine
 10
41.68834873726916
 20
-3.785869635230881
 30
0.0
 11
41.67834873726912
 21
-3.785869635230881
 31
0.0
  0
ARC
  5
1D5
330
2
100
AcDbEntity
  8
GAIKEI
  6
Continuous
 62
     1
100
AcDbCircle
 10
41.72635338726911
 20
-3.836885585230902
 30
0.0
 40
0.05
100
AcDbArc
 50
16.25702800000192
 51
84.99999900000409
  0
ARC
  5
1D6
330
2
100
AcDbEntity
  8
GAIKEI
  6
Continuous
 62
     1
100
AcDbCircle
 10
41.72635338726911
 20
-4.004853685230898
 30
0.0
 40
0.05
100
AcDbArc
 50
275.0000009999959
 51
343.7429719999981
  0
ARC
  5
1D7
330
2
100
AcDbEntity
  8
GAIKEI
  6
Continuous
 62
     1
100
AcDbCircle
 10
41.43834873726916
 20
-3.920869635230872
 30
0.0
 40
0.35
100
AcDbArc
 50
343.7429719999981
 51
0.0
  0
ARC
  5
1D8
330
2
100
AcDbEntity
  8
GAIKEI
  6
Continuous
 62
     1
100
AcDbCircle
 10
41.43834873726916
 20
-3.920869635230872
 30
0.0
 40
0.35
100
AcDbArc
 50
0.0
 51
16.25702800000192
  0
LINE
  5
1D9
330
2
100
AcDbEntity
  8
GAIKEI
  6
Continuous
 62
     1
100
AcDbLine
 10
41.65334873726914
 20
-6.070869635230906
 30
0.0
 11
41.65334873726914
 21
-5.632792835230873
 31
0.0
  0
LINE
  5
1DA
330
2
100
AcDbEntity
  8
GAIKEI
  6
Continuous
 62
     1
100
AcDbLine
 10
41.6283487372691
 20
-6.070869635230906
 30
0.0
 11
41.65334873726914
 21
-6.070869635230906
 31
0.0
  0
LINE
  5
1DB
330
2
100
AcDbEntity
  8
GAIKEI
  6
Continuous
 62
     1
100
AcDbLine
 10
41.68834873726916
 20
-5.958369635230894
 30
0.0
 11
41.73071118726915
 21
-5.954663385230901
 31
0.0
  0
LINE
  5
1DC
330
2
100
AcDbEntity
  8
GAIKEI
  6
Continuous
 62
     1
100
AcDbLine
 10
41.73071118726915
 20
-5.68707588523091
 30
0.0
 11
41.65334873726914
 21
-5.680307518899098
 31
0.0
  0
LINE
  5
1DD
330
2
100
AcDbEntity
  8
GAIKEI
  6
Continuous
 62
     1
100
AcDbLine
 10
41.65334873726914
 20
-5.955869635230897
 30
0.0
 11
41.68834873726916
 21
-5.955869635230897
 31
0.0
  0
ARC
  5
1DE
330
2
100
AcDbEntity
  8
GAIKEI
  6
Continuous
 62
     1
100
AcDbCircle
 10
41.72635338726911
 20
-5.736885585230879
 30
0.0
 40
0.05
100
AcDbArc
 50
16.25702800000192
 51
84.99999900000409
  0
ARC
  5
1DF
330
2
100
AcDbEntity
  8
GAIKEI
  6
Continuous
 62
     1
100
AcDbCircle
 10
41.72635338726911
 20
-5.904853685230875
 30
0.0
 40
0.05
100
AcDbArc
 50
275.0000009999959
 51
343.7429719999981
  0
ARC
  5
1E0
330
2
100
AcDbEntity
  8
GAIKEI
  6
Continuous
 62
     1
100
AcDbCircle
 10
41.43834873726916
 20
-5.820869635230906
 30
0.0
 40
0.35
100
AcDbArc
 50
343.7429719999981
 51
0.0
  0
ARC
  5
1E1
330
2
100
AcDbEntity
  8
GAIKEI
  6
Continuous
 62
     1
100
AcDbCircle
 10
41.43834873726916
 20
-5.820869635230906
 30
0.0
 40
0.35
100
AcDbArc
 50
0.0
 51
16.25702800000192
  0
ARC
  5
1E2
330
2
100
AcDbEntity
  8
GAIKEI
  6
Continuous
 62
     1
100
AcDbCircle
 10
39.48635338726916
 20
-9.154853685230875
 30
0.0
 40
0.05
100
AcDbArc
 50
322.1768079999999
 51
341.3177600000024
  0
LINE
  5
1E3
330
2
100
AcDbEntity
  8
GAIKEI
  6
Continuous
 62
     1
100
AcDbLine
 10
41.23230458726914
 20
-6.249098685230876
 30
0.0
 11
41.23230458726914
 21
-6.473639835230926
 31
0.0
  0
LINE
  5
1E4
330
2
100
AcDbEntity
  8
GAIKEI
  6
Continuous
 62
     1
100
AcDbLine
 10
39.73981263726916
 20
25.57942441476911
 30
0.0
 11
39.58637083726916
 21
25.61203946476911
 31
0.0
  0
LINE
  5
1E5
330
2
100
AcDbEntity
  8
GAIKEI
  6
Continuous
 62
     1
100
AcDbLine
 10
40.06787438726917
 20
-7.638835835230906
 30
0.0
 11
41.46385378726916
 21
-7.130740885230864
 31
0.0
  0
LINE
  5
1E6
330
2
100
AcDbEntity
  8
GAIKEI
  6
Continuous
 62
     1
100
AcDbLine
 10
41.6283487372691
 20
-6.80959138523093
 30
0.0
 11
41.6283487372691
 21
-5.7137909852309
 31
0.0
  0
LINE
  5
1E7
330
2
100
AcDbEntity
  8
GAIKEI
  6
Continuous
 62
     7
100
AcDbLine
 10
41.67841573726912
 20
8.334743039910051
 30
0.0
 11
41.67841573726912
 21
3.957692789910083
 31
0.0
  0
LINE
  5
1E8
330
2
100
AcDbEntity
  8
GAIKEI
  6
Continuous
 62
     7
100
AcDbLine
 10
41.67841573726912
 20
3.957692789910083
 30
0.0
 11
41.67841573726912
 21
-3.110239985230862
 31
0.0
  0
LINE
  5
1E9
330
2
100
AcDbEntity
  8
GAIKEI
  6
Continuous
 62
     1
100
AcDbLine
 10
41.67841573726912
 20
-3.110239985230862
 30
0.0
 11
41.67834873726912
 21
-3.110296235230919
 31
0.0
  0
LINE
  5
1EA
330
2
100
AcDbEntity
  8
GAIKEI
  6
Continuous
 62
     1
100
AcDbLine
 10
41.6283487372691
 20
-6.895817735230878
 30
0.0
 11
41.6283487372691
 21
-6.80959138523093
 31
0.0
  0
LINE
  5
1EB
330
2
100
AcDbEntity
  8
GAIKEI
  6
Continuous
 62
     1
100
AcDbLine
 10
39.78310023726914
 20
25.57022331476912
 30
0.0
 11
39.73937638726915
 21
25.57951711476909
 31
0.0
  0
LINE
  5
1EC
330
2
100
AcDbEntity
  8
GAIKEI
  6
Continuous
 62
     1
100
AcDbLine
 10
41.13462213726916
 20
25.28294851476909
 30
0.0
 11
41.13837363726912
 21
25.28189886476912
 31
0.0
  0
LINE
  5
1ED
330
2
100
AcDbEntity
  8
GAIKEI
  6
Continuous
 62
     1
100
AcDbLine
 10
41.13462213726916
 20
25.28294851476909
 30
0.0
 11
39.78310023726914
 21
25.57022331476912
 31
0.0
  0
LINE
  5
1EE
330
2
100
AcDbEntity
  8
GAIKEI
  6
Continuous
 62
     1
100
AcDbLine
 10
41.1390089872691
 20
25.28197476476908
 30
0.0
 11
41.13830348726913
 21
25.28192961476907
 31
0.0
  0
LINE
  5
1EF
330
2
100
AcDbEntity
  8
GAIKEI
  6
Continuous
 62
     1
100
AcDbLine
 10
41.42062743726916
 20
24.4298601147691
 30
0.0
 11
41.33021123726916
 21
25.07320486476908
 31
0.0
  0
LINE
  5
1F0
330
2
100
AcDbEntity
  8
GAIKEI
  6
Continuous
 62
     1
100
AcDbLine
 10
41.62829153726915
 20
22.95225356476908
 30
0.0
 11
41.42062743726916
 21
24.4298601147691
 31
0.0
  0
LINE
  5
1F1
330
2
100
AcDbEntity
  8
GAIKEI
  6
Continuous
 62
     1
100
AcDbLine
 10
41.68084873726911
 20
-3.156864735230897
 30
0.0
 11
41.68084873726911
 21
-3.122626635230915
 31
0.0
  0
LINE
  5
1F2
330
2
100
AcDbEntity
  8
GAIKEI
  6
Continuous
 62
     1
100
AcDbLine
 10
41.6283487372691
 20
-6.620869635230917
 30
0.0
 11
41.6283487372691
 21
-6.470869635230883
 31
0.0
  0
LINE
  5
1F3
330
2
100
AcDbEntity
  8
GAIKEI
  6
Continuous
 62
     1
100
AcDbLine
 10
41.6283487372691
 20
-6.620869635230917
 30
0.0
 11
41.6283487372691
 21
-6.670869635230872
 31
0.0
  0
LINE
  5
1F4
330
2
100
AcDbEntity
  8
GAIKEI
  6
Continuous
 62
     1
100
AcDbLine
 10
39.70057623726916
 20
-8.297006485230895
 30
0.0
 11
39.73026473726913
 21
-8.295450585230867
 31
0.0
  0
LINE
  5
1F5
330
2
100
AcDbEntity
  8
GAIKEI
  6
Continuous
 62
     1
100
AcDbLine
 10
39.73026473726913
 20
-8.295450585230867
 30
0.0
 11
40.97094188726913
 21
-8.23042943523086
 31
0.0
  0
LINE
  5
1F6
330
2
100
AcDbEntity
  8
GAIKEI
  6
Continuous
 62
     1
100
AcDbLine
 10
41.68084873726911
 20
20.54628766476913
 30
0.0
 11
41.68084873726911
 21
21.01532186476914
 31
0.0
  0
LINE
  5
1F7
330
2
100
AcDbEntity
  8
GAIKEI
  6
Continuous
 62
     1
100
AcDbLine
 10
39.62526473726916
 20
-8.300953385230911
 30
0.0
 11
39.70057623726916
 21
-8.297006485230895
 31
0.0
  0
LINE
  5
1F8
330
2
100
AcDbEntity
  8
GAIKEI
  6
Continuous
 62
     1
100
AcDbLine
 10
41.51584873726915
 20
-7.656217435230871
 30
0.0
 11
41.51584873726915
 21
-7.270869635230837
 31
0.0
  0
LINE
  5
1F9
330
2
100
AcDbEntity
  8
GAIKEI
  6
Continuous
 62
     1
100
AcDbLine
 10
41.68084873726911
 20
2.199403439910042
 30
0.0
 11
41.68084873726911
 21
2.199469889910062
 31
0.0
  0
LINE
  5
1FA
330
2
100
AcDbEntity
  8
GAIKEI
  6
Continuous
 62
     1
100
AcDbLine
 10
41.68084873726911
 20
1.569525589910085
 30
0.0
 11
41.68084873726911
 21
2.199403439910042
 31
0.0
  0
LINE
  5
1FB
330
2
100
AcDbEntity
  8
GAIKEI
  6
Continuous
 62
     1
100
AcDbLine
 10
41.68084873726911
 20
-3.1486028852309
 30
0.0
 11
41.68084873726911
 21
-2.99128253523088
 31
0.0
  0
LINE
  5
1FC
330
2
100
AcDbEntity
  8
GAIKEI
  6
Continuous
 62
     1
100
AcDbLine
 10
41.68084873726911
 20
-2.99128253523088
 30
0.0
 11
41.68084873726911
 21
-2.986673635230886
 31
0.0
  0
LINE
  5
1FD
330
2
100
AcDbEntity
  8
GAIKEI
  6
Continuous
 62
     1
100
AcDbLine
 10
41.68084873726911
 20
1.559054139910074
 30
0.0
 11
41.68084873726911
 21
1.569525589910085
 31
0.0
  0
LINE
  5
1FE
330
2
100
AcDbEntity
  8
GAIKEI
  6
Continuous
 62
     1
100
AcDbLine
 10
41.68084873726911
 20
-2.986673635230886
 30
0.0
 11
41.68084873726911
 21
0.952392339910034
 31
0.0
  0
LINE
  5
1FF
330
2
100
AcDbEntity
  8
GAIKEI
  6
Continuous
 62
     1
100
AcDbLine
 10
41.68084873726911
 20
1.290488639910051
 30
0.0
 11
41.68084873726911
 21
1.559054139910074
 31
0.0
  0
LINE
  5
200
330
2
100
AcDbEntity
  8
GAIKEI
  6
Continuous
 62
     7
100
AcDbLine
 10
41.67834873726912
 20
14.58739833991006
 30
0.0
 11
41.67834873726912
 21
8.889148099833107
 31
0.0
  0
LINE
  5
201
330
2
100
AcDbEntity
  8
GAIKEI
  6
Continuous
 62
     1
100
AcDbLine
 10
41.68084873726911
 20
20.12491326476908
 30
0.0
 11
41.68084873726911
 21
20.5841587147691
 31
0.0
  0
LINE
  5
202
330
2
100
AcDbEntity
  8
GAIKEI
  6
Continuous
 62
     7
100
AcDbLine
 10
41.68084873726911
 20
14.97565758991004
 30
0.0
 11
41.68084873726911
 21
15.01877848991006
 31
0.0
  0
LINE
  5
203
330
2
100
AcDbEntity
  8
GAIKEI
  6
Continuous
 62
     1
100
AcDbLine
 10
41.68084873726911
 20
20.08179236476906
 30
0.0
 11
41.68084873726911
 21
20.12491326476908
 31
0.0
  0
LINE
  5
204
330
2
100
AcDbEntity
  8
GAIKEI
  6
Continuous
 62
     7
100
AcDbLine
 10
41.68084873726911
 20
15.14339628991007
 30
0.0
 11
41.68084873726911
 21
15.01877848991006
 31
0.0
  0
LINE
  5
205
330
2
100
AcDbEntity
  8
GAIKEI
  6
Continuous
 62
     1
100
AcDbLine
 10
41.68084873726911
 20
15.95234308991007
 30
0.0
 11
41.68084873726911
 21
15.14339628991007
 31
0.0
  0
LINE
  5
206
330
2
100
AcDbEntity
  8
GAIKEI
  6
Continuous
 62
     1
100
AcDbLine
 10
41.68084873726911
 20
-3.1486028852309
 30
0.0
 11
41.68084873726911
 21
-2.99128253523088
 31
0.0
  0
LINE
  5
207
330
2
100
AcDbEntity
  8
GAIKEI
  6
Continuous
 62
     1
100
AcDbLine
 10
41.68084873726911
 20
-2.986673635230886
 30
0.0
 11
41.68084873726911
 21
0.952392339910034
 31
0.0
  0
LINE
  5
208
330
2
100
AcDbEntity
  8
GAIKEI
  6
Continuous
 62
     1
100
AcDbLine
 10
41.68084873726911
 20
1.290488639910051
 30
0.0
 11
41.68084873726911
 21
1.559054139910074
 31
0.0
  0
ARC
  5
209
330
2
100
AcDbEntity
  8
GAIKEI
  6
Continuous
 62
     1
100
AcDbCircle
 10
39.63834873726916
 20
25.85657636476913
 30
0.0
 40
0.25
100
AcDbArc
 50
243.2563159999966
 51
257.999999999997
  0
ARC
  5
20A
330
2
100
AcDbEntity
  8
GAIKEI
  6
Continuous
 62
     1
100
AcDbCircle
 10
41.37834873726911
 20
-6.895817735230878
 30
0.0
 40
0.25
100
AcDbArc
 50
290.0000000000034
 51
0.0
  0
ARC
  5
20B
330
2
100
AcDbEntity
  8
GAIKEI
  6
Continuous
 62
     1
100
AcDbCircle
 10
41.08264423726916
 20
25.03841161476908
 30
0.0
 40
0.25
100
AcDbArc
 50
8.000000000000873
 51
76.97098900000298
  0
ARC
  5
20C
330
2
100
AcDbEntity
  8
GAIKEI
  6
Continuous
 62
     1
100
AcDbCircle
 10
41.53084873726913
 20
-3.156864735230897
 30
0.0
 40
0.15
100
AcDbArc
 50
349.524713000003
 51
0.0
  0
ARC
  5
20D
330
2
100
AcDbEntity
  8
GAIKEI
  6
Continuous
 62
     1
100
AcDbCircle
 10
41.53084873726913
 20
-3.156879485230888
 30
0.0
 40
0.15
100
AcDbArc
 50
349.5246860000031
 51
0.0
  0
ARC
  5
20E
330
2
100
AcDbEntity
  8
GAIKEI
  6
Continuous
 62
     1
100
AcDbCircle
 10
41.08264423726916
 20
25.03841161476908
 30
0.0
 40
0.25
100
AcDbArc
 50
8.000000000000873
 51
9.618225999999451
  0
ARC
  5
20F
330
2
100
AcDbEntity
  8
GAIKEI
  6
Continuous
 62
     1
100
AcDbCircle
 10
39.63834873726916
 20
-8.550610785230901
 30
0.0
 40
0.25
100
AcDbArc
 50
93.00000000000558
 51
101.6320760000017
  0
ARC
  5
210
330
2
100
AcDbEntity
  8
GAIKEI
  6
Continuous
 62
     1
100
AcDbCircle
 10
40.9408487372691
 20
-7.656217435230871
 30
0.0
 40
0.5750000000000001
100
AcDbArc
 50
273.0000000000056
 51
0.0
  0
ARC
  5
211
330
2
100
AcDbEntity
  8
GAIKEI
  6
Continuous
 62
     1
100
AcDbCircle
 10
40.94263373726914
 20
-7.659118685230907
 30
0.0
 40
0.57159935
100
AcDbArc
 50
298.277253
 51
304.9271009999994
  0
ELLIPSE
  5
212
330
2
100
AcDbEntity
  8
GAIKEI
  6
Continuous
 62
     1
100
AcDbEllipse
 10
41.37834873726916
 20
-6.363728885230898
 30
0.0
 11
-0.0848044079948102
 21
0.767177052496921
 31
0.0
210
0.0
220
0.0
230
1.0
 40
0.0616449999999753
 41
3.15661004303882
 42
3.73389512968818
  0
ELLIPSE
  5
213
330
2
100
AcDbEntity
  8
GAIKEI
  6
Continuous
 62
     1
100
AcDbEllipse
 10
41.43084873726917
 20
-3.110239985230862
 30
0.0
 11
-0.2210674003015577
 21
0.1217678606273331
 31
0.0
210
0.0
220
0.0
230
1.0
 40
0.9249590000073467
 41
3.542915323544484
 42
3.678700396373161
  0
ELLIPSE
  5
214
330
2
100
AcDbEntity
  8
GAIKEI
  6
Continuous
 62
     1
100
AcDbEllipse
 10
41.43084873726917
 20
-3.110239985230862
 30
0.0
 11
-0.2499505998823104
 21
0.0141361910263936
 31
0.0
210
0.0
220
0.0
230
1.0
 40
0.3515569999918309
 41
3.161472642457675
 42
3.30109898262038
  0
ELLIPSE
  5
215
330
2
100
AcDbEntity
  8
GAIKEI
  6
Continuous
 62
     1
100
AcDbEllipse
 10
41.53084873726913
 20
-3.122626635230915
 30
0.0
 11
0.1500000000000057
 21
0.0000000000002912
 31
0.0
210
0.0
220
0.0
230
1.0
 40
0.75021000000489
 41
-0.1853190537477316
 42
-0.0000000000025875
  0
ELLIPSE
  5
216
330
2
100
AcDbEntity
  8
GAIKEI
  6
Continuous
 62
     1
100
AcDbEllipse
 10
40.94084873726916
 20
-7.656217435230871
 30
0.0
 11
-0.0300931748396614
 21
0.5742119824838828
 31
0.0
210
0.0
220
0.0
230
1.0
 40
0.7162020000000488
 41
3.141592653589866
 42
4.415633639596251
  0
LINE
  5
217
330
2
100
AcDbEntity
  8
GAIKEI
  6
Continuous
 62
     1
100
AcDbLine
 10
41.66446993726913
 20
-6.670869635230872
 30
0.0
 11
41.6283487372691
 21
-6.670869635230872
 31
0.0
  0
LINE
  5
218
330
2
100
AcDbEntity
  8
GAIKEI
  6
Continuous
 62
     1
100
AcDbLine
 10
41.66578013726916
 20
-6.670869635230872
 30
0.0
 11
41.66446993726913
 21
-6.670869635230872
 31
0.0
  0
LINE
  5
219
330
2
100
AcDbEntity
  8
GAIKEI
  6
Continuous
 62
     1
100
AcDbLine
 10
41.71584873726914
 20
-7.016361135230908
 30
0.0
 11
41.71584873726914
 21
-6.720869635230883
 31
0.0
  0
LINE
  5
21A
330
2
100
AcDbEntity
  8
GAIKEI
  6
Continuous
 62
     1
100
AcDbLine
 10
39.76863513726915
 20
-8.144476435230899
 30
0.0
 11
41.57765213726912
 21
-7.239967935230879
 31
0.0
  0
ARC
  5
21B
330
2
100
AcDbEntity
  8
GAIKEI
  6
Continuous
 62
     1
100
AcDbCircle
 10
39.65683173726916
 20
-7.920869635230872
 30
0.0
 40
0.25
100
AcDbArc
 50
262.4671324998627
 51
296.5650509999959
  0
ARC
  5
21C
330
2
100
AcDbEntity
  8
GAIKEI
  6
Continuous
 62
     1
100
AcDbCircle
 10
41.46584873726914
 20
-7.016361135230908
 30
0.0
 40
0.25
100
AcDbArc
 50
296.5650509999959
 51
0.0
  0
ELLIPSE
  5
21D
330
2
100
AcDbEntity
  8
GAIKEI
  6
Continuous
 62
     1
100
AcDbEllipse
 10
41.66578013726916
 20
-6.720869635230883
 30
0.0
 11
0.0500686172998996
 21
0.0000000000052936
 31
0.0
210
0.0
220
0.0
230
1.0
 40
0.9986299999999392
 41
-0.0000000001058715
 42
1.570796326689314
  0
LINE
  5
21E
330
2
100
AcDbEntity
  8
GAIKEI
  6
Continuous
 62
     7
100
AcDbLine
 10
41.70446993726915
 20
-4.570869635230906
 30
0.0
 11
41.67834873726912
 21
-4.570869635230906
 31
0.0
  0
LINE
  5
21F
330
2
100
AcDbEntity
  8
GAIKEI
  6
Continuous
 62
     7
100
AcDbLine
 10
41.70578013726912
 20
-4.570869635230906
 30
0.0
 11
41.70446993726915
 21
-4.570869635230906
 31
0.0
  0
LINE
  5
220
330
2
100
AcDbEntity
  8
GAIKEI
  6
Continuous
 62
     1
100
AcDbLine
 10
41.75584873726916
 20
-4.916361135230886
 30
0.0
 11
41.75584873726916
 21
-4.620869635230917
 31
0.0
  0
ARC
  5
221
330
2
100
AcDbEntity
  8
GAIKEI
  6
Continuous
 62
     1
100
AcDbCircle
 10
41.50584873726915
 20
-4.916361135230886
 30
0.0
 40
0.25
100
AcDbArc
 50
311.1369879999968
 51
0.0
  0
ELLIPSE
  5
222
330
2
100
AcDbEntity
  8
GAIKEI
  6
Continuous
 62
     1
100
AcDbEllipse
 10
41.70578013726912
 20
-4.620869635230917
 30
0.0
 11
0.0500686172998997
 21
0.0000000000078924
 31
0.0
210
0.0
220
0.0
230
1.0
 40
0.9986299999997967
 41
-0.0000000001578486
 42
1.57079632663748
  0
LINE
  5
223
330
2
100
AcDbEntity
  8
GAIKEI
  6
Continuous
 62
     1
100
AcDbLine
 10
39.69615803726913
 20
-8.408519185230886
 30
0.0
 11
40.57356543726917
 21
-8.362536185230908
 31
0.0
  0
LINE
  5
224
330
2
100
AcDbEntity
  8
GAIKEI
  6
Continuous
 62
     1
100
AcDbLine
 10
41.21110083726915
 20
-8.282548385230882
 30
0.0
 11
41.21319403726914
 21
-8.1626293852309
 31
0.0
  0
LINE
  5
225
330
2
100
AcDbEntity
  8
GAIKEI
  6
Continuous
 62
     1
100
AcDbLine
 10
40.57356543726917
 20
-8.362536185230908
 30
0.0
 11
41.16372523726915
 21
-8.331607235230876
 31
0.0
  0
LINE
  5
226
330
2
100
AcDbEntity
  8
GAIKEI
  6
Continuous
 62
     1
100
AcDbLine
 10
39.69615803726913
 20
-8.408519185230886
 30
0.0
 11
40.70023453726912
 21
-8.355897735230882
 31
0.0
  0
ARC
  5
227
330
2
100
AcDbEntity
  8
GAIKEI
  6
Continuous
 62
     1
100
AcDbCircle
 10
39.70924198726914
 20
-8.658176535230893
 30
0.0
 40
0.25
100
AcDbArc
 50
93.00000000000558
 51
137.1867790000003
  0
ARC
  5
228
330
2
100
AcDbEntity
  8
GAIKEI
  6
Continuous
 62
     1
100
AcDbCircle
 10
41.16110843726914
 20
-8.281675735230862
 30
0.0
 40
0.05
100
AcDbArc
 50
273.0000000000056
 51
358.9999999999982
  0
LINE
  5
229
330
2
100
AcDbEntity
  8
GAIKEI
  6
Continuous
 62
     7
100
AcDbLine
 10
38.44288053726916
 20
-9.475085685230908
 30
0.0
 11
38.44717408726916
 21
-9.475110785230924
 31
0.0
  0
LINE
  5
22A
330
2
100
AcDbEntity
  8
GAIKEI
  6
Continuous
 62
     7
100
AcDbLine
 10
38.44288053726916
 20
-9.475085685230908
 30
0.0
 11
38.44188743726915
 21
-9.474983935230909
 31
0.0
  0
LINE
  5
22B
330
2
100
AcDbEntity
  8
GAIKEI
  6
Continuous
 62
     7
100
AcDbLine
 10
37.57738413726912
 20
-9.386419535230913
 30
0.0
 11
37.50192028726917
 21
-9.378692935230901
 31
0.0
  0
ARC
  5
22C
330
2
100
AcDbEntity
  8
GAIKEI
  6
Continuous
 62
     7
100
AcDbCircle
 10
41.92779003726911
 20
1175.346709164768
 30
0.0
 40
1184.8274414
100
AcDbArc
 50
269.8696709999958
 51
269.8794839999994
  0
ARC
  5
22D
330
2
100
AcDbEntity
  8
GAIKEI
  6
Continuous
 62
     7
100
AcDbCircle
 10
-799.385996512731
 20
-8183.50268273523
 30
0.0
 40
8216.853679149998
100
AcDbArc
 50
84.14769000000196
 51
84.15359199999754
  0
ARC
  5
22E
330
2
100
AcDbEntity
  8
GAIKEI
  6
Continuous
 62
     7
100
AcDbCircle
 10
-794.1179834127309
 20
8149.328079864771
 30
0.0
 40
8165.171627100001
100
AcDbArc
 50
275.8472929999958
 51
275.8523220000004
  0
ELLIPSE
  5
22F
330
2
100
AcDbEntity
  8
GAIKEI
  6
Continuous
 62
     7
100
AcDbEllipse
 10
39.43824403726916
 20
-9.428179735230912
 30
0.0
 11
0.0353550241816267
 21
0.0353550241816267
 31
0.0
210
0.0
220
0.0
230
1.0
 40
0.9999998118927134
 41
3.874615684312717
 42
3.973502160353997
  0
LINE
  5
230
330
2
100
AcDbEntity
  8
GAIKEI
  6
Continuous
 62
     7
100
AcDbLine
 10
38.44179723726916
 20
-9.475040385230897
 30
0.0
 11
38.44200133726912
 21
-9.47505893523089
 31
0.0
  0
LINE
  5
231
330
2
100
AcDbEntity
  8
GAIKEI
  6
Continuous
 62
     7
100
AcDbLine
 10
38.44178523726913
 20
-9.475039135230929
 30
0.0
 11
37.50192893726916
 21
-9.378693935230899
 31
0.0
  0
LINE
  5
232
330
2
100
AcDbEntity
  8
GAIKEI
  6
Continuous
 62
     7
100
AcDbLine
 10
38.44081308726913
 20
-9.474884735230887
 30
0.0
 11
38.44179723726916
 21
-9.475040385230897
 31
0.0
  0
LINE
  5
233
330
2
100
AcDbEntity
  8
GAIKEI
  6
Continuous
 62
     1
100
AcDbLine
 10
38.404806687269
 20
26.7094439836676
 30
0.0
 11
38.40480668726911
 21
-9.271268035230889
 31
0.0
  0
LINE
  5
234
330
2
100
AcDbEntity
  8
GAIKEI
  6
Continuous
 62
     1
100
AcDbLine
 10
37.50224708726916
 20
-9.14268538523089
 30
0.0
 11
37.50224708726916
 21
26.38094611476913
 31
0.0
  0
LINE
  5
235
330
2
100
AcDbEntity
  8
GAIKEI
  6
Continuous
 62
     1
100
AcDbLine
 10
37.44259913726916
 20
26.38096911476907
 30
0.0
 11
37.44264458726912
 21
26.38100381476909
 31
0.0
  0
LINE
  5
236
330
2
100
AcDbEntity
  8
GAIKEI
  6
Continuous
 62
     1
100
AcDbLine
 10
37.44259913726916
 20
-9.142708385230889
 30
0.0
 11
37.44264458726912
 21
-9.142743085230904
 31
0.0
  0
LINE
  5
237
330
2
100
AcDbEntity
  8
GAIKEI
  6
Continuous
 62
     1
100
AcDbLine
 10
37.44264458726912
 20
26.38100381476909
 30
0.0
 11
37.44264458726912
 21
-9.142743085230904
 31
0.0
  0
LINE
  5
238
330
2
100
AcDbEntity
  8
GAIKEI
  6
Continuous
 62
     1
100
AcDbLine
 10
41.05858488726915
 20
22.96088496476909
 30
0.0
 11
41.05858488726915
 21
-6.245114241568046
 31
0.0
  0
LINE
  5
239
330
2
100
AcDbEntity
  8
GAIKEI
  6
Continuous
 62
     1
100
AcDbLine
 10
37.29599673726915
 20
-9.108057185230904
 30
0.0
 11
37.44385118726916
 21
-9.34367323523088
 31
0.0
  0
LINE
  5
23A
330
2
100
AcDbEntity
  8
GAIKEI
  6
Continuous
 62
     1
100
AcDbLine
 10
37.29599673726915
 20
26.34631791476909
 30
0.0
 11
37.44385118726916
 21
26.58193396476907
 31
0.0
  0
LINE
  5
23B
330
2
100
AcDbEntity
  8
GAIKEI
  6
Continuous
 62
     1
100
AcDbLine
 10
38.47938868726913
 20
-9.277119635230917
 30
0.0
 11
38.40467573236777
 21
-9.277119635230917
 31
0.0
  0
LINE
  5
23C
330
2
100
AcDbEntity
  8
GAIKEI
  6
Continuous
 62
     1
100
AcDbLine
 10
38.47938868726913
 20
25.74537201476909
 30
0.0
 11
38.47938868726913
 21
26.71353873246165
 31
0.0
  0
LINE
  5
23D
330
2
100
AcDbEntity
  8
GAIKEI
  6
Continuous
 62
     1
100
AcDbLine
 10
39.28390368726912
 20
-9.277119635230917
 30
0.0
 11
38.47938868726913
 21
-9.277119635230917
 31
0.0
  0
LINE
  5
23E
330
2
100
AcDbEntity
  8
GAIKEI
  6
Continuous
 62
     1
100
AcDbLine
 10
38.61488048726915
 20
25.76738721476909
 30
0.0
 11
38.52048773726915
 21
25.77082561476908
 31
0.0
  0
LINE
  5
23F
330
2
100
AcDbEntity
  8
GAIKEI
  6
Continuous
 62
     1
100
AcDbLine
 10
38.4618254690933
 20
26.5153803647691
 30
0.0
 11
39.28390368726912
 21
26.5153803647691
 31
0.0
  0
LINE
  5
240
330
2
100
AcDbEntity
  8
GAIKEI
  6
Continuous
 62
     1
100
AcDbLine
 10
39.28390368726912
 20
25.74066411476906
 30
0.0
 11
39.28390368726912
 21
26.5153803647691
 31
0.0
  0
LINE
  5
241
330
2
100
AcDbEntity
  8
GAIKEI
  6
Continuous
 62
     1
100
AcDbLine
 10
41.41574498726913
 20
-5.944582335230904
 30
0.0
 11
41.41959723726915
 21
-5.944397335230917
 31
0.0
  0
LINE
  5
242
330
2
100
AcDbEntity
  8
GAIKEI
  6
Continuous
 62
     1
100
AcDbLine
 10
41.41959723726915
 20
-5.944397335230917
 30
0.0
 11
41.41176658726914
 21
-5.951343335230887
 31
0.0
  0
LINE
  5
243
330
2
100
AcDbEntity
  8
GAIKEI
  6
Continuous
 62
     7
100
AcDbLine
 10
37.44386418726913
 20
-9.343693935230874
 30
0.0
 11
37.44385118726916
 21
-9.34367323523088
 31
0.0
  0
LINE
  5
244
330
2
100
AcDbEntity
  8
GAIKEI
  6
Continuous
 62
     1
100
AcDbLine
 10
37.28834873726913
 20
-9.081480835230877
 30
0.0
 11
37.28834873726913
 21
-8.908105585230885
 31
0.0
  0
LINE
  5
245
330
2
100
AcDbEntity
  8
GAIKEI
  6
Continuous
 62
     1
100
AcDbLine
 10
37.28834873726913
 20
26.14636631476912
 30
0.0
 11
37.28834873726913
 21
26.31974156476906
 31
0.0
  0
LINE
  5
246
330
2
100
AcDbEntity
  8
GAIKEI
  6
Continuous
 62
     1
100
AcDbLine
 10
37.28834873726913
 20
26.14636631476912
 30
0.0
 11
37.28834873726913
 21
-8.908105585230885
 31
0.0
  0
LINE
  5
247
330
2
100
AcDbEntity
  8
GAIKEI
  6
Continuous
 62
     7
100
AcDbLine
 10
41.67834873726912
 20
3.512398339910077
 30
0.0
 11
41.67834873726912
 21
3.950728989910089
 31
0.0
  0
LINE
  5
248
330
2
100
AcDbEntity
  8
GAIKEI
  6
Continuous
 62
     7
100
AcDbLine
 10
41.67834873726912
 20
-3.954911785230876
 30
0.0
 11
41.67834873726912
 21
2.960482639910082
 31
0.0
  0
LINE
  5
249
330
2
100
AcDbEntity
  8
GAIKEI
  6
Continuous
 62
     7
100
AcDbLine
 10
41.67834873726912
 20
-4.685856535230925
 30
0.0
 11
41.67834873726912
 21
-4.506827485230871
 31
0.0
  0
LINE
  5
24A
330
2
100
AcDbEntity
  8
GAIKEI
  6
Continuous
 62
     7
100
AcDbLine
 10
41.67834873726912
 20
14.58739833991006
 30
0.0
 11
41.67834873726912
 21
22.61836066476906
 31
0.0
  0
LINE
  5
24B
330
2
100
AcDbEntity
  8
GAIKEI
  6
Continuous
 62
     1
100
AcDbLine
 10
41.67834873726912
 20
8.887398339910077
 30
0.0
 11
41.67834873726912
 21
8.887878339910059
 31
0.0
  0
LINE
  5
24C
330
2
100
AcDbEntity
  8
GAIKEI
  6
Continuous
 62
     1
100
AcDbLine
 10
41.67834873726912
 20
8.335002639910044
 30
0.0
 11
41.67834873726912
 21
8.335482639910082
 31
0.0
  0
LINE
  5
24D
330
2
100
AcDbEntity
  8
GAIKEI
  6
Continuous
 62
     7
100
AcDbLine
 10
41.64150453726915
 20
-4.511932635230891
 30
0.0
 11
41.64126778726916
 21
-4.511926035230885
 31
0.0
  0
LINE
  5
24E
330
2
100
AcDbEntity
  8
GAIKEI
  6
Continuous
 62
     7
100
AcDbLine
 10
41.67834873726912
 20
22.61836066476906
 30
0.0
 11
41.67834873726912
 21
22.6815835147691
 31
0.0
  0
LINE
  5
24F
330
2
100
AcDbEntity
  8
GAIKEI
  6
Continuous
 62
     1
100
AcDbLine
 10
41.66528478726911
 20
-5.436395985230888
 30
0.0
 11
41.66435168726912
 21
-5.436395985230888
 31
0.0
  0
LINE
  5
250
330
2
100
AcDbEntity
  8
GAIKEI
  6
Continuous
 62
     1
100
AcDbLine
 10
41.41996723726913
 20
-5.944078535230858
 30
0.0
 11
41.42067813726913
 21
-5.943448485230931
 31
0.0
  0
LINE
  5
251
330
2
100
AcDbEntity
  8
GAIKEI
  6
Continuous
 62
     1
100
AcDbLine
 10
41.42037003726914
 20
-5.943713785230897
 30
0.0
 11
41.41959723726915
 21
-5.944397335230917
 31
0.0
  0
LINE
  5
252
330
2
100
AcDbEntity
  8
GAIKEI
  6
Continuous
 62
     7
100
AcDbLine
 10
41.67834873726912
 20
-3.954911785230876
 30
0.0
 11
41.67834873726912
 21
-4.506827485230871
 31
0.0
  0
LINE
  5
253
330
2
100
AcDbEntity
  8
GAIKEI
  6
Continuous
 62
     7
100
AcDbLine
 10
41.67834873726912
 20
8.889148099833107
 30
0.0
 11
41.67834873726912
 21
8.335482639910082
 31
0.0
  0
LINE
  5
254
330
2
100
AcDbEntity
  8
GAIKEI
  6
Continuous
 62
     1
100
AcDbLine
 10
41.67834873726912
 20
3.512398339910077
 30
0.0
 11
41.67834873726912
 21
2.960482639910082
 31
0.0
  0
LINE
  5
255
330
2
100
AcDbEntity
  8
GAIKEI
  6
Continuous
 62
     1
100
AcDbLine
 10
39.48834873726912
 20
-9.277119635230917
 30
0.0
 11
39.28390368726912
 21
-9.277119635230917
 31
0.0
  0
LINE
  5
256
330
2
100
AcDbEntity
  8
GAIKEI
  6
Continuous
 62
     1
100
AcDbLine
 10
39.28390368726912
 20
26.5153803647691
 30
0.0
 11
39.48834873726912
 21
26.5153803647691
 31
0.0
  0
LINE
  5
257
330
2
100
AcDbEntity
  8
GAIKEI
  6
Continuous
 62
     7
100
AcDbLine
 10
39.48834873726912
 20
-9.423967935230905
 30
0.0
 11
39.48834858726911
 21
-9.424266735230901
 31
0.0
  0
LINE
  5
258
330
2
100
AcDbEntity
  8
GAIKEI
  6
Continuous
 62
     7
100
AcDbLine
 10
39.48834873726912
 20
-9.277119635230917
 30
0.0
 11
39.48834873726912
 21
-8.485525235230909
 31
0.0
  0
LINE
  5
259
330
2
100
AcDbEntity
  8
GAIKEI
  6
Continuous
 62
     7
100
AcDbLine
 10
41.67834873726912
 20
3.86144048991008
 30
0.0
 11
41.67834873726912
 21
3.950728989910089
 31
0.0
  0
LINE
  5
25A
330
2
100
AcDbEntity
  8
GAIKEI
  6
Continuous
 62
     7
100
AcDbLine
 10
41.67834873726912
 20
3.950728989910089
 30
0.0
 11
41.67834873726912
 21
8.334742139910076
 31
0.0
  0
LINE
  5
25B
330
2
100
AcDbEntity
  8
GAIKEI
  6
Continuous
 62
     1
100
AcDbLine
 10
41.67834873726912
 20
8.334742139910076
 30
0.0
 11
41.67834873726912
 21
8.335002639910044
 31
0.0
  0
LINE
  5
25C
330
2
100
AcDbEntity
  8
GAIKEI
  6
Continuous
 62
     1
100
AcDbLine
 10
41.67834873726912
 20
8.887878339910059
 30
0.0
 11
41.67834873726912
 21
8.892042039910052
 31
0.0
  0
LINE
  5
25D
330
2
100
AcDbEntity
  8
GAIKEI
  6
Continuous
 62
     1
100
AcDbLine
 10
41.63035703726916
 20
-5.70876643523087
 30
0.0
 11
41.63206843726913
 21
-5.704162435230898
 31
0.0
  0
LINE
  5
25E
330
2
100
AcDbEntity
  8
GAIKEI
  6
Continuous
 62
     1
100
AcDbLine
 10
41.63206843726913
 20
-5.704162435230898
 30
0.0
 11
41.63263638726914
 21
-5.702609235230909
 31
0.0
  0
LINE
  5
25F
330
2
100
AcDbEntity
  8
GAIKEI
  6
Continuous
 62
     7
100
AcDbLine
 10
41.67031413726914
 20
-5.489314885230896
 30
0.0
 11
41.67031413726914
 21
-4.786701535230861
 31
0.0
  0
LINE
  5
260
330
2
100
AcDbEntity
  8
GAIKEI
  6
Continuous
 62
     1
100
AcDbLine
 10
41.63206888726915
 20
-5.704149435230874
 30
0.0
 11
41.63256268726911
 21
-5.702798635230863
 31
0.0
  0
LINE
  5
261
330
2
100
AcDbEntity
  8
GAIKEI
  6
Continuous
 62
     7
100
AcDbLine
 10
39.48834873726912
 20
-9.277119635230917
 30
0.0
 11
39.48834873726912
 21
-9.423967935230905
 31
0.0
  0
ARC
  5
262
330
2
100
AcDbEntity
  8
GAIKEI
  6
Continuous
 62
     1
100
AcDbCircle
 10
-366.6147193127309
 20
3973.340392164768
 30
0.0
 40
3967.55777285
100
AcDbArc
 50
275.8460559999969
 51
275.8599494945873
  0
ARC
  5
263
330
2
100
AcDbEntity
  8
GAIKEI
  6
Continuous
 62
     1
100
AcDbCircle
 10
-366.6147263127309
 20
-3956.102199835231
 30
0.0
 40
3967.557841600001
100
AcDbArc
 50
84.14087800000245
 51
84.15394400000305
  0
ARC
  5
264
330
2
100
AcDbEntity
  8
GAIKEI
  6
Continuous
 62
     7
100
AcDbCircle
 10
40.70799768726914
 20
642.2435380147692
 30
0.0
 40
651.72281555
100
AcDbArc
 50
269.801282
 51
269.870526999997
  0
ARC
  5
265
330
2
100
AcDbEntity
  8
GAIKEI
  6
Continuous
 62
     1
100
AcDbCircle
 10
38.38271893726915
 20
98.03207571476912
 30
0.0
 40
72.59843639999999
100
AcDbArc
 50
270.2234979999951
 51
270.7979269999943
  0
ARC
  5
266
330
2
100
AcDbEntity
  8
GAIKEI
  6
Continuous
 62
     1
100
AcDbCircle
 10
60.23506063726916
 20
45.76196946476909
 30
0.0
 40
29.39359775
100
AcDbArc
 50
229.8244369999979
 51
230.1893719999996
  0
ARC
  5
267
330
2
100
AcDbEntity
  8
GAIKEI
  6
Continuous
 62
     7
100
AcDbCircle
 10
-43.2611441127309
 20
65.24623086476913
 30
0.0
 40
110.68285545
100
AcDbArc
 50
319.8368629999968
 51
319.9785399999958
  0
ARC
  5
268
330
2
100
AcDbEntity
  8
GAIKEI
  6
Continuous
 62
     1
100
AcDbCircle
 10
38.38271893726915
 20
-80.79381448523088
 30
0.0
 40
72.59843590000001
100
AcDbArc
 50
89.20207300000571
 51
89.98256801461675
  0
ARC
  5
269
330
2
100
AcDbEntity
  8
GAIKEI
  6
Continuous
 62
     7
100
AcDbCircle
 10
37.50739743726916
 20
-9.303820385230892
 30
0.0
 40
0.0750092
100
AcDbArc
 50
212.1124469999995
 51
261.0218240000017
  0
ARC
  5
26A
330
2
100
AcDbEntity
  8
GAIKEI
  6
Continuous
 62
     7
100
AcDbCircle
 10
37.51059698726914
 20
-9.2812128852309
 30
0.0
 40
0.09784355
100
AcDbArc
 50
261.270591999999
 51
263.7463639999976
  0
ARC
  5
26B
330
2
100
AcDbEntity
  8
GAIKEI
  6
Continuous
 62
     1
100
AcDbCircle
 10
37.50739743726916
 20
26.54208111476908
 30
0.0
 40
0.07500915
100
AcDbArc
 50
98.93950799999487
 51
147.8875560000019
  0
ARC
  5
26C
330
2
100
AcDbEntity
  8
GAIKEI
  6
Continuous
 62
     1
100
AcDbCircle
 10
37.50974013726915
 20
26.52568981476907
 30
0.0
 40
0.09156935
100
AcDbArc
 50
96.37846500000591
 51
98.78995799999522
  0
ARC
  5
26D
330
2
100
AcDbEntity
  8
GAIKEI
  6
Continuous
 62
     1
100
AcDbCircle
 10
70.81441043726915
 20
110.9566375147691
 30
0.0
 40
92.89058949999999
100
AcDbArc
 50
251.3169980000066
 51
251.5493929999992
  0
ARC
  5
26E
330
2
100
AcDbEntity
  8
GAIKEI
  6
Continuous
 62
     1
100
AcDbCircle
 10
40.94282033726915
 20
22.61835166476908
 30
0.0
 40
0.7355284
100
AcDbArc
 50
0.0007010000002193
 51
5.224650999999753
  0
ARC
  5
26F
330
2
100
AcDbEntity
  8
GAIKEI
  6
Continuous
 62
     1
100
AcDbCircle
 10
40.87686133726913
 20
-5.329307585230878
 30
0.0
 40
0.8203027999999999
100
AcDbArc
 50
311.4962360000053
 51
316.8672290000018
  0
ARC
  5
270
330
2
100
AcDbEntity
  8
GAIKEI
  6
Continuous
 62
     1
100
AcDbCircle
 10
40.92691678726914
 20
-5.37654398523091
 30
0.0
 40
0.7514787
100
AcDbArc
 50
316.8862330000004
 51
332.4185359999961
  0
ARC
  5
271
330
2
100
AcDbEntity
  8
GAIKEI
  6
Continuous
 62
     1
100
AcDbCircle
 10
43.77280223726915
 20
-8.604307235230919
 30
0.0
 40
3.55142435
100
AcDbArc
 50
131.4916920000011
 51
131.6839700000027
  0
ARC
  5
272
330
2
100
AcDbEntity
  8
GAIKEI
  6
Continuous
 62
     1
100
AcDbCircle
 10
40.92834873726912
 20
3.950728989910089
 30
0.0
 40
0.75
100
AcDbArc
 50
2.452836000002987
 51
5.883938000002939
  0
ARC
  5
273
330
2
100
AcDbEntity
  8
GAIKEI
  6
Continuous
 62
     1
100
AcDbCircle
 10
40.92875953726911
 20
22.68673056476911
 30
0.0
 40
0.7480767000000001
100
AcDbArc
 50
34.78967999999847
 51
40.00000300000237
  0
ARC
  5
274
330
2
100
AcDbEntity
  8
GAIKEI
  6
Continuous
 62
     7
100
AcDbCircle
 10
40.91968718726912
 20
22.6815934647691
 30
0.0
 40
0.7586615500000001
100
AcDbArc
 50
359.9992490000013
 51
6.903190000001132
  0
ARC
  5
275
330
2
100
AcDbEntity
  8
GAIKEI
  6
Continuous
 62
     7
100
AcDbCircle
 10
41.04735148726911
 20
-5.489215635230891
 30
0.0
 40
0.6229566000000001
100
AcDbArc
 50
339.968429000001
 51
359.9901120000005
  0
ARC
  5
276
330
2
100
AcDbEntity
  8
GAIKEI
  6
Continuous
 62
     7
100
AcDbCircle
 10
40.92466913726911
 20
-5.444859885230869
 30
0.0
 40
0.7534202500000001
100
AcDbArc
 50
319.8070549999944
 51
339.4956769999968
  0
ARC
  5
277
330
2
100
AcDbEntity
  8
GAIKEI
  6
Continuous
 62
     7
100
AcDbCircle
 10
-48.11838381273088
 20
-52.09248908523091
 30
0.0
 40
117.0292152
100
AcDbArc
 50
40.02245900000189
 51
40.1573269999973
  0
ARC
  5
278
330
2
100
AcDbEntity
  8
GAIKEI
  6
Continuous
 62
     1
100
AcDbCircle
 10
-48.44941611273089
 20
69.6093399647691
 30
0.0
 40
117.4618751
100
AcDbArc
 50
319.8429449999994
 51
319.9773099999972
  0
ELLIPSE
  5
279
330
2
100
AcDbEntity
  8
GAIKEI
  6
Continuous
 62
     7
100
AcDbEllipse
 10
38.44791728726915
 20
-9.425356435230867
 30
0.0
 11
0.0347438088505755
 21
0.0347438088505755
 31
0.0
210
0.0
220
0.0
230
1.0
 40
0.9996262438498131
 41
3.903110081489661
 42
3.921635253276855
  0
ELLIPSE
  5
27A
330
2
100
AcDbEntity
  8
GAIKEI
  6
Continuous
 62
     1
100
AcDbEllipse
 10
37.50955548726916
 20
26.54234336476907
 30
0.0
 11
-0.052891591344551
 21
0.052891591344551
 31
0.0
210
0.0
220
0.0
230
1.0
 40
0.9985021252113433
 41
-0.6841523578984687
 42
-0.667266823267458
  0
ELLIPSE
  5
27B
330
2
100
AcDbEntity
  8
GAIKEI
  6
Continuous
 62
     7
100
AcDbEllipse
 10
37.50955548726916
 20
-9.304082635230884
 30
0.0
 11
0.0528915914006684
 21
0.0528915914006684
 31
0.0
210
0.0
220
0.0
230
1.0
 40
0.9985021258155997
 41
3.809312810420805
 42
3.825745011191881
  0
ELLIPSE
  5
27C
330
2
100
AcDbEntity
  8
GAIKEI
  6
Continuous
 62
     1
100
AcDbEllipse
 10
38.95515443726913
 20
25.7708255647691
 30
0.0
 11
0.0161869617639733
 21
0.4497087749520076
 31
0.0
210
0.0
220
0.0
230
1.0
 40
0.9658839999999806
 41
1.605548642406345
 42
2.450753644648623
  0
ELLIPSE
  5
27D
330
2
100
AcDbEntity
  8
GAIKEI
  6
Continuous
 62
     1
100
AcDbEllipse
 10
40.98044318726914
 20
22.96088496476909
 30
0.0
 11
0.2907057944480269
 21
0.3434969302255366
 31
0.0
210
0.0
220
0.0
230
1.0
 40
0.1333920000000015
 41
-1.458380742976126
 42
-0.0278998439660725
  0
ELLIPSE
  5
27E
330
2
100
AcDbEntity
  8
GAIKEI
  6
Continuous
 62
     1
100
AcDbEllipse
 10
38.65756288726914
 20
25.96913036476906
 30
0.0
 11
-0.0000000000000108
 21
0.2570486010155661
 31
0.0
210
0.0
220
0.0
230
1.0
 40
0.2679519999999809
 41
3.790000710869833
 42
8.756426638127511
  0
ELLIPSE
  5
27F
330
2
100
AcDbEntity
  8
GAIKEI
  6
Continuous
 62
     1
100
AcDbEllipse
 10
39.71857028726913
 20
25.74066411476906
 30
0.0
 11
0.0193870350424885
 21
0.4495821870050824
 31
0.0
210
0.0
220
0.0
230
1.0
 40
0.9658659999999928
 41
1.612422652194193
 42
2.342160655069867
  0
ELLIPSE
  5
280
330
2
100
AcDbEntity
  8
GAIKEI
  6
Continuous
 62
     1
100
AcDbEllipse
 10
38.59073233726917
 20
25.76738721476909
 30
0.0
 11
0.0236739119823138
 21
0.008034045771143
 31
0.0
210
0.0
220
0.0
230
1.0
 40
0.7680479999811009
 41
-0.4160567989350552
 42
-0.0008255432148825
  0
ELLIPSE
  5
281
330
2
100
AcDbEntity
  8
GAIKEI
  6
Continuous
 62
     1
100
AcDbEllipse
 10
40.92834873726917
 20
3.950728989910089
 30
0.0
 11
0.7500000000000002
 21
0.0
 31
0.0
210
0.0
220
0.0
230
1.0
 40
0.9666670000000001
 41
0.0
 42
0.1041276120068568
  0
ELLIPSE
  5
282
330
2
100
AcDbEntity
  8
GAIKEI
  6
Continuous
 62
     1
100
AcDbEllipse
 10
41.38684733726916
 20
-3.064316810089962
 30
0.0
 11
-0.0331278013229312
 21
0.0374506178788601
 31
0.0
210
0.0
220
0.0
230
1.0
 40
0.4749580000000001
 41
3.120750243315308
 42
3.142591199854433
  0
ELLIPSE
  5
283
330
2
100
AcDbEntity
  8
GAIKEI
  6
Continuous
 62
     7
100
AcDbEllipse
 10
39.93776478726914
 20
-8.494916235230903
 30
0.0
 11
-0.1107399054551541
 21
0.4361612928033433
 31
0.0
210
0.0
220
0.0
230
1.0
 40
0.9999039999998128
 41
0.6231415498564515
 42
0.9699193915931996
  0
ELLIPSE
  5
284
330
2
100
AcDbEntity
  8
GAIKEI
  6
Continuous
 62
     7
100
AcDbEllipse
 10
39.93776478726914
 20
25.73317691476911
 30
0.0
 11
0.1107271695606408
 21
0.4361645262069404
 31
0.0
210
0.0
220
0.0
230
1.0
 40
0.9999039999999698
 41
2.171603098779832
 42
2.518422350654637
  0
ELLIPSE
  5
285
330
2
100
AcDbEntity
  8
GAIKEI
  6
Continuous
 62
     7
100
AcDbEllipse
 10
39.43824403726916
 20
-9.428179735230912
 30
0.0
 11
0.0353550241822256
 21
0.0353550241822256
 31
0.0
210
0.0
220
0.0
230
1.0
 40
0.9999998118931008
 41
3.973502160345834
 42
4.816435925500172
  0
ELLIPSE
  5
286
330
2
100
AcDbEntity
  8
GAIKEI
  6
Continuous
 62
     1
100
AcDbEllipse
 10
41.1570845872692
 20
22.87819661476908
 30
0.0
 11
0.3445865199815878
 21
0.2894134244415523
 31
0.0
210
0.0
220
0.0
230
1.0
 40
0.6039990000613244
 41
-0.0002846291689877
 42
0.0084124181329617
  0
ELLIPSE
  5
287
330
2
100
AcDbEntity
  8
GAIKEI
  6
Continuous
 62
     1
100
AcDbEllipse
 10
40.98044318726914
 20
20.23035323991007
 30
0.0
 11
-0.343856198516359
 21
-0.2902807515869154
 31
0.0
210
0.0
220
0.0
230
1.0
 40
0.113014
 41
3.141768349447379
 42
3.152307569470352
  0
ELLIPSE
  5
288
330
2
100
AcDbEntity
  8
GAIKEI
  6
Continuous
 62
     1
100
AcDbEllipse
 10
40.98044318726914
 20
-3.007472260089912
 30
0.0
 11
-0.3438561985162959
 21
0.2902807515869122
 31
0.0
210
0.0
220
0.0
230
1.0
 40
0.113014
 41
3.130877737714352
 42
3.14150348040864
  0
ELLIPSE
  5
289
330
2
100
AcDbEntity
  8
GAIKEI
  6
Continuous
 62
     7
100
AcDbEllipse
 10
39.93776478726914
 20
25.73317691476911
 30
0.0
 11
0.3181900624921142
 21
0.3181900624921142
 31
0.0
210
0.0
220
0.0
230
1.0
 40
0.9999542077870351
 41
2.617093918051603
 42
2.708415030973279
  0
ELLIPSE
  5
28A
330
2
100
AcDbEntity
  8
GAIKEI
  6
Continuous
 62
     7
100
AcDbEllipse
 10
39.93776478726914
 20
-8.494916235230903
 30
0.0
 11
-0.110739905774419
 21
0.4361612927222231
 31
0.0
210
0.0
220
0.0
230
0.9999999999999998
 40
0.999903999999907
 41
0.9699193908611597
 42
1.322176525119691
  0
ELLIPSE
  5
28B
330
2
100
AcDbEntity
  8
GAIKEI
  6
Continuous
 62
     7
100
AcDbEllipse
 10
39.43824403726916
 20
-9.428179735230912
 30
0.0
 11
0.0353550241821352
 21
0.0353550241821352
 31
0.0
210
0.0
220
0.0
230
1.0
 40
0.9999998118951952
 41
4.816435925500389
 42
5.497787051848177
  0
LINE
  5
28C
330
2
100
AcDbEntity
  8
GAIKEI
  6
Continuous
 62
     7
100
AcDbLine
 10
37.46286513726915
 20
-9.367994035230879
 30
0.0
 11
37.46556983726913
 21
-9.366552985230896
 31
0.0
  0
LINE
  5
28D
330
2
100
AcDbEntity
  8
GAIKEI
  6
Continuous
 62
     7
100
AcDbLine
 10
37.46286513726915
 20
26.6262547647691
 30
0.0
 11
37.72814193726913
 21
26.64015731476911
 31
0.0
  0
LINE
  5
28E
330
2
100
AcDbEntity
  8
GAIKEI
  6
Continuous
 62
     7
100
AcDbLine
 10
39.42584873726912
 20
26.71913036476906
 30
0.0
 11
39.50302763726916
 21
26.7123780647691
 31
0.0
  0
LINE
  5
28F
330
2
100
AcDbEntity
  8
GAIKEI
  6
Continuous
 62
     1
100
AcDbLine
 10
39.50302763726916
 20
26.51313916476909
 30
0.0
 11
39.48834873726912
 21
26.51442336476907
 31
0.0
  0
LINE
  5
290
330
2
100
AcDbEntity
  8
GAIKEI
  6
Continuous
 62
     1
100
AcDbLine
 10
39.50302763726916
 20
-9.454117335230876
 30
0.0
 11
39.47952213726916
 21
-9.456173835230913
 31
0.0
  0
LINE
  5
291
330
2
100
AcDbEntity
  8
GAIKEI
  6
Continuous
 62
     7
100
AcDbLine
 10
39.50302763726916
 20
25.61709943731569
 30
0.0
 11
39.50302763726916
 21
26.51313916476909
 31
0.0
  0
LINE
  5
292
330
2
100
AcDbEntity
  8
GAIKEI
  6
Continuous
 62
     1
100
AcDbLine
 10
39.52584873726915
 20
26.51313916476909
 30
0.0
 11
39.52584873726915
 21
25.55206671476913
 31
0.0
  0
LINE
  5
293
330
2
100
AcDbEntity
  8
GAIKEI
  6
Continuous
 62
     1
100
AcDbLine
 10
39.52584873726915
 20
-8.319575656858376
 30
0.0
 11
39.52584873726915
 21
-9.254878435230864
 31
0.0
  0
LINE
  5
294
330
2
100
AcDbEntity
  8
GAIKEI
  6
Continuous
 62
     1
100
AcDbLine
 10
39.52584873726915
 20
26.51313916476909
 30
0.0
 11
39.50302763726916
 21
26.51313916476909
 31
0.0
  0
LINE
  5
295
330
2
100
AcDbEntity
  8
GAIKEI
  6
Continuous
 62
     1
100
AcDbLine
 10
39.52584873726915
 20
-9.254878435230864
 30
0.0
 11
39.52584873726915
 21
-9.429212485230891
 31
0.0
  0
LINE
  5
296
330
2
100
AcDbEntity
  8
GAIKEI
  6
Continuous
 62
     1
100
AcDbLine
 10
39.52584873726915
 20
26.68747321476906
 30
0.0
 11
39.52584873726915
 21
26.51313916476909
 31
0.0
  0
LINE
  5
297
330
2
100
AcDbEntity
  8
GAIKEI
  6
Continuous
 62
     7
100
AcDbLine
 10
37.40490693726912
 20
-9.33546948523093
 30
0.0
 11
37.24959313726913
 21
-9.108640435230881
 31
0.0
  0
LINE
  5
298
330
2
100
AcDbEntity
  8
GAIKEI
  6
Continuous
 62
     7
100
AcDbLine
 10
37.24959313726913
 20
26.3669011647691
 30
0.0
 11
37.40490693726912
 21
26.5937302147691
 31
0.0
  0
LINE
  5
299
330
2
100
AcDbEntity
  8
GAIKEI
  6
Continuous
 62
     7
100
AcDbLine
 10
37.24084873726912
 20
26.33865271476907
 30
0.0
 11
37.24084873726912
 21
26.16916206476913
 31
0.0
  0
LINE
  5
29A
330
2
100
AcDbEntity
  8
GAIKEI
  6
Continuous
 62
     7
100
AcDbLine
 10
37.24084873726912
 20
-9.080391985230903
 30
0.0
 11
37.24084873726912
 21
26.16916206476913
 31
0.0
  0
ARC
  5
29B
330
2
100
AcDbEntity
  8
GAIKEI
  6
Continuous
 62
     1
100
AcDbCircle
 10
39.50084873726917
 20
-9.429212485230891
 30
0.0
 40
0.025
100
AcDbArc
 50
274.9999999999998
 51
0.0
  0
ARC
  5
29C
330
2
100
AcDbEntity
  8
GAIKEI
  6
Continuous
 62
     1
100
AcDbCircle
 10
39.50084873726917
 20
26.68747321476906
 30
0.0
 40
0.025
100
AcDbArc
 50
0.0
 51
85.00000000000019
  0
ARC
  5
29D
330
2
100
AcDbEntity
  8
GAIKEI
  6
Continuous
 62
     7
100
AcDbCircle
 10
37.46679033726912
 20
-9.293096785230886
 30
0.0
 40
0.075
100
AcDbArc
 50
214.4001230000025
 51
266.9999999999944
  0
ARC
  5
29E
330
2
100
AcDbEntity
  8
GAIKEI
  6
Continuous
 62
     7
100
AcDbCircle
 10
37.46679033726912
 20
26.55135751476911
 30
0.0
 40
0.075
100
AcDbArc
 50
93.00000000000558
 51
145.5998769999974
  0
ARC
  5
29F
330
2
100
AcDbEntity
  8
GAIKEI
  6
Continuous
 62
     7
100
AcDbCircle
 10
37.29084873726913
 20
26.33865271476907
 30
0.0
 40
0.05
100
AcDbArc
 50
145.5998769999974
 51
180.0
  0
ARC
  5
2A0
330
2
100
AcDbEntity
  8
GAIKEI
  6
Continuous
 62
     7
100
AcDbCircle
 10
37.29084873726913
 20
-9.080391985230903
 30
0.0
 40
0.05
100
AcDbArc
 50
180.0
 51
214.4001230000025
  0
ELLIPSE
  5
2A1
330
2
100
AcDbEntity
  8
GAIKEI
  6
Continuous
 62
     7
100
AcDbEllipse
 10
39.50084873726917
 20
26.51180476476907
 30
0.0
 11
0.0021771064512899
 21
0.2005734268692124
 31
0.0
210
0.0
220
0.0
230
1.0
 40
0.0107899999999471
 41
-1.564026235558141
 42
-0.0008261053339396
  0
LINE
  5
2A2
330
2
100
AcDbEntity
  8
GAIKEI
  6
Continuous
 62
     1
100
AcDbLine
 10
39.72280738726914
 20
26.12308131476908
 30
0.0
 11
39.52584873726915
 21
26.09540056476908
 31
0.0
  0
LINE
  5
2A3
330
2
100
AcDbEntity
  8
GAIKEI
  6
Continuous
 62
     1
100
AcDbLine
 10
39.67168063726916
 20
26.29578931476908
 30
0.0
 11
39.66584873726913
 21
26.22913036476911
 31
0.0
  0
LINE
  5
2A4
330
2
100
AcDbEntity
  8
GAIKEI
  6
Continuous
 62
     1
100
AcDbLine
 10
39.66584873726913
 20
26.22913036476911
 30
0.0
 11
39.63398733726916
 21
26.22913036476911
 31
0.0
  0
LINE
  5
2A5
330
2
100
AcDbEntity
  8
GAIKEI
  6
Continuous
 62
     1
100
AcDbLine
 10
39.66610273726917
 20
26.23203346476908
 30
0.0
 11
39.63434338726916
 21
26.23172416476911
 31
0.0
  0
LINE
  5
2A6
330
2
100
AcDbEntity
  8
GAIKEI
  6
Continuous
 62
     1
100
AcDbLine
 10
39.67604708726913
 20
26.34569786476908
 30
0.0
 11
39.71672133726912
 21
26.34498786476911
 31
0.0
  0
LINE
  5
2A7
330
2
100
AcDbEntity
  8
GAIKEI
  6
Continuous
 62
     1
100
AcDbLine
 10
39.67168063726916
 20
26.29578931476908
 30
0.0
 11
39.67604708726913
 21
26.34569786476908
 31
0.0
  0
LINE
  5
2A8
330
2
100
AcDbEntity
  8
GAIKEI
  6
Continuous
 62
     1
100
AcDbLine
 10
39.76584873726915
 20
26.29499551476909
 30
0.0
 11
39.76584873726915
 21
26.17259471476911
 31
0.0
  0
ARC
  5
2A9
330
2
100
AcDbEntity
  8
GAIKEI
  6
Continuous
 62
     1
100
AcDbCircle
 10
39.71584873726914
 20
26.29499551476909
 30
0.0
 40
0.05
100
AcDbArc
 50
0.0
 51
88.99999999999822
  0
ARC
  5
2AA
330
2
100
AcDbEntity
  8
GAIKEI
  6
Continuous
 62
     1
100
AcDbCircle
 10
39.71584873726914
 20
26.17259471476911
 30
0.0
 40
0.05
100
AcDbArc
 50
278.0000000000008
 51
0.0
  0
DIMENSION
  5
2AB
330
2
100
AcDbEntity
  8
SUNPO
100
AcDbDimension
  2
*D5
 10
41.69084873726911
 20
34.73535404555879
 30
0.0
 11
48.27418207060244
 21
36.48535404555879
 31
0.0
 70
    33
  1
89
 71
     5
 42
4.449999999999988
  3
STANDARD
100
AcDbAlignedDimension
 13
37.24084873726912
 23
26.73537642497689
 33
0.0
 14
41.69084873726911
 24
26.73537642497689
 34
0.0
1001
ACAD
1000
DSTYLE
1002
{
1070
    40
1040
1.0
1070
   140
1040
2.5
1070
   147
1040
0.5
1070
   172
1070
     1
1070
   279
1070
     0
1070
   288
1070
     0
1002
}
  0
ENDSEC
  0
SECTION
  2
OBJECTS
  0
DICTIONARY
  5
7
330
0
100
AcDbDictionary
281
     1
  3
ACAD_COLOR
350
2D
  3
ACAD_GROUP
350
29
  3
ACAD_LAYOUT
350
B
  3
ACAD_MATERIAL
350
2C
  3
ACAD_MLINESTYLE
350
2A
  3
ACAD_PLOTSETTINGS
350
2B
  3
ACAD_PLOTSTYLENAME
350
6
  3
ACDBHEADERROUNDTRIPXREC
350
304
  3
AcDbVariableDictionary
350
2FF
  0
DICTIONARY
  5
11
330
10
100
AcDbDictionary
280
     1
281
     1
  3
ACAD_LAYERFILTERS
360
12
  3
ACAD_LAYERSTATES
360
13
  0
DICTIONARY
  5
2D
102
{ACAD_REACTORS
330
7
102
}
330
7
100
AcDbDictionary
281
     1
  0
DICTIONARY
  5
29
102
{ACAD_REACTORS
330
7
102
}
330
7
100
AcDbDictionary
281
     1
  0
DICTIONARY
  5
B
102
{ACAD_REACTORS
330
7
102
}
330
7
100
AcDbDictionary
281
     1
  3
Model
350
A
  3
レイアウト1
350
F
  0
DICTIONARY
  5
2C
102
{ACAD_REACTORS
330
7
102
}
330
7
100
AcDbDictionary
281
     1
  0
DICTIONARY
  5
2A
102
{ACAD_REACTORS
330
7
102
}
330
7
100
AcDbDictionary
281
     1
  3
Standard
350
2F
  0
DICTIONARY
  5
2B
102
{ACAD_REACTORS
330
7
102
}
330
7
100
AcDbDictionary
281
     1
  0
ACDBDICTIONARYWDFLT
  5
6
102
{ACAD_REACTORS
330
7
102
}
330
7
100
AcDbDictionary
281
     1
  3
Normal
350
5
100
AcDbDictionaryWithDefault
340
5
  0
DICTIONARY
  5
304
102
{ACAD_REACTORS
330
7
102
}
330
7
100
AcDbDictionary
281
     1
  3
COLORDICT
350
306
  3
MATERIALDICT
350
305
  0
DICTIONARY
  5
2FF
102
{ACAD_REACTORS
330
7
102
}
330
7
100
AcDbDictionary
281
     1
  3
DIMASSOC
350
301
  3
HIDETEXT
350
300
  3
PROJECTNAME
350
302
  0
DICTIONARY
  5
12
102
{ACAD_REACTORS
330
11
102
}
330
11
100
AcDbDictionary
281
     1
  0
DICTIONARY
  5
13
102
{ACAD_REACTORS
330
11
102
}
330
11
100
AcDbDictionary
281
     1
  0
LAYOUT
  5
A
102
{ACAD_XDICTIONARY
360
307
102
}
102
{ACAD_REACTORS
330
B
102
}
330
B
100
AcDbPlotSettings
  1

  2
10F06M_RICOH_SP-8100
  4
A4
  6

 40
5.873749732971191
 41
5.873747825622558
 42
5.873748779296875
 43
5.873748779296875
 44
209.9733276367187
 45
296.9259948730469
 46
5.429999999999999
 47
0.0
 48
0.0
 49
0.0
140
0.0
141
0.0
142
1.0
143
1.382388793903341
 70
 11956
 72
     1
 73
     0
 74
     1
  7
tmsacad.ctb
 75
     0
147
0.7233854935820042
148
0.0064050313486632
149
0.0060110292993159
100
AcDbLayout
  1
Model
 70
     1
 71
     0
 10
0.0
 20
0.0
 11
12.0
 21
9.0
 12
0.0
 22
0.0
 32
0.0
 14
0.0
 24
0.0
 34
0.0
 15
0.0
 25
0.0
 35
0.0
146
0.0
 13
0.0
 23
0.0
 33
0.0
 16
1.0
 26
0.0
 36
0.0
 17
0.0
 27
1.0
 37
0.0
 76
     0
330
2
  0
LAYOUT
  5
F
102
{ACAD_XDICTIONARY
360
309
102
}
102
{ACAD_REACTORS
330
B
102
}
330
B
100
AcDbPlotSettings
  1

  2
None
  4

  6

 40
0.0
 41
0.0
 42
0.0
 43
0.0
 44
0.0
 45
0.0
 46
0.0
 47
0.0
 48
0.0
 49
0.0
140
0.0
141
0.0
142
1.0
143
1.0
 70
   688
 72
     0
 73
     0
 74
     5
  7
tmsacad.ctb
 75
    16
147
1.0
148
0.0
149
0.0
100
AcDbLayout
  1
レイアウト1
 70
     1
 71
     1
 10
0.0
 20
0.0
 11
12.0
 21
9.0
 12
0.0
 22
0.0
 32
0.0
 14
0.0
 24
0.0
 34
0.0
 15
0.0
 25
0.0
 35
0.0
146
0.0
 13
0.0
 23
0.0
 33
0.0
 16
1.0
 26
0.0
 36
0.0
 17
0.0
 27
1.0
 37
0.0
 76
     0
330
C
  0
MLINESTYLE
  5
2F
102
{ACAD_REACTORS
330
2A
102
}
330
2A
100
AcDbMlineStyle
  2
STANDARD
 70
     0
  3

 62
   256
 51
90.0
 52
90.0
 71
     2
 49
0.5
 62
   256
  6
BYLAYER
 49
-0.5
 62
   256
  6
BYLAYER
  0
ACDBPLACEHOLDER
  5
5
102
{ACAD_REACTORS
330
6
102
}
330
6
  0
XRECORD
  5
306
102
{ACAD_REACTORS
330
304
102
}
330
304
100
AcDbXrecord
280
     1
340
2D
  0
XRECORD
  5
305
102
{ACAD_REACTORS
330
304
102
}
330
304
100
AcDbXrecord
280
     1
340
2C
  0
DICTIONARYVAR
  5
301
102
{ACAD_REACTORS
330
2FF
102
}
330
2FF
100
DictionaryVariables
280
     0
  1
1
  0
DICTIONARYVAR
  5
300
102
{ACAD_REACTORS
330
2FF
102
}
330
2FF
100
DictionaryVariables
280
     0
  1
1
  0
DICTIONARYVAR
  5
302
102
{ACAD_REACTORS
330
2FF
102
}
330
2FF
100
DictionaryVariables
280
     0
  1

  0
DICTIONARY
  5
307
330
A
100
AcDbDictionary
280
     1
281
     1
  3
ACAD_XREC_ROUNDTRIP
360
308
  0
DICTIONARY
  5
309
330
F
100
AcDbDictionary
280
     1
281
     1
  3
ACAD_XREC_ROUNDTRIP
360
30A
  0
XRECORD
  5
308
102
{ACAD_REACTORS
330
307
102
}
330
307
100
AcDbXrecord
280
     1
102
SHADEPLOT
 70
     0
102
SHADEPLOTRESLEVEL
 70
     2
102
SHADEPLOTCUSTOMDPI
 70
   300
  0
XRECORD
  5
30A
102
{ACAD_REACTORS
330
309
102
}
330
309
100
AcDbXrecord
280
     1
102
SHADEPLOT
 70
     0
102
SHADEPLOTRESLEVEL
 70
     2
102
SHADEPLOTCUSTOMDPI
 70
   300
  0
ENDSEC
  0
EOF
