  0
SECTION
  2
HEADER
  9
$ACADVER
  1
AC1015
  9
$ACADMAINTVER
 70
    20
  9
$DWGCODEPAGE
  3
ANSI_932
  9
$INSBASE
 10
0.4999999440410648
 20
372.5008351249344
 30
0.0
  9
$EXTMIN
 10
-63.4909048577432
 20
-59.44441160914073
 30
-0.0015258207003583
  9
$EXTMAX
 10
61.5426641348082
 20
53.58018534465248
 30
0.0000000349246037
  9
$LIMMIN
 10
0.0
 20
0.0
  9
$LIMMAX
 10
420.0
 20
297.0
  9
$ORTHOMODE
 70
     1
  9
$REGENMODE
 70
     0
  9
$FILLMODE
 70
     1
  9
$QTEXTMODE
 70
     0
  9
$MIRRTEXT
 70
     0
  9
$LTSCALE
 40
1.0
  9
$ATTMODE
 70
     1
  9
$TEXTSIZE
 40
2.5
  9
$TRACEWID
 40
1.0
  9
$TEXTSTYLE
  7
Standard
  9
$CLAYER
  8
SUNPO
  9
$CELTYPE
  6
ByLayer
  9
$CECOLOR
 62
   256
  9
$CELTSCALE
 40
1.0
  9
$DISPSILH
 70
     0
  9
$DIMSCALE
 40
1.0
  9
$DIMASZ
 40
2.0
  9
$DIMEXO
 40
2.0
  9
$DIMDLI
 40
8.0
  9
$DIMRND
 40
0.0
  9
$DIMDLE
 40
0.0
  9
$DIMEXE
 40
2.0
  9
$DIMTP
 40
0.0
  9
$DIMTM
 40
0.0
  9
$DIMTXT
 40
2.5
  9
$DIMCEN
 40
0.0
  9
$DIMTSZ
 40
0.0
  9
$DIMTOL
 70
     0
  9
$DIMLIM
 70
     0
  9
$DIMTIH
 70
     0
  9
$DIMTOH
 70
     0
  9
$DIMSE1
 70
     0
  9
$DIMSE2
 70
     0
  9
$DIMTAD
 70
     3
  9
$DIMZIN
 70
     0
  9
$DIMBLK
  1

  9
$DIMASO
 70
     1
  9
$DIMSHO
 70
     1
  9
$DIMPOST
  1

  9
$DIMAPOST
  1

  9
$DIMALT
 70
     0
  9
$DIMALTD
 70
     2
  9
$DIMALTF
 40
25.4
  9
$DIMLFAC
 40
1.0
  9
$DIMTOFL
 70
     1
  9
$DIMTVP
 40
0.0
  9
$DIMTIX
 70
     0
  9
$DIMSOXD
 70
     0
  9
$DIMSAH
 70
     1
  9
$DIMBLK1
  1
OPEN30
  9
$DIMBLK2
  1
OPEN30
  9
$DIMSTYLE
  2
STANDARD
  9
$DIMCLRD
 70
     0
  9
$DIMCLRE
 70
     0
  9
$DIMCLRT
 70
     0
  9
$DIMTFAC
 40
1.0
  9
$DIMGAP
 40
0.5
  9
$DIMJUST
 70
     0
  9
$DIMSD1
 70
     0
  9
$DIMSD2
 70
     0
  9
$DIMTOLJ
 70
     1
  9
$DIMTZIN
 70
     0
  9
$DIMALTZ
 70
     0
  9
$DIMALTTZ
 70
     0
  9
$DIMUPT
 70
     0
  9
$DIMDEC
 70
     4
  9
$DIMTDEC
 70
     4
  9
$DIMALTU
 70
     2
  9
$DIMALTTD
 70
     2
  9
$DIMTXSTY
  7
Standard
  9
$DIMAUNIT
 70
     0
  9
$DIMADEC
 70
     0
  9
$DIMALTRND
 40
0.0
  9
$DIMAZIN
 70
     0
  9
$DIMDSEP
 70
    46
  9
$DIMATFIT
 70
     3
  9
$DIMFRAC
 70
     0
  9
$DIMLDRBLK
  1
OPEN30
  9
$DIMLUNIT
 70
     2
  9
$DIMLWD
 70
    -2
  9
$DIMLWE
 70
    -2
  9
$DIMTMOVE
 70
     0
  9
$LUNITS
 70
     2
  9
$LUPREC
 70
     4
  9
$SKETCHINC
 40
1.0
  9
$FILLETRAD
 40
0.0
  9
$AUNITS
 70
     0
  9
$AUPREC
 70
     0
  9
$MENU
  1
.
  9
$ELEVATION
 40
0.0
  9
$PELEVATION
 40
0.0
  9
$THICKNESS
 40
0.0
  9
$LIMCHECK
 70
     0
  9
$CHAMFERA
 40
0.0
  9
$CHAMFERB
 40
0.0
  9
$CHAMFERC
 40
0.0
  9
$CHAMFERD
 40
0.0
  9
$SKPOLY
 70
     0
  9
$TDCREATE
 40
2454349.434269746
  9
$TDUCREATE
 40
2454349.059269746
  9
$TDUPDATE
 40
2455292.623771204
  9
$TDUUPDATE
 40
2455292.248771204
  9
$TDINDWG
 40
0.4137951505
  9
$TDUSRTIMER
 40
0.4137951505
  9
$USRTIMER
 70
     1
  9
$ANGBASE
 50
0.0
  9
$ANGDIR
 70
     0
  9
$PDMODE
 70
     0
  9
$PDSIZE
 40
0.0
  9
$PLINEWID
 40
0.0
  9
$SPLFRAME
 70
     0
  9
$SPLINETYPE
 70
     6
  9
$SPLINESEGS
 70
     8
  9
$HANDSEED
  5
2E4
  9
$SURFTAB1
 70
     6
  9
$SURFTAB2
 70
     6
  9
$SURFTYPE
 70
     6
  9
$SURFU
 70
     6
  9
$SURFV
 70
     6
  9
$UCSBASE
  2

  9
$UCSNAME
  2

  9
$UCSORG
 10
0.0
 20
0.0
 30
0.0
  9
$UCSXDIR
 10
1.0
 20
0.0
 30
0.0
  9
$UCSYDIR
 10
0.0
 20
1.0
 30
0.0
  9
$UCSORTHOREF
  2

  9
$UCSORTHOVIEW
 70
     0
  9
$UCSORGTOP
 10
0.0
 20
0.0
 30
0.0
  9
$UCSORGBOTTOM
 10
0.0
 20
0.0
 30
0.0
  9
$UCSORGLEFT
 10
0.0
 20
0.0
 30
0.0
  9
$UCSORGRIGHT
 10
0.0
 20
0.0
 30
0.0
  9
$UCSORGFRONT
 10
0.0
 20
0.0
 30
0.0
  9
$UCSORGBACK
 10
0.0
 20
0.0
 30
0.0
  9
$PUCSBASE
  2

  9
$PUCSNAME
  2

  9
$PUCSORG
 10
0.0
 20
0.0
 30
0.0
  9
$PUCSXDIR
 10
1.0
 20
0.0
 30
0.0
  9
$PUCSYDIR
 10
0.0
 20
1.0
 30
0.0
  9
$PUCSORTHOREF
  2

  9
$PUCSORTHOVIEW
 70
     0
  9
$PUCSORGTOP
 10
0.0
 20
0.0
 30
0.0
  9
$PUCSORGBOTTOM
 10
0.0
 20
0.0
 30
0.0
  9
$PUCSORGLEFT
 10
0.0
 20
0.0
 30
0.0
  9
$PUCSORGRIGHT
 10
0.0
 20
0.0
 30
0.0
  9
$PUCSORGFRONT
 10
0.0
 20
0.0
 30
0.0
  9
$PUCSORGBACK
 10
0.0
 20
0.0
 30
0.0
  9
$USERI1
 70
     0
  9
$USERI2
 70
     0
  9
$USERI3
 70
     0
  9
$USERI4
 70
     0
  9
$USERI5
 70
     0
  9
$USERR1
 40
0.0
  9
$USERR2
 40
0.0
  9
$USERR3
 40
0.0
  9
$USERR4
 40
0.0
  9
$USERR5
 40
0.0
  9
$WORLDVIEW
 70
     1
  9
$SHADEDGE
 70
     3
  9
$SHADEDIF
 70
    70
  9
$TILEMODE
 70
     1
  9
$MAXACTVP
 70
    64
  9
$PINSBASE
 10
0.0
 20
0.0
 30
0.0
  9
$PLIMCHECK
 70
     0
  9
$PEXTMIN
 10
0.0
 20
0.0
 30
0.0
  9
$PEXTMAX
 10
0.0
 20
0.0
 30
0.0
  9
$PLIMMIN
 10
0.0
 20
0.0
  9
$PLIMMAX
 10
12.0
 20
9.0
  9
$UNITMODE
 70
     0
  9
$VISRETAIN
 70
     1
  9
$PLINEGEN
 70
     0
  9
$PSLTSCALE
 70
     1
  9
$TREEDEPTH
 70
  3020
  9
$CMLSTYLE
  2
Standard
  9
$CMLJUST
 70
     0
  9
$CMLSCALE
 40
20.0
  9
$PROXYGRAPHICS
 70
     1
  9
$MEASUREMENT
 70
     1
  9
$CELWEIGHT
370
    -1
  9
$ENDCAPS
280
     0
  9
$JOINSTYLE
280
     0
  9
$LWDISPLAY
290
     0
  9
$INSUNITS
 70
     4
  9
$HYPERLINKBASE
  1

  9
$STYLESHEET
  1

  9
$XEDIT
290
     1
  9
$CEPSNTYPE
380
     0
  9
$PSTYLEMODE
290
     1
  9
$FINGERPRINTGUID
  2
{FDEAD578-A652-11D2-9A35-0060089B3A3F}
  9
$VERSIONGUID
  2
{D6710CF2-9C05-452F-B7D6-5A63F22B1A50}
  9
$EXTNAMES
290
     1
  9
$PSVPSCALE
 40
0.0
  9
$OLESTARTUP
290
     0
  0
ENDSEC
  0
SECTION
  2
CLASSES
  0
CLASS
  1
ACDBDICTIONARYWDFLT
  2
AcDbDictionaryWithDefault
  3
ObjectDBX Classes
 90
        0
280
     0
281
     0
  0
CLASS
  1
ACDBPLACEHOLDER
  2
AcDbPlaceHolder
  3
ObjectDBX Classes
 90
        0
280
     0
281
     0
  0
CLASS
  1
LAYOUT
  2
AcDbLayout
  3
ObjectDBX Classes
 90
        0
280
     0
281
     0
  0
CLASS
  1
DICTIONARYVAR
  2
AcDbDictionaryVar
  3
ObjectDBX Classes
 90
        0
280
     0
281
     0
  0
CLASS
  1
SORTENTSTABLE
  2
AcDbSortentsTable
  3
ObjectDBX Classes
 90
    32768
280
     0
281
     0
  0
ENDSEC
  0
SECTION
  2
TABLES
  0
TABLE
  2
VPORT
  5
1C
330
0
100
AcDbSymbolTable
 70
     3
  0
VPORT
  5
2DC
330
1C
100
AcDbSymbolTableRecord
100
AcDbViewportTableRecord
  2
*Active
 70
     0
 10
0.0
 20
0.0
 11
1.0
 21
1.0
 12
-0.9741203614674986
 22
-2.932113132244126
 13
0.0
 23
0.0
 14
10.0
 24
10.0
 15
10.0
 25
10.0
 16
0.0
 26
0.0
 36
1.0
 17
0.0
 27
0.0
 37
0.0
 40
113.8884792235037
 41
1.392857142857142
 42
50.0
 43
0.0
 44
0.0
 50
0.0
 51
0.0
 71
     0
 72
  1000
 73
     1
 74
     2
 75
     0
 76
     0
 77
     0
 78
     0
281
     0
 65
     1
110
0.0
120
0.0
130
0.0
111
1.0
121
0.0
131
0.0
112
0.0
122
1.0
132
0.0
 79
     0
146
0.0
  0
ENDTAB
  0
TABLE
  2
LTYPE
  5
17
330
0
100
AcDbSymbolTable
 70
     1
  0
LTYPE
  5
18
330
17
100
AcDbSymbolTableRecord
100
AcDbLinetypeTableRecord
  2
ByBlock
 70
     0
  3

 72
    65
 73
     0
 40
0.0
  0
LTYPE
  5
19
330
17
100
AcDbSymbolTableRecord
100
AcDbLinetypeTableRecord
  2
ByLayer
 70
     0
  3

 72
    65
 73
     0
 40
0.0
  0
LTYPE
  5
8
330
17
100
AcDbSymbolTableRecord
100
AcDbLinetypeTableRecord
  2
Continuous
 70
     0
  3
Solid line
 72
    65
 73
     0
 40
0.0
  0
ENDTAB
  0
TABLE
  2
LAYER
  5
10
102
{ACAD_XDICTIONARY
360
11
102
}
330
0
100
AcDbSymbolTable
 70
     7
  0
LAYER
  5
4
330
10
100
AcDbSymbolTableRecord
100
AcDbLayerTableRecord
  2
0
 70
     0
 62
     7
  6
Continuous
370
    -3
390
5
  0
LAYER
  5
37
330
10
100
AcDbSymbolTableRecord
100
AcDbLayerTableRecord
  2
WAKU
 70
     0
 62
     4
  6
Continuous
370
    -3
390
5
  0
LAYER
  5
31
330
10
100
AcDbSymbolTableRecord
100
AcDbLayerTableRecord
  2
MOJI1
 70
     0
 62
     2
  6
Continuous
370
    -3
390
5
  0
LAYER
  5
33
330
10
100
AcDbSymbolTableRecord
100
AcDbLayerTableRecord
  2
TOUROKU
 70
     0
 62
     1
  6
Continuous
370
    -3
390
5
  0
LAYER
  5
BE
330
10
100
AcDbSymbolTableRecord
100
AcDbLayerTableRecord
  2
DEFPOINTS
 70
     0
 62
     7
  6
Continuous
290
     0
370
    -3
390
5
  0
LAYER
  5
54
330
10
100
AcDbSymbolTableRecord
100
AcDbLayerTableRecord
  2
GAIKEI
 70
     0
 62
     7
  6
Continuous
370
    -3
390
5
  0
LAYER
  5
2E
330
10
100
AcDbSymbolTableRecord
100
AcDbLayerTableRecord
  2
SUNPO
 70
     0
 62
     3
  6
Continuous
370
    -3
390
5
  0
ENDTAB
  0
TABLE
  2
STYLE
  5
14
330
0
100
AcDbSymbolTable
 70
     1
  0
STYLE
  5
15
330
14
100
AcDbSymbolTableRecord
100
AcDbTextStyleTableRecord
  2
Standard
 70
     0
 40
0.0
 41
1.0
 50
0.0
 71
     0
 42
2.5
  3
MONOTXT.shx
  4
BIGFONT.shx
  0
ENDTAB
  0
TABLE
  2
VIEW
  5
1A
330
0
100
AcDbSymbolTable
 70
     0
  0
ENDTAB
  0
TABLE
  2
UCS
  5
1B
330
0
100
AcDbSymbolTable
 70
     0
  0
ENDTAB
  0
TABLE
  2
APPID
  5
1E
330
0
100
AcDbSymbolTable
 70
     1
  0
APPID
  5
1F
330
1E
100
AcDbSymbolTableRecord
100
AcDbRegAppTableRecord
  2
ACAD
 70
     0
  0
ENDTAB
  0
TABLE
  2
DIMSTYLE
  5
20
330
0
100
AcDbSymbolTable
 70
     1
100
AcDbDimStyleTable
 71
     1
340
21
  0
DIMSTYLE
105
21
102
{ACAD_REACTORS
330
17D
330
CF
330
C2
330
B4
102
}
330
20
100
AcDbSymbolTableRecord
100
AcDbDimStyleTableRecord
  2
STANDARD
 70
     0
 40
0.0
 41
2.0
 42
2.0
 43
8.0
 44
2.0
 73
     0
 74
     0
 77
     3
140
3.0
141
0.0
173
     1
279
     2
288
     1
340
15
341
22
343
22
344
22
  0
ENDTAB
  0
TABLE
  2
BLOCK_RECORD
  5
1
330
0
100
AcDbSymbolTable
 70
     9
  0
BLOCK_RECORD
  5
2
330
1
100
AcDbSymbolTableRecord
100
AcDbBlockTableRecord
  2
*Model_Space
340
A
  0
BLOCK_RECORD
  5
C
330
1
100
AcDbSymbolTableRecord
100
AcDbBlockTableRecord
  2
*Paper_Space
340
F
  0
BLOCK_RECORD
  5
22
330
1
100
AcDbSymbolTableRecord
100
AcDbBlockTableRecord
  2
_OPEN30
340
0
102
{BLKREFS
331
D7
331
D8
331
C8
331
C9
331
BA
331
BB
331
183
331
184
331
2AA
331
2AB
331
2B8
331
2B9
331
2C4
331
2C5
331
2D0
331
2D1
102
}
  0
BLOCK_RECORD
  5
17E
330
1
100
AcDbSymbolTableRecord
100
AcDbBlockTableRecord
  2
*D1
340
0
  0
BLOCK_RECORD
  5
D0
330
1
100
AcDbSymbolTableRecord
100
AcDbBlockTableRecord
  2
*D2
340
0
  0
BLOCK_RECORD
  5
C3
330
1
100
AcDbSymbolTableRecord
100
AcDbBlockTableRecord
  2
*D3
340
0
  0
BLOCK_RECORD
  5
B5
330
1
100
AcDbSymbolTableRecord
100
AcDbBlockTableRecord
  2
*D4
340
0
  0
BLOCK_RECORD
  5
2A6
330
1
100
AcDbSymbolTableRecord
100
AcDbBlockTableRecord
  2
*D5
340
0
  0
BLOCK_RECORD
  5
2B2
330
1
100
AcDbSymbolTableRecord
100
AcDbBlockTableRecord
  2
*D6
340
0
  0
BLOCK_RECORD
  5
2C0
330
1
100
AcDbSymbolTableRecord
100
AcDbBlockTableRecord
  2
*D7
340
0
  0
BLOCK_RECORD
  5
2CC
330
1
100
AcDbSymbolTableRecord
100
AcDbBlockTableRecord
  2
*D8
340
0
  0
ENDTAB
  0
ENDSEC
  0
SECTION
  2
BLOCKS
  0
BLOCK
  5
3
330
2
100
AcDbEntity
  8
0
100
AcDbBlockBegin
  2
*Model_Space
 70
     0
 10
0.0
 20
0.0
 30
0.0
  3
*Model_Space
  1

  0
ENDBLK
  5
9
330
2
100
AcDbEntity
  8
0
100
AcDbBlockEnd
  0
BLOCK
  5
D
330
C
100
AcDbEntity
 67
     1
  8
0
100
AcDbBlockBegin
  2
*Paper_Space
 70
     0
 10
0.0
 20
0.0
 30
0.0
  3
*Paper_Space
  1

  0
ENDBLK
  5
E
330
C
100
AcDbEntity
 67
     1
  8
0
100
AcDbBlockEnd
  0
BLOCK
  5
23
330
22
100
AcDbEntity
  8
0
100
AcDbBlockBegin
  2
_OPEN30
 70
     0
 10
0.0
 20
0.0
 30
0.0
  3
_OPEN30
  1

  0
LINE
  5
24
330
22
100
AcDbEntity
  8
0
  6
ByBlock
 62
     0
100
AcDbLine
 10
-1.0
 20
0.26794919
 30
0.0
 11
0.0
 21
0.0
 31
0.0
  0
LINE
  5
25
330
22
100
AcDbEntity
  8
0
  6
ByBlock
 62
     0
100
AcDbLine
 10
0.0
 20
0.0
 30
0.0
 11
-1.0
 21
-0.26794919
 31
0.0
  0
LINE
  5
26
330
22
100
AcDbEntity
  8
0
  6
ByBlock
 62
     0
100
AcDbLine
 10
0.0
 20
0.0
 30
0.0
 11
-1.0
 21
0.0
 31
0.0
  0
ENDBLK
  5
27
330
22
100
AcDbEntity
  8
0
100
AcDbBlockEnd
  0
BLOCK
  5
17F
330
17E
100
AcDbEntity
  8
0
100
AcDbBlockBegin
  2
*D1
 70
     1
 10
0.0
 20
0.0
 30
0.0
  3
*D1
  1

  0
LINE
  5
180
330
17E
100
AcDbEntity
  8
SUNPO
 62
     0
370
    -2
100
AcDbLine
 10
86.12347958287813
 20
347.5150000608555
 30
0.0
 11
93.12347958287814
 21
347.5150000608555
 31
0.0
  0
LINE
  5
181
330
17E
100
AcDbEntity
  8
SUNPO
 62
     0
370
    -2
100
AcDbLine
 10
62.80794331675366
 20
308.3850776751948
 30
0.0
 11
93.12347958287814
 21
308.3850776751948
 31
0.0
  0
LINE
  5
182
330
17E
100
AcDbEntity
  8
SUNPO
 62
     0
370
    -2
100
AcDbLine
 10
91.12347958287813
 20
345.5150000608555
 30
0.0
 11
91.12347958287813
 21
310.3850776751948
 31
0.0
  0
INSERT
  5
183
330
17E
100
AcDbEntity
  8
SUNPO
 62
     0
370
    -2
100
AcDbBlockReference
  2
_OPEN30
 10
91.12347958287813
 20
347.5150000608555
 30
0.0
 41
2.0
 42
2.0
 43
2.0
 50
90.0
  0
INSERT
  5
184
330
17E
100
AcDbEntity
  8
SUNPO
 62
     0
370
    -2
100
AcDbBlockReference
  2
_OPEN30
 10
91.12347958287813
 20
308.3850776751948
 30
0.0
 41
2.0
 42
2.0
 43
2.0
 50
270.0
  0
MTEXT
  5
185
330
17E
100
AcDbEntity
  8
SUNPO
 62
     0
100
AcDbMText
 10
89.37347958287807
 20
327.9500388680251
 30
0.0
 40
2.5
 41
0.0
 71
     5
 72
     1
  1
\A1;783
 11
0.0000000000000001
 21
1.0
 31
0.0
 73
     1
 44
1.0
1001
ACAD
1000
MTEXTBEGIN
1070
    73
1070
     1
1070
    44
1040
1.0
1070
    74
1070
     0
1000
MTEXTEND
  0
POINT
  5
186
330
17E
100
AcDbEntity
  8
DEFPOINTS
 62
     0
100
AcDbPoint
 10
84.12347958287814
 20
347.5150000608555
 30
0.0
  0
POINT
  5
187
330
17E
100
AcDbEntity
  8
DEFPOINTS
 62
     0
100
AcDbPoint
 10
60.80794331675367
 20
308.3850776751948
 30
0.0
  0
POINT
  5
188
330
17E
100
AcDbEntity
  8
DEFPOINTS
 62
     0
100
AcDbPoint
 10
91.12347958287813
 20
308.3850776751948
 30
0.0
  0
ENDBLK
  5
189
330
17E
100
AcDbEntity
  8
0
100
AcDbBlockEnd
  0
BLOCK
  5
D1
330
D0
100
AcDbEntity
  8
0
100
AcDbBlockBegin
  2
*D2
 70
     1
 10
0.0
 20
0.0
 30
0.0
  3
*D2
  1

  0
LINE
  5
D2
330
D0
100
AcDbEntity
  8
SUNPO
 62
     0
370
    -2
100
AcDbLine
 10
103.812546102037
 20
349.5212461210633
 30
0.0
 11
103.812546102037
 21
357.5147136165042
 31
0.0
  0
LINE
  5
D3
330
D0
100
AcDbEntity
  8
SUNPO
 62
     0
370
    -2
100
AcDbLine
 10
108.262546102037
 20
349.5212461210633
 30
0.0
 11
108.262546102037
 21
357.5147136165042
 31
0.0
  0
LINE
  5
D4
330
D0
100
AcDbEntity
  8
SUNPO
 62
     0
370
    -2
100
AcDbLine
 10
101.812546102037
 20
355.5147136165042
 30
0.0
 11
99.81254610203702
 21
355.5147136165042
 31
0.0
  0
LINE
  5
D5
330
D0
100
AcDbEntity
  8
SUNPO
 62
     0
370
    -2
100
AcDbLine
 10
110.262546102037
 20
355.5147136165042
 30
0.0
 11
117.4292127687037
 21
355.5147136165042
 31
0.0
  0
LINE
  5
D6
330
D0
100
AcDbEntity
  8
SUNPO
 62
     0
370
    -2
100
AcDbLine
 10
103.812546102037
 20
355.5147136165042
 30
0.0
 11
108.262546102037
 21
355.5147136165042
 31
0.0
  0
INSERT
  5
D7
330
D0
100
AcDbEntity
  8
SUNPO
 62
     0
370
    -2
100
AcDbBlockReference
  2
_OPEN30
 10
103.812546102037
 20
355.5147136165042
 30
0.0
 41
2.0
 42
2.0
 43
2.0
  0
INSERT
  5
D8
330
D0
100
AcDbEntity
  8
SUNPO
 62
     0
370
    -2
100
AcDbBlockReference
  2
_OPEN30
 10
108.262546102037
 20
355.5147136165042
 30
0.0
 41
2.0
 42
2.0
 43
2.0
 50
180.0
  0
MTEXT
  5
D9
330
D0
100
AcDbEntity
  8
SUNPO
 62
     0
100
AcDbMText
 10
114.8458794353703
 20
357.2647136165042
 30
0.0
 40
2.5
 41
0.0
 71
     5
 72
     1
  1
\A1;89
 73
     1
 44
1.0
1001
ACAD
1000
MTEXTBEGIN
1070
    73
1070
     1
1070
    44
1040
1.0
1070
    74
1070
     0
1000
MTEXTEND
  0
POINT
  5
DA
330
D0
100
AcDbEntity
  8
DEFPOINTS
 62
     0
100
AcDbPoint
 10
103.812546102037
 20
347.5212461210633
 30
0.0
  0
POINT
  5
DB
330
D0
100
AcDbEntity
  8
DEFPOINTS
 62
     0
100
AcDbPoint
 10
108.262546102037
 20
347.5212461210633
 30
0.0
  0
POINT
  5
DC
330
D0
100
AcDbEntity
  8
DEFPOINTS
 62
     0
100
AcDbPoint
 10
108.262546102037
 20
355.5147136165042
 30
0.0
  0
ENDBLK
  5
DD
330
D0
100
AcDbEntity
  8
0
100
AcDbBlockEnd
  0
BLOCK
  5
C4
330
C3
100
AcDbEntity
  8
0
100
AcDbBlockBegin
  2
*D3
 70
     1
 10
0.0
 20
0.0
 30
0.0
  3
*D3
  1

  0
LINE
  5
C5
330
C3
100
AcDbEntity
  8
SUNPO
 62
     0
370
    -2
100
AcDbLine
 10
78.12347958287812
 20
311.3226899251947
 30
0.0
 11
86.12347958287811
 21
311.3226899251947
 31
0.0
  0
LINE
  5
C6
330
C3
100
AcDbEntity
  8
SUNPO
 62
     0
370
    -2
100
AcDbLine
 10
78.12347958287809
 20
347.5150000608555
 30
0.0
 11
86.12347958287811
 21
347.5150000608555
 31
0.0
  0
LINE
  5
C7
330
C3
100
AcDbEntity
  8
SUNPO
 62
     0
370
    -2
100
AcDbLine
 10
84.12347958287812
 20
313.3226899251947
 30
0.0
 11
84.12347958287812
 21
345.5150000608555
 31
0.0
  0
INSERT
  5
C8
330
C3
100
AcDbEntity
  8
SUNPO
 62
     0
370
    -2
100
AcDbBlockReference
  2
_OPEN30
 10
84.12347958287812
 20
311.3226899251947
 30
0.0
 41
2.0
 42
2.0
 43
2.0
 50
270.0
  0
INSERT
  5
C9
330
C3
100
AcDbEntity
  8
SUNPO
 62
     0
370
    -2
100
AcDbBlockReference
  2
_OPEN30
 10
84.12347958287812
 20
347.5150000608555
 30
0.0
 41
2.0
 42
2.0
 43
2.0
 50
90.0
  0
MTEXT
  5
CA
330
C3
100
AcDbEntity
  8
SUNPO
 62
     0
100
AcDbMText
 10
82.37347958287806
 20
329.4188449930251
 30
0.0
 40
2.5
 41
0.0
 71
     5
 72
     1
  1
\A1;724
 11
0.0000000000000001
 21
1.0
 31
0.0
 73
     1
 44
1.0
1001
ACAD
1000
MTEXTBEGIN
1070
    73
1070
     1
1070
    44
1040
1.0
1070
    74
1070
     0
1000
MTEXTEND
  0
POINT
  5
CB
330
C3
100
AcDbEntity
  8
DEFPOINTS
 62
     0
100
AcDbPoint
 10
76.12347958287812
 20
311.3226899251947
 30
0.0
  0
POINT
  5
CC
330
C3
100
AcDbEntity
  8
DEFPOINTS
 62
     0
100
AcDbPoint
 10
76.12347958287809
 20
347.5150000608555
 30
0.0
  0
POINT
  5
CD
330
C3
100
AcDbEntity
  8
DEFPOINTS
 62
     0
100
AcDbPoint
 10
84.12347958287812
 20
347.5150000608555
 30
0.0
  0
ENDBLK
  5
CE
330
C3
100
AcDbEntity
  8
0
100
AcDbBlockEnd
  0
BLOCK
  5
B6
330
B5
100
AcDbEntity
  8
0
100
AcDbBlockBegin
  2
*D4
 70
     1
 10
0.0
 20
0.0
 30
0.0
  3
*D4
  1

  0
LINE
  5
B7
330
B5
100
AcDbEntity
  8
SUNPO
 62
     0
370
    -2
100
AcDbLine
 10
16.06324479680587
 20
349.5147136165041
 30
0.0
 11
16.06324479680587
 21
357.5147136165041
 31
0.0
  0
LINE
  5
B8
330
B5
100
AcDbEntity
  8
SUNPO
 62
     0
370
    -2
100
AcDbLine
 10
76.56324477260579
 20
349.5147136165042
 30
0.0
 11
76.56324477260579
 21
357.5147136165041
 31
0.0
  0
LINE
  5
B9
330
B5
100
AcDbEntity
  8
SUNPO
 62
     0
370
    -2
100
AcDbLine
 10
18.06324479680587
 20
355.5147136165041
 30
0.0
 11
74.56324477260579
 21
355.5147136165041
 31
0.0
  0
INSERT
  5
BA
330
B5
100
AcDbEntity
  8
SUNPO
 62
     0
370
    -2
100
AcDbBlockReference
  2
_OPEN30
 10
16.06324479680587
 20
355.5147136165041
 30
0.0
 41
2.0
 42
2.0
 43
2.0
 50
180.0
  0
INSERT
  5
BB
330
B5
100
AcDbEntity
  8
SUNPO
 62
     0
370
    -2
100
AcDbBlockReference
  2
_OPEN30
 10
76.56324477260579
 20
355.5147136165041
 30
0.0
 41
2.0
 42
2.0
 43
2.0
  0
MTEXT
  5
BC
330
B5
100
AcDbEntity
  8
SUNPO
 62
     0
100
AcDbMText
 10
46.31324478470583
 20
357.2647136165041
 30
0.0
 40
2.5
 41
0.0
 71
     5
 72
     1
  1
\A1;1210
 73
     1
 44
1.0
1001
ACAD
1000
MTEXTBEGIN
1070
    73
1070
     1
1070
    44
1040
1.0
1070
    74
1070
     0
1000
MTEXTEND
  0
POINT
  5
BD
330
B5
100
AcDbEntity
  8
DEFPOINTS
 62
     0
100
AcDbPoint
 10
16.06324479680587
 20
347.5147136165042
 30
0.0
  0
POINT
  5
BF
330
B5
100
AcDbEntity
  8
DEFPOINTS
 62
     0
100
AcDbPoint
 10
76.56324477260579
 20
347.5147136165042
 30
0.0
  0
POINT
  5
C0
330
B5
100
AcDbEntity
  8
DEFPOINTS
 62
     0
100
AcDbPoint
 10
76.56324477260579
 20
355.5147136165041
 30
0.0
  0
ENDBLK
  5
C1
330
B5
100
AcDbEntity
  8
0
100
AcDbBlockEnd
  0
BLOCK
  5
2B0
330
2A6
100
AcDbEntity
  8
0
100
AcDbBlockBegin
  2
*D5
 70
     1
 10
0.0
 20
0.0
 30
0.0
  3
*D5
  1

  0
LINE
  5
2A7
330
2A6
100
AcDbEntity
  8
SUNPO
 62
     0
370
    -2
100
AcDbLine
 10
20.15028326476699
 20
30.57907757945964
 30
0.0
 11
27.150283264767
 21
30.57907757945963
 31
0.0
  0
LINE
  5
2A8
330
2A6
100
AcDbEntity
  8
SUNPO
 62
     0
370
    -2
100
AcDbLine
 10
-3.165253001357484
 20
-8.550844806201157
 30
0.0
 11
27.15028326476698
 21
-8.550844806201164
 31
0.0
  0
LINE
  5
2A9
330
2A6
100
AcDbEntity
  8
SUNPO
 62
     0
370
    -2
100
AcDbLine
 10
25.15028326476699
 20
28.57907757945963
 30
0.0
 11
25.15028326476699
 21
-6.550844806201164
 31
0.0
  0
INSERT
  5
2AA
330
2A6
100
AcDbEntity
  8
SUNPO
 62
     0
370
    -2
100
AcDbBlockReference
  2
_OPEN30
 10
25.15028326476699
 20
30.57907757945963
 30
0.0
 41
2.0
 42
2.0
 43
2.0
 50
90.0
  0
INSERT
  5
2AB
330
2A6
100
AcDbEntity
  8
SUNPO
 62
     0
370
    -2
100
AcDbBlockReference
  2
_OPEN30
 10
25.15028326476699
 20
-8.550844806201164
 30
0.0
 41
2.0
 42
2.0
 43
2.0
 50
270.0
  0
MTEXT
  5
2AC
330
2A6
100
AcDbEntity
  8
SUNPO
 62
     0
100
AcDbMText
 10
23.40028326476699
 20
11.01411638662924
 30
0.0
 40
2.5
 41
0.0
 71
     5
 72
     1
  1
\A1;783
 11
0.0000000000000001
 21
1.0
 31
0.0
 73
     1
 44
1.0
1001
ACAD
1000
MTEXTBEGIN
1070
    73
1070
     1
1070
    44
1040
1.0
1070
    74
1070
     0
1000
MTEXTEND
  0
POINT
  5
2AD
330
2A6
100
AcDbEntity
  8
DEFPOINTS
 62
     0
100
AcDbPoint
 10
18.15028326476698
 20
30.57907757945964
 30
0.0
  0
POINT
  5
2AE
330
2A6
100
AcDbEntity
  8
DEFPOINTS
 62
     0
100
AcDbPoint
 10
-5.165253001357484
 20
-8.550844806201155
 30
0.0
  0
POINT
  5
2AF
330
2A6
100
AcDbEntity
  8
DEFPOINTS
 62
     0
100
AcDbPoint
 10
25.15028326476699
 20
-8.550844806201164
 30
0.0
  0
ENDBLK
  5
2B1
330
2A6
100
AcDbEntity
  8
0
100
AcDbBlockEnd
  0
BLOCK
  5
2BE
330
2B2
100
AcDbEntity
  8
0
100
AcDbBlockBegin
  2
*D6
 70
     1
 10
0.0
 20
0.0
 30
0.0
  3
*D6
  1

  0
LINE
  5
2B3
330
2B2
100
AcDbEntity
  8
SUNPO
 62
     0
370
    -2
100
AcDbLine
 10
37.83934978392587
 20
32.58532363966736
 30
0.0
 11
37.83934978392587
 21
40.5787911351083
 31
0.0
  0
LINE
  5
2B4
330
2B2
100
AcDbEntity
  8
SUNPO
 62
     0
370
    -2
100
AcDbLine
 10
42.28934978392586
 20
32.58532363966736
 30
0.0
 11
42.28934978392586
 21
40.5787911351083
 31
0.0
  0
LINE
  5
2B5
330
2B2
100
AcDbEntity
  8
SUNPO
 62
     0
370
    -2
100
AcDbLine
 10
35.83934978392587
 20
38.57879113510831
 30
0.0
 11
33.83934978392587
 21
38.57879113510831
 31
0.0
  0
LINE
  5
2B6
330
2B2
100
AcDbEntity
  8
SUNPO
 62
     0
370
    -2
100
AcDbLine
 10
44.28934978392585
 20
38.57879113510831
 30
0.0
 11
51.45601645059252
 21
38.57879113510831
 31
0.0
  0
LINE
  5
2B7
330
2B2
100
AcDbEntity
  8
SUNPO
 62
     0
370
    -2
100
AcDbLine
 10
37.83934978392587
 20
38.57879113510831
 30
0.0
 11
42.28934978392586
 21
38.57879113510831
 31
0.0
  0
INSERT
  5
2B8
330
2B2
100
AcDbEntity
  8
SUNPO
 62
     0
370
    -2
100
AcDbBlockReference
  2
_OPEN30
 10
37.83934978392587
 20
38.57879113510831
 30
0.0
 41
2.0
 42
2.0
 43
2.0
  0
INSERT
  5
2B9
330
2B2
100
AcDbEntity
  8
SUNPO
 62
     0
370
    -2
100
AcDbBlockReference
  2
_OPEN30
 10
42.28934978392586
 20
38.57879113510831
 30
0.0
 41
2.0
 42
2.0
 43
2.0
 50
180.0
  0
MTEXT
  5
2BA
330
2B2
100
AcDbEntity
  8
SUNPO
 62
     0
100
AcDbMText
 10
48.87268311725919
 20
40.3287911351083
 30
0.0
 40
2.5
 41
0.0
 71
     5
 72
     1
  1
\A1;89
 73
     1
 44
1.0
1001
ACAD
1000
MTEXTBEGIN
1070
    73
1070
     1
1070
    44
1040
1.0
1070
    74
1070
     0
1000
MTEXTEND
  0
POINT
  5
2BB
330
2B2
100
AcDbEntity
  8
DEFPOINTS
 62
     0
100
AcDbPoint
 10
37.83934978392587
 20
30.58532363966737
 30
0.0
  0
POINT
  5
2BC
330
2B2
100
AcDbEntity
  8
DEFPOINTS
 62
     0
100
AcDbPoint
 10
42.28934978392586
 20
30.58532363966737
 30
0.0
  0
POINT
  5
2BD
330
2B2
100
AcDbEntity
  8
DEFPOINTS
 62
     0
100
AcDbPoint
 10
42.28934978392586
 20
38.57879113510831
 30
0.0
  0
ENDBLK
  5
2BF
330
2B2
100
AcDbEntity
  8
0
100
AcDbBlockEnd
  0
BLOCK
  5
2CA
330
2C0
100
AcDbEntity
  8
0
100
AcDbBlockBegin
  2
*D7
 70
     1
 10
0.0
 20
0.0
 30
0.0
  3
*D7
  1

  0
LINE
  5
2C1
330
2C0
100
AcDbEntity
  8
SUNPO
 62
     0
370
    -2
100
AcDbLine
 10
12.15028326476697
 20
-5.613232556201239
 30
0.0
 11
20.15028326476696
 21
-5.613232556201242
 31
0.0
  0
LINE
  5
2C2
330
2C0
100
AcDbEntity
  8
SUNPO
 62
     0
370
    -2
100
AcDbLine
 10
12.15028326476694
 20
30.57907757945964
 30
0.0
 11
20.15028326476697
 21
30.57907757945964
 31
0.0
  0
LINE
  5
2C3
330
2C0
100
AcDbEntity
  8
SUNPO
 62
     0
370
    -2
100
AcDbLine
 10
18.15028326476696
 20
-3.613232556201241
 30
0.0
 11
18.15028326476697
 21
28.57907757945964
 31
0.0
  0
INSERT
  5
2C4
330
2C0
100
AcDbEntity
  8
SUNPO
 62
     0
370
    -2
100
AcDbBlockReference
  2
_OPEN30
 10
18.15028326476696
 20
-5.613232556201242
 30
0.0
 41
2.0
 42
2.0
 43
2.0
 50
270.0
  0
INSERT
  5
2C5
330
2C0
100
AcDbEntity
  8
SUNPO
 62
     0
370
    -2
100
AcDbBlockReference
  2
_OPEN30
 10
18.15028326476697
 20
30.57907757945964
 30
0.0
 41
2.0
 42
2.0
 43
2.0
 50
90.0
  0
MTEXT
  5
2C6
330
2C0
100
AcDbEntity
  8
SUNPO
 62
     0
100
AcDbMText
 10
16.40028326476696
 20
12.4829225116292
 30
0.0
 40
2.5
 41
0.0
 71
     5
 72
     1
  1
\A1;724
 11
0.0000000000000001
 21
1.0
 31
0.0
 73
     1
 44
1.0
1001
ACAD
1000
MTEXTBEGIN
1070
    73
1070
     1
1070
    44
1040
1.0
1070
    74
1070
     0
1000
MTEXTEND
  0
POINT
  5
2C7
330
2C0
100
AcDbEntity
  8
DEFPOINTS
 62
     0
100
AcDbPoint
 10
10.15028326476697
 20
-5.613232556201239
 30
0.0
  0
POINT
  5
2C8
330
2C0
100
AcDbEntity
  8
DEFPOINTS
 62
     0
100
AcDbPoint
 10
10.15028326476694
 20
30.57907757945964
 30
0.0
  0
POINT
  5
2C9
330
2C0
100
AcDbEntity
  8
DEFPOINTS
 62
     0
100
AcDbPoint
 10
18.15028326476697
 20
30.57907757945964
 30
0.0
  0
ENDBLK
  5
2CB
330
2C0
100
AcDbEntity
  8
0
100
AcDbBlockEnd
  0
BLOCK
  5
2D6
330
2CC
100
AcDbEntity
  8
0
100
AcDbBlockBegin
  2
*D8
 70
     1
 10
0.0
 20
0.0
 30
0.0
  3
*D8
  1

  0
LINE
  5
2CD
330
2CC
100
AcDbEntity
  8
SUNPO
 62
     0
370
    -2
100
AcDbLine
 10
-49.90995152130527
 20
32.57879113510825
 30
0.0
 11
-49.90995152130527
 21
40.57879113510824
 31
0.0
  0
LINE
  5
2CE
330
2CC
100
AcDbEntity
  8
SUNPO
 62
     0
370
    -2
100
AcDbLine
 10
10.59004845449463
 20
32.5787911351083
 30
0.0
 11
10.59004845449463
 21
40.57879113510824
 31
0.0
  0
LINE
  5
2CF
330
2CC
100
AcDbEntity
  8
SUNPO
 62
     0
370
    -2
100
AcDbLine
 10
-47.90995152130527
 20
38.57879113510825
 30
0.0
 11
8.590048454494635
 21
38.57879113510825
 31
0.0
  0
INSERT
  5
2D0
330
2CC
100
AcDbEntity
  8
SUNPO
 62
     0
370
    -2
100
AcDbBlockReference
  2
_OPEN30
 10
-49.90995152130527
 20
38.57879113510825
 30
0.0
 41
2.0
 42
2.0
 43
2.0
 50
180.0
  0
INSERT
  5
2D1
330
2CC
100
AcDbEntity
  8
SUNPO
 62
     0
370
    -2
100
AcDbBlockReference
  2
_OPEN30
 10
10.59004845449463
 20
38.57879113510825
 30
0.0
 41
2.0
 42
2.0
 43
2.0
  0
MTEXT
  5
2D2
330
2CC
100
AcDbEntity
  8
SUNPO
 62
     0
100
AcDbMText
 10
-19.65995153340532
 20
40.32879113510825
 30
0.0
 40
2.5
 41
0.0
 71
     5
 72
     1
  1
\A1;1210
 73
     1
 44
1.0
1001
ACAD
1000
MTEXTBEGIN
1070
    73
1070
     1
1070
    44
1040
1.0
1070
    74
1070
     0
1000
MTEXTEND
  0
POINT
  5
2D3
330
2CC
100
AcDbEntity
  8
DEFPOINTS
 62
     0
100
AcDbPoint
 10
-49.90995152130527
 20
30.57879113510825
 30
0.0
  0
POINT
  5
2D4
330
2CC
100
AcDbEntity
  8
DEFPOINTS
 62
     0
100
AcDbPoint
 10
10.59004845449463
 20
30.57879113510831
 30
0.0
  0
POINT
  5
2D5
330
2CC
100
AcDbEntity
  8
DEFPOINTS
 62
     0
100
AcDbPoint
 10
10.59004845449463
 20
38.57879113510825
 30
0.0
  0
ENDBLK
  5
2D7
330
2CC
100
AcDbEntity
  8
0
100
AcDbBlockEnd
  0
ENDSEC
  0
SECTION
  2
ENTITIES
  0
TEXT
  5
30
330
2
100
AcDbEntity
  8
MOJI1
100
AcDbText
 10
-36.47319637407043
 20
49.56491264353894
 30
0.0
 40
4.0
  1
ハイビジョンプラズマディスプレイ据置きスタンド付
 41
0.85
100
AcDbText
  0
TEXT
  5
32
330
2
100
AcDbEntity
  8
TOUROKU
100
AcDbText
 10
21.52675365885722
 20
43.56491264353849
 30
0.0
 40
2.0
  1
ＴＨ５０ＰＦ２０Ｊ＋ＴＹＳＴ２０Ｋ
 72
     2
 11
61.5267536588572
 21
43.56491264353849
 31
0.0
100
AcDbText
  0
TEXT
  5
34
330
2
100
AcDbEntity
  8
MOJI1
100
AcDbText
 10
-60.9731963740702
 20
-58.43508735646117
 30
0.0
 40
3.0
  1
質　量
100
AcDbText
  0
TEXT
  5
35
330
2
100
AcDbEntity
  8
MOJI1
100
AcDbText
 10
-21.9731963740702
 20
-58.43508735646117
 30
0.0
 40
3.0
  1
約３１．０ ｋｇ
100
AcDbText
  0
LINE
  5
36
330
2
100
AcDbEntity
  8
WAKU
 62
     1
100
AcDbLine
 10
-63.4731963740702
 20
-54.43508735646116
 30
0.0
 11
61.52680362592957
 21
-54.43508735646116
 31
0.0
  0
TEXT
  5
38
330
2
100
AcDbEntity
  8
MOJI1
100
AcDbText
 10
-60.9731963740702
 20
-48.43508735646117
 30
0.0
 40
3.0
  1
入出力端子
100
AcDbText
  0
LINE
  5
39
330
2
100
AcDbEntity
  8
WAKU
 62
     1
100
AcDbLine
 10
-63.4731963740702
 20
-49.43508735646116
 30
0.0
 11
61.52680362592957
 21
-49.43508735646116
 31
0.0
  0
TEXT
  5
3A
330
2
100
AcDbEntity
  8
MOJI1
100
AcDbText
 10
-21.9731963740702
 20
-53.43508735646117
 30
0.0
 40
3.0
  1
ＤＶＩ入力、ＰＣ入力、ＬＡＮ、ＲＳ２３２Ｃ、スロット２．０
 41
0.7900000000000001
100
AcDbText
  0
LINE
  5
3B
330
2
100
AcDbEntity
  8
WAKU
 62
     4
100
AcDbLine
 10
61.52680362592957
 20
-14.43508735646117
 30
0.0
 11
61.52680362592957
 21
-59.43508735646116
 31
0.0
  0
TEXT
  5
3C
330
2
100
AcDbEntity
  8
MOJI1
100
AcDbText
 10
-60.9731963740702
 20
-33.43508735646117
 30
0.0
 40
3.0
  1
画素数
100
AcDbText
  0
TEXT
  5
3D
330
2
100
AcDbEntity
  8
MOJI1
100
AcDbText
 10
-60.9731963740702
 20
-18.43508735646117
 30
0.0
 40
3.0
  1
電  源
100
AcDbText
  0
TEXT
  5
3E
330
2
100
AcDbEntity
  8
MOJI1
100
AcDbText
 10
-60.9731963740702
 20
-23.43508735646117
 30
0.0
 40
3.0
  1
消費電力
100
AcDbText
  0
TEXT
  5
3F
330
2
100
AcDbEntity
  8
MOJI1
100
AcDbText
 10
-60.9731963740702
 20
-43.43508735646117
 30
0.0
 40
3.0
  1
音声出力
100
AcDbText
  0
TEXT
  5
40
330
2
100
AcDbEntity
  8
MOJI1
100
AcDbText
 10
-60.9731963740702
 20
-38.43508735646117
 30
0.0
 40
3.0
  1
コントラスト
100
AcDbText
  0
TEXT
  5
41
330
2
100
AcDbEntity
  8
MOJI1
100
AcDbText
 10
-60.9731963740702
 20
-28.43508735646117
 30
0.0
 40
3.0
  1
画面サイズ
100
AcDbText
  0
LINE
  5
42
330
2
100
AcDbEntity
  8
WAKU
 62
     4
100
AcDbLine
 10
-63.47319637407043
 20
-14.43508735646117
 30
0.0
 11
-63.4731963740702
 21
-59.43508735646116
 31
0.0
  0
LINE
  5
43
330
2
100
AcDbEntity
  8
WAKU
 62
     4
100
AcDbLine
 10
-23.47319637407043
 20
-14.43508735646117
 30
0.0
 11
-23.47319637407043
 21
-59.43508735646116
 31
0.0
  0
TEXT
  5
44
330
2
100
AcDbEntity
  8
MOJI1
100
AcDbText
 10
-21.9731963740702
 20
-48.43508735646117
 30
0.0
 40
3.0
  1
ビデオ入力、ＲＧＢ／コンポーネントビデオ入力、ＨＤＭＩ入力
 41
0.7800000000000001
100
AcDbText
  0
TEXT
  5
45
330
2
100
AcDbEntity
  8
MOJI1
100
AcDbText
 10
-21.9731963740702
 20
-18.43508735646117
 30
0.0
 40
3.0
  1
ＡＣ１００Ｖ　５０Ｈｚ／６０Ｈｚ
100
AcDbText
  0
TEXT
  5
46
330
2
100
AcDbEntity
  8
MOJI1
100
AcDbText
 10
-21.9731963740702
 20
-43.43508735646117
 30
0.0
 40
3.0
  1
ＲＣＡ×２(左右)
100
AcDbText
  0
TEXT
  5
47
330
2
100
AcDbEntity
  8
MOJI1
100
AcDbText
 10
-21.9731963740702
 20
-33.43508735646117
 30
0.0
 40
3.0
  1
１９２０×１０８０画素
100
AcDbText
  0
LINE
  5
48
330
2
100
AcDbEntity
  8
WAKU
 62
     4
100
AcDbLine
 10
61.52680362592957
 20
-59.43508735646116
 30
0.0
 11
-63.4731963740702
 21
-59.43508735646116
 31
0.0
  0
LINE
  5
49
330
2
100
AcDbEntity
  8
WAKU
 62
     1
100
AcDbLine
 10
-63.4731963740702
 20
-44.43508735646116
 30
0.0
 11
61.52680362592957
 21
-44.43508735646116
 31
0.0
  0
LINE
  5
4A
330
2
100
AcDbEntity
  8
WAKU
 62
     1
100
AcDbLine
 10
-63.4731963740702
 20
-39.43508735646117
 30
0.0
 11
61.52680362592957
 21
-39.43508735646117
 31
0.0
  0
LINE
  5
4B
330
2
100
AcDbEntity
  8
WAKU
 62
     1
100
AcDbLine
 10
-63.4731963740702
 20
-29.43508735646117
 30
0.0
 11
61.52680362592957
 21
-29.43508735646117
 31
0.0
  0
LINE
  5
4C
330
2
100
AcDbEntity
  8
WAKU
 62
     1
100
AcDbLine
 10
-63.4731963740702
 20
-19.43508735646117
 30
0.0
 11
61.52680362592957
 21
-19.43508735646117
 31
0.0
  0
LINE
  5
4D
330
2
100
AcDbEntity
  8
WAKU
 62
     4
100
AcDbLine
 10
-63.4731963740702
 20
-14.43508735646117
 30
0.0
 11
61.52680362592957
 21
-14.43508735646117
 31
0.0
  0
LINE
  5
4E
330
2
100
AcDbEntity
  8
WAKU
 62
     1
100
AcDbLine
 10
-63.4731963740702
 20
-34.43508735646117
 30
0.0
 11
61.52680362592957
 21
-34.43508735646117
 31
0.0
  0
LINE
  5
4F
330
2
100
AcDbEntity
  8
WAKU
 62
     1
100
AcDbLine
 10
-63.4731963740702
 20
-24.43508735646117
 30
0.0
 11
61.52680362592957
 21
-24.43508735646117
 31
0.0
  0
TEXT
  5
50
330
2
100
AcDbEntity
  8
MOJI1
100
AcDbText
 10
-21.9731963740702
 20
-38.43508735646117
 30
0.0
 40
3.0
  1
５００００００：１
100
AcDbText
  0
TEXT
  5
51
330
2
100
AcDbEntity
  8
MOJI1
100
AcDbText
 10
-21.9731963740702
 20
-28.43508735646117
 30
0.0
 40
3.0
  1
５０型（１２６８ｃｍ）１６：９
100
AcDbText
  0
TEXT
  5
52
330
2
100
AcDbEntity
  8
MOJI1
100
AcDbText
 10
-21.9731963740702
 20
-23.43508735646117
 30
0.0
 40
3.0
  1
４６０Ｗ
100
AcDbText
  0
ELLIPSE
  5
53
330
2
100
AcDbEntity
  8
GAIKEI
  6
Continuous
100
AcDbEllipse
 10
10.38977400457476
 20
-5.412958106281394
 30
0.0
 11
-0.1418092486302895
 21
0.1418092486302897
 31
0.0
210
0.0
220
0.0
230
1.0
 40
0.9972649999999998
 41
2.35756401806288
 42
3.925621289116826
  0
ELLIPSE
  5
55
330
2
100
AcDbEntity
  8
GAIKEI
  6
Continuous
100
AcDbEllipse
 10
-49.70967707138543
 20
-5.412958106281394
 30
0.0
 11
-0.1418092486302894
 21
-0.1418092486302897
 31
0.0
210
0.0
220
0.0
230
1.0
 40
0.9972649999999999
 41
5.499156671652512
 42
7.067213942706579
  0
ELLIPSE
  5
56
330
2
100
AcDbEntity
  8
GAIKEI
  6
Continuous
100
AcDbEllipse
 10
10.38977400457476
 20
30.38649297939878
 30
0.0
 11
-0.1418092486302781
 21
-0.1418092486303011
 31
0.0
210
0.0
220
0.0
230
1.0
 40
0.9972649999999998
 41
2.357564018062679
 42
3.925621289116665
  0
ELLIPSE
  5
57
330
2
100
AcDbEntity
  8
GAIKEI
  6
Continuous
100
AcDbEllipse
 10
-49.70967707138543
 20
30.38649297939878
 30
0.0
 11
-0.1418092486302778
 21
0.1418092486303013
 31
0.0
210
0.0
220
0.0
230
1.0
 40
0.9972649999999999
 41
5.499156671652713
 42
7.067213942706739
  0
ELLIPSE
  5
58
330
2
100
AcDbEntity
  8
GAIKEI
  6
Continuous
 62
     1
100
AcDbEllipse
 10
-47.23170052237661
 20
-2.972481557257594
 30
0.0
 11
-0.0717687987905345
 21
-0.071768798790594
 31
0.0
210
0.0
220
0.0
230
1.0
 40
0.985257
 41
5.505213485254125
 42
7.061157129104256
  0
ELLIPSE
  5
59
330
2
100
AcDbEntity
  8
GAIKEI
  6
Continuous
 62
     1
100
AcDbEllipse
 10
7.911797455565945
 20
-2.972481557257594
 30
0.0
 11
-0.0717687987905345
 21
0.071768798790594
 31
0.0
210
0.0
220
0.0
230
1.0
 40
0.985257
 41
2.363620831665123
 42
3.919564475515255
  0
ELLIPSE
  5
5A
330
2
100
AcDbEntity
  8
GAIKEI
  6
Continuous
 62
     1
100
AcDbEllipse
 10
7.911797455565945
 20
27.94601643037504
 30
0.0
 11
-0.0717687987905403
 21
-0.0717687987905877
 31
0.0
210
0.0
220
0.0
230
1.0
 40
0.9852569999999998
 41
2.363620831663935
 42
3.919564475514135
  0
ELLIPSE
  5
5B
330
2
100
AcDbEntity
  8
GAIKEI
  6
Continuous
 62
     1
100
AcDbEllipse
 10
-47.23170052237661
 20
27.94601643037504
 30
0.0
 11
-0.0717687987905402
 21
0.0717687987905878
 31
0.0
210
0.0
220
0.0
230
1.0
 40
0.9852570000000001
 41
5.505213485255321
 42
7.061157129105444
  0
ELLIPSE
  5
5C
330
2
100
AcDbEntity
  8
GAIKEI
  6
Continuous
 62
     1
100
AcDbEllipse
 10
-47.24411122237164
 20
-2.98084985725427
 30
0.0
 11
-0.0866320186582643
 21
-0.127229069338253
 31
0.0
210
0.0
220
0.0
230
1.0
 40
0.973581
 41
6.10967819105908
 42
6.868592923299293
  0
ELLIPSE
  5
5D
330
2
100
AcDbEntity
  8
GAIKEI
  6
Continuous
 62
     1
100
AcDbEllipse
 10
7.924208155560975
 20
-2.98084985725427
 30
0.0
 11
-0.0866320186582643
 21
0.1272290693382531
 31
0.0
210
0.0
220
0.0
230
1.0
 40
0.9735809999999998
 41
2.556185037470086
 42
3.315099769710523
  0
ELLIPSE
  5
5E
330
2
100
AcDbEntity
  8
GAIKEI
  6
Continuous
 62
     1
100
AcDbEllipse
 10
7.920165755562621
 20
-2.984892257252681
 30
0.0
 11
-0.1272290693381955
 21
0.0866320186583462
 31
0.0
210
0.0
220
0.0
230
1.0
 40
0.973581
 41
2.968085537466982
 42
3.727000269710492
  0
ELLIPSE
  5
5F
330
2
100
AcDbEntity
  8
GAIKEI
  6
Continuous
 62
     1
100
AcDbEllipse
 10
7.920165755562621
 20
27.95842713037001
 30
0.0
 11
-0.1272290693382016
 21
-0.0866320186583367
 31
0.0
210
0.0
220
0.0
230
0.9999999999999998
 40
0.9735809999999998
 41
2.556185037469163
 42
3.315099769710879
  0
ELLIPSE
  5
60
330
2
100
AcDbEntity
  8
GAIKEI
  6
Continuous
 62
     1
100
AcDbEllipse
 10
-47.24006882237328
 20
27.95842713037001
 30
0.0
 11
-0.1272290693382015
 21
0.0866320186583368
 31
0.0
210
0.0
220
0.0
230
1.0
 40
0.9735809999999998
 41
6.109678191058712
 42
6.868592923300215
  0
ELLIPSE
  5
61
330
2
100
AcDbEntity
  8
GAIKEI
  6
Continuous
 62
     1
100
AcDbEllipse
 10
-47.24006882237328
 20
-2.984892257252681
 30
0.0
 11
-0.1272290693381955
 21
-0.0866320186583462
 31
0.0
210
0.0
220
0.0
230
1.0
 40
0.9735809999999997
 41
5.697777691058886
 42
6.456692423302397
  0
ELLIPSE
  5
62
330
2
100
AcDbEntity
  8
GAIKEI
  6
Continuous
 62
     1
100
AcDbEllipse
 10
7.924208155560975
 20
27.9543847303716
 30
0.0
 11
-0.0866320186582728
 21
-0.1272290693382461
 31
0.0
210
0.0
220
0.0
230
1.0
 40
0.9735809999999998
 41
2.9680855374661
 42
3.7270002697099
  0
ELLIPSE
  5
63
330
2
100
AcDbEntity
  8
GAIKEI
  6
Continuous
 62
     1
100
AcDbEllipse
 10
-47.2441112223717
 20
27.9543847303716
 30
0.0
 11
-0.0866320186582728
 21
0.1272290693382462
 31
0.0
210
0.0
220
0.0
230
1.0
 40
0.9735809999999998
 41
5.69777769105948
 42
6.456692423303279
  0
ELLIPSE
  5
64
330
2
100
AcDbEntity
  8
GAIKEI
  6
Continuous
 62
     1
100
AcDbEllipse
 10
-47.87011652212122
 20
-3.608876357003055
 30
0.0
 11
-0.0740370952919559
 21
0.0126634681883972
 31
0.0
210
0.0
220
0.0
230
1.0
 40
0.9955149999999999
 41
0.9759762355291181
 42
1.740947781372067
  0
ELLIPSE
  5
65
330
2
100
AcDbEntity
  8
GAIKEI
  6
Continuous
 62
     1
100
AcDbEllipse
 10
8.550213455310611
 20
-3.608876357003055
 30
0.0
 11
-0.074037095291956
 21
-0.0126634681883971
 31
0.0
210
0.0
220
0.0
230
1.0
 40
0.9955149999999999
 41
1.400644872217725
 42
2.165616418060674
  0
ELLIPSE
  5
66
330
2
100
AcDbEntity
  8
GAIKEI
  6
Continuous
 62
     1
100
AcDbEllipse
 10
8.548192255311406
 20
28.58443243011965
 30
0.0
 11
-0.0126634681884039
 21
0.0740370952919547
 31
0.0
210
0.0
220
0.0
230
1.0
 40
0.9955149999999999
 41
4.542237525807408
 42
5.30720907164956
  0
ELLIPSE
  5
67
330
2
100
AcDbEntity
  8
GAIKEI
  6
Continuous
 62
     1
100
AcDbEllipse
 10
-47.86809532212202
 20
28.58443243011959
 30
0.0
 11
-0.012663468188404
 21
-0.0740370952919547
 31
0.0
210
0.0
220
0.0
230
1.0
 40
0.9955149999999997
 41
4.117568889119865
 42
4.882540434962009
  0
ELLIPSE
  5
68
330
2
100
AcDbEntity
  8
GAIKEI
  6
Continuous
 62
     1
100
AcDbEllipse
 10
8.548192255311406
 20
-3.61089755700226
 30
0.0
 11
-0.0126634681884195
 21
-0.0740370952919523
 31
0.0
210
0.0
220
0.0
230
1.0
 40
0.9955149999999999
 41
0.975976235527481
 42
1.740947781372396
  0
ELLIPSE
  5
69
330
2
100
AcDbEntity
  8
GAIKEI
  6
Continuous
 62
     1
100
AcDbEllipse
 10
-47.86809532212202
 20
-3.61089755700226
 30
0.0
 11
-0.0126634681884195
 21
0.0740370952919524
 31
0.0
210
0.0
220
0.0
230
1.0
 40
0.9955149999999999
 41
1.400644872217396
 42
2.165616418062327
  0
ELLIPSE
  5
6A
330
2
100
AcDbEntity
  8
GAIKEI
  6
Continuous
 62
     1
100
AcDbEllipse
 10
-47.87011652212122
 20
28.58241123012039
 30
0.0
 11
-0.0740370952919559
 21
-0.0126634681883976
 31
0.0
210
0.0
220
0.0
230
1.0
 40
0.9955150000000001
 41
4.54223752580752
 42
5.307209071653165
  0
ELLIPSE
  5
6B
330
2
100
AcDbEntity
  8
GAIKEI
  6
Continuous
 62
     1
100
AcDbEllipse
 10
8.550213455310554
 20
28.58241123012039
 30
0.0
 11
-0.0740370952919559
 21
0.0126634681883976
 31
0.0
210
0.0
220
0.0
230
1.0
 40
0.9955149999999999
 41
4.117568889116213
 42
4.882540434961859
  0
ELLIPSE
  5
6C
330
2
100
AcDbEntity
  8
GAIKEI
  6
Continuous
 62
     1
100
AcDbEllipse
 10
-48.98847107167386
 20
-4.691752106569936
 30
0.0
 11
-0.5021965241687356
 21
-0.502196524168813
 31
0.0
210
0.0
220
0.0
230
1.0
 40
0.49281
 41
5.872221302136444
 42
6.694149312222707
  0
ELLIPSE
  5
6D
330
2
100
AcDbEntity
  8
GAIKEI
  6
Continuous
 62
     1
100
AcDbEllipse
 10
9.668568004863246
 20
-4.691752106569936
 30
0.0
 11
-0.5021965241687355
 21
0.502196524168813
 31
0.0
210
0.0
220
0.0
230
1.0
 40
0.49281
 41
2.730628648546692
 42
3.552556658632933
  0
ELLIPSE
  5
6E
330
2
100
AcDbEntity
  8
GAIKEI
  6
Continuous
 62
     1
100
AcDbEllipse
 10
-48.98847107167391
 20
29.66528697968732
 30
0.0
 11
-0.5021965241687404
 21
0.5021965241687347
 31
0.0
210
0.0
220
0.0
230
1.0
 40
0.49281
 41
5.87222130213647
 42
6.694149312222702
  0
ELLIPSE
  5
6F
330
2
100
AcDbEntity
  8
GAIKEI
  6
Continuous
 62
     1
100
AcDbEllipse
 10
9.668568004863246
 20
29.66528697968732
 30
0.0
 11
-0.5021965241687404
 21
-0.5021965241687347
 31
0.0
210
0.0
220
0.0
230
1.0
 40
0.49281
 41
2.730628648546677
 42
3.552556658632908
  0
ELLIPSE
  5
70
330
2
100
AcDbEntity
  8
GAIKEI
  6
Continuous
 62
     1
100
AcDbEllipse
 10
-47.29485602235136
 20
-5.088137056411426
 30
0.0
 11
-0.0178124651901381
 21
-0.0178124651901247
 31
0.0
210
0.0
220
0.0
230
1.0
 40
0.9924329999999999
 41
5.501585242054793
 42
7.064785372306292
  0
ELLIPSE
  5
71
330
2
100
AcDbEntity
  8
GAIKEI
  6
Continuous
 62
     1
100
AcDbEllipse
 10
-47.29485602235136
 20
-4.788328056531383
 30
0.0
 11
-0.0178124651901339
 21
0.0178124651901291
 31
0.0
210
0.0
220
0.0
230
1.0
 40
0.9924329999999999
 41
5.501585242053079
 42
7.064785372305734
  0
ELLIPSE
  5
72
330
2
100
AcDbEntity
  8
GAIKEI
  6
Continuous
 62
     1
100
AcDbEllipse
 10
-46.99504702247127
 20
-4.78832805653127
 30
0.0
 11
-0.0178124651901247
 21
-0.017812465190138
 31
0.0
210
0.0
220
0.0
230
1.0
 40
0.9924329999999999
 41
2.359992588465041
 42
3.923192718713587
  0
ELLIPSE
  5
73
330
2
100
AcDbEntity
  8
GAIKEI
  6
Continuous
 62
     1
100
AcDbEllipse
 10
-46.99504702247127
 20
-5.088137056411369
 30
0.0
 11
-0.0178124651901289
 21
0.0178124651901336
 31
0.0
210
0.0
220
0.0
230
1.0
 40
0.9924329999999997
 41
2.359992588465599
 42
3.923192718713108
  0
ELLIPSE
  5
74
330
2
100
AcDbEntity
  8
GAIKEI
  6
Continuous
 62
     1
100
AcDbEllipse
 10
8.556204555308184
 20
28.59042353011716
 30
0.0
 11
-0.1595354047091992
 21
-0.1595354047089533
 31
0.0
210
0.0
220
0.0
230
1.0
 40
0.9972649999999998
 41
2.357564018063572
 42
3.925621289117657
  0
ELLIPSE
  5
75
330
2
100
AcDbEntity
  8
GAIKEI
  6
Continuous
 62
     1
100
AcDbEllipse
 10
8.556204555308184
 20
-3.616888656999833
 30
0.0
 11
-0.159535404709188
 21
0.1595354047089651
 31
0.0
210
0.0
220
0.0
230
1.0
 40
0.9972649999999998
 41
2.357564018062
 42
3.925621289115982
  0
ELLIPSE
  5
76
330
2
100
AcDbEntity
  8
GAIKEI
  6
Continuous
 62
     1
100
AcDbEllipse
 10
-47.87610762211885
 20
-3.61688865699989
 30
0.0
 11
-0.1595354047091879
 21
-0.1595354047089651
 31
0.0
210
0.0
220
0.0
230
1.0
 40
0.9972649999999999
 41
5.499156671653361
 42
7.067213942707414
  0
ELLIPSE
  5
77
330
2
100
AcDbEntity
  8
GAIKEI
  6
Continuous
 62
     1
100
AcDbEllipse
 10
-47.87610762211885
 20
28.59042353011711
 30
0.0
 11
-0.159535404709199
 21
0.1595354047089534
 31
0.0
210
0.0
220
0.0
230
1.0
 40
0.9972649999999998
 41
5.499156671651721
 42
7.067213942705842
  0
LINE
  5
78
330
2
100
AcDbEntity
  8
GAIKEI
  6
Continuous
100
AcDbLine
 10
-49.71022562138522
 20
-5.613232556201239
 30
0.0
 11
10.39032255457461
 21
-5.613232556201239
 31
0.0
  0
LINE
  5
79
330
2
100
AcDbEntity
  8
GAIKEI
  6
Continuous
100
AcDbLine
 10
-49.90995152130533
 20
30.38704152939863
 30
0.0
 11
-49.90995152130533
 21
-5.413506656281128
 31
0.0
  0
LINE
  5
7A
330
2
100
AcDbEntity
  8
GAIKEI
  6
Continuous
100
AcDbLine
 10
10.59004845449466
 20
30.38704152939863
 30
0.0
 11
10.59004845449466
 21
-5.413506656281128
 31
0.0
  0
LINE
  5
7B
330
2
100
AcDbEntity
  8
GAIKEI
  6
Continuous
100
AcDbLine
 10
-49.71022562138522
 20
30.58676742931874
 30
0.0
 11
10.39032255457461
 21
30.58676742931874
 31
0.0
  0
LINE
  5
7C
330
2
100
AcDbEntity
  8
GAIKEI
  6
Continuous
 62
     1
100
AcDbLine
 10
10.45464830454885
 20
-5.278106506335291
 30
0.0
 11
10.59004845449466
 21
-5.413506656281128
 31
0.0
  0
LINE
  5
7D
330
2
100
AcDbEntity
  8
GAIKEI
  6
Continuous
 62
     1
100
AcDbLine
 10
10.39032255457461
 20
-5.613232556201239
 30
0.0
 11
10.25492240462871
 21
-5.477832406255402
 31
0.0
  0
LINE
  5
7E
330
2
100
AcDbEntity
  8
GAIKEI
  6
Continuous
 62
     1
100
AcDbLine
 10
-49.71022562138522
 20
-5.613232556201239
 30
0.0
 11
-49.57482547143938
 21
-5.477832406255402
 31
0.0
  0
LINE
  5
7F
330
2
100
AcDbEntity
  8
GAIKEI
  6
Continuous
 62
     1
100
AcDbLine
 10
-49.77455137135949
 20
-5.278106506335348
 30
0.0
 11
-49.90995152130533
 21
-5.413506656281128
 31
0.0
  0
LINE
  5
80
330
2
100
AcDbEntity
  8
GAIKEI
  6
Continuous
 62
     1
100
AcDbLine
 10
10.25492240462871
 20
30.45136727937285
 30
0.0
 11
10.39032255457461
 21
30.58676742931874
 31
0.0
  0
LINE
  5
81
330
2
100
AcDbEntity
  8
GAIKEI
  6
Continuous
 62
     1
100
AcDbLine
 10
10.59004845449466
 20
30.38704152939863
 30
0.0
 11
10.45464830454885
 21
30.25164137945285
 31
0.0
  0
LINE
  5
82
330
2
100
AcDbEntity
  8
GAIKEI
  6
Continuous
 62
     1
100
AcDbLine
 10
-49.90995152130533
 20
30.38704152939863
 30
0.0
 11
-49.77455137135949
 21
30.25164137945291
 31
0.0
  0
LINE
  5
83
330
2
100
AcDbEntity
  8
GAIKEI
  6
Continuous
 62
     1
100
AcDbLine
 10
-49.57482547143936
 20
30.45136727937285
 30
0.0
 11
-49.71022562138522
 21
30.58676742931874
 31
0.0
  0
LINE
  5
84
330
2
100
AcDbEntity
  8
GAIKEI
  6
Continuous
 62
     1
100
AcDbLine
 10
-47.23319692237599
 20
-3.073232557217238
 30
0.0
 11
7.913293855565385
 21
-3.073232557217238
 31
0.0
  0
LINE
  5
85
330
2
100
AcDbEntity
  8
GAIKEI
  6
Continuous
 62
     1
100
AcDbLine
 10
-47.33245152233631
 20
27.94751283037448
 30
0.0
 11
-47.33245152233631
 21
-2.973977957256977
 31
0.0
  0
LINE
  5
86
330
2
100
AcDbEntity
  8
GAIKEI
  6
Continuous
 62
     1
100
AcDbLine
 10
8.012548455525703
 20
27.94751283037448
 30
0.0
 11
8.012548455525703
 21
-2.973977957256977
 31
0.0
  0
LINE
  5
87
330
2
100
AcDbEntity
  8
GAIKEI
  6
Continuous
 62
     1
100
AcDbLine
 10
-47.23319692237599
 20
28.04676743033474
 30
0.0
 11
7.913293855565385
 21
28.04676743033474
 31
0.0
  0
LINE
  5
88
330
2
100
AcDbEntity
  8
GAIKEI
  6
Continuous
 62
     1
100
AcDbLine
 10
-47.24787602237016
 20
-3.133496607193137
 30
0.0
 11
7.927972955559553
 21
-3.133496607193137
 31
0.0
  0
LINE
  5
89
330
2
100
AcDbEntity
  8
GAIKEI
  6
Continuous
 62
     1
100
AcDbLine
 10
8.072812505501602
 20
27.96219193036859
 30
0.0
 11
8.072812505501602
 21
-2.988657057251089
 31
0.0
  0
LINE
  5
8A
330
2
100
AcDbEntity
  8
GAIKEI
  6
Continuous
 62
     1
100
AcDbLine
 10
8.030923705518333
 20
-3.091607807209925
 30
0.0
 11
8.602142305289831
 21
-3.662826406981423
 31
0.0
  0
LINE
  5
8B
330
2
100
AcDbEntity
  8
GAIKEI
  6
Continuous
 62
     1
100
AcDbLine
 10
-47.39271557231221
 20
27.96219193036859
 30
0.0
 11
-47.39271557231221
 21
-2.988657057251089
 31
0.0
  0
LINE
  5
8C
330
2
100
AcDbEntity
  8
GAIKEI
  6
Continuous
 62
     1
100
AcDbLine
 10
-47.35082677232894
 20
-3.091607807209925
 30
0.0
 11
-47.92204537210044
 21
-3.662826406981423
 31
0.0
  0
LINE
  5
8D
330
2
100
AcDbEntity
  8
GAIKEI
  6
Continuous
 62
     1
100
AcDbLine
 10
7.927972955559553
 20
28.10703148031064
 30
0.0
 11
-47.24787602237016
 21
28.10703148031064
 31
0.0
  0
LINE
  5
8E
330
2
100
AcDbEntity
  8
GAIKEI
  6
Continuous
 62
     1
100
AcDbLine
 10
8.602142305289831
 20
28.63636128009892
 30
0.0
 11
8.030923705518333
 21
28.06514268032742
 31
0.0
  0
LINE
  5
8F
330
2
100
AcDbEntity
  8
GAIKEI
  6
Continuous
 62
     1
100
AcDbLine
 10
-47.92204537210044
 20
28.63636128009892
 30
0.0
 11
-47.35082677232894
 21
28.06514268032742
 31
0.0
  0
LINE
  5
90
330
2
100
AcDbEntity
  8
GAIKEI
  6
Continuous
 62
     1
100
AcDbLine
 10
8.550101255310678
 20
-3.683661356973061
 30
0.0
 11
-47.87000432212129
 21
-3.683661356973061
 31
0.0
  0
LINE
  5
91
330
2
100
AcDbEntity
  8
GAIKEI
  6
Continuous
 62
     1
100
AcDbLine
 10
8.622977255281526
 20
-3.610785357002214
 30
0.0
 11
8.622977255281526
 21
28.58432023011971
 31
0.0
  0
LINE
  5
92
330
2
100
AcDbEntity
  8
GAIKEI
  6
Continuous
 62
     1
100
AcDbLine
 10
-47.94288032209213
 20
-3.610785357002214
 30
0.0
 11
-47.94288032209213
 21
28.58432023011971
 31
0.0
  0
LINE
  5
93
330
2
100
AcDbEntity
  8
GAIKEI
  6
Continuous
 62
     1
100
AcDbLine
 10
-47.87000432212129
 20
28.65719623009056
 30
0.0
 11
8.550101255310678
 21
28.65719623009056
 31
0.0
  0
LINE
  5
94
330
2
100
AcDbEntity
  8
GAIKEI
  6
Continuous
 62
     1
100
AcDbLine
 10
10.25690920462797
 20
-5.477832406255402
 30
0.0
 11
-49.57681227143858
 21
-5.477832406255402
 31
0.0
  0
LINE
  5
95
330
2
100
AcDbEntity
  8
GAIKEI
  6
Continuous
 62
     1
100
AcDbLine
 10
10.45464830454888
 20
-5.280093306334492
 30
0.0
 11
10.45464830454888
 21
30.25362817945199
 31
0.0
  0
LINE
  5
96
330
2
100
AcDbEntity
  8
GAIKEI
  6
Continuous
 62
     1
100
AcDbLine
 10
-49.77455137135949
 20
-5.280093306334492
 30
0.0
 11
-49.77455137135949
 21
30.25362817945199
 31
0.0
  0
LINE
  5
97
330
2
100
AcDbEntity
  8
GAIKEI
  6
Continuous
 62
     1
100
AcDbLine
 10
-49.57681227143858
 20
30.4513672793729
 30
0.0
 11
10.25690920462797
 21
30.4513672793729
 31
0.0
  0
LINE
  5
98
330
2
100
AcDbEntity
  8
GAIKEI
  6
Continuous
 62
     1
100
AcDbLine
 10
10.25690920462797
 20
-5.477832406255402
 30
0.0
 11
10.03008015471865
 21
-5.251003356346132
 31
0.0
  0
LINE
  5
99
330
2
100
AcDbEntity
  8
GAIKEI
  6
Continuous
 62
     1
100
AcDbLine
 10
10.22781925463961
 20
-5.053264256425222
 30
0.0
 11
10.45464830454888
 21
-5.280093306334492
 31
0.0
  0
LINE
  5
9A
330
2
100
AcDbEntity
  8
GAIKEI
  6
Continuous
 62
     1
100
AcDbLine
 10
-49.54772232145022
 20
-5.053264256425222
 30
0.0
 11
-49.77455137135949
 21
-5.280093306334492
 31
0.0
  0
LINE
  5
9B
330
2
100
AcDbEntity
  8
GAIKEI
  6
Continuous
 62
     1
100
AcDbLine
 10
-49.57681227143858
 20
-5.477832406255402
 30
0.0
 11
-49.34998322152932
 21
-5.251003356346132
 31
0.0
  0
LINE
  5
9C
330
2
100
AcDbEntity
  8
GAIKEI
  6
Continuous
 62
     1
100
AcDbLine
 10
10.45464830454888
 20
30.25362817945199
 30
0.0
 11
10.22781925463961
 21
30.02679912954273
 31
0.0
  0
LINE
  5
9D
330
2
100
AcDbEntity
  8
GAIKEI
  6
Continuous
 62
     1
100
AcDbLine
 10
10.03008015471865
 20
30.22453822946363
 30
0.0
 11
10.25690920462797
 21
30.4513672793729
 31
0.0
  0
LINE
  5
9E
330
2
100
AcDbEntity
  8
GAIKEI
  6
Continuous
 62
     1
100
AcDbLine
 10
-49.34998322152932
 20
30.22453822946363
 30
0.0
 11
-49.57681227143858
 21
30.4513672793729
 31
0.0
  0
LINE
  5
9F
330
2
100
AcDbEntity
  8
GAIKEI
  6
Continuous
 62
     1
100
AcDbLine
 10
-49.77455137135949
 20
30.25362817945199
 30
0.0
 11
-49.54772232145022
 21
30.02679912954273
 31
0.0
  0
LINE
  5
A0
330
2
100
AcDbEntity
  8
GAIKEI
  6
Continuous
 62
     1
100
AcDbLine
 10
-49.34998322152932
 20
-5.251003356346132
 30
0.0
 11
10.03008015471865
 21
-5.251003356346132
 31
0.0
  0
LINE
  5
A1
330
2
100
AcDbEntity
  8
GAIKEI
  6
Continuous
 62
     1
100
AcDbLine
 10
-49.54772232145022
 20
30.02679912954273
 30
0.0
 11
-49.54772232145022
 21
-5.053264256425222
 31
0.0
  0
LINE
  5
A2
330
2
100
AcDbEntity
  8
GAIKEI
  6
Continuous
 62
     1
100
AcDbLine
 10
10.22781925463961
 20
30.02679912954273
 30
0.0
 11
10.22781925463961
 21
-5.053264256425222
 31
0.0
  0
LINE
  5
A3
330
2
100
AcDbEntity
  8
GAIKEI
  6
Continuous
 62
     1
100
AcDbLine
 10
-48.91620152170286
 20
-4.994482556448758
 30
0.0
 11
-48.80370152174781
 21
-4.994482556448758
 31
0.0
  0
LINE
  5
A4
330
2
100
AcDbEntity
  8
GAIKEI
  6
Continuous
 62
     1
100
AcDbLine
 10
-48.91620152170286
 20
-4.994482556448758
 30
0.0
 11
-48.91620152170286
 21
-4.881982556493767
 31
0.0
  0
LINE
  5
A5
330
2
100
AcDbEntity
  8
GAIKEI
  6
Continuous
 62
     1
100
AcDbLine
 10
-48.91620152170286
 20
-4.881982556493767
 30
0.0
 11
-48.80370152174781
 21
-4.881982556493767
 31
0.0
  0
LINE
  5
A6
330
2
100
AcDbEntity
  8
GAIKEI
  6
Continuous
 62
     1
100
AcDbLine
 10
-48.80370152174781
 20
-4.994482556448758
 30
0.0
 11
-48.80370152174781
 21
-4.881982556493767
 31
0.0
  0
LINE
  5
A7
330
2
100
AcDbEntity
  8
GAIKEI
  6
Continuous
 62
     1
100
AcDbLine
 10
-47.29504667235128
 20
-5.113232556401271
 30
0.0
 11
-46.99485637247135
 21
-5.113232556401271
 31
0.0
  0
LINE
  5
A8
330
2
100
AcDbEntity
  8
GAIKEI
  6
Continuous
 62
     1
100
AcDbLine
 10
-47.31995152234133
 20
-5.088327706411178
 30
0.0
 11
-47.31995152234133
 21
-4.788137406531291
 31
0.0
  0
LINE
  5
A9
330
2
100
AcDbEntity
  8
GAIKEI
  6
Continuous
 62
     1
100
AcDbLine
 10
-47.29504667235128
 20
-4.763232556541254
 30
0.0
 11
-46.99485637247135
 21
-4.763232556541254
 31
0.0
  0
LINE
  5
AA
330
2
100
AcDbEntity
  8
GAIKEI
  6
Continuous
 62
     1
100
AcDbLine
 10
-46.9699515224813
 20
-5.088327706411178
 30
0.0
 11
-46.9699515224813
 21
-4.788137406531291
 31
0.0
  0
LINE
  5
AB
330
2
100
AcDbEntity
  8
GAIKEI
  6
Continuous
 62
     1
100
AcDbLine
 10
8.556821705307996
 20
28.81573233002723
 30
0.0
 11
-47.8767247721186
 21
28.81573233002723
 31
0.0
  0
LINE
  5
AC
330
2
100
AcDbEntity
  8
GAIKEI
  6
Continuous
 62
     1
100
AcDbLine
 10
8.781513355218081
 20
28.59104068011703
 30
0.0
 11
8.781513355218081
 21
-3.617505806999531
 31
0.0
  0
LINE
  5
AD
330
2
100
AcDbEntity
  8
GAIKEI
  6
Continuous
 62
     1
100
AcDbLine
 10
-47.8767247721186
 20
-3.842197456909673
 30
0.0
 11
8.556821705307996
 21
-3.842197456909673
 31
0.0
  0
LINE
  5
AE
330
2
100
AcDbEntity
  8
GAIKEI
  6
Continuous
 62
     1
100
AcDbLine
 10
-48.10141642202875
 20
28.59104068011703
 30
0.0
 11
-48.10141642202875
 21
-3.617505806999531
 31
0.0
  0
LINE
  5
AF
330
2
100
AcDbEntity
  8
GAIKEI
  6
Continuous
 62
     1
100
AcDbLine
 10
10.03008015471865
 20
30.22453822946363
 30
0.0
 11
-49.34998322152932
 21
30.22453822946363
 31
0.0
  0
SPLINE
  5
B0
330
2
100
AcDbEntity
  8
GAIKEI
  6
Continuous
 62
     1
100
AcDbSpline
210
0.0
220
0.0
230
1.0
 70
     8
 71
     3
 72
    19
 73
    15
 74
    13
 42
0.0000000001
 43
0.0000000001
 44
0.000001
 12
-0.0752275697466489
 22
-0.9971663917070275
 32
0.0
 13
-0.9971651028676605
 23
-0.0752446517895329
 33
0.0
 40
0.0
 40
0.0
 40
0.0
 40
0.0
 40
0.030715435581598
 40
0.0474030577360387
 40
0.0651725077225307
 40
0.0907715901220474
 40
0.1187843457348832
 40
0.1493748434380475
 40
0.1799684720830004
 40
0.207983186293572
 40
0.2335829246325495
 40
0.2513519490566258
 40
0.2680383244278167
 40
0.2987487387220922
 40
0.2987487387220922
 40
0.2987487387220922
 40
0.2987487387220922
 10
10.45464828678372
 20
-5.280093317433397
 30
0.0
 10
10.45387807092622
 20
-5.290302784122957
 30
0.0
 10
10.45115640106549
 20
-5.306013408669969
 30
0.0
 10
10.44402573119964
 20
-5.326564732201461
 30
0.0
 10
10.43570931438552
 20
-5.34480556514552
 30
0.0
 10
10.42357076792069
 20
-5.365333481896186
 30
0.0
 10
10.40673324835663
 20
-5.387851016692138
 30
0.0
 10
10.38662941171567
 20
-5.409815015719914
 30
0.0
 10
10.36466355774064
 20
-5.429917771628083
 30
0.0
 10
10.34214386218497
 20
-5.446755557070559
 30
0.0
 10
10.32161512860827
 20
-5.458894125136851
 30
0.0
 10
10.30337461942574
 20
-5.467210407728657
 30
0.0
 10
10.28282551005263
 20
-5.474340643811558
 30
0.0
 10
10.26711700020306
 20
-5.477062123680411
 30
0.0
 10
10.25690921572676
 20
-5.477832388490355
 30
0.0
 11
10.45464828678372
 21
-5.280093317433397
 31
0.0
 11
10.44931512612312
 21
-5.310342312018576
 31
0.0
 11
10.44390822828167
 21
-5.326129530567015
 31
0.0
 11
10.43656272225941
 21
-5.342309538551887
 31
0.0
 11
10.42361471381913
 21
-5.364392450478419
 31
0.0
 11
10.40690749779186
 21
-5.386877463914515
 31
0.0
 11
10.38631021545394
 21
-5.409494317160692
 31
0.0
 11
10.36368976411764
 21
-5.430092298493775
 31
0.0
 11
10.34120250773868
 21
-5.446799779856405
 31
0.0
 11
10.31911880262216
 21
-5.459747732431424
 31
0.0
 11
10.30293918068516
 21
-5.467093059502587
 31
0.0
 11
10.28715319755521
 21
-5.472499717002165
 31
0.0
 11
10.25690921572676
 21
-5.477832388490355
 31
0.0
  0
SPLINE
  5
B1
330
2
100
AcDbEntity
  8
GAIKEI
  6
Continuous
 62
     1
100
AcDbSpline
210
0.0
220
0.0
230
1.0
 70
     8
 71
     3
 72
    19
 73
    15
 74
    13
 42
0.0000000001
 43
0.0000000001
 44
0.000001
 12
0.075227569746649
 22
-0.9971663917070275
 32
0.0
 13
0.9971651028676605
 23
-0.0752446517895329
 33
0.0
 40
0.0
 40
0.0
 40
0.0
 40
0.0
 40
0.0307154355815887
 40
0.0474030577360468
 40
0.0651725077224854
 40
0.0907715901220242
 40
0.1187843457348643
 40
0.149374843437977
 40
0.1799684720830103
 40
0.2079831862935447
 40
0.2335829246325652
 40
0.2513519490566447
 40
0.2680383244278423
 40
0.2987487387220646
 40
0.2987487387220646
 40
0.2987487387220646
 40
0.2987487387220646
 10
-49.77455135359439
 20
-5.280093317433397
 30
0.0
 10
-49.77378113773688
 20
-5.290302784122957
 30
0.0
 10
-49.77105946787624
 20
-5.306013408669969
 30
0.0
 10
-49.76392879801031
 20
-5.326564732201461
 30
0.0
 10
-49.75561238119615
 20
-5.344805565145463
 30
0.0
 10
-49.74347383473144
 20
-5.365333481896243
 30
0.0
 10
-49.72663631516736
 20
-5.387851016691968
 30
0.0
 10
-49.70653247852637
 20
-5.409815015720027
 30
0.0
 10
-49.68456662455136
 20
-5.429917771628026
 30
0.0
 10
-49.66204692899563
 20
-5.446755557070559
 30
0.0
 10
-49.64151819541899
 20
-5.458894125136794
 30
0.0
 10
-49.62327768623639
 20
-5.467210407728657
 30
0.0
 10
-49.60272857686331
 20
-5.474340643811558
 30
0.0
 10
-49.58702006701376
 20
-5.477062123680468
 30
0.0
 10
-49.57681228253749
 20
-5.477832388490412
 30
0.0
 11
-49.77455135359439
 21
-5.280093317433397
 31
0.0
 11
-49.76921819293385
 21
-5.310342312018576
 31
0.0
 11
-49.76381129509234
 21
-5.326129530567015
 31
0.0
 11
-49.75646578907007
 21
-5.34230953855183
 31
0.0
 11
-49.74351778062986
 21
-5.364392450478419
 31
0.0
 11
-49.72681056460259
 21
-5.386877463914515
 31
0.0
 11
-49.70621328226467
 21
-5.409494317160636
 31
0.0
 11
-49.6835928309283
 21
-5.430092298493775
 31
0.0
 11
-49.66110557454941
 21
-5.446799779856405
 31
0.0
 11
-49.63902186943283
 21
-5.459747732431424
 31
0.0
 11
-49.62284224749582
 21
-5.467093059502587
 31
0.0
 11
-49.60705626436588
 21
-5.472499717002165
 31
0.0
 11
-49.57681228253749
 21
-5.477832388490412
 31
0.0
  0
SPLINE
  5
B2
330
2
100
AcDbEntity
  8
GAIKEI
  6
Continuous
 62
     1
100
AcDbSpline
210
0.0
220
0.0
230
1.0
 70
     8
 71
     3
 72
    19
 73
    15
 74
    13
 42
0.0000000001
 43
0.0000000001
 44
0.000001
 12
0.9971663916962711
 22
-0.075227569889229
 32
0.0
 13
0.075244651693976
 23
-0.9971651028748709
 33
0.0
 40
0.0
 40
0.0
 40
0.0
 40
0.0
 40
0.0307154355883691
 40
0.0474030577445691
 40
0.0651725077316982
 40
0.090771590130224
 40
0.1187843457395697
 40
0.1493748434368646
 40
0.1799684720857627
 40
0.2079831862986878
 40
0.2335829246383537
 40
0.2513519490620101
 40
0.2680383244320025
 40
0.2987487387217432
 40
0.2987487387217432
 40
0.2987487387217432
 40
0.2987487387217432
 10
10.25690921572676
 20
30.45136726160774
 30
0.0
 10
10.26711868241844
 20
30.45059704574863
 30
0.0
 10
10.28282930696797
 20
30.44787537588565
 30
0.0
 10
10.30338063050195
 20
30.44074470601799
 30
0.0
 10
10.32162146344626
 20
30.43242828920325
 30
0.0
 10
10.34214938019577
 20
30.42028974273922
 30
0.0
 10
10.36466691498894
 20
30.40345222317711
 30
0.0
 10
10.38663091401552
 20
30.38334838653759
 30
0.0
 10
10.40673366992382
 20
30.3613825325624
 30
0.0
 10
10.42357145536776
 20
30.33886283700486
 30
0.0
 10
10.43571002343438
 20
30.31833410342739
 30
0.0
 10
10.44402630602573
 20
30.30009359424497
 30
0.0
 10
10.45115654210779
 20
30.27954448487373
 30
0.0
 10
10.45387802197497
 20
30.2638359750257
 30
0.0
 10
10.45464828678383
 20
30.25362819055084
 30
0.0
 11
10.25690921572676
 21
30.45136726160774
 31
0.0
 11
10.28715821031802
 21
30.44603410094271
 31
0.0
 11
10.30294542886788
 21
30.44062720309995
 31
0.0
 11
10.31912543685315
 21
30.43328169707701
 31
0.0
 11
10.34120834877878
 21
30.42033368863713
 31
0.0
 11
10.36369336221209
 21
30.40362647261196
 31
0.0
 11
10.38631021545394
 21
30.38302919027803
 31
0.0
 11
10.40690819678981
 21
30.36040873893893
 31
0.0
 11
10.42361567815386
 21
30.3379214825581
 31
0.0
 11
10.43656363072911
 21
30.31583777744089
 31
0.0
 11
10.44390895779982
 21
30.29965815550412
 31
0.0
 11
10.4493156152986
 21
30.2838721723752
 31
0.0
 11
10.45464828678383
 21
30.25362819055084
 31
0.0
  0
SPLINE
  5
B3
330
2
100
AcDbEntity
  8
GAIKEI
  6
Continuous
 62
     1
100
AcDbSpline
210
0.0
220
0.0
230
1.0
 70
     8
 71
     3
 72
    19
 73
    15
 74
    13
 42
0.0000000001
 43
0.0000000001
 44
0.000001
 12
-0.9971663916962876
 22
-0.0752275698890099
 32
0.0
 13
-0.0752446516939761
 23
-0.9971651028748709
 33
0.0
 40
0.0
 40
0.0
 40
0.0
 40
0.0
 40
0.0307154355882571
 40
0.0474030577445714
 40
0.0651725077316391
 40
0.090771590130171
 40
0.1187843457395624
 40
0.1493748434368545
 40
0.1799684720857961
 40
0.2079831862986003
 40
0.2335829246383236
 40
0.2513519490619537
 40
0.2680383244319264
 40
0.2987487387216684
 40
0.2987487387216684
 40
0.2987487387216684
 40
0.2987487387216684
 10
-49.57681228253749
 20
30.45136726160774
 30
0.0
 10
-49.58702174922913
 20
30.45059704574863
 30
0.0
 10
-49.60273237377863
 20
30.44787537588559
 30
0.0
 10
-49.62328369731264
 20
30.44074470601811
 30
0.0
 10
-49.64152453025693
 20
30.43242828920325
 30
0.0
 10
-49.66205244700645
 20
30.42028974273893
 30
0.0
 10
-49.68456998179966
 20
30.40345222317728
 30
0.0
 10
-49.70653398082626
 20
30.38334838653742
 30
0.0
 10
-49.72663673673443
 20
30.3613825325624
 30
0.0
 10
-49.74347452217834
 20
30.33886283700474
 30
0.0
 10
-49.75561309024516
 20
30.31833410342739
 30
0.0
 10
-49.76392937283641
 20
30.30009359424497
 30
0.0
 10
-49.77105960891837
 20
30.27954448487367
 30
0.0
 10
-49.77378108878557
 20
30.2638359750257
 30
0.0
 10
-49.77455135359445
 20
30.25362819055084
 30
0.0
 11
-49.57681228253749
 21
30.45136726160774
 31
0.0
 11
-49.60706127712864
 21
30.44603410094271
 31
0.0
 11
-49.62284849567861
 21
30.44062720309995
 31
0.0
 11
-49.63902850366382
 21
30.43328169707701
 31
0.0
 11
-49.66111141558944
 21
30.42033368863713
 31
0.0
 11
-49.68359642902282
 21
30.40362647261196
 31
0.0
 11
-49.70621328226467
 21
30.38302919027803
 31
0.0
 11
-49.72681126360048
 21
30.36040873893881
 31
0.0
 11
-49.74351874496448
 21
30.3379214825581
 31
0.0
 11
-49.75646669753984
 21
30.31583777744089
 31
0.0
 11
-49.76381202461048
 21
30.29965815550412
 31
0.0
 11
-49.76921868210921
 21
30.2838721723752
 31
0.0
 11
-49.77455135359445
 21
30.25362819055084
 31
0.0
  0
DIMENSION
  5
B4
330
2
100
AcDbEntity
  8
SUNPO
100
AcDbDimension
  2
*D8
 10
10.59004845449463
 20
38.57879113510825
 30
0.0
 11
-19.65995153340532
 21
40.32879113510825
 31
0.0
 70
    33
  1
1210
 71
     5
 42
60.49999997579991
  3
STANDARD
100
AcDbAlignedDimension
 13
-49.90995152130527
 23
30.57879113510825
 33
0.0
 14
10.59004845449463
 24
30.57879113510831
 34
0.0
1001
ACAD
1000
DSTYLE
1002
{
1070
   287
1070
     3
1070
   287
1070
     3
1070
   287
1070
     3
1070
   287
1070
     3
1070
   287
1070
     3
1070
   287
1070
     3
1070
   287
1070
     3
1070
   287
1070
     3
1070
   287
1070
     3
1070
   287
1070
     3
1070
   287
1070
     3
1070
   287
1070
     3
1070
   287
1070
     3
1070
   287
1070
     3
1070
   287
1070
     3
1070
   287
1070
     3
1070
   287
1070
     3
1070
   287
1070
     3
1070
   287
1070
     3
1070
   287
1070
     3
1070
   287
1070
     3
1070
   287
1070
     3
1070
   287
1070
     3
1070
   287
1070
     3
1070
   287
1070
     3
1070
   287
1070
     3
1070
   287
1070
     3
1070
   287
1070
     3
1070
   287
1070
     3
1070
   287
1070
     3
1070
   287
1070
     3
1070
   287
1070
     3
1070
   287
1070
     3
1070
   287
1070
     3
1070
    40
1040
1.0
1070
   140
1040
2.5
1070
   147
1040
0.5
1070
   172
1070
     1
1070
   279
1070
     0
1002
}
  0
DIMENSION
  5
C2
330
2
100
AcDbEntity
  8
SUNPO
100
AcDbDimension
  2
*D7
 10
18.15028326476697
 20
30.57907757945964
 30
0.0
 11
16.40028326476696
 21
12.4829225116292
 31
0.0
 70
    33
  1
724
 71
     5
 42
36.19231013566088
  3
STANDARD
100
AcDbAlignedDimension
 13
10.15028326476697
 23
-5.613232556201239
 33
0.0
 14
10.15028326476694
 24
30.57907757945964
 34
0.0
1001
ACAD
1000
DSTYLE
1002
{
1070
   287
1070
     3
1070
   287
1070
     3
1070
   287
1070
     3
1070
   287
1070
     3
1070
   287
1070
     3
1070
   287
1070
     3
1070
   287
1070
     3
1070
   287
1070
     3
1070
   287
1070
     3
1070
   287
1070
     3
1070
   287
1070
     3
1070
   287
1070
     3
1070
   287
1070
     3
1070
   287
1070
     3
1070
   287
1070
     3
1070
   287
1070
     3
1070
   287
1070
     3
1070
   287
1070
     3
1070
   287
1070
     3
1070
   287
1070
     3
1070
   287
1070
     3
1070
   287
1070
     3
1070
   287
1070
     3
1070
   287
1070
     3
1070
   287
1070
     3
1070
   287
1070
     3
1070
   287
1070
     3
1070
   287
1070
     3
1070
   287
1070
     3
1070
   287
1070
     3
1070
   287
1070
     3
1070
   287
1070
     3
1070
   287
1070
     3
1070
   287
1070
     3
1070
    40
1040
1.0
1070
   140
1040
2.5
1070
   147
1040
0.5
1070
   172
1070
     1
1070
   279
1070
     0
1002
}
  0
DIMENSION
  5
CF
330
2
100
AcDbEntity
  8
SUNPO
100
AcDbDimension
  2
*D6
 10
42.28934978392586
 20
38.57879113510831
 30
0.0
 11
48.87268311725919
 21
40.3287911351083
 31
0.0
 70
    33
  1
89
 71
     5
 42
4.449999999999988
  3
STANDARD
100
AcDbAlignedDimension
 13
37.83934978392587
 23
30.58532363966737
 33
0.0
 14
42.28934978392586
 24
30.58532363966737
 34
0.0
1001
ACAD
1000
DSTYLE
1002
{
1070
    40
1040
1.0
1070
   140
1040
2.5
1070
   147
1040
0.5
1070
   172
1070
     1
1070
   279
1070
     0
1070
   288
1070
     0
1002
}
  0
LINE
  5
DE
330
2
100
AcDbEntity
  8
GAIKEI
  6
Continuous
 62
     1
100
AcDbLine
 10
41.34578403392585
 20
28.68548882931867
 30
0.0
 11
40.35854873392584
 21
28.71996382931872
 31
0.0
  0
LINE
  5
DF
330
2
100
AcDbEntity
  8
GAIKEI
  6
Continuous
 62
     1
100
AcDbLine
 10
40.20015728392583
 20
28.62548597931874
 30
0.0
 11
40.20015728392583
 21
23.6381892293187
 31
0.0
  0
LINE
  5
E0
330
2
100
AcDbEntity
  8
GAIKEI
  6
Continuous
 62
     1
100
AcDbLine
 10
41.64739278392587
 20
29.00786577931871
 30
0.0
 11
40.14381458392587
 21
29.33006107931868
 31
0.0
  0
LINE
  5
E1
330
2
100
AcDbEntity
  8
GAIKEI
  6
Continuous
 62
     1
100
AcDbLine
 10
42.18401108392585
 20
26.55654707931871
 30
0.0
 11
41.88159393392585
 21
28.75555152931866
 31
0.0
  0
LINE
  5
E2
330
2
100
AcDbEntity
  8
GAIKEI
  6
Continuous
 62
     1
100
AcDbLine
 10
42.19752328392589
 20
25.90455902931871
 30
0.0
 11
42.19752328392589
 21
26.35911617931868
 31
0.0
  0
LINE
  5
E3
330
2
100
AcDbEntity
  8
GAIKEI
  6
Continuous
 62
     1
100
AcDbLine
 10
41.88159393392585
 20
23.5081237293187
 30
0.0
 11
42.18401108392585
 21
25.70712817931866
 31
0.0
  0
LINE
  5
E4
330
2
100
AcDbEntity
  8
GAIKEI
  6
Continuous
 62
     1
100
AcDbLine
 10
40.14381458392587
 20
22.9336141293187
 30
0.0
 11
41.64739278392587
 21
23.25580947931866
 31
0.0
  0
LINE
  5
E5
330
2
100
AcDbEntity
  8
GAIKEI
  6
Continuous
 62
     1
100
AcDbLine
 10
40.35854873392584
 20
23.54371137931872
 30
0.0
 11
41.34578403392585
 21
23.57818642931869
 31
0.0
  0
LINE
  5
E6
330
2
100
AcDbEntity
  8
GAIKEI
  6
Continuous
 62
     1
100
AcDbLine
 10
41.48895398392586
 20
23.70748127931864
 30
0.0
 11
41.4943305339258
 21
23.7465763793187
 31
0.0
  0
LINE
  5
E7
330
2
100
AcDbEntity
  8
GAIKEI
  6
Continuous
 62
     1
100
AcDbLine
 10
41.51091883392588
 20
23.84597957931868
 30
0.0
 11
41.6764068839259
 21
25.0493141293187
 31
0.0
  0
LINE
  5
E8
330
2
100
AcDbEntity
  8
GAIKEI
  6
Continuous
 62
     1
100
AcDbLine
 10
41.68730433392586
 20
25.14977162931871
 30
0.0
 11
41.77214173392584
 21
25.76666062931867
 31
0.0
  0
LINE
  5
E9
330
2
100
AcDbEntity
  8
GAIKEI
  6
Continuous
 62
     1
100
AcDbLine
 10
41.78138353392582
 20
25.90169567931872
 30
0.0
 11
41.78138353392582
 21
26.36197952931872
 31
0.0
  0
LINE
  5
EA
330
2
100
AcDbEntity
  8
GAIKEI
  6
Continuous
 62
     1
100
AcDbLine
 10
41.61974678392586
 20
27.6263611293187
 30
0.0
 11
41.51091883392588
 21
28.4176956293187
 31
0.0
  0
LINE
  5
EB
330
2
100
AcDbEntity
  8
GAIKEI
  6
Continuous
 62
     1
100
AcDbLine
 10
41.4943305339258
 20
28.51709882931874
 30
0.0
 11
41.48895398392586
 21
28.55619397931866
 31
0.0
  0
LINE
  5
EC
330
2
100
AcDbEntity
  8
GAIKEI
  6
Continuous
 62
     1
100
AcDbLine
 10
41.77214173392584
 20
26.4970146293187
 30
0.0
 11
41.61974678392586
 21
27.6263611293187
 31
0.0
  0
LINE
  5
ED
330
2
100
AcDbEntity
  8
GAIKEI
  6
Continuous
 62
     1
100
AcDbLine
 10
40.21406453392581
 20
23.71735287931864
 30
0.0
 11
40.21406453392581
 21
23.72676742931873
 31
0.0
  0
LINE
  5
EE
330
2
100
AcDbEntity
  8
GAIKEI
  6
Continuous
 62
     1
100
AcDbLine
 10
41.34578403392585
 20
23.57818642931869
 30
0.0
 11
41.34448018392585
 21
23.57963017931871
 31
0.0
  0
LINE
  5
EF
330
2
100
AcDbEntity
  8
GAIKEI
  6
Continuous
 62
     1
100
AcDbLine
 10
40.26405693392582
 20
23.71735287931864
 30
0.0
 11
40.21406453392581
 21
23.71735287931864
 31
0.0
  0
LINE
  5
F0
330
2
100
AcDbEntity
  8
GAIKEI
  6
Continuous
 62
     1
100
AcDbLine
 10
40.26405693392582
 20
23.84795927931867
 30
0.0
 11
40.26405693392582
 21
23.71735287931864
 31
0.0
  0
ARC
  5
F1
330
2
100
AcDbEntity
  8
GAIKEI
  6
Continuous
 62
     1
100
AcDbCircle
 10
41.58460393392586
 20
23.54894217931866
 30
0.0
 40
0.34978195
100
AcDbArc
 50
317.3057001384148
 51
349.609110091751
  0
ELLIPSE
  5
F2
330
2
100
AcDbEntity
  8
GAIKEI
  6
Continuous
 62
     1
100
AcDbEllipse
 10
41.58424503392588
 20
28.71439997931867
 30
0.0
 11
0.2200773139137207
 21
0.2042784547079607
 31
0.0
210
0.0
220
0.0
230
1.0
 40
0.9990919999997052
 41
-0.6110907881875775
 42
0.6110907880307086
  0
ELLIPSE
  5
F3
330
2
100
AcDbEntity
  8
GAIKEI
  6
Continuous
 62
     1
100
AcDbEllipse
 10
40.74663943392586
 20
26.35899522931868
 30
0.0
 11
1.447501845805857
 21
0.0990673047384905
 31
0.0
210
0.0
220
0.0
230
1.0
 40
0.9993880000055288
 41
-0.0682919404817914
 42
0.0682919404888547
  0
ELLIPSE
  5
F4
330
2
100
AcDbEntity
  8
GAIKEI
  6
Continuous
 62
     1
100
AcDbEllipse
 10
40.74663943392586
 20
25.90467997931864
 30
0.0
 11
-1.447501845782709
 21
0.0990673050774751
 31
0.0
210
0.0
220
0.0
230
1.0
 40
0.9993879999934986
 41
3.073300713334443
 42
3.209884594306729
  0
ELLIPSE
  5
F5
330
2
100
AcDbEntity
  8
GAIKEI
  6
Continuous
 62
     1
100
AcDbEllipse
 10
41.58424503392588
 20
23.54927527931869
 30
0.0
 11
-0.2200773139313426
 21
0.2042784546889193
 31
0.0
210
0.0
220
0.0
230
1.0
 40
0.9990920000004408
 41
2.530501865473186
 42
3.75268344169062
  0
ELLIPSE
  5
F6
330
2
100
AcDbEntity
  8
GAIKEI
  6
Continuous
 62
     1
100
AcDbEllipse
 10
41.34055628392583
 20
28.5357856293187
 30
0.0
 11
-0.1113231012655573
 21
0.1005344076653982
 31
0.0
210
0.0
220
0.0
230
1.0
 40
0.9976619999996227
 41
4.013930599346159
 42
5.410847361526342
  0
ELLIPSE
  5
F7
330
2
100
AcDbEntity
  8
GAIKEI
  6
Continuous
 62
     1
100
AcDbEllipse
 10
40.79024373392583
 20
25.90169567931866
 30
0.0
 11
0.0677683607176556
 21
0.9901836694785888
 31
0.0
210
0.0
220
0.0
230
1.0
 40
0.998622999991616
 41
4.644149142570644
 42
4.78062881804572
  0
ELLIPSE
  5
F8
330
2
100
AcDbEntity
  8
GAIKEI
  6
Continuous
 62
     1
100
AcDbEllipse
 10
41.34055628392583
 20
23.72788957931868
 30
0.0
 11
0.1113231012737732
 21
0.1005344076561978
 31
0.0
210
0.0
220
0.0
230
1.0
 40
0.9976620000000806
 41
4.013930599325021
 42
5.410847361505642
  0
ELLIPSE
  5
F9
330
2
100
AcDbEntity
  8
GAIKEI
  6
Continuous
 62
     1
100
AcDbEllipse
 10
40.79024373392583
 20
26.36197952931866
 30
0.0
 11
-0.0677683608693831
 21
0.9901836694613267
 31
0.0
210
0.0
220
0.0
230
1.0
 40
0.9986229999985823
 41
4.644149142569689
 42
4.780628818045713
  0
ELLIPSE
  5
FA
330
2
100
AcDbEntity
  8
GAIKEI
  6
Continuous
 62
     1
100
AcDbEllipse
 10
40.35332098392588
 20
23.69341457931864
 30
0.0
 11
-0.1424851626777184
 21
0.0468826024949143
 31
0.0
210
0.0
220
0.0
230
1.0
 40
0.9984440000005646
 41
0.318339618181823
 42
1.923075432051857
  0
ELLIPSE
  5
FB
330
2
100
AcDbEntity
  8
GAIKEI
  6
Continuous
 62
     1
100
AcDbEllipse
 10
40.35332098392588
 20
28.57026067931867
 30
0.0
 11
0.1424851626795885
 21
0.0468826024892312
 31
0.0
210
0.0
220
0.0
230
1.0
 40
0.9984440000001793
 41
1.218517221577885
 42
2.82325303544779
  0
LINE
  5
FC
330
2
100
AcDbEntity
  8
GAIKEI
  6
Continuous
 62
     1
100
AcDbLine
 10
40.16825098392589
 20
12.05969309289065
 30
0.0
 11
40.13679978392589
 21
12.05969309289065
 31
0.0
  0
LINE
  5
FD
330
2
100
AcDbEntity
  8
GAIKEI
  6
Continuous
 62
     1
100
AcDbLine
 10
40.13679978392589
 20
11.70969309289063
 30
0.0
 11
40.16825098392589
 21
11.70969309289063
 31
0.0
  0
ARC
  5
FE
330
2
100
AcDbEntity
  8
GAIKEI
  6
Continuous
 62
     1
100
AcDbCircle
 10
40.16825098392589
 20
11.9946930928906
 30
0.0
 40
0.065
100
AcDbArc
 50
16.60155000001893
 51
90.0
  0
ARC
  5
FF
330
2
100
AcDbEntity
  8
GAIKEI
  6
Continuous
 62
     1
100
AcDbCircle
 10
40.16825098392589
 20
11.77469309289068
 30
0.0
 40
0.065
100
AcDbArc
 50
270.0
 51
343.3984499999811
  0
ARC
  5
100
330
2
100
AcDbEntity
  8
GAIKEI
  6
Continuous
 62
     1
100
AcDbCircle
 10
39.79929978392586
 20
11.88469309289064
 30
0.0
 40
0.45
100
AcDbArc
 50
343.3984499999811
 51
0.0
  0
ARC
  5
101
330
2
100
AcDbEntity
  8
GAIKEI
  6
Continuous
 62
     1
100
AcDbCircle
 10
39.79929978392586
 20
11.88469309289064
 30
0.0
 40
0.45
100
AcDbArc
 50
0.0
 51
16.60155000001893
  0
LINE
  5
102
330
2
100
AcDbEntity
  8
GAIKEI
  6
Continuous
 62
     1
100
AcDbLine
 10
40.16825098392589
 20
30.3242674293187
 30
0.0
 11
40.13679978392589
 21
30.3242674293187
 31
0.0
  0
LINE
  5
103
330
2
100
AcDbEntity
  8
GAIKEI
  6
Continuous
 62
     1
100
AcDbLine
 10
40.13679978392589
 20
29.97426742931867
 30
0.0
 11
40.16825098392589
 21
29.97426742931867
 31
0.0
  0
ARC
  5
104
330
2
100
AcDbEntity
  8
GAIKEI
  6
Continuous
 62
     1
100
AcDbCircle
 10
40.16825098392589
 20
30.2592674293187
 30
0.0
 40
0.065
100
AcDbArc
 50
16.60155000001893
 51
90.0
  0
ARC
  5
105
330
2
100
AcDbEntity
  8
GAIKEI
  6
Continuous
 62
     1
100
AcDbCircle
 10
40.16825098392589
 20
30.03926742931867
 30
0.0
 40
0.065
100
AcDbArc
 50
270.0
 51
343.3984499999811
  0
ARC
  5
106
330
2
100
AcDbEntity
  8
GAIKEI
  6
Continuous
 62
     1
100
AcDbCircle
 10
39.79929978392586
 20
30.14926742931868
 30
0.0
 40
0.45
100
AcDbArc
 50
343.3984499999811
 51
0.0
  0
ARC
  5
107
330
2
100
AcDbEntity
  8
GAIKEI
  6
Continuous
 62
     1
100
AcDbCircle
 10
39.79929978392586
 20
30.14926742931868
 30
0.0
 40
0.45
100
AcDbArc
 50
0.0
 51
16.60155000001893
  0
LINE
  5
108
330
2
100
AcDbEntity
  8
GAIKEI
  6
Continuous
 62
     1
100
AcDbLine
 10
40.27929978392582
 20
24.00758997931865
 30
0.0
 11
40.27929978392582
 21
23.99543462931871
 31
0.0
  0
LINE
  5
109
330
2
100
AcDbEntity
  8
GAIKEI
  6
Continuous
 62
     1
100
AcDbLine
 10
40.28843958392584
 20
24.15426882931871
 30
0.0
 11
40.24843958392587
 21
24.15426882931871
 31
0.0
  0
LINE
  5
10A
330
2
100
AcDbEntity
  8
GAIKEI
  6
Continuous
 62
     1
100
AcDbLine
 10
40.30901228392584
 20
23.79926817931863
 30
0.0
 11
40.26901228392581
 21
23.79926817931863
 31
0.0
  0
LINE
  5
10B
330
2
100
AcDbEntity
  8
GAIKEI
  6
Continuous
 62
     1
100
AcDbLine
 10
40.27929978392582
 20
23.97676742931873
 30
0.0
 11
40.31929978392584
 21
23.97676742931873
 31
0.0
  0
LINE
  5
10C
330
2
100
AcDbEntity
  8
GAIKEI
  6
Continuous
 62
     1
100
AcDbLine
 10
40.23929978392586
 20
23.99543462931871
 30
0.0
 11
40.27929978392582
 21
23.99543462931871
 31
0.0
  0
LINE
  5
10D
330
2
100
AcDbEntity
  8
GAIKEI
  6
Continuous
 62
     1
100
AcDbLine
 10
40.31929978392584
 20
23.80176742931866
 30
0.0
 11
40.31929978392584
 21
23.97676742931873
 31
0.0
  0
LINE
  5
10E
330
2
100
AcDbEntity
  8
GAIKEI
  6
Continuous
 62
     1
100
AcDbLine
 10
40.31929978392584
 20
23.97676742931873
 30
0.0
 11
40.31929978392584
 21
24.15176742931868
 31
0.0
  0
LINE
  5
10F
330
2
100
AcDbEntity
  8
GAIKEI
  6
Continuous
 62
     1
100
AcDbLine
 10
40.36825098392582
 20
24.15176742931868
 30
0.0
 11
40.31929978392584
 21
24.15176742931868
 31
0.0
  0
LINE
  5
110
330
2
100
AcDbEntity
  8
GAIKEI
  6
Continuous
 62
     1
100
AcDbLine
 10
40.31929978392584
 20
23.80176742931866
 30
0.0
 11
40.36825098392582
 21
23.80176742931866
 31
0.0
  0
LINE
  5
111
330
2
100
AcDbEntity
  8
GAIKEI
  6
Continuous
 62
     1
100
AcDbLine
 10
40.31929978392584
 20
24.07176742931864
 30
0.0
 11
40.28529013392587
 21
24.07176742931864
 31
0.0
  0
LINE
  5
112
330
2
100
AcDbEntity
  8
GAIKEI
  6
Continuous
 62
     1
100
AcDbLine
 10
40.23929978392586
 20
23.8817674293187
 30
0.0
 11
40.27215748392587
 21
23.8817674293187
 31
0.0
  0
ARC
  5
113
330
2
100
AcDbEntity
  8
GAIKEI
  6
Continuous
 62
     1
100
AcDbCircle
 10
40.36825098392582
 20
24.08676742931869
 30
0.0
 40
0.065
100
AcDbArc
 50
16.60155000001893
 51
90.0
  0
ARC
  5
114
330
2
100
AcDbEntity
  8
GAIKEI
  6
Continuous
 62
     1
100
AcDbCircle
 10
40.36825098392582
 20
23.86676742931872
 30
0.0
 40
0.065
100
AcDbArc
 50
270.0
 51
343.3984499999811
  0
ARC
  5
115
330
2
100
AcDbEntity
  8
GAIKEI
  6
Continuous
 62
     1
100
AcDbCircle
 10
39.99929978392585
 20
23.97676742931873
 30
0.0
 40
0.45
100
AcDbArc
 50
343.3984499999811
 51
0.0
  0
ARC
  5
116
330
2
100
AcDbEntity
  8
GAIKEI
  6
Continuous
 62
     1
100
AcDbCircle
 10
39.99929978392585
 20
23.97676742931873
 30
0.0
 40
0.45
100
AcDbArc
 50
0.0
 51
16.60155000001893
  0
LINE
  5
117
330
2
100
AcDbEntity
  8
GAIKEI
  6
Continuous
 62
     1
100
AcDbLine
 10
40.23929978392586
 20
23.72676742931873
 30
0.0
 11
40.23929978392586
 21
23.97676742931873
 31
0.0
  0
LINE
  5
118
330
2
100
AcDbEntity
  8
GAIKEI
  6
Continuous
 62
     1
100
AcDbLine
 10
40.23929978392586
 20
24.22676742931873
 30
0.0
 11
40.20015728392583
 21
24.22676742931873
 31
0.0
  0
LINE
  5
119
330
2
100
AcDbEntity
  8
GAIKEI
  6
Continuous
 62
     1
100
AcDbLine
 10
40.20015728392583
 20
23.72676742931873
 30
0.0
 11
40.23929978392586
 21
23.72676742931873
 31
0.0
  0
LINE
  5
11A
330
2
100
AcDbEntity
  8
GAIKEI
  6
Continuous
 62
     1
100
AcDbLine
 10
40.23929978392586
 20
23.97676742931873
 30
0.0
 11
40.23929978392586
 21
24.22676742931873
 31
0.0
  0
LINE
  5
11B
330
2
100
AcDbEntity
  8
GAIKEI
  6
Continuous
 62
     1
100
AcDbLine
 10
40.27929978392582
 20
27.62758997931866
 30
0.0
 11
40.27929978392582
 21
27.61543462931872
 31
0.0
  0
LINE
  5
11C
330
2
100
AcDbEntity
  8
GAIKEI
  6
Continuous
 62
     1
100
AcDbLine
 10
40.28843958392584
 20
27.77426882931872
 30
0.0
 11
40.24843958392587
 21
27.77426882931872
 31
0.0
  0
LINE
  5
11D
330
2
100
AcDbEntity
  8
GAIKEI
  6
Continuous
 62
     1
100
AcDbLine
 10
40.30901228392584
 20
27.41926817931869
 30
0.0
 11
40.26901228392581
 21
27.41926817931869
 31
0.0
  0
LINE
  5
11E
330
2
100
AcDbEntity
  8
GAIKEI
  6
Continuous
 62
     1
100
AcDbLine
 10
40.27929978392582
 20
27.59676742931868
 30
0.0
 11
40.31929978392584
 21
27.59676742931868
 31
0.0
  0
LINE
  5
11F
330
2
100
AcDbEntity
  8
GAIKEI
  6
Continuous
 62
     1
100
AcDbLine
 10
40.23929978392586
 20
27.61543462931872
 30
0.0
 11
40.27929978392582
 21
27.61543462931872
 31
0.0
  0
LINE
  5
120
330
2
100
AcDbEntity
  8
GAIKEI
  6
Continuous
 62
     1
100
AcDbLine
 10
40.31929978392584
 20
27.42176742931866
 30
0.0
 11
40.31929978392584
 21
27.59676742931868
 31
0.0
  0
LINE
  5
121
330
2
100
AcDbEntity
  8
GAIKEI
  6
Continuous
 62
     1
100
AcDbLine
 10
40.31929978392584
 20
27.59676742931868
 30
0.0
 11
40.31929978392584
 21
27.77176742931869
 31
0.0
  0
LINE
  5
122
330
2
100
AcDbEntity
  8
GAIKEI
  6
Continuous
 62
     1
100
AcDbLine
 10
40.36825098392582
 20
27.77176742931869
 30
0.0
 11
40.31929978392584
 21
27.77176742931869
 31
0.0
  0
LINE
  5
123
330
2
100
AcDbEntity
  8
GAIKEI
  6
Continuous
 62
     1
100
AcDbLine
 10
40.31929978392584
 20
27.42176742931866
 30
0.0
 11
40.36825098392582
 21
27.42176742931866
 31
0.0
  0
LINE
  5
124
330
2
100
AcDbEntity
  8
GAIKEI
  6
Continuous
 62
     1
100
AcDbLine
 10
40.31929978392584
 20
27.6917674293187
 30
0.0
 11
40.28529013392587
 21
27.6917674293187
 31
0.0
  0
LINE
  5
125
330
2
100
AcDbEntity
  8
GAIKEI
  6
Continuous
 62
     1
100
AcDbLine
 10
40.24185733392586
 20
27.6917674293187
 30
0.0
 11
40.23929978392586
 21
27.6917674293187
 31
0.0
  0
LINE
  5
126
330
2
100
AcDbEntity
  8
GAIKEI
  6
Continuous
 62
     1
100
AcDbLine
 10
40.23929978392586
 20
27.5017674293187
 30
0.0
 11
40.27215748392587
 21
27.5017674293187
 31
0.0
  0
ARC
  5
127
330
2
100
AcDbEntity
  8
GAIKEI
  6
Continuous
 62
     1
100
AcDbCircle
 10
40.36825098392582
 20
27.70676742931863
 30
0.0
 40
0.065
100
AcDbArc
 50
16.60155000001893
 51
90.0
  0
ARC
  5
128
330
2
100
AcDbEntity
  8
GAIKEI
  6
Continuous
 62
     1
100
AcDbCircle
 10
40.36825098392582
 20
27.48676742931872
 30
0.0
 40
0.065
100
AcDbArc
 50
270.0
 51
343.3984499999811
  0
ARC
  5
129
330
2
100
AcDbEntity
  8
GAIKEI
  6
Continuous
 62
     1
100
AcDbCircle
 10
39.99929978392585
 20
27.59676742931868
 30
0.0
 40
0.45
100
AcDbArc
 50
343.3984499999811
 51
0.0
  0
ARC
  5
12A
330
2
100
AcDbEntity
  8
GAIKEI
  6
Continuous
 62
     1
100
AcDbCircle
 10
39.99929978392585
 20
27.59676742931868
 30
0.0
 40
0.45
100
AcDbArc
 50
0.0
 51
16.60155000001893
  0
LINE
  5
12B
330
2
100
AcDbEntity
  8
GAIKEI
  6
Continuous
 62
     1
100
AcDbLine
 10
40.23929978392586
 20
27.34676742931867
 30
0.0
 11
40.23929978392586
 21
27.59676742931868
 31
0.0
  0
LINE
  5
12C
330
2
100
AcDbEntity
  8
GAIKEI
  6
Continuous
 62
     1
100
AcDbLine
 10
40.23929978392586
 20
27.84676742931868
 30
0.0
 11
40.20597633392585
 21
27.84676742931868
 31
0.0
  0
LINE
  5
12D
330
2
100
AcDbEntity
  8
GAIKEI
  6
Continuous
 62
     1
100
AcDbLine
 10
40.20597633392585
 20
27.34676742931867
 30
0.0
 11
40.23929978392586
 21
27.34676742931867
 31
0.0
  0
LINE
  5
12E
330
2
100
AcDbEntity
  8
GAIKEI
  6
Continuous
 62
     1
100
AcDbLine
 10
40.23929978392586
 20
27.59676742931868
 30
0.0
 11
40.23929978392586
 21
27.84676742931868
 31
0.0
  0
LINE
  5
12F
330
2
100
AcDbEntity
  8
GAIKEI
  6
Continuous
 62
     1
100
AcDbLine
 10
40.27232188392583
 20
21.85510457931866
 30
0.0
 11
40.27232188392583
 21
22.58843027931868
 31
0.0
  0
LINE
  5
130
330
2
100
AcDbEntity
  8
GAIKEI
  6
Continuous
 62
     1
100
AcDbLine
 10
41.76307318392583
 20
22.91303537931873
 30
0.0
 11
41.76307318392583
 21
0.1853671436577997
 31
0.0
  0
LINE
  5
131
330
2
100
AcDbEntity
  8
GAIKEI
  6
Continuous
 62
     7
100
AcDbLine
 10
40.35076368392584
 20
29.43706147931869
 30
0.0
 11
40.19732188392585
 21
29.46967652931869
 31
0.0
  0
LINE
  5
132
330
2
100
AcDbEntity
  8
GAIKEI
  6
Continuous
 62
     1
100
AcDbLine
 10
42.07179753392587
 20
23.73318612931865
 30
0.0
 11
41.92848823392582
 21
23.48557587931868
 31
0.0
  0
LINE
  5
133
330
2
100
AcDbEntity
  8
GAIKEI
  6
Continuous
 62
     7
100
AcDbLine
 10
40.39405128392583
 20
29.4278603793187
 30
0.0
 11
40.35032743392584
 21
29.43715417931873
 31
0.0
  0
LINE
  5
134
330
2
100
AcDbEntity
  8
GAIKEI
  6
Continuous
 62
     1
100
AcDbLine
 10
42.17262678392581
 20
25.25735462931868
 30
0.0
 11
42.17262678392581
 21
24.32065337931869
 31
0.0
  0
LINE
  5
135
330
2
100
AcDbEntity
  8
GAIKEI
  6
Continuous
 62
     7
100
AcDbLine
 10
41.74557318392579
 20
29.14058557931872
 30
0.0
 11
41.74932468392582
 21
29.1395359293187
 31
0.0
  0
LINE
  5
136
330
2
100
AcDbEntity
  8
GAIKEI
  6
Continuous
 62
     7
100
AcDbLine
 10
41.74557318392579
 20
29.14058557931872
 30
0.0
 11
40.39405128392583
 21
29.4278603793187
 31
0.0
  0
LINE
  5
137
330
2
100
AcDbEntity
  8
GAIKEI
  6
Continuous
 62
     7
100
AcDbLine
 10
41.74996003392585
 20
29.13961182931866
 30
0.0
 11
41.74925453392588
 21
29.13956667931865
 31
0.0
  0
LINE
  5
138
330
2
100
AcDbEntity
  8
GAIKEI
  6
Continuous
 62
     7
100
AcDbLine
 10
42.03157848392585
 20
28.28749717931868
 30
0.0
 11
41.9411622839258
 21
28.93084192931866
 31
0.0
  0
LINE
  5
139
330
2
100
AcDbEntity
  8
GAIKEI
  6
Continuous
 62
     7
100
AcDbLine
 10
42.28930498392585
 20
26.45367807931865
 30
0.0
 11
42.03157848392585
 21
28.28749717931868
 31
0.0
  0
LINE
  5
13A
330
2
100
AcDbEntity
  8
GAIKEI
  6
Continuous
 62
     1
100
AcDbLine
 10
42.29179978392586
 20
26.4329564793187
 30
0.0
 11
42.29179978392586
 21
26.43592657931873
 31
0.0
  0
LINE
  5
13B
330
2
100
AcDbEntity
  8
GAIKEI
  6
Continuous
 62
     1
100
AcDbLine
 10
42.29179978392586
 20
26.43592657931873
 30
0.0
 11
42.28930498392585
 21
26.45367807931865
 31
0.0
  0
LINE
  5
13C
330
2
100
AcDbEntity
  8
GAIKEI
  6
Continuous
 62
     7
100
AcDbLine
 10
42.29179978392586
 20
0.7427002936577765
 30
0.0
 11
42.29179978392586
 21
26.4329564793187
 31
0.0
  0
LINE
  5
13D
330
2
100
AcDbEntity
  8
GAIKEI
  6
Continuous
 62
     1
100
AcDbLine
 10
42.29179978392586
 20
24.40392472931871
 30
0.0
 11
42.29179978392586
 21
24.87295892931872
 31
0.0
  0
LINE
  5
13E
330
2
100
AcDbEntity
  8
GAIKEI
  6
Continuous
 62
     1
100
AcDbLine
 10
42.29179978392586
 20
26.43592232931866
 30
0.0
 11
42.29179978392586
 21
26.43592657931873
 31
0.0
  0
LINE
  5
13F
330
2
100
AcDbEntity
  8
GAIKEI
  6
Continuous
 62
     1
100
AcDbLine
 10
42.29179978392586
 20
24.87295892931872
 30
0.0
 11
42.29179978392586
 21
26.43592232931866
 31
0.0
  0
LINE
  5
140
330
2
100
AcDbEntity
  8
GAIKEI
  6
Continuous
 62
     1
100
AcDbLine
 10
42.29179978392586
 20
26.43592232931866
 30
0.0
 11
42.29179978392586
 21
26.43592657931873
 31
0.0
  0
LINE
  5
141
330
2
100
AcDbEntity
  8
GAIKEI
  6
Continuous
 62
     1
100
AcDbLine
 10
42.29179978392586
 20
24.87295892931872
 30
0.0
 11
42.29179978392586
 21
26.43592232931866
 31
0.0
  0
LINE
  5
142
330
2
100
AcDbEntity
  8
GAIKEI
  6
Continuous
 62
     1
100
AcDbLine
 10
42.29179978392586
 20
23.98255032931871
 30
0.0
 11
42.29179978392586
 21
24.44179577931874
 31
0.0
  0
LINE
  5
143
330
2
100
AcDbEntity
  8
GAIKEI
  6
Continuous
 62
     1
100
AcDbLine
 10
42.29179978392586
 20
23.93942942931869
 30
0.0
 11
42.29179978392586
 21
23.98255032931871
 31
0.0
  0
ARC
  5
144
330
2
100
AcDbEntity
  8
GAIKEI
  6
Continuous
 62
     7
100
AcDbCircle
 10
40.24929978392584
 20
29.71421342931871
 30
0.0
 40
0.25
100
AcDbArc
 50
243.2563160000004
 51
257.9999999999833
  0
ARC
  5
145
330
2
100
AcDbEntity
  8
GAIKEI
  6
Continuous
 62
     7
100
AcDbCircle
 10
41.69359528392585
 20
28.89604867931865
 30
0.0
 40
0.25
100
AcDbArc
 50
7.999999999984337
 51
76.97098900001989
  0
ARC
  5
146
330
2
100
AcDbEntity
  8
GAIKEI
  6
Continuous
 62
     1
100
AcDbCircle
 10
41.69359528392585
 20
28.89604867931865
 30
0.0
 40
0.25
100
AcDbArc
 50
7.999999999984337
 51
9.618225999996282
  0
LINE
  5
147
330
2
100
AcDbEntity
  8
GAIKEI
  6
Continuous
 62
     1
100
AcDbLine
 10
40.03679978392587
 20
30.38704152931865
 30
0.0
 11
38.06136618392584
 21
30.28416592931871
 31
0.0
  0
LINE
  5
148
330
2
100
AcDbEntity
  8
GAIKEI
  6
Continuous
 62
     1
100
AcDbLine
 10
40.03679978392587
 20
30.38704152931865
 30
0.0
 11
40.03679978392587
 21
-5.405816806342158
 31
0.0
  0
LINE
  5
149
330
2
100
AcDbEntity
  8
GAIKEI
  6
Continuous
 62
     1
100
AcDbLine
 10
38.06136618392584
 20
30.28416592931871
 30
0.0
 11
38.06136618392584
 21
-5.502667106342244
 31
0.0
  0
LINE
  5
14A
330
2
100
AcDbEntity
  8
GAIKEI
  6
Continuous
 62
     7
100
AcDbLine
 10
38.06136618392584
 20
30.48389182931868
 30
0.0
 11
40.03679978392587
 21
30.58676742931869
 31
0.0
  0
LINE
  5
14B
330
2
100
AcDbEntity
  8
GAIKEI
  6
Continuous
 62
     1
100
AcDbLine
 10
40.03679978392587
 20
30.58676742931869
 30
0.0
 11
40.03679978392587
 21
30.38704152931865
 31
0.0
  0
LINE
  5
14C
330
2
100
AcDbEntity
  8
GAIKEI
  6
Continuous
 62
     7
100
AcDbLine
 10
40.03679978392587
 20
30.5767674293187
 30
0.0
 11
40.11397868392585
 21
30.57001512931868
 31
0.0
  0
LINE
  5
14D
330
2
100
AcDbEntity
  8
GAIKEI
  6
Continuous
 62
     1
100
AcDbLine
 10
40.11397868392585
 20
30.37077622931867
 30
0.0
 11
40.03679978392587
 21
30.3775284793187
 31
0.0
  0
LINE
  5
14E
330
2
100
AcDbEntity
  8
GAIKEI
  6
Continuous
 62
     7
100
AcDbLine
 10
40.13679978392589
 20
30.37077622931867
 30
0.0
 11
40.13679978392589
 21
-5.563885556342199
 31
0.0
  0
LINE
  5
14F
330
2
100
AcDbEntity
  8
GAIKEI
  6
Continuous
 62
     1
100
AcDbLine
 10
40.13679978392589
 20
30.37077622931867
 30
0.0
 11
40.11397868392585
 21
30.37077622931867
 31
0.0
  0
LINE
  5
150
330
2
100
AcDbEntity
  8
GAIKEI
  6
Continuous
 62
     7
100
AcDbLine
 10
40.13679978392589
 20
30.54511027931869
 30
0.0
 11
40.13679978392589
 21
30.37077622931867
 31
0.0
  0
LINE
  5
151
330
2
100
AcDbEntity
  8
GAIKEI
  6
Continuous
 62
     1
100
AcDbLine
 10
38.00340798392587
 20
-5.470142556342239
 30
0.0
 11
38.00340798392587
 21
30.2536281793187
 31
0.0
  0
LINE
  5
152
330
2
100
AcDbEntity
  8
GAIKEI
  6
Continuous
 62
     7
100
AcDbLine
 10
37.84809418392582
 20
30.22453822931868
 30
0.0
 11
38.00340798392587
 21
30.45136727931867
 31
0.0
  0
LINE
  5
153
330
2
100
AcDbEntity
  8
GAIKEI
  6
Continuous
 62
     1
100
AcDbLine
 10
38.00340798392587
 20
30.2536281793187
 30
0.0
 11
37.84809418392582
 21
30.02679912931871
 31
0.0
  0
LINE
  5
154
330
2
100
AcDbEntity
  8
GAIKEI
  6
Continuous
 62
     7
100
AcDbLine
 10
37.83934978392587
 20
-5.215065056342155
 30
0.0
 11
37.83934978392587
 21
30.02679912931871
 31
0.0
  0
LINE
  5
155
330
2
100
AcDbEntity
  8
GAIKEI
  6
Continuous
 62
     7
100
AcDbLine
 10
37.83934978392587
 20
30.02679912931871
 30
0.0
 11
37.84809418392582
 21
30.02679912931871
 31
0.0
  0
LINE
  5
156
330
2
100
AcDbEntity
  8
GAIKEI
  6
Continuous
 62
     7
100
AcDbLine
 10
37.83934978392587
 20
30.19628977931871
 30
0.0
 11
37.83934978392587
 21
30.02679912931871
 31
0.0
  0
ARC
  5
157
330
2
100
AcDbEntity
  8
GAIKEI
  6
Continuous
 62
     7
100
AcDbCircle
 10
40.11179978392585
 20
30.54511027931869
 30
0.0
 40
0.025
100
AcDbArc
 50
0.0
 51
84.99999999997717
  0
ARC
  5
158
330
2
100
AcDbEntity
  8
GAIKEI
  6
Continuous
 62
     7
100
AcDbCircle
 10
38.06529138392587
 20
30.40899457931869
 30
0.0
 40
0.075
100
AcDbArc
 50
93.00000000000558
 51
145.5998770000095
  0
ARC
  5
159
330
2
100
AcDbEntity
  8
GAIKEI
  6
Continuous
 62
     7
100
AcDbCircle
 10
37.88934978392588
 20
30.19628977931871
 30
0.0
 40
0.05
100
AcDbArc
 50
145.5998770000095
 51
180.0
  0
LINE
  5
15A
330
2
100
AcDbEntity
  8
GAIKEI
  6
Continuous
 62
     1
100
AcDbLine
 10
40.33375843392583
 20
29.98071837931866
 30
0.0
 11
40.13679978392589
 21
29.95303762931872
 31
0.0
  0
LINE
  5
15B
330
2
100
AcDbEntity
  8
GAIKEI
  6
Continuous
 62
     1
100
AcDbLine
 10
40.28263168392586
 20
30.15342637931872
 30
0.0
 11
40.27679978392588
 21
30.08676742931868
 31
0.0
  0
LINE
  5
15C
330
2
100
AcDbEntity
  8
GAIKEI
  6
Continuous
 62
     1
100
AcDbLine
 10
40.27679978392588
 20
30.08676742931868
 30
0.0
 11
40.24493838392586
 21
30.08676742931868
 31
0.0
  0
LINE
  5
15D
330
2
100
AcDbEntity
  8
GAIKEI
  6
Continuous
 62
     1
100
AcDbLine
 10
40.24929628392586
 20
30.1510483793187
 30
0.0
 11
40.28257623392586
 21
30.15279247931869
 31
0.0
  0
LINE
  5
15E
330
2
100
AcDbEntity
  8
GAIKEI
  6
Continuous
 62
     1
100
AcDbLine
 10
40.28699813392587
 20
30.20333492931872
 30
0.0
 11
40.32767238392587
 21
30.20262492931869
 31
0.0
  0
LINE
  5
15F
330
2
100
AcDbEntity
  8
GAIKEI
  6
Continuous
 62
     1
100
AcDbLine
 10
40.28263168392586
 20
30.15342637931872
 30
0.0
 11
40.28699813392587
 21
30.20333492931872
 31
0.0
  0
LINE
  5
160
330
2
100
AcDbEntity
  8
GAIKEI
  6
Continuous
 62
     1
100
AcDbLine
 10
40.3767997839259
 20
30.15263257931867
 30
0.0
 11
40.3767997839259
 21
30.03023177931869
 31
0.0
  0
ARC
  5
161
330
2
100
AcDbEntity
  8
GAIKEI
  6
Continuous
 62
     1
100
AcDbCircle
 10
40.32679978392583
 20
30.03023177931869
 30
0.0
 40
0.05
100
AcDbArc
 50
277.9999999999842
 51
0.0
  0
ARC
  5
162
330
2
100
AcDbEntity
  8
GAIKEI
  6
Continuous
 62
     1
100
AcDbCircle
 10
40.32679978392583
 20
30.15263257931867
 30
0.0
 40
0.05
100
AcDbArc
 50
0.0
 51
89.00000000002432
  0
SPLINE
  5
163
330
2
100
AcDbEntity
  8
GAIKEI
  6
Continuous
 62
     1
100
AcDbSpline
210
0.0
220
0.0
230
1.0
 70
     8
 71
     3
 72
    23
 73
    19
 74
    17
 42
0.0000000001
 43
0.0000000001
 44
0.000001
 12
-0.0195855615079534
 22
0.9998081844936148
 32
0.0
 13
-0.1708806009777295
 23
0.9852917437030972
 33
0.0
 40
0.0
 40
0.0
 40
0.0
 40
0.0
 40
0.0246422057409199
 40
0.0561693393133863
 40
0.0946352834719927
 40
0.1238383489245238
 40
0.1560774103075219
 40
0.1637317308166681
 40
0.1715387786615083
 40
0.1794984554017595
 40
0.1876106488051588
 40
0.1958752329952482
 40
0.2042920686457702
 40
0.2128610032233835
 40
0.2387981685051509
 40
0.2711882160498584
 40
0.3100387699381647
 40
0.3553446180979255
 40
0.3553446180979255
 40
0.3553446180979255
 40
0.3553446180979255
 10
40.20015730552803
 20
28.62548598355653
 30
0.0
 10
40.19999642838263
 20
28.63369847655111
 30
0.0
 10
40.19927775645406
 20
28.65241596148008
 30
0.0
 10
40.19633665611809
 20
28.68383475202529
 30
0.0
 10
40.19234714544596
 20
28.71666016994414
 30
0.0
 10
40.18771923401263
 20
28.7496409149827
 30
0.0
 10
40.18427224558616
 20
28.77241395017177
 30
0.0
 10
40.18181933386047
 20
28.78812374995374
 30
0.0
 10
40.18060248875463
 20
28.79583535377441
 30
0.0
 10
40.17935037178723
 20
28.80369589431848
 30
0.0
 10
40.17806380355899
 20
28.81170537482592
 30
0.0
 10
40.17674361639905
 20
28.81986378855515
 30
0.0
 10
40.17539089188102
 20
28.8281711604476
 30
0.0
 10
40.17307859522216
 20
28.8422907213859
 30
0.0
 10
40.16945282458779
 20
28.86429270567317
 30
0.0
 10
40.1640852014123
 20
28.89623755477328
 30
0.0
 10
40.15751332095931
 20
28.93452650439019
 30
0.0
 10
40.1527455509573
 20
28.96217050339624
 30
0.0
 10
40.15016492077019
 20
28.97705032944066
 30
0.0
 11
40.20015730552803
 21
28.62548598355653
 31
0.0
 11
40.19916719018762
 21
28.6501084119937
 31
0.0
 11
40.19642150475705
 21
28.6815156890911
 31
0.0
 11
40.1918401546393
 21
28.71970781484896
 31
0.0
 11
40.18780938536191
 21
28.74863135794539
 31
0.0
 11
40.18300476160637
 21
28.78051038111818
 31
0.0
 11
40.18182417230595
 21
28.78807310578094
 31
0.0
 11
40.18060756011199
 21
28.79578477383791
 31
0.0
 11
40.17935567536905
 21
28.80364538528892
 31
0.0
 11
40.17806932868326
 21
28.81165494013402
 31
0.0
 11
40.17674939145844
 21
28.81981343837328
 31
0.0
 11
40.17539679635014
 21
28.82812088000662
 31
0.0
 11
40.17401253763241
 21
28.83657726503401
 31
0.0
 11
40.1697896328176
 21
28.86216834792089
 31
0.0
 11
40.16442406333671
 21
28.8941108862843
 31
0.0
 11
40.15787157049238
 21
28.93240488012424
 31
0.0
 11
40.15016492077019
 21
28.97705032944066
 31
0.0
  0
SPLINE
  5
164
330
2
100
AcDbEntity
  8
GAIKEI
  6
Continuous
 62
     1
100
AcDbSpline
210
0.0
220
0.0
230
1.0
 70
     8
 71
     3
 72
    13
 73
     9
 74
     7
 42
0.0000000001
 43
0.0000000001
 44
0.000001
 12
0.1686465211669663
 22
0.9856765954907725
 32
0.0
 13
0.1366868105490227
 23
0.9906143123445854
 33
0.0
 40
0.0
 40
0.0
 40
0.0
 40
0.0
 40
0.0148768856752681
 40
0.0303404718420845
 40
0.0467491639371032
 40
0.0635503078503972
 40
0.0820032027515067
 40
0.1007849331553341
 40
0.1007849331553341
 40
0.1007849331553341
 40
0.1007849331553341
 10
41.49433052431438
 20
23.74657638078486
 30
0.0
 10
41.49516683598602
 20
23.75146431345951
 30
0.0
 10
41.49689152599096
 20
23.76142975755732
 30
0.0
 10
41.4996678410744
 20
23.77676355344522
 30
0.0
 10
41.50251690232245
 20
23.79273594639256
 30
0.0
 10
41.50543166255007
 20
23.80970861150263
 30
0.0
 10
41.50827960048725
 20
23.82749449517854
 30
0.0
 10
41.51006309084706
 20
23.83977776378777
 30
0.0
 10
41.51091882912221
 20
23.84597958077063
 30
0.0
 11
41.49433052431438
 21
23.74657638078486
 31
0.0
 11
41.49687765414479
 21
23.76123338411816
 31
0.0
 11
41.49960628857992
 21
23.77645448820954
 31
0.0
 11
41.50247775867081
 21
23.79260998040724
 31
0.0
 11
41.50530970942135
 21
23.80917073436899
 31
0.0
 11
41.50821929762584
 21
23.82739280430468
 31
0.0
 11
41.51091882912221
 21
23.84597958077063
 31
0.0
  0
SPLINE
  5
165
330
2
100
AcDbEntity
  8
GAIKEI
  6
Continuous
 62
     1
100
AcDbSpline
210
0.0
220
0.0
230
1.0
 70
     8
 71
     3
 72
    13
 73
     9
 74
     7
 42
0.0000000001
 43
0.0000000001
 44
0.000001
 12
0.1358537149050929
 22
0.9907289074951259
 32
0.0
 13
0.1028701000007821
 23
0.9946947986824044
 33
0.0
 40
0.0
 40
0.0
 40
0.0
 40
0.0
 40
0.0167629848691176
 40
0.0334123275052021
 40
0.0503098774187989
 40
0.0668410117253158
 40
0.0842373612997495
 40
0.1010541529110039
 40
0.1010541529110039
 40
0.1010541529110039
 40
0.1010541529110039
 10
41.67640687799975
 20
25.04931410760827
 30
0.0
 10
41.67716598258887
 20
25.05484996550354
 30
0.0
 10
41.67860902601939
 20
25.06589388595364
 30
0.0
 10
41.68057156321022
 20
25.08254902872972
 30
0.0
 10
41.6823315502899
 20
25.09914894577378
 30
0.0
 10
41.68399061969717
 20
25.11600926264282
 30
0.0
 10
41.68557394961101
 20
25.13284981109809
 30
0.0
 10
41.6867276839268
 20
25.14419578312112
 30
0.0
 10
41.68730433227172
 20
25.14977164150321
 30
0.0
 11
41.67640687799975
 21
25.04931410760827
 31
0.0
 11
41.67857977835446
 21
25.0659357287235
 31
0.0
 11
41.68053094969924
 21
25.08247034944975
 31
0.0
 11
41.6823240545623
 21
25.09927249588912
 31
0.0
 11
41.68395177145005
 21
25.11572330542953
 31
0.0
 11
41.68561478232961
 21
25.13304064328639
 31
0.0
 11
41.68730433227172
 21
25.14977164150321
 31
0.0
  0
SPLINE
  5
166
330
2
100
AcDbEntity
  8
GAIKEI
  6
Continuous
 62
     1
100
AcDbSpline
210
0.0
220
0.0
230
1.0
 70
     8
 71
     3
 72
    13
 73
     9
 74
     7
 42
0.0000000001
 43
0.0000000001
 44
0.000001
 12
-0.1367026333584174
 22
0.9906121289550588
 32
0.0
 13
-0.1693098136655528
 23
0.9855628782561444
 33
0.0
 40
0.0
 40
0.0
 40
0.0
 40
0.0
 40
0.0167469922486499
 40
0.0333773442702691
 40
0.0502571168680879
 40
0.0667711030724865
 40
0.0840636332563482
 40
0.1007849533910366
 40
0.1007849533910366
 40
0.1007849533910366
 40
0.1007849533910366
 10
41.51091882912221
 20
28.41769565299984
 30
0.0
 10
41.51015570980847
 20
28.42322557754818
 30
0.0
 10
41.50856413847513
 20
28.43423730373394
 30
0.0
 10
41.50595455512624
 20
28.45078559563922
 30
0.0
 10
41.50316687513371
 20
28.46722590182094
 30
0.0
 10
41.50021878385362
 20
28.48386219893405
 30
0.0
 10
41.49721492939973
 20
28.50043483002151
 30
0.0
 10
41.49527421884646
 20
28.51160554885223
 30
0.0
 10
41.49433052431438
 20
28.51709885298561
 30
0.0
 11
41.51091882912221
 21
28.41769565299984
 31
0.0
 11
41.50852392326932
 21
28.4342705843589
 31
0.0
 11
41.5059371038401
 21
28.4506985224046
 31
0.0
 11
41.50312667597565
 21
28.46734269218888
 31
0.0
 11
41.50025466733668
 21
28.48360502680845
 31
0.0
 11
41.49720144117909
 21
28.50062654224251
 31
0.0
 11
41.49433052431438
 21
28.51709885298561
 31
0.0
  0
SPLINE
  5
167
330
2
100
AcDbEntity
  8
GAIKEI
  6
Continuous
 62
     1
100
AcDbSpline
210
0.0
220
0.0
230
1.0
 70
     8
 71
     3
 72
    11
 73
     7
 74
     5
 42
0.0000000001
 43
0.0000000001
 44
0.000001
 12
0.0263247353920106
 22
0.9996534441027755
 32
0.0
 13
0.1800564184768131
 23
0.9836562845655501
 33
0.0
 40
0.0
 40
0.0
 40
0.0
 40
0.0
 40
0.0222209517494263
 40
0.0388462874323282
 40
0.049882048448065
 40
0.0553514638909737
 40
0.0553514638909737
 40
0.0553514638909737
 40
0.0553514638909737
 10
40.20015730552803
 20
23.63818925021389
 30
0.0
 10
40.20035229241969
 20
23.64559366719641
 30
0.0
 10
40.20077634915589
 20
23.65853871152558
 30
0.0
 10
40.20160062386167
 20
23.67513818133625
 30
0.0
 10
40.20214019914343
 20
23.68618367213156
 30
0.0
 10
40.20301556630019
 20
23.69162122639017
 30
0.0
 10
40.20334383408545
 20
23.69341456801459
 30
0.0
 11
40.20015730552803
 21
23.63818925021389
 31
0.0
 11
40.20090970798334
 21
23.66039735501096
 31
0.0
 11
40.2016915968946
 21
23.6770042762434
 31
0.0
 11
40.20250297226199
 21
23.68801001391131
 31
0.0
 11
40.20334383408545
 21
23.69341456801459
 31
0.0
  0
SPLINE
  5
168
330
2
100
AcDbEntity
  8
GAIKEI
  6
Continuous
 62
     1
100
AcDbSpline
210
0.0
220
0.0
230
1.0
 70
     8
 71
     3
 72
    16
 73
    12
 74
    10
 42
0.0000000001
 43
0.0000000001
 44
0.000001
 12
-0.0430768721966507
 22
0.9990717607268027
 32
0.0
 13
-0.9995301167089067
 23
0.0306520112207888
 33
0.0
 40
0.0
 40
0.0
 40
0.0
 40
0.0
 40
0.0160287203943635
 40
0.0327204960098471
 40
0.0473482253724389
 40
0.059679252428639
 40
0.0695126747968553
 40
0.0767030109011081
 40
0.0811430012141312
 40
0.0828762629778492
 40
0.0829034368634702
 40
0.0829034368634702
 40
0.0829034368634702
 40
0.0829034368634702
 10
40.29502631191088
 20
24.07185741178745
 30
0.0
 10
40.29479615619758
 20
24.07719535908967
 30
0.0
 10
40.29430051121241
 20
24.08808933269427
 30
0.0
 10
40.29352235848441
 20
24.10386018273789
 30
0.0
 10
40.29270034962277
 20
24.11836489786003
 30
0.0
 10
40.29189937732207
 20
24.1306673480508
 30
0.0
 10
40.29106960793805
 20
24.14024742846886
 30
0.0
 10
40.29035781184567
 20
24.14776422290419
 30
0.0
 10
40.28951518210954
 20
24.15142206071789
 30
0.0
 10
40.28903836833173
 20
24.15425608525487
 30
0.0
 10
40.28844834090051
 20
24.15426852854557
 30
0.0
 10
40.28843928719483
 20
24.15426880619032
 30
0.0
 11
40.29502631191088
 21
24.07185741178745
 31
0.0
 11
40.29429978392603
 21
24.08786894337572
 31
0.0
 11
40.29346645059264
 21
24.1045399004874
 31
0.0
 11
40.29263311725936
 21
24.11914386870677
 31
0.0
 11
40.29179978392598
 21
24.131446697939
 31
0.0
 11
40.29096645059264
 21
24.14124473360147
 31
0.0
 11
40.29013311725932
 21
24.14838658951107
 31
0.0
 11
40.28929978392604
 21
24.15274759248615
 31
0.0
 11
40.28846645059265
 21
24.15426761670222
 31
0.0
 11
40.28843928719483
 21
24.15426880619032
 31
0.0
  0
SPLINE
  5
169
330
2
100
AcDbEntity
  8
GAIKEI
  6
Continuous
 62
     1
100
AcDbSpline
210
0.0
220
0.0
230
1.0
 70
     8
 71
     3
 72
    20
 73
    16
 74
    14
 42
0.0000000001
 43
0.0000000001
 44
0.000001
 12
-0.0366600883891987
 22
-0.9993277930285419
 32
0.0
 13
-0.8962567756003743
 23
-0.4435355591048144
 33
0.0
 40
0.0
 40
0.0
 40
0.0
 40
0.0
 40
0.0225441489661663
 40
0.0447243509195589
 40
0.0661807098233607
 40
0.0865702989487714
 40
0.105560024997201
 40
0.1228469656545373
 40
0.1381506161008298
 40
0.1512251988683046
 40
0.1618642916136134
 40
0.1698958897130197
 40
0.1752100305703949
 40
0.1777642420885803
 40
0.1780980751421463
 40
0.1780980751421463
 40
0.1780980751421463
 40
0.1780980751421463
 10
40.31929978392601
 20
23.97676742931867
 30
0.0
 10
40.31902429376143
 20
23.96925776444129
 30
0.0
 10
40.31847366183606
 20
23.9543598246832
 30
0.0
 10
40.31764776294697
 20
23.93231502750342
 30
0.0
 10
40.31682155171417
 20
23.91098904948984
 30
0.0
 10
40.31599680879746
 20
23.89072696725287
 30
0.0
 10
40.31517191087909
 20
23.87185714363534
 30
0.0
 10
40.3143526246437
 20
23.8546801189915
 30
0.0
 10
40.31352509101421
 20
23.83949017639327
 30
0.0
 10
40.31273561335204
 20
23.826480671789
 30
0.0
 10
40.31186248813381
 20
23.81600846237365
 30
0.0
 10
40.31124162910723
 20
23.80785682525868
 30
0.0
 10
40.31015881622322
 20
23.80299991271164
 30
0.0
 10
40.30997274123257
 20
23.79979576444924
 30
0.0
 10
40.30911183936233
 20
23.799317545858
 30
0.0
 10
40.3090121059836
 20
23.79926819024797
 30
0.0
 11
40.31929978392601
 21
23.97676742931867
 31
0.0
 11
40.31846645059262
 21
23.95423922370782
 31
0.0
 11
40.31763311725934
 21
23.932074683297
 31
0.0
 11
40.31679978392602
 21
23.91063451468796
 31
0.0
 11
40.31596645059268
 21
23.89026196390648
 31
0.0
 11
40.31513311725929
 21
23.87129053383774
 31
0.0
 11
40.31429978392601
 21
23.85402369401197
 31
0.0
 11
40.31346645059268
 21
23.83874275404844
 31
0.0
 11
40.31263311725935
 21
23.82569476261659
 31
0.0
 11
40.31179978392596
 21
23.81508836851145
 31
0.0
 11
40.31096645059268
 21
23.8071001418989
 31
0.0
 11
40.31013311725935
 21
23.8018518020379
 31
0.0
 11
40.30929978392602
 21
23.79943767757731
 31
0.0
 11
40.3090121059836
 21
23.79926819024797
 31
0.0
  0
SPLINE
  5
16A
330
2
100
AcDbEntity
  8
GAIKEI
  6
Continuous
 62
     1
100
AcDbSpline
210
0.0
220
0.0
230
1.0
 70
     8
 71
     3
 72
    18
 73
    14
 74
    12
 42
0.0000000001
 43
0.0000000001
 44
0.000001
 12
-0.5844656576229886
 22
-0.8114184463390806
 32
0.0
 13
-0.0371796361214176
 23
-0.9993085983107917
 33
0.0
 40
0.0
 40
0.0
 40
0.0
 40
0.0
 40
0.0015785755413824
 40
0.0058611200297115
 40
0.0128957152543387
 40
0.0225825394406231
 40
0.0347746564143277
 40
0.049277951075726
 40
0.065857856983638
 40
0.0842512277853569
 40
0.1041564934095522
 40
0.1252572874195154
 40
0.147210029564726
 40
0.147210029564726
 40
0.147210029564726
 40
0.147210029564726
 10
40.28843928719483
 20
24.15426880619032
 30
0.0
 10
40.28813174613087
 20
24.15384184441922
 30
0.0
 10
40.28708233383762
 20
24.15215951873012
 30
0.0
 10
40.28677015655413
 20
24.14774371145091
 30
0.0
 10
40.2857704605321
 20
24.14087994541728
 30
0.0
 10
40.28506682648945
 20
24.13123326175082
 30
0.0
 10
40.28421872898465
 20
24.11914841734478
 30
0.0
 10
40.28341395734584
 20
24.1047408683238
 30
0.0
 10
40.28258849891209
 20
24.08827084525899
 30
0.0
 10
40.28176668002487
 20
24.06999591635861
 30
0.0
 10
40.28094123351425
 20
24.05021344814088
 30
0.0
 10
40.28011629005388
 20
24.02924334402928
 30
0.0
 10
40.27957184891433
 20
24.01490250218194
 30
0.0
 10
40.27929978392605
 20
24.00758998085456
 30
0.0
 11
40.28843928719483
 21
24.15426880619032
 31
0.0
 11
40.28763311725931
 21
24.15291151511627
 31
0.0
 11
40.28679978392598
 21
24.14871100671968
 31
0.0
 11
40.28596645059271
 21
24.14172597548083
 31
0.0
 11
40.28513311725932
 21
24.13207507719994
 31
0.0
 11
40.28429978392598
 21
24.11991148129187
 31
0.0
 11
40.28346645059265
 21
24.10543215281803
 31
0.0
 11
40.28263311725938
 21
24.08887320627736
 31
0.0
 11
40.28179978392599
 21
24.07049872549544
 31
0.0
 11
40.28096645059266
 21
24.050610913387
 31
0.0
 11
40.28013311725932
 21
24.02952658319435
 31
0.0
 11
40.27929978392605
 21
24.00758998085456
 31
0.0
  0
SPLINE
  5
16B
330
2
100
AcDbEntity
  8
GAIKEI
  6
Continuous
 62
     1
100
AcDbSpline
210
0.0
220
0.0
230
1.0
 70
     8
 71
     3
 72
    18
 73
    14
 74
    12
 42
0.0000000001
 43
0.0000000001
 44
0.000001
 12
-0.5846562919338174
 22
-0.8112810982034519
 32
0.0
 13
-0.0371796361214128
 23
-0.9993085983107919
 33
0.0
 40
0.0
 40
0.0
 40
0.0
 40
0.0
 40
0.0015787525645385
 40
0.0058612971317751
 40
0.0128958923591801
 40
0.0225827165461527
 40
0.0347748335200543
 40
0.0492781281816101
 40
0.0658580340895536
 40
0.0842514048912841
 40
0.1041566705154907
 40
0.1252574645254072
 40
0.147210206783318
 40
0.147210206783318
 40
0.147210206783318
 40
0.147210206783318
 10
40.24843962698567
 20
24.15426881027526
 30
0.0
 10
40.24813195111225
 20
24.1538418729038
 30
0.0
 10
40.24708215530464
 20
24.15215967431664
 30
0.0
 10
40.24677026958236
 20
24.14774365302623
 30
0.0
 10
40.24577040948554
 20
24.1408799720158
 30
0.0
 10
40.24506684636513
 20
24.1312332515825
 30
0.0
 10
40.2442187220114
 20
24.11914842109354
 30
0.0
 10
40.24341395971885
 20
24.10474086722735
 30
0.0
 10
40.24258849821703
 20
24.08827084575262
 30
0.0
 10
40.24176668029308
 20
24.06999591635304
 30
0.0
 10
40.24094123348571
 20
24.05021344828674
 30
0.0
 10
40.24011629013154
 20
24.02924334409175
 30
0.0
 10
40.23957184891564
 20
24.01490250221951
 30
0.0
 10
40.23929978392597
 20
24.00758998085456
 30
0.0
 11
40.24843962698567
 21
24.15426881027526
 31
0.0
 11
40.24763311725935
 21
24.15291151511627
 31
0.0
 11
40.24679978392602
 21
24.14871100671968
 31
0.0
 11
40.24596645059263
 21
24.14172597548083
 31
0.0
 11
40.24513311725935
 21
24.13207507719994
 31
0.0
 11
40.24429978392602
 21
24.11991148129187
 31
0.0
 11
40.24346645059269
 21
24.10543215281803
 31
0.0
 11
40.2426331172593
 21
24.08887320627736
 31
0.0
 11
40.24179978392602
 21
24.07049872549544
 31
0.0
 11
40.24096645059269
 21
24.050610913387
 31
0.0
 11
40.24013311725936
 21
24.02952658319435
 31
0.0
 11
40.23929978392597
 21
24.00758998085456
 31
0.0
  0
SPLINE
  5
16C
330
2
100
AcDbEntity
  8
GAIKEI
  6
Continuous
 62
     1
100
AcDbSpline
210
0.0
220
0.0
230
1.0
 70
     8
 71
     3
 72
    16
 73
    12
 74
    10
 42
0.0000000001
 43
0.0000000001
 44
0.000001
 12
-0.7246933390218108
 22
0.6890715234120614
 32
0.0
 13
-0.043558922455188
 23
0.9990508597036205
 33
0.0
 40
0.0
 40
0.0
 40
0.0
 40
0.0
 40
0.0008245869742391
 40
0.004242768675602
 40
0.0104169723951804
 40
0.0192855983072298
 40
0.0307089239071166
 40
0.0445088940072138
 40
0.0604644486191156
 40
0.0783168924070661
 40
0.0828709020179142
 40
0.0828709020179142
 40
0.0828709020179142
 40
0.0828709020179142
 10
40.26901236606478
 20
23.79926818919955
 30
0.0
 10
40.26881317516888
 20
23.79945758900039
 30
0.0
 10
40.26783245635427
 20
23.80051448827231
 30
0.0
 10
40.26762189455888
 20
23.80422599008221
 30
0.0
 10
40.26656159835783
 20
23.810145001877
 30
0.0
 10
40.26590378510346
 20
23.81901896378696
 30
0.0
 10
40.26504137588381
 20
23.83032044178327
 30
0.0
 10
40.26424432844848
 20
23.84403478557079
 30
0.0
 10
40.26341838250357
 20
23.85987893070194
 30
0.0
 10
40.26282553517242
 20
23.87265358823851
 30
0.0
 10
40.26249849022126
 20
23.88011517431937
 30
0.0
 10
40.26243236763742
 20
23.88163173672495
 30
0.0
 11
40.26901236606478
 21
23.79926818919955
 31
0.0
 11
40.26846645059267
 21
23.79988632071996
 31
0.0
 11
40.26763311725933
 21
23.80320111217185
 31
0.0
 11
40.266799783926
 21
23.80931878182486
 31
0.0
 11
40.26596645059273
 21
23.81814815223174
 31
0.0
 11
40.26513311725934
 21
23.82954103205981
 31
0.0
 11
40.264299783926
 21
23.84331581232465
 31
0.0
 11
40.26346645059267
 21
23.8592495863457
 31
0.0
 11
40.26263311725928
 21
23.87708256656691
 31
0.0
 11
40.26243236763742
 21
23.88163173672495
 31
0.0
  0
SPLINE
  5
16D
330
2
100
AcDbEntity
  8
GAIKEI
  6
Continuous
 62
     1
100
AcDbSpline
210
0.0
220
0.0
230
1.0
 70
     8
 71
     3
 72
    20
 73
    16
 74
    14
 42
0.0000000001
 43
0.0000000001
 44
0.000001
 12
-0.0366600883891941
 22
-0.9993277930285421
 32
0.0
 13
-0.8960473228605128
 23
-0.4439585512122816
 33
0.0
 40
0.0
 40
0.0
 40
0.0
 40
0.0
 40
0.0225441487659091
 40
0.0447243507194614
 40
0.0661807096234193
 40
0.0865702987490919
 40
0.1055600247977212
 40
0.122846965455416
 40
0.1381506159022079
 40
0.1512251986703502
 40
0.1618642914168285
 40
0.1698958895183469
 40
0.1752100303814869
 40
0.1777642418023454
 40
0.1780978513807279
 40
0.1780978513807279
 40
0.1780978513807279
 40
0.1780978513807279
 10
40.27929978392605
 20
23.97676742931867
 30
0.0
 10
40.27902429376391
 20
23.96925776450803
 30
0.0
 10
40.27847366202864
 20
23.95435982480524
 30
0.0
 10
40.27764776305765
 20
23.93231502771454
 30
0.0
 10
40.27682155188485
 20
23.91098904963093
 30
0.0
 10
40.27599680882272
 20
23.8907269676323
 30
0.0
 10
40.27517191137919
 20
23.87185714321686
 30
0.0
 10
40.27435262361396
 20
23.85468012115155
 30
0.0
 10
40.27352509473374
 20
23.83949017055193
 30
0.0
 10
40.27273560310233
 20
23.82648068948845
 30
0.0
 10
40.27186251611325
 20
23.8160084156591
 30
0.0
 10
40.27124156341992
 20
23.80785693637853
 30
0.0
 10
40.27015893992974
 20
23.80299970474977
 30
0.0
 10
40.26997261026146
 20
23.79979608153559
 30
0.0
 10
40.26911200938798
 20
23.7993175588079
 30
0.0
 10
40.26901236606478
 20
23.79926818919955
 30
0.0
 11
40.27929978392605
 21
23.97676742931867
 31
0.0
 11
40.27846645059265
 21
23.95423922370782
 31
0.0
 11
40.27763311725933
 21
23.932074683297
 31
0.0
 11
40.27679978392599
 21
23.91063451468796
 31
0.0
 11
40.27596645059271
 21
23.89026196390648
 31
0.0
 11
40.27513311725932
 21
23.87129053383774
 31
0.0
 11
40.27429978392599
 21
23.85402369401197
 31
0.0
 11
40.27346645059266
 21
23.83874275404844
 31
0.0
 11
40.27263311725938
 21
23.82569476261659
 31
0.0
 11
40.271799783926
 21
23.81508836851145
 31
0.0
 11
40.27096645059266
 21
23.8071001418989
 31
0.0
 11
40.27013311725933
 21
23.8018518020379
 31
0.0
 11
40.26929978392606
 21
23.79943767757731
 31
0.0
 11
40.26901236606478
 21
23.79926818919955
 31
0.0
  0
SPLINE
  5
16E
330
2
100
AcDbEntity
  8
GAIKEI
  6
Continuous
 62
     1
100
AcDbSpline
210
0.0
220
0.0
230
1.0
 70
     8
 71
     3
 72
    20
 73
    16
 74
    14
 42
0.0000000001
 43
0.0000000001
 44
0.000001
 12
-0.03666008838921
 22
-0.9993277930285415
 32
0.0
 13
-0.89604732285992
 23
-0.443958551213478
 33
0.0
 40
0.0
 40
0.0
 40
0.0
 40
0.0
 40
0.0225441487658523
 40
0.0447243507194614
 40
0.0661807096234193
 40
0.0865702987491487
 40
0.1055600247977212
 40
0.1228469654554727
 40
0.1381506159022647
 40
0.1512251986702935
 40
0.1618642914168285
 40
0.169895889518347
 40
0.175210030381487
 40
0.1777642418023408
 40
0.1780978513807643
 40
0.1780978513807643
 40
0.1780978513807643
 40
0.1780978513807643
 10
40.27929978392605
 20
27.59676742931868
 30
0.0
 10
40.27902429376391
 20
27.58925776450804
 30
0.0
 10
40.27847366202862
 20
27.57435982480525
 30
0.0
 10
40.27764776305767
 20
27.5523150277146
 30
0.0
 10
40.27682155188485
 20
27.53098904963088
 30
0.0
 10
40.27599680882272
 20
27.5107269676322
 30
0.0
 10
40.2751719113792
 20
27.49185714321692
 30
0.0
 10
40.27435262361399
 20
27.47468012115144
 30
0.0
 10
40.27352509473371
 20
27.45949017055187
 30
0.0
 10
40.27273560310232
 20
27.44648068948834
 30
0.0
 10
40.27186251611325
 20
27.4360084156591
 30
0.0
 10
40.27124156341989
 20
27.4278569363787
 30
0.0
 10
40.27015893992987
 20
27.42299970474971
 30
0.0
 10
40.26997261026139
 20
27.41979608153576
 30
0.0
 10
40.26911200938799
 20
27.41931755880785
 30
0.0
 10
40.26901236606478
 20
27.4192681891995
 30
0.0
 11
40.27929978392605
 21
27.59676742931868
 31
0.0
 11
40.27846645059265
 21
27.57423922370788
 31
0.0
 11
40.27763311725933
 21
27.55207468329701
 31
0.0
 11
40.27679978392599
 21
27.53063451468796
 31
0.0
 11
40.27596645059271
 21
27.51026196390643
 31
0.0
 11
40.27513311725932
 21
27.49129053383774
 31
0.0
 11
40.27429978392599
 21
27.47402369401192
 31
0.0
 11
40.27346645059266
 21
27.45874275404839
 31
0.0
 11
40.27263311725938
 21
27.44569476261665
 31
0.0
 11
40.271799783926
 21
27.43508836851146
 31
0.0
 11
40.27096645059266
 21
27.42710014189891
 31
0.0
 11
40.27013311725933
 21
27.42185180203791
 31
0.0
 11
40.26929978392606
 21
27.41943767757732
 31
0.0
 11
40.26901236606478
 21
27.4192681891995
 31
0.0
  0
SPLINE
  5
16F
330
2
100
AcDbEntity
  8
GAIKEI
  6
Continuous
 62
     1
100
AcDbSpline
210
0.0
220
0.0
230
1.0
 70
     8
 71
     3
 72
    16
 73
    12
 74
    10
 42
0.0000000001
 43
0.0000000001
 44
0.000001
 12
-0.0430768721965857
 22
0.9990717607268052
 32
0.0
 13
-0.9995301167088943
 23
0.0306520112211923
 33
0.0
 40
0.0
 40
0.0
 40
0.0
 40
0.0
 40
0.0160287203943635
 40
0.0327204960099038
 40
0.0473482253724389
 40
0.059679252428639
 40
0.0695126747968554
 40
0.0767030109011081
 40
0.0811430012141312
 40
0.0828762629777994
 40
0.0829034368634204
 40
0.0829034368634204
 40
0.0829034368634204
 40
0.0829034368634204
 10
40.29502631191088
 20
27.69185741178745
 30
0.0
 10
40.29479615619758
 20
27.69719535908968
 30
0.0
 10
40.29430051121235
 20
27.70808933269416
 30
0.0
 10
40.29352235848446
 20
27.72386018273818
 30
0.0
 10
40.29270034962275
 20
27.73836489785992
 30
0.0
 10
40.29189937732207
 20
27.75066734805103
 30
0.0
 10
40.29106960793811
 20
27.76024742846852
 30
0.0
 10
40.29035781184558
 20
27.76776422290516
 30
0.0
 10
40.28951518210965
 20
27.77142206071608
 30
0.0
 10
40.2890383683316
 20
27.7742560852563
 30
0.0
 10
40.28844834090051
 20
27.77426852854552
 30
0.0
 10
40.28843928719483
 20
27.77426880619027
 30
0.0
 11
40.29502631191088
 21
27.69185741178745
 31
0.0
 11
40.29429978392603
 21
27.70786894337573
 31
0.0
 11
40.29346645059264
 21
27.72453990048746
 31
0.0
 11
40.29263311725936
 21
27.73914386870678
 31
0.0
 11
40.29179978392598
 21
27.751446697939
 31
0.0
 11
40.29096645059264
 21
27.76124473360147
 31
0.0
 11
40.29013311725932
 21
27.76838658951107
 31
0.0
 11
40.28929978392604
 21
27.77274759248616
 31
0.0
 11
40.28846645059265
 21
27.77426761670216
 31
0.0
 11
40.28843928719483
 21
27.77426880619027
 31
0.0
  0
SPLINE
  5
170
330
2
100
AcDbEntity
  8
GAIKEI
  6
Continuous
 62
     1
100
AcDbSpline
210
0.0
220
0.0
230
1.0
 70
     8
 71
     3
 72
    20
 73
    16
 74
    14
 42
0.0000000001
 43
0.0000000001
 44
0.000001
 12
-0.0366600883891987
 22
-0.9993277930285419
 32
0.0
 13
-0.8962567755996664
 23
-0.4435355591062449
 33
0.0
 40
0.0
 40
0.0
 40
0.0
 40
0.0
 40
0.0225441489661095
 40
0.0447243509195589
 40
0.0661807098233607
 40
0.0865702989488282
 40
0.105560024997201
 40
0.1228469656545941
 40
0.1381506161008866
 40
0.151225198868248
 40
0.1618642916136134
 40
0.1698958897130197
 40
0.175210030570395
 40
0.1777642420885804
 40
0.1780980751421751
 40
0.1780980751421751
 40
0.1780980751421751
 40
0.1780980751421751
 10
40.31929978392601
 20
27.59676742931868
 30
0.0
 10
40.31902429376143
 20
27.58925776444136
 30
0.0
 10
40.31847366183609
 20
27.57435982468326
 30
0.0
 10
40.31764776294695
 20
27.55231502750337
 30
0.0
 10
40.31682155171416
 20
27.53098904948979
 30
0.0
 10
40.31599680879748
 20
27.51072696725294
 30
0.0
 10
40.31517191087909
 20
27.49185714363517
 30
0.0
 10
40.31435262464367
 20
27.47468011899156
 30
0.0
 10
40.31352509101418
 20
27.45949017639316
 30
0.0
 10
40.31273561335206
 20
27.446480671789
 30
0.0
 10
40.31186248813386
 20
27.43600846237382
 30
0.0
 10
40.31124162910717
 20
27.42785682525869
 30
0.0
 10
40.31015881622332
 20
27.42299991271153
 30
0.0
 10
40.30997274123246
 20
27.41979576444925
 30
0.0
 10
40.30911183936233
 20
27.41931754585795
 30
0.0
 10
40.3090121059836
 20
27.41926819024792
 30
0.0
 11
40.31929978392601
 21
27.59676742931868
 31
0.0
 11
40.31846645059262
 21
27.57423922370788
 31
0.0
 11
40.31763311725934
 21
27.55207468329701
 31
0.0
 11
40.31679978392602
 21
27.53063451468796
 31
0.0
 11
40.31596645059268
 21
27.51026196390643
 31
0.0
 11
40.31513311725929
 21
27.49129053383774
 31
0.0
 11
40.31429978392601
 21
27.47402369401192
 31
0.0
 11
40.31346645059268
 21
27.45874275404839
 31
0.0
 11
40.31263311725935
 21
27.44569476261665
 31
0.0
 11
40.31179978392596
 21
27.43508836851146
 31
0.0
 11
40.31096645059268
 21
27.42710014189891
 31
0.0
 11
40.31013311725935
 21
27.42185180203791
 31
0.0
 11
40.30929978392602
 21
27.41943767757732
 31
0.0
 11
40.3090121059836
 21
27.41926819024792
 31
0.0
  0
SPLINE
  5
171
330
2
100
AcDbEntity
  8
GAIKEI
  6
Continuous
 62
     1
100
AcDbSpline
210
0.0
220
0.0
230
1.0
 70
     8
 71
     3
 72
    18
 73
    14
 74
    12
 42
0.0000000001
 43
0.0000000001
 44
0.000001
 12
-0.5844656576224157
 22
-0.8114184463394934
 32
0.0
 13
-0.0371796361214128
 23
-0.9993085983107919
 33
0.0
 40
0.0
 40
0.0
 40
0.0
 40
0.0
 40
0.0015785755412847
 40
0.0058611200296696
 40
0.0128957152542967
 40
0.0225825394405245
 40
0.0347746564142859
 40
0.0492779510757409
 40
0.0658578569835961
 40
0.0842512277853718
 40
0.1041564934094535
 40
0.1252572874194735
 40
0.1472100295646841
 40
0.1472100295646841
 40
0.1472100295646841
 40
0.1472100295646841
 10
40.28843928719483
 20
27.77426880619027
 30
0.0
 10
40.28813174613088
 20
27.77384184441923
 30
0.0
 10
40.28708233383754
 20
27.77215951873018
 30
0.0
 10
40.28677015655415
 20
27.76774371145098
 30
0.0
 10
40.28577046053207
 20
27.76087994541717
 30
0.0
 10
40.28506682648945
 20
27.75123326175094
 30
0.0
 10
40.28421872898461
 20
27.73914841734467
 30
0.0
 10
40.28341395734585
 20
27.72474086832386
 30
0.0
 10
40.28258849891209
 20
27.70827084525911
 30
0.0
 10
40.28176668002489
 20
27.68999591635861
 30
0.0
 10
40.28094123351425
 20
27.67021344814094
 30
0.0
 10
40.2801162900539
 20
27.6492433440294
 30
0.0
 10
40.27957184891433
 20
27.63490250218195
 30
0.0
 10
40.27929978392605
 20
27.62758998085457
 30
0.0
 11
40.28843928719483
 21
27.77426880619027
 31
0.0
 11
40.28763311725931
 21
27.77291151511633
 31
0.0
 11
40.28679978392598
 21
27.76871100671968
 31
0.0
 11
40.28596645059271
 21
27.76172597548083
 31
0.0
 11
40.28513311725932
 21
27.75207507720001
 31
0.0
 11
40.28429978392598
 21
27.73991148129187
 31
0.0
 11
40.28346645059265
 21
27.72543215281797
 31
0.0
 11
40.28263311725938
 21
27.70887320627736
 31
0.0
 11
40.28179978392599
 21
27.69049872549539
 31
0.0
 11
40.28096645059266
 21
27.67061091338707
 31
0.0
 11
40.28013311725932
 21
27.64952658319436
 31
0.0
 11
40.27929978392605
 21
27.62758998085457
 31
0.0
  0
SPLINE
  5
172
330
2
100
AcDbEntity
  8
GAIKEI
  6
Continuous
 62
     1
100
AcDbSpline
210
0.0
220
0.0
230
1.0
 70
     8
 71
     3
 72
    18
 73
    14
 74
    12
 42
0.0000000001
 43
0.0000000001
 44
0.000001
 12
-0.5846562919338174
 22
-0.8112810982034519
 32
0.0
 13
-0.0371796361213846
 23
-0.9993085983107928
 33
0.0
 40
0.0
 40
0.0
 40
0.0
 40
0.0
 40
0.0015787525644896
 40
0.005861297131782
 40
0.012895892359187
 40
0.022582716546103
 40
0.0347748335200613
 40
0.0492781281816739
 40
0.0658580340895605
 40
0.0842514048913479
 40
0.1041566705154433
 40
0.1252574645254143
 40
0.1472102067833251
 40
0.1472102067833251
 40
0.1472102067833251
 40
0.1472102067833251
 10
40.24843962698567
 20
27.77426881027526
 30
0.0
 10
40.24813195111225
 20
27.7738418729038
 30
0.0
 10
40.24708215530456
 20
27.77215967431658
 30
0.0
 10
40.24677026958243
 20
27.76774365302623
 30
0.0
 10
40.2457704094855
 20
27.76087997201575
 30
0.0
 10
40.24506684636515
 20
27.75123325158256
 30
0.0
 10
40.24421872201142
 20
27.7391484210936
 30
0.0
 10
40.24341395971883
 20
27.72474086722724
 30
0.0
 10
40.24258849821703
 20
27.70827084575262
 30
0.0
 10
40.24176668029312
 20
27.6899959163531
 30
0.0
 10
40.24094123348561
 20
27.67021344828686
 30
0.0
 10
40.24011629013155
 20
27.64924334409176
 30
0.0
 10
40.23957184891564
 20
27.63490250221952
 30
0.0
 10
40.23929978392597
 20
27.62758998085457
 30
0.0
 11
40.24843962698567
 21
27.77426881027526
 31
0.0
 11
40.24763311725935
 21
27.77291151511633
 31
0.0
 11
40.24679978392602
 21
27.76871100671968
 31
0.0
 11
40.24596645059263
 21
27.76172597548083
 31
0.0
 11
40.24513311725935
 21
27.75207507720001
 31
0.0
 11
40.24429978392602
 21
27.73991148129187
 31
0.0
 11
40.24346645059269
 21
27.72543215281797
 31
0.0
 11
40.2426331172593
 21
27.70887320627736
 31
0.0
 11
40.24179978392602
 21
27.69049872549539
 31
0.0
 11
40.24096645059263
 21
27.67061091338707
 31
0.0
 11
40.24013311725936
 21
27.64952658319436
 31
0.0
 11
40.23929978392597
 21
27.62758998085457
 31
0.0
  0
SPLINE
  5
173
330
2
100
AcDbEntity
  8
GAIKEI
  6
Continuous
 62
     1
100
AcDbSpline
210
0.0
220
0.0
230
1.0
 70
     8
 71
     3
 72
    16
 73
    12
 74
    10
 42
0.0000000001
 43
0.0000000001
 44
0.000001
 12
-0.7246933390181188
 22
0.6890715234159442
 32
0.0
 13
-0.0435589224551712
 23
0.999050859703621
 33
0.0
 40
0.0
 40
0.0
 40
0.0
 40
0.0
 40
0.0008245869742816
 40
0.0042427686756445
 40
0.010416972395223
 40
0.0192855983072831
 40
0.0307089239071616
 40
0.0445088940072587
 40
0.0604644486191606
 40
0.078316892407111
 40
0.0828709020179591
 40
0.0828709020179591
 40
0.0828709020179591
 40
0.0828709020179591
 10
40.26901236606478
 20
27.4192681891995
 30
0.0
 10
40.26881317516888
 20
27.41945758900033
 30
0.0
 10
40.26783245635431
 20
27.42051448827238
 30
0.0
 10
40.26762189455887
 20
27.42422599008234
 30
0.0
 10
40.26656159835787
 20
27.43014500187689
 30
0.0
 10
40.26590378510326
 20
27.43901896378702
 30
0.0
 10
40.26504137588384
 20
27.45032044178322
 30
0.0
 10
40.26424432844845
 20
27.46403478557068
 30
0.0
 10
40.26341838250357
 20
27.47987893070194
 30
0.0
 10
40.26282553517242
 20
27.49265358823846
 30
0.0
 10
40.26249849022126
 20
27.50011517431938
 30
0.0
 10
40.26243236763742
 20
27.50163173672496
 30
0.0
 11
40.26901236606478
 21
27.4192681891995
 31
0.0
 11
40.26846645059267
 21
27.41988632071997
 31
0.0
 11
40.26763311725933
 21
27.42320111217185
 31
0.0
 11
40.266799783926
 21
27.42931878182486
 31
0.0
 11
40.26596645059261
 21
27.43814815223175
 31
0.0
 11
40.26513311725934
 21
27.44954103205981
 31
0.0
 11
40.264299783926
 21
27.46331581232465
 31
0.0
 11
40.26346645059267
 21
27.4792495863457
 31
0.0
 11
40.26263311725928
 21
27.49708256656692
 31
0.0
 11
40.26243236763742
 21
27.50163173672496
 31
0.0
  0
SPLINE
  5
174
330
2
100
AcDbEntity
  8
GAIKEI
  6
Continuous
 62
     1
100
AcDbSpline
210
0.0
220
0.0
230
1.0
 70
     8
 71
     3
 72
    11
 73
     7
 74
     5
 42
0.0000000001
 43
0.0000000001
 44
0.000001
 12
-0.5697183474044964
 22
0.8218400115780987
 32
0.0
 13
-0.725838196782078
 23
0.6878654752872409
 33
0.0
 40
0.0
 40
0.0
 40
0.0
 40
0.0
 40
0.0271269143005002
 40
0.0541651219876439
 40
0.0813877632112155
 40
0.0927557661411984
 40
0.0927557661411984
 40
0.0927557661411984
 40
0.0927557661411984
 10
40.19732186122157
 20
22.76004382057692
 30
0.0
 10
40.19217029429308
 20
22.76747514843117
 30
0.0
 10
40.18141879011183
 20
22.78199810449041
 30
0.0
 10
40.16390886604805
 20
22.80274084523671
 30
0.0
 10
40.14882862213801
 20
22.81860729533002
 30
0.0
 10
40.13959687383922
 20
22.82756670375272
 30
0.0
 10
40.13684643025665
 20
22.83017325599889
 30
0.0
 11
40.19732186122157
 21
22.76004382057692
 31
0.0
 11
40.18117557792591
 21
22.78184256537628
 31
0.0
 11
40.16375154999413
 21
22.80251827536336
 31
0.0
 11
40.14500322058985
 21
22.82225599591152
 31
0.0
 11
40.13684643025665
 21
22.83017325599889
 31
0.0
  0
SPLINE
  5
175
330
2
100
AcDbEntity
  8
GAIKEI
  6
Continuous
 62
     1
100
AcDbSpline
210
0.0
220
0.0
230
1.0
 70
     8
 71
     3
 72
    11
 73
     7
 74
     5
 42
0.0000000001
 43
0.0000000001
 44
0.000001
 12
0.7261327727614697
 22
0.6875545042552915
 32
0.0
 13
0.5694961259186093
 23
0.8219940161361854
 33
0.0
 40
0.0
 40
0.0
 40
0.0
 40
0.0
 40
0.0216057200346623
 40
0.0445668898279859
 40
0.0685149071729124
 40
0.0928153822368556
 40
0.0928153822368556
 40
0.0928153822368556
 40
0.0928153822368556
 10
40.13680497187381
 20
21.61332229699628
 30
0.0
 10
40.14203451233924
 20
21.61827400037208
 30
0.0
 10
40.15258905925543
 20
21.62873674848061
 30
0.0
 10
40.16804015577347
 20
21.64556705088807
 30
0.0
 10
40.18317555142909
 20
21.6638670714413
 30
0.0
 10
40.19270885241927
 20
21.67683275636318
 30
0.0
 10
40.19732186122157
 20
21.68349103806048
 30
0.0
 11
40.13680497187381
 21
21.61332229699628
 31
0.0
 11
40.15214868015961
 21
21.62853291389337
 31
0.0
 11
40.16767154646307
 21
21.64545117991758
 31
0.0
 11
40.18292331957776
 21
21.663915167006
 31
0.0
 11
40.19732186122157
 21
21.68349103806048
 31
0.0
  0
SPLINE
  5
176
330
2
100
AcDbEntity
  8
GAIKEI
  6
Continuous
 62
     1
100
AcDbSpline
210
0.0
220
0.0
230
1.0
 70
     8
 71
     3
 72
    13
 73
     9
 74
     7
 42
0.0000000001
 43
0.0000000001
 44
0.000001
 12
-0.355604041378737
 22
0.9346367025508412
 32
0.0
 13
-0.4792288571631189
 23
0.877689980837272
 33
0.0
 40
0.0
 40
0.0
 40
0.0
 40
0.0
 40
0.000984155255696
 40
0.0341752847051327
 40
0.0724502295558296
 40
0.1107098708129848
 40
0.1490911211199485
 40
0.187432586460285
 40
0.187432586460285
 40
0.187432586460285
 40
0.187432586460285
 10
40.27232186122138
 20
22.58843025844539
 30
0.0
 10
40.27220520469263
 20
22.58873686765304
 30
0.0
 10
40.26815387589211
 20
22.59938388429077
 30
0.0
 10
40.25950148901659
 20
22.62193090338911
 30
0.0
 10
40.24601846182341
 20
22.65593228509977
 30
0.0
 10
40.231135169445
 20
22.69123131746926
 30
0.0
 10
40.21522072386523
 20
22.72610990991882
 30
0.0
 10
40.2034466400939
 20
22.74882651391698
 30
0.0
 10
40.19732186122157
 20
22.76004382057692
 30
0.0
 11
40.27232186122138
 21
22.58843025844539
 31
0.0
 11
40.27197180295117
 21
22.58935003364741
 31
0.0
 11
40.2600548640187
 21
22.62032741228978
 31
0.0
 11
40.24588928279082
 21
22.65588432676418
 31
0.0
 11
40.23098141095239
 21
22.69111979059431
 31
0.0
 11
40.21492714623993
 21
22.72598283921695
 31
0.0
 11
40.19732186122157
 21
22.76004382057692
 31
0.0
  0
SPLINE
  5
177
330
2
100
AcDbEntity
  8
GAIKEI
  6
Continuous
 62
     1
100
AcDbSpline
210
0.0
220
0.0
230
1.0
 70
     8
 71
     3
 72
    12
 73
     8
 74
     6
 42
0.0000000001
 43
0.0000000001
 44
0.000001
 12
0.4769591228667053
 22
0.8789254775657735
 32
0.0
 13
0.3555935529301539
 23
0.9346406930550958
 33
0.0
 40
0.0
 40
0.0
 40
0.0
 40
0.0
 40
0.0463485371772527
 40
0.09288144435473
 40
0.139644928986831
 40
0.1864441356849683
 40
0.1874282895021888
 40
0.1874282895021888
 40
0.1874282895021888
 40
0.1874282895021888
 10
40.19732186122157
 20
21.68349103806048
 30
0.0
 10
40.20469064710098
 20
21.69707000811815
 30
0.0
 10
40.21881032244237
 20
21.72464487453925
 30
0.0
 10
40.23763445702067
 20
21.7672341469825
 30
0.0
 10
40.25522449403861
 20
21.81049626960896
 30
0.0
 10
40.26654052226073
 20
21.83991156836151
 30
0.0
 10
40.27220520830389
 20
21.85479799012342
 30
0.0
 10
40.27232186122138
 20
21.85510460019202
 30
0.0
 11
40.19732186122157
 21
21.68349103806048
 31
0.0
 11
40.21838504501904
 21
21.72477727761708
 31
0.0
 11
40.23738975622321
 21
21.76725297437128
 31
0.0
 11
40.25508289628773
 21
21.81054032989715
 31
0.0
 11
40.27197180291262
 21
21.85418482500637
 31
0.0
 11
40.27232186122138
 21
21.85510460019202
 31
0.0
  0
SPLINE
  5
178
330
2
100
AcDbEntity
  8
GAIKEI
  6
Continuous
 62
     1
100
AcDbSpline
210
0.0
220
0.0
230
1.0
 70
     8
 71
     3
 72
    27
 73
    23
 74
    21
 42
0.0000000001
 43
0.0000000001
 44
0.000001
 12
-0.3587289631765114
 22
-0.9334417662491352
 32
0.0
 13
-0.3043867708718783
 23
-0.952548525650106
 33
0.0
 40
0.0
 40
0.0
 40
0.0
 40
0.0
 40
0.0000527653160561
 40
0.0137452944832508
 40
0.0277848726960501
 40
0.042090415200044
 40
0.0621802894338909
 40
0.0825042457510372
 40
0.102927304185769
 40
0.1204407067947585
 40
0.1390172120262864
 40
0.1586623151565389
 40
0.1727209773581347
 40
0.1881397105005368
 40
0.2049363464391829
 40
0.2220007426195098
 40
0.2384281114963534
 40
0.2550330349711548
 40
0.2718074234065452
 40
0.3201416250121702
 40
0.3656184092027764
 40
0.4082186707019732
 40
0.4082186707019732
 40
0.4082186707019732
 40
0.4082186707019732
 10
41.84179553026775
 20
23.31204126120486
 30
0.0
 10
41.84178922078539
 20
23.31202484342157
 30
0.0
 10
41.84014594696214
 20
23.30774790301166
 30
0.0
 10
41.83686503916248
 20
23.29908666809206
 30
0.0
 10
41.8320572718252
 20
23.28592430760057
 30
0.0
 10
41.82672910853272
 20
23.27068323494836
 30
0.0
 10
41.82110005113921
 20
23.25333073397246
 30
0.0
 10
41.8154898839723
 20
23.23383899214019
 30
0.0
 10
41.8108159335994
 20
23.21498389211206
 30
0.0
 10
41.8070202284047
 20
23.19652864862951
 30
0.0
 10
41.80387471724652
 20
23.17821564068055
 30
0.0
 10
41.80142413452851
 20
23.16095962581079
 30
0.0
 10
41.7994859355394
 20
23.14469995214301
 30
0.0
 10
41.79786784522477
 20
23.12936004750293
 30
0.0
 10
41.7962998340231
 20
23.11300826925532
 30
0.0
 10
41.79482189757758
 20
23.09631070195781
 30
0.0
 10
41.79328040706704
 20
23.0796830850673
 30
0.0
 10
41.7916849190107
 20
23.06315756792896
 30
0.0
 10
41.78910529089352
 20
23.03604290048929
 30
0.0
 10
41.78438931491337
 20
22.99945719348665
 30
0.0
 10
41.77536151543118
 20
22.9548498762191
 30
0.0
 10
41.76739552172562
 20
22.92656165014159
 30
0.0
 10
41.76307320304694
 20
22.91303537804714
 30
0.0
 11
41.84179553026775
 21
23.31204126120486
 31
0.0
 11
41.84177660265381
 21
23.31199200714269
 31
0.0
 11
41.83693014925917
 21
23.29918568500779
 31
0.0
 11
41.83211703721464
 21
23.28599690613811
 31
0.0
 11
41.82740689126474
 21
23.2724890099077
 31
0.0
 11
41.8212295523714
 21
23.25337241901809
 31
0.0
 11
41.81561959398734
 21
23.23383803500525
 31
0.0
 11
41.81072510575667
 21
23.21401012813061
 31
0.0
 11
41.80718181688987
 21
23.19685889552977
 31
0.0
 11
41.80402037195792
 21
23.17855337284334
 31
0.0
 11
41.80124621726737
 21
23.15910512490837
 31
0.0
 11
41.79956870299442
 21
23.14514690402638
 31
0.0
 11
41.79793827208654
 21
23.12981462125254
 31
0.0
 11
41.79632760263554
 21
23.11309540002264
 31
0.0
 11
41.79479017829511
 21
23.09610042198568
 31
0.0
 11
41.79327456464496
 21
23.07974314716358
 31
0.0
 11
41.79169320719559
 21
23.06321373831236
 31
0.0
 11
41.79005278399372
 21
23.04651983773005
 31
0.0
 11
41.78368164734554
 21
22.99860820608376
 31
0.0
 11
41.77460239286041
 21
22.95404641229624
 31
0.0
 11
41.76307320304694
 21
22.91303537804714
 31
0.0
  0
SPLINE
  5
179
330
2
100
AcDbEntity
  8
GAIKEI
  6
Continuous
 62
     1
100
AcDbSpline
210
0.0
220
0.0
230
1.0
 70
     8
 71
     3
 72
    23
 73
    19
 74
    17
 42
0.0000000001
 43
0.0000000001
 44
0.000001
 12
0.1037512493360999
 22
-0.9946032768200588
 32
0.0
 13
-0.9066396789115103
 23
-0.4219057864301387
 33
0.0
 40
0.0
 40
0.0
 40
0.0
 40
0.0
 40
0.06070261108013
 40
0.1185986751946615
 40
0.1736064872697767
 40
0.2256490779791635
 40
0.2746574152566538
 40
0.3205734925395049
 40
0.3633544662868895
 40
0.4029783719658714
 40
0.4389238356324548
 40
0.4721139622826226
 40
0.5025974616640955
 40
0.530477008002233
 40
0.5559339520155964
 40
0.5792613998136744
 40
0.6009024388063772
 40
0.6214788907307425
 40
0.6214788907307425
 40
0.6214788907307425
 40
0.6214788907307425
 10
42.1726267683298
 20
24.32065340159323
 30
0.0
 10
42.1747260922423
 20
24.30052839629593
 30
0.0
 10
42.17833409270127
 20
24.26115598277102
 30
0.0
 10
42.18227620314386
 20
24.20341618422094
 30
0.0
 10
42.18458753214846
 20
24.14847572362174
 30
0.0
 10
42.1853017906068
 20
24.0964534087135
 30
0.0
 10
42.18442876049047
 20
24.04746308437234
 30
0.0
 10
42.18197771227191
 20
24.00161570722702
 30
0.0
 10
42.17795061817938
 20
23.95901838009621
 30
0.0
 10
42.17237153095005
 20
23.91994680305379
 30
0.0
 10
42.16523555601813
 20
23.88438082620905
 30
0.0
 10
42.15660330089997
 20
23.85228813670778
 30
0.0
 10
42.14643577561264
 20
23.82347622149359
 30
0.0
 10
42.13473854013395
 20
23.79805148502009
 30
0.0
 10
42.12150648924446
 20
23.77611183387478
 30
0.0
 10
42.10669363000952
 20
23.75779314140243
 30
0.0
 10
42.09029581984959
 20
23.74316586597883
 30
0.0
 10
42.07801601112135
 20
23.73607990605217
 30
0.0
 10
42.07179753519939
 20
23.73318613134182
 30
0.0
 11
42.1726267683298
 21
24.32065340159323
 31
0.0
 11
42.17817915611478
 21
24.26020609825429
 31
0.0
 11
42.18208305075406
 21
24.20244181366201
 31
0.0
 11
42.18436178017784
 21
24.14748123010321
 31
0.0
 11
42.18503321013669
 21
24.09544298090373
 31
0.0
 11
42.18410976859435
 21
24.04644335582424
 31
0.0
 11
42.18159848480844
 21
24.00059601794499
 31
0.0
 11
42.17750104268772
 21
23.95801173261395
 31
0.0
 11
42.17181384798512
 21
23.9187981089853
 31
0.0
 11
42.1646610798946
 21
23.88357151731577
 31
0.0
 11
42.1559461372732
 21
23.8515460180821
 31
0.0
 11
42.14569248869124
 21
23.82283879757517
 31
0.0
 11
42.13391853460423
 21
23.79756745242861
 31
0.0
 11
42.12063737461064
 21
23.77584962232152
 31
0.0
 11
42.10585658434054
 21
23.75780260744045
 31
0.0
 11
42.08957800332298
 21
23.74354297151507
 31
0.0
 11
42.07179753519939
 21
23.73318613134182
 31
0.0
  0
SPLINE
  5
17A
330
2
100
AcDbEntity
  8
GAIKEI
  6
Continuous
 62
     1
100
AcDbSpline
210
0.0
220
0.0
230
1.0
 70
     8
 71
     3
 72
    15
 73
    11
 74
     9
 42
0.0000000001
 43
0.0000000001
 44
0.000001
 12
0.1151974769613444
 22
0.9933426102316062
 32
0.0
 13
-0.8415501913672635
 23
0.5401789290686208
 33
0.0
 40
0.0
 40
0.0
 40
0.0
 40
0.0
 40
0.0394084963478751
 40
0.0771399072617673
 40
0.1117967484186496
 40
0.142088040774679
 40
0.1668916500996751
 40
0.1853241616436896
 40
0.1968791077613793
 40
0.2022733320264821
 40
0.2022733320264821
 40
0.2022733320264821
 40
0.2022733320264821
 10
38.06136619319854
 20
30.28416591160868
 30
0.0
 10
38.06287944631524
 20
30.29721462448453
 30
0.0
 10
38.06549070056029
 20
30.3228013178985
 30
0.0
 10
38.06824356883465
 20
30.35995973106208
 30
0.0
 10
38.06995356880921
 20
30.39417663276618
 30
0.0
 10
38.07045508674445
 20
30.42400952972838
 30
0.0
 10
38.07035970763539
 20
30.44875184139647
 30
0.0
 10
38.06824887037296
 20
30.4664339800234
 30
0.0
 10
38.06744390675731
 20
30.47911327803166
 30
0.0
 10
38.06287936335268
 20
30.48292053646406
 30
0.0
 10
38.06136619319848
 20
30.48389181855964
 30
0.0
 11
38.06136619319854
 21
30.28416591160868
 31
0.0
 11
38.06536086183316
 21
30.32337080369939
 31
0.0
 11
38.06816168687847
 21
30.36099811196482
 31
0.0
 11
38.06982079222361
 21
30.39561520853908
 31
0.0
 11
38.07037026073887
 21
30.42590150235151
 31
0.0
 11
38.0698209075418
 21
30.45069900146541
 31
0.0
 11
38.06816186785456
 21
30.4690566425636
 31
0.0
 11
38.06536101511382
 21
30.48026669097283
 31
0.0
 11
38.06136619319848
 21
30.48389181855964
 31
0.0
  0
SPLINE
  5
17B
330
2
100
AcDbEntity
  8
GAIKEI
  6
Continuous
 62
     1
100
AcDbSpline
210
0.0
220
0.0
230
1.0
 70
     8
 71
     3
 72
    11
 73
     7
 74
     5
 42
0.0000000001
 43
0.0000000001
 44
0.000001
 12
-0.9272724310398604
 22
-0.3743872842838379
 32
0.0
 13
-0.8850743362206914
 23
-0.465449695846396
 33
0.0
 40
0.0
 40
0.0
 40
0.0
 40
0.0
 40
0.0143995265551039
 40
0.0364303848129811
 40
0.0543525889738872
 40
0.0655662738736514
 40
0.0655662738736514
 40
0.0655662738736514
 40
0.0655662738736514
 10
38.06136619319854
 20
30.28416591160868
 30
0.0
 10
38.05691543186701
 20
30.28236891172805
 30
0.0
 10
38.04577769556056
 20
30.27750458842604
 30
0.0
 10
38.02983391140235
 20
30.26885318086807
 30
0.0
 10
38.01527778341558
 20
30.25996021094602
 30
0.0
 10
38.00671628341243
 20
30.2553679924929
 30
0.0
 10
38.00340796850601
 20
30.2536281904176
 30
0.0
 11
38.06136619319854
 21
30.28416591160868
 31
0.0
 11
38.04818073899516
 21
30.27837840493476
 31
0.0
 11
38.02873566539667
 21
30.26802225179182
 31
0.0
 11
38.0132663728083
 21
30.25897176884496
 31
0.0
 11
38.00340796850601
 21
30.2536281904176
 31
0.0
  0
SPLINE
  5
17C
330
2
100
AcDbEntity
  8
GAIKEI
  6
Continuous
 62
     1
100
AcDbSpline
210
0.0
220
0.0
230
1.0
 70
     8
 71
     3
 72
    19
 73
    15
 74
    13
 42
0.0000000001
 43
0.0000000001
 44
0.000001
 12
-0.4537847692220346
 22
-0.891111319208832
 32
0.0
 13
0.0558661521317871
 23
-0.9984382670180405
 33
0.0
 40
0.0
 40
0.0
 40
0.0
 40
0.0
 40
0.0058433329848471
 40
0.011543101162307
 40
0.0191493870676838
 40
0.0323458963040342
 40
0.049168139360193
 40
0.0697806678864603
 40
0.0924149932145795
 40
0.1149878612986462
 40
0.1372182372399797
 40
0.1535179712648204
 40
0.1694067174933814
 40
0.1997454480061184
 40
0.1997454480061184
 40
0.1997454480061184
 40
0.1997454480061184
 10
38.00340796850601
 20
30.45136726155357
 30
0.0
 10
38.00252409666934
 20
30.44963157483199
 30
0.0
 10
38.00093090474863
 20
30.44611823479113
 30
0.0
 10
37.99898463177911
 20
30.44003200843747
 30
0.0
 10
37.99669198208047
 20
30.43149807011537
 30
0.0
 10
37.99431855414238
 20
30.41916764597914
 30
0.0
 10
37.99238536110508
 20
30.40238630192056
 30
0.0
 10
37.99166133252112
 20
30.38235381829469
 30
0.0
 10
37.99253270920164
 20
30.36041531807252
 30
0.0
 10
37.99457647131888
 20
30.33802416978768
 30
0.0
 10
37.99698784899959
 20
30.31779900640328
 30
0.0
 10
37.99921336188948
 20
30.2997966745782
 30
0.0
 10
38.00165635151254
 20
30.27909708532792
 30
0.0
 10
38.00284299912791
 20
30.26372530692311
 30
0.0
 10
38.00340796850601
 20
30.25362819041755
 30
0.0
 11
38.00340796850601
 21
30.45136726155357
 31
0.0
 11
38.001019502619
 21
30.44603410088689
 31
0.0
 11
37.99921617333963
 21
30.44062720304192
 31
0.0
 11
37.99724155488942
 21
30.43328169701607
 31
0.0
 11
37.99469253520432
 21
30.42033368857091
 31
0.0
 11
37.9927283958453
 21
30.40362647253881
 31
0.0
 11
37.9919349557165
 21
30.38302919019651
 31
0.0
 11
37.9927276991951
 21
30.36040873883974
 31
0.0
 11
37.99469176837501
 21
30.33792148244464
 31
0.0
 11
37.99724104194043
 21
30.31583777731658
 31
0.0
 11
37.99921591263468
 21
30.29965815537435
 31
0.0
 11
38.00101945274271
 21
30.28387217224207
 31
0.0
 11
38.00340796850601
 21
30.25362819041755
 31
0.0
  0
DIMENSION
  5
17D
330
2
100
AcDbEntity
  8
SUNPO
100
AcDbDimension
  2
*D5
 10
25.15028326476699
 20
-8.550844806201164
 30
0.0
 11
23.40028326476699
 21
11.01411638662924
 31
0.0
 70
    32
  1
783
 71
     5
 42
39.1299223856608
  3
STANDARD
100
AcDbAlignedDimension
 13
18.15028326476698
 23
30.57907757945964
 33
0.0
 14
-5.165253001357484
 24
-8.550844806201155
 34
0.0
 50
90.0
100
AcDbRotatedDimension
1001
ACAD
1000
DSTYLE
1002
{
1070
    40
1040
1.0
1070
   140
1040
2.5
1070
   147
1040
0.5
1070
   172
1070
     1
1070
   279
1070
     0
1070
   288
1070
     0
1002
}
  0
LINE
  5
18A
330
2
100
AcDbEntity
  8
GAIKEI
  6
Continuous
 62
     1
100
AcDbLine
 10
-8.436168037643952
 20
-8.550844806201212
 30
0.0
 11
-5.436168037643952
 21
-8.550844806201212
 31
0.0
  0
LINE
  5
18B
330
2
100
AcDbEntity
  8
GAIKEI
  6
Continuous
 62
     1
100
AcDbLine
 10
-5.436168037643952
 20
-8.550844806201212
 30
0.0
 11
-5.436168037643952
 21
-8.415849356201249
 31
0.0
  0
LINE
  5
18C
330
2
100
AcDbEntity
  8
GAIKEI
  6
Continuous
 62
     1
100
AcDbLine
 10
-8.436168037643952
 20
-8.550844806201212
 30
0.0
 11
-8.436168037643952
 21
-8.46584935620126
 31
0.0
  0
LINE
  5
18D
330
2
100
AcDbEntity
  8
GAIKEI
  6
Continuous
 62
     1
100
AcDbLine
 10
-14.41003803764398
 20
-8.550844806201212
 30
0.0
 11
-14.41003803764398
 21
-8.46584935620126
 31
0.0
  0
LINE
  5
18E
330
2
100
AcDbEntity
  8
GAIKEI
  6
Continuous
 62
     1
100
AcDbLine
 10
-33.88390803764397
 20
-8.550844806201212
 30
0.0
 11
-30.88390803764396
 21
-8.550844806201212
 31
0.0
  0
LINE
  5
18F
330
2
100
AcDbEntity
  8
GAIKEI
  6
Continuous
 62
     1
100
AcDbLine
 10
-30.88390803764396
 20
-8.550844806201212
 30
0.0
 11
-30.88390803764396
 21
-8.46584935620126
 31
0.0
  0
LINE
  5
190
330
2
100
AcDbEntity
  8
GAIKEI
  6
Continuous
 62
     1
100
AcDbLine
 10
-33.88390803764397
 20
-8.550844806201212
 30
0.0
 11
-33.88390803764397
 21
-8.415849356201249
 31
0.0
  0
LINE
  5
191
330
2
100
AcDbEntity
  8
GAIKEI
  6
Continuous
 62
     1
100
AcDbLine
 10
-24.91003803764399
 20
-8.550844806201212
 30
0.0
 11
-24.91003803764399
 21
-8.46584935620126
 31
0.0
  0
LINE
  5
192
330
2
100
AcDbEntity
  8
GAIKEI
  6
Continuous
 62
     1
100
AcDbLine
 10
-24.91003803764399
 20
-8.550844806201212
 30
0.0
 11
-14.41003803764398
 21
-8.550844806201212
 31
0.0
  0
LINE
  5
193
330
2
100
AcDbEntity
  8
GAIKEI
  6
Continuous
 62
     1
100
AcDbLine
 10
-19.65999308764397
 20
-8.000977156201201
 30
0.0
 11
-19.65999828764394
 21
-8.069131806201198
 31
0.0
  0
LINE
  5
194
330
2
100
AcDbEntity
  8
GAIKEI
  6
Continuous
 62
     1
100
AcDbLine
 10
-19.66003433764395
 20
-7.515849356201215
 30
0.0
 11
-19.66003433764395
 21
-8.000977106201276
 31
0.0
  0
LINE
  5
195
330
2
100
AcDbEntity
  8
GAIKEI
  6
Continuous
 62
     1
100
AcDbLine
 10
-30.55385578764397
 20
-7.13443085620122
 30
0.0
 11
-30.554885237644
 21
-7.134596006201263
 31
0.0
  0
LINE
  5
196
330
2
100
AcDbEntity
  8
GAIKEI
  6
Continuous
 62
     1
100
AcDbLine
 10
-14.03865958764398
 20
-8.46584935620126
 30
0.0
 11
-25.28141098764395
 21
-8.46584935620126
 31
0.0
  0
LINE
  5
197
330
2
100
AcDbEntity
  8
GAIKEI
  6
Continuous
 62
     7
100
AcDbLine
 10
-34.11003773764397
 20
-8.415849356201192
 30
0.0
 11
-5.210032837643964
 21
-8.415849356201249
 31
0.0
  0
LINE
  5
198
330
2
100
AcDbEntity
  8
GAIKEI
  6
Continuous
 62
     1
100
AcDbLine
 10
-25.28141098764395
 20
-8.46584935620126
 30
0.0
 11
-33.88669713764393
 21
-8.46584935620126
 31
0.0
  0
LINE
  5
199
330
2
100
AcDbEntity
  8
GAIKEI
  6
Continuous
 62
     1
100
AcDbLine
 10
-5.433373487643919
 20
-8.46584935620126
 30
0.0
 11
-14.03865958764398
 21
-8.46584935620126
 31
0.0
  0
LINE
  5
19A
330
2
100
AcDbEntity
  8
GAIKEI
  6
Continuous
 62
     1
100
AcDbLine
 10
-19.66008638764397
 20
-7.423713956201254
 30
0.0
 11
-19.66009188764395
 21
-7.420492106201209
 31
0.0
  0
LINE
  5
19B
330
2
100
AcDbEntity
  8
GAIKEI
  6
Continuous
 62
     1
100
AcDbLine
 10
-27.08330618764394
 20
-7.24772365620123
 30
0.0
 11
-27.08344918764398
 21
-7.253521956201211
 31
0.0
  0
LINE
  5
19C
330
2
100
AcDbEntity
  8
GAIKEI
  6
Continuous
 62
     1
100
AcDbLine
 10
-19.66003433764395
 20
-5.790849356201249
 30
0.0
 11
-19.66003433764395
 21
-6.169915006201222
 31
0.0
  0
LINE
  5
19D
330
2
100
AcDbEntity
  8
GAIKEI
  6
Continuous
 62
     1
100
AcDbLine
 10
-19.66003528764396
 20
-5.790849356201249
 30
0.0
 11
-27.07878958794566
 21
-5.790849356201306
 31
0.0
  0
LINE
  5
19E
330
2
100
AcDbEntity
  8
GAIKEI
  6
Continuous
 62
     1
100
AcDbLine
 10
-12.24128098734229
 20
-5.790849356201249
 30
0.0
 11
-19.66003528764396
 21
-5.790849356201249
 31
0.0
  0
LINE
  5
19F
330
2
100
AcDbEntity
  8
GAIKEI
  6
Continuous
 62
     1
100
AcDbLine
 10
-19.66003528764396
 20
-5.613232706201245
 30
0.0
 11
-19.66003528764396
 21
-5.790849356201249
 31
0.0
  0
LINE
  5
1A0
330
2
100
AcDbEntity
  8
GAIKEI
  6
Continuous
 62
     7
100
AcDbLine
 10
-5.210032837643964
 20
-8.415849356201249
 30
0.0
 11
-5.228327287643949
 21
-8.066771156201241
 31
0.0
  0
LINE
  5
1A1
330
2
100
AcDbEntity
  8
GAIKEI
  6
Continuous
 62
     7
100
AcDbLine
 10
-34.09174348764397
 20
-8.066774456201244
 30
0.0
 11
-34.11003773764397
 21
-8.415849356201192
 31
0.0
  0
LINE
  5
1A2
330
2
100
AcDbEntity
  8
GAIKEI
  6
Continuous
 62
     7
100
AcDbLine
 10
-5.279528937644002
 20
-7.999520506201236
 30
0.0
 11
-5.279520637643955
 21
-7.999523556201211
 31
0.0
  0
LINE
  5
1A3
330
2
100
AcDbEntity
  8
GAIKEI
  6
Continuous
 62
     1
100
AcDbLine
 10
-5.258285237643988
 20
-8.46584935620126
 30
0.0
 11
-5.433373487643919
 21
-8.46584935620126
 31
0.0
  0
LINE
  5
1A4
330
2
100
AcDbEntity
  8
GAIKEI
  6
Continuous
 62
     1
100
AcDbLine
 10
-5.258285237643988
 20
-8.46584935620126
 30
0.0
 11
-5.257412437643964
 21
-8.415849356201249
 31
0.0
  0
LINE
  5
1A5
330
2
100
AcDbEntity
  8
GAIKEI
  6
Continuous
 62
     1
100
AcDbLine
 10
-34.06265813764397
 20
-8.415849356201249
 30
0.0
 11
-34.06178538764398
 21
-8.46584935620126
 31
0.0
  0
LINE
  5
1A6
330
2
100
AcDbEntity
  8
GAIKEI
  6
Continuous
 62
     1
100
AcDbLine
 10
-33.88669713764393
 20
-8.46584935620126
 30
0.0
 11
-34.06178538764398
 21
-8.46584935620126
 31
0.0
  0
LINE
  5
1A7
330
2
100
AcDbEntity
  8
GAIKEI
  6
Continuous
 62
     7
100
AcDbLine
 10
-27.06948108764398
 20
-5.613232556201239
 30
0.0
 11
-27.14685018764398
 21
-7.089523206201249
 31
0.0
  0
ARC
  5
1A8
330
2
100
AcDbEntity
  8
GAIKEI
  6
Continuous
 62
     1
100
AcDbCircle
 10
-18.96294103764394
 20
13125.00883919379
 30
0.0
 40
13133.0779895
100
AcDbArc
 50
269.9723600000023
 51
269.9969590000104
  0
ARC
  5
1A9
330
2
100
AcDbEntity
  8
GAIKEI
  6
Continuous
 62
     1
100
AcDbCircle
 10
-20.35719778764395
 20
13125.2637579938
 30
0.0
 40
13133.3329083
100
AcDbArc
 50
270.0030409999896
 51
270.0276390000027
  0
ARC
  5
1AA
330
2
100
AcDbEntity
  8
GAIKEI
  6
Continuous
 62
     1
100
AcDbCircle
 10
-18.84396148764399
 20
21760.5672291938
 30
0.0
 40
21768.5682216
100
AcDbArc
 50
269.9830900000068
 51
269.9978520000073
  0
ARC
  5
1AB
330
2
100
AcDbEntity
  8
GAIKEI
  6
Continuous
 62
     1
100
AcDbCircle
 10
-20.47610923764394
 20
21760.5679306438
 30
0.0
 40
21768.56892305
100
AcDbArc
 50
270.0021479999926
 51
270.0169099999932
  0
ARC
  5
1AC
330
2
100
AcDbEntity
  8
GAIKEI
  6
Continuous
 62
     1
100
AcDbCircle
 10
-32.89945900609217
 20
73268.19571847319
 30
0.0
 40
73276.19818682939
100
AcDbArc
 50
270.0147378338578
 51
270.0215911794426
  0
ARC
  5
1AD
330
2
100
AcDbEntity
  8
GAIKEI
  6
Continuous
 62
     7
100
AcDbCircle
 10
-19.3268301640913
 20
-1130.49475112014
 30
0.0
 40
1123.428004065934
100
AcDbArc
 50
89.49062581369165
 51
89.63518976520346
  0
ARC
  5
1AE
330
2
100
AcDbEntity
  8
GAIKEI
  6
Continuous
 62
     7
100
AcDbCircle
 10
-19.99324041117195
 20
-1130.494750870135
 30
0.0
 40
1123.428003815928
100
AcDbArc
 50
90.36481023479794
 51
90.50937418630981
  0
ARC
  5
1AF
330
2
100
AcDbEntity
  8
GAIKEI
  6
Continuous
 62
     1
100
AcDbCircle
 10
-6.388740232272937
 20
73516.22513820022
 30
0.0
 40
73524.22760655644
100
AcDbArc
 50
269.978456806296
 51
269.9852870463845
  0
ARC
  5
1B0
330
2
100
AcDbEntity
  8
GAIKEI
  6
Continuous
 62
     1
100
AcDbCircle
 10
-33.30696376283147
 20
38141.92434558943
 30
0.0
 40
38149.99684224563
100
AcDbArc
 50
270.0289635932444
 51
270.0421694731375
  0
ARC
  5
1B1
330
2
100
AcDbEntity
  8
GAIKEI
  6
Continuous
 62
     1
100
AcDbCircle
 10
-6.013376915532788
 20
38141.48727676015
 30
0.0
 40
38149.55977336634
100
AcDbArc
 50
269.9578304492856
 51
269.9710364065244
  0
ARC
  5
1B2
330
2
100
AcDbEntity
  8
GAIKEI
  6
Continuous
 62
     1
100
AcDbCircle
 10
-20.50882058764394
 20
-2.741708806201245
 30
0.0
 40
7.9704473
100
AcDbArc
 50
214.1955579999892
 51
215.3130209492366
  0
ARC
  5
1B3
330
2
100
AcDbEntity
  8
GAIKEI
  6
Continuous
 62
     7
100
AcDbCircle
 10
-5.303309587643937
 20
-8.070740706201263
 30
0.0
 40
0.07508555
100
AcDbArc
 50
3.016737999993725
 51
71.5360960000049
  0
ARC
  5
1B4
330
2
100
AcDbEntity
  8
GAIKEI
  6
Continuous
 62
     7
100
AcDbCircle
 10
-34.01676248764393
 20
-8.07073955620126
 30
0.0
 40
0.075084
100
AcDbArc
 50
108.4630779999906
 51
176.9840879999947
  0
SPLINE
  5
1B5
330
2
100
AcDbEntity
  8
GAIKEI
  6
Continuous
 62
     1
100
AcDbSpline
210
0.0
220
0.0
230
1.0
 70
     8
 71
     3
 72
    14
 73
    10
 74
     8
 42
0.0000000001
 43
0.0000000001
 44
0.000001
 12
0.987420814030629
 22
-0.1581143131379631
 32
0.0
 13
-0.8667181469768204
 23
-0.4987982094004213
 33
0.0
 40
0.0
 40
0.0
 40
0.0
 40
0.0
 40
0.0025529197616756
 40
0.0117257667036393
 40
0.0188820345696876
 40
0.0237710887792997
 40
0.0265723452764174
 40
0.0284023321299426
 40
0.0295824606948589
 40
0.0295824606948589
 40
0.0295824606948589
 40
0.0295824606948589
 10
-8.766279185481224
 20
-7.134420529389331
 30
0.0
 10
-8.765438916778144
 20
-7.134555080440861
 30
0.0
 10
-8.761580259384182
 20
-7.135197768465957
 30
0.0
 10
-8.755434296019487
 20
-7.13635183885168
 30
0.0
 10
-8.748428796487573
 20
-7.138062278948382
 30
0.0
 10
-8.74405015833296
 20
-7.139747217277488
 30
0.0
 10
-8.740818695042911
 20
-7.14153169978033
 30
0.0
 10
-8.741234235604132
 20
-7.143793558017193
 30
0.0
 10
-8.742022774661158
 20
-7.144459558869925
 30
0.0
 10
-8.742363720942151
 20
-7.144655774208274
 30
0.0
 11
-8.766279185481224
 21
-7.134420529389331
 31
0.0
 11
-8.763761695238329
 21
-7.134838309979045
 31
0.0
 11
-8.754754819147322
 21
-7.136575338782336
 31
0.0
 11
-8.747831019900061
 21
-7.138384527599555
 31
0.0
 11
-8.743296936528864
 21
-7.140213478782072
 31
0.0
 11
-8.741185698368283
 21
-7.142054718347537
 31
0.0
 11
-8.741492621097123
 21
-7.143858632324224
 31
0.0
 11
-8.742363720942151
 21
-7.144655774208274
 31
0.0
  0
SPLINE
  5
1B6
330
2
100
AcDbEntity
  8
GAIKEI
  6
Continuous
 62
     7
100
AcDbSpline
210
0.0
220
0.0
230
1.0
 70
     8
 71
     3
 72
    70
 73
    66
 74
    64
 42
0.0000000001
 43
0.0000000001
 44
0.000001
 12
-0.9482877715048783
 22
0.3174118813376585
 32
0.0
 13
-0.9873735858455495
 23
0.158408970625093
 33
0.0
 40
0.0
 40
0.0
 40
0.0
 40
0.0
 40
0.0991638175971129
 40
0.2240129106214327
 40
0.3456529951460175
 40
0.464098212711919
 40
0.5793621098099618
 40
0.6914576095339516
 40
0.8003970284220162
 40
0.9061920979599186
 40
1.013664670565526
 40
1.117710761659094
 40
1.218341954516031
 40
1.315569237548491
 40
1.409403031798958
 40
1.499853218008407
 40
1.586929163200089
 40
1.67063974672283
 40
1.750993385701353
 40
1.827998059842985
 40
1.90166133555247
 40
1.971990389307405
 40
2.035252889994717
 40
2.095562816513323
 40
2.152925336835534
 40
2.207345376400355
 40
2.2592251388624
 40
2.331869048518874
 40
2.401828213076315
 40
2.469112383512065
 40
2.533731031388124
 40
2.595693371314887
 40
2.634829250275087
 40
2.672832657311909
 40
2.710808628855599
 40
2.751903680517779
 40
2.796310918573771
 40
2.844029715733719
 40
2.892668256025727
 40
2.944323518849146
 40
2.998995473216293
 40
3.056684296490707
 40
3.093135027482142
 40
3.127195926570196
 40
3.15883523968506
 40
3.188053637034516
 40
3.214851698142908
 40
3.242366756873225
 40
3.266757623632836
 40
3.288024783157329
 40
3.306503634705174
 40
3.32291358033441
 40
3.327622379661239
 40
3.332809495397207
 40
3.339969162295164
 40
3.349155037518258
 40
3.364554854787312
 40
3.383557114543303
 40
3.406162067597918
 40
3.432370038478442
 40
3.462181438194185
 40
3.495596779054114
 40
3.532616691455914
 40
3.573241607181744
 40
3.595548285152357
 40
3.595548285152357
 40
3.595548285152357
 40
3.595548285152357
 10
-5.280201975371724
 20
-7.999293847043873
 30
0.0
 10
-5.311547253906084
 20
-7.988801922409152
 30
0.0
 10
-5.382406565464776
 20
-7.965248839994046
 30
0.0
 10
-5.491912383412724
 20
-7.929419948580289
 30
0.0
 10
-5.607722478649137
 20
-7.892196162985555
 30
0.0
 10
-5.720674470626796
 20
-7.856526758810275
 30
0.0
 10
-5.830764913725218
 20
-7.822365934215667
 30
0.0
 10
-5.937990436341841
 20
-7.789668733834218
 30
0.0
 10
-6.042347789111715
 20
-7.758391255250046
 30
0.0
 10
-6.145372018068243
 20
-7.728037423240493
 30
0.0
 10
-6.246970028008291
 20
-7.698618311445102
 30
0.0
 10
-6.347048178670206
 20
-7.670143197772745
 30
0.0
 10
-6.443965172133076
 20
-7.64304084135955
 30
0.0
 10
-6.537717965966251
 20
-7.61726696435403
 30
0.0
 10
-6.628303675554676
 20
-7.592778600486724
 30
0.0
 10
-6.715719575975377
 20
-7.5695341086344
 30
0.0
 10
-6.799963106185259
 20
-7.547493185201233
 30
0.0
 10
-6.881031872320434
 20
-7.526616876230491
 30
0.0
 10
-6.958923650812678
 20
-7.506867589052035
 30
0.0
 10
-7.033636391548867
 20
-7.488209103365193
 30
0.0
 10
-7.105168219622107
 20
-7.470606582319192
 30
0.0
 10
-7.172306186768388
 20
-7.454320404858208
 30
0.0
 10
-7.235165043517383
 20
-7.439276886503989
 30
0.0
 10
-7.293860260056014
 20
-7.42540691610651
 30
0.0
 10
-7.349722767626005
 20
-7.412367165770376
 30
0.0
 10
-7.402880842351869
 20
-7.400104366911762
 30
0.0
 10
-7.461035469165054
 20
-7.386840948184044
 30
0.0
 10
-7.524282222064734
 20
-7.372611227056722
 30
0.0
 10
-7.592589773105927
 20
-7.357483919921776
 30
0.0
 10
-7.658332312048777
 20
-7.34314800605756
 30
0.0
 10
-7.721513061071703
 20
-7.329576993876287
 30
0.0
 10
-7.775554790680367
 20
-7.318138332527382
 30
0.0
 10
-7.820939891111876
 20
-7.30864555000312
 30
0.0
 10
-7.85851320485041
 20
-7.300858437182455
 30
0.0
 10
-7.896740214492368
 20
-7.293007758316434
 30
0.0
 10
-7.937073690817307
 20
-7.284803445784632
 30
0.0
 10
-7.980607532606022
 20
-7.276040354445854
 30
0.0
 10
-8.026626651742546
 20
-7.266882077470484
 30
0.0
 10
-8.075037333735053
 20
-7.257363547645127
 30
0.0
 10
-8.12574594662859
 20
-7.24751940390081
 30
0.0
 10
-8.179442387379921
 20
-7.237236992024691
 30
0.0
 10
-8.228186057713514
 20
-7.228039061303149
 30
0.0
 10
-8.270196281925471
 20
-7.220210049158879
 30
0.0
 10
-8.303680823674852
 20
-7.214028589481813
 30
0.0
 10
-8.334803682890225
 20
-7.208333971719355
 30
0.0
 10
-8.36355280484642
 20
-7.203117211476524
 30
0.0
 10
-8.390955948110743
 20
-7.198182889400015
 30
0.0
 10
-8.416781451121288
 20
-7.193567555234722
 30
0.0
 10
-8.440797427434063
 20
-7.189306637776724
 30
0.0
 10
-8.461851752971369
 20
-7.185595110090616
 30
0.0
 10
-8.480289277686381
 20
-7.182363127082112
 30
0.0
 10
-8.493292159638663
 20
-7.180095099011111
 30
0.0
 10
-8.501931127706072
 20
-7.178592790038294
 30
0.0
 10
-8.507532493701489
 20
-7.177620097711439
 30
0.0
 10
-8.514604579833225
 20
-7.176394185217986
 30
0.0
 10
-8.525031591761575
 20
-7.174590956498661
 30
0.0
 10
-8.539349866470921
 20
-7.172123546065449
 30
0.0
 10
-8.558078874761996
 20
-7.168912097366387
 30
0.0
 10
-8.58036261486032
 20
-7.165114213170113
 30
0.0
 10
-8.606203372074837
 20
-7.160741507436455
 30
0.0
 10
-8.635603809879903
 20
-7.155807482298826
 30
0.0
 10
-8.668566950771733
 20
-7.150327392047415
 30
0.0
 10
-8.705096170110792
 20
-7.144318889042324
 30
0.0
 10
-8.737981536026531
 20
-7.138972116348782
 30
0.0
 10
-8.758692042878777
 20
-7.135637762677106
 30
0.0
 10
-8.766033717750829
 20
-7.134459903378626
 30
0.0
 11
-5.280201975371724
 21
-7.999293847043873
 31
0.0
 11
-5.37430239028454
 21
-7.968014554898388
 31
0.0
 11
-5.492962010026147
 21
-7.929191586054571
 31
0.0
 11
-5.608767301745572
 21
-7.891969890604684
 31
0.0
 11
-5.721714704910269
 21
-7.856302547080758
 31
0.0
 11
-5.831800754835697
 21
-7.822143627085438
 31
0.0
 11
-5.939022087663559
 21
-7.789448208224371
 31
0.0
 11
-6.043375445095492
 21
-7.758172386722264
 31
0.0
 11
-6.144857678888584
 21
-7.728273289718174
 31
0.0
 11
-6.248089636664829
 21
-7.698381485313916
 31
0.0
 11
-6.348163842397596
 21
-7.669907891526577
 31
0.0
 11
-6.44507709457163
 21
-7.642806939742683
 31
0.0
 11
-6.538826343558596
 21
-7.617034359676154
 31
0.0
 11
-6.629408695861584
 21
-7.592547192776009
 31
0.0
 11
-6.716821418086524
 21
-7.569303805194692
 31
0.0
 11
-6.801061940647585
 21
-7.547263900314419
 31
0.0
 11
-6.882127861211372
 21
-7.526388530829592
 31
0.0
 11
-6.960016947885165
 21
-7.506640110382477
 31
0.0
 11
-7.034727142154295
 21
-7.487982424751294
 31
0.0
 11
-7.106256561572379
 21
-7.470380642586746
 31
0.0
 11
-7.174603502208199
 21
-7.453801325698123
 31
0.0
 11
-7.236128641708504
 21
-7.439077092227421
 31
0.0
 11
-7.294822138906695
 21
-7.425207617759213
 31
0.0
 11
-7.350683011476533
 21
-7.412168323622495
 31
0.0
 11
-7.403710423911448
 21
-7.399935760314065
 31
0.0
 11
-7.454291386964499
 21
-7.388399855231227
 31
0.0
 11
-7.525163701048043
 21
-7.372454490917448
 31
0.0
 11
-7.593467981364099
 21
-7.357327975981547
 31
0.0
 11
-7.659207340868491
 21
-7.342992798410818
 31
0.0
 11
-7.722385005054221
 21
-7.329422490110118
 31
0.0
 11
-7.783004319747377
 21
-7.316591630881816
 31
0.0
 11
-7.82131124316352
 21
-7.308579334632383
 31
0.0
 11
-7.858523859971185
 21
-7.300866985957782
 31
0.0
 11
-7.895723457600482
 21
-7.293227315211424
 31
0.0
 11
-7.935993837197841
 21
-7.285035853134104
 31
0.0
 11
-7.97952785882974
 21
-7.27627274599672
 31
0.0
 11
-8.026328884260877
 21
-7.26695888741915
 31
0.0
 11
-8.07405367049553
 21
-7.257575245511247
 31
0.0
 11
-8.124762251179632
 21
-7.247731139392726
 31
0.0
 11
-8.17845858460636
 21
-7.237448784283287
 31
0.0
 11
-8.235146976491208
 21
-7.226751725289034
 31
0.0
 11
-8.270980770172812
 21
-7.22007375986368
 31
0.0
 11
-8.304475709167107
 21
-7.213890388175514
 31
0.0
 11
-8.335598340069353
 21
-7.208195817706609
 31
0.0
 11
-8.364347265281324
 21
-7.202979097229103
 31
0.0
 11
-8.390721177863454
 21
-7.198230105503057
 31
0.0
 11
-8.41780710255405
 21
-7.193389521507242
 31
0.0
 11
-8.441822916329627
 21
-7.189128634654196
 31
0.0
 11
-8.462767137700851
 21
-7.185436517405946
 31
0.0
 11
-8.48096846218614
 21
-7.182245939252425
 31
0.0
 11
-8.497134335486137
 21
-7.179426206536334
 31
0.0
 11
-8.501773511120418
 21
-7.17861945783386
 31
0.0
 11
-8.506884143268351
 21
-7.177731982628131
 31
0.0
 11
-8.513938606779632
 21
-7.176509124773588
 31
0.0
 11
-8.522990125050299
 21
-7.174943771309813
 31
0.0
 11
-8.538166254870944
 21
-7.17232853026087
 31
0.0
 11
-8.556895179411597
 21
-7.169117096583704
 31
0.0
 11
-8.579178809844464
 21
-7.16531923152786
 31
0.0
 11
-8.605019427377172
 21
-7.160946554666509
 31
0.0
 11
-8.634419686405138
 21
-7.156012548171133
 31
0.0
 11
-8.667382618143804
 21
-7.150532561774127
 31
0.0
 11
-8.703911634731142
 21
-7.144523818420452
 31
0.0
 11
-8.744010533787516
 21
-7.138005420613467
 31
0.0
 11
-8.766033717750829
 21
-7.134459903378626
 31
0.0
  0
SPLINE
  5
1B7
330
2
100
AcDbEntity
  8
GAIKEI
  6
Continuous
 62
     1
100
AcDbSpline
210
0.0
220
0.0
230
1.0
 70
     8
 71
     3
 72
    36
 73
    32
 74
    30
 42
0.0000000001
 43
0.0000000001
 44
0.000001
 12
-0.9995681457324756
 22
-0.0293857454719199
 32
0.0
 13
-0.9999999999992031
 23
-0.0000012623855154
 33
0.0
 40
0.0
 40
0.0
 40
0.0
 40
0.0
 40
0.1421210855843028
 40
0.2863919374776475
 40
0.432694547317883
 40
0.5812602507239446
 40
0.7318041708546241
 40
0.8842072002060856
 40
1.038350222033387
 40
1.194114111862239
 40
1.351379738854986
 40
1.472380838233128
 40
1.594239045658597
 40
1.716900041704884
 40
1.84030950563257
 40
1.965065630484741
 40
2.0905422470427
 40
2.216680258475725
 40
2.343420566307409
 40
2.496964514179028
 40
2.651351837498893
 40
2.806478499051072
 40
2.962240458901504
 40
3.118533674998105
 40
3.275254103751373
 40
3.434992143610541
 40
3.595172949905708
 40
3.755686048047016
 40
3.916420963140814
 40
4.077267220533191
 40
4.238114382626117
 40
4.238114382626117
 40
4.238114382626117
 40
4.238114382626117
 10
-15.42244091863684
 20
-7.4594845441311
 30
0.0
 10
-15.46979415529917
 20
-7.460876655480149
 30
0.0
 10
-15.56521880988688
 20
-7.463617763257502
 30
0.0
 10
-15.70939669793395
 20
-7.467552191450977
 30
0.0
 10
-15.85572721479448
 20
-7.471348948246372
 30
0.0
 10
-16.00415300950895
 20
-7.47500380039969
 30
0.0
 10
-16.15461628660625
 20
-7.478515756183014
 30
0.0
 10
-16.30694248521905
 20
-7.481880786709666
 30
0.0
 10
-16.4610122850859
 20
-7.485096311807239
 30
0.0
 10
-16.61670636540768
 20
-7.488159747559791
 30
0.0
 10
-16.76135851120513
 20
-7.490836282447162
 30
0.0
 10
-16.89471311410877
 20
-7.49316841865982
 30
0.0
 10
-17.01653640173865
 20
-7.495193391791076
 30
0.0
 10
-17.13916406558488
 20
-7.497126763493156
 30
0.0
 10
-17.26275918623673
 20
-7.498970791705744
 30
0.0
 10
-17.38729426326542
 20
-7.500723940599073
 30
0.0
 10
-17.51274019509783
 20
-7.502385252307419
 30
0.0
 10
-17.63884879551184
 20
-7.503951488197287
 30
0.0
 10
-17.77431377713817
 20
-7.505523568262503
 30
0.0
 10
-17.91919600998879
 20
-7.507075973104747
 30
0.0
 10
-18.07354133106123
 20
-7.508581887558875
 30
0.0
 10
-18.22862731664983
 20
-7.509948249348894
 30
0.0
 10
-18.38434979151868
 20
-7.511174349453767
 30
0.0
 10
-18.54060458091758
 20
-7.512259476519488
 30
0.0
 10
-18.69818564138113
 20
-7.513208329860731
 30
0.0
 10
-18.85706336134584
 20
-7.514017669528016
 30
0.0
 10
-19.0172059766783
 20
-7.514684658271733
 30
0.0
 10
-19.17768143053182
 20
-7.51520457643204
 30
0.0
 10
-19.3383791130846
 20
-7.515576543934059
 30
0.0
 10
-19.49918842374625
 20
-7.515800960519243
 30
0.0
 10
-19.60641957087038
 20
-7.51584929912741
 30
0.0
 10
-19.66003529156798
 20
-7.515849366811096
 30
0.0
 11
-15.42244091863684
 21
-7.4594845441311
 31
0.0
 11
-15.56450351834651
 21
-7.463562454467478
 31
0.0
 11
-15.70872060269876
 21
-7.467500703240148
 31
0.0
 11
-15.85497396403163
 21
-7.471296417549638
 31
0.0
 11
-16.00349461052862
 21
-7.474955034568324
 31
0.0
 11
-16.15399750965697
 21
-7.478469150203295
 31
0.0
 11
-16.30636334013941
 21
-7.481836177443994
 31
0.0
 11
-16.46047278069871
 21
-7.48505352927998
 31
0.0
 11
-16.61620651005764
 21
-7.488118618700809
 31
0.0
 11
-16.77344520693897
 21
-7.491028858695983
 31
0.0
 11
-16.89442779986355
 21
-7.49314502857976
 31
0.0
 11
-17.01626917048749
 21
-7.495170623843023
 31
0.0
 11
-17.13891491905549
 21
-7.497104589303262
 31
0.0
 11
-17.26231064581249
 21
-7.498945869777799
 31
0.0
 11
-17.38705440577532
 21
-7.500702268502436
 31
0.0
 11
-17.51252001581311
 21
-7.502364161585092
 31
0.0
 11
-17.63864829613295
 21
-7.503930913593308
 31
0.0
 11
-17.765380066942
 21
-7.505401889094457
 31
0.0
 11
-17.9189151953362
 21
-7.507047513186307
 31
0.0
 11
-18.07329516590489
 21
-7.508554192431745
 31
0.0
 11
-18.22841580333433
 21
-7.509921218083491
 31
0.0
 11
-18.38417293231073
 21
-7.511147881394435
 31
0.0
 11
-18.54046237752028
 21
-7.5122334736173
 31
0.0
 11
-18.69717996364927
 21
-7.513177286005031
 31
0.0
 11
-18.85691592913424
 21
-7.513991217128818
 31
0.0
 11
-19.01709534468115
 21
-7.51465852645407
 31
0.0
 11
-19.17760759949404
 21
-7.515178605032872
 31
0.0
 11
-19.33834208277683
 21
-7.515550843917253
 31
0.0
 11
-19.49918818373346
 21
-7.515774634159356
 31
0.0
 11
-19.66003529156798
 21
-7.515849366811096
 31
0.0
  0
SPLINE
  5
1B8
330
2
100
AcDbEntity
  8
GAIKEI
  6
Continuous
 62
     1
100
AcDbSpline
210
0.0
220
0.0
230
1.0
 70
     8
 71
     3
 72
    42
 73
    38
 74
    36
 42
0.0000000001
 43
0.0000000001
 44
0.000001
 12
-0.9974441891449011
 22
-0.0714499093146438
 32
0.0
 13
-0.999567622729952
 23
-0.0294035302301001
 33
0.0
 40
0.0
 40
0.0
 40
0.0
 40
0.0
 40
0.1331513903811676
 40
0.2687754437432299
 40
0.4068729868877482
 40
0.5474086076314224
 40
0.6903548097526294
 40
0.8356840733566507
 40
0.9836954134088962
 40
1.134081348693154
 40
1.286813239050686
 40
1.441862428292259
 40
1.621035829611841
 40
1.803181220353415
 40
1.988253881672302
 40
2.176209079702164
 40
2.367034085174623
 40
2.5545921343732
 40
2.751082405606779
 40
2.950336312036756
 40
3.15455090729541
 40
3.361554160586268
 40
3.571289809857227
 40
3.783701581154812
 40
4.0018535472069
 40
4.222717267422725
 40
4.446233388766434
 40
4.672342549164603
 40
4.901025224005589
 40
5.132261412411674
 40
5.3659908141852
 40
5.602153122605763
 40
5.795004667055115
 40
5.989432111333819
 40
6.185402798496873
 40
6.382884069890709
 40
6.581843322492302
 40
6.581843322492302
 40
6.581843322492302
 40
6.581843322492302
 10
-8.847891491937517
 20
-7.159261483486034
 30
0.0
 10
-8.892161852141605
 20
-7.162432701741977
 30
0.0
 10
-8.981530185307782
 20
-7.168757563210419
 30
0.0
 10
-9.116833095165972
 20
-7.17809031646766
 30
0.0
 10
-9.254608225109656
 20
-7.187347955115455
 30
0.0
 10
-9.394833981607987
 20
-7.196537031707578
 30
0.0
 10
-9.537479984809188
 20
-7.205654541068156
 30
0.0
 10
-9.682626967062411
 20
-7.214706884209988
 30
0.0
 10
-9.83026261627932
 20
-7.223693407014707
 30
0.0
 10
-9.98037425457224
 20
-7.232613575731193
 30
0.0
 10
-10.13284018203612
 20
-7.241460503896462
 30
0.0
 10
-10.29489832557533
 20
-7.250645204297654
 30
0.0
 10
-10.46675875962685
 20
-7.260143719184213
 30
0.0
 10
-10.64862590419856
 20
-7.269935622138518
 30
0.0
 10
-10.83343039376257
 20
-7.27961457140492
 30
0.0
 10
-11.0211350284295
 20
-7.289236356582478
 30
0.0
 10
-11.20968818606134
 20
-7.298476996552039
 30
0.0
 10
-11.40106249217916
 20
-7.308271504543995
 30
0.0
 10
-11.59528755720129
 20
-7.317293184315758
 30
0.0
 10
-11.79506074601008
 20
-7.326520548491771
 30
0.0
 10
-11.99834811247071
 20
-7.335614752877404
 30
0.0
 10
-12.20513581603046
 20
-7.344639174255462
 30
0.0
 10
-12.41466370227879
 20
-7.353541981718308
 30
0.0
 10
-12.62791425515425
 20
-7.362369170352621
 30
0.0
 10
-12.84488056729114
 20
-7.371115422045591
 30
0.0
 10
-13.06555460791043
 20
-7.379777376387892
 30
0.0
 10
-13.28888793035833
 20
-7.388312931973302
 30
0.0
 10
-13.51483424997791
 20
-7.39672047985465
 30
0.0
 10
-13.74336040314681
 20
-7.40499878840842
 30
0.0
 10
-13.97443291592902
 20
-7.413146764084217
 30
0.0
 10
-14.2080047387326
 20
-7.421162744458797
 30
0.0
 10
-14.42879609814425
 20
-7.428536331176985
 30
0.0
 10
-14.63649968823419
 20
-7.435302948365404
 30
0.0
 10
-14.83081768033821
 20
-7.441493483592012
 30
0.0
 10
-15.02668250948335
 20
-7.447594190928384
 30
0.0
 10
-15.22406143863254
 20
-7.453604575091958
 30
0.0
 10
-15.35614984292235
 20
-7.457534509331651
 30
0.0
 10
-15.42244091863672
 20
-7.4594845441311
 30
0.0
 11
-8.847891491937517
 21
-7.159261483486034
 31
0.0
 11
-8.980710868108829
 21
-7.168659174711024
 31
0.0
 11
-9.116013358043531
 21
-7.177992925145531
 31
0.0
 11
-9.253799963594545
 21
-7.187254777928785
 31
0.0
 11
-9.394034684638953
 21
-7.196446255775072
 31
0.0
 11
-9.536689646626044
 21
-7.20556646504167
 31
0.0
 11
-9.681736975005449
 21
-7.214614512086029
 31
0.0
 11
-9.829474761456665
 21
-7.223609124073504
 31
0.0
 11
-9.979595774950851
 21
-7.232531605395251
 31
0.0
 11
-10.13207108975662
 21
-7.24138081788817
 31
0.0
 11
-10.28687178014282
 21
-7.250155623389105
 31
0.0
 11
-10.46577200068709
 21
-7.260045956026601
 31
0.0
 11
-10.64765398355122
 21
-7.26983817418835
 31
0.0
 11
-10.83247273407109
 21
-7.279529370522254
 31
0.0
 11
-11.02018325758258
 21
-7.289116637676272
 31
0.0
 11
-11.21077253539541
 21
-7.298598713090655
 31
0.0
 11
-11.39809610580631
 21
-7.307974414060709
 31
0.0
 11
-11.59436774605446
 21
-7.317241000220235
 31
0.0
 11
-11.79341123337924
 21
-7.326395731203206
 31
0.0
 11
-11.99742120527584
 21
-7.335535315956462
 31
0.0
 11
-12.2042276788476
 21
-7.344559123389899
 31
0.0
 11
-12.41377415397137
 21
-7.353465137593957
 31
0.0
 11
-12.62600413052412
 21
-7.362251342659419
 31
0.0
 11
-12.84397899724293
 21
-7.371039831437997
 31
0.0
 11
-13.06467271092704
 21
-7.379703977113422
 31
0.0
 11
-13.28802571491106
 21
-7.3882416519873
 31
0.0
 11
-13.51397845252963
 21
-7.396650728360896
 31
0.0
 11
-13.74251118598921
 21
-7.404930541193721
 31
0.0
 11
-13.97360370874516
 21
-7.413080421435097
 31
0.0
 11
-14.20719554899513
 21
-7.421098227586298
 31
0.0
 11
-14.44322623493686
 21
-7.428981818148827
 31
0.0
 11
-14.63597550110877
 21
-7.435261820760899
 31
0.0
 11
-14.83030433966992
 21
-7.441453218798983
 31
0.0
 11
-15.02618001351511
 21
-7.447554888129161
 31
0.0
 11
-15.22356978553917
 21
-7.453565704617858
 31
0.0
 11
-15.42244091863672
 21
-7.4594845441311
 31
0.0
  0
SPLINE
  5
1B9
330
2
100
AcDbEntity
  8
GAIKEI
  6
Continuous
 62
     7
100
AcDbSpline
210
0.0
220
0.0
230
1.0
 70
     8
 71
     3
 72
    27
 73
    23
 74
    21
 42
0.0000000001
 43
0.0000000001
 44
0.000001
 12
0.9999603996302754
 22
-0.0088993916230307
 32
0.0
 13
0.9877675839060561
 23
-0.1559333196734816
 33
0.0
 40
0.0
 40
0.0
 40
0.0
 40
0.0
 40
0.0402630383833027
 40
0.079967439833726
 40
0.1189366584327473
 40
0.1581670255675076
 40
0.1964408517547103
 40
0.233576953395679
 40
0.2687141182607381
 40
0.3025861217069343
 40
0.3350249445381296
 40
0.3668333454294142
 40
0.396970766887476
 40
0.4253018919311888
 40
0.4509009754738665
 40
0.4747058250263166
 40
0.4966079109522665
 40
0.5170852326922921
 40
0.535425233640642
 40
0.5515294220494415
 40
0.5650513259312764
 40
0.5738607813250328
 40
0.5738607813250328
 40
0.5738607813250328
 40
0.5738607813250328
 10
-9.339406648211777
 20
-7.111142671026755
 30
0.0
 10
-9.325986166894409
 20
-7.11126210987561
 30
0.0
 10
-9.29933169718133
 20
-7.111533379467459
 30
0.0
 10
-9.259689380717361
 20
-7.112043437358238
 30
0.0
 10
-9.220392725584162
 20
-7.112652555576744
 30
0.0
 10
-9.181574670302495
 20
-7.113361170071527
 30
0.0
 10
-9.143369703082726
 20
-7.114168000197309
 30
0.0
 10
-9.106531321243778
 20
-7.115056255454817
 30
0.0
 10
-9.071162635475111
 20
-7.116020132310438
 30
0.0
 10
-9.037362369875111
 20
-7.117053660442479
 30
0.0
 10
-9.004674952330049
 20
-7.118170380180629
 30
0.0
 10
-8.97323639308189
 20
-7.119375711940676
 30
0.0
 10
-8.943171946227003
 20
-7.120673515330054
 30
0.0
 10
-8.915182269125736
 20
-7.122033574850888
 30
0.0
 10
-8.889309066520858
 20
-7.123448370192591
 30
0.0
 10
-8.865584767678285
 20
-7.124903275123983
 30
0.0
 10
-8.843575440771552
 20
-7.126422234737731
 30
0.0
 10
-8.823397058356782
 20
-7.128001959861592
 30
0.0
 10
-8.805162476120443
 20
-7.129637043033255
 30
0.0
 10
-8.789259979694051
 20
-7.131300028299051
 30
0.0
 10
-8.776542283374247
 20
-7.13286185660894
 30
0.0
 10
-8.769179750304495
 20
-7.13396263351467
 30
0.0
 10
-8.766279185481224
 20
-7.134420529389331
 30
0.0
 11
-9.339406648211777
 21
-7.111142671026755
 31
0.0
 11
-9.299145826933866
 21
-7.111554435647178
 31
0.0
 11
-9.259444711449262
 21
-7.112065170517496
 31
0.0
 11
-9.220480188010881
 21
-7.112670019969073
 31
0.0
 11
-9.181256372827149
 21
-7.11338692588265
 31
0.0
 11
-9.142991108000117
 21
-7.114196369928663
 31
0.0
 11
-9.105865839712535
 21
-7.11509326168732
 31
0.0
 11
-9.070741769814233
 21
-7.116052418219283
 31
0.0
 11
-9.036885660339933
 21
-7.117089902769521
 31
0.0
 11
-9.004465883613946
 21
-7.118201299181919
 31
0.0
 11
-8.972681003330151
 21
-7.119424263224345
 31
0.0
 11
-8.942571817045021
 21
-7.120728471482095
 31
0.0
 11
-8.914274342651381
 21
-7.122108859612126
 31
0.0
 11
-8.888713703329543
 21
-7.123511243459347
 31
0.0
 11
-8.864953881389354
 21
-7.124974663364469
 31
0.0
 11
-8.843104326066011
 21
-7.12649063178776
 31
0.0
 11
-8.822690278736629
 21
-7.128099112292829
 31
0.0
 11
-8.804424957148924
 21
-7.12975243151493
 31
0.0
 11
-8.788409732341122
 21
-7.131442760053914
 31
0.0
 11
-8.774992921401874
 21
-7.133125219198518
 31
0.0
 11
-8.766279185481224
 21
-7.134420529389331
 31
0.0
  0
SPLINE
  5
1BA
330
2
100
AcDbEntity
  8
GAIKEI
  6
Continuous
 62
     1
100
AcDbSpline
210
0.0
220
0.0
230
1.0
 70
     8
 71
     3
 72
    14
 73
    10
 74
     8
 42
0.0000000001
 43
0.0000000001
 44
0.000001
 12
-0.9874312780711054
 22
-0.1580489515525594
 32
0.0
 13
0.8667181469821155
 23
-0.4987982093912209
 33
0.0
 40
0.0
 40
0.0
 40
0.0
 40
0.0
 40
0.0025699638483221
 40
0.0117428107984367
 40
0.0188990786802287
 40
0.0237881329345434
 40
0.0265893895839491
 40
0.0284193765367071
 40
0.0295995053452568
 40
0.0295995053452568
 40
0.0295995053452568
 40
0.0295995053452568
 10
-30.55377457088942
 20
-7.134417815182473
 30
0.0
 10
-30.55462045845187
 20
-7.134553208546378
 30
0.0
 10
-30.55848475912384
 20
-7.135196732797624
 30
0.0
 10
-30.56463629223394
 20
-7.136351836869494
 30
0.0
 10
-30.57164178587098
 20
-7.138062279092764
 30
0.0
 10
-30.57602042505322
 20
-7.139747217161925
 30
0.0
 10
-30.57925188828724
 20
-7.141531699567053
 30
0.0
 10
-30.57883634796524
 20
-7.143793558182608
 30
0.0
 10
-30.57804780854519
 20
-7.144459558829396
 30
0.0
 10
-30.57770686219381
 20
-7.144655774208274
 30
0.0
 11
-30.55377457088942
 21
-7.134417815182473
 31
0.0
 11
-30.55630888789667
 21
-7.134838309978817
 31
0.0
 11
-30.56531576398784
 21
-7.136575338782222
 31
0.0
 11
-30.57223956323539
 21
-7.138384527599328
 31
0.0
 11
-30.57677364660681
 21
-7.140213478781902
 31
0.0
 11
-30.57888488476756
 21
-7.142054718347367
 31
0.0
 11
-30.57857796203889
 21
-7.143858632324054
 31
0.0
 11
-30.57770686219381
 21
-7.144655774208274
 31
0.0
  0
SPLINE
  5
1BB
330
2
100
AcDbEntity
  8
GAIKEI
  6
Continuous
 62
     7
100
AcDbSpline
210
0.0
220
0.0
230
1.0
 70
     8
 71
     3
 72
    73
 73
    69
 74
    67
 42
0.0000000001
 43
0.0000000001
 44
0.000001
 12
-0.9873494173332577
 22
-0.1585595411562369
 32
0.0
 13
-0.9482847424276179
 23
-0.3174209307512443
 33
0.0
 40
0.0
 40
0.0
 40
0.0
 40
0.0
 40
0.062582101603449
 40
0.1471366554862394
 40
0.2286190215146027
 40
0.3070320947345221
 40
0.3823783193551713
 40
0.4546597175066078
 40
0.5238779219571947
 40
0.5900342076257435
 40
0.6560577193503418
 40
0.7187225325697998
 40
0.7780290584804911
 40
0.8339774141650032
 40
0.8865674528094947
 40
0.9357987919699382
 40
0.9674396214120594
 40
0.9972933237968428
 40
1.024602441966471
 40
1.049304566028732
 40
1.071398700960188
 40
1.090883938411088
 40
1.107759462066776
 40
1.122024552359081
 40
1.133678590532463
 40
1.142721062070991
 40
1.149889244134442
 40
1.156006388474565
 40
1.161763727350056
 40
1.167874611854833
 40
1.176426105665316
 40
1.187331980685055
 40
1.200723087810586
 40
1.216600335540228
 40
1.234964815016032
 40
1.258854278646426
 40
1.285959385232104
 40
1.316282628256028
 40
1.349826832686334
 40
1.386595164423514
 40
1.426591140680151
 40
1.469818641273381
 40
1.516281920807196
 40
1.560665315841531
 40
1.607653780902775
 40
1.65725119624227
 40
1.709461718355862
 40
1.764289789251382
 40
1.820691223510397
 40
1.879626900368848
 40
1.941101887551512
 40
2.005121555922518
 40
2.081240044604664
 40
2.160684055837536
 40
2.243463100550207
 40
2.329587277806781
 40
2.419067296052037
 40
2.510226915581883
 40
2.604645886877076
 40
2.702336193512006
 40
2.803310467465137
 40
2.909744425786312
 40
3.019626482898299
 40
3.132972281966535
 40
3.249798258672388
 40
3.370121658941005
 40
3.493960503754499
 40
3.592386160510519
 40
3.592386160510519
 40
3.592386160510519
 40
3.592386160510519
 10
-30.55712574834452
 20
-7.134955689938863
 30
0.0
 10
-30.5777225488624
 20
-7.138263353043782
 30
0.0
 10
-30.62613562678583
 20
-7.146114984415021
 30
0.0
 10
-30.70131576660673
 20
-7.158580372998528
 30
0.0
 10
-30.78164738150813
 20
-7.172233187033953
 30
0.0
 10
-30.85890157161544
 20
-7.185670349882002
 30
0.0
 10
-30.93308565616958
 20
-7.198857531832686
 30
0.0
 10
-31.00420660535073
 20
-7.211761441330395
 30
0.0
 10
-31.0722709629632
 20
-7.224350309844453
 30
0.0
 10
-31.13824408000546
 20
-7.236774393987047
 30
0.0
 10
-31.20203204908674
 20
-7.248996437062316
 30
0.0
 10
-31.26354092903304
 20
-7.260978315423301
 30
0.0
 10
-31.32172008206716
 20
-7.272487624395012
 30
0.0
 10
-31.37657476104982
 20
-7.283496014744969
 30
0.0
 10
-31.42810977763181
 20
-7.293976783609423
 30
0.0
 10
-31.4716832316792
 20
-7.302948231253139
 30
0.0
 10
-31.50781923799547
 20
-7.310460652790084
 30
0.0
 10
-31.53679199552719
 20
-7.316527938053127
 30
0.0
 10
-31.56349336334979
 20
-7.322157280426154
 30
0.0
 10
-31.58765755656896
 20
-7.327282764917015
 30
0.0
 10
-31.60926546608005
 20
-7.331891001297435
 30
0.0
 10
-31.62831788853401
 20
-7.335973792033996
 30
0.0
 10
-31.64481552197286
 20
-7.339523912363347
 30
0.0
 10
-31.6587589664644
 20
-7.342535108645506
 30
0.0
 10
-31.6701487246362
 20
-7.345002096844154
 30
0.0
 10
-31.67922549894452
 20
-7.34697273147492
 30
0.0
 10
-31.68649805650751
 20
-7.348554563680067
 30
0.0
 10
-31.69270016629307
 20
-7.349905596976384
 30
0.0
 10
-31.69855756231435
 20
-7.351183253972521
 30
0.0
 10
-31.7052073614177
 20
-7.352635700494374
 30
0.0
 10
-31.71353318342609
 20
-7.354457232363472
 30
0.0
 10
-31.7242286012112
 20
-7.356802317358983
 30
0.0
 10
-31.73730763334305
 20
-7.359677869969232
 30
0.0
 10
-31.752812522626
 20
-7.363097957795957
 30
0.0
 10
-31.77173135146514
 20
-7.367287062719071
 30
0.0
 10
-31.7942993250109
 20
-7.372307675327476
 30
0.0
 10
-31.82075136897453
 20
-7.378225582504455
 30
0.0
 10
-31.85033508981477
 20
-7.384885932092231
 30
0.0
 10
-31.88305018589955
 20
-7.392302660611221
 30
0.0
 10
-31.91889633065746
 20
-7.400491168963071
 30
0.0
 10
-31.95787317269708
 20
-7.409468318404265
 30
0.0
 10
-31.9999803355493
 20
-7.419252426038497
 30
0.0
 10
-32.04349084378229
 20
-7.429458273912473
 30
0.0
 10
-32.08819966812111
 20
-7.44004464469026
 30
0.0
 10
-32.13390209642674
 20
-7.450968423415133
 30
0.0
 10
-32.18211624974903
 20
-7.462606325088472
 30
0.0
 10
-32.23284177383599
 20
-7.474976437748694
 30
0.0
 10
-32.28573881723721
 20
-7.488014094034326
 30
0.0
 10
-32.34077764696969
 20
-7.501728637849396
 30
0.0
 10
-32.39792859922666
 20
-7.51612968496039
 30
0.0
 10
-32.45750052708583
 20
-7.531314859533665
 30
0.0
 10
-32.52257496311771
 20
-7.548100539122742
 30
0.0
 10
-32.59339085805908
 20
-7.566607308595791
 30
0.0
 10
-32.67018567384891
 20
-7.586965053001108
 30
0.0
 10
-32.75012644913753
 20
-7.608469276646701
 30
0.0
 10
-32.83321249142306
 20
-7.631157047577971
 30
0.0
 10
-32.91890101347565
 20
-7.654916502545574
 30
0.0
 10
-33.0071549805022
 20
-7.679768920921674
 30
0.0
 10
-33.09793753799058
 20
-7.705735732047685
 30
0.0
 10
-33.19175117484352
 20
-7.732998871243296
 30
0.0
 10
-33.2892864223516
 20
-7.761803960441
 30
0.0
 10
-33.39058293978015
 20
-7.792217749165729
 30
0.0
 10
-33.49568003478819
 20
-7.824309859201662
 30
0.0
 10
-33.60392988965033
 20
-7.857933993886661
 30
0.0
 10
-33.71533159181024
 20
-7.893139471443532
 30
0.0
 10
-33.82988428927675
 20
-7.92997656292124
 30
0.0
 10
-33.9384161241328
 20
-7.965496672139408
 30
0.0
 10
-34.00872181921644
 20
-7.988867602900143
 30
0.0
 10
-34.03983366873815
 20
-7.999281724092554
 30
0.0
 11
-30.55712574834452
 21
-7.134955689938863
 31
0.0
 11
-30.61890142233013
 21
-7.144972568874322
 31
0.0
 11
-30.70231701664928
 21
-7.158804176865771
 31
0.0
 11
-30.78264752612638
 21
-7.172456506901539
 31
0.0
 11
-30.85990073885098
 21
-7.185893468352105
 31
0.0
 11
-30.93408401659754
 21
-7.199080415333128
 31
0.0
 11
-31.00520430336628
 21
-7.211984135412421
 31
0.0
 11
-31.07326813369942
 21
-7.224572838816925
 31
0.0
 11
-31.13828164074398
 21
-7.236816148132788
 31
0.0
 11
-31.20312561583889
 21
-7.249240462931538
 31
0.0
 11
-31.26463428438849
 21
-7.261222243500355
 31
0.0
 11
-31.32281333514989
 21
-7.272731482244466
 31
0.0
 11
-31.37766800939239
 21
-7.283739828044247
 31
0.0
 11
-31.4292031089927
 21
-7.294220576339625
 31
0.0
 11
-31.47742300402423
 21
-7.304148659825386
 31
0.0
 11
-31.5084014814798
 21
-7.310588859498466
 31
0.0
 11
-31.5376213578867
 21
-7.316707887377447
 31
0.0
 11
-31.56434307710306
 21
-7.322341515750736
 31
0.0
 11
-31.58850759176819
 21
-7.327467064999495
 31
0.0
 11
-31.61011579555721
 21
-7.332075361867964
 31
0.0
 11
-31.6291684830979
 21
-7.336158207990365
 31
0.0
 11
-31.64566635066974
 21
-7.339708377926285
 31
0.0
 11
-31.65960999681939
 21
-7.342719617429906
 31
0.0
 11
-31.67099992289191
 21
-7.345186641951954
 31
0.0
 11
-31.67983653347848
 21
-7.347105135374818
 31
0.0
 11
-31.6868409437836
 21
-7.348628643826543
 31
0.0
 11
-31.69281792268193
 21
-7.349930636023373
 31
0.0
 11
-31.69844299794893
 21
-7.351157617720673
 31
0.0
 11
-31.70441313299496
 21
-7.352461612545539
 31
0.0
 11
-31.71276703388953
 21
-7.354289287876099
 31
0.0
 11
-31.72341984708955
 21
-7.356625031589601
 31
0.0
 11
-31.73649858358762
 21
-7.359500519175185
 31
0.0
 11
-31.7520031175347
 21
-7.362920528151562
 31
0.0
 11
-31.76993330762413
 21
-7.366890722448601
 31
0.0
 11
-31.79325268975335
 21
-7.372078494751008
 31
0.0
 11
-31.81970391885666
 21
-7.377996214180143
 31
0.0
 11
-31.84928671533074
 21
-7.384656347520149
 31
0.0
 11
-31.88200077413951
 21
-7.392072829349785
 31
0.0
 11
-31.91784576492724
 21
-7.40026105838973
 31
0.0
 11
-31.95682133214116
 21
-7.40923789346516
 31
0.0
 11
-31.99892709516401
 21
-7.419021649083788
 31
0.0
 11
-32.04416264845504
 21
-7.429632090630377
 31
0.0
 11
-32.08735182078148
 21
-7.439858601437549
 31
0.0
 11
-32.13305296735173
 21
-7.450782038387217
 31
0.0
 11
-32.18126574607853
 21
-7.462419566094467
 31
0.0
 11
-32.23198979921274
 21
-7.474789270299254
 31
0.0
 11
-32.28522475345217
 21
-7.487910154040946
 31
0.0
 11
-32.33995275259584
 21
-7.501547181405328
 31
0.0
 11
-32.39710202086151
 21
-7.515947730658126
 31
0.0
 11
-32.45667216143109
 21
-7.531132365478697
 31
0.0
 11
-32.51866276345977
 21
-7.54712248713497
 31
0.0
 11
-32.59230797109815
 21
-7.566368495297069
 31
0.0
 11
-32.66909961300662
 21
-7.586725210810641
 31
0.0
 11
-32.74903701440015
 21
-7.608228313191318
 31
0.0
 11
-32.83211947771163
 21
-7.630914864495082
 31
0.0
 11
-32.91834628286752
 21
-7.654823299360828
 31
0.0
 11
-33.00609322524345
 21
-7.679532648049189
 31
0.0
 11
-33.09687177441948
 21
-7.705497987422745
 31
0.0
 11
-33.19068118645301
 21
-7.732759536628691
 31
0.0
 11
-33.28752069757219
 21
-7.761358751662953
 31
0.0
 11
-33.38945920043592
 21
-7.79196482070597
 31
0.0
 11
-33.49455107337901
 21
-7.824054810135066
 31
0.0
 11
-33.60279544305145
 21
-7.857676676782602
 31
0.0
 11
-33.71419141598752
 21
-7.892879668543059
 31
0.0
 11
-33.8287380789828
 21
-7.929714310805707
 31
0.0
 11
-33.94643449948394
 21
-7.96823239249511
 31
0.0
 11
-34.03983366873815
 21
-7.999281724092554
 31
0.0
  0
SPLINE
  5
1BC
330
2
100
AcDbEntity
  8
GAIKEI
  6
Continuous
 62
     7
100
AcDbSpline
210
0.0
220
0.0
230
1.0
 70
     8
 71
     3
 72
    27
 73
    23
 74
    21
 42
0.0000000001
 43
0.0000000001
 44
0.000001
 12
-0.9999603996302859
 22
-0.0088993916218352
 32
0.0
 13
-0.9877744331132488
 23
-0.1558899268323646
 33
0.0
 40
0.0
 40
0.0
 40
0.0
 40
0.0
 40
0.0402630383584463
 40
0.0799674398085712
 40
0.1189366584071956
 40
0.1581670255415974
 40
0.1964408517284391
 40
0.2335769533690384
 40
0.2687141182339981
 40
0.3025861216800896
 40
0.3350249445111054
 40
0.3668333454022956
 40
0.3969707668600827
 40
0.4253018919036748
 40
0.4509009754461303
 40
0.4747058249982401
 40
0.4966079109237875
 40
0.5170852326630588
 40
0.5354252336101375
 40
0.5515294220163699
 40
0.565051325888947
 40
0.5738437383403205
 40
0.5738437383403205
 40
0.5738437383403205
 40
0.5738437383403205
 10
-29.98066393492418
 20
-7.111142671026755
 30
0.0
 10
-29.99408441623327
 20
-7.111262109875497
 30
0.0
 10
-30.020738885938
 20
-7.11153337946331
 30
0.0
 10
-30.06038120239344
 20
-7.112043437355396
 30
0.0
 10
-30.0996778575263
 20
-7.112652555573788
 30
0.0
 10
-30.13849591280759
 20
-7.113361170068344
 30
0.0
 10
-30.17670088002699
 20
-7.11416800019424
 30
0.0
 10
-30.21353926186565
 20
-7.11505625545169
 30
0.0
 10
-30.24890794763414
 20
-7.116020132307369
 30
0.0
 10
-30.28270821323401
 20
-7.117053660439069
 30
0.0
 10
-30.31539563077892
 20
-7.118170380177502
 30
0.0
 10
-30.346834190027
 20
-7.119375711936811
 30
0.0
 10
-30.37689863688148
 20
-7.120673515328064
 30
0.0
 10
-30.40488831398335
 20
-7.122033574842248
 30
0.0
 10
-30.43076151658532
 20
-7.123448370205437
 30
0.0
 10
-30.45448581543654
 20
-7.124903275065094
 30
0.0
 10
-30.47649514231292
 20
-7.126422234916674
 30
0.0
 10
-30.49667352482617
 20
-7.128001959249218
 30
0.0
 10
-30.51490810674508
 20
-7.129637044938363
 30
0.0
 10
-30.53081060413137
 20
-7.131300022518246
 30
0.0
 10
-30.54352265857985
 20
-7.132861179294195
 30
0.0
 10
-30.55087959748114
 20
-7.133960932337913
 30
0.0
 10
-30.55377457088942
 20
-7.134417815182473
 30
0.0
 11
-29.98066393492418
 21
-7.111142671026755
 31
0.0
 11
-30.0209247562017
 21
-7.111554435647121
 31
0.0
 11
-30.06062587168596
 21
-7.112065170517439
 31
0.0
 11
-30.09959039512394
 21
-7.112670019969073
 31
0.0
 11
-30.13881421030733
 21
-7.113386925882537
 31
0.0
 11
-30.17707947513402
 21
-7.114196369928606
 31
0.0
 11
-30.21420474342126
 21
-7.11509326168732
 31
0.0
 11
-30.24932881331951
 21
-7.116052418219283
 31
0.0
 11
-30.28318492279375
 21
-7.117089902769407
 31
0.0
 11
-30.31560469951962
 21
-7.118201299181805
 31
0.0
 11
-30.34738957980342
 21
-7.119424263224232
 31
0.0
 11
-30.37749876608844
 21
-7.120728471481982
 31
0.0
 11
-30.40579624048219
 21
-7.122108859612012
 31
0.0
 11
-30.43135687980414
 21
-7.123511243459233
 31
0.0
 11
-30.45511670174445
 21
-7.124974663364355
 31
0.0
 11
-30.47696625706802
 21
-7.126490631787532
 31
0.0
 11
-30.49738030439757
 21
-7.128099112292659
 31
0.0
 11
-30.51564562598545
 21
-7.129752431514816
 31
0.0
 11
-30.53166085079342
 21
-7.131442760053801
 31
0.0
 11
-30.54507766173289
 21
-7.133125219198291
 31
0.0
 11
-30.55377457088942
 21
-7.134417815182473
 31
0.0
  0
SPLINE
  5
1BD
330
2
100
AcDbEntity
  8
GAIKEI
  6
Continuous
 62
     1
100
AcDbSpline
210
0.0
220
0.0
230
1.0
 70
     8
 71
     3
 72
    42
 73
    38
 74
    36
 42
0.0000000001
 43
0.0000000001
 44
0.000001
 12
0.9974441891448979
 22
-0.0714499093146873
 32
0.0
 13
0.999567622729952
 23
-0.0294035302300999
 33
0.0
 40
0.0
 40
0.0
 40
0.0
 40
0.0
 40
0.1331513902809842
 40
0.2687754436467165
 40
0.4068729867926475
 40
0.5474086075338541
 40
0.6903548096511181
 40
0.8356840732501717
 40
0.9836954132966805
 40
1.134081348574308
 40
1.286813238924522
 40
1.441862428157818
 40
1.621035829466938
 40
1.797060385602302
 40
1.982133048002951
 40
2.170088246821849
 40
2.360913252881231
 40
2.554593886895627
 40
2.751084158082822
 40
2.9503380644741
 40
3.154552659699767
 40
3.361555912962582
 40
3.571291562209373
 40
3.783703333485954
 40
4.001855299519545
 40
4.222719019719082
 40
4.44623514104839
 40
4.67234430143375
 40
4.901026976263269
 40
5.132263164659018
 40
5.365992566423196
 40
5.602154874835207
 40
5.795006419278089
 40
5.989433863550557
 40
6.185404550707298
 40
6.382885822093278
 40
6.581845074524231
 40
6.581845074524231
 40
6.581845074524231
 40
6.581845074524231
 10
-30.47217909119839
 20
-7.159261483486034
 30
0.0
 10
-30.42790873102761
 20
-7.162432701739589
 30
0.0
 10
-30.33854039788432
 20
-7.168757563039832
 30
0.0
 10
-30.20323748809828
 20
-7.178090317033365
 30
0.0
 10
-30.06546235800188
 20
-7.187347952910556
 30
0.0
 10
-29.92523660208616
 20
-7.196537040102612
 30
0.0
 10
-29.78259059666495
 20
-7.205654508885913
 30
0.0
 10
-29.63744362293049
 20
-7.214707007377342
 30
0.0
 10
-29.48980794109722
 20
-7.223692934939094
 30
0.0
 10
-29.33969642754542
 20
-7.232615379637877
 30
0.0
 10
-29.18723002365908
 20
-7.24145361457397
 30
0.0
 10
-29.02517378413442
 20
-7.250673056622815
 30
0.0
 10
-28.85534235595152
 20
-7.259910014233241
 30
0.0
 10
-28.67554411017443
 20
-7.270168305212905
 30
0.0
 10
-28.49276862204131
 20
-7.279586586187406
 30
0.0
 10
-28.30506466839242
 20
-7.289217147155341
 30
0.0
 10
-28.11447928679301
 20
-7.298684772986291
 30
0.0
 10
-27.92104107985371
 20
-7.308061429163331
 30
0.0
 10
-27.7247845789126
 20
-7.317324748713019
 30
0.0
 10
-27.52500940661855
 20
-7.326511809212149
 30
0.0
 10
-27.32172258844732
 20
-7.335617153734517
 30
0.0
 10
-27.11493473446751
 20
-7.344638518116482
 30
0.0
 10
-26.90540688935309
 20
-7.353542160891834
 30
0.0
 10
-26.69215632523694
 20
-7.362369120691994
 30
0.0
 10
-26.47519001623552
 20
-7.371115435716944
 30
0.0
 10
-26.25451597477788
 20
-7.379777372690625
 30
0.0
 10
-26.03118265257756
 20
-7.388312933012002
 30
0.0
 10
-25.80523633290732
 20
-7.396720479600503
 30
0.0
 10
-25.57671017976721
 20
-7.404998788505054
 30
0.0
 10
-25.34563766699065
 20
-7.413146764083876
 30
0.0
 10
-25.11206584419773
 20
-7.421162744483467
 30
0.0
 10
-24.89127448479385
 20
-7.428536331194266
 30
0.0
 10
-24.68357089471104
 20
-7.435302948383252
 30
0.0
 10
-24.48925290261335
 20
-7.441493483609178
 30
0.0
 10
-24.29338807347492
 20
-7.447594190943732
 30
0.0
 10
-24.09600914438748
 20
-7.453604575110034
 30
0.0
 10
-23.96392074015669
 20
-7.457534509333356
 30
0.0
 10
-23.89762966449918
 20
-7.459484544131157
 30
0.0
 11
-30.47217909119839
 21
-7.159261483486034
 31
0.0
 11
-30.33935971502702
 21
-7.168659174711024
 31
0.0
 11
-30.20405722509243
 21
-7.177992925145531
 31
0.0
 11
-30.0662706195413
 21
-7.187254777928785
 31
0.0
 11
-29.926035898497
 21
-7.196446255775072
 31
0.0
 11
-29.78338093650992
 21
-7.20556646504167
 31
0.0
 11
-29.63833360813051
 21
-7.214614512085972
 31
0.0
 11
-29.49059582167924
 21
-7.223609124073504
 31
0.0
 11
-29.34047480818511
 21
-7.232531605395251
 31
0.0
 11
-29.18799949337928
 21
-7.24138081788817
 31
0.0
 11
-29.03319880299314
 21
-7.250155623389105
 31
0.0
 11
-28.85429858244886
 21
-7.260045956026601
 31
0.0
 11
-28.67854659958472
 21
-7.269838174188407
 31
0.0
 11
-28.49372784906485
 21
-7.279529370522254
 31
0.0
 11
-28.30601732555336
 21
-7.289116637676272
 31
0.0
 11
-28.11542804774048
 21
-7.298598713090655
 31
0.0
 11
-27.92197447732964
 21
-7.307974414060709
 31
0.0
 11
-27.72570283708144
 21
-7.317241000220235
 31
0.0
 11
-27.52665934975671
 21
-7.326395731203206
 31
0.0
 11
-27.32264937786012
 21
-7.335535315956462
 31
0.0
 11
-27.1158429042883
 21
-7.344559123389899
 31
0.0
 11
-26.90629642916453
 21
-7.353465137593957
 31
0.0
 11
-26.69406645261183
 21
-7.362251342659419
 31
0.0
 11
-26.47609158589297
 21
-7.371039831437997
 31
0.0
 11
-26.25539787220886
 21
-7.379703977113422
 31
0.0
 11
-26.03204486822484
 21
-7.3882416519873
 31
0.0
 11
-25.80609213060628
 21
-7.396650728360896
 31
0.0
 11
-25.57755939714669
 21
-7.404930541193721
 31
0.0
 11
-25.34646687439074
 21
-7.413080421435097
 31
0.0
 11
-25.11287503414077
 21
-7.421098227586355
 31
0.0
 11
-24.87684434819904
 21
-7.428981818148827
 31
0.0
 11
-24.68409508202713
 21
-7.435261820760899
 31
0.0
 11
-24.48976624346598
 21
-7.441453218798983
 31
0.0
 11
-24.29389056962079
 21
-7.447554888129218
 31
0.0
 11
-24.09650079759679
 21
-7.453565704617858
 31
0.0
 11
-23.89762966449918
 21
-7.459484544131157
 31
0.0
  0
SPLINE
  5
1BE
330
2
100
AcDbEntity
  8
GAIKEI
  6
Continuous
 62
     1
100
AcDbSpline
210
0.0
220
0.0
230
1.0
 70
     8
 71
     3
 72
    36
 73
    32
 74
    30
 42
0.0000000001
 43
0.0000000001
 44
0.000001
 12
0.999568145732478
 22
-0.0293857454718413
 32
0.0
 13
0.9999999999992031
 23
-0.0000012623855154
 33
0.0
 40
0.0
 40
0.0
 40
0.0
 40
0.0
 40
0.1421210855843012
 40
0.2863919374777027
 40
0.4326945473179383
 40
0.581260250724
 40
0.7318041708546793
 40
0.884207200206084
 40
1.038350222033385
 40
1.194114111862294
 40
1.351379738855042
 40
1.472380838233183
 40
1.594239045658595
 40
1.71690004170494
 40
1.840309505632626
 40
1.965065630484797
 40
2.090542247042755
 40
2.216680258475781
 40
2.343420566307464
 40
2.496964514179027
 40
2.651351837498892
 40
2.80647849905107
 40
2.962240458901503
 40
3.11853367499816
 40
3.275254103751372
 40
3.434992143610539
 40
3.595172949905763
 40
3.755686048047071
 40
3.916420963140813
 40
4.07726722053319
 40
4.238114382626116
 40
4.238114382626116
 40
4.238114382626116
 40
4.238114382626116
 10
-23.89762966449912
 20
-7.459484544131157
 30
0.0
 10
-23.85027642783679
 20
-7.460876655480205
 30
0.0
 10
-23.75485177324904
 20
-7.463617763257502
 30
0.0
 10
-23.61067388520198
 20
-7.46755219145092
 30
0.0
 10
-23.46434336834141
 20
-7.471348948246372
 30
0.0
 10
-23.31591757362695
 20
-7.475003800399633
 30
0.0
 10
-23.16545429652968
 20
-7.478515756183014
 30
0.0
 10
-23.01312809791688
 20
-7.481880786709552
 30
0.0
 10
-22.85905829805004
 20
-7.485096311807183
 30
0.0
 10
-22.70336421772824
 20
-7.488159747559791
 30
0.0
 10
-22.55871207193075
 20
-7.490836282447162
 30
0.0
 10
-22.42535746902715
 20
-7.493168418659877
 30
0.0
 10
-22.30353418139725
 20
-7.495193391790962
 30
0.0
 10
-22.18090651755107
 20
-7.497126763493099
 30
0.0
 10
-22.05731139689917
 20
-7.498970791705687
 30
0.0
 10
-21.93277631987046
 20
-7.500723940599186
 30
0.0
 10
-21.80733038803806
 20
-7.502385252307419
 30
0.0
 10
-21.68122178762406
 20
-7.503951488197344
 30
0.0
 10
-21.54575680599774
 20
-7.505523568262447
 30
0.0
 10
-21.40087457314715
 20
-7.507075973104861
 30
0.0
 10
-21.24652925207472
 20
-7.508581887558705
 30
0.0
 10
-21.09144326648614
 20
-7.509948249348951
 30
0.0
 10
-20.93572079161726
 20
-7.51117434945371
 30
0.0
 10
-20.77946600221835
 20
-7.512259476519432
 30
0.0
 10
-20.62188494175481
 20
-7.513208329860788
 30
0.0
 10
-20.46300722179009
 20
-7.514017669528016
 30
0.0
 10
-20.30286460645764
 20
-7.514684658271733
 30
0.0
 10
-20.1423891526041
 20
-7.515204576431983
 30
0.0
 10
-19.98169147005136
 20
-7.515576543934116
 30
0.0
 10
-19.82088215938967
 20
-7.515800960519243
 30
0.0
 10
-19.71365101226558
 20
-7.51584929912741
 30
0.0
 10
-19.66003529156798
 20
-7.515849366811096
 30
0.0
 11
-23.89762966449912
 21
-7.459484544131157
 31
0.0
 11
-23.75556706478945
 21
-7.463562454467478
 31
0.0
 11
-23.61134998043714
 21
-7.467500703240148
 31
0.0
 11
-23.46509661910427
 21
-7.471296417549638
 31
0.0
 11
-23.31657597260728
 21
-7.474955034568324
 31
0.0
 11
-23.16607307347893
 21
-7.478469150203295
 31
0.0
 11
-23.01370724299655
 21
-7.481836177443994
 31
0.0
 11
-22.85959780243725
 21
-7.48505352927998
 31
0.0
 11
-22.70386407307826
 21
-7.488118618700809
 31
0.0
 11
-22.54662537619693
 21
-7.491028858695983
 31
0.0
 11
-22.42564278327235
 21
-7.49314502857976
 31
0.0
 11
-22.30380141264847
 21
-7.495170623843023
 31
0.0
 11
-22.18115566408041
 21
-7.497104589303262
 31
0.0
 11
-22.05775993732341
 21
-7.498945869777799
 31
0.0
 11
-21.93301617736059
 21
-7.500702268502436
 31
0.0
 11
-21.80755056732279
 21
-7.502364161585092
 31
0.0
 11
-21.68142228700295
 21
-7.503930913593308
 31
0.0
 11
-21.5546905161939
 21
-7.505401889094457
 31
0.0
 11
-21.40115538779976
 21
-7.507047513186307
 31
0.0
 11
-21.24677541723106
 21
-7.508554192431745
 31
0.0
 11
-21.09165477980163
 21
-7.509921218083491
 31
0.0
 11
-20.93589765082523
 21
-7.511147881394435
 31
0.0
 11
-20.77960820561562
 21
-7.5122334736173
 31
0.0
 11
-20.62289061948668
 21
-7.513177286005031
 31
0.0
 11
-20.46315465400171
 21
-7.513991217128818
 31
0.0
 11
-20.30297523845475
 21
-7.51465852645407
 31
0.0
 11
-20.14246298364186
 21
-7.515178605032872
 31
0.0
 11
-19.98172850035912
 21
-7.51555084391731
 31
0.0
 11
-19.82088239940249
 21
-7.515774634159356
 31
0.0
 11
-19.66003529156798
 21
-7.515849366811096
 31
0.0
  0
SPLINE
  5
1BF
330
2
100
AcDbEntity
  8
GAIKEI
  6
Continuous
 62
     1
100
AcDbSpline
210
0.0
220
0.0
230
1.0
 70
     8
 71
     3
 72
    59
 73
    55
 74
    53
 42
0.0000000001
 43
0.0000000001
 44
0.000001
 12
-0.9968356298091919
 22
-0.0794904217054616
 32
0.0
 13
-0.9990680155620923
 23
-0.0431636453606841
 33
0.0
 40
0.0
 40
0.0
 40
0.0
 40
0.0
 40
0.0967341375894392
 40
0.1963526337712188
 40
0.2988169805390333
 40
0.4040875029952172
 40
0.5121233598135554
 40
0.6228825656106219
 40
0.7363220125024596
 40
0.8426249526714821
 40
0.9511080537098573
 40
1.061735716507364
 40
1.17447160666933
 40
1.289278668214235
 40
1.40611913733202
 40
1.535855350928429
 40
1.667914856033333
 40
1.802245860309729
 40
1.938795651847915
 40
2.077510621272184
 40
2.218336284070796
 40
2.3612173031567
 40
2.493949188505582
 40
2.628317098276967
 40
2.764276618909716
 40
2.901782797488095
 40
3.040790157087312
 40
3.181252712261153
 40
3.336089607404145
 40
3.492541995364588
 40
3.650548236817063
 40
3.8100460660594
 40
3.970972616027321
 40
4.133264443520062
 40
4.296857554629022
 40
4.447905953337748
 40
4.599943518056603
 40
4.752919847693623
 40
4.906784222377607
 40
5.061485620477839
 40
5.216972735717676
 40
5.387430541555168
 40
5.558694738843321
 40
5.730697704933689
 40
5.903371516669025
 40
6.076647977451254
 40
6.250458644413015
 40
6.424734855682797
 40
6.584838214380287
 40
6.74522174853899
 40
6.905832203170947
 40
7.066616242956822
 40
7.227520470198694
 40
7.388491477640093
 40
7.388491477640093
 40
7.388491477640093
 40
7.388491477640093
 10
-12.2815807563821
 20
-5.790849372242632
 30
0.0
 10
-12.31372343470477
 20
-5.793412518039417
 30
0.0
 10
-12.3789728590918
 20
-5.798544666996235
 30
0.0
 10
-12.47829017849268
 20
-5.806119220156119
 30
0.0
 10
-12.58046075660753
 20
-5.813696789354196
 30
0.0
 10
-12.68544465624207
 20
-5.821273810775323
 30
0.0
 10
-12.79320047873548
 20
-5.828851253698871
 30
0.0
 10
-12.90368582009683
 20
-5.836428823537744
 30
0.0
 10
-13.01360692791888
 20
-5.843788954979686
 30
0.0
 10
-13.12278153318078
 20
-5.850939599618527
 30
0.0
 10
-13.2310301090202
 20
-5.85788661529574
 30
0.0
 10
-13.34142731812687
 20
-5.864833727274287
 30
0.0
 10
-13.45393659774749
 20
-5.871780927815393
 30
0.0
 10
-13.56852067861391
 20
-5.878728211486532
 30
0.0
 10
-13.68876876586409
 20
-5.885891648484573
 30
0.0
 10
-13.81476527226176
 20
-5.893265330456586
 30
0.0
 10
-13.94658986327719
 20
-5.900844009774914
 30
0.0
 10
-14.08068932683397
 20
-5.908422775918495
 30
0.0
 10
-14.21701075458333
 20
-5.916001623451677
 30
0.0
 10
-14.35550035350692
 20
-5.923580546602806
 30
0.0
 10
-14.49610346667272
 20
-5.931159539859152
 30
0.0
 10
-14.63472085631606
 20
-5.938523770853294
 30
0.0
 10
-14.77119374326278
 20
-5.945678036685251
 30
0.0
 10
-14.90536708677626
 20
-5.952625922681477
 30
0.0
 10
-15.04113396582843
 20
-5.959573847022966
 30
0.0
 10
-15.17844932659795
 20
-5.96652180694474
 30
0.0
 10
-15.31726759602255
 20
-5.973469800593818
 30
0.0
 10
-15.46185927956195
 20
-5.980631631516928
 30
0.0
 10
-15.61226266376428
 20
-5.988003804120694
 30
0.0
 10
-15.76851078452208
 20
-5.995583233914658
 30
0.0
 10
-15.9263143565137
 20
-6.003162699971596
 30
0.0
 10
-16.08561101681082
 20
-6.010742200093773
 30
0.0
 10
-16.24633780552677
 20
-6.018321731927926
 30
0.0
 10
-16.4084311905702
 20
-6.025901293170363
 30
0.0
 10
-16.56723820170376
 20
-6.033268013342421
 30
0.0
 10
-16.72263318985519
 20
-6.040424551264777
 30
0.0
 10
-16.87449508550563
 20
-6.047372795365276
 30
0.0
 10
-17.02729661477455
 20
-6.05432105520299
 30
0.0
 10
-17.18098699986366
 20
-6.061269329507581
 30
0.0
 10
-17.33551516290187
 20
-6.068217617328059
 30
0.0
 10
-17.49557051700495
 20
-6.075378005091806
 30
0.0
 10
-17.66114291151038
 20
-6.082748750745111
 30
0.0
 10
-17.8322167343119
 20
-6.090328488710156
 30
0.0
 10
-18.00402994653486
 20
-6.097908239885896
 30
0.0
 10
-18.17651456241701
 20
-6.10548800300387
 30
0.0
 10
-18.34960232414751
 20
-6.113067776628952
 30
0.0
 10
-18.52322472883424
 20
-6.120647559719259
 30
0.0
 10
-18.69246113800737
 20
-6.128016097964348
 30
0.0
 10
-18.85722675105563
 20
-6.135174345449684
 30
0.0
 10
-19.01744193279948
 20
-6.142122710318801
 30
0.0
 10
-19.17788421931809
 20
-6.149071117966741
 30
0.0
 10
-19.33850023896516
 20
-6.156019380029761
 30
0.0
 10
-19.49923653119734
 20
-6.162968197161205
 30
0.0
 10
-19.60642829833789
 20
-6.167598918643022
 30
0.0
 10
-19.66003529332705
 20
-6.169914950469205
 30
0.0
 11
-12.2815807563821
 21
-5.790849372242632
 31
0.0
 11
-12.37801736993914
 21
-5.798430683807055
 31
0.0
 11
-12.47734696305998
 21
-5.80601199537142
 31
0.0
 11
-12.57953045412371
 21
-5.813593306935786
 31
0.0
 11
-12.68452762758166
 21
-5.821174618500208
 31
0.0
 11
-12.79229714978397
 21
-5.82875593006463
 31
0.0
 11
-12.90279658525078
 21
-5.836337241629053
 31
0.0
 11
-13.01598241338071
 21
-5.843918553193475
 31
0.0
 11
-13.12205794747792
 21
-5.850868088794186
 31
0.0
 11
-13.23031822209766
 21
-5.857817624394897
 31
0.0
 11
-13.34072738670706
 21
-5.864767159995608
 31
0.0
 11
-13.45324887260109
 21
-5.871716695596319
 31
0.0
 11
-13.56784540501361
 21
-5.878666231197144
 31
0.0
 11
-13.68447901546558
 21
-5.885615766797855
 31
0.0
 11
-13.8139935271155
 21
-5.893197078362277
 31
0.0
 11
-13.94583523713778
 21
-5.900778389926699
 31
0.0
 11
-14.07995213512704
 21
-5.908359701491235
 31
0.0
 11
-14.21629130480563
 21
-5.915941013055658
 31
0.0
 11
-14.35479894490159
 21
-5.923522324620137
 31
0.0
 11
-14.49542039037909
 21
-5.931103636184616
 31
0.0
 11
-14.63810013401281
 21
-5.938684947749095
 31
0.0
 11
-14.77064996340779
 21
-5.945634483349863
 31
0.0
 11
-14.90483803688217
 21
-5.952584018950688
 31
0.0
 11
-15.04061982925186
 21
-5.959533554551455
 31
0.0
 11
-15.17795028121948
 21
-5.966483090152223
 31
0.0
 11
-15.31678381432677
 21
-5.973432625753048
 31
0.0
 11
-15.45707434608188
 21
-5.980382161353873
 31
0.0
 11
-15.61172552694525
 21
-5.987963472918409
 31
0.0
 11
-15.76799412054528
 21
-5.995544784482945
 31
0.0
 11
-15.92581837719611
 21
-6.003126096047481
 31
0.0
 11
-16.08513592545945
 21
-6.010707407612017
 31
0.0
 11
-16.24588379679319
 21
-6.018288719176553
 31
0.0
 11
-16.40799845043916
 21
-6.025870030741089
 31
0.0
 11
-16.57141579853949
 21
-6.033451342305681
 31
0.0
 11
-16.72230424296443
 21
-6.040400877906563
 31
0.0
 11
-16.87418289516945
 21
-6.047350413507388
 31
0.0
 11
-17.02700128850161
 21
-6.054299949108326
 31
0.0
 11
-17.18070863936579
 21
-6.061249484709151
 31
0.0
 11
-17.33525386410049
 21
-6.068199020310089
 31
0.0
 11
-17.49058559595535
 21
-6.075148555910914
 31
0.0
 11
-17.66087472432356
 21
-6.082729867475563
 31
0.0
 11
-17.8319710391399
 21
-6.090311179040213
 31
0.0
 11
-18.00380684453633
 21
-6.097892490604806
 31
0.0
 11
-18.17631414563625
 21
-6.105473802169456
 31
0.0
 11
-18.34942467545973
 21
-6.113055113734105
 31
0.0
 11
-18.52306992193907
 21
-6.120636425298755
 31
0.0
 11
-18.69718115503379
 21
-6.128217736863462
 31
0.0
 11
-18.85713361480528
 21
-6.1351672724644
 31
0.0
 11
-19.01736651388548
 21
-6.142116808065338
 31
0.0
 11
-19.17782654644698
 21
-6.149066343666277
 31
0.0
 11
-19.33846032666174
 21
-6.156015879267215
 31
0.0
 11
-19.49921440646251
 21
-6.162965414868267
 31
0.0
 11
-19.66003529332705
 21
-6.169914950469205
 31
0.0
  0
SPLINE
  5
1C0
330
2
100
AcDbEntity
  8
GAIKEI
  6
Continuous
 62
     1
100
AcDbSpline
210
0.0
220
0.0
230
1.0
 70
     8
 71
     3
 72
    59
 73
    55
 74
    53
 42
0.0000000001
 43
0.0000000001
 44
0.000001
 12
-0.9990680549083727
 22
0.0431627346399753
 32
0.0
 13
-0.9968346603052793
 23
0.079502578662947
 33
0.0
 40
0.0
 40
0.0
 40
0.0
 40
0.0
 40
0.1756022257121126
 40
0.3511192012831265
 40
0.5264815860402515
 40
0.7016200721723118
 40
0.8764654471524773
 40
1.0509486214155
 40
1.225000655888114
 40
1.384110879469245
 40
1.54274823229113
 40
1.700860064176658
 40
1.85839390523576
 40
2.015297483432908
 40
2.171518742091851
 40
2.341102861294578
 40
2.509746352973785
 40
2.677382657237756
 40
2.843945621750382
 40
3.009369528139445
 40
3.173589118246199
 40
3.33653962020617
 40
3.484741163400612
 40
3.631773218039686
 40
3.777587080443215
 40
3.922134459679162
 40
4.065367493850774
 40
4.207238766258483
 40
4.360399180433359
 40
4.511822801240836
 40
4.661450016379575
 40
4.809221937762142
 40
4.955080425393677
 40
5.098968111012228
 40
5.240828421487766
 40
5.369038413819136
 40
5.495455663784369
 40
5.62003845484757
 40
5.742745693655573
 40
5.863536924447599
 40
5.982372343333852
 40
6.10973441454994
 40
6.234672455681342
 40
6.357137563702049
 40
6.477081841626851
 40
6.59445841974446
 40
6.709221476761729
 40
6.821326260902754
 40
6.921716453421937
 40
7.019803448453562
 40
7.115555234737904
 40
7.208940613917982
 40
7.299929215232679
 40
7.388491488881227
 40
7.388491488881227
 40
7.388491488881227
 40
7.388491488881227
 10
-19.6600352898089
 20
-6.169914950469205
 30
0.0
 10
-19.71851481450216
 20
-6.167388459712356
 30
0.0
 10
-19.8354454771071
 20
-6.16233678437652
 30
0.0
 10
-20.01077555477346
 20
-6.154756581147694
 30
0.0
 10
-20.18595092965715
 20
-6.147176876653645
 30
0.0
 10
-20.36090222242002
 20
-6.139597043211836
 30
0.0
 10
-20.5355601714483
 20
-6.132017250150397
 30
0.0
 10
-20.70985562828385
 20
-6.124437453684151
 30
0.0
 10
-20.87891019499524
 20
-6.11706733829402
 30
0.0
 10
-21.04268697332236
 20
-6.109907571210442
 30
0.0
 10
-21.20115451715158
 20
-6.102959223147422
 30
0.0
 10
-21.35909609404294
 20
-6.096010882852624
 30
0.0
 10
-21.51645918553103
 20
-6.08906255119183
 30
0.0
 10
-21.67319147002915
 20
-6.082114229146668
 30
0.0
 10
-21.83393519029888
 20
-6.074956894959996
 30
0.0
 10
-21.99858672770468
 20
-6.06758932055493
 30
0.0
 10
-22.16703759135533
 20
-6.060009631323623
 30
0.0
 10
-22.3344803795331
 20
-6.052429961341772
 30
0.0
 10
-22.50084886781973
 20
-6.044850312342646
 30
0.0
 10
-22.66607726328329
 20
-6.037270686088675
 30
0.0
 10
-22.83010023042871
 20
-6.029691084233661
 30
0.0
 10
-22.98838588842433
 20
-6.022319543865023
 30
0.0
 10
-23.14094594410516
 20
-6.015158359369138
 30
0.0
 10
-23.28779748665521
 20
-6.008210203538169
 30
0.0
 10
-23.43342960201213
 20
-6.001262070752943
 30
0.0
 10
-23.57779392572779
 20
-5.994313962328874
 30
0.0
 10
-23.72084251935308
 20
-5.987365880160666
 30
0.0
 10
-23.86675542572738
 20
-5.980210512317739
 30
0.0
 10
-24.01539148896055
 20
-5.972845064922921
 30
0.0
 10
-24.16660541782807
 20
-5.965265761247394
 30
0.0
 10
-24.31602090383979
 20
-5.957686505420952
 30
0.0
 10
-24.4635789339913
 20
-5.950107301059688
 30
0.0
 10
-24.60922123640035
 20
-5.942528151898784
 30
0.0
 10
-24.7528903030482
 20
-5.934949061432234
 30
0.0
 10
-24.89067919172443
 20
-5.927576058750616
 30
0.0
 10
-25.0226474833598
 20
-5.920413357743427
 30
0.0
 10
-25.1488597594401
 20
-5.913465683092113
 30
0.0
 10
-25.27323497061384
 20
-5.906518063454257
 30
0.0
 10
-25.39573187829871
 20
-5.899570502017638
 30
0.0
 10
-25.51630987271643
 20
-5.892623003637311
 30
0.0
 10
-25.63843018636572
 20
-5.885470507425793
 30
0.0
 10
-25.76192279398016
 20
-5.878108262624323
 30
0.0
 10
-25.88661448079184
 20
-5.870529889474369
 30
0.0
 10
-26.00882892549275
 20
-5.862951634345222
 30
0.0
 10
-26.12851795103969
 20
-5.855373507710396
 30
0.0
 10
-26.24563438552612
 20
-5.847795520254123
 30
0.0
 10
-26.3601320799964
 20
-5.84021768415539
 30
0.0
 10
-26.46896858145288
 20
-5.83284310773763
 30
0.0
 10
-26.57224774857784
 20
-5.825678665103737
 30
0.0
 10
-26.67007780823813
 20
-5.818732164260723
 30
0.0
 10
-26.765566936917
 20
-5.81178599291934
 30
0.0
 10
-26.85868349090265
 20
-5.804839341051319
 30
0.0
 10
-26.94939690436839
 20
-5.797895177866848
 30
0.0
 10
-27.00906251209696
 20
-5.793196348618437
 30
0.0
 10
-27.03848982675307
 20
-5.790849372242689
 30
0.0
 11
-19.6600352898089
 21
-6.169914950469205
 31
0.0
 11
-19.83547374858956
 21
-6.162333638904499
 31
0.0
 11
-20.01082691302663
 21
-6.154752327339792
 31
0.0
 11
-20.18602534233641
 21
-6.147171015775086
 31
0.0
 11
-20.3609996632775
 21
-6.139589704210379
 31
0.0
 11
-20.53568059762047
 21
-6.13200839264573
 31
0.0
 11
-20.70999898957753
 21
-6.124427081081023
 31
0.0
 11
-20.8838858331812
 21
-6.116845769516316
 31
0.0
 11
-21.04284421505766
 21
-6.109896233915378
 31
0.0
 11
-21.20132927312496
 21
-6.10294669831444
 31
0.0
 11
-21.3592883035782
 21
-6.095997162713501
 31
0.0
 11
-21.51666878202918
 21
-6.08904762711262
 31
0.0
 11
-21.6734183809718
 21
-6.082098091511738
 31
0.0
 11
-21.82948498718038
 21
-6.0751485559108
 31
0.0
 11
-21.99889955902553
 21
-6.06756724434615
 31
0.0
 11
-22.167372556719
 21
-6.059985932781557
 31
0.0
 11
-22.33483734158922
 21
-6.052404621216965
 31
0.0
 11
-22.50122768028048
 21
-6.044823309652372
 31
0.0
 11
-22.66647777094831
 21
-6.037241998087779
 31
0.0
 11
-22.83052226928221
 21
-6.029660686523243
 31
0.0
 11
-22.99329631434416
 21
-6.022079374958593
 31
0.0
 11
-23.14133482727125
 21
-6.015129839357769
 31
0.0
 11
-23.2882025534545
 21
-6.008180303756944
 31
0.0
 11
-23.43385071296997
 21
-6.001230768156119
 31
0.0
 11
-23.57823093579675
 21
-5.994281232555294
 31
0.0
 11
-23.72129527788037
 21
-5.98733169695447
 31
0.0
 11
-23.86299623705368
 21
-5.980382161353645
 31
0.0
 11
-24.0159689016473
 21
-5.972800849789109
 31
0.0
 11
-24.16720261673324
 21
-5.965219538224573
 31
0.0
 11
-24.31663764324294
 21
-5.957638226660094
 31
0.0
 11
-24.46421495987507
 21
-5.950056915095615
 31
0.0
 11
-24.60987628640614
 21
-5.942475603531079
 31
0.0
 11
-24.7535641067063
 21
-5.934894291966656
 31
0.0
 11
-24.89522169144989
 21
-5.92731298040212
 31
0.0
 11
-25.02324319750439
 21
-5.920363444801409
 31
0.0
 11
-25.14946928421132
 21
-5.913413909200585
 31
0.0
 11
-25.27385809280487
 21
-5.906464373599874
 31
0.0
 11
-25.39636837942472
 21
-5.899514837999163
 31
0.0
 11
-25.51695952879113
 21
-5.892565302398395
 31
0.0
 11
-25.63559156766975
 21
-5.885615766797627
 31
0.0
 11
-25.76272779693166
 21
-5.878034455233205
 31
0.0
 11
-25.88743560632805
 21
-5.870453143668783
 31
0.0
 11
-26.00966582469148
 21
-5.86287183210436
 31
0.0
 11
-26.12937026655205
 21
-5.855290520539938
 31
0.0
 11
-26.24650175113222
 21
-5.847709208975516
 31
0.0
 11
-26.36101412094304
 21
-5.84012789741115
 31
0.0
 11
-26.4728622599721
 21
-5.832546585846785
 31
0.0
 11
-26.57301162135566
 21
-5.825597050246074
 31
0.0
 11
-26.67085211611966
 21
-5.818647514645363
 31
0.0
 11
-26.76635137465321
 21
-5.811697979044708
 31
0.0
 11
-26.85947780918333
 21
-5.804748443444054
 31
0.0
 11
-26.95020062422277
 21
-5.797798907843343
 31
0.0
 11
-27.03848982675307
 21
-5.790849372242689
 31
0.0
  0
SPLINE
  5
1C1
330
2
100
AcDbEntity
  8
GAIKEI
  6
Continuous
 62
     1
100
AcDbSpline
210
0.0
220
0.0
230
1.0
 70
     8
 71
     3
 72
    16
 73
    12
 74
    10
 42
0.0000000001
 43
0.0000000001
 44
0.000001
 12
0.846847135539641
 22
-0.5318363742997513
 32
0.0
 13
0.9975201175830006
 23
-0.0703819225170532
 33
0.0
 40
0.0
 40
0.0
 40
0.0
 40
0.0
 40
0.0020390468541652
 40
0.00732063670775
 40
0.0150635724184101
 40
0.0251520501987797
 40
0.0375509936636239
 40
0.0516519408192397
 40
0.0678452521739637
 40
0.0863404634655593
 40
0.1069122161983377
 40
0.1069122161983377
 40
0.1069122161983377
 40
0.1069122161983377
 10
-30.57770686219381
 20
-7.144655774208274
 30
0.0
 10
-30.57713127519792
 20
-7.145017253970252
 30
0.0
 10
-30.57500956234567
 20
-7.146238063556609
 30
0.0
 10
-30.57017813327743
 20
-7.14773800728625
 30
0.0
 10
-30.56268893962759
 20
-7.149500145330591
 30
0.0
 10
-30.5527508950139
 20
-7.151226275344299
 30
0.0
 10
-30.54067557564181
 20
-7.152929569133164
 30
0.0
 10
-30.52653897120631
 20
-7.154582408079704
 30
0.0
 10
-30.51035625394944
 20
-7.156200835083268
 30
0.0
 10
-30.49200395972499
 20
-7.157785341285773
 30
0.0
 10
-30.47901933693847
 20
-7.158778856983417
 30
0.0
 10
-30.4721790912035
 20
-7.159261483485693
 30
0.0
 11
-30.57770686219381
 21
-7.144655774208274
 31
0.0
 11
-30.57593120187069
 21
-7.145658353957799
 31
0.0
 11
-30.57096004792369
 21
-7.147442069251269
 31
0.0
 11
-30.56343264243806
 21
-7.149256070243268
 31
0.0
 11
-30.55350419241661
 21
-7.151045712175573
 31
0.0
 11
-30.54123056035912
 21
-7.152803951156556
 31
0.0
 11
-30.52722769228622
 21
-7.154464108864885
 31
0.0
 11
-30.51111617437455
 21
-7.156089555834284
 31
0.0
 11
-30.4926909110854
 21
-7.15769648716548
 31
0.0
 11
-30.4721790912035
 21
-7.159261483485693
 31
0.0
  0
SPLINE
  5
1C2
330
2
100
AcDbEntity
  8
GAIKEI
  6
Continuous
 62
     1
100
AcDbSpline
210
0.0
220
0.0
230
1.0
 70
     8
 71
     3
 72
    16
 73
    12
 74
    10
 42
0.0000000001
 43
0.0000000001
 44
0.000001
 12
-0.8468471355437145
 22
-0.5318363742932651
 32
0.0
 13
-0.9975201175830211
 23
-0.0703819225167654
 33
0.0
 40
0.0
 40
0.0
 40
0.0
 40
0.0
 40
0.002039046854546
 40
0.0073206367082721
 40
0.015063572419098
 40
0.0251520501998133
 40
0.037550993664762
 40
0.0516519408203214
 40
0.0678452521747569
 40
0.0863404634659611
 40
0.106912216198334
 40
0.106912216198334
 40
0.106912216198334
 40
0.106912216198334
 10
-8.742363720942151
 20
-7.144655774208274
 30
0.0
 10
-8.742939307938158
 20
-7.145017253970308
 30
0.0
 10
-8.745061020790565
 20
-7.146238063556722
 30
0.0
 10
-8.749892449859046
 20
-7.14773800728625
 30
0.0
 10
-8.757381643509113
 20
-7.149500145330762
 30
0.0
 10
-8.767319688123023
 20
-7.151226275344583
 30
0.0
 10
-8.779395007495224
 20
-7.15292956913322
 30
0.0
 10
-8.793531611930653
 20
-7.154582408079932
 30
0.0
 10
-8.809714329187279
 20
-7.156200835083211
 30
0.0
 10
-8.828066623411366
 20
-7.157785341286057
 30
0.0
 10
-8.841051246197629
 20
-7.158778856983417
 30
0.0
 10
-8.847891491932458
 20
-7.159261483485693
 30
0.0
 11
-8.742363720942151
 21
-7.144655774208274
 31
0.0
 11
-8.744139381265611
 21
-7.145658353957969
 31
0.0
 11
-8.749110535212778
 21
-7.147442069251383
 31
0.0
 11
-8.756637940698581
 21
-7.149256070243382
 31
0.0
 11
-8.76656639072037
 21
-7.151045712175744
 31
0.0
 11
-8.77884002277797
 21
-7.15280395115667
 31
0.0
 11
-8.79284289085082
 21
-7.154464108864999
 31
0.0
 11
-8.808954408762204
 21
-7.156089555834341
 31
0.0
 11
-8.827379672050952
 21
-7.157696487165594
 31
0.0
 11
-8.847891491932458
 21
-7.159261483485693
 31
0.0
  0
SPLINE
  5
1C3
330
2
100
AcDbEntity
  8
GAIKEI
  6
Continuous
 62
     1
100
AcDbSpline
210
0.0
220
0.0
230
1.0
 70
     8
 71
     3
 72
    13
 73
     9
 74
     7
 42
0.0000000001
 43
0.0000000001
 44
0.000001
 12
0.027372054828509
 22
-0.9996253151128502
 32
0.0
 13
0.5639451705954599
 23
-0.8258122332358958
 33
0.0
 40
0.0
 40
0.0
 40
0.0
 40
0.0
 40
0.0201988042453599
 40
0.040738777488443
 40
0.0615680704069777
 40
0.0829297721069791
 40
0.1113175574376786
 40
0.1409811927843299
 40
0.1409811927843299
 40
0.1409811927843299
 40
0.1409811927843299
 10
-27.14621172230308
 20
-7.089551627473611
 30
0.0
 10
-27.14602742804399
 20
-7.096282039493189
 30
0.0
 10
-27.14503726124482
 20
-7.109848655511314
 30
0.0
 10
-27.14161826690675
 20
-7.130113065162902
 30
0.0
 10
-27.1362969318187
 20
-7.150363207946725
 30
0.0
 10
-27.12834806859974
 20
-7.172536580066264
 30
0.0
 10
-27.11700406489641
 20
-7.196507647414478
 30
0.0
 10
-27.10694629603793
 20
-7.213088120644499
 30
0.0
 10
-27.10137007473925
 20
-7.22125365162833
 30
0.0
 11
-27.14621172230308
 21
-7.089551627473611
 31
0.0
 11
-27.14473342043006
 21
-7.109697021130273
 31
0.0
 11
-27.14133594927059
 21
-7.129954220066338
 31
0.0
 11
-27.13605647437591
 21
-7.150103425217992
 31
0.0
 11
-27.12886216604643
 21
-7.170217299548426
 31
0.0
 11
-27.11676359269434
 21
-7.195897945734714
 31
0.0
 11
-27.10137007473925
 21
-7.22125365162833
 31
0.0
  0
SPLINE
  5
1C4
330
2
100
AcDbEntity
  8
GAIKEI
  6
Continuous
 62
     1
100
AcDbSpline
210
0.0
220
0.0
230
1.0
 70
     8
 71
     3
 72
    13
 73
     9
 74
     7
 42
0.0000000001
 43
0.0000000001
 44
0.000001
 12
-0.027372054828509
 22
-0.9996253151128502
 32
0.0
 13
-0.5639451705954599
 23
-0.8258122332358958
 33
0.0
 40
0.0
 40
0.0
 40
0.0
 40
0.0
 40
0.0201988042453599
 40
0.040738777488443
 40
0.0615680704069777
 40
0.0829297721069791
 40
0.1113175574376786
 40
0.1409811927843299
 40
0.1409811927843299
 40
0.1409811927843299
 40
0.1409811927843299
 10
-12.17385825298483
 20
-7.089551627473611
 30
0.0
 10
-12.17404254724392
 20
-7.096282039493189
 30
0.0
 10
-12.17503271404311
 20
-7.109848655511314
 30
0.0
 10
-12.17845170838115
 20
-7.130113065162902
 30
0.0
 10
-12.18377304346922
 20
-7.150363207946725
 30
0.0
 10
-12.19172190668817
 20
-7.172536580066264
 30
0.0
 10
-12.20306591039148
 20
-7.196507647414478
 30
0.0
 10
-12.21312367924997
 20
-7.213088120644499
 30
0.0
 10
-12.21869990054865
 20
-7.22125365162833
 30
0.0
 11
-12.17385825298483
 21
-7.089551627473611
 31
0.0
 11
-12.17533655485785
 21
-7.109697021130273
 31
0.0
 11
-12.17873402601732
 21
-7.129954220066338
 31
0.0
 11
-12.184013500912
 21
-7.150103425217992
 31
0.0
 11
-12.19120780924147
 21
-7.170217299548426
 31
0.0
 11
-12.20330638259357
 21
-7.195897945734714
 31
0.0
 11
-12.21869990054865
 21
-7.22125365162833
 31
0.0
  0
ARC
  5
1C5
330
2
100
AcDbEntity
  8
GAIKEI
  6
Continuous
 62
     1
100
AcDbCircle
 10
-18.81124938764397
 20
-2.741708806201245
 30
0.0
 40
7.9704473
100
AcDbArc
 50
324.6869790507635
 51
325.8044420000107
  0
LINE
  5
1C6
330
2
100
AcDbEntity
  8
GAIKEI
  6
Continuous
 62
     7
100
AcDbLine
 10
-12.25058888764393
 20
-5.613232556201239
 30
0.0
 11
-12.17321978764393
 21
-7.089523206201249
 31
0.0
  0
LINE
  5
1C7
330
2
100
AcDbEntity
  8
GAIKEI
  6
Continuous
 62
     1
100
AcDbLine
 10
-12.23676378764396
 20
-7.24772365620123
 30
0.0
 11
-12.23662078764393
 21
-7.253521956201211
 31
0.0
  0
LINE
  5
1C8
330
2
100
AcDbEntity
  8
GAIKEI
  6
Continuous
 62
     1
100
AcDbLine
 10
47.57120160056245
 20
-8.45815860634218
 30
0.0
 11
47.57120160056245
 21
-8.543154056342189
 31
0.0
  0
LINE
  5
1C9
330
2
100
AcDbEntity
  8
GAIKEI
  6
Continuous
 62
     1
100
AcDbLine
 10
45.90110070056248
 20
-8.45815860634218
 30
0.0
 11
45.90110070056248
 21
-8.543154056342189
 31
0.0
  0
LINE
  5
1CA
330
2
100
AcDbEntity
  8
GAIKEI
  6
Continuous
 62
     1
100
AcDbLine
 10
42.90110070056248
 20
-8.45815860634218
 30
0.0
 11
42.90110070056248
 21
-8.543154056342189
 31
0.0
  0
LINE
  5
1CB
330
2
100
AcDbEntity
  8
GAIKEI
  6
Continuous
 62
     1
100
AcDbLine
 10
42.90110070056248
 20
-8.543154056342189
 30
0.0
 11
47.57120160056245
 21
-8.543154056342189
 31
0.0
  0
LINE
  5
1CC
330
2
100
AcDbEntity
  8
GAIKEI
  6
Continuous
 62
     1
100
AcDbLine
 10
31.61596160056244
 20
-8.543154056342189
 30
0.0
 11
34.66340175056244
 21
-8.543154056342189
 31
0.0
  0
LINE
  5
1CD
330
2
100
AcDbEntity
  8
GAIKEI
  6
Continuous
 62
     1
100
AcDbLine
 10
31.61596160056244
 20
-8.45815860634218
 30
0.0
 11
31.61596160056244
 21
-8.543154056342189
 31
0.0
  0
LINE
  5
1CE
330
2
100
AcDbEntity
  8
GAIKEI
  6
Continuous
 62
     1
100
AcDbLine
 10
34.66340175056244
 20
-8.45815860634218
 30
0.0
 11
34.66340175056244
 21
-8.543154056342189
 31
0.0
  0
LINE
  5
1CF
330
2
100
AcDbEntity
  8
GAIKEI
  6
Continuous
 62
     1
100
AcDbLine
 10
41.18297220056244
 20
-4.383340106342188
 30
0.0
 11
41.18190195056245
 21
-4.444654456342163
 31
0.0
  0
ELLIPSE
  5
1D0
330
2
100
AcDbEntity
  8
GAIKEI
  6
Continuous
 62
     1
100
AcDbEllipse
 10
41.18102935056247
 20
-4.444654456342163
 30
0.0
 11
0.0026167978121473
 21
-0.0499314767377287
 31
0.0
210
0.0
220
0.0
230
1.0
 40
0.017428
 41
0.0
 42
1.569882938288277
  0
LINE
  5
1D1
330
2
100
AcDbEntity
  8
GAIKEI
  6
Continuous
 62
     7
100
AcDbLine
 10
31.41593025056248
 20
-8.408159506342201
 30
0.0
 11
47.7659294505625
 21
-8.408159506342201
 31
0.0
  0
LINE
  5
1D2
330
2
100
AcDbEntity
  8
GAIKEI
  6
Continuous
 62
     7
100
AcDbLine
 10
33.91417730056246
 20
-7.508122206342193
 30
0.0
 11
35.22518030056249
 21
-7.451794706342184
 31
0.0
  0
LINE
  5
1D3
330
2
100
AcDbEntity
  8
GAIKEI
  6
Continuous
 62
     7
100
AcDbLine
 10
35.22518030056249
 20
-7.451794706342184
 30
0.0
 11
42.21831330056248
 21
-7.151571656342184
 31
0.0
  0
LINE
  5
1D4
330
2
100
AcDbEntity
  8
GAIKEI
  6
Continuous
 62
     1
100
AcDbLine
 10
46.16078145056245
 20
-8.458159506342212
 30
0.0
 11
43.46004310056246
 21
-8.458159506342212
 31
0.0
  0
LINE
  5
1D5
330
2
100
AcDbEntity
  8
GAIKEI
  6
Continuous
 62
     1
100
AcDbLine
 10
43.46004310056246
 20
-8.458159506342212
 30
0.0
 11
33.20445680056245
 21
-8.458159506342212
 31
0.0
  0
LINE
  5
1D6
330
2
100
AcDbEntity
  8
GAIKEI
  6
Continuous
 62
     7
100
AcDbLine
 10
47.7659296005625
 20
-8.408162006342195
 30
0.0
 11
47.74744760056243
 21
-8.055504906342207
 31
0.0
  0
LINE
  5
1D7
330
2
100
AcDbEntity
  8
GAIKEI
  6
Continuous
 62
     7
100
AcDbLine
 10
47.74744760056243
 20
-8.055504906342207
 30
0.0
 11
47.74742390056245
 21
-8.055052506342235
 31
0.0
  0
LINE
  5
1D8
330
2
100
AcDbEntity
  8
GAIKEI
  6
Continuous
 62
     1
100
AcDbLine
 10
47.71767710056245
 20
-8.458159506342212
 30
0.0
 11
46.16078145056245
 21
-8.458159506342212
 31
0.0
  0
LINE
  5
1D9
330
2
100
AcDbEntity
  8
GAIKEI
  6
Continuous
 62
     1
100
AcDbLine
 10
47.71767710056245
 20
-8.458159506342212
 30
0.0
 11
47.7185498505625
 21
-8.408159506342201
 31
0.0
  0
LINE
  5
1DA
330
2
100
AcDbEntity
  8
GAIKEI
  6
Continuous
 62
     1
100
AcDbLine
 10
44.05012331998986
 20
-5.558159506342235
 30
0.0
 11
44.11501030056244
 21
-7.125744706342175
 31
0.0
  0
LINE
  5
1DB
330
2
100
AcDbEntity
  8
GAIKEI
  6
Continuous
 62
     1
100
AcDbLine
 10
43.68862860056246
 20
-7.088412406342172
 30
0.0
 11
43.72587105056247
 21
-5.783159506342201
 31
0.0
  0
LINE
  5
1DC
330
2
100
AcDbEntity
  8
GAIKEI
  6
Continuous
 62
     1
100
AcDbLine
 10
43.73346179997613
 20
-5.558159506342235
 30
0.0
 11
43.72587105056247
 21
-5.783159506342201
 31
0.0
  0
LINE
  5
1DD
330
2
100
AcDbEntity
  8
GAIKEI
  6
Continuous
 62
     7
100
AcDbLine
 10
39.69868400056247
 20
-6.162225106342191
 30
0.0
 11
39.64103075056248
 21
-7.262314506342192
 31
0.0
  0
LINE
  5
1DE
330
2
100
AcDbEntity
  8
GAIKEI
  6
Continuous
 62
     1
100
AcDbLine
 10
43.72587115056243
 20
-5.783159506342201
 30
0.0
 11
43.71618950056249
 21
-5.783658856342185
 31
0.0
  0
LINE
  5
1DF
330
2
100
AcDbEntity
  8
GAIKEI
  6
Continuous
 62
     7
100
AcDbLine
 10
40.72785962676343
 20
-5.605542356464866
 30
0.0
 11
40.71854985056249
 21
-5.783159506342201
 31
0.0
  0
LINE
  5
1E0
330
2
100
AcDbEntity
  8
GAIKEI
  6
Continuous
 62
     1
100
AcDbLine
 10
39.69912115056245
 20
-6.159197306342207
 30
0.0
 11
39.69868400056247
 21
-6.162225106342191
 31
0.0
  0
LINE
  5
1E1
330
2
100
AcDbEntity
  8
GAIKEI
  6
Continuous
 62
     7
100
AcDbLine
 10
43.72587105056247
 20
-5.783159506342201
 30
0.0
 11
40.09092845056248
 21
-5.783159506342201
 31
0.0
  0
LINE
  5
1E2
330
2
100
AcDbEntity
  8
GAIKEI
  6
Continuous
 62
     7
100
AcDbLine
 10
46.66421850056245
 20
-7.60862805634224
 30
0.0
 11
46.55924135056248
 21
-5.605542706342191
 31
0.0
  0
LINE
  5
1E3
330
2
100
AcDbEntity
  8
GAIKEI
  6
Continuous
 62
     7
100
AcDbLine
 10
31.43410090056248
 20
-8.06144195634215
 30
0.0
 11
31.41593025056248
 21
-8.408159506342201
 31
0.0
  0
LINE
  5
1E4
330
2
100
AcDbEntity
  8
GAIKEI
  6
Continuous
 62
     7
100
AcDbLine
 10
31.48827405056248
 20
-7.993287156342205
 30
0.0
 11
31.48953465056245
 21
-7.993280856342153
 31
0.0
  0
LINE
  5
1E5
330
2
100
AcDbEntity
  8
GAIKEI
  6
Continuous
 62
     1
100
AcDbLine
 10
31.46330985056248
 20
-8.408159506342201
 30
0.0
 11
31.46418260056247
 21
-8.458159506342212
 31
0.0
  0
LINE
  5
1E6
330
2
100
AcDbEntity
  8
GAIKEI
  6
Continuous
 62
     1
100
AcDbLine
 10
33.20445680056245
 20
-8.458159506342212
 30
0.0
 11
31.46418260056247
 21
-8.458159506342212
 31
0.0
  0
LINE
  5
1E7
330
2
100
AcDbEntity
  8
GAIKEI
  6
Continuous
 62
     7
100
AcDbLine
 10
33.9114110005625
 20
-7.508378806342193
 30
0.0
 11
33.82934860056245
 21
-7.518090856342155
 31
0.0
  0
LINE
  5
1E8
330
2
100
AcDbEntity
  8
GAIKEI
  6
Continuous
 62
     7
100
AcDbLine
 10
40.08976160056248
 20
-5.783159506342201
 30
0.0
 11
40.08952655056247
 21
-5.783159506342201
 31
0.0
  0
ARC
  5
1E9
330
2
100
AcDbEntity
  8
GAIKEI
  6
Continuous
 62
     1
100
AcDbCircle
 10
51.71336374291427
 20
-25831.71693843336
 30
0.0
 40
25823.66365687701
100
AcDbArc
 50
90.01833963584077
 51
90.0411210037549
  0
ARC
  5
1EA
330
2
100
AcDbEntity
  8
GAIKEI
  6
Continuous
 62
     1
100
AcDbCircle
 10
35.01141725056247
 20
-4975.727425106342
 30
0.0
 40
4967.73539265
100
AcDbArc
 50
90.02062899999971
 51
90.04062000001299
  0
ARC
  5
1EB
330
2
100
AcDbEntity
  8
GAIKEI
  6
Continuous
 62
     1
100
AcDbCircle
 10
45.58373275056247
 20
1901.167936643657
 30
0.0
 40
1909.15915585
100
AcDbArc
 50
270.016738000005
 51
270.0635419999989
  0
ARC
  5
1EC
330
2
100
AcDbEntity
  8
GAIKEI
  6
Continuous
 62
     1
100
AcDbCircle
 10
52.02065764385837
 20
-49923.54292159479
 30
0.0
 40
49915.55410673845
100
AcDbArc
 50
90.00981797549686
 51
90.02157695766809
  0
ARC
  5
1ED
330
2
100
AcDbEntity
  8
GAIKEI
  6
Continuous
 62
     7
100
AcDbCircle
 10
-144.3313970994375
 20
4349.722223293659
 30
0.0
 40
4360.86574655
100
AcDbArc
 50
272.4517550000121
 51
272.4664899999905
  0
ARC
  5
1EE
330
2
100
AcDbEntity
  8
GAIKEI
  6
Continuous
 62
     7
100
AcDbCircle
 10
411.6714574505626
 20
-8570.890235806343
 30
0.0
 40
8571.704208699999
100
AcDbArc
 50
92.45943599998796
 51
92.46280200000512
  0
ARC
  5
1EF
330
2
100
AcDbEntity
  8
GAIKEI
  6
Continuous
 62
     7
100
AcDbCircle
 10
42.00552160056246
 20
-21.87314000634217
 30
0.0
 40
15.00599075
100
AcDbArc
 50
69.52202899999334
 51
71.91329799998858
  0
ARC
  5
1F0
330
2
100
AcDbEntity
  8
GAIKEI
  6
Continuous
 62
     1
100
AcDbCircle
 10
44.64034045056244
 20
1548.223713043658
 30
0.0
 40
1556.2823196
100
AcDbArc
 50
270.0570450000015
 51
270.1143910000083
  0
ARC
  5
1F1
330
2
100
AcDbEntity
  8
GAIKEI
  6
Continuous
 62
     7
100
AcDbCircle
 10
47.67255040056248
 20
-8.059430106342233
 30
0.0
 40
0.075
100
AcDbArc
 50
3.000002000000518
 51
67.68834699999946
  0
ARC
  5
1F2
330
2
100
AcDbEntity
  8
GAIKEI
  6
Continuous
 62
     1
100
AcDbCircle
 10
40.09813565056247
 20
-6.183159506342235
 30
0.0
 40
0.4
100
AcDbArc
 50
175.1237199999948
 51
176.7800380000024
  0
ARC
  5
1F3
330
2
100
AcDbEntity
  8
GAIKEI
  6
Continuous
 62
     1
100
AcDbCircle
 10
40.09813565056247
 20
-6.183159506342235
 30
0.0
 40
0.4
100
AcDbArc
 50
176.7800380000024
 51
176.9999999999944
  0
ARC
  5
1F4
330
2
100
AcDbEntity
  8
GAIKEI
  6
Continuous
 62
     7
100
AcDbCircle
 10
46.50930985056247
 20
-5.60815950634219
 30
0.0
 40
0.05
100
AcDbArc
 50
3.000000000005599
 51
90.0
  0
ARC
  5
1F5
330
2
100
AcDbEntity
  8
GAIKEI
  6
Continuous
 62
     1
100
AcDbCircle
 10
35.06695210056243
 20
-3199.580573256342
 30
0.0
 40
3191.5211989
100
AcDbArc
 50
90.03388100001188
 51
90.06521899999134
  0
ARC
  5
1F6
330
2
100
AcDbEntity
  8
GAIKEI
  6
Continuous
 62
     7
100
AcDbCircle
 10
31.50899860056249
 20
-8.065367706342158
 30
0.0
 40
0.07500075
100
AcDbArc
 50
106.0409520000038
 51
125.8179270000061
  0
ARC
  5
1F7
330
2
100
AcDbEntity
  8
GAIKEI
  6
Continuous
 62
     7
100
AcDbCircle
 10
31.50899815056248
 20
-8.065367156342176
 30
0.0
 40
0.075
100
AcDbArc
 50
125.8333480000042
 51
127.2449389999957
  0
ARC
  5
1F8
330
2
100
AcDbEntity
  8
GAIKEI
  6
Continuous
 62
     7
100
AcDbCircle
 10
31.50899815056248
 20
-8.065367156342176
 30
0.0
 40
0.075
100
AcDbArc
 50
106.0408240000079
 51
117.7383060000029
  0
ARC
  5
1F9
330
2
100
AcDbEntity
  8
GAIKEI
  6
Continuous
 62
     7
100
AcDbCircle
 10
31.50899815056248
 20
-8.065367156342176
 30
0.0
 40
0.075
100
AcDbArc
 50
120.6622640000086
 51
125.8333480000042
  0
ARC
  5
1FA
330
2
100
AcDbEntity
  8
GAIKEI
  6
Continuous
 62
     7
100
AcDbCircle
 10
39.94767080056248
 20
-27.23418200634217
 30
0.0
 40
20.74830165
100
AcDbArc
 50
68.71392599999153
 51
69.0164889999896
  0
ARC
  5
1FB
330
2
100
AcDbEntity
  8
GAIKEI
  6
Continuous
 62
     7
100
AcDbCircle
 10
31.50899815056248
 20
-8.065367156342176
 30
0.0
 40
0.075
100
AcDbArc
 50
127.2449389999957
 51
177.0000019999893
  0
LINE
  5
1FC
330
2
100
AcDbEntity
  8
GAIKEI
  6
Continuous
 62
     7
100
AcDbLine
 10
40.60592945056247
 20
-4.771036906342146
 30
0.0
 11
40.60592945056247
 21
-5.143159506342158
 31
0.0
  0
LINE
  5
1FD
330
2
100
AcDbEntity
  8
GAIKEI
  6
Continuous
 62
     7
100
AcDbLine
 10
40.60592945056247
 20
-5.143159506342158
 30
0.0
 11
40.60707925056248
 21
-5.209032156342232
 31
0.0
  0
LINE
  5
1FE
330
2
100
AcDbEntity
  8
GAIKEI
  6
Continuous
 62
     7
100
AcDbLine
 10
40.60592945056247
 20
-4.524862756342201
 30
0.0
 11
40.60592945056247
 21
-4.768545306342161
 31
0.0
  0
LINE
  5
1FF
330
2
100
AcDbEntity
  8
GAIKEI
  6
Continuous
 62
     7
100
AcDbLine
 10
40.72678592318585
 20
-5.307228022385515
 30
0.0
 11
40.72899930056244
 21
-5.434032156342198
 31
0.0
  0
LINE
  5
200
330
2
100
AcDbEntity
  8
GAIKEI
  6
Continuous
 62
     7
100
AcDbLine
 10
42.87723840056246
 20
-4.787419606342155
 30
0.0
 11
41.89678042804996
 21
-4.770305644476934
 31
0.0
  0
LINE
  5
201
330
2
100
AcDbEntity
  8
GAIKEI
  6
Continuous
 62
     7
100
AcDbLine
 10
40.80835875056247
 20
-5.48315950634219
 30
0.0
 11
41.20092945056244
 21
-5.483159506342133
 31
0.0
  0
LINE
  5
202
330
2
100
AcDbEntity
  8
GAIKEI
  6
Continuous
 62
     7
100
AcDbLine
 10
40.80835875056247
 20
-5.48315950634219
 30
0.0
 11
40.77899170056245
 21
-5.48315950634219
 31
0.0
  0
LINE
  5
203
330
2
100
AcDbEntity
  8
GAIKEI
  6
Continuous
 62
     7
100
AcDbLine
 10
42.95092945056242
 20
-5.558159506342292
 30
0.0
 11
42.95092945056244
 21
-4.837840756342188
 31
0.0
  0
LINE
  5
204
330
2
100
AcDbEntity
  8
GAIKEI
  6
Continuous
 62
     7
100
AcDbLine
 10
42.90180205056246
 20
-4.787848356342237
 30
0.0
 11
42.87723840056246
 21
-4.787419606342155
 31
0.0
  0
LINE
  5
205
330
2
100
AcDbEntity
  8
GAIKEI
  6
Continuous
 62
     1
100
AcDbLine
 10
41.20434505056247
 20
-4.513003906342191
 30
0.0
 11
41.20433475056249
 21
-4.493501706342158
 31
0.0
  0
LINE
  5
206
330
2
100
AcDbEntity
  8
GAIKEI
  6
Continuous
 62
     7
100
AcDbLine
 10
40.60802725056247
 20
-5.209112056342178
 30
0.0
 11
40.60707925056248
 21
-5.209032156342232
 31
0.0
  0
LINE
  5
207
330
2
100
AcDbEntity
  8
GAIKEI
  6
Continuous
 62
     7
100
AcDbLine
 10
40.67679460056244
 20
-5.258159506342167
 30
0.0
 11
40.65707165056248
 21
-5.258159506342167
 31
0.0
  0
LINE
  5
208
330
2
100
AcDbEntity
  8
GAIKEI
  6
Continuous
 62
     7
100
AcDbLine
 10
40.60592945056247
 20
-4.770760056342169
 30
0.0
 11
40.60592945056247
 21
-4.768545256342235
 31
0.0
  0
LINE
  5
209
330
2
100
AcDbEntity
  8
GAIKEI
  6
Continuous
 62
     7
100
AcDbLine
 10
41.65098995464261
 20
-4.525839813182017
 30
0.0
 11
41.65098995464261
 21
-4.472762429140232
 31
0.0
  0
ARC
  5
20A
330
2
100
AcDbEntity
  8
GAIKEI
  6
Continuous
 62
     7
100
AcDbCircle
 10
40.77899170056245
 20
-5.433159506342235
 30
0.0
 40
0.05
100
AcDbArc
 50
181.0000000000017
 51
270.0
  0
ARC
  5
20B
330
2
100
AcDbEntity
  8
GAIKEI
  6
Continuous
 62
     7
100
AcDbCircle
 10
42.90092945056248
 20
-4.837840756342188
 30
0.0
 40
0.05
100
AcDbArc
 50
77.54762100000601
 51
88.99999999999826
  0
ARC
  5
20C
330
2
100
AcDbEntity
  8
GAIKEI
  6
Continuous
 62
     7
100
AcDbCircle
 10
40.67679460056244
 20
-5.308159506342235
 30
0.0
 40
0.05
100
AcDbArc
 50
1.000000000001775
 51
90.0
  0
ARC
  5
20D
330
2
100
AcDbEntity
  8
GAIKEI
  6
Continuous
 62
     7
100
AcDbCircle
 10
41.90092945056249
 20
-4.520339956342183
 30
0.0
 40
0.25
100
AcDbArc
 50
266.3658909999985
 51
268.9999999999983
  0
ELLIPSE
  5
20E
330
2
100
AcDbEntity
  8
GAIKEI
  6
Continuous
 62
     7
100
AcDbEllipse
 10
40.65592945056248
 20
-4.771036906342146
 30
0.0
 11
0.05
 21
0.0
 31
0.0
210
0.0
220
0.0
230
1.0
 40
0.980911
 41
3.037361646230472
 42
3.141592653589792
  0
ELLIPSE
  5
20F
330
2
100
AcDbEntity
  8
GAIKEI
  6
Continuous
 62
     7
100
AcDbEllipse
 10
40.35707600056245
 20
-4.744629456342181
 30
0.0
 11
-0.2488534375446101
 21
0.0239158236787032
 31
0.0
210
0.0
220
0.0
230
1.0
 40
0.7971729999999999
 41
3.152374835161784
 42
3.260011954860289
  0
ELLIPSE
  5
210
330
2
100
AcDbEntity
  8
GAIKEI
  6
Continuous
 62
     7
100
AcDbEllipse
 10
40.65592945056248
 20
-4.770760056342169
 30
0.0
 11
0.05
 21
0.0000000000000001
 31
0.0
210
0.0
220
0.0
230
1.0
 40
0.9972190000000001
 41
3.054136244002213
 42
3.141592653589792
  0
LINE
  5
211
330
2
100
AcDbEntity
  8
GAIKEI
  6
Continuous
 62
     7
100
AcDbLine
 10
40.60707925056248
 20
-5.209032156342232
 30
0.0
 11
40.60709465056247
 21
-5.209053106342196
 31
0.0
  0
ARC
  5
212
330
2
100
AcDbEntity
  8
GAIKEI
  6
Continuous
 62
     7
100
AcDbCircle
 10
42.90092945056248
 20
-4.837840756342188
 30
0.0
 40
0.05
100
AcDbArc
 50
76.5116429999918
 51
77.54762100000601
  0
ARC
  5
213
330
2
100
AcDbEntity
  8
GAIKEI
  6
Continuous
 62
     7
100
AcDbCircle
 10
42.90040225056246
 20
-4.837816856342215
 30
0.0
 40
0.0501562
100
AcDbArc
 50
359.9751490000079
 51
35.43354499999344
  0
LINE
  5
214
330
2
100
AcDbEntity
  8
GAIKEI
  6
Continuous
 62
     1
100
AcDbLine
 10
41.20092945056244
 20
-5.483159506342133
 30
0.0
 11
41.20092945056244
 21
-5.558159506342235
 31
0.0
  0
LINE
  5
215
330
2
100
AcDbEntity
  8
GAIKEI
  6
Continuous
 62
     1
100
AcDbLine
 10
43.39731850056248
 20
-5.258159506342167
 30
0.0
 11
43.39731850056248
 21
-5.558159506342235
 31
0.0
  0
LINE
  5
216
330
2
100
AcDbEntity
  8
GAIKEI
  6
Continuous
 62
     1
100
AcDbLine
 10
44.50328865056245
 20
-5.258159506342167
 30
0.0
 11
44.50328865056245
 21
-5.558159506342235
 31
0.0
  0
LINE
  5
217
330
2
100
AcDbEntity
  8
GAIKEI
  6
Continuous
 62
     7
100
AcDbLine
 10
46.50930985056247
 20
-5.558159506342235
 30
0.0
 11
40.77779108504896
 21
-5.558159506342235
 31
0.0
  0
LINE
  5
218
330
2
100
AcDbEntity
  8
GAIKEI
  6
Continuous
 62
     7
100
AcDbLine
 10
45.45092945056244
 20
-5.258159506342167
 30
0.0
 11
45.45092945056244
 21
-5.558159506342235
 31
0.0
  0
LINE
  5
219
330
2
100
AcDbEntity
  8
GAIKEI
  6
Continuous
 62
     7
100
AcDbLine
 10
45.45092945056244
 20
-5.258159506342167
 30
0.0
 11
42.95092945056242
 21
-5.258159506342224
 31
0.0
  0
SPLINE
  5
21A
330
2
100
AcDbEntity
  8
GAIKEI
  6
Continuous
 62
     1
100
AcDbSpline
210
0.0
220
0.0
230
1.0
 70
     8
 71
     3
 72
    82
 73
    78
 74
    76
 42
0.0000000001
 43
0.0000000001
 44
0.000001
 12
-0.9995741508772198
 22
-0.0291807624657947
 32
0.0
 13
-0.9999622455141839
 23
0.0086895078244443
 33
0.0
 40
0.0
 40
0.0
 40
0.0
 40
0.0
 40
0.0156970871674594
 40
0.0338358434209383
 40
0.0545721643883805
 40
0.0780611155210447
 40
0.1044560385481389
 40
0.1339075760106851
 40
0.1611166113097521
 40
0.1906705507151967
 40
0.2226508729752282
 40
0.2571355611223686
 40
0.2896125049030233
 40
0.32413354850799
 40
0.3335181551442334
 40
0.3430467888570694
 40
0.3527201906839756
 40
0.3625390845064829
 40
0.3725041766146582
 40
0.3826161552677065
 40
0.4337481896043919
 40
0.4878330654657048
 40
0.5448539663270146
 40
0.5840840588051625
 40
0.6245725977239366
 40
0.6326726376323205
 40
0.640820709158037
 40
0.6490167156797578
 40
0.6572605578331345
 40
0.6655521334983062
 40
0.6738913377875774
 40
0.68227806303301
 40
0.6907121987739871
 40
0.7205887716124251
 40
0.7531096028392762
 40
0.788361649701387
 40
0.8264323485262224
 40
0.8674084468829608
 40
0.9105629194391195
 40
0.9566789484765301
 40
1.005829265586074
 40
1.058080674587897
 40
1.112225345201811
 40
1.164533141258724
 40
1.214865268311046
 40
1.263099149587115
 40
1.309127171564652
 40
1.333957195635447
 40
1.358047799768175
 40
1.3813853218999
 40
1.403957208504988
 40
1.425751950833737
 40
1.446759022676508
 40
1.466968819777724
 40
1.519862750444704
 40
1.575208167402992
 40
1.632995324160089
 40
1.69320461082103
 40
1.725699668343676
 40
1.758845424487928
 40
1.792635235564809
 40
1.827061457148159
 40
1.862115398324028
 40
1.897787275764293
 40
1.970298722078834
 40
2.041150693785629
 40
2.110259354769546
 40
2.177552834899325
 40
2.242970606635313
 40
2.306462849037341
 40
2.367989804220489
 40
2.437247362096569
 40
2.503755823150162
 40
2.567496871227422
 40
2.628465697017552
 40
2.686669667056508
 40
2.742127049182805
 40
2.742127049182805
 40
2.742127049182805
 40
2.742127049182805
 10
46.18981862786329
 20
-8.057835202814089
 30
0.0
 10
46.18458849367107
 20
-8.057987887138096
 30
0.0
 10
46.17331397184244
 20
-8.058293804700269
 30
0.0
 10
46.15512734524012
 20
-8.05868323660627
 30
0.0
 10
46.1343425846644
 20
-8.059052521169576
 30
0.0
 10
46.11080498626619
 20
-8.05939569585314
 30
0.0
 10
46.08436175032025
 20
-8.059714577432373
 30
0.0
 10
46.05667794197578
 20
-8.059990427343564
 30
0.0
 10
46.02794077234004
 20
-8.060231248766285
 30
0.0
 10
45.99836041614977
 20
-8.060441859768957
 30
0.0
 10
45.96635467610511
 20
-8.060634866051486
 30
0.0
 10
45.93337444625288
 20
-8.060802481448718
 30
0.0
 10
45.89954719893326
 20
-8.060948157205359
 30
0.0
 10
45.87408650258931
 20
-8.061041237286474
 30
0.0
 10
45.85627517137297
 20
-8.061099954218548
 30
0.0
 10
45.84674633782113
 20
-8.061129951108398
 30
0.0
 10
45.83707273830746
 20
-8.061159007385299
 30
0.0
 10
45.82725364928527
 20
-8.06118712624891
 30
0.0
 10
45.8172883647578
 20
-8.061214294063461
 30
0.0
 10
45.79355207644961
 20
-8.061275955658288
 30
0.0
 10
45.75510920003476
 20
-8.061359128010394
 30
0.0
 10
45.70102998899921
 20
-8.061441290501988
 30
0.0
 10
45.65091805242383
 20
-8.061488731317581
 30
0.0
 10
45.6053382138174
 20
-8.061512437155727
 30
0.0
 10
45.57606532340344
 20
-8.061518269298403
 30
0.0
 10
45.5571531066237
 20
-8.061518666950632
 30
0.0
 10
45.54900506730496
 20
-8.061518360616219
 30
0.0
 10
45.54080909393784
 20
-8.061517577801225
 30
0.0
 10
45.53256528591608
 20
-8.061516318508324
 30
0.0
 10
45.52427374539084
 20
-8.061514582555332
 30
0.0
 10
45.51593457727991
 20
-8.061512370673995
 30
0.0
 10
45.50754788928196
 20
-8.061509680096776
 30
0.0
 10
45.49198207909241
 20
-8.061503850174801
 30
0.0
 10
45.46837156868609
 20
-8.061491919294951
 30
0.0
 10
45.43582175894252
 20
-8.061470048222304
 30
0.0
 10
45.40054057813068
 20
-8.061441451223288
 30
0.0
 10
45.36244097976461
 20
-8.061406114401393
 30
0.0
 10
45.32170724457336
 20
-8.061364317667994
 30
0.0
 10
45.2782917379057
 20
-8.061316177218145
 30
0.0
 10
45.23215149701352
 20
-8.06126180105133
 30
0.0
 10
45.18297894965553
 20
-8.061200898215247
 30
0.0
 10
45.13113019371326
 20
-8.061134134837743
 30
0.0
 10
45.07822894916024
 20
-8.061063339791019
 30
0.0
 10
45.02596746964928
 20
-8.060989774403481
 30
0.0
 10
44.9756762568113
 20
-8.060915163409617
 30
0.0
 10
44.92747830607152
 20
-8.06083947586552
 30
0.0
 10
44.88778105214662
 20
-8.06077323631996
 30
0.0
 10
44.85613155092531
 20
-8.06071762361563
 30
0.0
 10
44.83204554090891
 20
-8.06067366384741
 30
0.0
 10
44.80871224531391
 20
-8.060629365435829
 30
0.0
 10
44.78614423906768
 20
-8.060584732501013
 30
0.0
 10
44.76435305187402
 20
-8.060539751045212
 30
0.0
 10
44.74334923021593
 20
-8.060494472284403
 30
0.0
 10
44.71197904405109
 20
-8.060423439869907
 30
0.0
 10
44.66916278786157
 20
-8.060319689218317
 30
0.0
 10
44.61382080628611
 20
-8.060175899604303
 30
0.0
 10
44.55604040710349
 20
-8.060016018095609
 30
0.0
 10
44.5058767872513
 20
-8.059869495134876
 30
0.0
 10
44.4639269463181
 20
-8.059742396337185
 30
0.0
 10
44.43078356424928
 20
-8.059639558574076
 30
0.0
 10
44.39699647146201
 20
-8.059532323320752
 30
0.0
 10
44.36257332775238
 20
-8.059420715021758
 30
0.0
 10
44.32752283985863
 20
-8.059304640432742
 30
0.0
 10
44.27977735590196
 20
-8.059143762411054
 30
0.0
 10
44.22009929154528
 20
-8.058934183514111
 30
0.0
 10
44.14927576449885
 20
-8.05866804891383
 30
0.0
 10
44.08019161481813
 20
-8.058391037691933
 30
0.0
 10
44.01291892643698
 20
-8.058102962364557
 30
0.0
 10
43.94751844460176
 20
-8.057803870898624
 30
0.0
 10
43.88404021123332
 20
-8.057493752221375
 30
0.0
 10
43.81928217396252
 20
-8.057155679779043
 30
0.0
 10
43.753518881671
 20
-8.056786797215011
 30
0.0
 10
43.68701774732049
 20
-8.056383353926889
 30
0.0
 10
43.62327967217869
 20
-8.055965015624451
 30
0.0
 10
43.5623099304493
 20
-8.055531313218295
 30
0.0
 10
43.50410158639097
 20
-8.055083889545926
 30
0.0
 10
43.46621580775192
 20
-8.054765003860552
 30
0.0
 10
43.44773071163148
 20
-8.054604371408572
 30
0.0
 11
46.18981862786329
 21
-8.057835202814089
 31
0.0
 11
46.17412720195697
 21
-8.058256855917477
 31
0.0
 11
46.15599278349491
 21
-8.058653420443874
 31
0.0
 11
46.13525979169314
 21
-8.059024896393225
 31
0.0
 11
46.11177339600179
 21
-8.059371283765472
 31
0.0
 11
46.08538042964316
 21
-8.059692582560671
 31
0.0
 11
46.05593038269619
 21
-8.059988792778881
 31
0.0
 11
46.02872231535825
 21
-8.060218220909746
 31
0.0
 11
45.99916913496712
 21
-8.06042994654075
 31
0.0
 11
45.96718940181737
 21
-8.060623969671723
 31
0.0
 11
45.93270516492792
 21
-8.060800290302722
 31
0.0
 11
45.9002285255364
 21
-8.060940808950135
 31
0.0
 11
45.86570771521017
 21
-8.061067618781464
 31
0.0
 11
45.85632315969057
 21
-8.061098565506085
 31
0.0
 11
45.84679457331377
 21
-8.06112857188674
 31
0.0
 11
45.83712121524295
 21
-8.061157637923429
 31
0.0
 11
45.82730236178927
 21
-8.061185763616208
 31
0.0
 11
45.8173373068477
 21
-8.061212948965021
 31
0.0
 11
45.80722536233678
 21
-8.061239193969868
 31
0.0
 11
45.75609344989373
 21
-8.061350662627717
 31
0.0
 11
45.70200863826959
 21
-8.061433778662944
 31
0.0
 11
45.64498776406195
 21
-8.061488542075494
 31
0.0
 11
45.60575767722689
 21
-8.061509154361147
 31
0.0
 11
45.5652691393747
 21
-8.061517416244441
 31
0.0
 11
45.55716909951165
 21
-8.061517587863306
 31
0.0
 11
45.54902102803502
 21
-8.061517282951967
 31
0.0
 11
45.54082502159381
 21
-8.061516501510482
 31
0.0
 11
45.53258117957959
 21
-8.061515243538792
 31
0.0
 11
45.5242896041389
 21
-8.061513509036899
 31
0.0
 11
45.5159504001857
 21
-8.061511298004802
 31
0.0
 11
45.50756367541377
 21
-8.061508610442501
 31
0.0
 11
45.49912954030911
 21
-8.061505446349997
 31
0.0
 11
45.46925297132348
 21
-8.061490570398746
 31
0.0
 11
45.43673214744813
 21
-8.061468939036785
 31
0.0
 11
45.40148011217853
 21
-8.061440552264116
 31
0.0
 11
45.36340942974037
 21
-8.061405410080624
 31
0.0
 11
45.32243335297304
 21
-8.061363512486423
 31
0.0
 11
45.27927890697394
 21
-8.061315787524222
 31
0.0
 11
45.23316291000246
 21
-8.061261546261789
 31
0.0
 11
45.18401263061126
 21
-8.061200788699181
 31
0.0
 11
45.13176126507981
 21
-8.061133514836342
 31
0.0
 11
45.07761664333718
 21
-8.06106088351612
 31
0.0
 11
45.02530889935779
 21
-8.06098717274574
 31
0.0
 11
44.97497682800211
 21
-8.060912382525089
 31
0.0
 11
44.92674300651605
 21
-8.06083651285428
 31
0.0
 11
44.88071504897236
 21
-8.060759563733313
 31
0.0
 11
44.85588506334453
 21
-8.060715905096344
 31
0.0
 11
44.83179449944991
 21
-8.060671906461891
 31
0.0
 11
44.80845701949514
 21
-8.060627567829783
 31
0.0
 11
44.7858851771653
 21
-8.060582889200077
 31
0.0
 11
44.76409048138764
 21
-8.060537870572829
 31
0.0
 11
44.74308345857052
 21
-8.060492511947984
 31
0.0
 11
44.72287371319298
 21
-8.06044681332554
 31
0.0
 11
44.66997993671746
 21
-8.06031916129632
 31
0.0
 11
44.61463470640881
 21
-8.060175490505457
 31
0.0
 11
44.55684777048365
 21
-8.060015800952783
 31
0.0
 11
44.49663874040957
 21
-8.05984009263841
 31
0.0
 11
44.46414383207643
 21
-8.059741661974726
 31
0.0
 11
44.43099823554176
 21
-8.05963883614055
 31
0.0
 11
44.39720859469803
 21
-8.059531615135938
 31
0.0
 11
44.36278255417464
 21
-8.059419998960891
 31
0.0
 11
44.32772880509036
 21
-8.059303987615408
 31
0.0
 11
44.2920571309812
 21
-8.059183581099432
 31
0.0
 11
44.2195461345115
 21
-8.058928235040525
 31
0.0
 11
44.14869466382133
 21
-8.058661852005116
 31
0.0
 11
44.07958655991596
 21
-8.058384431993204
 31
0.0
 11
44.01229369829631
 21
-8.058095975004675
 31
0.0
 11
43.94687661240213
 21
-8.057796481039531
 31
0.0
 11
43.88338512966093
 21
-8.057485950097884
 31
0.0
 11
43.82185901509562
 21
-8.057164382179678
 31
0.0
 11
43.75260255064271
 21
-8.056775270096409
 31
0.0
 11
43.6860953177845
 21
-8.056371135461631
 31
0.0
 11
43.62235564821957
 21
-8.055951978275516
 31
0.0
 11
43.56138836868665
 21
-8.055517798537948
 31
0.0
 11
43.50318613207291
 21
-8.055068596248986
 31
0.0
 11
43.44773071163148
 21
-8.054604371408572
 31
0.0
  0
SPLINE
  5
21B
330
2
100
AcDbEntity
  8
GAIKEI
  6
Continuous
 62
     1
100
AcDbSpline
210
0.0
220
0.0
230
1.0
 70
     8
 71
     3
 72
    47
 73
    43
 74
    41
 42
0.0000000001
 43
0.0000000001
 44
0.000001
 12
0.9999915442633941
 22
-0.0041123474697924
 32
0.0
 13
0.9998713639292569
 23
0.0160391893263794
 33
0.0
 40
0.0
 40
0.0
 40
0.0
 40
0.0
 40
0.078359929971528
 40
0.158036741486055
 40
0.2388775665533784
 40
0.3207295260784002
 40
0.4034397423849063
 40
0.4868639118779134
 40
0.5708554523217704
 40
0.6552510139082109
 40
0.7398871107700627
 40
0.8246002552511569
 40
0.9092327077130606
 40
0.9936332852833034
 40
1.077638931255897
 40
1.161086180760768
 40
1.243811570447489
 40
1.325656848398993
 40
1.406480053750905
 40
1.486129998231774
 40
1.564454528469834
 40
1.641301359335716
 40
1.71652196725922
 40
1.789977227128408
 40
1.861529050297416
 40
1.931039349010334
 40
1.998370037182993
 40
2.063386887767082
 40
2.125988160037604
 40
2.186064438604745
 40
2.243502032857883
 40
2.298187253991916
 40
2.350010744801044
 40
2.398890090839369
 40
2.444740125009844
 40
2.487473929939228
 40
2.527004595411094
 40
2.563252206434759
 40
2.596165167244609
 40
2.625694515720348
 40
2.65179107709685
 40
2.674405733654405
 40
2.674405733654405
 40
2.674405733654405
 40
2.674405733654405
 10
43.46707049985211
 20
-7.989547756008278
 30
0.0
 10
43.49319025564564
 20
-7.989655170428193
 30
0.0
 10
43.54586874355035
 20
-7.989867141069851
 30
0.0
 10
43.62549403711763
 20
-7.990166521219634
 30
0.0
 10
43.7062834033977
 20
-7.990450738665344
 30
0.0
 10
43.78808397348922
 20
-7.990716363782041
 30
0.0
 10
43.8707457278312
 20
-7.990961017164636
 30
0.0
 10
43.95412074420781
 20
-7.991182233910933
 30
0.0
 10
44.0380575910134
 20
-7.991384748384064
 30
0.0
 10
44.12239844857012
 20
-7.991572550799389
 30
0.0
 10
44.20697986376365
 20
-7.991749899659794
 30
0.0
 10
44.29164025625991
 20
-7.991920620574035
 30
0.0
 10
44.37622214480557
 20
-7.992090011710843
 30
0.0
 10
44.460568204877
 20
-7.992256995921479
 30
0.0
 10
44.54451921098177
 20
-7.992416604522531
 30
0.0
 10
44.62791184146463
 20
-7.992564711899092
 30
0.0
 10
44.71058437467371
 20
-7.992697363610375
 30
0.0
 10
44.79238225690503
 20
-7.992809117984279
 30
0.0
 10
44.87315501624943
 20
-7.992899466935682
 30
0.0
 10
44.95275420721005
 20
-7.992975121466315
 30
0.0
 10
45.03102794795629
 20
-7.993041140939112
 30
0.0
 10
45.10782524587412
 20
-7.993103224948413
 30
0.0
 10
45.18299945140237
 20
-7.993167372911898
 30
0.0
 10
45.25640865627138
 20
-7.993228518971363
 30
0.0
 10
45.32791442955434
 20
-7.993282991544106
 30
0.0
 10
45.39737868609487
 20
-7.993326744682292
 30
0.0
 10
45.46466462619146
 20
-7.993355894957232
 30
0.0
 10
45.52964756346276
 20
-7.993366304437927
 30
0.0
 10
45.59221236419438
 20
-7.993354349658829
 30
0.0
 10
45.65225073779221
 20
-7.993320269462117
 30
0.0
 10
45.70965040968317
 20
-7.993263700439911
 30
0.0
 10
45.76429912353314
 20
-7.993184584770006
 30
0.0
 10
45.81609504387482
 20
-7.993082249255223
 30
0.0
 10
45.86494585715223
 20
-7.992962918176601
 30
0.0
 10
45.91076671379755
 20
-7.992824830991366
 30
0.0
 10
45.95347126108457
 20
-7.992667061898828
 30
0.0
 10
45.99297489324718
 20
-7.992489275553168
 30
0.0
 10
46.02920475813903
 20
-7.992288378376088
 30
0.0
 10
46.06210058769616
 20
-7.992054824046363
 30
0.0
 10
46.09161236590568
 20
-7.991789448060387
 30
0.0
 10
46.11769097211579
 20
-7.99149842713939
 30
0.0
 10
46.13392630667085
 20
-7.991258646208791
 30
0.0
 10
46.14146355583652
 20
-7.991137739289456
 30
0.0
 11
43.46707049985211
 21
-7.989547756008278
 31
0.0
 11
43.54542979141005
 21
-7.989860955862354
 31
0.0
 11
43.62510603845992
 21
-7.990160874046068
 31
0.0
 11
43.70594636454659
 21
-7.990444927406883
 31
0.0
 11
43.78779789321514
 21
-7.990710532792036
 31
0.0
 11
43.87050774801041
 21
-7.990955107048705
 31
0.0
 11
43.95393162143152
 21
-7.991177398579111
 31
0.0
 11
44.03792291556946
 21
-7.991380826117733
 31
0.0
 11
44.12231826614951
 21
-7.99156954740215
 31
0.0
 11
44.20695417543804
 21
-7.991747714432051
 31
0.0
 11
44.29166714570111
 21
-7.991919479207126
 31
0.0
 11
44.37629942858261
 21
-7.992088842560519
 31
0.0
 11
44.46069984216449
 21
-7.992255149192828
 31
0.0
 11
44.54470533742749
 21
-7.992414199870609
 31
0.0
 11
44.62815245636299
 21
-7.992561743999885
 31
0.0
 11
44.71087774096268
 21
-7.992693530986571
 31
0.0
 11
44.79272294266586
 21
-7.992805183848304
 31
0.0
 11
44.87354609622211
 21
-7.9928966232942
 31
0.0
 11
44.9531960039137
 21
-7.992973109077865
 31
0.0
 11
45.0315205054345
 21
-7.993040094801244
 31
0.0
 11
45.1083673102609
 21
-7.993103244562803
 31
0.0
 11
45.18358789136816
 21
-7.993166616611688
 31
0.0
 11
45.25704312613628
 21
-7.993227164946745
 31
0.0
 11
45.32859492895037
 21
-7.993280913957619
 31
0.0
 11
45.39810521419535
 21
-7.993323888033728
 31
0.0
 11
45.4654358962562
 21
-7.993352111564718
 31
0.0
 11
45.5304527459504
 21
-7.99336155505432
 31
0.0
 11
45.59305401678993
 21
-7.993349179149845
 31
0.0
 11
45.65313028513013
 21
-7.993314492098988
 31
0.0
 11
45.71056785065211
 21
-7.993257263255827
 31
0.0
 11
45.76525301303722
 21
-7.993177261974437
 31
0.0
 11
45.81707640301873
 21
-7.993075158689293
 31
0.0
 11
45.86595560022788
 21
-7.99295465235815
 31
0.0
 11
45.91180542234501
 21
-7.992815315303573
 31
0.0
 11
45.95453893047202
 21
-7.992656152919039
 31
0.0
 11
45.99406918571081
 21
-7.992476170598365
 31
0.0
 11
46.0303162175275
 21
-7.992271370008495
 31
0.0
 11
46.06322832790453
 21
-7.992034874535761
 31
0.0
 11
46.09275645891777
 21
-7.991766836752276
 31
0.0
 11
46.11885130381317
 21
-7.991467657917269
 31
0.0
 11
46.14146355583652
 21
-7.991137739289456
 31
0.0
  0
SPLINE
  5
21C
330
2
100
AcDbEntity
  8
GAIKEI
  6
Continuous
 62
     7
100
AcDbSpline
210
0.0
220
0.0
230
1.0
 70
     8
 71
     3
 72
    19
 73
    15
 74
    13
 42
0.0000000001
 43
0.0000000001
 44
0.000001
 12
-0.9934340189717568
 22
-0.1144065118322512
 32
0.0
 13
-0.9609945012889504
 23
-0.276567475478231
 33
0.0
 40
0.0
 40
0.0
 40
0.0
 40
0.0
 40
0.195566141481904
 40
0.4062179203837353
 40
0.6168773225613203
 40
0.8275453647084059
 40
1.038222990410201
 40
1.248911084086371
 40
1.459610491671956
 40
1.670322039507979
 40
1.881046551333384
 40
2.091784867535452
 40
2.302537825135901
 40
2.475350066912813
 40
2.475350066912813
 40
2.475350066912813
 40
2.475350066912813
 10
33.91423261726873
 20
-7.508115841655012
 30
0.0
 10
33.84947193129966
 20
-7.515573855014849
 30
0.0
 10
33.71505508991198
 20
-7.531948011799386
 30
0.0
 10
33.51128904497186
 20
-7.559590048251436
 30
0.0
 10
33.30295466672567
 20
-7.590851518404861
 30
0.0
 10
33.09507324802091
 20
-7.625048064775683
 30
0.0
 10
32.88768478790736
 20
-7.662171502126568
 30
0.0
 10
32.68082937582106
 20
-7.702213515157723
 30
0.0
 10
32.47454707370359
 20
-7.745165822105491
 30
0.0
 10
32.26887794830278
 20
-7.791020110903673
 30
0.0
 10
32.06386208810582
 20
-7.839768120867859
 30
0.0
 10
31.85953955139265
 20
-7.891401394565718
 30
0.0
 10
31.66817264489611
 20
-7.942639813542541
 30
0.0
 10
31.54509898641201
 20
-7.977289676165526
 30
0.0
 10
31.489741781711
 20
-7.993221091312193
 30
0.0
 11
33.91423261726873
 21
-7.508115841655012
 31
0.0
 11
33.72010067893699
 21
-7.531763100777254
 31
0.0
 11
33.51136079382893
 21
-7.560079510941818
 31
0.0
 11
33.30303369143131
 21
-7.591339345171377
 31
0.0
 11
33.09515946397794
 21
-7.625534320189672
 31
0.0
 11
32.88777820067831
 21
-7.662656152272916
 31
0.0
 11
32.68092998771765
 21
-7.702696557250192
 31
0.0
 11
32.47465490825674
 21
-7.745647250503111
 31
0.0
 11
32.2689930424322
 21
-7.791499946966155
 31
0.0
 11
32.06398446735629
 21
-7.840246361126332
 31
0.0
 11
31.85966925711698
 21
-7.89187820702358
 31
0.0
 11
31.65608748277781
 21
-7.946387198250363
 31
0.0
 11
31.489741781711
 21
-7.993221091312193
 31
0.0
  0
SPLINE
  5
21D
330
2
100
AcDbEntity
  8
GAIKEI
  6
Continuous
 62
     7
100
AcDbSpline
210
0.0
220
0.0
230
1.0
 70
     8
 71
     3
 72
     9
 73
     5
 74
     3
 42
0.0000000001
 43
0.0000000001
 44
0.000001
 12
-0.9251335181800996
 22
0.3796419017175416
 32
0.0
 13
-0.9310512113159195
 23
0.3648885335375159
 33
0.0
 40
0.0
 40
0.0
 40
0.0
 40
0.0
 40
0.1330954377982604
 40
0.237670511751881
 40
0.237670511751881
 40
0.237670511751881
 40
0.237670511751881
 10
47.70102371425467
 20
-7.990045147266698
 30
0.0
 10
47.65998003071333
 20
-7.973202278894802
 30
0.0
 10
47.5865534002744
 20
-7.943451760545485
 30
0.0
 10
47.51289319542574
 20
-7.914285984894547
 30
0.0
 10
47.48043827899976
 20
-7.901566569768021
 30
0.0
 11
47.70102371425467
 21
-7.990045147266698
 31
0.0
 11
47.57766893917021
 21
-7.94006505528614
 31
0.0
 11
47.48043827899976
 21
-7.901566569768021
 31
0.0
  0
SPLINE
  5
21E
330
2
100
AcDbEntity
  8
GAIKEI
  6
Continuous
 62
     7
100
AcDbSpline
210
0.0
220
0.0
230
1.0
 70
     8
 71
     3
 72
    19
 73
    15
 74
    13
 42
0.0000000001
 43
0.0000000001
 44
0.000001
 12
-0.9901268894224729
 22
0.1401739734850163
 32
0.0
 13
-0.9859442945742936
 23
0.1670743786353803
 33
0.0
 40
0.0
 40
0.0
 40
0.0
 40
0.0
 40
0.017369612890696
 40
0.0363602337694537
 40
0.0574606886895504
 40
0.0799713134709023
 40
0.1030304079062903
 40
0.1270999610099386
 40
0.1527349372812666
 40
0.179078993268898
 40
0.2029213596309002
 40
0.2270426910471398
 40
0.2518693187549186
 40
0.2767048754459467
 40
0.2767048754459467
 40
0.2767048754459467
 40
0.2767048754459467
 10
44.11501033097515
 20
-7.125744716199335
 30
0.0
 10
44.10927762404783
 20
-7.124933126980408
 30
0.0
 10
44.09728075020476
 20
-7.12320895766993
 30
0.0
 10
44.07833710126875
 20
-7.120380550859863
 30
0.0
 10
44.05771024417688
 20
-7.117222114977437
 30
0.0
 10
44.03575383845506
 20
-7.113787459862578
 30
0.0
 10
44.01282894019522
 20
-7.110140882575592
 30
0.0
 10
43.98888360854344
 20
-7.106280234372832
 30
0.0
 10
43.96386457352089
 20
-7.102200151167437
 30
0.0
 10
43.93892658639527
 20
-7.098093793216207
 30
0.0
 10
43.91449151036467
 20
-7.094038781860149
 30
0.0
 10
43.89055965673573
 20
-7.090041135350816
 30
0.0
 10
43.86630506962233
 20
-7.085966225641016
 30
0.0
 10
43.84998263225492
 20
-7.083206681818921
 30
0.0
 10
43.84182047378089
 20
-7.081823553418189
 30
0.0
 11
44.11501033097515
 21
-7.125744716199335
 31
0.0
 11
44.09781790912385
 21
-7.123269860556547
 31
0.0
 11
44.0790344783109
 21
-7.120472351697003
 31
0.0
 11
44.05817669962293
 21
-7.11728140582403
 31
0.0
 11
44.03593608598497
 21
-7.113805309272379
 31
0.0
 11
44.01316296651195
 21
-7.110184977808273
 31
0.0
 11
43.98940002214174
 21
-7.106355381863863
 31
0.0
 11
43.96409904003296
 21
-7.102230789883151
 31
0.0
 11
43.93810485027789
 21
-7.097951615273586
 31
0.0
 11
43.91458407238535
 21
-7.094048872230018
 31
0.0
 11
43.89079229483171
 21
-7.090075220121946
 31
0.0
 11
43.86630885262273
 21
-7.085961528898792
 31
0.0
 11
43.84182047378089
 21
-7.081823553418189
 31
0.0
  0
SPLINE
  5
21F
330
2
100
AcDbEntity
  8
GAIKEI
  6
Continuous
 62
     7
100
AcDbSpline
210
0.0
220
0.0
230
1.0
 70
     8
 71
     3
 72
    55
 73
    51
 74
    49
 42
0.0000000001
 43
0.0000000001
 44
0.000001
 12
-0.9999757864183036
 22
0.0069589206846395
 32
0.0
 13
-0.9902090542819808
 23
0.1395923666178968
 33
0.0
 40
0.0
 40
0.0
 40
0.0
 40
0.0
 40
0.0013482875491148
 40
0.0054845270457244
 40
0.0124209636755139
 40
0.022156689837095
 40
0.0347456459709396
 40
0.0501504145739603
 40
0.0683623812305741
 40
0.089372858477437
 40
0.1106811109618435
 40
0.1342475929945719
 40
0.1600626550669755
 40
0.1881717651050414
 40
0.2185234757739814
 40
0.2511056400581297
 40
0.2863612920522802
 40
0.3238864268452417
 40
0.3636661090743702
 40
0.4057682278069331
 40
0.4501129802758223
 40
0.4966832364505355
 40
0.5331899512369202
 40
0.5709450031844742
 40
0.6099600956787241
 40
0.6502126421999716
 40
0.7129184934311229
 40
0.7783831143089918
 40
0.8465760280186655
 40
0.9174668622429127
 40
0.9913380308281015
 40
1.067899431165669
 40
1.147117134093737
 40
1.228957342746279
 40
1.304881412827104
 40
1.382904648932486
 40
1.463000718997606
 40
1.545302222853366
 40
1.629653741636187
 40
1.716027633973413
 40
1.805534726432199
 40
1.897083691463865
 40
1.990644691128266
 40
2.086376013551469
 40
2.184094014692933
 40
2.283767588643504
 40
2.360057845743848
 40
2.437437042986577
 40
2.515931776544558
 40
2.595497813542205
 40
2.595497813542205
 40
2.595497813542205
 40
2.595497813542205
 10
46.66421848657818
 20
-7.608628064028039
 30
0.0
 10
46.66376906827743
 20
-7.608624936486023
 30
0.0
 10
46.6619376464568
 20
-7.608567235835664
 30
0.0
 10
46.65788980125576
 20
-7.607596125145391
 30
0.0
 10
46.65109206236815
 20
-7.606274319484725
 30
0.0
 10
46.64157257378977
 20
-7.604122105653402
 30
0.0
 10
46.62930435260276
 20
-7.601365369173151
 30
0.0
 10
46.61429331094052
 20
-7.597913572338256
 30
0.0
 10
46.59655247966407
 20
-7.59381210473316
 30
0.0
 10
46.57689930231048
 20
-7.589244390403564
 30
0.0
 10
46.55550971192747
 20
-7.584264226497225
 30
0.0
 10
46.53256050330731
 20
-7.578919909213595
 30
0.0
 10
46.50740198933654
 20
-7.573067625601765
 30
0.0
 10
46.48003763335975
 20
-7.566715427444592
 30
0.0
 10
46.45047135318924
 20
-7.559873219294445
 30
0.0
 10
46.41857796396277
 20
-7.552521035410791
 30
0.0
 10
46.38434666742464
 20
-7.544665953275853
 30
0.0
 10
46.34776722550697
 20
-7.536316864895638
 30
0.0
 10
46.30895140492438
 20
-7.527510215806955
 30
0.0
 10
46.26790563723751
 20
-7.518258435478287
 30
0.0
 10
46.224636826608
 20
-7.508575339451056
 30
0.0
 10
46.18317295607591
 20
-7.499367620616283
 30
0.0
 10
46.14384024319693
 20
-7.490695665235421
 30
0.0
 10
46.10695576390535
 20
-7.482616392075726
 30
0.0
 10
46.06883977209038
 20
-7.474324089611513
 30
0.0
 10
46.02258214726517
 20
-7.464332009970917
 30
0.0
 10
45.96768410756484
 20
-7.452583652263342
 30
0.0
 10
45.90364609745296
 20
-7.439040079531594
 30
0.0
 10
45.83690355780565
 20
-7.425099619412094
 30
0.0
 10
45.76738034548646
 20
-7.410767798953372
 30
0.0
 10
45.69508493807393
 20
-7.396068816706474
 30
0.0
 10
45.62002679245546
 20
-7.381028627379066
 30
0.0
 10
45.54231895763332
 20
-7.365693360049306
 30
0.0
 10
45.46477383726105
 20
-7.350632644436245
 30
0.0
 10
45.3875758587817
 20
-7.335874796820803
 30
0.0
 10
45.31090723453687
 20
-7.321445832332017
 30
0.0
 10
45.23210626875218
 20
-7.306855097384186
 30
0.0
 10
45.15118642427114
 20
-7.292123754294664
 30
0.0
 10
45.06816163151216
 20
-7.27727345963342
 30
0.0
 10
44.98272478929746
 20
-7.2622693925843
 30
0.0
 10
44.89487546631785
 20
-7.247134791763301
 30
0.0
 10
44.80461398239929
 20
-7.231893790616027
 30
0.0
 10
44.7122542899986
 20
-7.216621002168267
 30
0.0
 10
44.61781223084469
 20
-7.201340144268215
 30
0.0
 10
44.52130415178695
 20
-7.186075405400345
 30
0.0
 10
44.43114600474447
 20
-7.17214833678588
 30
0.0
 10
44.34764707690691
 20
-7.159524696453559
 30
0.0
 10
44.27109628979571
 20
-7.148171028036699
 30
0.0
 10
44.19343282380906
 20
-7.136878974559976
 30
0.0
 10
44.141272622314
 20
-7.129446977178474
 30
0.0
 10
44.11501028556453
 20
-7.125744706709497
 30
0.0
 11
46.66421848657818
 21
-7.608628064028039
 31
0.0
 11
46.66287130113004
 21
-7.608573139938016
 31
0.0
 11
46.65880121381074
 21
-7.607836709519347
 31
0.0
 11
46.65201054673751
 21
-7.60642219930429
 31
0.0
 11
46.64250162202749
 21
-7.60433303582522
 31
0.0
 11
46.63022169397781
 21
-7.6015608354719
 31
0.0
 11
46.61520620304552
 21
-7.598119635934097
 31
0.0
 11
46.59746212378296
 21
-7.594018012079629
 31
0.0
 11
46.57699643074254
 21
-7.589264538776205
 31
0.0
 11
46.55624298670277
 21
-7.584433788770638
 31
0.0
 11
46.53329040592761
 21
-7.579089813060818
 31
0.0
 11
46.5081464759218
 21
-7.573241720865212
 31
0.0
 11
46.4807652322999
 21
-7.566886444606325
 31
0.0
 11
46.45119487845692
 21
-7.560043894774025
 31
0.0
 11
46.41944530006621
 21
-7.55272531035996
 31
0.0
 11
46.38508263723621
 21
-7.54484061768278
 31
0.0
 11
46.34849827219368
 21
-7.536490770054456
 31
0.0
 11
46.30970447922066
 21
-7.527689365252626
 31
0.0
 11
46.2686327061924
 21
-7.518432052196317
 31
0.0
 11
46.22535829836401
 21
-7.508747906236067
 31
0.0
 11
46.17989548615604
 21
-7.498652290753796
 31
0.0
 11
46.14424495878153
 21
-7.49079225800142
 31
0.0
 11
46.10736429434164
 21
-7.482713858966974
 31
0.0
 11
46.06924094727382
 21
-7.474420015223472
 31
0.0
 11
46.02989585696007
 21
-7.465921111563261
 31
0.0
 11
45.96857834621686
 21
-7.452799120786153
 31
0.0
 11
45.90453044324265
 21
-7.439253542186975
 31
0.0
 11
45.83777807193046
 21
-7.42531100318348
 31
0.0
 11
45.76834715617319
 21
-7.410998131193366
 31
0.0
 11
45.69595706911324
 21
-7.396279950771258
 31
0.0
 11
45.6208879457922
 21
-7.381237519528554
 31
0.0
 11
45.5431691914395
 21
-7.365899994560891
 31
0.0
 11
45.46283021128469
 21
-7.350296532964023
 31
0.0
 11
45.38825658693615
 21
-7.336040342565866
 31
0.0
 11
45.31157946148105
 21
-7.321609687685509
 31
0.0
 11
45.23282209080996
 21
-7.307026923843977
 31
0.0
 11
45.15185141701105
 21
-7.292286248206323
 31
0.0
 11
45.06881770566308
 21
-7.27743426187817
 31
0.0
 11
44.98374571974743
 21
-7.262494165247971
 31
0.0
 11
44.89553807560717
 21
-7.247297747467655
 31
0.0
 11
44.80526696959917
 21
-7.232055030635478
 31
0.0
 11
44.71295952868733
 21
-7.216790791096741
 31
0.0
 11
44.61845724452432
 21
-7.201500127957956
 31
0.0
 11
44.52193913635783
 21
-7.186233741956471
 31
0.0
 11
44.42343391102035
 21
-7.171017240257469
 31
0.0
 11
44.34800085282176
 21
-7.159612984120769
 31
0.0
 11
44.27145891928584
 21
-7.1482607784028
 31
0.0
 11
44.19378104128854
 21
-7.136966068952006
 31
0.0
 11
44.11501028556453
 21
-7.125744706709497
 31
0.0
  0
SPLINE
  5
220
330
2
100
AcDbEntity
  8
GAIKEI
  6
Continuous
 62
     7
100
AcDbSpline
210
0.0
220
0.0
230
1.0
 70
     8
 71
     3
 72
    16
 73
    12
 74
    10
 42
0.0000000001
 43
0.0000000001
 44
0.000001
 12
-0.9337830805485097
 22
0.3578395708712714
 32
0.0
 13
-0.9346817497408627
 23
0.355485620948808
 33
0.0
 40
0.0
 40
0.0
 40
0.0
 40
0.0
 40
0.0213733415896433
 40
0.0422526893684332
 40
0.0621143195030739
 40
0.0804230170514605
 40
0.0966111977704591
 40
0.1099415818990994
 40
0.1202790023906166
 40
0.1272817432121614
 40
0.1308031894761157
 40
0.1308031894761157
 40
0.1308031894761157
 40
0.1308031894761157
 10
47.37762225111031
 20
-7.861834613151927
 30
0.0
 10
47.37096956285991
 20
-7.859285204024445
 30
0.0
 10
47.35781447229055
 20
-7.854254376293795
 30
0.0
 10
47.33846808408819
 20
-7.846878398273474
 30
0.0
 10
47.3200680092454
 20
-7.839887921531101
 30
0.0
 10
47.30312338353821
 20
-7.833469500421983
 30
0.0
 10
47.28821007902181
 20
-7.82783441688548
 30
0.0
 10
47.27577906903859
 20
-7.823147200720541
 30
0.0
 10
47.26621286904148
 20
-7.81954054119194
 30
0.0
 10
47.25970444651638
 20
-7.817091689979577
 30
0.0
 10
47.2564255443656
 20
-7.815844564038059
 30
0.0
 10
47.25532840051373
 20
-7.815427289534113
 30
0.0
 11
47.37762225111031
 21
-7.861834613151927
 31
0.0
 11
47.35765971639447
 21
-7.854198048821785
 31
0.0
 11
47.33814996653511
 21
-7.846760520921804
 31
0.0
 11
47.31958325955825
 21
-7.83970632062244
 31
0.0
 11
47.30246179582626
 21
-7.83322065313655
 31
0.0
 11
47.28731859615725
 21
-7.827498704608785
 31
0.0
 11
47.27484589549395
 21
-7.822794358287012
 31
0.0
 11
47.26517264348728
 21
-7.819148751168199
 31
0.0
 11
47.25862067149818
 21
-7.816676904301289
 31
0.0
 11
47.25532840051373
 21
-7.815427289534113
 31
0.0
  0
SPLINE
  5
221
330
2
100
AcDbEntity
  8
GAIKEI
  6
Continuous
 62
     7
100
AcDbSpline
210
0.0
220
0.0
230
1.0
 70
     8
 71
     3
 72
     9
 73
     5
 74
     3
 42
0.0000000001
 43
0.0000000001
 44
0.000001
 12
0.9261749038414755
 22
-0.3770942156732637
 32
0.0
 13
-0.9306389607116207
 23
0.365938689954471
 33
0.0
 40
0.0
 40
0.0
 40
0.0
 40
0.0
 40
0.0005031755707309
 40
0.0016702141705755
 40
0.0016702141705755
 40
0.0016702141705755
 40
0.0016702141705755
 10
47.48044188334158
 20
-7.901567998991254
 30
0.0
 10
47.48059722620353
 20
-7.901631247190323
 30
0.0
 10
47.48142311535814
 20
-7.901968622045785
 30
0.0
 10
47.48018016610366
 20
-7.901482392032903
 30
0.0
 10
47.47981813557378
 20
-7.901340037174122
 30
0.0
 11
47.48044188334158
 21
-7.901567998991254
 31
0.0
 11
47.48090800823949
 21
-7.901760146152469
 31
0.0
 11
47.47981813557378
 21
-7.901340037174122
 31
0.0
  0
SPLINE
  5
222
330
2
100
AcDbEntity
  8
GAIKEI
  6
Continuous
 62
     1
100
AcDbSpline
210
0.0
220
0.0
230
1.0
 70
     8
 71
     3
 72
    59
 73
    55
 74
    53
 42
0.0000000001
 43
0.0000000001
 44
0.000001
 12
-0.9986723007289826
 22
-0.0515134521914467
 32
0.0
 13
-0.2549869627555229
 23
-0.9669444910772872
 33
0.0
 40
0.0
 40
0.0
 40
0.0
 40
0.0
 40
0.1366102373034389
 40
0.2809754535862872
 40
0.4233446446949084
 40
0.5636614819241713
 40
0.7018704551416826
 40
0.8379168958546319
 40
0.9717470000199602
 40
1.092432395288402
 40
1.211170888166285
 40
1.327923046163152
 40
1.442650107497673
 40
1.555313995240679
 40
1.665877331369443
 40
1.78405314364704
 40
1.899638890932753
 40
2.012589010092553
 40
2.122859010312799
 40
2.230405494637294
 40
2.335186181651505
 40
2.437159927416834
 40
2.528135873851746
 40
2.61668967351268
 40
2.702792250951425
 40
2.786415396763643
 40
2.867531784130221
 40
2.946114986308405
 40
3.028923074037544
 40
3.108654281877467
 40
3.185278133919632
 40
3.258765557815153
 40
3.329088929534453
 40
3.396222125803034
 40
3.460140586787231
 40
3.515888864756439
 40
3.56890021990098
 40
3.619159578551724
 40
3.666653268199439
 40
3.711369145270456
 40
3.753296763919029
 40
3.795845976027064
 40
3.835058819102237
 40
3.870931168298201
 40
3.903463830385746
 40
3.9326641937257
 40
3.958548918773001
 40
3.981148545597206
 40
3.999024053111157
 40
4.014251598716565
 40
4.026947074599844
 40
4.037316405684676
 40
4.045742410180633
 40
4.049904467755323
 40
4.049904467755323
 40
4.049904467755323
 40
4.049904467755323
 10
43.71618948305062
 20
-5.783658849370908
 30
0.0
 10
43.67071319638696
 20
-5.786004604346999
 30
0.0
 10
43.57718059987682
 20
-5.790859140935481
 30
0.0
 10
43.43626036672429
 20
-5.798268660240239
 30
0.0
 10
43.29411184272892
 20
-5.805847686821152
 30
0.0
 10
43.15401835369911
 20
-5.813426672165917
 30
0.0
 10
43.01603557128166
 20
-5.821005579372524
 30
0.0
 10
42.88021833863125
 20
-5.828584412144437
 30
0.0
 10
42.7502399777812
 20
-5.835957842166124
 30
0.0
 10
42.62602833788022
 20
-5.843121005557122
 30
0.0
 10
42.50750641552343
 20
-5.850068435574371
 30
0.0
 10
42.39097406581925
 20
-5.857015793273035
 30
0.0
 10
42.27647023680904
 20
-5.863963074178684
 30
0.0
 10
42.16403320415871
 20
-5.870910271484831
 30
0.0
 10
42.05045708489396
 20
-5.878061608352027
 30
0.0
 10
41.93591836600511
 20
-5.885422529531183
 30
0.0
 10
41.82059646995971
 20
-5.893000412259425
 30
0.0
 10
41.70791564539666
 20
-5.900578135133571
 30
0.0
 10
41.59792075833067
 20
-5.908155682958522
 30
0.0
 10
41.49065561392105
 20
-5.915733039157089
 30
0.0
 10
41.38616294047756
 20
-5.923310187641163
 30
0.0
 10
41.28719381502588
 20
-5.93068519683328
 30
0.0
 10
41.19363320574689
 20
-5.937850191231291
 30
0.0
 10
41.1053618764626
 20
-5.94479596064815
 30
0.0
 10
41.01954924810574
 20
-5.951741513888123
 30
0.0
 10
40.93622407762461
 20
-5.958686832023886
 30
0.0
 10
40.8554142935582
 20
-5.965631886381856
 30
0.0
 10
40.7748946482408
 20
-5.972776516777003
 30
0.0
 10
40.69485737602683
 20
-5.980129516535782
 30
0.0
 10
40.61549676625458
 20
-5.987703690996681
 30
0.0
 10
40.53925765406332
 20
-5.995277289833438
 30
0.0
 10
40.4661704866906
 20
-6.002850232033665
 30
0.0
 10
40.39626445501134
 20
-6.010422421346333
 30
0.0
 10
40.32956748964283
 20
-6.017993757619706
 30
0.0
 10
40.26773882364131
 20
-6.025369310232406
 30
0.0
 10
40.2106269631785
 20
-6.03253567769525
 30
0.0
 10
40.15807640596543
 20
-6.039474953509341
 30
0.0
 10
40.10830235763792
 20
-6.046413115586517
 30
0.0
 10
40.06132150032736
 20
-6.053349989265257
 30
0.0
 10
40.01714952469548
 20
-6.060285302824922
 30
0.0
 10
39.97467742613645
 20
-6.067407317865331
 30
0.0
 10
39.93410182031605
 20
-6.074731017981264
 30
0.0
 10
39.89562297214435
 20
-6.082284677666621
 30
0.0
 10
39.86055121075037
 20
-6.089833527344751
 30
0.0
 10
39.82889926114618
 20
-6.097376302936766
 30
0.0
 10
39.80067752526156
 20
-6.104911217109247
 30
0.0
 10
39.7758937098329
 20
-6.112436446799904
 30
0.0
 10
39.7550197198191
 20
-6.119783220361625
 30
0.0
 10
39.737867552876
 20
-6.126925964970837
 30
0.0
 10
39.72422038814659
 20
-6.133801470577907
 30
0.0
 10
39.71342339566155
 20
-6.140679106213326
 30
0.0
 10
39.70547693156845
 20
-6.147592980299577
 30
0.0
 10
39.70085603969933
 20
-6.153861288564144
 30
0.0
 10
39.69947489757839
 20
-6.157855791733368
 30
0.0
 10
39.6991211407718
 20
-6.159197284614492
 30
0.0
 11
43.71618948305062
 21
-5.783658849370908
 31
0.0
 11
43.57976356926694
 21
-5.790740833948007
 31
0.0
 11
43.43559755645098
 21
-5.798322145512372
 31
0.0
 11
43.29343036554023
 21
-5.805903457076738
 31
0.0
 11
43.15331848736808
 21
-5.81348476864116
 31
0.0
 11
43.01531760378371
 21
-5.821066080205582
 31
0.0
 11
42.87948256552378
 21
-5.828647391770005
 31
0.0
 11
42.74586737041151
 21
-5.836228703334427
 31
0.0
 11
42.62538223243978
 21
-5.843178238935138
 31
0.0
 11
42.50684728599831
 21
-5.850127774535849
 31
0.0
 11
42.39030214354419
 21
-5.85707731013656
 31
0.0
 11
42.27578575855623
 21
-5.864026845737271
 31
0.0
 11
42.16333641251587
 21
-5.870976381338095
 31
0.0
 11
42.05299170211024
 21
-5.877925916938806
 31
0.0
 11
41.93505932252917
 21
-5.885507228503229
 31
0.0
 11
41.81972247449429
 21
-5.893088540067651
 31
0.0
 11
41.70702707552139
 21
-5.900669851632187
 31
0.0
 11
41.59701800102292
 21
-5.908251163196609
 31
0.0
 11
41.48973906643884
 21
-5.915832474761089
 31
0.0
 11
41.38523300978611
 21
-5.923413786325568
 31
0.0
 11
41.28354147463311
 21
-5.930995097890047
 31
0.0
 11
41.19283135065124
 21
-5.937944633490815
 31
0.0
 11
41.1045506665286
 21
-5.944894169091639
 31
0.0
 11
41.01872900499976
 21
-5.951843704692407
 31
0.0
 11
40.93539513282194
 21
-5.958793240293175
 31
0.0
 11
40.85457699113287
 21
-5.965742775894
 31
0.0
 11
40.77630168608304
 21
-5.972692311494824
 31
0.0
 11
40.69384137556987
 21
-5.98027362305936
 31
0.0
 11
40.61447142593924
 21
-5.987854934623896
 31
0.0
 11
40.53822355327729
 21
-5.995436246188432
 31
0.0
 11
40.46512823991149
 21
-6.003017557752968
 31
0.0
 11
40.3952147222257
 21
-6.010598869317504
 31
0.0
 11
40.32851097896723
 21
-6.01818018088204
 31
0.0
 11
40.26504372005153
 21
-6.025761492446633
 31
0.0
 11
40.20973030321964
 21
-6.032711028047515
 31
0.0
 11
40.15717645143449
 21
-6.03966056364834
 31
0.0
 11
40.10739988394344
 21
-6.046610099249278
 31
0.0
 11
40.06041739710876
 21
-6.053559634850103
 31
0.0
 11
40.01624485874076
 21
-6.060509170451041
 31
0.0
 11
39.97489720273988
 21
-6.067458706051866
 31
0.0
 11
39.93302885525388
 21
-6.075040017616515
 31
0.0
 11
39.89455587670163
 21
-6.082621329181165
 31
0.0
 11
39.85949381184507
 21
-6.090202640745758
 31
0.0
 11
39.82785685582279
 21
-6.097783952310408
 31
0.0
 11
39.79965784840572
 21
-6.105365263875057
 31
0.0
 11
39.77490826878908
 21
-6.112946575439707
 31
0.0
 11
39.7536182309231
 21
-6.120527887004413
 31
0.0
 11
39.73714896710747
 21
-6.127477422605352
 31
0.0
 11
39.72359976475603
 21
-6.13442695820629
 31
0.0
 11
39.7129753746522
 21
-6.141376493807229
 31
0.0
 11
39.70527957452104
 21
-6.148326029408167
 31
0.0
 11
39.70051516769091
 21
-6.155275565009219
 31
0.0
 11
39.6991211407718
 21
-6.159197284614492
 31
0.0
  0
SPLINE
  5
223
330
2
100
AcDbEntity
  8
GAIKEI
  6
Continuous
 62
     7
100
AcDbSpline
210
0.0
220
0.0
230
1.0
 70
     8
 71
     3
 72
    84
 73
    80
 74
    78
 42
0.0000000001
 43
0.0000000001
 44
0.000001
 12
-0.9999999816231508
 22
0.0001917125403609
 32
0.0
 13
-0.0550833690895655
 23
-0.9984817586965437
 33
0.0
 40
0.0
 40
0.0
 40
0.0
 40
0.0
 40
0.0064690685056402
 40
0.0126476455451479
 40
0.0185444258559827
 40
0.0241659847950826
 40
0.0295162487921733
 40
0.0327230894914683
 40
0.03582429150457
 40
0.0388192367922086
 40
0.0417069040769442
 40
0.0474692575111722
 40
0.0530269537825802
 40
0.058386273547224
 40
0.0702136015578843
 40
0.0884148137701216
 40
0.0975583957460383
 40
0.1052352544507983
 40
0.1121816812883821
 40
0.1175397302682042
 40
0.1230283251697391
 40
0.1286483096129042
 40
0.1344000844283571
 40
0.1402836154478752
 40
0.1462984429651758
 40
0.1524436931302007
 40
0.1587180915787081
 40
0.1651199796373426
 40
0.171585901076548
 40
0.1777350215592115
 40
0.1835016363253035
 40
0.1888844666061817
 40
0.193881522493649
 40
0.1984901257855238
 40
0.2024740603593865
 40
0.2076444046770988
 40
0.2147947864822432
 40
0.2257824719707753
 40
0.2395637536070782
 40
0.2599990038480629
 40
0.2819698080223301
 40
0.3039694458640738
 40
0.325962835456363
 40
0.347915125473274
 40
0.3697920206912351
 40
0.39589634088747
 40
0.4216249692928703
 40
0.4455745408279979
 40
0.4674443605634316
 40
0.4872587441584604
 40
0.4986146437348854
 40
0.5091778867517114
 40
0.518528391406224
 40
0.5264713981889879
 40
0.5330229284193669
 40
0.5381978795612657
 40
0.5420106128291275
 40
0.543643878585923
 40
0.5445048737229029
 40
0.5453956503922904
 40
0.5458522533272984
 40
0.5463163556585366
 40
0.5467879740213672
 40
0.5472671243301518
 40
0.5482480800190254
 40
0.5492593353736098
 40
0.5513731240668424
 40
0.5536091234438514
 40
0.5567812427972494
 40
0.5601717546315781
 40
0.5637805560707479
 40
0.5666301741392959
 40
0.5697762560620991
 40
0.5734104689017956
 40
0.5775303430034004
 40
0.5821310628159386
 40
0.5872057780940502
 40
0.5927456882941061
 40
0.598739140018845
 40
0.598739140018845
 40
0.598739140018845
 40
0.598739140018845
 10
40.09092848010299
 20
-5.783159516952082
 30
0.0
 10
40.08877212397407
 20
-5.783159103551554
 30
0.0
 10
40.08455617501687
 20
-5.78319252188271
 30
0.0
 10
40.07837606705692
 20
-5.783332239325829
 30
0.0
 10
40.07248107262056
 20
-5.783554918574907
 30
0.0
 10
40.06686572873812
 20
-5.783849350477339
 30
0.0
 10
40.0621498292565
 20
-5.784164026739404
 30
0.0
 10
40.05827546880971
 20
-5.784466424264451
 30
0.0
 10
40.05518597035039
 20
-5.784733631279436
 30
0.0
 10
40.05220467839669
 20
-5.785016045208294
 30
0.0
 10
40.04834333497799
 20
-5.785412960009864
 30
0.0
 10
40.04363811697979
 20
-5.785953010185721
 30
0.0
 10
40.03812434212997
 20
-5.786668339019854
 30
0.0
 10
40.03062045367991
 20
-5.787751602106254
 30
0.0
 10
40.01898469649214
 20
-5.789699782161335
 30
0.0
 10
40.00619577114008
 20
-5.792361826552621
 30
0.0
 10
39.99485802387801
 20
-5.795146726222583
 30
0.0
 10
39.98720720979635
 20
-5.797204981352479
 30
0.0
 10
39.98080839957342
 20
-5.79905461811893
 30
0.0
 10
39.97513582380721
 20
-5.800786908523377
 30
0.0
 10
39.96990795331995
 20
-5.802459925299217
 30
0.0
 10
39.96457891373341
 20
-5.804245719422965
 30
0.0
 10
39.95915115538664
 20
-5.806149517329913
 30
0.0
 10
39.95362779969052
 20
-5.808176618325205
 30
0.0
 10
39.94801267345207
 20
-5.810332481269824
 30
0.0
 10
39.9423103203681
 20
-5.812622699515202
 30
0.0
 10
39.93652600958694
 20
-5.815052990092056
 30
0.0
 10
39.93068452981808
 20
-5.817620996844766
 30
0.0
 10
39.92492530996393
 20
-5.820270173439666
 30
0.0
 10
39.91940380760549
 20
-5.822927125211435
 30
0.0
 10
39.91424863861129
 20
-5.825510883824165
 30
0.0
 10
39.90947326469667
 20
-5.82799392535901
 30
0.0
 10
39.90507225568314
 20
-5.830359125344216
 30
0.0
 10
39.90110900287419
 20
-5.832553044621306
 30
0.0
 10
39.89711995515629
 20
-5.83481898963231
 30
0.0
 10
39.89242598845184
 20
-5.837558775826664
 30
0.0
 10
39.88577829666609
 20
-5.841581123845287
 30
0.0
 10
39.87680450441889
 20
-5.847300141797404
 30
0.0
 10
39.86435837471502
 20
-5.855798927633884
 30
0.0
 10
39.84936110052081
 20
-5.867032529010259
 30
0.0
 10
39.8328914799511
 20
-5.88082141154922
 30
0.0
 10
39.8168407347028
 20
-5.895866330709736
 30
0.0
 10
39.80166068288781
 20
-5.91178067550777
 30
0.0
 10
39.78741793630611
 20
-5.928485397286976
 30
0.0
 10
39.77329414657967
 20
-5.947045161225503
 30
0.0
 10
39.75961744283618
 20
-5.9674787613813
 30
0.0
 10
39.7469593962371
 20
-5.989359713670637
 30
0.0
 10
39.7363230570369
 20
-6.010722074377099
 30
0.0
 10
39.72770952274037
 20
-6.03084476257402
 30
0.0
 10
39.72160653814183
 20
-6.047446277276094
 30
0.0
 10
39.71731979392362
 20
-6.060682176504712
 30
0.0
 10
39.7143766007289
 20
-6.070682586265547
 30
0.0
 10
39.71199094236315
 20
-6.079657505785007
 30
0.0
 10
39.71013896623018
 20
-6.087387941210181
 30
0.0
 10
39.70876219955527
 20
-6.093798674968184
 30
0.0
 10
39.70778111175211
 20
-6.098885385751827
 30
0.0
 10
39.70722185014844
 20
-6.102381707217546
 30
0.0
 10
39.70692377812196
 20
-6.104462833876596
 30
0.0
 10
39.70674625708412
 20
-6.105577149353337
 30
0.0
 10
39.70662691951801
 20
-6.106303537309145
 30
0.0
 10
39.7065263248049
 20
-6.106898927629345
 30
0.0
 10
39.7064477800248
 20
-6.107356341281388
 30
0.0
 10
39.70636673149746
 20
-6.107820949248321
 30
0.0
 10
39.70625447548821
 20
-6.108454997330852
 30
0.0
 10
39.70610789804411
 20
-6.109265642552543
 30
0.0
 10
39.7058584887063
 20
-6.110611396188346
 30
0.0
 10
39.70552249233417
 20
-6.112366555176095
 30
0.0
 10
39.7050370480564
 20
-6.114826423030422
 30
0.0
 10
39.70445753286042
 20
-6.117701478352785
 30
0.0
 10
39.70378497579988
 20
-6.121024585998782
 30
0.0
 10
39.70314799449139
 20
-6.124245174729821
 30
0.0
 10
39.70254040101466
 20
-6.12738854644823
 30
0.0
 10
39.70199091211717
 20
-6.130551447089715
 30
0.0
 10
39.70145885507235
 20
-6.134145974108548
 30
0.0
 10
39.70092738007542
 20
-6.138229976631407
 30
0.0
 10
39.70041095333669
 20
-6.142799538490635
 30
0.0
 10
39.69992164620624
 20
-6.147847875388549
 30
0.0
 10
39.6994763633398
 20
-6.153366198083404
 30
0.0
 10
39.69923120496232
 20
-6.15720305754769
 30
0.0
 10
39.69912115845783
 20
-6.159197841620596
 30
0.0
 11
40.09092848010299
 21
-5.783159516952082
 31
0.0
 11
40.08445911368737
 21
-5.783208604765945
 31
0.0
 11
40.07828214193721
 21
-5.783349452343657
 31
0.0
 11
40.07238955865214
 21
-5.783572223825672
 31
0.0
 11
40.06677571279946
 21
-5.78386688029127
 31
0.0
 11
40.06143731767797
 21
-5.784223276927377
 31
0.0
 11
40.0582401952805
 21
-5.78447286187486
 31
0.0
 11
40.05515052261635
 21
-5.784740127263376
 31
0.0
 11
40.05216892182743
 21
-5.785022625452938
 31
0.0
 11
40.04929638595068
 21
-5.785317936695378
 31
0.0
 11
40.04357151677907
 21
-5.785974277275727
 31
0.0
 11
40.03806001387014
 21
-5.786689454600548
 31
0.0
 11
40.03275566310257
 21
-5.787455155363318
 31
0.0
 11
40.0210906838826
 21
-5.789408222636666
 31
0.0
 11
40.0032712414367
 21
-5.793116670422477
 31
0.0
 11
39.99439160566804
 21
-5.795297807828774
 31
0.0
 11
39.9869781490779
 21
-5.797291535121303
 31
0.0
 11
39.98030468257422
 21
-5.799219689585925
 31
0.0
 11
39.97518027911399
 21
-5.800784688078692
 31
0.0
 11
39.9699528259104
 21
-5.80245754294151
 31
0.0
 11
39.96462409429073
 21
-5.804243285349684
 31
0.0
 11
39.95919652918149
 21
-5.806147091597949
 31
0.0
 11
39.95367326335848
 21
-5.808174281080027
 31
0.0
 11
39.94805813214553
 21
-5.810330313517169
 31
0.0
 11
39.94235568852501
 21
-5.812620785377589
 31
0.0
 11
39.93657121861547
 21
-5.815051425434376
 31
0.0
 11
39.93071075746518
 21
-5.817628089405843
 31
0.0
 11
39.92483685067093
 21
-5.820330939005941
 31
0.0
 11
39.91929573811278
 21
-5.822996983655229
 31
0.0
 11
39.91414030819282
 21
-5.825580668433531
 31
0.0
 11
39.90936441120998
 21
-5.828063752314051
 31
0.0
 11
39.9049626623959
 21
-5.830429171166997
 31
0.0
 11
39.90093056770597
 21
-5.832661090395447
 31
0.0
 11
39.89746650295744
 21
-5.834628832727389
 31
0.0
 11
39.89300114466981
 21
-5.837235184339647
 31
0.0
 11
39.8868834705139
 21
-5.840936817130454
 31
0.0
 11
39.87761749284208
 21
-5.846841987389211
 31
0.0
 11
39.8662364123562
 21
-5.854613406516364
 31
0.0
 11
39.84988051699899
 21
-5.86686430959628
 31
0.0
 11
39.8330341413345
 21
-5.880968082286699
 31
0.0
 11
39.81698297296514
 21
-5.896012834672546
 31
0.0
 11
39.80180248411379
 21
-5.911927055590012
 31
0.0
 11
39.78755941938515
 21
-5.928631503701694
 31
0.0
 11
39.77431086381533
 21
-5.946040544682205
 31
0.0
 11
39.75979039867972
 21
-5.967733679059676
 31
0.0
 11
39.74690626042058
 21
-5.990003873264413
 31
0.0
 11
39.73623122671636
 21
-6.011442752848893
 31
0.0
 11
39.72762457858151
 21
-6.031547830039187
 31
0.0
 11
39.72078804283937
 21
-6.050145423655749
 31
0.0
 11
39.71728821463135
 21
-6.060948522613102
 31
0.0
 11
39.71430930462081
 21
-6.071082976644333
 31
0.0
 11
39.71191011111414
 21
-6.080120357301893
 31
0.0
 11
39.71006386154407
 21
-6.087845668440991
 31
0.0
 11
39.70869094547003
 21
-6.094251545549013
 31
0.0
 11
39.70772695278434
 21
-6.099336014314417
 31
0.0
 11
39.70712240115073
 21
-6.103100838166142
 31
0.0
 11
39.70688269338904
 21
-6.104716529073243
 31
0.0
 11
39.70674811123654
 21
-6.105566981384811
 31
0.0
 11
39.70660355402753
 21
-6.106445983319019
 31
0.0
 11
39.70652752089687
 21
-6.106896225481307
 31
0.0
 11
39.70644898543223
 21
-6.107353647537593
 31
0.0
 11
39.70636795320182
 21
-6.107818264049569
 31
0.0
 11
39.70628443381979
 21
-6.108290089768729
 31
0.0
 11
39.70610999229375
 21
-6.109255428778965
 31
0.0
 11
39.70592581873096
 21
-6.110249786344866
 31
0.0
 11
39.70552923112557
 21
-6.112326059125336
 31
0.0
 11
39.70509723117327
 21
-6.114519941403841
 31
0.0
 11
39.70447251682247
 21
-6.117629938270226
 31
0.0
 11
39.70380277926567
 21
-6.120953626505411
 31
0.0
 11
39.70310273098066
 21
-6.124493827940455
 31
0.0
 11
39.70256851994422
 21
-6.127292838824359
 31
0.0
 11
39.70203172042669
 21
-6.130392647040196
 31
0.0
 11
39.70149324579255
 21
-6.133986588554535
 31
0.0
 11
39.70095959716751
 21
-6.138071607081997
 31
0.0
 11
39.70044073241245
 21
-6.142642869880774
 31
0.0
 11
39.69994992767833
 21
-6.147693741755233
 31
0.0
 11
39.69950361012262
 21
-6.153215633017566
 31
0.0
 11
39.69912115845783
 21
-6.159197841620596
 31
0.0
  0
SPLINE
  5
224
330
2
100
AcDbEntity
  8
GAIKEI
  6
Continuous
 62
     1
100
AcDbSpline
210
0.0
220
0.0
230
1.0
 70
     8
 71
     3
 72
     9
 73
     5
 74
     3
 42
0.0000000001
 43
0.0000000001
 44
0.000001
 12
-0.9675249312242513
 22
-0.2527756069313413
 32
0.0
 13
-0.9610663920915449
 23
-0.2763175528122328
 33
0.0
 40
0.0
 40
0.0
 40
0.0
 40
0.0
 40
0.1479095536828696
 40
0.3657856434040561
 40
0.3657856434040561
 40
0.3657856434040561
 40
0.3657856434040561
 10
31.84101941659979
 20
-7.896514403363028
 30
0.0
 10
31.79331735634831
 20
-7.908977045764061
 30
0.0
 10
31.67550020522589
 20
-7.940380028178594
 30
0.0
 10
31.55807177109813
 20
-7.973219615881419
 30
0.0
 10
31.48827397527434
 20
-7.993287278524121
 30
0.0
 11
31.84101941659979
 21
-7.896514403363028
 31
0.0
 11
31.69809980112437
 21
-7.934608107283679
 31
0.0
 11
31.48827397527434
 21
-7.993287278524121
 31
0.0
  0
SPLINE
  5
225
330
2
100
AcDbEntity
  8
GAIKEI
  6
Continuous
 62
     7
100
AcDbSpline
210
0.0
220
0.0
230
1.0
 70
     8
 71
     3
 72
     9
 73
     5
 74
     3
 42
0.0000000001
 43
0.0000000001
 44
0.000001
 12
-0.0523359692175336
 22
0.9986295340746044
 32
0.0
 13
-0.0597968860352182
 23
0.9982105651717432
 33
0.0
 40
0.0
 40
0.0
 40
0.0
 40
0.0
 40
0.0002800777325767
 40
0.0005604569668953
 40
0.0005604569668953
 40
0.0005604569668953
 40
0.0005604569668953
 10
47.74744760358315
 20
-8.055504892561089
 30
0.0
 10
47.74744271753663
 20
-8.055411661262553
 30
0.0
 10
47.74743259182876
 20
-8.055225116396343
 30
0.0
 10
47.74742176920038
 20
-8.055038610663586
 30
0.0
 10
47.74741618059867
 20
-8.054945318158956
 30
0.0
 11
47.74744760358315
 21
-8.055504892561089
 31
0.0
 11
47.74743242323596
 21
-8.055225226522225
 31
0.0
 11
47.74741618059867
 21
-8.054945318158956
 31
0.0
  0
SPLINE
  5
226
330
2
100
AcDbEntity
  8
GAIKEI
  6
Continuous
 62
     7
100
AcDbSpline
210
0.0
220
0.0
230
1.0
 70
     8
 71
     3
 72
     9
 73
     5
 74
     3
 42
0.0000000001
 43
0.0000000001
 44
0.000001
 12
-0.0431849594917586
 22
-0.9990670944804934
 32
0.0
 13
0.0000296297639101
 23
-0.9999999995610387
 33
0.0
 40
0.0
 40
0.0
 40
0.0
 40
0.0
 40
0.0132218854411306
 40
0.0236114203613664
 40
0.0236114203613664
 40
0.0236114203613664
 40
0.0236114203613664
 10
40.60643903431325
 20
-4.74494071891263
 30
0.0
 10
40.60624870545086
 20
-4.749343902469718
 30
0.0
 10
40.60600398931216
 20
-4.757211497291564
 30
0.0
 10
40.60592934838661
 20
-4.765082102279109
 30
0.0
 10
40.60592945099976
 20
-4.768545280584362
 30
0.0
 11
40.60643903431325
 21
-4.74494071891263
 31
0.0
 11
40.60602794284448
 21
-4.758156252407388
 31
0.0
 11
40.60592945099976
 21
-4.768545280584362
 31
0.0
  0
SPLINE
  5
227
330
2
100
AcDbEntity
  8
GAIKEI
  6
Continuous
 62
     7
100
AcDbSpline
210
0.0
220
0.0
230
1.0
 70
     8
 71
     3
 72
     9
 73
     5
 74
     3
 42
0.0000000001
 43
0.0000000001
 44
0.000001
 12
-0.2411640456581831
 22
-0.9704843651918242
 32
0.0
 13
-0.0939959462488436
 23
-0.995572580020555
 33
0.0
 40
0.0
 40
0.0
 40
0.0
 40
0.0
 40
0.0002222621876604
 40
0.000477989616156
 40
0.000477989616156
 40
0.000477989616156
 40
0.000477989616156
 10
40.60620080776799
 20
-4.765934103914105
 30
0.0
 10
40.60618294055186
 20
-4.766006004573455
 30
0.0
 10
40.60614989436447
 20
-4.766162009833408
 30
0.0
 10
40.60612855718953
 20
-4.766320105284876
 30
0.0
 10
40.60612054474233
 20
-4.766404970356802
 30
0.0
 11
40.60620080776799
 21
-4.765934103914105
 31
0.0
 11
40.60615472243897
 21
-4.766151530677575
 31
0.0
 11
40.60612054474233
 21
-4.766404970356802
 31
0.0
  0
SPLINE
  5
228
330
2
100
AcDbEntity
  8
GAIKEI
  6
Continuous
 62
     7
100
AcDbSpline
210
0.0
220
0.0
230
1.0
 70
     8
 71
     3
 72
     9
 73
     5
 74
     3
 42
0.0000000001
 43
0.0000000001
 44
0.000001
 12
0.9999823164383766
 22
-0.005947000129366
 32
0.0
 13
0.9999814749337781
 23
-0.0060868538068126
 33
0.0
 40
0.0
 40
0.0
 40
0.0
 40
0.0
 40
0.000108936915476
 40
0.0014078173522187
 40
0.0014078173522187
 40
0.0014078173522187
 40
0.0014078173522187
 10
42.9495216591316
 20
-4.837832272998014
 30
0.0
 10
42.94955797079462
 20
-4.837832488947299
 30
0.0
 10
42.95002723493186
 20
-4.837835282249955
 30
0.0
 10
42.95049649887448
 20
-4.837838108367066
 30
0.0
 10
42.95092945099945
 20
-4.837840743732158
 30
0.0
 11
42.9495216591316
 21
-4.837832272998014
 31
0.0
 11
42.94963059411718
 21
-4.837832921435278
 31
0.0
 11
42.95092945099945
 21
-4.837840743732158
 31
0.0
  0
SPLINE
  5
229
330
2
100
AcDbEntity
  8
GAIKEI
  6
Continuous
 62
     7
100
AcDbSpline
210
0.0
220
0.0
230
1.0
 70
     8
 71
     3
 72
    15
 73
    11
 74
     9
 42
0.0000000001
 43
0.0000000001
 44
0.000001
 12
-0.0020523424015809
 22
0.9999978939431157
 32
0.0
 13
-0.9808057763838966
 23
0.1949872534602752
 33
0.0
 40
0.0
 40
0.0
 40
0.0
 40
0.0
 40
0.0119733572161857
 40
0.0229553035813785
 40
0.0324633497321865
 40
0.040218595133114
 40
0.0466589963270099
 40
0.0532363983836909
 40
0.0601091701300848
 40
0.0673970191910536
 40
0.0673970191910536
 40
0.0673970191910536
 40
0.0673970191910536
 10
42.94951574521228
 20
-4.837832519246489
 30
0.0
 10
42.94950755406938
 20
-4.833841408579928
 30
0.0
 10
42.94861964552649
 20
-4.826157260548825
 30
0.0
 10
42.94493978703885
 20
-4.815893306725797
 30
0.0
 10
42.94001467907358
 20
-4.807801283415301
 30
0.0
 10
42.93477191413622
 20
-4.801846675094509
 30
0.0
 10
42.92951458728339
 20
-4.797318833405029
 30
0.0
 10
42.92401801710115
 20
-4.793575905767568
 30
0.0
 10
42.91774481651138
 20
-4.790602617370495
 30
0.0
 10
42.91318156079562
 20
-4.789298161792657
 30
0.0
 10
42.91079890597681
 20
-4.788824482568657
 30
0.0
 11
42.94951574521228
 21
-4.837832519246489
 31
0.0
 11
42.9481158865614
 21
-4.825941067794019
 31
0.0
 11
42.944414549281
 21
-4.815601740859733
 31
0.0
 11
42.93946490199703
 21
-4.807483720352934
 31
0.0
 11
42.93434692420201
 21
-4.801657233192258
 31
0.0
 11
42.92947614329601
 21
-4.797443789173712
 31
0.0
 11
42.92401650569387
 21
-4.793775570650439
 31
0.0
 11
42.91780546276839
 21
-4.790832867201629
 31
0.0
 11
42.91079890597681
 21
-4.788824482568657
 31
0.0
  0
SPLINE
  5
22A
330
2
100
AcDbEntity
  8
GAIKEI
  6
Continuous
 62
     7
100
AcDbSpline
210
0.0
220
0.0
230
1.0
 70
     8
 71
     3
 72
    16
 73
    12
 74
    10
 42
0.0000000001
 43
0.0000000001
 44
0.000001
 12
0.0195553393702535
 22
-0.9998087760677609
 32
0.0
 13
0.983734430859786
 23
-0.1796289774534527
 33
0.0
 40
0.0
 40
0.0
 40
0.0
 40
0.0
 40
0.0069006652968285
 40
0.0135051225486435
 40
0.0253662887769001
 40
0.0349609474397477
 40
0.0420607594918606
 40
0.0484275005554353
 40
0.0547806353053543
 40
0.0611525477670479
 40
0.0766353440936145
 40
0.0766353440936145
 40
0.0766353440936145
 40
0.0766353440936145
 10
40.60802874970794
 20
-5.209111084347114
 30
0.0
 10
40.60807373132519
 20
-5.211410866255278
 30
0.0
 10
40.60846852818705
 20
-5.215912698762508
 30
0.0
 10
40.61033566893176
 20
-5.224179509891314
 30
0.0
 10
40.61407336232901
 20
-5.232858888351984
 30
0.0
 10
40.61964377895466
 20
-5.240651368624071
 30
0.0
 10
40.62512894717056
 20
-5.246067327196897
 30
0.0
 10
40.63035724752317
 20
-5.250136964458476
 30
0.0
 10
40.63584777778044
 20
-5.25336406318587
 30
0.0
 10
40.64451829547897
 20
-5.257216375101052
 30
0.0
 10
40.65199466395166
 20
-5.257232453384744
 30
0.0
 10
40.65707165056248
 20
-5.258159506342167
 30
0.0
 11
40.60802874970794
 21
-5.209111084347114
 31
0.0
 11
40.60863319452407
 21
-5.215986076171816
 31
0.0
 11
40.6100890846847
 21
-5.222428087877858
 31
0.0
 11
40.6147805904743
 21
-5.233322041967596
 31
0.0
 11
40.62036603918442
 21
-5.241123389069855
 31
0.0
 11
40.62540012786574
 21
-5.246129957674042
 31
0.0
 11
40.63043639796283
 21
-5.250025036253987
 31
0.0
 11
40.6359049213704
 21
-5.253258894828832
 31
0.0
 11
40.64178207382427
 21
-5.25572074122482
 31
0.0
 11
40.65707165056248
 21
-5.258159506342167
 31
0.0
  0
SPLINE
  5
22B
330
2
100
AcDbEntity
  8
GAIKEI
  6
Continuous
 62
     7
100
AcDbSpline
210
0.0
220
0.0
230
1.0
 70
     8
 71
     3
 72
    27
 73
    23
 74
    21
 42
0.0000000001
 43
0.0000000001
 44
0.000001
 12
-0.998092145457185
 22
0.0617419563722557
 32
0.0
 13
-0.0178361196726982
 23
0.9998409237648864
 33
0.0
 40
0.0
 40
0.0
 40
0.0
 40
0.0
 40
0.0073560352850189
 40
0.0153952151257226
 40
0.0240412313408529
 40
0.0332416808533531
 40
0.0463217356877476
 40
0.0603105378113
 40
0.0749337022185753
 40
0.097787270526462
 40
0.1217048069928199
 40
0.1466145178376645
 40
0.1724121884034875
 40
0.1987608571952916
 40
0.2254084422230601
 40
0.2521981222281025
 40
0.2789679566591702
 40
0.296728270068756
 40
0.31418962885937
 40
0.3304909002575233
 40
0.3526310000638222
 40
0.3721378351942566
 40
0.3721378351942566
 40
0.3721378351942566
 40
0.3721378351942566
 10
41.88552708507812
 20
-4.769865063546831
 30
0.0
 10
41.88307975139823
 20
-4.769713671543627
 30
0.0
 10
41.87796196207478
 20
-4.769325680042186
 30
0.0
 10
41.86999019901337
 20
-4.768495728329639
 30
0.0
 10
41.86143851888679
 20
-4.767334506541999
 30
0.0
 10
41.85127531440419
 20
-4.765595651692194
 30
0.0
 10
41.83945530737794
 20
-4.763026994798281
 30
0.0
 10
41.82605836784072
 20
-4.759301013532706
 30
0.0
 10
41.80981764473687
 20
-4.753747093142123
 30
0.0
 10
41.7909783861408
 20
-4.745676376370454
 30
0.0
 10
41.76996514030031
 20
-4.734226971991233
 30
0.0
 10
41.7493584230552
 20
-4.720219730344069
 30
0.0
 10
41.72965843709741
 20
-4.703666419104195
 30
0.0
 10
41.7113899971873
 20
-4.684727954853599
 30
0.0
 10
41.69502727291941
 20
-4.663697623788152
 30
0.0
 10
41.68092883046514
 20
-4.640922018541402
 30
0.0
 10
41.67062720452881
 20
-4.61944309985381
 30
0.0
 10
41.66337667749345
 20
-4.600076631000547
 30
0.0
 10
41.65849168682257
 20
-4.583595790498748
 30
0.0
 10
41.6544842881634
 20
-4.565382492281003
 30
0.0
 10
41.65188589595094
 20
-4.546215455355536
 30
0.0
 10
41.65110593005787
 20
-4.532341057200937
 30
0.0
 10
41.65098995464261
 20
-4.525839813182074
 30
0.0
 11
41.88552708507812
 21
-4.769865063546831
 31
0.0
 11
41.87819154161973
 21
-4.769311021997339
 31
0.0
 11
41.87019568574583
 21
-4.768477517832025
 31
0.0
 11
41.86162849064219
 21
-4.767312648337565
 31
0.0
 11
41.85256011970032
 21
-4.765759198653427
 31
0.0
 11
41.83977979404635
 21
-4.762974979717682
 31
0.0
 11
41.82630109256187
 21
-4.759231697178904
 31
0.0
 11
41.81246398190312
 21
-4.754501769916828
 31
0.0
 11
41.79145732279998
 21
-4.745501343189403
 31
0.0
 11
41.77045467928876
 21
-4.734058479439397
 31
0.0
 11
41.74985356171895
 21
-4.72005529495459
 31
0.0
 11
41.73010245972913
 21
-4.703459654712901
 31
0.0
 11
41.71180926078482
 21
-4.684496197722808
 31
0.0
 11
41.69544513820158
 21
-4.663465012005985
 31
0.0
 11
41.68134445301062
 21
-4.640686530634695
 31
0.0
 11
41.66976735730331
 21
-4.616549489303167
 31
0.0
 11
41.66353927363211
 21
-4.599916969179389
 31
0.0
 11
41.65858973556036
 21
-4.583171746034054
 31
0.0
 11
41.65508758468921
 21
-4.567251081647043
 31
0.0
 11
41.65207431933207
 21
-4.545316985304566
 31
0.0
 11
41.65098995464261
 21
-4.525839813182074
 31
0.0
  0
SPLINE
  5
22C
330
2
100
AcDbEntity
  8
GAIKEI
  6
Continuous
 62
     7
100
AcDbSpline
210
0.0
220
0.0
230
1.0
 70
     8
 71
     3
 72
     9
 73
     5
 74
     3
 42
0.0000000001
 43
0.0000000001
 44
0.000001
 12
-0.1768406705951678
 22
-0.9842394918024023
 32
0.0
 13
-0.0002330135877314
 23
-0.9999999728523334
 33
0.0
 40
0.0
 40
0.0
 40
0.0
 40
0.0
 40
0.0012069233834746
 40
0.0021509069004982
 40
0.0021509069004982
 40
0.0021509069004982
 40
0.0021509069004982
 10
40.60612054474233
 20
-4.766404970356802
 30
0.0
 10
40.60604940036216
 20
-4.766800937576022
 30
0.0
 10
40.60595775636767
 20
-4.767513464237936
 30
0.0
 10
40.60592952432009
 20
-4.768230619420535
 30
0.0
 10
40.60592945099976
 20
-4.768545280584362
 30
0.0
 11
40.60612054474233
 21
-4.766404970356802
 31
0.0
 11
40.60596637712864
 21
-4.767602075074933
 31
0.0
 11
40.60592945099976
 21
-4.768545280584362
 31
0.0
  0
SPLINE
  5
22D
330
2
100
AcDbEntity
  8
GAIKEI
  6
Continuous
 62
     7
100
AcDbSpline
210
0.0
220
0.0
230
1.0
 70
     8
 71
     3
 72
    15
 73
    11
 74
     9
 42
0.0000000001
 43
0.0000000001
 44
0.000001
 12
-0.0952280898330146
 22
0.9954554791183559
 32
0.0
 13
-0.9361924463683209
 23
0.3514878424112258
 33
0.0
 40
0.0
 40
0.0
 40
0.0
 40
0.0
 40
0.008971917104563
 40
0.0174488440530274
 40
0.0251938520377874
 40
0.0320248211546514
 40
0.0388638623660284
 40
0.0465284370060388
 40
0.05493113259677
 40
0.0560810390688527
 40
0.0560810390688527
 40
0.0560810390688527
 40
0.0560810390688527
 10
42.95073087662681
 20
-4.833389001880846
 30
0.0
 10
42.95044608378415
 20
-4.830411953867553
 30
0.0
 10
42.94937040211621
 20
-4.824654650418437
 30
0.0
 10
42.94631999947154
 20
-4.816787681937739
 30
0.0
 10
42.94245316891476
 20
-4.810115659827147
 30
0.0
 10
42.93805611963839
 20
-4.804468535008538
 30
0.0
 10
42.93299329406262
 20
-4.799445153221938
 30
0.0
 10
42.92682861918753
 20
-4.794888724604959
 30
0.0
 10
42.92167938940724
 20
-4.792278835223498
 30
0.0
 10
42.91871330474239
 20
-4.791120876902141
 30
0.0
 10
42.918354460158
 20
-4.790986150853882
 30
0.0
 11
42.95073087662681
 21
-4.833389001880846
 31
0.0
 11
42.94906644632861
 21
-4.824572268002498
 31
0.0
 11
42.94602533234244
 21
-4.816659520862344
 31
0.0
 11
42.94214593013133
 21
-4.809956335059098
 31
0.0
 11
42.93794951550653
 21
-4.804566637291202
 31
0.0
 11
42.93308750534173
 21
-4.799756984687064
 31
0.0
 11
42.92691867423563
 21
-4.79520818248153
 31
0.0
 11
42.9194265578431
 21
-4.791403260135894
 31
0.0
 11
42.918354460158
 21
-4.790986150853882
 31
0.0
  0
ARC
  5
22E
330
2
100
AcDbEntity
  8
GAIKEI
  6
Continuous
 62
     7
100
AcDbCircle
 10
40.77779108504896
 20
-5.608159506342246
 30
0.0
 40
0.05
100
AcDbArc
 50
90.0
 51
176.9995960092141
  0
LINE
  5
22F
330
2
100
AcDbEntity
  8
GAIKEI
  6
Continuous
 62
     1
100
AcDbLine
 10
40.13679978392585
 20
-4.30554270634218
 30
0.0
 11
40.26778278392581
 21
-4.30554270634218
 31
0.0
  0
LINE
  5
230
330
2
100
AcDbEntity
  8
GAIKEI
  6
Continuous
 62
     1
100
AcDbLine
 10
42.27542098392584
 20
-2.80554270634218
 30
0.0
 11
42.23929978392584
 21
-2.80554270634218
 31
0.0
  0
LINE
  5
231
330
2
100
AcDbEntity
  8
GAIKEI
  6
Continuous
 62
     1
100
AcDbLine
 10
42.27673118392582
 20
-2.80554270634218
 30
0.0
 11
42.27542098392584
 21
-2.80554270634218
 31
0.0
  0
LINE
  5
232
330
2
100
AcDbEntity
  8
GAIKEI
  6
Continuous
 62
     1
100
AcDbLine
 10
40.37958618392582
 20
-4.279149506342207
 30
0.0
 11
42.18860318392581
 21
-3.374641006342187
 31
0.0
  0
LINE
  5
233
330
2
100
AcDbEntity
  8
GAIKEI
  6
Continuous
 62
     1
100
AcDbLine
 10
42.32679978392584
 20
-3.15103420634216
 30
0.0
 11
42.32679978392584
 21
-2.855542706342191
 31
0.0
  0
ARC
  5
234
330
2
100
AcDbEntity
  8
GAIKEI
  6
Continuous
 62
     1
100
AcDbCircle
 10
42.07679978392585
 20
-3.15103420634216
 30
0.0
 40
0.25
100
AcDbArc
 50
296.5650509999872
 51
0.0
  0
ARC
  5
235
330
2
100
AcDbEntity
  8
GAIKEI
  6
Continuous
 62
     1
100
AcDbCircle
 10
40.26778278392581
 20
-4.05554270634218
 30
0.0
 40
0.25
100
AcDbArc
 50
270.0
 51
296.5650509999872
  0
ELLIPSE
  5
236
330
2
100
AcDbEntity
  8
GAIKEI
  6
Continuous
 62
     1
100
AcDbEllipse
 10
42.27673118392582
 20
-2.855542706342191
 30
0.0
 11
0.0500686172998961
 21
0.0000000000027717
 31
0.0
210
0.0
220
0.0
230
1.0
 40
0.9986299999998678
 41
-0.0000000000554334
 42
1.570796326739615
  0
LINE
  5
237
330
2
100
AcDbEntity
  8
GAIKEI
  6
Continuous
 62
     1
100
AcDbLine
 10
42.31542098392583
 20
-0.7055427063421576
 30
0.0
 11
42.23929978392584
 21
-0.7055427063421576
 31
0.0
  0
LINE
  5
238
330
2
100
AcDbEntity
  8
GAIKEI
  6
Continuous
 62
     1
100
AcDbLine
 10
42.31673118392584
 20
-0.7055427063421576
 30
0.0
 11
42.31542098392583
 21
-0.7055427063421576
 31
0.0
  0
LINE
  5
239
330
2
100
AcDbEntity
  8
GAIKEI
  6
Continuous
 62
     1
100
AcDbLine
 10
42.36679978392581
 20
-1.051034206342137
 30
0.0
 11
42.36679978392581
 21
-0.7555427063422258
 31
0.0
  0
ARC
  5
23A
330
2
100
AcDbEntity
  8
GAIKEI
  6
Continuous
 62
     1
100
AcDbCircle
 10
42.11679978392581
 20
-1.051034206342137
 30
0.0
 40
0.25
100
AcDbArc
 50
299.340581999988
 51
0.0
  0
ELLIPSE
  5
23B
330
2
100
AcDbEntity
  8
GAIKEI
  6
Continuous
 62
     1
100
AcDbEllipse
 10
42.31673118392584
 20
-0.7555427063422258
 30
0.0
 11
0.0500686172998961
 21
0.0000000000027717
 31
0.0
210
0.0
220
0.0
230
1.0
 40
0.9986299999998678
 41
-0.0000000000554334
 42
1.570796326739615
  0
LINE
  5
23C
330
2
100
AcDbEntity
  8
GAIKEI
  6
Continuous
 62
     1
100
AcDbLine
 10
40.30710908392585
 20
-4.543192256342194
 30
0.0
 11
41.18451648392585
 21
-4.497209256342216
 31
0.0
  0
LINE
  5
23D
330
2
100
AcDbEntity
  8
GAIKEI
  6
Continuous
 62
     1
100
AcDbLine
 10
41.82205188392582
 20
-4.41722145634219
 30
0.0
 11
41.82414508392581
 21
-4.297302456342208
 31
0.0
  0
LINE
  5
23E
330
2
100
AcDbEntity
  8
GAIKEI
  6
Continuous
 62
     1
100
AcDbLine
 10
41.18451648392585
 20
-4.497209256342216
 30
0.0
 11
41.77467628392583
 21
-4.466280306342184
 31
0.0
  0
LINE
  5
23F
330
2
100
AcDbEntity
  8
GAIKEI
  6
Continuous
 62
     1
100
AcDbLine
 10
40.30710908392585
 20
-4.543192256342194
 30
0.0
 11
41.31118558392583
 21
-4.490570806342191
 31
0.0
  0
ARC
  5
240
330
2
100
AcDbEntity
  8
GAIKEI
  6
Continuous
 62
     1
100
AcDbCircle
 10
40.32019303392582
 20
-4.792849606342201
 30
0.0
 40
0.25
100
AcDbArc
 50
93.00000000000558
 51
137.1867789999952
  0
ARC
  5
241
330
2
100
AcDbEntity
  8
GAIKEI
  6
Continuous
 62
     1
100
AcDbCircle
 10
41.77205948392585
 20
-4.41634880634217
 30
0.0
 40
0.05
100
AcDbArc
 50
273.0000000000056
 51
359.0000000000243
  0
LINE
  5
242
330
2
100
AcDbEntity
  8
GAIKEI
  6
Continuous
 62
     1
100
AcDbLine
 10
40.20825098392584
 20
-4.955542706342157
 30
0.0
 11
40.17652188392581
 21
-4.955542706342157
 31
0.0
  0
ARC
  5
243
330
2
100
AcDbEntity
  8
GAIKEI
  6
Continuous
 62
     1
100
AcDbCircle
 10
40.20825098392584
 20
-5.020542706342212
 30
0.0
 40
0.065
100
AcDbArc
 50
16.60155000001893
 51
90.0
  0
ARC
  5
244
330
2
100
AcDbEntity
  8
GAIKEI
  6
Continuous
 62
     1
100
AcDbCircle
 10
40.20825098392584
 20
-5.240542706342182
 30
0.0
 40
0.065
100
AcDbArc
 50
299.0713460000127
 51
343.3984499999811
  0
ARC
  5
245
330
2
100
AcDbEntity
  8
GAIKEI
  6
Continuous
 62
     1
100
AcDbCircle
 10
39.83929978392585
 20
-5.130542706342225
 30
0.0
 40
0.45
100
AcDbArc
 50
343.3984499999811
 51
0.0
  0
ARC
  5
246
330
2
100
AcDbEntity
  8
GAIKEI
  6
Continuous
 62
     1
100
AcDbCircle
 10
39.83929978392585
 20
-5.130542706342225
 30
0.0
 40
0.45
100
AcDbArc
 50
0.0
 51
16.60155000001893
  0
LINE
  5
247
330
2
100
AcDbEntity
  8
GAIKEI
  6
Continuous
 62
     1
100
AcDbLine
 10
40.16825098392584
 20
-4.955542706342157
 30
0.0
 11
40.13679978392585
 21
-4.955542706342157
 31
0.0
  0
LINE
  5
248
330
2
100
AcDbEntity
  8
GAIKEI
  6
Continuous
 62
     1
100
AcDbLine
 10
40.13679978392585
 20
-5.380542706342225
 30
0.0
 11
40.16825098392584
 21
-5.380542706342225
 31
0.0
  0
ARC
  5
249
330
2
100
AcDbEntity
  8
GAIKEI
  6
Continuous
 62
     1
100
AcDbCircle
 10
40.16825098392584
 20
-5.315542706342171
 30
0.0
 40
0.065
100
AcDbArc
 50
270.0
 51
343.3984499999811
  0
ARC
  5
24A
330
2
100
AcDbEntity
  8
GAIKEI
  6
Continuous
 62
     1
100
AcDbCircle
 10
39.79929978392585
 20
-5.205542706342157
 30
0.0
 40
0.45
100
AcDbArc
 50
343.3984499999811
 51
348.2276048164429
  0
ARC
  5
24B
330
2
100
AcDbEntity
  8
GAIKEI
  6
Continuous
 62
     1
100
AcDbCircle
 10
40.09730443392583
 20
-4.72155865634221
 30
0.0
 40
0.05
100
AcDbArc
 50
16.25702800000541
 51
37.82319200001226
  0
ARC
  5
24C
330
2
100
AcDbEntity
  8
GAIKEI
  6
Continuous
 62
     1
100
AcDbCircle
 10
40.13730443392583
 20
-4.756558656342235
 30
0.0
 40
0.05
100
AcDbArc
 50
16.25702800000541
 51
80.92142899999222
  0
ARC
  5
24D
330
2
100
AcDbEntity
  8
GAIKEI
  6
Continuous
 62
     1
100
AcDbCircle
 10
40.13730443392583
 20
-4.924526756342174
 30
0.0
 40
0.05
100
AcDbArc
 50
320.9555470000155
 51
343.7429719999946
  0
ARC
  5
24E
330
2
100
AcDbEntity
  8
GAIKEI
  6
Continuous
 62
     1
100
AcDbCircle
 10
39.84929978392584
 20
-4.840542706342148
 30
0.0
 40
0.35
100
AcDbArc
 50
343.7429719999946
 51
0.0
  0
ARC
  5
24F
330
2
100
AcDbEntity
  8
GAIKEI
  6
Continuous
 62
     1
100
AcDbCircle
 10
39.84929978392584
 20
-4.840542706342148
 30
0.0
 40
0.35
100
AcDbArc
 50
0.0
 51
16.25702800000541
  0
LINE
  5
250
330
2
100
AcDbEntity
  8
GAIKEI
  6
Continuous
 62
     1
100
AcDbLine
 10
42.26429978392585
 20
-0.3055427063421803
 30
0.0
 11
42.26429978392585
 21
0.1944572936578197
 31
0.0
  0
LINE
  5
251
330
2
100
AcDbEntity
  8
GAIKEI
  6
Continuous
 62
     1
100
AcDbLine
 10
42.23929978392584
 20
-0.3055427063421803
 30
0.0
 11
42.26429978392585
 21
-0.3055427063421803
 31
0.0
  0
LINE
  5
252
330
2
100
AcDbEntity
  8
GAIKEI
  6
Continuous
 62
     1
100
AcDbLine
 10
42.26429978392585
 20
0.1944572936578197
 30
0.0
 11
42.23929978392584
 21
0.1944572936578197
 31
0.0
  0
LINE
  5
253
330
2
100
AcDbEntity
  8
GAIKEI
  6
Continuous
 62
     1
100
AcDbLine
 10
42.29929978392584
 20
-0.1930427063422257
 30
0.0
 11
42.34166223392581
 21
-0.1893364563421755
 31
0.0
  0
LINE
  5
254
330
2
100
AcDbEntity
  8
GAIKEI
  6
Continuous
 62
     1
100
AcDbLine
 10
42.34166223392581
 20
0.078251043657815
 30
0.0
 11
42.29929978392584
 21
0.0819572936578084
 31
0.0
  0
LINE
  5
255
330
2
100
AcDbEntity
  8
GAIKEI
  6
Continuous
 62
     1
100
AcDbLine
 10
42.26429978392585
 20
-0.1905427063421712
 30
0.0
 11
42.29929978392584
 21
-0.1905427063421712
 31
0.0
  0
LINE
  5
256
330
2
100
AcDbEntity
  8
GAIKEI
  6
Continuous
 62
     1
100
AcDbLine
 10
42.29929978392584
 20
0.0794572936578106
 30
0.0
 11
42.26429978392585
 21
0.0794572936578106
 31
0.0
  0
ARC
  5
257
330
2
100
AcDbEntity
  8
GAIKEI
  6
Continuous
 62
     1
100
AcDbCircle
 10
42.33730443392583
 20
0.0284413436577893
 30
0.0
 40
0.05
100
AcDbArc
 50
16.25702800000541
 51
84.9999989999781
  0
ARC
  5
258
330
2
100
AcDbEntity
  8
GAIKEI
  6
Continuous
 62
     1
100
AcDbCircle
 10
42.33730443392583
 20
-0.1395267563422067
 30
0.0
 40
0.05
100
AcDbArc
 50
275.0000010000219
 51
343.7429719999946
  0
ARC
  5
259
330
2
100
AcDbEntity
  8
GAIKEI
  6
Continuous
 62
     1
100
AcDbCircle
 10
42.04929978392584
 20
-0.0555427063421803
 30
0.0
 40
0.35
100
AcDbArc
 50
343.7429719999946
 51
0.0
  0
ARC
  5
25A
330
2
100
AcDbEntity
  8
GAIKEI
  6
Continuous
 62
     1
100
AcDbCircle
 10
42.04929978392584
 20
-0.0555427063421803
 30
0.0
 40
0.35
100
AcDbArc
 50
0.0
 51
16.25702800000541
  0
LINE
  5
25B
330
2
100
AcDbEntity
  8
GAIKEI
  6
Continuous
 62
     1
100
AcDbLine
 10
42.26429978392585
 20
-2.205542706342157
 30
0.0
 11
42.26429978392585
 21
-1.705542706342157
 31
0.0
  0
LINE
  5
25C
330
2
100
AcDbEntity
  8
GAIKEI
  6
Continuous
 62
     1
100
AcDbLine
 10
42.23929978392584
 20
-2.205542706342157
 30
0.0
 11
42.26429978392585
 21
-2.205542706342157
 31
0.0
  0
LINE
  5
25D
330
2
100
AcDbEntity
  8
GAIKEI
  6
Continuous
 62
     1
100
AcDbLine
 10
42.26429978392585
 20
-1.705542706342157
 30
0.0
 11
42.23929978392584
 21
-1.705542706342157
 31
0.0
  0
LINE
  5
25E
330
2
100
AcDbEntity
  8
GAIKEI
  6
Continuous
 62
     1
100
AcDbLine
 10
42.29929978392584
 20
-2.093042706342203
 30
0.0
 11
42.34166223392581
 21
-2.089336456342152
 31
0.0
  0
LINE
  5
25F
330
2
100
AcDbEntity
  8
GAIKEI
  6
Continuous
 62
     1
100
AcDbLine
 10
42.34166223392581
 20
-1.821748956342162
 30
0.0
 11
42.29929978392584
 21
-1.818042706342225
 31
0.0
  0
LINE
  5
260
330
2
100
AcDbEntity
  8
GAIKEI
  6
Continuous
 62
     1
100
AcDbLine
 10
42.26429978392585
 20
-2.090542706342148
 30
0.0
 11
42.29929978392584
 21
-2.090542706342148
 31
0.0
  0
LINE
  5
261
330
2
100
AcDbEntity
  8
GAIKEI
  6
Continuous
 62
     1
100
AcDbLine
 10
42.29929978392584
 20
-1.820542706342166
 30
0.0
 11
42.26429978392585
 21
-1.820542706342166
 31
0.0
  0
ARC
  5
262
330
2
100
AcDbEntity
  8
GAIKEI
  6
Continuous
 62
     1
100
AcDbCircle
 10
42.33730443392583
 20
-1.871558656342244
 30
0.0
 40
0.05
100
AcDbArc
 50
16.25702800000541
 51
84.9999989999781
  0
ARC
  5
263
330
2
100
AcDbEntity
  8
GAIKEI
  6
Continuous
 62
     1
100
AcDbCircle
 10
42.33730443392583
 20
-2.039526756342183
 30
0.0
 40
0.05
100
AcDbArc
 50
275.0000010000219
 51
343.7429719999946
  0
ARC
  5
264
330
2
100
AcDbEntity
  8
GAIKEI
  6
Continuous
 62
     1
100
AcDbCircle
 10
42.04929978392584
 20
-1.955542706342157
 30
0.0
 40
0.35
100
AcDbArc
 50
343.7429719999946
 51
0.0
  0
ARC
  5
265
330
2
100
AcDbEntity
  8
GAIKEI
  6
Continuous
 62
     1
100
AcDbCircle
 10
42.04929978392584
 20
-1.955542706342157
 30
0.0
 40
0.35
100
AcDbArc
 50
0.0
 51
16.25702800000541
  0
LINE
  5
266
330
2
100
AcDbEntity
  8
GAIKEI
  6
Continuous
 62
     1
100
AcDbLine
 10
40.27232188392583
 20
2.727794443657785
 30
0.0
 11
40.27232188392583
 21
3.461120143657808
 31
0.0
  0
LINE
  5
267
330
2
100
AcDbEntity
  8
GAIKEI
  6
Continuous
 62
     1
100
AcDbLine
 10
41.78031403392583
 20
-0.3499499063422036
 30
0.0
 11
41.84325563392582
 21
-0.424960756342216
 31
0.0
  0
LINE
  5
268
330
2
100
AcDbEntity
  8
GAIKEI
  6
Continuous
 62
     1
100
AcDbLine
 10
41.84325563392582
 20
-0.424960756342216
 30
0.0
 11
41.84325563392582
 21
-2.608312906342177
 31
0.0
  0
LINE
  5
269
330
2
100
AcDbEntity
  8
GAIKEI
  6
Continuous
 62
     1
100
AcDbLine
 10
41.84325563392582
 20
-2.608312906342177
 30
0.0
 11
40.13679978392585
 21
-3.229412077295364
 31
0.0
  0
LINE
  5
26A
330
2
100
AcDbEntity
  8
GAIKEI
  6
Continuous
 62
     7
100
AcDbLine
 10
40.13679978392585
 20
-3.970790141467887
 30
0.0
 11
42.07480483392584
 21
-3.265413956342172
 31
0.0
  0
LINE
  5
26B
330
2
100
AcDbEntity
  8
GAIKEI
  6
Continuous
 62
     7
100
AcDbLine
 10
42.23929978392585
 20
-3.030490806342186
 30
0.0
 11
42.23929978392584
 21
-0.1461840563421788
 31
0.0
  0
LINE
  5
26C
330
2
100
AcDbEntity
  8
GAIKEI
  6
Continuous
 62
     7
100
AcDbLine
 10
42.28936678392584
 20
0.7550869436578296
 30
0.0
 11
42.23686678392583
 21
0.711034193657838
 31
0.0
  0
LINE
  5
26D
330
2
100
AcDbEntity
  8
GAIKEI
  6
Continuous
 62
     7
100
AcDbLine
 10
42.23686678392583
 20
0.711034193657838
 30
0.0
 11
42.23686678392583
 21
-0.1461840563421788
 31
0.0
  0
LINE
  5
26E
330
2
100
AcDbEntity
  8
GAIKEI
  6
Continuous
 62
     1
100
AcDbLine
 10
42.23929978392584
 20
-0.3344443563421464
 30
0.0
 11
42.23929978392584
 21
-0.333968206342206
 31
0.0
  0
LINE
  5
26F
330
2
100
AcDbEntity
  8
GAIKEI
  6
Continuous
 62
     1
100
AcDbLine
 10
42.23686678392583
 20
-0.1461840563421788
 30
0.0
 11
42.23929978392584
 21
-0.1461840563421788
 31
0.0
  0
LINE
  5
270
330
2
100
AcDbEntity
  8
GAIKEI
  6
Continuous
 62
     7
100
AcDbLine
 10
42.29179978392582
 20
0.7084621936578515
 30
0.0
 11
42.29179978392582
 21
0.7427002936577765
 31
0.0
  0
LINE
  5
271
330
2
100
AcDbEntity
  8
GAIKEI
  6
Continuous
 62
     1
100
AcDbLine
 10
42.23929978392584
 20
-2.755542706342225
 30
0.0
 11
42.23929978392584
 21
-2.605542706342191
 31
0.0
  0
LINE
  5
272
330
2
100
AcDbEntity
  8
GAIKEI
  6
Continuous
 62
     1
100
AcDbLine
 10
42.23929978392584
 20
-2.755542706342225
 30
0.0
 11
42.23929978392584
 21
-2.80554270634218
 31
0.0
  0
LINE
  5
273
330
2
100
AcDbEntity
  8
GAIKEI
  6
Continuous
 62
     1
100
AcDbLine
 10
40.31152728392581
 20
-4.431679556342203
 30
0.0
 11
40.34121578392583
 21
-4.430123656342175
 31
0.0
  0
LINE
  5
274
330
2
100
AcDbEntity
  8
GAIKEI
  6
Continuous
 62
     1
100
AcDbLine
 10
40.34121578392583
 20
-4.430123656342175
 30
0.0
 11
41.58189293392584
 21
-4.365102506342168
 31
0.0
  0
LINE
  5
275
330
2
100
AcDbEntity
  8
GAIKEI
  6
Continuous
 62
     1
100
AcDbLine
 10
40.23621578392581
 20
-4.43562645634222
 30
0.0
 11
40.31152728392581
 21
-4.431679556342203
 31
0.0
  0
LINE
  5
276
330
2
100
AcDbEntity
  8
GAIKEI
  6
Continuous
 62
     1
100
AcDbLine
 10
42.12679978392586
 20
-3.790890506342179
 30
0.0
 11
42.12679978392586
 21
-3.405542706342259
 31
0.0
  0
LINE
  5
277
330
2
100
AcDbEntity
  8
GAIKEI
  6
Continuous
 62
     1
100
AcDbLine
 10
42.29179978392582
 20
0.8740443936577548
 30
0.0
 11
42.29179978392582
 21
0.8786532936578623
 31
0.0
  0
LINE
  5
278
330
2
100
AcDbEntity
  8
GAIKEI
  6
Continuous
 62
     1
100
AcDbLine
 10
42.29179978392582
 20
0.7167240436577913
 30
0.0
 11
42.29179978392582
 21
0.8740443936577548
 31
0.0
  0
LINE
  5
279
330
2
100
AcDbEntity
  8
GAIKEI
  6
Continuous
 62
     1
100
AcDbLine
 10
42.29179978392582
 20
0.8786532936578623
 30
0.0
 11
42.29179978392582
 21
1.975409143657827
 31
0.0
  0
LINE
  5
27A
330
2
100
AcDbEntity
  8
GAIKEI
  6
Continuous
 62
     1
100
AcDbLine
 10
42.29179978392582
 20
0.7167240436577913
 30
0.0
 11
42.29179978392582
 21
0.8740443936577548
 31
0.0
  0
LINE
  5
27B
330
2
100
AcDbEntity
  8
GAIKEI
  6
Continuous
 62
     1
100
AcDbLine
 10
42.29179978392582
 20
0.8786532936578623
 30
0.0
 11
42.29179978392582
 21
1.975409143657827
 31
0.0
  0
ARC
  5
27C
330
2
100
AcDbEntity
  8
GAIKEI
  6
Continuous
 62
     7
100
AcDbCircle
 10
41.98929978392584
 20
-3.030490806342186
 30
0.0
 40
0.25
100
AcDbArc
 50
289.9999999999963
 51
0.0
  0
ARC
  5
27D
330
2
100
AcDbEntity
  8
GAIKEI
  6
Continuous
 62
     1
100
AcDbCircle
 10
42.14179978392581
 20
0.7084621936578515
 30
0.0
 40
0.15
100
AcDbArc
 50
317.5189609999846
 51
0.0
  0
ARC
  5
27E
330
2
100
AcDbEntity
  8
GAIKEI
  6
Continuous
 62
     1
100
AcDbCircle
 10
42.28929978392585
 20
0.5733931436578246
 30
0.0
 40
0.05
100
AcDbArc
 50
137.5189609999845
 51
180.0
  0
ARC
  5
27F
330
2
100
AcDbEntity
  8
GAIKEI
  6
Continuous
 62
     1
100
AcDbCircle
 10
42.28929978392585
 20
0.5733779936578003
 30
0.0
 40
0.05
100
AcDbArc
 50
137.5188869999825
 51
180.0
  0
ARC
  5
280
330
2
100
AcDbEntity
  8
GAIKEI
  6
Continuous
 62
     1
100
AcDbCircle
 10
42.14179978392581
 20
0.7084474436578603
 30
0.0
 40
0.15
100
AcDbArc
 50
317.5188869999825
 51
0.0
  0
ARC
  5
281
330
2
100
AcDbEntity
  8
GAIKEI
  6
Continuous
 62
     1
100
AcDbCircle
 10
40.24929978392584
 20
-4.685283856342209
 30
0.0
 40
0.25
100
AcDbArc
 50
101.6320759999917
 51
116.7436839999996
  0
ARC
  5
282
330
2
100
AcDbEntity
  8
GAIKEI
  6
Continuous
 62
     1
100
AcDbCircle
 10
40.24929978392584
 20
-4.685283856342209
 30
0.0
 40
0.25
100
AcDbArc
 50
93.00000000000558
 51
101.6320759999917
  0
ARC
  5
283
330
2
100
AcDbEntity
  8
GAIKEI
  6
Continuous
 62
     1
100
AcDbCircle
 10
41.55179978392584
 20
-3.790890506342179
 30
0.0
 40
0.5750000000000001
100
AcDbArc
 50
273.0000000000056
 51
0.0
  0
ELLIPSE
  5
284
330
2
100
AcDbEntity
  8
GAIKEI
  6
Continuous
 62
     1
100
AcDbEllipse
 10
41.55179978392584
 20
-3.790890506342179
 30
0.0
 11
0.5749999999999993
 21
0.0000000000000171
 31
0.0
210
0.0
220
0.0
230
1.0
 40
0.3583520000000312
 41
-0.7964317564974064
 42
-0.000000000000083
  0
LINE
  5
285
330
2
100
AcDbEntity
  8
GAIKEI
  6
Continuous
 62
     1
100
AcDbLine
 10
38.06136618392583
 20
-5.302941206342211
 30
0.0
 11
40.03679978392584
 21
-5.405816806342158
 31
0.0
  0
LINE
  5
286
330
2
100
AcDbEntity
  8
GAIKEI
  6
Continuous
 62
     7
100
AcDbLine
 10
40.03679978392584
 20
-5.605542706342191
 30
0.0
 11
38.06136618392583
 21
-5.502667106342187
 31
0.0
  0
LINE
  5
287
330
2
100
AcDbEntity
  8
GAIKEI
  6
Continuous
 62
     1
100
AcDbLine
 10
40.03679978392584
 20
-5.405816806342158
 30
0.0
 11
40.03679978392584
 21
-5.605542706342191
 31
0.0
  0
LINE
  5
288
330
2
100
AcDbEntity
  8
GAIKEI
  6
Continuous
 62
     7
100
AcDbLine
 10
40.11397868392584
 20
-5.588790406342184
 30
0.0
 11
40.03679978392584
 21
-5.5955427063422
 31
0.0
  0
LINE
  5
289
330
2
100
AcDbEntity
  8
GAIKEI
  6
Continuous
 62
     7
100
AcDbLine
 10
38.00340798392586
 20
-5.470142556342239
 30
0.0
 11
37.84809418392584
 21
-5.24331350634219
 31
0.0
  0
ARC
  5
28A
330
2
100
AcDbEntity
  8
GAIKEI
  6
Continuous
 62
     7
100
AcDbCircle
 10
40.11179978392584
 20
-5.563885556342199
 30
0.0
 40
0.025
100
AcDbArc
 50
275.0000000000229
 51
0.0
  0
ARC
  5
28B
330
2
100
AcDbEntity
  8
GAIKEI
  6
Continuous
 62
     7
100
AcDbCircle
 10
38.06529138392584
 20
-5.427769856342138
 30
0.0
 40
0.075
100
AcDbArc
 50
214.4001229999904
 51
266.9999999999944
  0
ARC
  5
28C
330
2
100
AcDbEntity
  8
GAIKEI
  6
Continuous
 62
     7
100
AcDbCircle
 10
37.88934978392585
 20
-5.215065056342155
 30
0.0
 40
0.05
100
AcDbArc
 50
180.0
 51
214.4001229999904
  0
SPLINE
  5
28D
330
2
100
AcDbEntity
  8
GAIKEI
  6
Continuous
 62
     1
100
AcDbSpline
210
0.0
220
0.0
230
1.0
 70
     8
 71
     3
 72
    11
 73
     7
 74
     5
 42
0.0000000001
 43
0.0000000001
 44
0.000001
 12
0.7261327727615202
 22
0.6875545042552385
 32
0.0
 13
0.5694961259181754
 23
0.8219940161364862
 33
0.0
 40
0.0
 40
0.0
 40
0.0
 40
0.0
 40
0.0216057200347222
 40
0.0445668898279812
 40
0.0685149071729425
 40
0.0928153822368483
 40
0.0928153822368483
 40
0.0928153822368483
 40
0.0928153822368483
 10
40.1368049718738
 20
2.486012161335395
 30
0.0
 10
40.14203451233924
 20
2.490963864711261
 30
0.0
 10
40.15258905925527
 20
2.501426612819955
 30
0.0
 10
40.16804015577349
 20
2.518256915227084
 30
0.0
 10
40.18317555142902
 20
2.536556935780424
 30
0.0
 10
40.19270885241925
 20
2.549522620702362
 30
0.0
 10
40.19732186122155
 20
2.556180902399603
 30
0.0
 11
40.1368049718738
 21
2.486012161335395
 31
0.0
 11
40.15214868015957
 21
2.501222778232545
 31
0.0
 11
40.16767154646305
 21
2.518141044256708
 31
0.0
 11
40.18292331957773
 21
2.536605031345175
 31
0.0
 11
40.19732186122155
 21
2.556180902399603
 31
0.0
  0
SPLINE
  5
28E
330
2
100
AcDbEntity
  8
GAIKEI
  6
Continuous
 62
     1
100
AcDbSpline
210
0.0
220
0.0
230
1.0
 70
     8
 71
     3
 72
    11
 73
     7
 74
     5
 42
0.0000000001
 43
0.0000000001
 44
0.000001
 12
-0.5697183474043875
 22
0.8218400115781744
 32
0.0
 13
-0.7258381967822672
 23
0.6878654752870411
 33
0.0
 40
0.0
 40
0.0
 40
0.0
 40
0.0
 40
0.0271269143005459
 40
0.0541651219876278
 40
0.0813877632111777
 40
0.0927557661412398
 40
0.0927557661412398
 40
0.0927557661412398
 40
0.0927557661412398
 10
40.19732186122155
 20
3.632733684916047
 30
0.0
 10
40.19217029429306
 20
3.640165012770353
 30
0.0
 10
40.18141879011183
 20
3.654687968829421
 30
0.0
 10
40.16390886604809
 20
3.675430709575948
 30
0.0
 10
40.14882862213791
 20
3.691297159669034
 30
0.0
 10
40.13959687383922
 20
3.700256568091901
 30
0.0
 10
40.13684643025664
 20
3.702863120338065
 30
0.0
 11
40.19732186122155
 21
3.632733684916047
 31
0.0
 11
40.1811755779259
 21
3.654532429715459
 31
0.0
 11
40.16375154999415
 21
3.675208139702476
 31
0.0
 11
40.14500322058984
 21
3.694945860250641
 31
0.0
 11
40.13684643025664
 21
3.702863120338065
 31
0.0
  0
SPLINE
  5
28F
330
2
100
AcDbEntity
  8
GAIKEI
  6
Continuous
 62
     1
100
AcDbSpline
210
0.0
220
0.0
230
1.0
 70
     8
 71
     3
 72
    13
 73
     9
 74
     7
 42
0.0000000001
 43
0.0000000001
 44
0.000001
 12
-0.3556040416314752
 22
0.9346367024546809
 32
0.0
 13
-0.4792288571630963
 23
0.8776899808372844
 33
0.0
 40
0.0
 40
0.0
 40
0.0
 40
0.0
 40
0.0009841552556807
 40
0.0341752847052409
 40
0.072450229555922
 40
0.110709870812978
 40
0.1490911211199517
 40
0.1874325864602751
 40
0.1874325864602751
 40
0.1874325864602751
 40
0.1874325864602751
 10
40.27232186122136
 20
3.461120122784507
 30
0.0
 10
40.27220520469254
 20
3.461426731992105
 30
0.0
 10
40.26815387588867
 20
3.472073748628872
 30
0.0
 10
40.25950148901813
 20
3.494620767728804
 30
0.0
 10
40.24601846182287
 20
3.528622149438774
 30
0.0
 10
40.23113516944486
 20
3.563921181808325
 30
0.0
 10
40.21522072386519
 20
3.598799774257884
 30
0.0
 10
40.20344664009388
 20
3.621516378256103
 30
0.0
 10
40.19732186122155
 20
3.632733684916047
 30
0.0
 11
40.27232186122136
 21
3.461120122784507
 31
0.0
 11
40.2719718029509
 21
3.462039897986471
 31
0.0
 11
40.26005486401865
 21
3.493017276628904
 31
0.0
 11
40.24588928279081
 21
3.528574191103302
 31
0.0
 11
40.23098141095235
 21
3.563809654933436
 31
0.0
 11
40.21492714623988
 21
3.598672703556076
 31
0.0
 11
40.19732186122155
 21
3.632733684916047
 31
0.0
  0
SPLINE
  5
290
330
2
100
AcDbEntity
  8
GAIKEI
  6
Continuous
 62
     1
100
AcDbSpline
210
0.0
220
0.0
230
1.0
 70
     8
 71
     3
 72
    12
 73
     8
 74
     6
 42
0.0000000001
 43
0.0000000001
 44
0.000001
 12
0.4769591228668367
 22
0.8789254775657024
 32
0.0
 13
0.355593553261721
 23
0.9346406929289477
 33
0.0
 40
0.0
 40
0.0
 40
0.0
 40
0.0
 40
0.0463485371772527
 40
0.0928814443548106
 40
0.1396449289866773
 40
0.1864441356849462
 40
0.1874282895021767
 40
0.1874282895021767
 40
0.1874282895021767
 40
0.1874282895021767
 10
40.19732186122155
 20
2.556180902399603
 30
0.0
 10
40.20469064710096
 20
2.569759872457268
 30
0.0
 10
40.21881032244249
 20
2.597334738878316
 30
0.0
 10
40.23763445702006
 20
2.639924011321852
 30
0.0
 10
40.25522449404023
 20
2.683186133947458
 30
0.0
 10
40.26654052225576
 20
2.712601432702058
 30
0.0
 10
40.27220520830375
 20
2.727487854462594
 30
0.0
 10
40.27232186122136
 20
2.727794464531143
 30
0.0
 11
40.19732186122155
 21
2.556180902399603
 31
0.0
 11
40.21838504501903
 21
2.597467141956201
 31
0.0
 11
40.23738975622319
 21
2.639942838710396
 31
0.0
 11
40.2550828962877
 21
2.683230194236216
 31
0.0
 11
40.27197180291233
 21
2.726874689345606
 31
0.0
 11
40.27232186122136
 21
2.727794464531143
 31
0.0
  0
SPLINE
  5
291
330
2
100
AcDbEntity
  8
GAIKEI
  6
Continuous
 62
     1
100
AcDbSpline
210
0.0
220
0.0
230
1.0
 70
     8
 71
     3
 72
    30
 73
    26
 74
    24
 42
0.0000000001
 43
0.0000000001
 44
0.000001
 12
-0.0200236380412519
 22
-0.9997995068610471
 32
0.0
 13
0.6382126117635996
 23
-0.7698601575519316
 33
0.0
 40
0.0
 40
0.0
 40
0.0
 40
0.0
 40
0.0166069238216534
 40
0.037301078554888
 40
0.0621612230433223
 40
0.0912321347745792
 40
0.1271247647505298
 40
0.1661149835441988
 40
0.1996843709300523
 40
0.2075830122509956
 40
0.2151115874076587
 40
0.2222706400799754
 40
0.2290608027015228
 40
0.2354828166742133
 40
0.2415375586177529
 40
0.269538212107097
 40
0.2966935088714161
 40
0.3230613834754922
 40
0.3487051081642353
 40
0.3736934566497212
 40
0.3981007431757856
 40
0.4408164956220493
 40
0.4807239607647317
 40
0.5184525715331189
 40
0.5547443344004014
 40
0.5547443344004014
 40
0.5547443344004014
 40
0.5547443344004014
 10
41.76307320304696
 20
0.1853671644769292
 30
0.0
 10
41.76296235936976
 20
0.179832633061153
 30
0.0
 10
41.76233393700582
 20
0.1674004716503532
 30
0.0
 10
41.75946757102178
 20
0.1468610174429159
 30
0.0
 10
41.75497986801139
 20
0.1223914158763932
 30
0.0
 10
41.74852226505257
 20
0.0931481913220296
 30
0.0
 10
41.74013296057774
 20
0.0595270055784454
 30
0.0
 10
41.73205040640437
 20
0.0242891594244839
 30
0.0
 10
41.72652876003934
 20
-0.0019584603516591
 30
0.0
 10
41.72346712210203
 20
-0.0180013098448058
 30
0.0
 10
41.72211553146931
 20
-0.0254078380495457
 30
0.0
 10
41.72089275474928
 20
-0.0324620188358722
 30
0.0
 10
41.7197995672388
 20
-0.0391639591000512
 30
0.0
 10
41.71883322035746
 20
-0.0455133406076129
 30
0.0
 10
41.71698316673492
 20
-0.0588785570179766
 30
0.0
 10
41.714749146431
 20
-0.0791671279334878
 30
0.0
 10
41.71295440632586
 20
-0.1062913095028648
 30
0.0
 10
41.71247395488935
 20
-0.1326868238513725
 30
0.0
 10
41.71329926652887
 20
-0.1583512252919945
 30
0.0
 10
41.7154292804897
 20
-0.1832871076057927
 30
0.0
 10
41.71976604065192
 20
-0.2136955330646515
 30
0.0
 10
41.72756729892197
 20
-0.2485870483654935
 30
0.0
 10
41.74088170475758
 20
-0.2865376683668614
 30
0.0
 10
41.7581344812005
 20
-0.3205132698528814
 30
0.0
 10
41.77259341266706
 20
-0.3406366921228141
 30
0.0
 10
41.78031403292208
 20
-0.3499498862157679
 30
0.0
 11
41.76307320304696
 21
0.1853671644769292
 31
0.0
 11
41.76218545679236
 21
0.168784182884508
 31
0.0
 11
41.75952686821102
 21
0.1482615462049353
 31
0.0
 11
41.7550974373029
 21
0.1237992544382678
 31
0.0
 11
41.74889716406801
 21
0.0953973075843919
 31
0.0
 11
41.74048831006413
 21
0.0605036543045685
 31
0.0
 11
41.73176915853733
 21
0.0225009183466227
 31
0.0
 11
41.72493310524155
 21
-0.0103649998970923
 31
0.0
 11
41.72345389124595
 21
-0.0181238841742584
 31
0.0
 11
41.72210384668685
 21
-0.0255304130413379
 31
0.0
 11
41.72088297156415
 21
-0.0325845864982739
 31
0.0
 11
41.719791265878
 21
-0.0392864045451233
 31
0.0
 11
41.71882872962834
 21
-0.0456358671818862
 31
0.0
 11
41.71799536281514
 21
-0.0516329744085056
 31
0.0
 11
41.71492341700079
 21
-0.0794645658580748
 31
0.0
 11
41.71315605859045
 21
-0.1065622521658724
 31
0.0
 11
41.71269328758419
 21
-0.1329260333319553
 31
0.0
 11
41.71353510398193
 21
-0.1585559093562097
 31
0.0
 11
41.71568150778376
 21
-0.1834518802386924
 31
0.0
 11
41.71913249898958
 21
-0.2076139459793467
 31
0.0
 11
41.728604905274
 21
-0.2492661698292977
 31
0.0
 11
41.74195929635757
 21
-0.2868729011519804
 31
0.0
 11
41.75919567224028
 21
-0.3204341399474515
 31
0.0
 11
41.78031403292208
 21
-0.3499498862157679
 31
0.0
  0
SPLINE
  5
292
330
2
100
AcDbEntity
  8
GAIKEI
  6
Continuous
 62
     1
100
AcDbSpline
210
0.0
220
0.0
230
1.0
 70
     8
 71
     3
 72
    13
 73
     9
 74
     7
 42
0.0000000001
 43
0.0000000001
 44
0.000001
 12
-0.9958439311814659
 22
-0.091076147969947
 32
0.0
 13
-0.9929680145434634
 23
-0.1183829468023682
 33
0.0
 40
0.0
 40
0.0
 40
0.0
 40
0.0
 40
0.2790849670557549
 40
0.4824077539591704
 40
0.6857426128006058
 40
0.8891214813044779
 40
1.092568902581033
 40
1.13206428138868
 40
1.13206428138868
 40
1.13206428138868
 40
1.13206428138868
 10
41.95387541654333
 20
-3.938190262729222
 30
0.0
 10
41.86123372630118
 20
-3.946662923981136
 30
0.0
 10
41.70113842977289
 20
-3.961737711251601
 30
0.0
 10
41.47365915173574
 20
-3.984157172460584
 30
0.0
 10
41.27138569383721
 20
-4.005018104810346
 30
0.0
 10
41.06917948502046
 20
-4.026911545499331
 30
0.0
 10
40.92136753440022
 20
-4.043813201969896
 30
0.0
 10
40.84095001426596
 20
-4.053349234387212
 30
0.0
 10
40.82787746497319
 20
-4.054907760829962
 30
0.0
 11
41.95387541654333
 21
-3.938190262729222
 31
0.0
 11
41.67601822540859
 21
-3.964339447666532
 31
0.0
 11
41.47367864615595
 21
-3.984310509216982
 31
0.0
 11
41.27141853519043
 21
-4.005188898899746
 31
0.0
 11
41.06922474586014
 21
-4.027112130349962
 31
0.0
 11
40.86709822859731
 21
-4.050257660786996
 31
0.0
 11
40.82787746497319
 21
-4.054907760829962
 31
0.0
  0
ENDSEC
  0
SECTION
  2
OBJECTS
  0
DICTIONARY
  5
7
330
0
100
AcDbDictionary
281
     1
  3
ACAD_COLOR
350
2D
  3
ACAD_GROUP
350
29
  3
ACAD_LAYOUT
350
B
  3
ACAD_MATERIAL
350
2C
  3
ACAD_MLINESTYLE
350
2A
  3
ACAD_PLOTSETTINGS
350
2B
  3
ACAD_PLOTSTYLENAME
350
6
  3
ACDBHEADERROUNDTRIPXREC
350
2DD
  3
AcDbVariableDictionary
350
2D8
  0
DICTIONARY
  5
11
330
10
100
AcDbDictionary
280
     1
281
     1
  3
ACAD_LAYERFILTERS
360
12
  3
ACAD_LAYERSTATES
360
13
  0
DICTIONARY
  5
2D
102
{ACAD_REACTORS
330
7
102
}
330
7
100
AcDbDictionary
281
     1
  0
DICTIONARY
  5
29
102
{ACAD_REACTORS
330
7
102
}
330
7
100
AcDbDictionary
281
     1
  0
DICTIONARY
  5
B
102
{ACAD_REACTORS
330
7
102
}
330
7
100
AcDbDictionary
281
     1
  3
Model
350
A
  3
レイアウト1
350
F
  0
DICTIONARY
  5
2C
102
{ACAD_REACTORS
330
7
102
}
330
7
100
AcDbDictionary
281
     1
  0
DICTIONARY
  5
2A
102
{ACAD_REACTORS
330
7
102
}
330
7
100
AcDbDictionary
281
     1
  3
Standard
350
2F
  0
DICTIONARY
  5
2B
102
{ACAD_REACTORS
330
7
102
}
330
7
100
AcDbDictionary
281
     1
  0
ACDBDICTIONARYWDFLT
  5
6
102
{ACAD_REACTORS
330
7
102
}
330
7
100
AcDbDictionary
281
     1
  3
Normal
350
5
100
AcDbDictionaryWithDefault
340
5
  0
DICTIONARY
  5
2DD
102
{ACAD_REACTORS
330
7
102
}
330
7
100
AcDbDictionary
281
     1
  3
COLORDICT
350
2DF
  3
MATERIALDICT
350
2DE
  0
DICTIONARY
  5
2D8
102
{ACAD_REACTORS
330
7
102
}
330
7
100
AcDbDictionary
281
     1
  3
DIMASSOC
350
2DA
  3
HIDETEXT
350
2D9
  3
PROJECTNAME
350
2DB
  0
DICTIONARY
  5
12
102
{ACAD_REACTORS
330
11
102
}
330
11
100
AcDbDictionary
281
     1
  0
DICTIONARY
  5
13
102
{ACAD_REACTORS
330
11
102
}
330
11
100
AcDbDictionary
281
     1
  0
LAYOUT
  5
A
102
{ACAD_XDICTIONARY
360
2E0
102
}
102
{ACAD_REACTORS
330
B
102
}
330
B
100
AcDbPlotSettings
  1

  2
10F06M_RICOH_SP-8100
  4
A4
  6

 40
5.873749732971191
 41
5.873747825622558
 42
5.873748779296875
 43
5.873748779296875
 44
209.9733276367187
 45
296.9259948730469
 46
5.429999999999999
 47
0.0
 48
0.0
 49
0.0
140
0.0
141
0.0
142
1.0
143
1.382388793903341
 70
 11956
 72
     1
 73
     0
 74
     1
  7
tmsacad.ctb
 75
     0
147
0.7233854935820042
148
0.0064050313486632
149
0.0060110292993159
100
AcDbLayout
  1
Model
 70
     1
 71
     0
 10
0.0
 20
0.0
 11
12.0
 21
9.0
 12
0.0
 22
0.0
 32
0.0
 14
0.0
 24
0.0
 34
0.0
 15
0.0
 25
0.0
 35
0.0
146
0.0
 13
0.0
 23
0.0
 33
0.0
 16
1.0
 26
0.0
 36
0.0
 17
0.0
 27
1.0
 37
0.0
 76
     0
330
2
  0
LAYOUT
  5
F
102
{ACAD_XDICTIONARY
360
2E2
102
}
102
{ACAD_REACTORS
330
B
102
}
330
B
100
AcDbPlotSettings
  1

  2
None
  4

  6

 40
0.0
 41
0.0
 42
0.0
 43
0.0
 44
0.0
 45
0.0
 46
0.0
 47
0.0
 48
0.0
 49
0.0
140
0.0
141
0.0
142
1.0
143
1.0
 70
   688
 72
     0
 73
     0
 74
     5
  7
tmsacad.ctb
 75
    16
147
1.0
148
0.0
149
0.0
100
AcDbLayout
  1
レイアウト1
 70
     1
 71
     1
 10
0.0
 20
0.0
 11
12.0
 21
9.0
 12
0.0
 22
0.0
 32
0.0
 14
0.0
 24
0.0
 34
0.0
 15
0.0
 25
0.0
 35
0.0
146
0.0
 13
0.0
 23
0.0
 33
0.0
 16
1.0
 26
0.0
 36
0.0
 17
0.0
 27
1.0
 37
0.0
 76
     0
330
C
  0
MLINESTYLE
  5
2F
102
{ACAD_REACTORS
330
2A
102
}
330
2A
100
AcDbMlineStyle
  2
STANDARD
 70
     0
  3

 62
   256
 51
90.0
 52
90.0
 71
     2
 49
0.5
 62
   256
  6
BYLAYER
 49
-0.5
 62
   256
  6
BYLAYER
  0
ACDBPLACEHOLDER
  5
5
102
{ACAD_REACTORS
330
6
102
}
330
6
  0
XRECORD
  5
2DF
102
{ACAD_REACTORS
330
2DD
102
}
330
2DD
100
AcDbXrecord
280
     1
340
2D
  0
XRECORD
  5
2DE
102
{ACAD_REACTORS
330
2DD
102
}
330
2DD
100
AcDbXrecord
280
     1
340
2C
  0
DICTIONARYVAR
  5
2DA
102
{ACAD_REACTORS
330
2D8
102
}
330
2D8
100
DictionaryVariables
280
     0
  1
1
  0
DICTIONARYVAR
  5
2D9
102
{ACAD_REACTORS
330
2D8
102
}
330
2D8
100
DictionaryVariables
280
     0
  1
1
  0
DICTIONARYVAR
  5
2DB
102
{ACAD_REACTORS
330
2D8
102
}
330
2D8
100
DictionaryVariables
280
     0
  1

  0
DICTIONARY
  5
2E0
330
A
100
AcDbDictionary
280
     1
281
     1
  3
ACAD_XREC_ROUNDTRIP
360
2E1
  0
DICTIONARY
  5
2E2
330
F
100
AcDbDictionary
280
     1
281
     1
  3
ACAD_XREC_ROUNDTRIP
360
2E3
  0
XRECORD
  5
2E1
102
{ACAD_REACTORS
330
2E0
102
}
330
2E0
100
AcDbXrecord
280
     1
102
SHADEPLOT
 70
     0
102
SHADEPLOTRESLEVEL
 70
     2
102
SHADEPLOTCUSTOMDPI
 70
   300
  0
XRECORD
  5
2E3
102
{ACAD_REACTORS
330
2E2
102
}
330
2E2
100
AcDbXrecord
280
     1
102
SHADEPLOT
 70
     0
102
SHADEPLOTRESLEVEL
 70
     2
102
SHADEPLOTCUSTOMDPI
 70
   300
  0
ENDSEC
  0
EOF
