  0
SECTION
  2
HEADER
  9
$ACADVER
  1
AC1015
  9
$ACADMAINTVER
 70
    20
  9
$DWGCODEPAGE
  3
ANSI_932
  9
$INSBASE
 10
0.4999999440410648
 20
246.5008351249344
 30
0.0
  9
$EXTMIN
 10
-61.37603669121858
 20
-59.21781859129874
 30
-0.0015258207003583
  9
$EXTMAX
 10
63.65753230133271
 20
53.80677836249436
 30
0.0000000349246037
  9
$LIMMIN
 10
0.0
 20
0.0
  9
$LIMMAX
 10
420.0
 20
297.0
  9
$ORTHOMODE
 70
     1
  9
$REGENMODE
 70
     0
  9
$FILLMODE
 70
     1
  9
$QTEXTMODE
 70
     0
  9
$MIRRTEXT
 70
     0
  9
$LTSCALE
 40
1.0
  9
$ATTMODE
 70
     1
  9
$TEXTSIZE
 40
2.5
  9
$TRACEWID
 40
1.0
  9
$TEXTSTYLE
  7
Standard
  9
$CLAYER
  8
SUNPO
  9
$CELTYPE
  6
ByLayer
  9
$CECOLOR
 62
   256
  9
$CELTSCALE
 40
1.0
  9
$DISPSILH
 70
     0
  9
$DIMSCALE
 40
1.0
  9
$DIMASZ
 40
2.0
  9
$DIMEXO
 40
2.0
  9
$DIMDLI
 40
8.0
  9
$DIMRND
 40
0.0
  9
$DIMDLE
 40
0.0
  9
$DIMEXE
 40
2.0
  9
$DIMTP
 40
0.0
  9
$DIMTM
 40
0.0
  9
$DIMTXT
 40
2.5
  9
$DIMCEN
 40
0.0
  9
$DIMTSZ
 40
0.0
  9
$DIMTOL
 70
     0
  9
$DIMLIM
 70
     0
  9
$DIMTIH
 70
     0
  9
$DIMTOH
 70
     0
  9
$DIMSE1
 70
     0
  9
$DIMSE2
 70
     0
  9
$DIMTAD
 70
     3
  9
$DIMZIN
 70
     0
  9
$DIMBLK
  1

  9
$DIMASO
 70
     1
  9
$DIMSHO
 70
     1
  9
$DIMPOST
  1

  9
$DIMAPOST
  1

  9
$DIMALT
 70
     0
  9
$DIMALTD
 70
     2
  9
$DIMALTF
 40
25.4
  9
$DIMLFAC
 40
1.0
  9
$DIMTOFL
 70
     1
  9
$DIMTVP
 40
0.0
  9
$DIMTIX
 70
     0
  9
$DIMSOXD
 70
     0
  9
$DIMSAH
 70
     1
  9
$DIMBLK1
  1
OPEN30
  9
$DIMBLK2
  1
OPEN30
  9
$DIMSTYLE
  2
STANDARD
  9
$DIMCLRD
 70
     0
  9
$DIMCLRE
 70
     0
  9
$DIMCLRT
 70
     0
  9
$DIMTFAC
 40
1.0
  9
$DIMGAP
 40
0.5
  9
$DIMJUST
 70
     0
  9
$DIMSD1
 70
     0
  9
$DIMSD2
 70
     0
  9
$DIMTOLJ
 70
     1
  9
$DIMTZIN
 70
     0
  9
$DIMALTZ
 70
     0
  9
$DIMALTTZ
 70
     0
  9
$DIMUPT
 70
     0
  9
$DIMDEC
 70
     4
  9
$DIMTDEC
 70
     4
  9
$DIMALTU
 70
     2
  9
$DIMALTTD
 70
     2
  9
$DIMTXSTY
  7
Standard
  9
$DIMAUNIT
 70
     0
  9
$DIMADEC
 70
     0
  9
$DIMALTRND
 40
0.0
  9
$DIMAZIN
 70
     0
  9
$DIMDSEP
 70
    46
  9
$DIMATFIT
 70
     3
  9
$DIMFRAC
 70
     0
  9
$DIMLDRBLK
  1
OPEN30
  9
$DIMLUNIT
 70
     2
  9
$DIMLWD
 70
    -2
  9
$DIMLWE
 70
    -2
  9
$DIMTMOVE
 70
     0
  9
$LUNITS
 70
     2
  9
$LUPREC
 70
     4
  9
$SKETCHINC
 40
1.0
  9
$FILLETRAD
 40
0.0
  9
$AUNITS
 70
     0
  9
$AUPREC
 70
     0
  9
$MENU
  1
.
  9
$ELEVATION
 40
0.0
  9
$PELEVATION
 40
0.0
  9
$THICKNESS
 40
0.0
  9
$LIMCHECK
 70
     0
  9
$CHAMFERA
 40
0.0
  9
$CHAMFERB
 40
0.0
  9
$CHAMFERC
 40
0.0
  9
$CHAMFERD
 40
0.0
  9
$SKPOLY
 70
     0
  9
$TDCREATE
 40
2454349.434269746
  9
$TDUCREATE
 40
2454349.059269746
  9
$TDUPDATE
 40
2455292.622853403
  9
$TDUUPDATE
 40
2455292.247853403
  9
$TDINDWG
 40
0.4141144907
  9
$TDUSRTIMER
 40
0.4141144907
  9
$USRTIMER
 70
     1
  9
$ANGBASE
 50
0.0
  9
$ANGDIR
 70
     0
  9
$PDMODE
 70
     0
  9
$PDSIZE
 40
0.0
  9
$PLINEWID
 40
0.0
  9
$SPLFRAME
 70
     0
  9
$SPLINETYPE
 70
     6
  9
$SPLINESEGS
 70
     8
  9
$HANDSEED
  5
5AB
  9
$SURFTAB1
 70
     6
  9
$SURFTAB2
 70
     6
  9
$SURFTYPE
 70
     6
  9
$SURFU
 70
     6
  9
$SURFV
 70
     6
  9
$UCSBASE
  2

  9
$UCSNAME
  2

  9
$UCSORG
 10
0.0
 20
0.0
 30
0.0
  9
$UCSXDIR
 10
1.0
 20
0.0
 30
0.0
  9
$UCSYDIR
 10
0.0
 20
1.0
 30
0.0
  9
$UCSORTHOREF
  2

  9
$UCSORTHOVIEW
 70
     0
  9
$UCSORGTOP
 10
0.0
 20
0.0
 30
0.0
  9
$UCSORGBOTTOM
 10
0.0
 20
0.0
 30
0.0
  9
$UCSORGLEFT
 10
0.0
 20
0.0
 30
0.0
  9
$UCSORGRIGHT
 10
0.0
 20
0.0
 30
0.0
  9
$UCSORGFRONT
 10
0.0
 20
0.0
 30
0.0
  9
$UCSORGBACK
 10
0.0
 20
0.0
 30
0.0
  9
$PUCSBASE
  2

  9
$PUCSNAME
  2

  9
$PUCSORG
 10
0.0
 20
0.0
 30
0.0
  9
$PUCSXDIR
 10
1.0
 20
0.0
 30
0.0
  9
$PUCSYDIR
 10
0.0
 20
1.0
 30
0.0
  9
$PUCSORTHOREF
  2

  9
$PUCSORTHOVIEW
 70
     0
  9
$PUCSORGTOP
 10
0.0
 20
0.0
 30
0.0
  9
$PUCSORGBOTTOM
 10
0.0
 20
0.0
 30
0.0
  9
$PUCSORGLEFT
 10
0.0
 20
0.0
 30
0.0
  9
$PUCSORGRIGHT
 10
0.0
 20
0.0
 30
0.0
  9
$PUCSORGFRONT
 10
0.0
 20
0.0
 30
0.0
  9
$PUCSORGBACK
 10
0.0
 20
0.0
 30
0.0
  9
$USERI1
 70
     0
  9
$USERI2
 70
     0
  9
$USERI3
 70
     0
  9
$USERI4
 70
     0
  9
$USERI5
 70
     0
  9
$USERR1
 40
0.0
  9
$USERR2
 40
0.0
  9
$USERR3
 40
0.0
  9
$USERR4
 40
0.0
  9
$USERR5
 40
0.0
  9
$WORLDVIEW
 70
     1
  9
$SHADEDGE
 70
     3
  9
$SHADEDIF
 70
    70
  9
$TILEMODE
 70
     1
  9
$MAXACTVP
 70
    64
  9
$PINSBASE
 10
0.0
 20
0.0
 30
0.0
  9
$PLIMCHECK
 70
     0
  9
$PEXTMIN
 10
0.0
 20
0.0
 30
0.0
  9
$PEXTMAX
 10
0.0
 20
0.0
 30
0.0
  9
$PLIMMIN
 10
0.0
 20
0.0
  9
$PLIMMAX
 10
12.0
 20
9.0
  9
$UNITMODE
 70
     0
  9
$VISRETAIN
 70
     1
  9
$PLINEGEN
 70
     0
  9
$PSLTSCALE
 70
     1
  9
$TREEDEPTH
 70
  3020
  9
$CMLSTYLE
  2
Standard
  9
$CMLJUST
 70
     0
  9
$CMLSCALE
 40
20.0
  9
$PROXYGRAPHICS
 70
     1
  9
$MEASUREMENT
 70
     1
  9
$CELWEIGHT
370
    -1
  9
$ENDCAPS
280
     0
  9
$JOINSTYLE
280
     0
  9
$LWDISPLAY
290
     0
  9
$INSUNITS
 70
     4
  9
$HYPERLINKBASE
  1

  9
$STYLESHEET
  1

  9
$XEDIT
290
     1
  9
$CEPSNTYPE
380
     0
  9
$PSTYLEMODE
290
     1
  9
$FINGERPRINTGUID
  2
{FDEAD578-A652-11D2-9A35-0060089B3A3F}
  9
$VERSIONGUID
  2
{77EA89C0-144E-4DA4-BED6-5D5AA9D1E1A9}
  9
$EXTNAMES
290
     1
  9
$PSVPSCALE
 40
0.0
  9
$OLESTARTUP
290
     0
  0
ENDSEC
  0
SECTION
  2
CLASSES
  0
CLASS
  1
ACDBDICTIONARYWDFLT
  2
AcDbDictionaryWithDefault
  3
ObjectDBX Classes
 90
        0
280
     0
281
     0
  0
CLASS
  1
ACDBPLACEHOLDER
  2
AcDbPlaceHolder
  3
ObjectDBX Classes
 90
        0
280
     0
281
     0
  0
CLASS
  1
LAYOUT
  2
AcDbLayout
  3
ObjectDBX Classes
 90
        0
280
     0
281
     0
  0
CLASS
  1
DICTIONARYVAR
  2
AcDbDictionaryVar
  3
ObjectDBX Classes
 90
        0
280
     0
281
     0
  0
CLASS
  1
SORTENTSTABLE
  2
AcDbSortentsTable
  3
ObjectDBX Classes
 90
    32768
280
     0
281
     0
  0
ENDSEC
  0
SECTION
  2
TABLES
  0
TABLE
  2
VPORT
  5
1C
330
0
100
AcDbSymbolTable
 70
     3
  0
VPORT
  5
5A3
330
1C
100
AcDbSymbolTableRecord
100
AcDbViewportTableRecord
  2
*Active
 70
     0
 10
0.0
 20
0.0
 11
1.0
 21
1.0
 12
1.140747805057078
 22
-2.70552011440219
 13
0.0
 23
0.0
 14
10.0
 24
10.0
 15
10.0
 25
10.0
 16
0.0
 26
0.0
 36
1.0
 17
0.0
 27
0.0
 37
0.0
 40
113.8884792235036
 41
1.392857142857142
 42
50.0
 43
0.0
 44
0.0
 50
0.0
 51
0.0
 71
     0
 72
  1000
 73
     1
 74
     2
 75
     0
 76
     0
 77
     0
 78
     0
281
     0
 65
     1
110
0.0
120
0.0
130
0.0
111
1.0
121
0.0
131
0.0
112
0.0
122
1.0
132
0.0
 79
     0
146
0.0
  0
ENDTAB
  0
TABLE
  2
LTYPE
  5
17
330
0
100
AcDbSymbolTable
 70
     7
  0
LTYPE
  5
18
330
17
100
AcDbSymbolTableRecord
100
AcDbLinetypeTableRecord
  2
ByBlock
 70
     0
  3

 72
    65
 73
     0
 40
0.0
  0
LTYPE
  5
19
330
17
100
AcDbSymbolTableRecord
100
AcDbLinetypeTableRecord
  2
ByLayer
 70
     0
  3

 72
    65
 73
     0
 40
0.0
  0
LTYPE
  5
8
330
17
100
AcDbSymbolTableRecord
100
AcDbLinetypeTableRecord
  2
Continuous
 70
     0
  3
Solid line
 72
    65
 73
     0
 40
0.0
  0
LTYPE
  5
36
330
17
100
AcDbSymbolTableRecord
100
AcDbLinetypeTableRecord
  2
CENTER
 70
     0
  3
Center ____ _ ____ _ ____ _ ____ _ ____ _ ____
 72
    65
 73
     4
 40
50.8
 49
31.75
 74
     0
 49
-6.349999999999999
 74
     0
 49
6.349999999999999
 74
     0
 49
-6.349999999999999
 74
     0
  0
LTYPE
  5
42
330
17
100
AcDbSymbolTableRecord
100
AcDbLinetypeTableRecord
  2
DASHED
 70
     0
  3
Dashed __ __ __ __ __ __ __ __ __ __ __ __ __ _
 72
    65
 73
     2
 40
19.05
 49
12.7
 74
     0
 49
-6.349999999999999
 74
     0
  0
LTYPE
  5
5D
330
17
100
AcDbSymbolTableRecord
100
AcDbLinetypeTableRecord
  2
PHANTOM
 70
     0
  3
Phantom ______  __  __  ______  __  __  ______
 72
    65
 73
     6
 40
63.5
 49
31.75
 74
     0
 49
-6.349999999999999
 74
     0
 49
6.349999999999999
 74
     0
 49
-6.349999999999999
 74
     0
 49
6.349999999999999
 74
     0
 49
-6.349999999999999
 74
     0
  0
LTYPE
  5
2EB
330
17
100
AcDbSymbolTableRecord
100
AcDbLinetypeTableRecord
  2
HIDDEN2
 70
     0
  3
Hidden (.5x) _ _ _ _ _ _ _ _ _ _ _ _ _ _ _ _ _
 72
    65
 73
     2
 40
1.399999999999999
 49
0.7
 74
     0
 49
-0.7
 74
     0
  0
LTYPE
  5
53F
330
17
100
AcDbSymbolTableRecord
100
AcDbLinetypeTableRecord
  2
S50
 70
     0
  3
-------------- - ------------- 40,-1,1.5,-1
 72
    65
 73
     4
 40
43.5
 49
40.0
 74
     0
 49
-1.0
 74
     0
 49
1.5
 74
     0
 49
-1.0
 74
     0
  0
LTYPE
  5
540
330
17
100
AcDbSymbolTableRecord
100
AcDbLinetypeTableRecord
  2
S130
 70
     0
  3
--- - --- - --- 3,-1,1,-1
 72
    65
 73
     4
 40
6.0
 49
3.0
 74
     0
 49
-1.0
 74
     0
 49
1.0
 74
     0
 49
-1.0
 74
     0
  0
ENDTAB
  0
TABLE
  2
LAYER
  5
10
102
{ACAD_XDICTIONARY
360
11
102
}
330
0
100
AcDbSymbolTable
 70
     9
  0
LAYER
  5
4
330
10
100
AcDbSymbolTableRecord
100
AcDbLayerTableRecord
  2
0
 70
     0
 62
     7
  6
Continuous
370
    -3
390
5
  0
LAYER
  5
280
330
10
100
AcDbSymbolTableRecord
100
AcDbLayerTableRecord
  2
WAKU
 70
     0
 62
     4
  6
Continuous
370
    -3
390
5
  0
LAYER
  5
31
330
10
100
AcDbSymbolTableRecord
100
AcDbLayerTableRecord
  2
MOJI1
 70
     0
 62
     2
  6
Continuous
370
    -3
390
5
  0
LAYER
  5
33
330
10
100
AcDbSymbolTableRecord
100
AcDbLayerTableRecord
  2
TOUROKU
 70
     0
 62
     1
  6
Continuous
370
    -3
390
5
  0
LAYER
  5
20B
330
10
100
AcDbSymbolTableRecord
100
AcDbLayerTableRecord
  2
DEFPOINTS
 70
     0
 62
     7
  6
Continuous
290
     0
370
    -3
390
5
  0
LAYER
  5
FE
330
10
100
AcDbSymbolTableRecord
100
AcDbLayerTableRecord
  2
GAIKEI
 70
     0
 62
     7
  6
Continuous
370
    -3
390
5
  0
LAYER
  5
2E
330
10
100
AcDbSymbolTableRecord
100
AcDbLayerTableRecord
  2
SUNPO
 70
     0
 62
     3
  6
Continuous
370
    -3
390
5
  0
LAYER
  5
35
330
10
100
AcDbSymbolTableRecord
100
AcDbLayerTableRecord
  2
S1
 70
     0
 62
     1
  6
Continuous
370
    -3
390
5
  0
LAYER
  5
53E
330
10
100
AcDbSymbolTableRecord
100
AcDbLayerTableRecord
  2
KIJUN
 70
     0
 62
    14
  6
S50
370
    -3
390
5
  0
ENDTAB
  0
TABLE
  2
STYLE
  5
14
330
0
100
AcDbSymbolTable
 70
     1
  0
STYLE
  5
15
330
14
100
AcDbSymbolTableRecord
100
AcDbTextStyleTableRecord
  2
Standard
 70
     0
 40
0.0
 41
1.0
 50
0.0
 71
     0
 42
2.5
  3
MONOTXT.shx
  4
BIGFONT.shx
  0
ENDTAB
  0
TABLE
  2
VIEW
  5
1A
330
0
100
AcDbSymbolTable
 70
     0
  0
ENDTAB
  0
TABLE
  2
UCS
  5
1B
330
0
100
AcDbSymbolTable
 70
     0
  0
ENDTAB
  0
TABLE
  2
APPID
  5
1E
330
0
100
AcDbSymbolTable
 70
     1
  0
APPID
  5
1F
330
1E
100
AcDbSymbolTableRecord
100
AcDbRegAppTableRecord
  2
ACAD
 70
     0
  0
ENDTAB
  0
TABLE
  2
DIMSTYLE
  5
20
330
0
100
AcDbSymbolTable
 70
     1
100
AcDbDimStyleTable
 71
     1
340
21
  0
DIMSTYLE
105
21
102
{ACAD_REACTORS
330
2DD
330
2D0
330
2C2
330
2B4
330
201
330
232
102
}
330
20
100
AcDbSymbolTableRecord
100
AcDbDimStyleTableRecord
  2
STANDARD
 70
     0
 40
0.0
 41
2.0
 42
2.0
 43
8.0
 44
2.0
 73
     0
 74
     0
 77
     3
140
3.0
141
0.0
173
     1
279
     2
288
     1
340
15
341
22
343
22
344
22
  0
ENDTAB
  0
TABLE
  2
BLOCK_RECORD
  5
1
330
0
100
AcDbSymbolTable
 70
    13
  0
BLOCK_RECORD
  5
2
330
1
100
AcDbSymbolTableRecord
100
AcDbBlockTableRecord
  2
*Model_Space
340
A
  0
BLOCK_RECORD
  5
C
330
1
100
AcDbSymbolTableRecord
100
AcDbBlockTableRecord
  2
*Paper_Space
340
F
  0
BLOCK_RECORD
  5
22
330
1
100
AcDbSymbolTableRecord
100
AcDbBlockTableRecord
  2
_OPEN30
340
0
102
{BLKREFS
331
29C
331
2AE
331
207
331
208
331
238
331
239
331
2BB
331
2BC
331
2C9
331
2CA
331
2D6
331
2D7
331
2E3
331
2E4
331
559
331
55A
331
565
331
566
331
572
331
573
331
57F
331
580
331
58B
331
58C
331
597
331
598
102
}
  0
BLOCK_RECORD
  5
2DE
330
1
100
AcDbSymbolTableRecord
100
AcDbBlockTableRecord
  2
*D1
340
0
  0
BLOCK_RECORD
  5
2D1
330
1
100
AcDbSymbolTableRecord
100
AcDbBlockTableRecord
  2
*D2
340
0
  0
BLOCK_RECORD
  5
2C3
330
1
100
AcDbSymbolTableRecord
100
AcDbBlockTableRecord
  2
*D3
340
0
  0
BLOCK_RECORD
  5
2B5
330
1
100
AcDbSymbolTableRecord
100
AcDbBlockTableRecord
  2
*D4
340
0
  0
BLOCK_RECORD
  5
202
330
1
100
AcDbSymbolTableRecord
100
AcDbBlockTableRecord
  2
*D5
340
0
  0
BLOCK_RECORD
  5
233
330
1
100
AcDbSymbolTableRecord
100
AcDbBlockTableRecord
  2
*D6
340
0
  0
BLOCK_RECORD
  5
555
330
1
100
AcDbSymbolTableRecord
100
AcDbBlockTableRecord
  2
*D7
340
0
  0
BLOCK_RECORD
  5
561
330
1
100
AcDbSymbolTableRecord
100
AcDbBlockTableRecord
  2
*D8
340
0
  0
BLOCK_RECORD
  5
56D
330
1
100
AcDbSymbolTableRecord
100
AcDbBlockTableRecord
  2
*D9
340
0
  0
BLOCK_RECORD
  5
57A
330
1
100
AcDbSymbolTableRecord
100
AcDbBlockTableRecord
  2
*D10
340
0
  0
BLOCK_RECORD
  5
587
330
1
100
AcDbSymbolTableRecord
100
AcDbBlockTableRecord
  2
*D11
340
0
  0
BLOCK_RECORD
  5
593
330
1
100
AcDbSymbolTableRecord
100
AcDbBlockTableRecord
  2
*D12
340
0
  0
ENDTAB
  0
ENDSEC
  0
SECTION
  2
BLOCKS
  0
BLOCK
  5
3
330
2
100
AcDbEntity
  8
0
100
AcDbBlockBegin
  2
*Model_Space
 70
     0
 10
0.0
 20
0.0
 30
0.0
  3
*Model_Space
  1

  0
ENDBLK
  5
9
330
2
100
AcDbEntity
  8
0
100
AcDbBlockEnd
  0
BLOCK
  5
D
330
C
100
AcDbEntity
 67
     1
  8
0
100
AcDbBlockBegin
  2
*Paper_Space
 70
     0
 10
0.0
 20
0.0
 30
0.0
  3
*Paper_Space
  1

  0
ENDBLK
  5
E
330
C
100
AcDbEntity
 67
     1
  8
0
100
AcDbBlockEnd
  0
BLOCK
  5
23
330
22
100
AcDbEntity
  8
0
100
AcDbBlockBegin
  2
_OPEN30
 70
     0
 10
0.0
 20
0.0
 30
0.0
  3
_OPEN30
  1

  0
LINE
  5
24
330
22
100
AcDbEntity
  8
0
  6
ByBlock
 62
     0
100
AcDbLine
 10
-1.0
 20
0.26794919
 30
0.0
 11
0.0
 21
0.0
 31
0.0
  0
LINE
  5
25
330
22
100
AcDbEntity
  8
0
  6
ByBlock
 62
     0
100
AcDbLine
 10
0.0
 20
0.0
 30
0.0
 11
-1.0
 21
-0.26794919
 31
0.0
  0
LINE
  5
26
330
22
100
AcDbEntity
  8
0
  6
ByBlock
 62
     0
100
AcDbLine
 10
0.0
 20
0.0
 30
0.0
 11
-1.0
 21
0.0
 31
0.0
  0
ENDBLK
  5
27
330
22
100
AcDbEntity
  8
0
100
AcDbBlockEnd
  0
BLOCK
  5
2DF
330
2DE
100
AcDbEntity
  8
0
100
AcDbBlockBegin
  2
*D1
 70
     1
 10
0.0
 20
0.0
 30
0.0
  3
*D1
  1

  0
LINE
  5
2E0
330
2DE
100
AcDbEntity
  8
SUNPO
 62
     0
370
    -2
100
AcDbLine
 10
43.21724355466336
 20
184.7091672539628
 30
0.0
 11
43.21724355466336
 21
176.7091672539628
 31
0.0
  0
LINE
  5
2E1
330
2DE
100
AcDbEntity
  8
SUNPO
 62
     0
370
    -2
100
AcDbLine
 10
70.71724355466336
 20
184.7091672539628
 30
0.0
 11
70.71724355466336
 21
176.7091672539628
 31
0.0
  0
LINE
  5
2E2
330
2DE
100
AcDbEntity
  8
SUNPO
 62
     0
370
    -2
100
AcDbLine
 10
45.21724355466337
 20
178.7091672539628
 30
0.0
 11
68.71724355466337
 21
178.7091672539628
 31
0.0
  0
INSERT
  5
2E3
330
2DE
100
AcDbEntity
  8
SUNPO
 62
     0
370
    -2
100
AcDbBlockReference
  2
_OPEN30
 10
43.21724355466336
 20
178.7091672539628
 30
0.0
 41
2.0
 42
2.0
 43
2.0
 50
180.0
  0
INSERT
  5
2E4
330
2DE
100
AcDbEntity
  8
SUNPO
 62
     0
370
    -2
100
AcDbBlockReference
  2
_OPEN30
 10
70.71724355466336
 20
178.7091672539628
 30
0.0
 41
2.0
 42
2.0
 43
2.0
  0
MTEXT
  5
2E5
330
2DE
100
AcDbEntity
  8
SUNPO
 62
     0
100
AcDbMText
 10
56.96724355466336
 20
180.4591672539628
 30
0.0
 40
2.5
 41
0.0
 71
     5
 72
     1
  1
\A1;550
 73
     1
 44
1.0
1001
ACAD
1000
MTEXTBEGIN
1070
    73
1070
     1
1070
    44
1040
1.0
1070
    74
1070
     0
1000
MTEXTEND
  0
POINT
  5
2E6
330
2DE
100
AcDbEntity
  8
DEFPOINTS
 62
     0
100
AcDbPoint
 10
43.21724355466336
 20
186.7091672539628
 30
0.0
  0
POINT
  5
2E7
330
2DE
100
AcDbEntity
  8
DEFPOINTS
 62
     0
100
AcDbPoint
 10
70.71724355466336
 20
186.7091672539628
 30
0.0
  0
POINT
  5
2E8
330
2DE
100
AcDbEntity
  8
DEFPOINTS
 62
     0
100
AcDbPoint
 10
70.71724355466336
 20
178.7091672539628
 30
0.0
  0
ENDBLK
  5
2E9
330
2DE
100
AcDbEntity
  8
0
100
AcDbBlockEnd
  0
BLOCK
  5
2D2
330
2D1
100
AcDbEntity
  8
0
100
AcDbBlockBegin
  2
*D2
 70
     1
 10
0.0
 20
0.0
 30
0.0
  3
*D2
  1

  0
LINE
  5
2D3
330
2D1
100
AcDbEntity
  8
SUNPO
 62
     0
370
    -2
100
AcDbLine
 10
24.5683324354502
 20
216.3244832324496
 30
0.0
 11
16.56833243545021
 21
216.3244832324496
 31
0.0
  0
LINE
  5
2D4
330
2D1
100
AcDbEntity
  8
SUNPO
 62
     0
370
    -2
100
AcDbLine
 10
24.5683324354502
 20
192.0744832324497
 30
0.0
 11
16.5683324354502
 21
192.0744832324497
 31
0.0
  0
LINE
  5
2D5
330
2D1
100
AcDbEntity
  8
SUNPO
 62
     0
370
    -2
100
AcDbLine
 10
18.5683324354502
 20
214.3244832324496
 30
0.0
 11
18.5683324354502
 21
194.0744832324497
 31
0.0
  0
INSERT
  5
2D6
330
2D1
100
AcDbEntity
  8
SUNPO
 62
     0
370
    -2
100
AcDbBlockReference
  2
_OPEN30
 10
18.56833243545021
 20
216.3244832324496
 30
0.0
 41
2.0
 42
2.0
 43
2.0
 50
90.0
  0
INSERT
  5
2D7
330
2D1
100
AcDbEntity
  8
SUNPO
 62
     0
370
    -2
100
AcDbBlockReference
  2
_OPEN30
 10
18.5683324354502
 20
192.0744832324497
 30
0.0
 41
2.0
 42
2.0
 43
2.0
 50
270.0
  0
MTEXT
  5
2D8
330
2D1
100
AcDbEntity
  8
SUNPO
 62
     0
100
AcDbMText
 10
16.81833243545017
 20
204.1994832324497
 30
0.0
 40
2.5
 41
0.0
 71
     5
 72
     1
  1
\A1;485
 11
0.0000000000000001
 21
1.0
 31
0.0
 73
     1
 44
1.0
1001
ACAD
1000
MTEXTBEGIN
1070
    73
1070
     1
1070
    44
1040
1.0
1070
    74
1070
     0
1000
MTEXTEND
  0
POINT
  5
2D9
330
2D1
100
AcDbEntity
  8
DEFPOINTS
 62
     0
100
AcDbPoint
 10
26.5683324354502
 20
216.3244832324496
 30
0.0
  0
POINT
  5
2DA
330
2D1
100
AcDbEntity
  8
DEFPOINTS
 62
     0
100
AcDbPoint
 10
26.5683324354502
 20
192.0744832324497
 30
0.0
  0
POINT
  5
2DB
330
2D1
100
AcDbEntity
  8
DEFPOINTS
 62
     0
100
AcDbPoint
 10
18.5683324354502
 20
192.0744832324497
 30
0.0
  0
ENDBLK
  5
2DC
330
2D1
100
AcDbEntity
  8
0
100
AcDbBlockEnd
  0
BLOCK
  5
2C4
330
2C3
100
AcDbEntity
  8
0
100
AcDbBlockBegin
  2
*D3
 70
     1
 10
0.0
 20
0.0
 30
0.0
  3
*D3
  1

  0
LINE
  5
2C5
330
2C3
100
AcDbEntity
  8
SUNPO
 62
     0
370
    -2
100
AcDbLine
 10
24.5683324354502
 20
192.0744832324497
 30
0.0
 11
16.5683324354502
 21
192.0744832324497
 31
0.0
  0
LINE
  5
2C6
330
2C3
100
AcDbEntity
  8
SUNPO
 62
     0
370
    -2
100
AcDbLine
 10
24.5683324354502
 20
186.7783281646192
 30
0.0
 11
16.5683324354502
 21
186.7783281646192
 31
0.0
  0
LINE
  5
2C7
330
2C3
100
AcDbEntity
  8
SUNPO
 62
     0
370
    -2
100
AcDbLine
 10
18.5683324354502
 20
190.0744832324497
 30
0.0
 11
18.5683324354502
 21
188.7783281646192
 31
0.0
  0
LINE
  5
2C8
330
2C3
100
AcDbEntity
  8
SUNPO
 62
     0
370
    -2
100
AcDbLine
 10
18.5683324354502
 20
186.7783281646192
 30
0.0
 11
18.5683324354502
 21
177.1116614979526
 31
0.0
  0
INSERT
  5
2C9
330
2C3
100
AcDbEntity
  8
SUNPO
 62
     0
370
    -2
100
AcDbBlockReference
  2
_OPEN30
 10
18.5683324354502
 20
192.0744832324497
 30
0.0
 41
2.0
 42
2.0
 43
2.0
 50
90.0
  0
INSERT
  5
2CA
330
2C3
100
AcDbEntity
  8
SUNPO
 62
     0
370
    -2
100
AcDbBlockReference
  2
_OPEN30
 10
18.5683324354502
 20
186.7783281646192
 30
0.0
 41
2.0
 42
2.0
 43
2.0
 50
270.0
  0
MTEXT
  5
2CB
330
2C3
100
AcDbEntity
  8
SUNPO
 62
     0
100
AcDbMText
 10
16.81833243545017
 20
180.9449948312859
 30
0.0
 40
2.5
 41
0.0
 71
     5
 72
     1
  1
\A1;106
 11
0.0000000000000001
 21
1.0
 31
0.0
 73
     1
 44
1.0
1001
ACAD
1000
MTEXTBEGIN
1070
    73
1070
     1
1070
    44
1040
1.0
1070
    74
1070
     0
1000
MTEXTEND
  0
POINT
  5
2CC
330
2C3
100
AcDbEntity
  8
DEFPOINTS
 62
     0
100
AcDbPoint
 10
26.5683324354502
 20
192.0744832324497
 30
0.0
  0
POINT
  5
2CD
330
2C3
100
AcDbEntity
  8
DEFPOINTS
 62
     0
100
AcDbPoint
 10
26.5683324354502
 20
186.7783281646192
 30
0.0
  0
POINT
  5
2CE
330
2C3
100
AcDbEntity
  8
DEFPOINTS
 62
     0
100
AcDbPoint
 10
18.5683324354502
 20
186.7783281646192
 30
0.0
  0
ENDBLK
  5
2CF
330
2C3
100
AcDbEntity
  8
0
100
AcDbBlockEnd
  0
BLOCK
  5
2B6
330
2B5
100
AcDbEntity
  8
0
100
AcDbBlockBegin
  2
*D4
 70
     1
 10
0.0
 20
0.0
 30
0.0
  3
*D4
  1

  0
LINE
  5
2B7
330
2B5
100
AcDbEntity
  8
SUNPO
 62
     0
370
    -2
100
AcDbLine
 10
24.5683324354502
 20
216.3244832324497
 30
0.0
 11
16.5683324354502
 21
216.3244832324497
 31
0.0
  0
LINE
  5
2B8
330
2B5
100
AcDbEntity
  8
SUNPO
 62
     0
370
    -2
100
AcDbLine
 10
24.5683324354502
 20
222.9706383002801
 30
0.0
 11
16.5683324354502
 21
222.9706383002801
 31
0.0
  0
LINE
  5
2B9
330
2B5
100
AcDbEntity
  8
SUNPO
 62
     0
370
    -2
100
AcDbLine
 10
18.5683324354502
 20
218.3244832324497
 30
0.0
 11
18.5683324354502
 21
220.9706383002801
 31
0.0
  0
LINE
  5
2BA
330
2B5
100
AcDbEntity
  8
SUNPO
 62
     0
370
    -2
100
AcDbLine
 10
18.5683324354502
 20
222.9706383002801
 30
0.0
 11
18.5683324354502
 21
232.6373049669467
 31
0.0
  0
INSERT
  5
2BB
330
2B5
100
AcDbEntity
  8
SUNPO
 62
     0
370
    -2
100
AcDbBlockReference
  2
_OPEN30
 10
18.5683324354502
 20
216.3244832324497
 30
0.0
 41
2.0
 42
2.0
 43
2.0
 50
270.0
  0
INSERT
  5
2BC
330
2B5
100
AcDbEntity
  8
SUNPO
 62
     0
370
    -2
100
AcDbBlockReference
  2
_OPEN30
 10
18.5683324354502
 20
222.9706383002801
 30
0.0
 41
2.0
 42
2.0
 43
2.0
 50
90.0
  0
MTEXT
  5
2BD
330
2B5
100
AcDbEntity
  8
SUNPO
 62
     0
100
AcDbMText
 10
16.81833243545016
 20
228.8039716336134
 30
0.0
 40
2.5
 41
0.0
 71
     5
 72
     1
  1
\A1;133
 11
0.0000000000000001
 21
1.0
 31
0.0
 73
     1
 44
1.0
1001
ACAD
1000
MTEXTBEGIN
1070
    73
1070
     1
1070
    44
1040
1.0
1070
    74
1070
     0
1000
MTEXTEND
  0
POINT
  5
2BE
330
2B5
100
AcDbEntity
  8
DEFPOINTS
 62
     0
100
AcDbPoint
 10
26.5683324354502
 20
216.3244832324497
 30
0.0
  0
POINT
  5
2BF
330
2B5
100
AcDbEntity
  8
DEFPOINTS
 62
     0
100
AcDbPoint
 10
26.5683324354502
 20
222.9706383002801
 30
0.0
  0
POINT
  5
2C0
330
2B5
100
AcDbEntity
  8
DEFPOINTS
 62
     0
100
AcDbPoint
 10
18.5683324354502
 20
222.9706383002801
 30
0.0
  0
ENDBLK
  5
2C1
330
2B5
100
AcDbEntity
  8
0
100
AcDbBlockEnd
  0
BLOCK
  5
203
330
202
100
AcDbEntity
  8
0
100
AcDbBlockBegin
  2
*D5
 70
     1
 10
0.0
 20
0.0
 30
0.0
  3
*D5
  1

  0
LINE
  5
204
330
202
100
AcDbEntity
  8
SUNPO
 62
     0
370
    -2
100
AcDbLine
 10
88.77747835283566
 20
186.7783281646192
 30
0.0
 11
96.77747835283566
 21
186.7783281646192
 31
0.0
  0
LINE
  5
205
330
202
100
AcDbEntity
  8
SUNPO
 62
     0
370
    -2
100
AcDbLine
 10
88.77747835283562
 20
222.9706383002801
 30
0.0
 11
96.77747835283566
 21
222.9706383002801
 31
0.0
  0
LINE
  5
206
330
202
100
AcDbEntity
  8
SUNPO
 62
     0
370
    -2
100
AcDbLine
 10
94.77747835283565
 20
188.7783281646192
 30
0.0
 11
94.77747835283565
 21
220.9706383002801
 31
0.0
  0
INSERT
  5
207
330
202
100
AcDbEntity
  8
SUNPO
 62
     0
370
    -2
100
AcDbBlockReference
  2
_OPEN30
 10
94.77747835283565
 20
186.7783281646192
 30
0.0
 41
2.0
 42
2.0
 43
2.0
 50
270.0
  0
INSERT
  5
208
330
202
100
AcDbEntity
  8
SUNPO
 62
     0
370
    -2
100
AcDbBlockReference
  2
_OPEN30
 10
94.77747835283565
 20
222.9706383002801
 30
0.0
 41
2.0
 42
2.0
 43
2.0
 50
90.0
  0
MTEXT
  5
209
330
202
100
AcDbEntity
  8
SUNPO
 62
     0
100
AcDbMText
 10
93.02747835283563
 20
204.8744832324497
 30
0.0
 40
2.5
 41
0.0
 71
     5
 72
     1
  1
\A1;724
 11
0.0000000000000001
 21
1.0
 31
0.0
 73
     1
 44
1.0
1001
ACAD
1000
MTEXTBEGIN
1070
    73
1070
     1
1070
    44
1040
1.0
1070
    74
1070
     0
1000
MTEXTEND
  0
POINT
  5
20A
330
202
100
AcDbEntity
  8
DEFPOINTS
 62
     0
100
AcDbPoint
 10
86.77747835283566
 20
186.7783281646192
 30
0.0
  0
POINT
  5
20C
330
202
100
AcDbEntity
  8
DEFPOINTS
 62
     0
100
AcDbPoint
 10
86.77747835283563
 20
222.9706383002801
 30
0.0
  0
POINT
  5
20D
330
202
100
AcDbEntity
  8
DEFPOINTS
 62
     0
100
AcDbPoint
 10
94.77747835283565
 20
222.9706383002801
 30
0.0
  0
ENDBLK
  5
20E
330
202
100
AcDbEntity
  8
0
100
AcDbBlockEnd
  0
BLOCK
  5
234
330
233
100
AcDbEntity
  8
0
100
AcDbBlockBegin
  2
*D6
 70
     1
 10
0.0
 20
0.0
 30
0.0
  3
*D6
  1

  0
LINE
  5
235
330
233
100
AcDbEntity
  8
SUNPO
 62
     0
370
    -2
100
AcDbLine
 10
26.71724356676342
 20
224.9703518559287
 30
0.0
 11
26.71724356676342
 21
232.9703518559287
 31
0.0
  0
LINE
  5
236
330
233
100
AcDbEntity
  8
SUNPO
 62
     0
370
    -2
100
AcDbLine
 10
87.21724354256332
 20
224.9703518559287
 30
0.0
 11
87.21724354256332
 21
232.9703518559287
 31
0.0
  0
LINE
  5
237
330
233
100
AcDbEntity
  8
SUNPO
 62
     0
370
    -2
100
AcDbLine
 10
28.71724356676342
 20
230.9703518559287
 30
0.0
 11
85.21724354256333
 21
230.9703518559287
 31
0.0
  0
INSERT
  5
238
330
233
100
AcDbEntity
  8
SUNPO
 62
     0
370
    -2
100
AcDbBlockReference
  2
_OPEN30
 10
26.71724356676342
 20
230.9703518559287
 30
0.0
 41
2.0
 42
2.0
 43
2.0
 50
180.0
  0
INSERT
  5
239
330
233
100
AcDbEntity
  8
SUNPO
 62
     0
370
    -2
100
AcDbBlockReference
  2
_OPEN30
 10
87.21724354256332
 20
230.9703518559287
 30
0.0
 41
2.0
 42
2.0
 43
2.0
  0
MTEXT
  5
23A
330
233
100
AcDbEntity
  8
SUNPO
 62
     0
100
AcDbMText
 10
56.96724355466336
 20
232.7203518559287
 30
0.0
 40
2.5
 41
0.0
 71
     5
 72
     1
  1
\A1;1210
 73
     1
 44
1.0
1001
ACAD
1000
MTEXTBEGIN
1070
    73
1070
     1
1070
    44
1040
1.0
1070
    74
1070
     0
1000
MTEXTEND
  0
POINT
  5
23B
330
233
100
AcDbEntity
  8
DEFPOINTS
 62
     0
100
AcDbPoint
 10
26.71724356676342
 20
222.9703518559287
 30
0.0
  0
POINT
  5
23C
330
233
100
AcDbEntity
  8
DEFPOINTS
 62
     0
100
AcDbPoint
 10
87.21724354256332
 20
222.9703518559287
 30
0.0
  0
POINT
  5
23D
330
233
100
AcDbEntity
  8
DEFPOINTS
 62
     0
100
AcDbPoint
 10
87.21724354256332
 20
230.9703518559287
 30
0.0
  0
ENDBLK
  5
23E
330
233
100
AcDbEntity
  8
0
100
AcDbBlockEnd
  0
BLOCK
  5
55F
330
555
100
AcDbEntity
  8
0
100
AcDbBlockBegin
  2
*D7
 70
     1
 10
0.0
 20
0.0
 30
0.0
  3
*D7
  1

  0
LINE
  5
556
330
555
100
AcDbEntity
  8
SUNPO
 62
     0
370
    -2
100
AcDbLine
 10
-20.64711313154827
 20
-5.989527371137057
 30
0.0
 11
-20.64711313154827
 21
-13.98952737113703
 31
0.0
  0
LINE
  5
557
330
555
100
AcDbEntity
  8
SUNPO
 62
     0
370
    -2
100
AcDbLine
 10
6.852886868451733
 20
-5.989527371137029
 30
0.0
 11
6.852886868451732
 21
-13.98952737113703
 31
0.0
  0
LINE
  5
558
330
555
100
AcDbEntity
  8
SUNPO
 62
     0
370
    -2
100
AcDbLine
 10
-18.64711313154827
 20
-11.98952737113703
 30
0.0
 11
4.852886868451732
 21
-11.98952737113703
 31
0.0
  0
INSERT
  5
559
330
555
100
AcDbEntity
  8
SUNPO
 62
     0
370
    -2
100
AcDbBlockReference
  2
_OPEN30
 10
-20.64711313154827
 20
-11.98952737113703
 30
0.0
 41
2.0
 42
2.0
 43
2.0
 50
180.0
  0
INSERT
  5
55A
330
555
100
AcDbEntity
  8
SUNPO
 62
     0
370
    -2
100
AcDbBlockReference
  2
_OPEN30
 10
6.852886868451732
 20
-11.98952737113703
 30
0.0
 41
2.0
 42
2.0
 43
2.0
  0
MTEXT
  5
55B
330
555
100
AcDbEntity
  8
SUNPO
 62
     0
100
AcDbMText
 10
-6.897113131548266
 20
-10.23952737113703
 30
0.0
 40
2.5
 41
0.0
 71
     5
 72
     1
  1
\A1;550
 73
     1
 44
1.0
1001
ACAD
1000
MTEXTBEGIN
1070
    73
1070
     1
1070
    44
1040
1.0
1070
    74
1070
     0
1000
MTEXTEND
  0
POINT
  5
55C
330
555
100
AcDbEntity
  8
DEFPOINTS
 62
     0
100
AcDbPoint
 10
-20.64711313154827
 20
-3.989527371137057
 30
0.0
  0
POINT
  5
55D
330
555
100
AcDbEntity
  8
DEFPOINTS
 62
     0
100
AcDbPoint
 10
6.852886868451733
 20
-3.989527371137029
 30
0.0
  0
POINT
  5
55E
330
555
100
AcDbEntity
  8
DEFPOINTS
 62
     0
100
AcDbPoint
 10
6.852886868451732
 20
-11.98952737113703
 30
0.0
  0
ENDBLK
  5
560
330
555
100
AcDbEntity
  8
0
100
AcDbBlockEnd
  0
BLOCK
  5
56B
330
561
100
AcDbEntity
  8
0
100
AcDbBlockBegin
  2
*D8
 70
     1
 10
0.0
 20
0.0
 30
0.0
  3
*D8
  1

  0
LINE
  5
562
330
561
100
AcDbEntity
  8
SUNPO
 62
     0
370
    -2
100
AcDbLine
 10
-39.29602425076144
 20
25.62578860734976
 30
0.0
 11
-47.29602425076143
 21
25.62578860734977
 31
0.0
  0
LINE
  5
563
330
561
100
AcDbEntity
  8
SUNPO
 62
     0
370
    -2
100
AcDbLine
 10
-39.29602425076144
 20
1.375788607349847
 30
0.0
 11
-47.29602425076143
 21
1.375788607349849
 31
0.0
  0
LINE
  5
564
330
561
100
AcDbEntity
  8
SUNPO
 62
     0
370
    -2
100
AcDbLine
 10
-45.29602425076142
 20
23.62578860734977
 30
0.0
 11
-45.29602425076143
 21
3.375788607349849
 31
0.0
  0
INSERT
  5
565
330
561
100
AcDbEntity
  8
SUNPO
 62
     0
370
    -2
100
AcDbBlockReference
  2
_OPEN30
 10
-45.29602425076142
 20
25.62578860734977
 30
0.0
 41
2.0
 42
2.0
 43
2.0
 50
90.0
  0
INSERT
  5
566
330
561
100
AcDbEntity
  8
SUNPO
 62
     0
370
    -2
100
AcDbBlockReference
  2
_OPEN30
 10
-45.29602425076143
 20
1.375788607349849
 30
0.0
 41
2.0
 42
2.0
 43
2.0
 50
270.0
  0
MTEXT
  5
567
330
561
100
AcDbEntity
  8
SUNPO
 62
     0
100
AcDbMText
 10
-47.04602425076143
 20
13.5007886073498
 30
0.0
 40
2.5
 41
0.0
 71
     5
 72
     1
  1
\A1;485
 11
0.0000000000000001
 21
1.0
 31
0.0
 73
     1
 44
1.0
1001
ACAD
1000
MTEXTBEGIN
1070
    73
1070
     1
1070
    44
1040
1.0
1070
    74
1070
     0
1000
MTEXTEND
  0
POINT
  5
568
330
561
100
AcDbEntity
  8
DEFPOINTS
 62
     0
100
AcDbPoint
 10
-37.29602425076143
 20
25.62578860734976
 30
0.0
  0
POINT
  5
569
330
561
100
AcDbEntity
  8
DEFPOINTS
 62
     0
100
AcDbPoint
 10
-37.29602425076143
 20
1.375788607349846
 30
0.0
  0
POINT
  5
56A
330
561
100
AcDbEntity
  8
DEFPOINTS
 62
     0
100
AcDbPoint
 10
-45.29602425076143
 20
1.375788607349849
 30
0.0
  0
ENDBLK
  5
56C
330
561
100
AcDbEntity
  8
0
100
AcDbBlockEnd
  0
BLOCK
  5
578
330
56D
100
AcDbEntity
  8
0
100
AcDbBlockBegin
  2
*D9
 70
     1
 10
0.0
 20
0.0
 30
0.0
  3
*D9
  1

  0
LINE
  5
56E
330
56D
100
AcDbEntity
  8
SUNPO
 62
     0
370
    -2
100
AcDbLine
 10
-39.29602425076144
 20
1.375788607349847
 30
0.0
 11
-47.29602425076143
 21
1.375788607349849
 31
0.0
  0
LINE
  5
56F
330
56D
100
AcDbEntity
  8
SUNPO
 62
     0
370
    -2
100
AcDbLine
 10
-39.29602425076144
 20
-3.920366460480607
 30
0.0
 11
-47.29602425076143
 21
-3.920366460480605
 31
0.0
  0
LINE
  5
570
330
56D
100
AcDbEntity
  8
SUNPO
 62
     0
370
    -2
100
AcDbLine
 10
-45.29602425076143
 20
-0.6242113926501509
 30
0.0
 11
-45.29602425076143
 21
-1.920366460480605
 31
0.0
  0
LINE
  5
571
330
56D
100
AcDbEntity
  8
SUNPO
 62
     0
370
    -2
100
AcDbLine
 10
-45.29602425076143
 20
-3.920366460480605
 30
0.0
 11
-45.29602425076143
 21
-13.58703312714727
 31
0.0
  0
INSERT
  5
572
330
56D
100
AcDbEntity
  8
SUNPO
 62
     0
370
    -2
100
AcDbBlockReference
  2
_OPEN30
 10
-45.29602425076143
 20
1.375788607349849
 30
0.0
 41
2.0
 42
2.0
 43
2.0
 50
90.0
  0
INSERT
  5
573
330
56D
100
AcDbEntity
  8
SUNPO
 62
     0
370
    -2
100
AcDbBlockReference
  2
_OPEN30
 10
-45.29602425076143
 20
-3.920366460480605
 30
0.0
 41
2.0
 42
2.0
 43
2.0
 50
270.0
  0
MTEXT
  5
574
330
56D
100
AcDbEntity
  8
SUNPO
 62
     0
100
AcDbMText
 10
-47.04602425076143
 20
-9.753699793813945
 30
0.0
 40
2.5
 41
0.0
 71
     5
 72
     1
  1
\A1;106
 11
0.0000000000000001
 21
1.0
 31
0.0
 73
     1
 44
1.0
1001
ACAD
1000
MTEXTBEGIN
1070
    73
1070
     1
1070
    44
1040
1.0
1070
    74
1070
     0
1000
MTEXTEND
  0
POINT
  5
575
330
56D
100
AcDbEntity
  8
DEFPOINTS
 62
     0
100
AcDbPoint
 10
-37.29602425076143
 20
1.375788607349846
 30
0.0
  0
POINT
  5
576
330
56D
100
AcDbEntity
  8
DEFPOINTS
 62
     0
100
AcDbPoint
 10
-37.29602425076143
 20
-3.920366460480607
 30
0.0
  0
POINT
  5
577
330
56D
100
AcDbEntity
  8
DEFPOINTS
 62
     0
100
AcDbPoint
 10
-45.29602425076143
 20
-3.920366460480605
 30
0.0
  0
ENDBLK
  5
579
330
56D
100
AcDbEntity
  8
0
100
AcDbBlockEnd
  0
BLOCK
  5
585
330
57A
100
AcDbEntity
  8
0
100
AcDbBlockBegin
  2
*D10
 70
     1
 10
0.0
 20
0.0
 30
0.0
  3
*D10
  1

  0
LINE
  5
57B
330
57A
100
AcDbEntity
  8
SUNPO
 62
     0
370
    -2
100
AcDbLine
 10
-39.29602425076144
 20
25.62578860734979
 30
0.0
 11
-47.29602425076143
 21
25.62578860734979
 31
0.0
  0
LINE
  5
57C
330
57A
100
AcDbEntity
  8
SUNPO
 62
     0
370
    -2
100
AcDbLine
 10
-39.29602425076144
 20
32.27194367518021
 30
0.0
 11
-47.29602425076143
 21
32.27194367518021
 31
0.0
  0
LINE
  5
57D
330
57A
100
AcDbEntity
  8
SUNPO
 62
     0
370
    -2
100
AcDbLine
 10
-45.29602425076143
 20
27.6257886073498
 30
0.0
 11
-45.29602425076143
 21
30.27194367518021
 31
0.0
  0
LINE
  5
57E
330
57A
100
AcDbEntity
  8
SUNPO
 62
     0
370
    -2
100
AcDbLine
 10
-45.29602425076143
 20
32.27194367518021
 30
0.0
 11
-45.29602425076143
 21
41.93861034184688
 31
0.0
  0
INSERT
  5
57F
330
57A
100
AcDbEntity
  8
SUNPO
 62
     0
370
    -2
100
AcDbBlockReference
  2
_OPEN30
 10
-45.29602425076143
 20
25.62578860734979
 30
0.0
 41
2.0
 42
2.0
 43
2.0
 50
270.0
  0
INSERT
  5
580
330
57A
100
AcDbEntity
  8
SUNPO
 62
     0
370
    -2
100
AcDbBlockReference
  2
_OPEN30
 10
-45.29602425076143
 20
32.27194367518021
 30
0.0
 41
2.0
 42
2.0
 43
2.0
 50
90.0
  0
MTEXT
  5
581
330
57A
100
AcDbEntity
  8
SUNPO
 62
     0
100
AcDbMText
 10
-47.04602425076144
 20
38.10527700851354
 30
0.0
 40
2.5
 41
0.0
 71
     5
 72
     1
  1
\A1;133
 11
0.0000000000000001
 21
1.0
 31
0.0
 73
     1
 44
1.0
1001
ACAD
1000
MTEXTBEGIN
1070
    73
1070
     1
1070
    44
1040
1.0
1070
    74
1070
     0
1000
MTEXTEND
  0
POINT
  5
582
330
57A
100
AcDbEntity
  8
DEFPOINTS
 62
     0
100
AcDbPoint
 10
-37.29602425076143
 20
25.62578860734979
 30
0.0
  0
POINT
  5
583
330
57A
100
AcDbEntity
  8
DEFPOINTS
 62
     0
100
AcDbPoint
 10
-37.29602425076143
 20
32.27194367518021
 30
0.0
  0
POINT
  5
584
330
57A
100
AcDbEntity
  8
DEFPOINTS
 62
     0
100
AcDbPoint
 10
-45.29602425076143
 20
32.27194367518021
 30
0.0
  0
ENDBLK
  5
586
330
57A
100
AcDbEntity
  8
0
100
AcDbBlockEnd
  0
BLOCK
  5
591
330
587
100
AcDbEntity
  8
0
100
AcDbBlockBegin
  2
*D11
 70
     1
 10
0.0
 20
0.0
 30
0.0
  3
*D11
  1

  0
LINE
  5
588
330
587
100
AcDbEntity
  8
SUNPO
 62
     0
370
    -2
100
AcDbLine
 10
-37.14711311944822
 20
34.27165723082888
 30
0.0
 11
-37.14711311944822
 21
42.27165723082888
 31
0.0
  0
LINE
  5
589
330
587
100
AcDbEntity
  8
SUNPO
 62
     0
370
    -2
100
AcDbLine
 10
23.35288685635169
 20
34.27165723082888
 30
0.0
 11
23.35288685635169
 21
42.27165723082888
 31
0.0
  0
LINE
  5
58A
330
587
100
AcDbEntity
  8
SUNPO
 62
     0
370
    -2
100
AcDbLine
 10
-35.14711311944822
 20
40.27165723082887
 30
0.0
 11
21.35288685635169
 21
40.27165723082887
 31
0.0
  0
INSERT
  5
58B
330
587
100
AcDbEntity
  8
SUNPO
 62
     0
370
    -2
100
AcDbBlockReference
  2
_OPEN30
 10
-37.14711311944822
 20
40.27165723082887
 30
0.0
 41
2.0
 42
2.0
 43
2.0
 50
180.0
  0
INSERT
  5
58C
330
587
100
AcDbEntity
  8
SUNPO
 62
     0
370
    -2
100
AcDbBlockReference
  2
_OPEN30
 10
23.35288685635169
 20
40.27165723082887
 30
0.0
 41
2.0
 42
2.0
 43
2.0
  0
MTEXT
  5
58D
330
587
100
AcDbEntity
  8
SUNPO
 62
     0
100
AcDbMText
 10
-6.897113131548266
 20
42.02165723082887
 30
0.0
 40
2.5
 41
0.0
 71
     5
 72
     1
  1
\A1;1210
 73
     1
 44
1.0
1001
ACAD
1000
MTEXTBEGIN
1070
    73
1070
     1
1070
    44
1040
1.0
1070
    74
1070
     0
1000
MTEXTEND
  0
POINT
  5
58E
330
587
100
AcDbEntity
  8
DEFPOINTS
 62
     0
100
AcDbPoint
 10
-37.14711311944822
 20
32.27165723082888
 30
0.0
  0
POINT
  5
58F
330
587
100
AcDbEntity
  8
DEFPOINTS
 62
     0
100
AcDbPoint
 10
23.35288685635169
 20
32.27165723082888
 30
0.0
  0
POINT
  5
590
330
587
100
AcDbEntity
  8
DEFPOINTS
 62
     0
100
AcDbPoint
 10
23.35288685635169
 20
40.27165723082887
 30
0.0
  0
ENDBLK
  5
592
330
587
100
AcDbEntity
  8
0
100
AcDbBlockEnd
  0
BLOCK
  5
59D
330
593
100
AcDbEntity
  8
0
100
AcDbBlockBegin
  2
*D12
 70
     1
 10
0.0
 20
0.0
 30
0.0
  3
*D12
  1

  0
LINE
  5
594
330
593
100
AcDbEntity
  8
SUNPO
 62
     0
370
    -2
100
AcDbLine
 10
24.91312166662402
 20
-3.920366460480608
 30
0.0
 11
32.91312166662402
 21
-3.92036646048061
 31
0.0
  0
LINE
  5
595
330
593
100
AcDbEntity
  8
SUNPO
 62
     0
370
    -2
100
AcDbLine
 10
24.913121666624
 20
32.27194367518021
 30
0.0
 11
32.91312166662403
 21
32.27194367518021
 31
0.0
  0
LINE
  5
596
330
593
100
AcDbEntity
  8
SUNPO
 62
     0
370
    -2
100
AcDbLine
 10
30.91312166662401
 20
-1.92036646048061
 30
0.0
 11
30.91312166662402
 21
30.27194367518021
 31
0.0
  0
INSERT
  5
597
330
593
100
AcDbEntity
  8
SUNPO
 62
     0
370
    -2
100
AcDbBlockReference
  2
_OPEN30
 10
30.91312166662401
 20
-3.92036646048061
 30
0.0
 41
2.0
 42
2.0
 43
2.0
 50
270.0
  0
INSERT
  5
598
330
593
100
AcDbEntity
  8
SUNPO
 62
     0
370
    -2
100
AcDbBlockReference
  2
_OPEN30
 10
30.91312166662402
 20
32.27194367518021
 30
0.0
 41
2.0
 42
2.0
 43
2.0
 50
90.0
  0
MTEXT
  5
599
330
593
100
AcDbEntity
  8
SUNPO
 62
     0
100
AcDbMText
 10
29.16312166662402
 20
14.1757886073498
 30
0.0
 40
2.5
 41
0.0
 71
     5
 72
     1
  1
\A1;724
 11
0.0000000000000001
 21
1.0
 31
0.0
 73
     1
 44
1.0
1001
ACAD
1000
MTEXTBEGIN
1070
    73
1070
     1
1070
    44
1040
1.0
1070
    74
1070
     0
1000
MTEXTEND
  0
POINT
  5
59A
330
593
100
AcDbEntity
  8
DEFPOINTS
 62
     0
100
AcDbPoint
 10
22.91312166662402
 20
-3.920366460480607
 30
0.0
  0
POINT
  5
59B
330
593
100
AcDbEntity
  8
DEFPOINTS
 62
     0
100
AcDbPoint
 10
22.91312166662399
 20
32.27194367518021
 30
0.0
  0
POINT
  5
59C
330
593
100
AcDbEntity
  8
DEFPOINTS
 62
     0
100
AcDbPoint
 10
30.91312166662402
 20
32.27194367518021
 30
0.0
  0
ENDBLK
  5
59E
330
593
100
AcDbEntity
  8
0
100
AcDbBlockEnd
  0
ENDSEC
  0
SECTION
  2
ENTITIES
  0
TEXT
  5
30
330
2
100
AcDbEntity
  8
MOJI1
100
AcDbText
 10
-34.36435674217077
 20
49.80214049983513
 30
0.0
 40
4.0
  1
ハイビジョンプラズマディスプレイ壁掛け金具付
 41
0.93
100
AcDbText
  0
TEXT
  5
32
330
2
100
AcDbEntity
  8
TOUROKU
100
AcDbText
 10
16.56892662409023
 20
43.80214049983464
 30
0.0
 40
2.0
  1
ＴＨ５０ＰＦ２０Ｊ＋ＴＹＷＫ４２ＰＶ２０
 72
     2
 11
63.63559329075686
 21
43.80214049983464
 31
0.0
100
AcDbText
  0
LINE
  5
34
330
2
100
AcDbEntity
  8
S1
  6
CENTER
 62
     3
100
AcDbLine
 10
48.33766066908871
 20
6.87578860734979
 30
0.0
 11
46.89420601908866
 21
6.87578860734979
 31
0.0
  0
LINE
  5
37
330
2
100
AcDbEntity
  8
S1
  6
Continuous
 62
     3
100
AcDbLine
 10
48.15725261908866
 20
1.37578860734979
 30
0.0
 11
48.15725261908866
 21
1.475788607349784
 31
0.0
  0
ARC
  5
38
330
2
100
AcDbEntity
  8
S1
  6
Continuous
 62
     3
100
AcDbCircle
 10
48.45725261908867
 20
2.775788657349806
 30
0.0
 40
0.1
100
AcDbArc
 50
0.0
 51
90.0
  0
LINE
  5
39
330
2
100
AcDbEntity
  8
S1
  6
Continuous
 62
     3
100
AcDbLine
 10
48.35725261908871
 20
3.525788607349795
 30
0.0
 11
47.65725261908866
 21
3.525788607349795
 31
0.0
  0
LINE
  5
3A
330
2
100
AcDbEntity
  8
S1
  6
Continuous
 62
     3
100
AcDbLine
 10
48.35725261908871
 20
2.87578860734979
 30
0.0
 11
48.35725261908871
 21
3.525788607349795
 31
0.0
  0
ARC
  5
3B
330
2
100
AcDbEntity
  8
S1
  6
Continuous
 62
     3
100
AcDbCircle
 10
48.45725261908867
 20
2.87578860734979
 30
0.0
 40
0.1
100
AcDbArc
 50
180.0
 51
270.0
  0
LINE
  5
3C
330
2
100
AcDbEntity
  8
S1
  6
Continuous
 62
     3
100
AcDbLine
 10
48.45725261908867
 20
1.475788607349784
 30
0.0
 11
48.45725261908867
 21
2.775788607349795
 31
0.0
  0
LINE
  5
3D
330
2
100
AcDbEntity
  8
S1
  6
Continuous
 62
     3
100
AcDbLine
 10
48.45725261908867
 20
1.475788607349784
 30
0.0
 11
48.15725261908866
 21
1.475788607349784
 31
0.0
  0
LINE
  5
3E
330
2
100
AcDbEntity
  8
S1
  6
Continuous
 62
     3
100
AcDbLine
 10
48.5572526190887
 20
1.490788607349799
 30
0.0
 11
48.5572526190887
 21
2.775788657349806
 31
0.0
  0
LINE
  5
3F
330
2
100
AcDbEntity
  8
S1
  6
Continuous
 62
     3
100
AcDbLine
 10
48.45725261908867
 20
2.87578860734979
 30
0.0
 11
48.45725261908867
 21
3.51078860734978
 31
0.0
  0
LINE
  5
40
330
2
100
AcDbEntity
  8
S1
  6
Continuous
 62
     3
100
AcDbLine
 10
48.44225261908869
 20
1.37578860734979
 30
0.0
 11
48.15725261908866
 21
1.37578860734979
 31
0.0
  0
LINE
  5
41
330
2
100
AcDbEntity
  8
S1
  6
DASHED
 62
     3
100
AcDbLine
 10
48.45725261908867
 20
2.075788607349778
 30
0.0
 11
48.5572526190887
 21
2.075788607349778
 31
0.0
  0
LINE
  5
43
330
2
100
AcDbEntity
  8
S1
  6
DASHED
 62
     3
100
AcDbLine
 10
48.45725261908867
 20
2.425788607349801
 30
0.0
 11
48.5572526190887
 21
2.425788607349801
 31
0.0
  0
LINE
  5
44
330
2
100
AcDbEntity
  8
S1
  6
Continuous
 62
     3
100
AcDbLine
 10
48.34225261908867
 20
3.62578860734979
 30
0.0
 11
47.65725261908866
 21
3.62578860734979
 31
0.0
  0
LINE
  5
45
330
2
100
AcDbEntity
  8
S1
  6
Continuous
 62
     3
100
AcDbLine
 10
47.65725261908866
 20
3.525788607349795
 30
0.0
 11
47.65725261908866
 21
3.62578860734979
 31
0.0
  0
LINE
  5
46
330
2
100
AcDbEntity
  8
S1
  6
DASHED
 62
     3
100
AcDbLine
 10
48.35725261908871
 20
3.075788607349778
 30
0.0
 11
48.45725261908867
 21
3.075788607349778
 31
0.0
  0
LINE
  5
47
330
2
100
AcDbEntity
  8
S1
  6
DASHED
 62
     3
100
AcDbLine
 10
47.90725261908867
 20
3.525788607349795
 30
0.0
 11
47.90725261908867
 21
3.62578860734979
 31
0.0
  0
LINE
  5
48
330
2
100
AcDbEntity
  8
S1
  6
DASHED
 62
     3
100
AcDbLine
 10
48.20725261908868
 20
3.525788607349795
 30
0.0
 11
48.20725261908868
 21
3.62578860734979
 31
0.0
  0
LINE
  5
49
330
2
100
AcDbEntity
  8
S1
  6
DASHED
 62
     3
100
AcDbLine
 10
48.45725261908867
 20
2.675788607349801
 30
0.0
 11
48.5572526190887
 21
2.675788607349801
 31
0.0
  0
ARC
  5
4A
330
2
100
AcDbEntity
  8
S1
  6
Continuous
 62
     3
100
AcDbCircle
 10
48.44225261908869
 20
1.490788607349799
 30
0.0
 40
0.115
100
AcDbArc
 50
270.0
 51
0.0
  0
ARC
  5
4B
330
2
100
AcDbEntity
  8
S1
  6
Continuous
 62
     3
100
AcDbCircle
 10
48.34225261908867
 20
3.51078860734978
 30
0.0
 40
0.115
100
AcDbArc
 50
0.0
 51
90.0
  0
LINE
  5
4C
330
2
100
AcDbEntity
  8
S1
  6
DASHED
 62
     3
100
AcDbLine
 10
48.35725261908871
 20
3.12578860734979
 30
0.0
 11
48.45725261908867
 21
3.12578860734979
 31
0.0
  0
LINE
  5
4D
330
2
100
AcDbEntity
  8
S1
  6
DASHED
 62
     3
100
AcDbLine
 10
48.3072526190887
 20
1.475788607349784
 30
0.0
 11
48.3072526190887
 21
1.37578860734979
 31
0.0
  0
LINE
  5
4E
330
2
100
AcDbEntity
  8
S1
  6
Continuous
 62
     3
100
AcDbLine
 10
47.5572526190887
 20
6.87578860734979
 30
0.0
 11
47.5572526190887
 21
7.37578860734979
 31
0.0
  0
LINE
  5
4F
330
2
100
AcDbEntity
  8
S1
  6
CENTER
 62
     3
100
AcDbLine
 10
48.22163711908868
 20
21.87578860734979
 30
0.0
 11
47.19695186908867
 21
21.87578860734979
 31
0.0
  0
ARC
  5
50
330
2
100
AcDbEntity
  8
S1
  6
Continuous
 62
     3
100
AcDbCircle
 10
47.79725261908871
 20
3.705788607349802
 30
0.0
 40
0.08
100
AcDbArc
 50
180.0
 51
270.0
  0
ARC
  5
51
330
2
100
AcDbEntity
  8
S1
  6
Continuous
 62
     3
100
AcDbCircle
 10
47.63725261908868
 20
3.705788607349802
 30
0.0
 40
0.08
100
AcDbArc
 50
0.0
 51
90.0
  0
LINE
  5
52
330
2
100
AcDbEntity
  8
S1
  6
Continuous
 62
     3
100
AcDbLine
 10
47.63725261908868
 20
3.785788607349786
 30
0.0
 11
47.5572526190887
 21
3.785788607349786
 31
0.0
  0
ARC
  5
53
330
2
100
AcDbEntity
  8
S1
  6
Continuous
 62
     3
100
AcDbCircle
 10
47.79725261908871
 20
23.29578860734978
 30
0.0
 40
0.08
100
AcDbArc
 50
90.0
 51
180.0
  0
ARC
  5
54
330
2
100
AcDbEntity
  8
S1
  6
Continuous
 62
     3
100
AcDbCircle
 10
47.63725261908868
 20
23.29578860734978
 30
0.0
 40
0.08
100
AcDbArc
 50
270.0
 51
0.0
  0
LINE
  5
55
330
2
100
AcDbEntity
  8
S1
  6
Continuous
 62
     3
100
AcDbLine
 10
47.63725261908868
 20
23.21578860734979
 30
0.0
 11
47.5572526190887
 21
23.21578860734979
 31
0.0
  0
LINE
  5
56
330
2
100
AcDbEntity
  8
S1
  6
DASHED
 62
     3
100
AcDbLine
 10
48.47725261908871
 20
3.62578860734979
 30
0.0
 11
48.5572526190887
 21
3.62578860734979
 31
0.0
  0
LINE
  5
57
330
2
100
AcDbEntity
  8
S1
  6
DASHED
 62
     3
100
AcDbLine
 10
48.47725261908871
 20
3.475788607349784
 30
0.0
 11
48.5572526190887
 21
3.475788607349784
 31
0.0
  0
LINE
  5
58
330
2
100
AcDbEntity
  8
S1
  6
DASHED
 62
     3
100
AcDbLine
 10
48.47725261908871
 20
23.37578860734979
 30
0.0
 11
48.5572526190887
 21
23.37578860734979
 31
0.0
  0
LINE
  5
59
330
2
100
AcDbEntity
  8
S1
  6
DASHED
 62
     3
100
AcDbLine
 10
48.47725261908871
 20
23.5257886073498
 30
0.0
 11
48.5572526190887
 21
23.5257886073498
 31
0.0
  0
LINE
  5
5A
330
2
100
AcDbEntity
  8
S1
  6
Continuous
 62
     3
100
AcDbLine
 10
48.47725261908871
 20
23.37578860734979
 30
0.0
 11
48.47725261908871
 21
3.62578860734979
 31
0.0
  0
LINE
  5
5B
330
2
100
AcDbEntity
  8
S1
  6
DASHED
 62
     3
100
AcDbLine
 10
47.63725261908868
 20
6.25078860734979
 30
0.0
 11
47.63725261908868
 21
13.75078860734979
 31
0.0
  0
LINE
  5
5C
330
2
100
AcDbEntity
  8
S1
  6
PHANTOM
 62
     3
100
AcDbLine
 10
47.5572526190887
 20
5.638288607349778
 30
0.0
 11
47.63725261908868
 21
5.638288607349778
 31
0.0
  0
LINE
  5
5E
330
2
100
AcDbEntity
  8
S1
  6
PHANTOM
 62
     3
100
AcDbLine
 10
47.5572526190887
 20
4.913288607349784
 30
0.0
 11
47.63725261908868
 21
4.913288607349784
 31
0.0
  0
LINE
  5
5F
330
2
100
AcDbEntity
  8
S1
  6
PHANTOM
 62
     3
100
AcDbLine
 10
48.20725261908868
 20
4.50078860734979
 30
0.0
 11
48.28725261908866
 21
4.50078860734979
 31
0.0
  0
LINE
  5
60
330
2
100
AcDbEntity
  8
S1
  6
PHANTOM
 62
     3
100
AcDbLine
 10
48.28725261908866
 20
4.50078860734979
 30
0.0
 11
48.28725261908866
 21
4.400788607349795
 31
0.0
  0
ARC
  5
61
330
2
100
AcDbEntity
  8
S1
  6
PHANTOM
 62
     3
100
AcDbCircle
 10
48.1872526190887
 20
4.400788607349795
 30
0.0
 40
0.1
100
AcDbArc
 50
270.0
 51
0.0
  0
LINE
  5
62
330
2
100
AcDbEntity
  8
S1
  6
PHANTOM
 62
     3
100
AcDbLine
 10
48.1872526190887
 20
4.300788607349801
 30
0.0
 11
47.5572526190887
 21
4.300788607349801
 31
0.0
  0
LINE
  5
63
330
2
100
AcDbEntity
  8
S1
  6
PHANTOM
 62
     3
100
AcDbLine
 10
48.28725261908866
 20
6.150788607349795
 30
0.0
 11
48.28725261908866
 21
6.050788607349801
 31
0.0
  0
LINE
  5
64
330
2
100
AcDbEntity
  8
S1
  6
PHANTOM
 62
     3
100
AcDbLine
 10
48.20725261908868
 20
6.050788607349801
 30
0.0
 11
48.28725261908866
 21
6.050788607349801
 31
0.0
  0
ARC
  5
65
330
2
100
AcDbEntity
  8
S1
  6
PHANTOM
 62
     3
100
AcDbCircle
 10
48.1872526190887
 20
6.150788607349795
 30
0.0
 40
0.1
100
AcDbArc
 50
0.0
 51
90.0
  0
LINE
  5
66
330
2
100
AcDbEntity
  8
S1
  6
PHANTOM
 62
     3
100
AcDbLine
 10
48.20725261908868
 20
6.050788607349801
 30
0.0
 11
48.20725261908868
 21
4.50078860734979
 31
0.0
  0
LINE
  5
67
330
2
100
AcDbEntity
  8
S1
  6
PHANTOM
 62
     3
100
AcDbLine
 10
48.28725261908866
 20
6.050788607349801
 30
0.0
 11
48.28725261908866
 21
4.50078860734979
 31
0.0
  0
LINE
  5
68
330
2
100
AcDbEntity
  8
S1
  6
PHANTOM
 62
     3
100
AcDbLine
 10
47.63725261908868
 20
4.300788607349801
 30
0.0
 11
47.63725261908868
 21
6.25078860734979
 31
0.0
  0
LINE
  5
69
330
2
100
AcDbEntity
  8
S1
  6
PHANTOM
 62
     3
100
AcDbLine
 10
48.1872526190887
 20
6.25078860734979
 30
0.0
 11
47.5572526190887
 21
6.25078860734979
 31
0.0
  0
LINE
  5
6A
330
2
100
AcDbEntity
  8
S1
  6
DASHED
 62
     3
100
AcDbLine
 10
47.63725261908868
 20
19.3007886073498
 30
0.0
 11
47.63725261908868
 21
13.75078860734979
 31
0.0
  0
LINE
  5
6B
330
2
100
AcDbEntity
  8
S1
  6
PHANTOM
 62
     3
100
AcDbLine
 10
47.5572526190887
 20
19.91328860734978
 30
0.0
 11
47.63725261908868
 21
19.91328860734978
 31
0.0
  0
ARC
  5
6C
330
2
100
AcDbEntity
  8
S1
  6
PHANTOM
 62
     3
100
AcDbCircle
 10
48.1872526190887
 20
19.40078860734979
 30
0.0
 40
0.1
100
AcDbArc
 50
270.0
 51
0.0
  0
LINE
  5
6D
330
2
100
AcDbEntity
  8
S1
  6
PHANTOM
 62
     3
100
AcDbLine
 10
48.28725261908866
 20
19.50078860734979
 30
0.0
 11
48.28725261908866
 21
19.40078860734979
 31
0.0
  0
LINE
  5
6E
330
2
100
AcDbEntity
  8
S1
  6
PHANTOM
 62
     3
100
AcDbLine
 10
48.20725261908868
 20
19.50078860734979
 30
0.0
 11
48.28725261908866
 21
19.50078860734979
 31
0.0
  0
LINE
  5
6F
330
2
100
AcDbEntity
  8
S1
  6
PHANTOM
 62
     3
100
AcDbLine
 10
48.1872526190887
 20
19.3007886073498
 30
0.0
 11
47.5572526190887
 21
19.3007886073498
 31
0.0
  0
ARC
  5
70
330
2
100
AcDbEntity
  8
S1
  6
PHANTOM
 62
     3
100
AcDbCircle
 10
48.1872526190887
 20
21.1507886073498
 30
0.0
 40
0.1
100
AcDbArc
 50
0.0
 51
90.0
  0
LINE
  5
71
330
2
100
AcDbEntity
  8
S1
  6
PHANTOM
 62
     3
100
AcDbLine
 10
48.20725261908868
 20
21.0507886073498
 30
0.0
 11
48.28725261908866
 21
21.0507886073498
 31
0.0
  0
LINE
  5
72
330
2
100
AcDbEntity
  8
S1
  6
PHANTOM
 62
     3
100
AcDbLine
 10
48.28725261908866
 20
21.1507886073498
 30
0.0
 11
48.28725261908866
 21
21.0507886073498
 31
0.0
  0
LINE
  5
73
330
2
100
AcDbEntity
  8
S1
  6
PHANTOM
 62
     3
100
AcDbLine
 10
48.1872526190887
 20
21.25078860734979
 30
0.0
 11
47.5572526190887
 21
21.25078860734979
 31
0.0
  0
LINE
  5
74
330
2
100
AcDbEntity
  8
S1
  6
PHANTOM
 62
     3
100
AcDbLine
 10
47.63725261908868
 20
19.3007886073498
 30
0.0
 11
47.63725261908868
 21
21.25078860734979
 31
0.0
  0
LINE
  5
75
330
2
100
AcDbEntity
  8
S1
  6
PHANTOM
 62
     3
100
AcDbLine
 10
47.5572526190887
 20
20.63828860734978
 30
0.0
 11
47.63725261908868
 21
20.63828860734978
 31
0.0
  0
LINE
  5
76
330
2
100
AcDbEntity
  8
S1
  6
PHANTOM
 62
     3
100
AcDbLine
 10
48.20725261908868
 20
21.0507886073498
 30
0.0
 11
48.20725261908868
 21
19.50078860734979
 31
0.0
  0
LINE
  5
77
330
2
100
AcDbEntity
  8
S1
  6
PHANTOM
 62
     3
100
AcDbLine
 10
48.28725261908866
 20
21.0507886073498
 30
0.0
 11
48.28725261908866
 21
19.50078860734979
 31
0.0
  0
LINE
  5
78
330
2
100
AcDbEntity
  8
S1
  6
DASHED
 62
     3
100
AcDbLine
 10
48.20725261908868
 20
8.450788607349778
 30
0.0
 11
48.20725261908868
 21
7.950788607349778
 31
0.0
  0
LINE
  5
79
330
2
100
AcDbEntity
  8
S1
  6
DASHED
 62
     3
100
AcDbLine
 10
47.63725261908868
 20
8.450788607349778
 30
0.0
 11
48.20725261908868
 21
8.450788607349778
 31
0.0
  0
ARC
  5
7A
330
2
100
AcDbEntity
  8
S1
  6
DASHED
 62
     3
100
AcDbCircle
 10
47.63725261908868
 20
8.530788607349819
 30
0.0
 40
0.08
100
AcDbArc
 50
180.0
 51
270.0
  0
LINE
  5
7B
330
2
100
AcDbEntity
  8
S1
  6
DASHED
 62
     3
100
AcDbLine
 10
47.63725261908868
 20
8.530788607349819
 30
0.0
 11
48.20725261908868
 21
8.530788607349819
 31
0.0
  0
LINE
  5
7C
330
2
100
AcDbEntity
  8
S1
  6
DASHED
 62
     3
100
AcDbLine
 10
48.28725261908866
 20
8.450788607349778
 30
0.0
 11
48.28725261908866
 21
7.950788607349778
 31
0.0
  0
ARC
  5
7D
330
2
100
AcDbEntity
  8
S1
  6
DASHED
 62
     3
100
AcDbCircle
 10
48.20725261908868
 20
8.450788607349778
 30
0.0
 40
0.08
100
AcDbArc
 50
0.0
 51
90.0
  0
LINE
  5
7E
330
2
100
AcDbEntity
  8
S1
  6
DASHED
 62
     3
100
AcDbLine
 10
48.20725261908868
 20
7.950788607349778
 30
0.0
 11
48.28725261908866
 21
7.950788607349778
 31
0.0
  0
LINE
  5
7F
330
2
100
AcDbEntity
  8
S1
  6
DASHED
 62
     3
100
AcDbLine
 10
47.63725261908868
 20
8.630788607349813
 30
0.0
 11
47.5572526190887
 21
8.630788607349813
 31
0.0
  0
ARC
  5
80
330
2
100
AcDbEntity
  8
S1
  6
Continuous
 62
     3
100
AcDbCircle
 10
47.63725261908868
 20
23.29578860734978
 30
0.0
 40
0.08
100
AcDbArc
 50
90.0
 51
180.0
  0
ARC
  5
81
330
2
100
AcDbEntity
  8
S1
  6
Continuous
 62
     3
100
AcDbCircle
 10
47.63725261908868
 20
3.705788607349802
 30
0.0
 40
0.08
100
AcDbArc
 50
180.0
 51
270.0
  0
LINE
  5
82
330
2
100
AcDbEntity
  8
S1
  6
DASHED
 62
     3
100
AcDbLine
 10
48.20725261908868
 20
3.62578860734979
 30
0.0
 11
48.20725261908868
 21
3.705788607349802
 31
0.0
  0
LINE
  5
83
330
2
100
AcDbEntity
  8
S1
  6
DASHED
 62
     3
100
AcDbLine
 10
48.20725261908868
 20
23.37578860734979
 30
0.0
 11
48.20725261908868
 21
23.29578860734978
 31
0.0
  0
ARC
  5
84
330
2
100
AcDbEntity
  8
S1
  6
Continuous
 62
     3
100
AcDbCircle
 10
48.28725261908866
 20
24.17078860734978
 30
0.0
 40
0.08
100
AcDbArc
 50
90.0
 51
180.0
  0
ARC
  5
85
330
2
100
AcDbEntity
  8
S1
  6
Continuous
 62
     3
100
AcDbCircle
 10
48.47725261908871
 20
24.17078860734978
 30
0.0
 40
0.08
100
AcDbArc
 50
0.0
 51
90.0
  0
ARC
  5
86
330
2
100
AcDbEntity
  8
S1
  6
Continuous
 62
     3
100
AcDbCircle
 10
48.28725261908866
 20
2.830788607349802
 30
0.0
 40
0.08
100
AcDbArc
 50
180.0
 51
270.0
  0
ARC
  5
87
330
2
100
AcDbEntity
  8
S1
  6
Continuous
 62
     3
100
AcDbCircle
 10
48.47725261908871
 20
2.830788607349802
 30
0.0
 40
0.08
100
AcDbArc
 50
270.0
 51
0.0
  0
LINE
  5
88
330
2
100
AcDbEntity
  8
S1
  6
Continuous
 62
     3
100
AcDbLine
 10
47.5572526190887
 20
23.29578860734978
 30
0.0
 11
47.5572526190887
 21
3.705788607349802
 31
0.0
  0
LINE
  5
89
330
2
100
AcDbEntity
  8
S1
  6
Continuous
 62
     3
100
AcDbLine
 10
47.63725261908868
 20
23.37578860734979
 30
0.0
 11
48.47725261908871
 21
23.37578860734979
 31
0.0
  0
LINE
  5
8A
330
2
100
AcDbEntity
  8
S1
  6
Continuous
 62
     3
100
AcDbLine
 10
47.63725261908868
 20
23.29578860734978
 30
0.0
 11
47.63725261908868
 21
23.21578860734979
 31
0.0
  0
LINE
  5
8B
330
2
100
AcDbEntity
  8
S1
  6
Continuous
 62
     3
100
AcDbLine
 10
47.63725261908868
 20
23.29578860734978
 30
0.0
 11
47.71725261908867
 21
23.29578860734978
 31
0.0
  0
LINE
  5
8C
330
2
100
AcDbEntity
  8
S1
  6
Continuous
 62
     3
100
AcDbLine
 10
48.5572526190887
 20
24.17078860734978
 30
0.0
 11
48.5572526190887
 21
2.830788607349802
 31
0.0
  0
LINE
  5
8D
330
2
100
AcDbEntity
  8
S1
  6
Continuous
 62
     3
100
AcDbLine
 10
48.47725261908871
 20
24.17078860734978
 30
0.0
 11
48.47725261908871
 21
23.37578860734979
 31
0.0
  0
LINE
  5
8E
330
2
100
AcDbEntity
  8
S1
  6
Continuous
 62
     3
100
AcDbLine
 10
48.47725261908871
 20
24.25078860734979
 30
0.0
 11
48.28725261908866
 21
24.25078860734979
 31
0.0
  0
LINE
  5
8F
330
2
100
AcDbEntity
  8
S1
  6
Continuous
 62
     3
100
AcDbLine
 10
48.47725261908871
 20
24.17078860734978
 30
0.0
 11
48.28725261908866
 21
24.17078860734978
 31
0.0
  0
LINE
  5
90
330
2
100
AcDbEntity
  8
S1
  6
Continuous
 62
     3
100
AcDbLine
 10
48.20725261908868
 20
23.97078860734976
 30
0.0
 11
48.20725261908868
 21
24.17078860734978
 31
0.0
  0
LINE
  5
91
330
2
100
AcDbEntity
  8
S1
  6
Continuous
 62
     3
100
AcDbLine
 10
48.20725261908868
 20
3.030788607349819
 30
0.0
 11
48.20725261908868
 21
2.830788607349802
 31
0.0
  0
LINE
  5
92
330
2
100
AcDbEntity
  8
S1
  6
Continuous
 62
     3
100
AcDbLine
 10
48.47725261908871
 20
2.830788607349802
 30
0.0
 11
48.28725261908866
 21
2.830788607349802
 31
0.0
  0
LINE
  5
93
330
2
100
AcDbEntity
  8
S1
  6
Continuous
 62
     3
100
AcDbLine
 10
48.47725261908871
 20
2.75078860734979
 30
0.0
 11
48.28725261908866
 21
2.75078860734979
 31
0.0
  0
LINE
  5
94
330
2
100
AcDbEntity
  8
S1
  6
Continuous
 62
     3
100
AcDbLine
 10
48.47725261908871
 20
2.830788607349802
 30
0.0
 11
48.47725261908871
 21
3.62578860734979
 31
0.0
  0
LINE
  5
95
330
2
100
AcDbEntity
  8
S1
  6
Continuous
 62
     3
100
AcDbLine
 10
47.63725261908868
 20
3.705788607349802
 30
0.0
 11
47.71725261908867
 21
3.705788607349802
 31
0.0
  0
LINE
  5
96
330
2
100
AcDbEntity
  8
S1
  6
Continuous
 62
     3
100
AcDbLine
 10
47.63725261908868
 20
3.705788607349802
 30
0.0
 11
47.63725261908868
 21
3.785788607349786
 31
0.0
  0
LINE
  5
97
330
2
100
AcDbEntity
  8
S1
  6
Continuous
 62
     3
100
AcDbLine
 10
47.63725261908868
 20
3.62578860734979
 30
0.0
 11
48.47725261908871
 21
3.62578860734979
 31
0.0
  0
LINE
  5
98
330
2
100
AcDbEntity
  8
S1
  6
DASHED
 62
     3
100
AcDbLine
 10
47.71725261908867
 20
23.29578860734978
 30
0.0
 11
48.47725261908871
 21
23.29578860734978
 31
0.0
  0
LINE
  5
99
330
2
100
AcDbEntity
  8
S1
  6
DASHED
 62
     3
100
AcDbLine
 10
47.63725261908868
 20
23.21578860734979
 30
0.0
 11
47.63725261908868
 21
21.25078860734979
 31
0.0
  0
LINE
  5
9A
330
2
100
AcDbEntity
  8
S1
  6
DASHED
 62
     3
100
AcDbLine
 10
47.71725261908867
 20
3.705788607349802
 30
0.0
 11
48.47725261908871
 21
3.705788607349802
 31
0.0
  0
LINE
  5
9B
330
2
100
AcDbEntity
  8
S1
  6
DASHED
 62
     3
100
AcDbLine
 10
47.63725261908868
 20
3.785788607349786
 30
0.0
 11
47.63725261908868
 21
4.300788607349801
 31
0.0
  0
LINE
  5
9C
330
2
100
AcDbEntity
  8
S1
  6
Continuous
 62
     3
100
AcDbLine
 10
48.28725261908866
 20
23.97078860734976
 30
0.0
 11
48.20725261908868
 21
23.97078860734976
 31
0.0
  0
LINE
  5
9D
330
2
100
AcDbEntity
  8
S1
  6
Continuous
 62
     3
100
AcDbLine
 10
48.28725261908866
 20
23.97078860734976
 30
0.0
 11
48.28725261908866
 21
24.17078860734978
 31
0.0
  0
LINE
  5
9E
330
2
100
AcDbEntity
  8
S1
  6
Continuous
 62
     3
100
AcDbLine
 10
48.28725261908866
 20
3.030788607349819
 30
0.0
 11
48.20725261908868
 21
3.030788607349819
 31
0.0
  0
LINE
  5
9F
330
2
100
AcDbEntity
  8
S1
  6
Continuous
 62
     3
100
AcDbLine
 10
48.28725261908866
 20
3.030788607349819
 30
0.0
 11
48.28725261908866
 21
2.830788607349802
 31
0.0
  0
LINE
  5
A0
330
2
100
AcDbEntity
  8
S1
  6
DASHED
 62
     3
100
AcDbLine
 10
48.15725261908866
 20
23.29578860734978
 30
0.0
 11
48.15725261908866
 21
23.19578860734978
 31
0.0
  0
LINE
  5
A1
330
2
100
AcDbEntity
  8
S1
  6
DASHED
 62
     3
100
AcDbLine
 10
47.95725261908867
 20
23.29578860734978
 30
0.0
 11
47.95725261908867
 21
23.19578860734978
 31
0.0
  0
LINE
  5
A2
330
2
100
AcDbEntity
  8
S1
  6
DASHED
 62
     3
100
AcDbLine
 10
48.25725261908869
 20
23.29578860734978
 30
0.0
 11
48.25725261908869
 21
23.19578860734978
 31
0.0
  0
LINE
  5
A3
330
2
100
AcDbEntity
  8
S1
  6
DASHED
 62
     3
100
AcDbLine
 10
47.85725261908871
 20
23.29578860734978
 30
0.0
 11
47.85725261908871
 21
23.19578860734978
 31
0.0
  0
LINE
  5
A4
330
2
100
AcDbEntity
  8
S1
  6
DASHED
 62
     3
100
AcDbLine
 10
48.25725261908869
 20
23.19578860734978
 30
0.0
 11
47.85725261908871
 21
23.19578860734978
 31
0.0
  0
ARC
  5
A5
330
2
100
AcDbEntity
  8
S1
  6
DASHED
 62
     3
100
AcDbCircle
 10
48.23725261908871
 20
23.29578860734978
 30
0.0
 40
0.08
100
AcDbArc
 50
90.0
 51
180.0
  0
ARC
  5
A6
330
2
100
AcDbEntity
  8
S1
  6
DASHED
 62
     3
100
AcDbCircle
 10
47.87725261908869
 20
23.29578860734978
 30
0.0
 40
0.08
100
AcDbArc
 50
0.0
 51
90.0
  0
LINE
  5
A7
330
2
100
AcDbEntity
  8
S1
  6
DASHED
 62
     3
100
AcDbLine
 10
48.15725261908866
 20
3.705788607349802
 30
0.0
 11
48.15725261908866
 21
3.805788607349796
 31
0.0
  0
LINE
  5
A8
330
2
100
AcDbEntity
  8
S1
  6
DASHED
 62
     3
100
AcDbLine
 10
47.95725261908867
 20
3.705788607349802
 30
0.0
 11
47.95725261908867
 21
3.805788607349796
 31
0.0
  0
LINE
  5
A9
330
2
100
AcDbEntity
  8
S1
  6
DASHED
 62
     3
100
AcDbLine
 10
48.25725261908869
 20
3.705788607349802
 30
0.0
 11
48.25725261908869
 21
3.805788607349796
 31
0.0
  0
LINE
  5
AA
330
2
100
AcDbEntity
  8
S1
  6
DASHED
 62
     3
100
AcDbLine
 10
47.85725261908871
 20
3.705788607349802
 30
0.0
 11
47.85725261908871
 21
3.805788607349796
 31
0.0
  0
LINE
  5
AB
330
2
100
AcDbEntity
  8
S1
  6
DASHED
 62
     3
100
AcDbLine
 10
48.25725261908869
 20
3.805788607349796
 30
0.0
 11
47.85725261908871
 21
3.805788607349796
 31
0.0
  0
ARC
  5
AC
330
2
100
AcDbEntity
  8
S1
  6
DASHED
 62
     3
100
AcDbCircle
 10
48.23725261908871
 20
3.705788607349802
 30
0.0
 40
0.08
100
AcDbArc
 50
180.0
 51
270.0
  0
ARC
  5
AD
330
2
100
AcDbEntity
  8
S1
  6
DASHED
 62
     3
100
AcDbCircle
 10
47.87725261908869
 20
3.705788607349802
 30
0.0
 40
0.08
100
AcDbArc
 50
270.0
 51
0.0
  0
LINE
  5
AE
330
2
100
AcDbEntity
  8
S1
  6
Continuous
 62
     3
100
AcDbLine
 10
48.15725261908866
 20
25.62578860734979
 30
0.0
 11
48.15725261908866
 21
25.5257886073498
 31
0.0
  0
ARC
  5
AF
330
2
100
AcDbEntity
  8
S1
  6
Continuous
 62
     3
100
AcDbCircle
 10
48.45725261908867
 20
24.22578855734978
 30
0.0
 40
0.1
100
AcDbArc
 50
270.0
 51
0.0
  0
LINE
  5
B0
330
2
100
AcDbEntity
  8
S1
  6
Continuous
 62
     3
100
AcDbLine
 10
48.35725261908871
 20
23.47578860734978
 30
0.0
 11
47.65725261908866
 21
23.47578860734978
 31
0.0
  0
LINE
  5
B1
330
2
100
AcDbEntity
  8
S1
  6
Continuous
 62
     3
100
AcDbLine
 10
48.35725261908871
 20
24.12578860734979
 30
0.0
 11
48.35725261908871
 21
23.47578860734978
 31
0.0
  0
ARC
  5
B2
330
2
100
AcDbEntity
  8
S1
  6
Continuous
 62
     3
100
AcDbCircle
 10
48.45725261908867
 20
24.12578860734979
 30
0.0
 40
0.1
100
AcDbArc
 50
90.0
 51
180.0
  0
LINE
  5
B3
330
2
100
AcDbEntity
  8
S1
  6
Continuous
 62
     3
100
AcDbLine
 10
48.45725261908867
 20
25.5257886073498
 30
0.0
 11
48.45725261908867
 21
24.22578860734978
 31
0.0
  0
LINE
  5
B4
330
2
100
AcDbEntity
  8
S1
  6
Continuous
 62
     3
100
AcDbLine
 10
48.45725261908867
 20
25.5257886073498
 30
0.0
 11
48.15725261908866
 21
25.5257886073498
 31
0.0
  0
LINE
  5
B5
330
2
100
AcDbEntity
  8
S1
  6
Continuous
 62
     3
100
AcDbLine
 10
48.5572526190887
 20
25.51078860734978
 30
0.0
 11
48.5572526190887
 21
24.22578855734978
 31
0.0
  0
LINE
  5
B6
330
2
100
AcDbEntity
  8
S1
  6
Continuous
 62
     3
100
AcDbLine
 10
48.45725261908867
 20
24.12578860734979
 30
0.0
 11
48.45725261908867
 21
23.4907886073498
 31
0.0
  0
LINE
  5
B7
330
2
100
AcDbEntity
  8
S1
  6
Continuous
 62
     3
100
AcDbLine
 10
48.44225261908869
 20
25.62578860734979
 30
0.0
 11
48.15725261908866
 21
25.62578860734979
 31
0.0
  0
LINE
  5
B8
330
2
100
AcDbEntity
  8
S1
  6
DASHED
 62
     3
100
AcDbLine
 10
48.45725261908867
 20
24.9257886073498
 30
0.0
 11
48.5572526190887
 21
24.9257886073498
 31
0.0
  0
LINE
  5
B9
330
2
100
AcDbEntity
  8
S1
  6
DASHED
 62
     3
100
AcDbLine
 10
48.45725261908867
 20
24.57578860734978
 30
0.0
 11
48.5572526190887
 21
24.57578860734978
 31
0.0
  0
LINE
  5
BA
330
2
100
AcDbEntity
  8
S1
  6
Continuous
 62
     3
100
AcDbLine
 10
48.34225261908867
 20
23.37578860734979
 30
0.0
 11
47.65725261908866
 21
23.37578860734979
 31
0.0
  0
LINE
  5
BB
330
2
100
AcDbEntity
  8
S1
  6
Continuous
 62
     3
100
AcDbLine
 10
47.65725261908866
 20
23.47578860734978
 30
0.0
 11
47.65725261908866
 21
23.37578860734979
 31
0.0
  0
LINE
  5
BC
330
2
100
AcDbEntity
  8
S1
  6
DASHED
 62
     3
100
AcDbLine
 10
48.35725261908871
 20
23.9257886073498
 30
0.0
 11
48.45725261908867
 21
23.9257886073498
 31
0.0
  0
LINE
  5
BD
330
2
100
AcDbEntity
  8
S1
  6
DASHED
 62
     3
100
AcDbLine
 10
47.90725261908867
 20
23.47578860734978
 30
0.0
 11
47.90725261908867
 21
23.37578860734979
 31
0.0
  0
LINE
  5
BE
330
2
100
AcDbEntity
  8
S1
  6
DASHED
 62
     3
100
AcDbLine
 10
48.20725261908868
 20
23.47578860734978
 30
0.0
 11
48.20725261908868
 21
23.37578860734979
 31
0.0
  0
LINE
  5
BF
330
2
100
AcDbEntity
  8
S1
  6
DASHED
 62
     3
100
AcDbLine
 10
48.45725261908867
 20
24.32578860734978
 30
0.0
 11
48.5572526190887
 21
24.32578860734978
 31
0.0
  0
ARC
  5
C0
330
2
100
AcDbEntity
  8
S1
  6
Continuous
 62
     3
100
AcDbCircle
 10
48.44225261908869
 20
25.51078860734978
 30
0.0
 40
0.115
100
AcDbArc
 50
0.0
 51
90.0
  0
ARC
  5
C1
330
2
100
AcDbEntity
  8
S1
  6
Continuous
 62
     3
100
AcDbCircle
 10
48.34225261908867
 20
23.4907886073498
 30
0.0
 40
0.115
100
AcDbArc
 50
270.0
 51
0.0
  0
LINE
  5
C2
330
2
100
AcDbEntity
  8
S1
  6
DASHED
 62
     3
100
AcDbLine
 10
48.35725261908871
 20
23.87578860734979
 30
0.0
 11
48.45725261908867
 21
23.87578860734979
 31
0.0
  0
LINE
  5
C3
330
2
100
AcDbEntity
  8
S1
  6
DASHED
 62
     3
100
AcDbLine
 10
48.3072526190887
 20
25.5257886073498
 30
0.0
 11
48.3072526190887
 21
25.62578860734979
 31
0.0
  0
POINT
  5
C4
330
2
100
AcDbEntity
  8
S1
  6
Continuous
 62
     3
100
AcDbPoint
 10
47.5572526190887
 20
23.29578860734981
 30
0.0
  0
LINE
  5
C5
330
2
100
AcDbEntity
  8
S1
  6
Continuous
 62
     3
100
AcDbLine
 10
48.28725261908871
 20
23.59078860734979
 30
0.0
 11
47.82725261908868
 21
23.59078860734979
 31
0.0
  0
LINE
  5
C6
330
2
100
AcDbEntity
  8
S1
  6
Continuous
 62
     3
100
AcDbLine
 10
48.0572526190887
 20
23.59078860734979
 30
0.0
 11
48.09478036908868
 21
23.5257886073498
 31
0.0
  0
LINE
  5
C7
330
2
100
AcDbEntity
  8
S1
  6
Continuous
 62
     3
100
AcDbLine
 10
48.01972486908872
 20
23.59078860734979
 30
0.0
 11
48.0572526190887
 21
23.5257886073498
 31
0.0
  0
LINE
  5
C8
330
2
100
AcDbEntity
  8
S1
  6
Continuous
 62
     3
100
AcDbLine
 10
48.28725261908871
 20
23.5257886073498
 30
0.0
 11
48.28725261908871
 21
23.59078860734979
 31
0.0
  0
LINE
  5
C9
330
2
100
AcDbEntity
  8
S1
  6
Continuous
 62
     3
100
AcDbLine
 10
47.82725261908868
 20
23.5257886073498
 30
0.0
 11
48.28725261908871
 21
23.5257886073498
 31
0.0
  0
LINE
  5
CA
330
2
100
AcDbEntity
  8
S1
  6
Continuous
 62
     3
100
AcDbLine
 10
47.82725261908868
 20
23.59078860734979
 30
0.0
 11
47.82725261908868
 21
23.5257886073498
 31
0.0
  0
LINE
  5
CB
330
2
100
AcDbEntity
  8
S1
  6
Continuous
 62
     3
100
AcDbLine
 10
48.3072526190887
 20
23.5257886073498
 30
0.0
 11
47.8072526190887
 21
23.5257886073498
 31
0.0
  0
LINE
  5
CC
330
2
100
AcDbEntity
  8
S1
  6
Continuous
 62
     3
100
AcDbLine
 10
48.3072526190887
 20
23.47578860734978
 30
0.0
 11
48.3072526190887
 21
23.5257886073498
 31
0.0
  0
LINE
  5
CD
330
2
100
AcDbEntity
  8
S1
  6
Continuous
 62
     3
100
AcDbLine
 10
47.8072526190887
 20
23.47578860734978
 30
0.0
 11
48.3072526190887
 21
23.47578860734978
 31
0.0
  0
LINE
  5
CE
330
2
100
AcDbEntity
  8
S1
  6
Continuous
 62
     3
100
AcDbLine
 10
47.8072526190887
 20
23.5257886073498
 30
0.0
 11
47.8072526190887
 21
23.47578860734978
 31
0.0
  0
LINE
  5
CF
330
2
100
AcDbEntity
  8
S1
  6
Continuous
 62
     3
100
AcDbLine
 10
47.94475261908869
 20
23.34578860734979
 30
0.0
 11
47.94475261908869
 21
23.47578860734978
 31
0.0
  0
LINE
  5
D0
330
2
100
AcDbEntity
  8
S1
  6
Continuous
 62
     3
100
AcDbLine
 10
47.9572526190887
 20
23.32078860734978
 30
0.0
 11
47.94475261908869
 21
23.34578860734979
 31
0.0
  0
LINE
  5
D1
330
2
100
AcDbEntity
  8
S1
  6
Continuous
 62
     3
100
AcDbLine
 10
48.1572526190887
 20
23.32078860734978
 30
0.0
 11
48.16975261908871
 21
23.34578860734979
 31
0.0
  0
LINE
  5
D2
330
2
100
AcDbEntity
  8
S1
  6
Continuous
 62
     3
100
AcDbLine
 10
48.16975261908871
 20
23.34578860734979
 30
0.0
 11
48.16975261908871
 21
23.47578860734978
 31
0.0
  0
LINE
  5
D3
330
2
100
AcDbEntity
  8
S1
  6
Continuous
 62
     3
100
AcDbLine
 10
48.1572526190887
 20
23.32078860734978
 30
0.0
 11
48.1572526190887
 21
23.09078860734979
 31
0.0
  0
LINE
  5
D4
330
2
100
AcDbEntity
  8
S1
  6
Continuous
 62
     3
100
AcDbLine
 10
47.9572526190887
 20
23.32078860734978
 30
0.0
 11
47.9572526190887
 21
23.09078860734979
 31
0.0
  0
LINE
  5
D5
330
2
100
AcDbEntity
  8
S1
  6
Continuous
 62
     3
100
AcDbLine
 10
47.9322526190887
 20
23.09078860734979
 30
0.0
 11
48.1822526190887
 21
23.09078860734979
 31
0.0
  0
LINE
  5
D6
330
2
100
AcDbEntity
  8
S1
  6
Continuous
 62
     3
100
AcDbLine
 10
47.9322526190887
 20
23.32078860734978
 30
0.0
 11
48.1822526190887
 21
23.32078860734978
 31
0.0
  0
LINE
  5
D7
330
2
100
AcDbEntity
  8
S1
  6
Continuous
 62
     3
100
AcDbLine
 10
48.1822526190887
 20
23.32078860734978
 30
0.0
 11
48.1822526190887
 21
23.09078860734979
 31
0.0
  0
LINE
  5
D8
330
2
100
AcDbEntity
  8
S1
  6
Continuous
 62
     3
100
AcDbLine
 10
48.16975261908871
 20
23.34578860734979
 30
0.0
 11
48.1822526190887
 21
23.32078860734978
 31
0.0
  0
LINE
  5
D9
330
2
100
AcDbEntity
  8
S1
  6
Continuous
 62
     3
100
AcDbLine
 10
47.9322526190887
 20
23.32078860734978
 30
0.0
 11
47.9322526190887
 21
23.09078860734979
 31
0.0
  0
LINE
  5
DA
330
2
100
AcDbEntity
  8
S1
  6
Continuous
 62
     3
100
AcDbLine
 10
47.94475261908869
 20
23.34578860734979
 30
0.0
 11
47.9322526190887
 21
23.32078860734978
 31
0.0
  0
ARC
  5
DB
330
2
100
AcDbEntity
  8
S1
  6
Continuous
 62
     3
100
AcDbCircle
 10
48.0572526190887
 20
23.15578860734979
 30
0.0
 40
0.6000000000000001
100
AcDbArc
 50
74.21400999999973
 51
105.7859900000002
  0
ARC
  5
DC
330
2
100
AcDbEntity
  8
S1
  6
Continuous
 62
     3
100
AcDbCircle
 10
48.19871611908869
 20
23.65617660734978
 30
0.0
 40
0.08
100
AcDbArc
 50
3.000000000005764
 51
74.21400999999973
  0
ARC
  5
DD
330
2
100
AcDbEntity
  8
S1
  6
Continuous
 62
     3
100
AcDbCircle
 10
47.91578936908869
 20
23.65617660734978
 30
0.0
 40
0.08
100
AcDbArc
 50
105.7859900000002
 51
176.9999999999942
  0
LINE
  5
DE
330
2
100
AcDbEntity
  8
S1
  6
Continuous
 62
     3
100
AcDbLine
 10
47.8322526190887
 20
23.59078860734979
 30
0.0
 11
48.28225261908869
 21
23.59078860734979
 31
0.0
  0
LINE
  5
DF
330
2
100
AcDbEntity
  8
S1
  6
Continuous
 62
     3
100
AcDbLine
 10
48.28225261908869
 20
23.59078860734979
 30
0.0
 11
48.27860636908869
 21
23.66036335734978
 31
0.0
  0
LINE
  5
E0
330
2
100
AcDbEntity
  8
S1
  6
Continuous
 62
     3
100
AcDbLine
 10
47.8322526190887
 20
23.59078860734979
 30
0.0
 11
47.8358988690887
 21
23.66036335734978
 31
0.0
  0
LINE
  5
E1
330
2
100
AcDbEntity
  8
S1
  6
Continuous
 62
     3
100
AcDbLine
 10
47.82725261908868
 20
3.410788607349786
 30
0.0
 11
48.28725261908871
 21
3.410788607349786
 31
0.0
  0
LINE
  5
E2
330
2
100
AcDbEntity
  8
S1
  6
Continuous
 62
     3
100
AcDbLine
 10
48.0572526190887
 20
3.410788607349786
 30
0.0
 11
48.01972486908872
 21
3.475788607349784
 31
0.0
  0
LINE
  5
E3
330
2
100
AcDbEntity
  8
S1
  6
Continuous
 62
     3
100
AcDbLine
 10
48.09478036908868
 20
3.410788607349786
 30
0.0
 11
48.0572526190887
 21
3.475788607349784
 31
0.0
  0
LINE
  5
E4
330
2
100
AcDbEntity
  8
S1
  6
Continuous
 62
     3
100
AcDbLine
 10
47.82725261908868
 20
3.475788607349784
 30
0.0
 11
47.82725261908868
 21
3.410788607349786
 31
0.0
  0
LINE
  5
E5
330
2
100
AcDbEntity
  8
S1
  6
Continuous
 62
     3
100
AcDbLine
 10
48.28725261908871
 20
3.475788607349784
 30
0.0
 11
47.82725261908868
 21
3.475788607349784
 31
0.0
  0
LINE
  5
E6
330
2
100
AcDbEntity
  8
S1
  6
Continuous
 62
     3
100
AcDbLine
 10
48.28725261908871
 20
3.410788607349786
 30
0.0
 11
48.28725261908871
 21
3.475788607349784
 31
0.0
  0
LINE
  5
E7
330
2
100
AcDbEntity
  8
S1
  6
Continuous
 62
     3
100
AcDbLine
 10
47.8072526190887
 20
3.475788607349784
 30
0.0
 11
48.3072526190887
 21
3.475788607349784
 31
0.0
  0
LINE
  5
E8
330
2
100
AcDbEntity
  8
S1
  6
Continuous
 62
     3
100
AcDbLine
 10
47.8072526190887
 20
3.525788607349795
 30
0.0
 11
47.8072526190887
 21
3.475788607349784
 31
0.0
  0
LINE
  5
E9
330
2
100
AcDbEntity
  8
S1
  6
Continuous
 62
     3
100
AcDbLine
 10
48.3072526190887
 20
3.525788607349795
 30
0.0
 11
47.8072526190887
 21
3.525788607349795
 31
0.0
  0
LINE
  5
EA
330
2
100
AcDbEntity
  8
S1
  6
Continuous
 62
     3
100
AcDbLine
 10
48.3072526190887
 20
3.475788607349784
 30
0.0
 11
48.3072526190887
 21
3.525788607349795
 31
0.0
  0
LINE
  5
EB
330
2
100
AcDbEntity
  8
S1
  6
Continuous
 62
     3
100
AcDbLine
 10
48.16975261908871
 20
3.655788607349791
 30
0.0
 11
48.16975261908871
 21
3.525788607349795
 31
0.0
  0
LINE
  5
EC
330
2
100
AcDbEntity
  8
S1
  6
Continuous
 62
     3
100
AcDbLine
 10
48.1572526190887
 20
3.680788607349796
 30
0.0
 11
48.16975261908871
 21
3.655788607349791
 31
0.0
  0
LINE
  5
ED
330
2
100
AcDbEntity
  8
S1
  6
Continuous
 62
     3
100
AcDbLine
 10
47.9572526190887
 20
3.680788607349796
 30
0.0
 11
47.94475261908869
 21
3.655788607349791
 31
0.0
  0
LINE
  5
EE
330
2
100
AcDbEntity
  8
S1
  6
Continuous
 62
     3
100
AcDbLine
 10
47.94475261908869
 20
3.655788607349791
 30
0.0
 11
47.94475261908869
 21
3.525788607349795
 31
0.0
  0
LINE
  5
EF
330
2
100
AcDbEntity
  8
S1
  6
Continuous
 62
     3
100
AcDbLine
 10
47.9572526190887
 20
3.680788607349796
 30
0.0
 11
47.9572526190887
 21
3.910788607349786
 31
0.0
  0
LINE
  5
F0
330
2
100
AcDbEntity
  8
S1
  6
Continuous
 62
     3
100
AcDbLine
 10
48.1572526190887
 20
3.680788607349796
 30
0.0
 11
48.1572526190887
 21
3.910788607349786
 31
0.0
  0
LINE
  5
F1
330
2
100
AcDbEntity
  8
S1
  6
Continuous
 62
     3
100
AcDbLine
 10
48.1822526190887
 20
3.910788607349786
 30
0.0
 11
47.9322526190887
 21
3.910788607349786
 31
0.0
  0
LINE
  5
F2
330
2
100
AcDbEntity
  8
S1
  6
Continuous
 62
     3
100
AcDbLine
 10
48.1822526190887
 20
3.680788607349796
 30
0.0
 11
47.9322526190887
 21
3.680788607349796
 31
0.0
  0
LINE
  5
F3
330
2
100
AcDbEntity
  8
S1
  6
Continuous
 62
     3
100
AcDbLine
 10
47.9322526190887
 20
3.680788607349796
 30
0.0
 11
47.9322526190887
 21
3.910788607349786
 31
0.0
  0
LINE
  5
F4
330
2
100
AcDbEntity
  8
S1
  6
Continuous
 62
     3
100
AcDbLine
 10
47.94475261908869
 20
3.655788607349791
 30
0.0
 11
47.9322526190887
 21
3.680788607349796
 31
0.0
  0
LINE
  5
F5
330
2
100
AcDbEntity
  8
S1
  6
Continuous
 62
     3
100
AcDbLine
 10
48.1822526190887
 20
3.680788607349796
 30
0.0
 11
48.1822526190887
 21
3.910788607349786
 31
0.0
  0
LINE
  5
F6
330
2
100
AcDbEntity
  8
S1
  6
Continuous
 62
     3
100
AcDbLine
 10
48.16975261908871
 20
3.655788607349791
 30
0.0
 11
48.1822526190887
 21
3.680788607349796
 31
0.0
  0
ARC
  5
F7
330
2
100
AcDbEntity
  8
S1
  6
Continuous
 62
     3
100
AcDbCircle
 10
48.0572526190887
 20
3.845788607349788
 30
0.0
 40
0.6000000000000001
100
AcDbArc
 50
254.2140099999997
 51
285.7859900000002
  0
ARC
  5
F8
330
2
100
AcDbEntity
  8
S1
  6
Continuous
 62
     3
100
AcDbCircle
 10
47.91578911908871
 20
3.345400607349802
 30
0.0
 40
0.08
100
AcDbArc
 50
183.0000000000058
 51
254.2140099999997
  0
ARC
  5
F9
330
2
100
AcDbEntity
  8
S1
  6
Continuous
 62
     3
100
AcDbCircle
 10
48.19871586908871
 20
3.345400607349802
 30
0.0
 40
0.08
100
AcDbArc
 50
285.7859900000002
 51
356.9999999999942
  0
LINE
  5
FA
330
2
100
AcDbEntity
  8
S1
  6
Continuous
 62
     3
100
AcDbLine
 10
48.28225261908869
 20
3.410788607349786
 30
0.0
 11
47.8322526190887
 21
3.410788607349786
 31
0.0
  0
LINE
  5
FB
330
2
100
AcDbEntity
  8
S1
  6
Continuous
 62
     3
100
AcDbLine
 10
47.8322526190887
 20
3.410788607349786
 30
0.0
 11
47.8358988690887
 21
3.341213857349799
 31
0.0
  0
LINE
  5
FC
330
2
100
AcDbEntity
  8
S1
  6
Continuous
 62
     3
100
AcDbLine
 10
48.28225261908869
 20
3.410788607349786
 30
0.0
 11
48.27860636908869
 21
3.341213857349799
 31
0.0
  0
SPLINE
  5
FD
330
2
100
AcDbEntity
  8
GAIKEI
  6
Continuous
 62
     1
100
AcDbSpline
210
0.0
220
0.0
230
1.0
 70
     8
 71
     3
 72
    19
 73
    15
 74
    13
 42
0.0000000001
 43
0.0000000001
 44
0.000001
 12
-0.4537847692220346
 22
-0.891111319208832
 32
0.0
 13
0.0558661521317871
 23
-0.9984382670180407
 33
0.0
 40
0.0
 40
0.0
 40
0.0
 40
0.0
 40
0.0058433329848989
 40
0.0115431011623589
 40
0.0191493870676808
 40
0.0323458963040312
 40
0.0491681393602182
 40
0.0697806678864571
 40
0.0924149932146331
 40
0.1149878612986715
 40
0.1372182372400615
 40
0.153517971264874
 40
0.1694067174933785
 40
0.1997454480061722
 40
0.1997454480061722
 40
0.1997454480061722
 40
0.1997454480061722
 10
43.20540230366882
 20
32.14423335727421
 30
0.0
 10
43.20451843183214
 20
32.14249767055262
 30
0.0
 10
43.20292523991144
 20
32.13898433051179
 30
0.0
 10
43.20097896694188
 20
32.13289810415796
 30
0.0
 10
43.19868631724325
 20
32.12436416583614
 30
0.0
 10
43.19631288930523
 20
32.11203374169975
 30
0.0
 10
43.19437969626787
 20
32.09525239764128
 30
0.0
 10
43.19365566768391
 20
32.07521991401521
 30
0.0
 10
43.19452704436449
 20
32.05328141379329
 30
0.0
 10
43.19657080648162
 20
32.03089026550816
 30
0.0
 10
43.19898218416243
 20
32.01066510212388
 30
0.0
 10
43.20120769705224
 20
31.99266277029875
 30
0.0
 10
43.20365068667536
 20
31.97196318104855
 30
0.0
 10
43.20483733429071
 20
31.95659140264368
 30
0.0
 10
43.20540230366882
 20
31.94649428613812
 30
0.0
 11
43.20540230366882
 21
32.14423335727421
 31
0.0
 11
43.20301383778181
 21
32.13890019660747
 31
0.0
 11
43.20121050850244
 21
32.13349329876249
 31
0.0
 11
43.19923589005222
 21
32.1261477927367
 31
0.0
 11
43.19668687036712
 21
32.11319978429154
 31
0.0
 11
43.19472273100811
 21
32.09649256825938
 31
0.0
 11
43.19392929087931
 21
32.07589528591714
 31
0.0
 11
43.19472203435791
 21
32.05327483456031
 31
0.0
 11
43.19668610353781
 21
32.03078757816527
 31
0.0
 11
43.19923537710323
 21
32.00870387303715
 31
0.0
 11
43.20121024779749
 21
31.99252425109492
 31
0.0
 11
43.20301378790552
 21
31.9767382679627
 31
0.0
 11
43.20540230366882
 21
31.94649428613812
 31
0.0
  0
SPLINE
  5
FF
330
2
100
AcDbEntity
  8
GAIKEI
  6
Continuous
 62
     1
100
AcDbSpline
210
0.0
220
0.0
230
1.0
 70
     8
 71
     3
 72
    11
 73
     7
 74
     5
 42
0.0000000001
 43
0.0000000001
 44
0.000001
 12
-0.9272724310398604
 22
-0.3743872842838379
 32
0.0
 13
-0.8850743362206914
 23
-0.465449695846396
 33
0.0
 40
0.0
 40
0.0
 40
0.0
 40
0.0
 40
0.0143995265551268
 40
0.0364303848129772
 40
0.054352588973912
 40
0.0655662738736491
 40
0.0655662738736491
 40
0.0655662738736491
 40
0.0655662738736491
 10
43.26336052836134
 20
31.97703200732931
 30
0.0
 10
43.25890976702981
 20
31.97523500744868
 30
0.0
 10
43.24777203072341
 20
31.97037068414656
 30
0.0
 10
43.2318282465651
 20
31.96171927658872
 30
0.0
 10
43.21727211857846
 20
31.95282630666654
 30
0.0
 10
43.20871061857523
 20
31.94823408821353
 30
0.0
 10
43.20540230366882
 20
31.94649428613824
 30
0.0
 11
43.26336052836134
 21
31.97703200732931
 31
0.0
 11
43.25017507415796
 21
31.97124450065533
 31
0.0
 11
43.23073000055948
 21
31.96088834751245
 31
0.0
 11
43.21526070797111
 21
31.95183786456553
 31
0.0
 11
43.20540230366882
 21
31.94649428613824
 31
0.0
  0
SPLINE
  5
100
330
2
100
AcDbEntity
  8
GAIKEI
  6
Continuous
 62
     1
100
AcDbSpline
210
0.0
220
0.0
230
1.0
 70
     8
 71
     3
 72
    15
 73
    11
 74
     9
 42
0.0000000001
 43
0.0000000001
 44
0.000001
 12
0.1151974769613444
 22
0.9933426102316062
 32
0.0
 13
-0.8415501913672637
 23
0.5401789290686209
 33
0.0
 40
0.0
 40
0.0
 40
0.0
 40
0.0
 40
0.0394084963478186
 40
0.0771399072617108
 40
0.1117967484186215
 40
0.1420880407746224
 40
0.1668916500996185
 40
0.1853241616436613
 40
0.196879107761351
 40
0.2022733320264348
 40
0.2022733320264348
 40
0.2022733320264348
 40
0.2022733320264348
 10
43.26336052836134
 20
31.97703200732931
 30
0.0
 10
43.26487378147804
 20
31.99008072020513
 30
0.0
 10
43.26748503572311
 20
32.0156674136191
 30
0.0
 10
43.27023790399747
 20
32.05282582678274
 30
0.0
 10
43.271947903972
 20
32.08704272848667
 30
0.0
 10
43.27244942190723
 20
32.1168756254489
 30
0.0
 10
43.27235404279824
 20
32.14161793711702
 30
0.0
 10
43.27024320553573
 20
32.15930007574395
 30
0.0
 10
43.26943824192013
 20
32.17197937375227
 30
0.0
 10
43.26487369851547
 20
32.17578663218467
 30
0.0
 10
43.26336052836128
 20
32.17675791428022
 30
0.0
 11
43.26336052836134
 21
31.97703200732931
 31
0.0
 11
43.26735519699596
 21
32.01623689941996
 31
0.0
 11
43.27015602204127
 21
32.05386420768539
 31
0.0
 11
43.27181512738642
 21
32.08848130425966
 31
0.0
 11
43.27236459590167
 21
32.11876759807208
 31
0.0
 11
43.2718152427046
 21
32.14356509718598
 31
0.0
 11
43.27015620301736
 21
32.16192273828418
 31
0.0
 11
43.26735535027663
 21
32.1731327866934
 31
0.0
 11
43.26336052836128
 21
32.17675791428022
 31
0.0
  0
SPLINE
  5
101
330
2
100
AcDbEntity
  8
GAIKEI
  6
Continuous
 62
     1
100
AcDbSpline
210
0.0
220
0.0
230
1.0
 70
     8
 71
     3
 72
    13
 73
     9
 74
     7
 42
0.0000000001
 43
0.0000000001
 44
0.000001
 12
-0.9958439311814659
 22
-0.091076147969947
 32
0.0
 13
-0.9929680145434634
 23
-0.1183829468023682
 33
0.0
 40
0.0
 40
0.0
 40
0.0
 40
0.0
 40
0.279084967055747
 40
0.4824077539591936
 40
0.6857426128006065
 40
0.8891214813044726
 40
1.092568902581011
 40
1.132064281388675
 40
1.132064281388675
 40
1.132064281388675
 40
1.132064281388675
 10
47.15586975170615
 20
-2.245324167008647
 30
0.0
 10
47.063228061464
 20
-2.253796828260561
 30
0.0
 10
46.90313276493569
 20
-2.268871615530997
 30
0.0
 10
46.67565348689857
 20
-2.291291076739895
 30
0.0
 10
46.47338002899999
 20
-2.312152009089885
 30
0.0
 10
46.27117382018332
 20
-2.334045449778727
 30
0.0
 10
46.12336186956304
 20
-2.350947106249236
 30
0.0
 10
46.04294434942878
 20
-2.360483138666552
 30
0.0
 10
46.02987180013601
 20
-2.36204166510933
 30
0.0
 11
47.15586975170615
 21
-2.245324167008647
 31
0.0
 11
46.87801256057142
 21
-2.2714733519459
 31
0.0
 11
46.67567298131873
 21
-2.29144441349635
 31
0.0
 11
46.47341287035326
 21
-2.312322803179171
 31
0.0
 11
46.27121908102296
 21
-2.33424603462933
 31
0.0
 11
46.06909256376016
 21
-2.357391565066421
 31
0.0
 11
46.02987180013601
 21
-2.36204166510933
 31
0.0
  0
SPLINE
  5
102
330
2
100
AcDbEntity
  8
GAIKEI
  6
Continuous
 62
     1
100
AcDbSpline
210
0.0
220
0.0
230
1.0
 70
     8
 71
     3
 72
    23
 73
    19
 74
    17
 42
0.0000000001
 43
0.0000000001
 44
0.000001
 12
0.1037512493360999
 22
-0.9946032768200588
 32
0.0
 13
-0.9066396789115103
 23
-0.4219057864301387
 33
0.0
 40
0.0
 40
0.0
 40
0.0
 40
0.0
 40
0.06070261108013
 40
0.1185986751946899
 40
0.1736064872697767
 40
0.2256490779792203
 40
0.2746574152566821
 40
0.3205734925395332
 40
0.3633544662869462
 40
0.4029783719659
 40
0.4389238356325391
 40
0.472113962282652
 40
0.5025974616641785
 40
0.5304770080022387
 40
0.5559339520156263
 40
0.5792613998137482
 40
0.6009024388063949
 40
0.6214788907307601
 40
0.6214788907307601
 40
0.6214788907307601
 40
0.6214788907307601
 10
47.37462110349262
 20
26.01351949731387
 30
0.0
 10
47.37672042740512
 20
25.99339449201659
 30
0.0
 10
47.38032842786405
 20
25.95402207849165
 30
0.0
 10
47.38427053830662
 20
25.89628227994149
 30
0.0
 10
47.38658186731126
 20
25.84134181934235
 30
0.0
 10
47.3872961257696
 20
25.78931950443419
 30
0.0
 10
47.38642309565327
 20
25.74032918009294
 30
0.0
 10
47.38397204743473
 20
25.69448180294762
 30
0.0
 10
47.37994495334219
 20
25.65188447581676
 30
0.0
 10
47.37436586611283
 20
25.61281289877434
 30
0.0
 10
47.36722989118095
 20
25.5772469219296
 30
0.0
 10
47.35859763606275
 20
25.54515423242833
 30
0.0
 10
47.3484301107755
 20
25.51634231721408
 30
0.0
 10
47.33673287529671
 20
25.4909175807407
 30
0.0
 10
47.32350082440726
 20
25.46897792959538
 30
0.0
 10
47.30868796517234
 20
25.45065923712298
 30
0.0
 10
47.29229015501238
 20
25.43603196169943
 30
0.0
 10
47.28001034628415
 20
25.42894600177283
 30
0.0
 10
47.2737918703622
 20
25.42605222706246
 30
0.0
 11
47.37462110349262
 21
26.01351949731387
 31
0.0
 11
47.38017349127758
 21
25.95307219397492
 31
0.0
 11
47.38407738591686
 21
25.89530790938264
 31
0.0
 11
47.38635611534064
 21
25.84034732582384
 31
0.0
 11
47.3870275452995
 21
25.7883090766243
 31
0.0
 11
47.38610410375716
 21
25.73930945154487
 31
0.0
 11
47.38359281997126
 21
25.69346211366556
 31
0.0
 11
47.37949537785053
 21
25.65087782833453
 31
0.0
 11
47.37380818314792
 21
25.61166420470593
 31
0.0
 11
47.36665541505741
 21
25.57643761303635
 31
0.0
 11
47.35794047243601
 21
25.54441211380268
 31
0.0
 11
47.34768682385404
 21
25.51570489329575
 31
0.0
 11
47.33591286976704
 21
25.49043354814924
 31
0.0
 11
47.32263170977344
 21
25.46871571804209
 31
0.0
 11
47.30785091950335
 21
25.45066870316103
 31
0.0
 11
47.29157233848579
 21
25.4364090672357
 31
0.0
 11
47.2737918703622
 21
25.42605222706246
 31
0.0
  0
SPLINE
  5
103
330
2
100
AcDbEntity
  8
GAIKEI
  6
Continuous
 62
     1
100
AcDbSpline
210
0.0
220
0.0
230
1.0
 70
     8
 71
     3
 72
    27
 73
    23
 74
    21
 42
0.0000000001
 43
0.0000000001
 44
0.000001
 12
-0.3587289631765114
 22
-0.9334417662491352
 32
0.0
 13
-0.3043867708718783
 23
-0.952548525650106
 33
0.0
 40
0.0
 40
0.0
 40
0.0
 40
0.0
 40
0.000052765316051
 40
0.0137452944832241
 40
0.0277848726959967
 40
0.0420904151999906
 40
0.0621802894338646
 40
0.0825042457509836
 40
0.1029273041856878
 40
0.120440706794733
 40
0.1390172120262889
 40
0.1586623151565132
 40
0.1727209773580527
 40
0.1881397105005395
 40
0.2049363464391857
 40
0.2220007426194276
 40
0.2384281114962712
 40
0.2550330349711858
 40
0.2718074234064913
 40
0.3201416250121446
 40
0.3656184092027507
 40
0.4082186707019203
 40
0.4082186707019203
 40
0.4082186707019203
 40
0.4082186707019203
 10
47.04378986543057
 20
25.00490735692543
 30
0.0
 10
47.04378355594819
 20
25.00489093914217
 30
0.0
 10
47.04214028212684
 20
25.00061399872462
 30
0.0
 10
47.03885937432434
 20
24.99195276381627
 30
0.0
 10
47.03405160698828
 20
24.97879040332018
 30
0.0
 10
47.02872344369544
 20
24.96354933066948
 30
0.0
 10
47.02309438630206
 20
24.9461968296929
 30
0.0
 10
47.01748421913508
 20
24.92670508786086
 30
0.0
 10
47.01281026876222
 20
24.90784998783269
 30
0.0
 10
47.00901456356748
 20
24.88939474435011
 30
0.0
 10
47.00586905240931
 20
24.87108173640109
 30
0.0
 10
47.00341846969138
 20
24.85382572153151
 30
0.0
 10
47.00148027070215
 20
24.8375660478635
 30
0.0
 10
46.99986218038761
 20
24.82222614322373
 30
0.0
 10
46.99829416918594
 20
24.80587436497581
 30
0.0
 10
46.99681623274035
 20
24.78917679767841
 30
0.0
 10
46.99527474222986
 20
24.77254918078791
 30
0.0
 10
46.99367925417348
 20
24.75602366364948
 30
0.0
 10
46.99109962605631
 20
24.72890899620992
 30
0.0
 10
46.98638365007622
 20
24.69232328920725
 30
0.0
 10
46.97735585059399
 20
24.64771597193968
 30
0.0
 10
46.96938985688842
 20
24.61942774586223
 30
0.0
 10
46.96506753820975
 20
24.60590147376777
 30
0.0
 11
47.04378986543057
 21
25.00490735692543
 31
0.0
 11
47.04377093781661
 21
25.00485810286332
 31
0.0
 11
47.03892448442198
 21
24.99205178072842
 31
0.0
 11
47.03411137237745
 21
24.97886300185874
 31
0.0
 11
47.02940122642755
 21
24.96535510562833
 31
0.0
 11
47.02322388753422
 21
24.94623851473867
 31
0.0
 11
47.01761392915014
 21
24.92670413072588
 31
0.0
 11
47.01271944091948
 21
24.90687622385124
 31
0.0
 11
47.00917615205267
 21
24.88972499125035
 31
0.0
 11
47.00601470712072
 21
24.87141946856392
 31
0.0
 11
47.00324055243018
 21
24.85197122062894
 31
0.0
 11
47.00156303815723
 21
24.83801299974701
 31
0.0
 11
46.99993260724935
 21
24.82268071697311
 31
0.0
 11
46.99832193779835
 21
24.80596149574322
 31
0.0
 11
46.99678451345792
 21
24.78896651770631
 31
0.0
 11
46.99526889980776
 21
24.77260924288422
 31
0.0
 11
46.9936875423584
 21
24.75607983403293
 31
0.0
 11
46.99204711915652
 21
24.73938593345068
 31
0.0
 11
46.98567598250835
 21
24.69147430180433
 31
0.0
 11
46.97659672802322
 21
24.64691250801687
 31
0.0
 11
46.96506753820975
 21
24.60590147376777
 31
0.0
  0
SPLINE
  5
104
330
2
100
AcDbEntity
  8
GAIKEI
  6
Continuous
 62
     1
100
AcDbSpline
210
0.0
220
0.0
230
1.0
 70
     8
 71
     3
 72
    30
 73
    26
 74
    24
 42
0.0000000001
 43
0.0000000001
 44
0.000001
 12
-0.0200236380412519
 22
-0.9997995068610471
 32
0.0
 13
0.6382126117635996
 23
-0.7698601575519316
 33
0.0
 40
0.0
 40
0.0
 40
0.0
 40
0.0
 40
0.016606923821622
 40
0.0373010785549166
 40
0.062161223043328
 40
0.0912321347745232
 40
0.1271247647504396
 40
0.1661149835442321
 40
0.1996843709300213
 40
0.2075830122509619
 40
0.2151115874076531
 40
0.2222706400800026
 40
0.2290608027015173
 40
0.2354828166742121
 40
0.2415375586176954
 40
0.2695382121071211
 40
0.2966935088714128
 40
0.3230613834755171
 40
0.3487051081642308
 40
0.37369345664966
 40
0.3981007431757767
 40
0.4408164956220404
 40
0.4807239607646424
 40
0.5184525715331308
 40
0.5547443344004151
 40
0.5547443344004151
 40
0.5547443344004151
 40
0.5547443344004151
 10
46.96506753820975
 20
1.878233260197504
 30
0.0
 10
46.96495669453256
 20
1.872698728781728
 30
0.0
 10
46.96432827216876
 20
1.860266567370899
 30
0.0
 10
46.96146190618463
 20
1.839727113163576
 30
0.0
 10
46.95697420317412
 20
1.815257511596826
 30
0.0
 10
46.95051660021542
 20
1.786014287042746
 30
0.0
 10
46.9421272957406
 20
1.752393101299077
 30
0.0
 10
46.93404474156714
 20
1.71715525514503
 30
0.0
 10
46.92852309520219
 20
1.690907635368915
 30
0.0
 10
46.9254614572649
 20
1.674864785875854
 30
0.0
 10
46.92410986663213
 20
1.667458257671029
 30
0.0
 10
46.92288708991216
 20
1.660404076884816
 30
0.0
 10
46.92179390240162
 20
1.653702136620438
 30
0.0
 10
46.92082755552028
 20
1.64735275511299
 30
0.0
 10
46.91897750189776
 20
1.633987538702683
 30
0.0
 10
46.9167434815939
 20
1.613698967787087
 30
0.0
 10
46.91494874148864
 20
1.586574786217624
 30
0.0
 10
46.91446829005224
 20
1.56017927186923
 30
0.0
 10
46.91529360169171
 20
1.534514870428694
 30
0.0
 10
46.91742361565252
 20
1.509578988114753
 30
0.0
 10
46.92176037581474
 20
1.479170562656065
 30
0.0
 10
46.92956163408472
 20
1.444279047355024
 30
0.0
 10
46.94287603992044
 20
1.40632842735377
 30
0.0
 10
46.96012881636323
 20
1.372352825867693
 30
0.0
 10
46.97458774782989
 20
1.35222940359776
 30
0.0
 10
46.98230836808491
 20
1.342916209504807
 30
0.0
 11
46.96506753820975
 21
1.878233260197504
 31
0.0
 11
46.96417979195522
 21
1.861650278605139
 31
0.0
 11
46.96152120337385
 21
1.84112764192551
 31
0.0
 11
46.9570917724657
 21
1.816665350158842
 31
0.0
 11
46.95089149923084
 21
1.788263403305023
 31
0.0
 11
46.94248264522698
 21
1.7533697500252
 31
0.0
 11
46.93376349370012
 21
1.715367014067197
 31
0.0
 11
46.9269274404044
 21
1.682501095823482
 31
0.0
 11
46.9254482264088
 21
1.674742211546373
 31
0.0
 11
46.9240981818497
 21
1.667335682679237
 31
0.0
 11
46.92287730672697
 21
1.660281509222301
 31
0.0
 11
46.92178560104085
 21
1.653579691175451
 31
0.0
 11
46.92082306479116
 21
1.647230228538688
 31
0.0
 11
46.91998969797796
 21
1.641233121312126
 31
0.0
 11
46.91691775216364
 21
1.6134015298625
 31
0.0
 11
46.91515039375329
 21
1.586303843554702
 31
0.0
 11
46.91468762274704
 21
1.559940062388619
 31
0.0
 11
46.91552943914476
 21
1.534310186364365
 31
0.0
 11
46.91767584294658
 21
1.509414215481939
 31
0.0
 11
46.92112683415238
 21
1.485252149741228
 31
0.0
 11
46.9305992404368
 21
1.443599925891277
 31
0.0
 11
46.94395363152037
 21
1.405993194568651
 31
0.0
 11
46.96119000740307
 21
1.372431955773123
 31
0.0
 11
46.98230836808491
 21
1.342916209504807
 31
0.0
  0
SPLINE
  5
105
330
2
100
AcDbEntity
  8
GAIKEI
  6
Continuous
 62
     1
100
AcDbSpline
210
0.0
220
0.0
230
1.0
 70
     8
 71
     3
 72
    12
 73
     8
 74
     6
 42
0.0000000001
 43
0.0000000001
 44
0.000001
 12
0.4769591228667053
 22
0.8789254775657735
 32
0.0
 13
0.3555935529301539
 23
0.9346406930550958
 33
0.0
 40
0.0
 40
0.0
 40
0.0
 40
0.0
 40
0.0463485371772527
 40
0.09288144435473
 40
0.139644928986831
 40
0.1864441356849683
 40
0.1874282895021357
 40
0.1874282895021357
 40
0.1874282895021357
 40
0.1874282895021357
 10
45.39931619638437
 20
23.37635713378111
 30
0.0
 10
45.40668498226378
 20
23.38993610383878
 30
0.0
 10
45.42080465760519
 20
23.41751097025983
 30
0.0
 10
45.43962879218343
 20
23.46010024270311
 30
0.0
 10
45.45721882920155
 20
23.50336236532968
 30
0.0
 10
45.46853485742331
 20
23.53277766408175
 30
0.0
 10
45.47419954346669
 20
23.54766408584402
 30
0.0
 10
45.47431619638419
 20
23.5479706959126
 30
0.0
 11
45.39931619638437
 21
23.37635713378111
 31
0.0
 11
45.42037938018185
 21
23.41764337333771
 31
0.0
 11
45.43938409138601
 21
23.46011907009191
 31
0.0
 11
45.45707723145054
 21
23.50340642561778
 31
0.0
 11
45.47396613807544
 21
23.547050920727
 31
0.0
 11
45.47431619638419
 21
23.5479706959126
 31
0.0
  0
SPLINE
  5
106
330
2
100
AcDbEntity
  8
GAIKEI
  6
Continuous
 62
     1
100
AcDbSpline
210
0.0
220
0.0
230
1.0
 70
     8
 71
     3
 72
    12
 73
     8
 74
     6
 42
0.0000000001
 43
0.0000000001
 44
0.000001
 12
0.4769591228668367
 22
0.8789254775657024
 32
0.0
 13
0.3555935532617211
 23
0.9346406929289479
 33
0.0
 40
0.0
 40
0.0
 40
0.0
 40
0.0
 40
0.0463485371772527
 40
0.0928814443548106
 40
0.1396449289866037
 40
0.1864441356849522
 40
0.1874282895021245
 40
0.1874282895021245
 40
0.1874282895021245
 40
0.1874282895021245
 10
45.39931619638437
 20
4.249046998120235
 30
0.0
 10
45.40668498226378
 20
4.2626259681779
 30
0.0
 10
45.42080465760537
 20
4.29020083459892
 30
0.0
 10
45.43962879218276
 20
4.332790107042455
 30
0.0
 10
45.45721882920337
 20
4.376052229667777
 30
0.0
 10
45.46853485741808
 20
4.405467528423457
 30
0.0
 10
45.4741995434666
 20
4.420353950183169
 30
0.0
 10
45.47431619638419
 20
4.420660560251718
 30
0.0
 11
45.39931619638437
 21
4.249046998120235
 31
0.0
 11
45.42037938018185
 21
4.290333237676833
 31
0.0
 11
45.43938409138601
 21
4.332808934431028
 31
0.0
 11
45.45707723145054
 21
4.376096289956791
 31
0.0
 11
45.47396613807515
 21
4.419740785066238
 31
0.0
 11
45.47431619638419
 21
4.420660560251718
 31
0.0
  0
SPLINE
  5
107
330
2
100
AcDbEntity
  8
GAIKEI
  6
Continuous
 62
     1
100
AcDbSpline
210
0.0
220
0.0
230
1.0
 70
     8
 71
     3
 72
    13
 73
     9
 74
     7
 42
0.0000000001
 43
0.0000000001
 44
0.000001
 12
-0.355604041378737
 22
0.9346367025508412
 32
0.0
 13
-0.479228857163119
 23
0.8776899808372721
 33
0.0
 40
0.0
 40
0.0
 40
0.0
 40
0.0
 40
0.0009841552556062
 40
0.0341752847051327
 40
0.0724502295558032
 40
0.1107098708129845
 40
0.1490911211199224
 40
0.1874325864602336
 40
0.1874325864602336
 40
0.1874325864602336
 40
0.1874325864602336
 10
45.47431619638419
 20
24.28129635416602
 30
0.0
 10
45.47419953985545
 20
24.28160296337364
 30
0.0
 10
45.47014821105479
 20
24.29224998001109
 30
0.0
 10
45.46149582417948
 20
24.31479699910989
 30
0.0
 10
45.44801279698619
 20
24.34879838082034
 30
0.0
 10
45.43312950460782
 20
24.38409741318992
 30
0.0
 10
45.41721505902802
 20
24.41897600563934
 30
0.0
 10
45.4054409752567
 20
24.44169260963756
 30
0.0
 10
45.39931619638437
 20
24.4529099162975
 30
0.0
 11
45.47431619638419
 21
24.28129635416602
 31
0.0
 11
45.47396613811398
 21
24.28221612936798
 31
0.0
 11
45.4620491991815
 21
24.31319350801042
 31
0.0
 11
45.44788361795363
 21
24.34875042248476
 31
0.0
 11
45.4329757461152
 21
24.38398588631495
 31
0.0
 11
45.41692148140273
 21
24.41884893493753
 31
0.0
 11
45.39931619638437
 21
24.4529099162975
 31
0.0
  0
SPLINE
  5
108
330
2
100
AcDbEntity
  8
GAIKEI
  6
Continuous
 62
     1
100
AcDbSpline
210
0.0
220
0.0
230
1.0
 70
     8
 71
     3
 72
    13
 73
     9
 74
     7
 42
0.0000000001
 43
0.0000000001
 44
0.000001
 12
-0.3556040416314752
 22
0.9346367024546811
 32
0.0
 13
-0.4792288571630963
 23
0.8776899808372844
 33
0.0
 40
0.0
 40
0.0
 40
0.0
 40
0.0
 40
0.0009841552556542
 40
0.0341752847052571
 40
0.0724502295558696
 40
0.110709870812993
 40
0.1490911211198894
 40
0.1874325864602258
 40
0.1874325864602258
 40
0.1874325864602258
 40
0.1874325864602258
 10
45.47431619638419
 20
5.153986218505139
 30
0.0
 10
45.47419953985536
 20
5.154292827712765
 30
0.0
 10
45.47014821105135
 20
5.164939844349504
 30
0.0
 10
45.46149582418109
 20
5.187486863449379
 30
0.0
 10
45.44801279698563
 20
5.221488245159434
 30
0.0
 10
45.43312950460782
 20
5.256787277529042
 30
0.0
 10
45.41721505902799
 20
5.291665869978459
 30
0.0
 10
45.4054409752567
 20
5.314382473976678
 30
0.0
 10
45.39931619638437
 20
5.325599780636622
 30
0.0
 11
45.47431619638419
 21
5.153986218505139
 31
0.0
 11
45.47396613811375
 21
5.154905993707103
 31
0.0
 11
45.4620491991815
 21
5.185883372349536
 31
0.0
 11
45.44788361795363
 21
5.221440286823877
 31
0.0
 11
45.4329757461152
 21
5.256675750654068
 31
0.0
 11
45.41692148140273
 21
5.291538799276651
 31
0.0
 11
45.39931619638437
 21
5.325599780636622
 31
0.0
  0
SPLINE
  5
109
330
2
100
AcDbEntity
  8
GAIKEI
  6
Continuous
 62
     1
100
AcDbSpline
210
0.0
220
0.0
230
1.0
 70
     8
 71
     3
 72
    11
 73
     7
 74
     5
 42
0.0000000001
 43
0.0000000001
 44
0.000001
 12
-0.5697183474043875
 22
0.8218400115781744
 32
0.0
 13
-0.7258381967822672
 23
0.6878654752870411
 33
0.0
 40
0.0
 40
0.0
 40
0.0
 40
0.0
 40
0.0271269143005231
 40
0.0541651219876576
 40
0.0813877632111977
 40
0.09275576614124
 40
0.09275576614124
 40
0.09275576614124
 40
0.09275576614124
 10
45.39931619638437
 20
5.325599780636622
 30
0.0
 10
45.39416462945588
 20
5.333031108490899
 30
0.0
 10
45.38341312527464
 20
5.347554064550052
 30
0.0
 10
45.36590320121089
 20
5.368296805296438
 30
0.0
 10
45.35082295730076
 20
5.384163255389694
 30
0.0
 10
45.34159120900205
 20
5.393122663812448
 30
0.0
 10
45.33884076541946
 20
5.39572921605864
 30
0.0
 11
45.39931619638437
 21
5.325599780636622
 31
0.0
 11
45.38316991308872
 21
5.347398525436034
 31
0.0
 11
45.36574588515693
 21
5.368074235423051
 31
0.0
 11
45.34699755575267
 21
5.387811955971216
 31
0.0
 11
45.33884076541946
 21
5.39572921605864
 31
0.0
  0
SPLINE
  5
10A
330
2
100
AcDbEntity
  8
GAIKEI
  6
Continuous
 62
     1
100
AcDbSpline
210
0.0
220
0.0
230
1.0
 70
     8
 71
     3
 72
    11
 73
     7
 74
     5
 42
0.0000000001
 43
0.0000000001
 44
0.000001
 12
0.7261327727614697
 22
0.6875545042552915
 32
0.0
 13
0.5694961259186093
 23
0.8219940161361854
 33
0.0
 40
0.0
 40
0.0
 40
0.0
 40
0.0
 40
0.0216057200346824
 40
0.0445668898279335
 40
0.0685149071729348
 40
0.0928153822368551
 40
0.0928153822368551
 40
0.0928153822368551
 40
0.0928153822368551
 10
45.33879930703662
 20
23.30618839271691
 30
0.0
 10
45.34402884750206
 20
23.31114009609274
 30
0.0
 10
45.35458339441819
 20
23.32160284420127
 30
0.0
 10
45.37003449093631
 20
23.33843314660874
 30
0.0
 10
45.38516988659185
 20
23.35673316716188
 30
0.0
 10
45.39470318758207
 20
23.36969885208384
 30
0.0
 10
45.39931619638437
 20
23.37635713378111
 30
0.0
 11
45.33879930703662
 21
23.30618839271691
 31
0.0
 11
45.35414301532242
 21
23.321399009614
 31
0.0
 11
45.36966588162587
 21
23.33831727563816
 31
0.0
 11
45.38491765474057
 21
23.35678126272663
 31
0.0
 11
45.39931619638437
 21
23.37635713378111
 31
0.0
  0
SPLINE
  5
10B
330
2
100
AcDbEntity
  8
GAIKEI
  6
Continuous
 62
     1
100
AcDbSpline
210
0.0
220
0.0
230
1.0
 70
     8
 71
     3
 72
    11
 73
     7
 74
     5
 42
0.0000000001
 43
0.0000000001
 44
0.000001
 12
0.7261327727615202
 22
0.6875545042552385
 32
0.0
 13
0.5694961259181754
 23
0.8219940161364862
 33
0.0
 40
0.0
 40
0.0
 40
0.0
 40
0.0
 40
0.0216057200346824
 40
0.0445668898279335
 40
0.0685149071729348
 40
0.0928153822368551
 40
0.0928153822368551
 40
0.0928153822368551
 40
0.0928153822368551
 10
45.33879930703662
 20
4.178878257056027
 30
0.0
 10
45.34402884750206
 20
4.183829960431864
 30
0.0
 10
45.35458339441819
 20
4.194292708540416
 30
0.0
 10
45.37003449093631
 20
4.211123010947858
 30
0.0
 10
45.38516988659185
 20
4.229423031500942
 30
0.0
 10
45.39470318758207
 20
4.242388716422965
 30
0.0
 10
45.39931619638437
 20
4.249046998120235
 30
0.0
 11
45.33879930703662
 21
4.178878257056027
 31
0.0
 11
45.35414301532242
 21
4.19408887395312
 31
0.0
 11
45.36966588162587
 21
4.211007139977283
 31
0.0
 11
45.38491765474057
 21
4.22947112706575
 31
0.0
 11
45.39931619638437
 21
4.249046998120235
 31
0.0
  0
SPLINE
  5
10C
330
2
100
AcDbEntity
  8
GAIKEI
  6
Continuous
 62
     1
100
AcDbSpline
210
0.0
220
0.0
230
1.0
 70
     8
 71
     3
 72
    11
 73
     7
 74
     5
 42
0.0000000001
 43
0.0000000001
 44
0.000001
 12
-0.5697183474044964
 22
0.8218400115780987
 32
0.0
 13
-0.725838196782078
 23
0.6878654752872409
 33
0.0
 40
0.0
 40
0.0
 40
0.0
 40
0.0
 40
0.0271269143005231
 40
0.0541651219876576
 40
0.0813877632111977
 40
0.09275576614124
 40
0.09275576614124
 40
0.09275576614124
 40
0.09275576614124
 10
45.39931619638437
 20
24.4529099162975
 30
0.0
 10
45.39416462945588
 20
24.46034124415178
 30
0.0
 10
45.38341312527464
 20
24.4748642002109
 30
0.0
 10
45.36590320121089
 20
24.49560694095735
 30
0.0
 10
45.35082295730076
 20
24.51147339105057
 30
0.0
 10
45.34159120900205
 20
24.52043279947333
 30
0.0
 10
45.33884076541946
 20
24.52303935171952
 30
0.0
 11
45.39931619638437
 21
24.4529099162975
 31
0.0
 11
45.38316991308872
 21
24.47470866109692
 31
0.0
 11
45.36574588515693
 21
24.49538437108393
 31
0.0
 11
45.34699755575267
 21
24.51512209163209
 31
0.0
 11
45.33884076541946
 21
24.52303935171952
 31
0.0
  0
SPLINE
  5
10D
330
2
100
AcDbEntity
  8
GAIKEI
  6
Continuous
 62
     1
100
AcDbSpline
210
0.0
220
0.0
230
1.0
 70
     8
 71
     3
 72
    16
 73
    12
 74
    10
 42
0.0000000001
 43
0.0000000001
 44
0.000001
 12
-0.7246933390181188
 22
0.6890715234159442
 32
0.0
 13
-0.0435589224551712
 23
0.999050859703621
 33
0.0
 40
0.0
 40
0.0
 40
0.0
 40
0.0
 40
0.0008245869742816
 40
0.0042427686756445
 40
0.0104169723952511
 40
0.0192855983072546
 40
0.0307089239071615
 40
0.0445088940072586
 40
0.0604644486191605
 40
0.0783168924071109
 40
0.082870902017959
 40
0.082870902017959
 40
0.082870902017959
 40
0.082870902017959
 10
45.47100670122759
 20
29.11213428492013
 30
0.0
 10
45.4708075103317
 20
29.11232368472099
 30
0.0
 10
45.46982679151715
 20
29.11338058399298
 30
0.0
 10
45.46961622972171
 20
29.11709208580305
 30
0.0
 10
45.4685559335207
 20
29.12301109759764
 30
0.0
 10
45.46789812026602
 20
29.13188505950757
 30
0.0
 10
45.46703571104671
 20
29.14318653750394
 30
0.0
 10
45.46623866361122
 20
29.15690088129128
 30
0.0
 10
45.46541271766638
 20
29.17274502642255
 30
0.0
 10
45.46481987033522
 20
29.18551968395917
 30
0.0
 10
45.46449282538406
 20
29.19298127003998
 30
0.0
 10
45.46442670280024
 20
29.19449783244559
 30
0.0
 11
45.47100670122759
 21
29.11213428492013
 31
0.0
 11
45.47046078575547
 21
29.1127524164406
 31
0.0
 11
45.46962745242214
 21
29.11606720789249
 31
0.0
 11
45.46879411908881
 21
29.12218487754549
 31
0.0
 11
45.46796078575542
 21
29.13101424795232
 31
0.0
 11
45.46712745242214
 21
29.14240712778044
 31
0.0
 11
45.46629411908881
 21
29.15618190804528
 31
0.0
 11
45.46546078575548
 21
29.17211568206634
 31
0.0
 11
45.46462745242209
 21
29.18994866228755
 31
0.0
 11
45.46442670280024
 21
29.19449783244559
 31
0.0
  0
SPLINE
  5
10E
330
2
100
AcDbEntity
  8
GAIKEI
  6
Continuous
 62
     1
100
AcDbSpline
210
0.0
220
0.0
230
1.0
 70
     8
 71
     3
 72
    18
 73
    14
 74
    12
 42
0.0000000001
 43
0.0000000001
 44
0.000001
 12
-0.5846562919338174
 22
-0.8112810982034519
 32
0.0
 13
-0.0371796361213846
 23
-0.9993085983107928
 33
0.0
 40
0.0
 40
0.0
 40
0.0
 40
0.0
 40
0.0015787525645141
 40
0.0058612971317786
 40
0.0128958923591835
 40
0.0225827165460995
 40
0.0347748335201429
 40
0.0492781281816704
 40
0.065858034089557
 40
0.0842514048913159
 40
0.1041566705154397
 40
0.1252574645254108
 40
0.1472102067833216
 40
0.1472102067833216
 40
0.1472102067833216
 40
0.1472102067833216
 10
45.45043396214848
 20
29.46713490599589
 30
0.0
 10
45.45012628627506
 20
29.46670796862446
 30
0.0
 10
45.44907649046741
 20
29.46502577003725
 30
0.0
 10
45.44876460474521
 20
29.46060974874689
 30
0.0
 10
45.44776474464831
 20
29.4537460677364
 30
0.0
 10
45.44706118152801
 20
29.4440993473032
 30
0.0
 10
45.44621305717416
 20
29.43201451681409
 30
0.0
 10
45.44540829488169
 20
29.41760696294799
 30
0.0
 10
45.44458283337982
 20
29.40113694147323
 30
0.0
 10
45.44376101545597
 20
29.38286201207376
 30
0.0
 10
45.44293556864836
 20
29.36307954400741
 30
0.0
 10
45.44211062529437
 20
29.34210943981239
 30
0.0
 10
45.44156618407845
 20
29.32776859794015
 30
0.0
 10
45.44129411908878
 20
29.3204560765752
 30
0.0
 11
45.45043396214848
 21
29.46713490599589
 31
0.0
 11
45.44962745242216
 21
29.46577761083691
 31
0.0
 11
45.44879411908882
 21
29.46157710244032
 31
0.0
 11
45.44796078575544
 21
29.45459207120146
 31
0.0
 11
45.44712745242216
 21
29.44494117292064
 31
0.0
 11
45.44629411908883
 21
29.43277757701245
 31
0.0
 11
45.4454607857555
 21
29.41829824853861
 31
0.0
 11
45.44462745242211
 21
29.40173930199799
 31
0.0
 11
45.44379411908884
 21
29.38336482121602
 31
0.0
 11
45.44296078575544
 21
29.3634770091077
 31
0.0
 11
45.44212745242217
 21
29.34239267891499
 31
0.0
 11
45.44129411908878
 21
29.3204560765752
 31
0.0
  0
SPLINE
  5
10F
330
2
100
AcDbEntity
  8
GAIKEI
  6
Continuous
 62
     1
100
AcDbSpline
210
0.0
220
0.0
230
1.0
 70
     8
 71
     3
 72
    18
 73
    14
 74
    12
 42
0.0000000001
 43
0.0000000001
 44
0.000001
 12
-0.5844656576224157
 22
-0.8114184463394934
 32
0.0
 13
-0.0371796361214128
 23
-0.9993085983107919
 33
0.0
 40
0.0
 40
0.0
 40
0.0
 40
0.0
 40
0.0015785755413335
 40
0.0058611200296906
 40
0.0128957152542895
 40
0.0225825394405173
 40
0.034774656414307
 40
0.049277951075762
 40
0.0658578569835888
 40
0.0842512277853361
 40
0.1041564934094463
 40
0.1252572874194946
 40
0.1472100295646769
 40
0.1472100295646769
 40
0.1472100295646769
 40
0.1472100295646769
 10
45.49043362235764
 20
29.4671349019109
 30
0.0
 10
45.49012608129368
 20
29.46670794013983
 30
0.0
 10
45.48907666900039
 20
29.46502561445078
 30
0.0
 10
45.48876449171695
 20
29.46060980717141
 30
0.0
 10
45.48776479569489
 20
29.45374604113792
 30
0.0
 10
45.48706116165223
 20
29.4440993574714
 30
0.0
 10
45.48621306414746
 20
29.43201451306535
 30
0.0
 10
45.48540829250865
 20
29.41760696404441
 30
0.0
 10
45.48458283407486
 20
29.40113694097971
 30
0.0
 10
45.48376101518772
 20
29.38286201207916
 30
0.0
 10
45.48293556867702
 20
29.36307954386163
 30
0.0
 10
45.48211062521672
 20
29.34210943974992
 30
0.0
 10
45.48156618407714
 20
29.32776859790261
 30
0.0
 10
45.48129411908885
 20
29.3204560765752
 30
0.0
 11
45.49043362235764
 21
29.4671349019109
 31
0.0
 11
45.48962745242213
 21
29.46577761083691
 31
0.0
 11
45.48879411908879
 21
29.46157710244032
 31
0.0
 11
45.48796078575551
 21
29.45459207120146
 31
0.0
 11
45.48712745242212
 21
29.44494117292064
 31
0.0
 11
45.48629411908879
 21
29.43277757701245
 31
0.0
 11
45.48546078575546
 21
29.41829824853861
 31
0.0
 11
45.48462745242218
 21
29.40173930199799
 31
0.0
 11
45.4837941190888
 21
29.38336482121602
 31
0.0
 11
45.48296078575546
 21
29.3634770091077
 31
0.0
 11
45.48212745242213
 21
29.34239267891499
 31
0.0
 11
45.48129411908885
 21
29.3204560765752
 31
0.0
  0
SPLINE
  5
110
330
2
100
AcDbEntity
  8
GAIKEI
  6
Continuous
 62
     1
100
AcDbSpline
210
0.0
220
0.0
230
1.0
 70
     8
 71
     3
 72
    20
 73
    16
 74
    14
 42
0.0000000001
 43
0.0000000001
 44
0.000001
 12
-0.0366600883891987
 22
-0.9993277930285419
 32
0.0
 13
-0.8962567755996664
 23
-0.4435355591062449
 33
0.0
 40
0.0
 40
0.0
 40
0.0
 40
0.0
 40
0.0225441489661379
 40
0.0447243509194737
 40
0.0661807098233039
 40
0.0865702989487998
 40
0.105560024997201
 40
0.1228469656545089
 40
0.1381506161008582
 40
0.1512251988682196
 40
0.1618642916135566
 40
0.1698958897130195
 40
0.1752100305703667
 40
0.1777642420885789
 40
0.1780980751421449
 40
0.1780980751421449
 40
0.1780980751421449
 40
0.1780980751421449
 10
45.52129411908881
 20
29.28963352503925
 30
0.0
 10
45.52101862892423
 20
29.2821238601619
 30
0.0
 10
45.52046799699886
 20
29.26722592040386
 30
0.0
 10
45.51964209810978
 20
29.245181123224
 30
0.0
 10
45.51881588687698
 20
29.22385514521039
 30
0.0
 10
45.51799114396025
 20
29.20359306297357
 30
0.0
 10
45.51716624604191
 20
29.18472323935578
 30
0.0
 10
45.51634695980647
 20
29.16754621471213
 30
0.0
 10
45.51551942617701
 20
29.15235627211377
 30
0.0
 10
45.51472994851488
 20
29.13934676750967
 30
0.0
 10
45.51385682329663
 20
29.12887455809437
 30
0.0
 10
45.51323596427001
 20
29.12072292097923
 30
0.0
 10
45.51215315138607
 20
29.11586600843228
 30
0.0
 10
45.51196707639533
 20
29.11266186016971
 30
0.0
 10
45.51110617452514
 20
29.11218364157858
 30
0.0
 10
45.5110064411464
 20
29.11213428596855
 30
0.0
 11
45.52129411908881
 21
29.28963352503925
 31
0.0
 11
45.52046078575543
 21
29.26710531942845
 31
0.0
 11
45.51962745242216
 21
29.24494077901764
 31
0.0
 11
45.51879411908882
 21
29.22350061040859
 31
0.0
 11
45.51796078575549
 21
29.20312805962706
 31
0.0
 11
45.5171274524221
 21
29.18415662955832
 31
0.0
 11
45.51629411908883
 21
29.16688978973255
 31
0.0
 11
45.51546078575549
 21
29.15160884976902
 31
0.0
 11
45.51462745242216
 21
29.13856085833723
 31
0.0
 11
45.51379411908877
 21
29.12795446423209
 31
0.0
 11
45.51296078575549
 21
29.11996623761948
 31
0.0
 11
45.51212745242216
 21
29.11471789775854
 31
0.0
 11
45.51129411908883
 21
29.1123037732979
 31
0.0
 11
45.5110064411464
 21
29.11213428596855
 31
0.0
  0
SPLINE
  5
111
330
2
100
AcDbEntity
  8
GAIKEI
  6
Continuous
 62
     1
100
AcDbSpline
210
0.0
220
0.0
230
1.0
 70
     8
 71
     3
 72
    16
 73
    12
 74
    10
 42
0.0000000001
 43
0.0000000001
 44
0.000001
 12
-0.0430768721965857
 22
0.9990717607268052
 32
0.0
 13
-0.9995301167088943
 23
0.0306520112211923
 33
0.0
 40
0.0
 40
0.0
 40
0.0
 40
0.0
 40
0.0160287203942783
 40
0.032720496009847
 40
0.0473482253724105
 40
0.0596792524286389
 40
0.0695126747968553
 40
0.076703010901108
 40
0.0811430012141032
 40
0.0828762629778461
 40
0.0829034368634654
 40
0.0829034368634654
 40
0.0829034368634654
 40
0.0829034368634654
 10
45.4970206470737
 20
29.38472350750809
 30
0.0
 10
45.4967904913604
 20
29.39006145481025
 30
0.0
 10
45.49629484637516
 20
29.40095542841482
 30
0.0
 10
45.49551669364726
 20
29.41672627845873
 30
0.0
 10
45.49469468478554
 20
29.43123099358047
 30
0.0
 10
45.49389371248487
 20
29.44353344377186
 30
0.0
 10
45.49306394310096
 20
29.45311352418864
 30
0.0
 10
45.4923521470083
 20
29.46063031862704
 30
0.0
 10
45.49150951727262
 20
29.46428815643475
 30
0.0
 10
45.49103270349426
 20
29.46712218097855
 30
0.0
 10
45.49044267606332
 20
29.46713462426615
 30
0.0
 10
45.49043362235764
 20
29.4671349019109
 30
0.0
 11
45.4970206470737
 21
29.38472350750809
 31
0.0
 11
45.49629411908884
 21
29.4007350390963
 31
0.0
 11
45.49546078575545
 21
29.41740599620803
 31
0.0
 11
45.49462745242218
 21
29.43200996442741
 31
0.0
 11
45.49379411908879
 21
29.44431279365963
 31
0.0
 11
45.49296078575546
 21
29.4541108293221
 31
0.0
 11
45.49212745242212
 21
29.4612526852317
 31
0.0
 11
45.49129411908885
 21
29.46561368820679
 31
0.0
 11
45.49046078575545
 21
29.4671337124228
 31
0.0
 11
45.49043362235764
 21
29.4671349019109
 31
0.0
  0
SPLINE
  5
112
330
2
100
AcDbEntity
  8
GAIKEI
  6
Continuous
 62
     1
100
AcDbSpline
210
0.0
220
0.0
230
1.0
 70
     8
 71
     3
 72
    20
 73
    16
 74
    14
 42
0.0000000001
 43
0.0000000001
 44
0.000001
 12
-0.03666008838921
 22
-0.9993277930285415
 32
0.0
 13
-0.89604732285992
 23
-0.443958551213478
 33
0.0
 40
0.0
 40
0.0
 40
0.0
 40
0.0
 40
0.0225441487658523
 40
0.0447243507194046
 40
0.0661807096233909
 40
0.0865702987490919
 40
0.1055600247977212
 40
0.1228469654553875
 40
0.1381506159022363
 40
0.1512251986703218
 40
0.1618642914167718
 40
0.1698958895183468
 40
0.1752100303814307
 40
0.177764241802365
 40
0.1780978513807454
 40
0.1780978513807454
 40
0.1780978513807454
 40
0.1780978513807454
 10
45.48129411908885
 20
29.28963352503925
 30
0.0
 10
45.48101862892671
 20
29.28212386022861
 30
0.0
 10
45.48046799719148
 20
29.2672259205259
 30
0.0
 10
45.47964209822047
 20
29.24518112343515
 30
0.0
 10
45.47881588704763
 20
29.22385514535148
 30
0.0
 10
45.47799114398554
 20
29.2035930633528
 30
0.0
 10
45.47716624654199
 20
29.18472323893752
 30
0.0
 10
45.47634695877677
 20
29.16754621687199
 30
0.0
 10
45.47551942989652
 20
29.15235626627254
 30
0.0
 10
45.47472993826517
 20
29.139346785209
 30
0.0
 10
45.47385685127603
 20
29.12887451137982
 30
0.0
 10
45.4732358985828
 20
29.12072303209896
 30
0.0
 10
45.47215327509246
 20
29.11586580047066
 30
0.0
 10
45.47196694542435
 20
29.11266217725586
 30
0.0
 10
45.47110634455079
 20
29.11218365452851
 30
0.0
 10
45.47100670122759
 20
29.11213428492013
 30
0.0
 11
45.48129411908885
 21
29.28963352503925
 31
0.0
 11
45.48046078575547
 21
29.26710531942845
 31
0.0
 11
45.47962745242213
 21
29.24494077901764
 31
0.0
 11
45.4787941190888
 21
29.22350061040859
 31
0.0
 11
45.47796078575553
 21
29.20312805962706
 31
0.0
 11
45.47712745242214
 21
29.18415662955832
 31
0.0
 11
45.4762941190888
 21
29.16688978973255
 31
0.0
 11
45.47546078575547
 21
29.15160884976902
 31
0.0
 11
45.4746274524222
 21
29.13856085833723
 31
0.0
 11
45.4737941190888
 21
29.12795446423209
 31
0.0
 11
45.47296078575548
 21
29.11996623761948
 31
0.0
 11
45.47212745242214
 21
29.11471789775854
 31
0.0
 11
45.47129411908886
 21
29.1123037732979
 31
0.0
 11
45.47100670122759
 21
29.11213428492013
 31
0.0
  0
SPLINE
  5
113
330
2
100
AcDbEntity
  8
GAIKEI
  6
Continuous
 62
     1
100
AcDbSpline
210
0.0
220
0.0
230
1.0
 70
     8
 71
     3
 72
    20
 73
    16
 74
    14
 42
0.0000000001
 43
0.0000000001
 44
0.000001
 12
-0.0366600883891941
 22
-0.9993277930285421
 32
0.0
 13
-0.8960473228605128
 23
-0.4439585512122816
 33
0.0
 40
0.0
 40
0.0
 40
0.0
 40
0.0
 40
0.0225441487658523
 40
0.0447243507194046
 40
0.0661807096233909
 40
0.0865702987490919
 40
0.1055600247977212
 40
0.1228469654553875
 40
0.1381506159022363
 40
0.1512251986703218
 40
0.1618642914167718
 40
0.1698958895183468
 40
0.1752100303814307
 40
0.177764241802365
 40
0.1780978513807454
 40
0.1780978513807454
 40
0.1780978513807454
 40
0.1780978513807454
 10
45.48129411908885
 20
25.66963352503925
 30
0.0
 10
45.48101862892671
 20
25.6621238602286
 30
0.0
 10
45.48046799719148
 20
25.64722592052593
 30
0.0
 10
45.47964209822047
 20
25.62518112343514
 30
0.0
 10
45.47881588704763
 20
25.60385514535153
 30
0.0
 10
45.47799114398554
 20
25.58359306335276
 30
0.0
 10
45.47716624654199
 20
25.56472323893749
 30
0.0
 10
45.47634695877677
 20
25.54754621687198
 30
0.0
 10
45.47551942989652
 20
25.53235626627259
 30
0.0
 10
45.47472993826517
 20
25.51934678520897
 30
0.0
 10
45.47385685127603
 20
25.50887451137981
 30
0.0
 10
45.4732358985828
 20
25.50072303209902
 30
0.0
 10
45.47215327509246
 20
25.49586580047051
 30
0.0
 10
45.47196694542435
 20
25.49266217725597
 30
0.0
 10
45.47110634455079
 20
25.4921836545285
 30
0.0
 10
45.47100670122759
 20
25.49213428492013
 30
0.0
 11
45.48129411908885
 21
25.66963352503925
 31
0.0
 11
45.48046078575547
 21
25.64710531942845
 31
0.0
 11
45.47962745242213
 21
25.62494077901764
 31
0.0
 11
45.4787941190888
 21
25.60350061040859
 31
0.0
 11
45.47796078575553
 21
25.58312805962706
 31
0.0
 11
45.47712745242214
 21
25.56415662955831
 31
0.0
 11
45.4762941190888
 21
25.54688978973255
 31
0.0
 11
45.47546078575547
 21
25.53160884976902
 31
0.0
 11
45.4746274524222
 21
25.51856085833723
 31
0.0
 11
45.4737941190888
 21
25.50795446423208
 31
0.0
 11
45.47296078575548
 21
25.49996623761948
 31
0.0
 11
45.47212745242214
 21
25.49471789775854
 31
0.0
 11
45.47129411908886
 21
25.49230377329789
 31
0.0
 11
45.47100670122759
 21
25.49213428492013
 31
0.0
  0
SPLINE
  5
114
330
2
100
AcDbEntity
  8
GAIKEI
  6
Continuous
 62
     1
100
AcDbSpline
210
0.0
220
0.0
230
1.0
 70
     8
 71
     3
 72
    16
 73
    12
 74
    10
 42
0.0000000001
 43
0.0000000001
 44
0.000001
 12
-0.7246933390218108
 22
0.6890715234120614
 32
0.0
 13
-0.043558922455188
 23
0.9990508597036205
 33
0.0
 40
0.0
 40
0.0
 40
0.0
 40
0.0
 40
0.0008245869742816
 40
0.0042427686756445
 40
0.0104169723952511
 40
0.0192855983072439
 40
0.0307089239071591
 40
0.0445088940072562
 40
0.0604644486191581
 40
0.0783168924071085
 40
0.0828709020179566
 40
0.0828709020179566
 40
0.0828709020179566
 40
0.0828709020179566
 10
45.47100670122759
 20
25.49213428492013
 30
0.0
 10
45.4708075103317
 20
25.49232368472099
 30
0.0
 10
45.46982679151715
 20
25.493380583993
 30
0.0
 10
45.46961622972171
 20
25.49709208580299
 30
0.0
 10
45.46855593352066
 20
25.50301109759761
 30
0.0
 10
45.46789812026625
 20
25.51188505950768
 30
0.0
 10
45.46703571104663
 20
25.52318653750385
 30
0.0
 10
45.46623866361128
 20
25.53690088129139
 30
0.0
 10
45.46541271766639
 20
25.55274502642248
 30
0.0
 10
45.46481987033522
 20
25.56551968395922
 30
0.0
 10
45.46449282538406
 20
25.57298127003998
 30
0.0
 10
45.46442670280024
 20
25.57449783244559
 30
0.0
 11
45.47100670122759
 21
25.49213428492013
 31
0.0
 11
45.47046078575547
 21
25.4927524164406
 31
0.0
 11
45.46962745242214
 21
25.49606720789248
 31
0.0
 11
45.46879411908881
 21
25.50218487754549
 31
0.0
 11
45.46796078575553
 21
25.51101424795232
 31
0.0
 11
45.46712745242214
 21
25.52240712778044
 31
0.0
 11
45.46629411908881
 21
25.53618190804528
 31
0.0
 11
45.46546078575548
 21
25.55211568206633
 31
0.0
 11
45.46462745242209
 21
25.56994866228754
 31
0.0
 11
45.46442670280024
 21
25.57449783244559
 31
0.0
  0
SPLINE
  5
115
330
2
100
AcDbEntity
  8
GAIKEI
  6
Continuous
 62
     1
100
AcDbSpline
210
0.0
220
0.0
230
1.0
 70
     8
 71
     3
 72
    18
 73
    14
 74
    12
 42
0.0000000001
 43
0.0000000001
 44
0.000001
 12
-0.5846562919338174
 22
-0.8112810982034519
 32
0.0
 13
-0.0371796361214128
 23
-0.9993085983107919
 33
0.0
 40
0.0
 40
0.0
 40
0.0
 40
0.0
 40
0.0015787525645141
 40
0.0058612971317786
 40
0.0128958923591835
 40
0.0225827165462128
 40
0.0347748335201427
 40
0.0492781281816702
 40
0.0658580340895569
 40
0.0842514048913158
 40
0.1041566705155508
 40
0.1252574645254105
 40
0.1472102067833213
 40
0.1472102067833213
 40
0.1472102067833213
 40
0.1472102067833213
 10
45.45043396214848
 20
25.84713490599589
 30
0.0
 10
45.45012628627506
 20
25.84670796862446
 30
0.0
 10
45.44907649046741
 20
25.84502577003727
 30
0.0
 10
45.44876460474519
 20
25.84060974874683
 30
0.0
 10
45.44776474464831
 20
25.8337460677364
 30
0.0
 10
45.44706118152794
 20
25.82409934730305
 30
0.0
 10
45.44621305717422
 20
25.81201451681415
 30
0.0
 10
45.44540829488167
 20
25.7976069629479
 30
0.0
 10
45.44458283337983
 20
25.78113694147328
 30
0.0
 10
45.44376101545592
 20
25.76286201207367
 30
0.0
 10
45.4429355686485
 20
25.7430795440074
 30
0.0
 10
45.44211062529432
 20
25.72210943981227
 30
0.0
 10
45.44156618407845
 20
25.70776859794015
 30
0.0
 10
45.44129411908878
 20
25.70045607657519
 30
0.0
 11
45.45043396214848
 21
25.84713490599589
 31
0.0
 11
45.44962745242216
 21
25.84577761083691
 31
0.0
 11
45.44879411908882
 21
25.84157710244031
 31
0.0
 11
45.44796078575544
 21
25.83459207120146
 31
0.0
 11
45.44712745242216
 21
25.82494117292052
 31
0.0
 11
45.44629411908883
 21
25.81277757701244
 31
0.0
 11
45.4454607857555
 21
25.7982982485386
 31
0.0
 11
45.44462745242211
 21
25.78173930199799
 31
0.0
 11
45.44379411908884
 21
25.76336482121602
 31
0.0
 11
45.4429607857555
 21
25.74347700910758
 31
0.0
 11
45.44212745242217
 21
25.72239267891499
 31
0.0
 11
45.44129411908878
 21
25.70045607657519
 31
0.0
  0
SPLINE
  5
116
330
2
100
AcDbEntity
  8
GAIKEI
  6
Continuous
 62
     1
100
AcDbSpline
210
0.0
220
0.0
230
1.0
 70
     8
 71
     3
 72
    18
 73
    14
 74
    12
 42
0.0000000001
 43
0.0000000001
 44
0.000001
 12
-0.5844656576229886
 22
-0.8114184463390806
 32
0.0
 13
-0.0371796361214176
 23
-0.9993085983107917
 33
0.0
 40
0.0
 40
0.0
 40
0.0
 40
0.0
 40
0.0015785755413335
 40
0.0058611200296906
 40
0.0128957152542895
 40
0.0225825394406305
 40
0.0347746564143068
 40
0.0492779510757618
 40
0.0658578569835887
 40
0.084251227785336
 40
0.1041564934095597
 40
0.1252572874194945
 40
0.1472100295646767
 40
0.1472100295646767
 40
0.1472100295646767
 40
0.1472100295646767
 10
45.49043362235764
 20
25.84713490191089
 30
0.0
 10
45.49012608129368
 20
25.84670794013983
 30
0.0
 10
45.48907666900041
 20
25.84502561445081
 30
0.0
 10
45.48876449171692
 20
25.84060980717143
 30
0.0
 10
45.48776479569491
 20
25.83374604113791
 30
0.0
 10
45.48706116165226
 20
25.8240993574714
 30
0.0
 10
45.4862130641474
 20
25.81201451306526
 30
0.0
 10
45.48540829250862
 20
25.79760696404435
 30
0.0
 10
45.4845828340749
 20
25.78113694097976
 30
0.0
 10
45.48376101518772
 20
25.7628620120791
 30
0.0
 10
45.48293556867704
 20
25.74307954386157
 30
0.0
 10
45.48211062521668
 20
25.72210943974983
 30
0.0
 10
45.48156618407714
 20
25.7077685979026
 30
0.0
 10
45.48129411908885
 20
25.70045607657519
 30
0.0
 11
45.49043362235764
 21
25.84713490191089
 31
0.0
 11
45.48962745242213
 21
25.84577761083691
 31
0.0
 11
45.48879411908879
 21
25.84157710244031
 31
0.0
 11
45.48796078575551
 21
25.83459207120146
 31
0.0
 11
45.48712745242212
 21
25.82494117292052
 31
0.0
 11
45.48629411908879
 21
25.81277757701244
 31
0.0
 11
45.48546078575546
 21
25.7982982485386
 31
0.0
 11
45.48462745242218
 21
25.78173930199799
 31
0.0
 11
45.4837941190888
 21
25.76336482121602
 31
0.0
 11
45.48296078575546
 21
25.74347700910758
 31
0.0
 11
45.48212745242213
 21
25.72239267891499
 31
0.0
 11
45.48129411908885
 21
25.70045607657519
 31
0.0
  0
SPLINE
  5
117
330
2
100
AcDbEntity
  8
GAIKEI
  6
Continuous
 62
     1
100
AcDbSpline
210
0.0
220
0.0
230
1.0
 70
     8
 71
     3
 72
    20
 73
    16
 74
    14
 42
0.0000000001
 43
0.0000000001
 44
0.000001
 12
-0.0366600883891987
 22
-0.9993277930285419
 32
0.0
 13
-0.8962567756003743
 23
-0.4435355591048144
 33
0.0
 40
0.0
 40
0.0
 40
0.0
 40
0.0
 40
0.0225441489661379
 40
0.0447243509194737
 40
0.0661807098233039
 40
0.0865702989487998
 40
0.105560024997201
 40
0.1228469656545089
 40
0.1381506161008582
 40
0.1512251988682196
 40
0.1618642916135566
 40
0.1698958897130195
 40
0.1752100305703667
 40
0.1777642420885789
 40
0.1780980751421449
 40
0.1780980751421449
 40
0.1780980751421449
 40
0.1780980751421449
 10
45.52129411908881
 20
25.66963352503925
 30
0.0
 10
45.52101862892423
 20
25.6621238601619
 30
0.0
 10
45.52046799699886
 20
25.64722592040383
 30
0.0
 10
45.51964209810978
 20
25.62518112322405
 30
0.0
 10
45.51881588687698
 20
25.60385514521042
 30
0.0
 10
45.51799114396025
 20
25.58359306297353
 30
0.0
 10
45.51716624604191
 20
25.56472323935586
 30
0.0
 10
45.51634695980647
 20
25.54754621471207
 30
0.0
 10
45.51551942617701
 20
25.53235627211382
 30
0.0
 10
45.51472994851488
 20
25.5193467675096
 30
0.0
 10
45.51385682329663
 20
25.50887455809436
 30
0.0
 10
45.51323596427001
 20
25.50072292097923
 30
0.0
 10
45.51215315138607
 20
25.49586600843233
 30
0.0
 10
45.51196707639533
 20
25.49266186016965
 30
0.0
 10
45.51110617452514
 20
25.49218364157858
 30
0.0
 10
45.5110064411464
 20
25.49213428596855
 30
0.0
 11
45.52129411908881
 21
25.66963352503925
 31
0.0
 11
45.52046078575543
 21
25.64710531942845
 31
0.0
 11
45.51962745242216
 21
25.62494077901764
 31
0.0
 11
45.51879411908882
 21
25.60350061040859
 31
0.0
 11
45.51796078575549
 21
25.58312805962706
 31
0.0
 11
45.5171274524221
 21
25.56415662955831
 31
0.0
 11
45.51629411908883
 21
25.54688978973255
 31
0.0
 11
45.51546078575549
 21
25.53160884976902
 31
0.0
 11
45.51462745242216
 21
25.51856085833723
 31
0.0
 11
45.51379411908877
 21
25.50795446423208
 31
0.0
 11
45.51296078575549
 21
25.49996623761948
 31
0.0
 11
45.51212745242216
 21
25.49471789775854
 31
0.0
 11
45.51129411908883
 21
25.49230377329789
 31
0.0
 11
45.5110064411464
 21
25.49213428596855
 31
0.0
  0
SPLINE
  5
118
330
2
100
AcDbEntity
  8
GAIKEI
  6
Continuous
 62
     1
100
AcDbSpline
210
0.0
220
0.0
230
1.0
 70
     8
 71
     3
 72
    16
 73
    12
 74
    10
 42
0.0000000001
 43
0.0000000001
 44
0.000001
 12
-0.0430768721966507
 22
0.9990717607268027
 32
0.0
 13
-0.9995301167089067
 23
0.0306520112207888
 33
0.0
 40
0.0
 40
0.0
 40
0.0
 40
0.0
 40
0.0160287203942783
 40
0.032720496009847
 40
0.0473482253724105
 40
0.0596792524286389
 40
0.0695126747968553
 40
0.076703010901108
 40
0.0811430012141032
 40
0.0828762629778461
 40
0.0829034368634654
 40
0.0829034368634654
 40
0.0829034368634654
 40
0.0829034368634654
 10
45.4970206470737
 20
25.76472350750808
 30
0.0
 10
45.4967904913604
 20
25.77006145481025
 30
0.0
 10
45.49629484637516
 20
25.78095542841481
 30
0.0
 10
45.49551669364726
 20
25.79672627845869
 30
0.0
 10
45.49469468478554
 20
25.81123099358052
 30
0.0
 10
45.49389371248487
 20
25.82353344377168
 30
0.0
 10
45.49306394310096
 20
25.83311352418886
 30
0.0
 10
45.4923521470083
 20
25.8406303186265
 30
0.0
 10
45.49150951727262
 20
25.84428815643565
 30
0.0
 10
45.49103270349426
 20
25.84712218097783
 30
0.0
 10
45.49044267606332
 20
25.84713462426615
 30
0.0
 10
45.49043362235764
 20
25.84713490191089
 30
0.0
 11
45.4970206470737
 21
25.76472350750808
 31
0.0
 11
45.49629411908884
 21
25.7807350390963
 31
0.0
 11
45.49546078575545
 21
25.79740599620803
 31
0.0
 11
45.49462745242218
 21
25.81200996442741
 31
0.0
 11
45.49379411908879
 21
25.82431279365963
 31
0.0
 11
45.49296078575546
 21
25.8341108293221
 31
0.0
 11
45.49212745242212
 21
25.8412526852317
 31
0.0
 11
45.49129411908885
 21
25.84561368820678
 31
0.0
 11
45.49046078575545
 21
25.84713371242279
 31
0.0
 11
45.49043362235764
 21
25.84713490191089
 31
0.0
  0
SPLINE
  5
119
330
2
100
AcDbEntity
  8
GAIKEI
  6
Continuous
 62
     1
100
AcDbSpline
210
0.0
220
0.0
230
1.0
 70
     8
 71
     3
 72
    11
 73
     7
 74
     5
 42
0.0000000001
 43
0.0000000001
 44
0.000001
 12
0.0263247353920106
 22
0.9996534441027755
 32
0.0
 13
0.1800564184768131
 23
0.9836562845655503
 33
0.0
 40
0.0
 40
0.0
 40
0.0
 40
0.0
 40
0.0222209517494547
 40
0.0388462874323282
 40
0.0498820484480651
 40
0.0553514638909737
 40
0.0553514638909737
 40
0.0553514638909737
 40
0.0553514638909737
 10
45.40215164069084
 20
25.33105534593452
 30
0.0
 10
45.4023466275825
 20
25.33845976291704
 30
0.0
 10
45.40277068431866
 20
25.3514048072463
 30
0.0
 10
45.40359495902452
 20
25.36800427705689
 30
0.0
 10
45.40413453430621
 20
25.37904976785225
 30
0.0
 10
45.405009901463
 20
25.38448732211077
 30
0.0
 10
45.40533816924827
 20
25.38628066373522
 30
0.0
 11
45.40215164069084
 21
25.33105534593452
 31
0.0
 11
45.40290404314615
 21
25.35326345073159
 31
0.0
 11
45.40368593205741
 21
25.36987037196403
 31
0.0
 11
45.4044973074248
 21
25.38087610963194
 31
0.0
 11
45.40533816924827
 21
25.38628066373522
 31
0.0
  0
SPLINE
  5
11A
330
2
100
AcDbEntity
  8
GAIKEI
  6
Continuous
 62
     1
100
AcDbSpline
210
0.0
220
0.0
230
1.0
 70
     8
 71
     3
 72
    13
 73
     9
 74
     7
 42
0.0000000001
 43
0.0000000001
 44
0.000001
 12
-0.1367026333584174
 22
0.9906121289550588
 32
0.0
 13
-0.1693098136655528
 23
0.9855628782561444
 33
0.0
 40
0.0
 40
0.0
 40
0.0
 40
0.0
 40
0.0167469922486217
 40
0.033377344270269
 40
0.0502571168681159
 40
0.0667711030725145
 40
0.0840636332563762
 40
0.1007849533910366
 40
0.1007849533910366
 40
0.1007849533910366
 40
0.1007849533910366
 10
46.71291316428503
 20
30.11056174872047
 30
0.0
 10
46.71215004497128
 20
30.11609167326881
 30
0.0
 10
46.71055847363791
 20
30.12710339945448
 30
0.0
 10
46.70794889028907
 20
30.14365169135994
 30
0.0
 10
46.70516121029652
 20
30.16009199754166
 30
0.0
 10
46.70221311901642
 20
30.17672829465465
 30
0.0
 10
46.69920926456249
 20
30.19330092574214
 30
0.0
 10
46.69726855400926
 20
30.20447164457286
 30
0.0
 10
46.69632485947718
 20
30.20996494870625
 30
0.0
 11
46.71291316428503
 21
30.11056174872047
 31
0.0
 11
46.71051825843213
 21
30.12713668007953
 31
0.0
 11
46.70793143900292
 21
30.14356461812523
 31
0.0
 11
46.70512101113845
 21
30.16020878790951
 31
0.0
 11
46.70224900249948
 21
30.17647112252908
 31
0.0
 11
46.69919577634189
 21
30.19349263796315
 31
0.0
 11
46.69632485947718
 21
30.20996494870625
 31
0.0
  0
SPLINE
  5
11B
330
2
100
AcDbEntity
  8
GAIKEI
  6
Continuous
 62
     1
100
AcDbSpline
210
0.0
220
0.0
230
1.0
 70
     8
 71
     3
 72
    13
 73
     9
 74
     7
 42
0.0000000001
 43
0.0000000001
 44
0.000001
 12
0.1358537149050929
 22
0.9907289074951259
 32
0.0
 13
0.1028701000007821
 23
0.9946947986824044
 33
0.0
 40
0.0
 40
0.0
 40
0.0
 40
0.0
 40
0.0167629848690894
 40
0.0334123275051457
 40
0.0503098774188273
 40
0.0668410117252876
 40
0.0842373612998062
 40
0.1010541529109475
 40
0.1010541529109475
 40
0.1010541529109475
 40
0.1010541529109475
 10
46.87840121316256
 20
26.7421802033289
 30
0.0
 10
46.87916031775168
 20
26.74771606122414
 30
0.0
 10
46.88060336118221
 20
26.7587599816743
 30
0.0
 10
46.88256589837301
 20
26.77541512445027
 30
0.0
 10
46.8843258854527
 20
26.79201504149438
 30
0.0
 10
46.88598495485995
 20
26.80887535836334
 30
0.0
 10
46.88756828477382
 20
26.82571590681877
 30
0.0
 10
46.88872201908963
 20
26.83706187884175
 30
0.0
 10
46.88929866743452
 20
26.84263773722378
 30
0.0
 11
46.87840121316256
 21
26.7421802033289
 31
0.0
 11
46.88057411351727
 21
26.75880182444408
 31
0.0
 11
46.88252528486205
 21
26.77533644517033
 31
0.0
 11
46.88431838972511
 21
26.79213859160976
 31
0.0
 11
46.88594610661286
 21
26.80858940115016
 31
0.0
 11
46.88760911749241
 21
26.82590673900703
 31
0.0
 11
46.88929866743452
 21
26.84263773722378
 31
0.0
  0
SPLINE
  5
11C
330
2
100
AcDbEntity
  8
GAIKEI
  6
Continuous
 62
     1
100
AcDbSpline
210
0.0
220
0.0
230
1.0
 70
     8
 71
     3
 72
    13
 73
     9
 74
     7
 42
0.0000000001
 43
0.0000000001
 44
0.000001
 12
0.1686465211669663
 22
0.9856765954907725
 32
0.0
 13
0.1366868105490227
 23
0.9906143123445854
 33
0.0
 40
0.0
 40
0.0
 40
0.0
 40
0.0
 40
0.0148768856753241
 40
0.0303404718420846
 40
0.0467491639371592
 40
0.0635503078503692
 40
0.0820032027515629
 40
0.100784933155334
 40
0.100784933155334
 40
0.100784933155334
 40
0.100784933155334
 10
46.69632485947718
 20
25.43944247650543
 30
0.0
 10
46.69716117114883
 20
25.44433040918008
 30
0.0
 10
46.69888586115376
 20
25.45429585327801
 30
0.0
 10
46.70166217623715
 20
25.46962964916563
 30
0.0
 10
46.70451123748527
 20
25.48560204211339
 30
0.0
 10
46.70742599771289
 20
25.50257470722324
 30
0.0
 10
46.71027393565004
 20
25.52036059089906
 30
0.0
 10
46.71205742600986
 20
25.53264385950834
 30
0.0
 10
46.71291316428503
 20
25.53884567649121
 30
0.0
 11
46.69632485947718
 21
25.43944247650543
 31
0.0
 11
46.6988719893076
 21
25.45409947983879
 31
0.0
 11
46.70160062374273
 21
25.46932058393011
 31
0.0
 11
46.70447209383363
 21
25.48547607612787
 31
0.0
 11
46.70730404458416
 21
25.50203683008957
 31
0.0
 11
46.71021363278865
 21
25.52025890002531
 31
0.0
 11
46.71291316428503
 21
25.53884567649121
 31
0.0
  0
SPLINE
  5
11D
330
2
100
AcDbEntity
  8
GAIKEI
  6
Continuous
 62
     1
100
AcDbSpline
210
0.0
220
0.0
230
1.0
 70
     8
 71
     3
 72
    23
 73
    19
 74
    17
 42
0.0000000001
 43
0.0000000001
 44
0.000001
 12
-0.0195855615079534
 22
0.9998081844936148
 32
0.0
 13
-0.1708806009777295
 23
0.9852917437030972
 33
0.0
 40
0.0
 40
0.0
 40
0.0
 40
0.0
 40
0.0246422057409199
 40
0.056169339313358
 40
0.0946352834720208
 40
0.123838348924552
 40
0.15607741030755
 40
0.1637317308166681
 40
0.1715387786614241
 40
0.1794984554017315
 40
0.1876106488051588
 40
0.1958752329952762
 40
0.2042920686457141
 40
0.2128610032233555
 40
0.2387981685051789
 40
0.2711882160498585
 40
0.3100387699381648
 40
0.3553446180978695
 40
0.3553446180978695
 40
0.3553446180978695
 40
0.3553446180978695
 10
45.40215164069084
 20
30.31835207927716
 30
0.0
 10
45.40199076354544
 20
30.32656457227174
 30
0.0
 10
45.40127209161688
 20
30.34528205720071
 30
0.0
 10
45.39833099128088
 20
30.37670084774598
 30
0.0
 10
45.39434148060872
 20
30.40952626566454
 30
0.0
 10
45.38971356917544
 20
30.44250701070351
 30
0.0
 10
45.38626658074895
 20
30.46528004589232
 30
0.0
 10
45.38381366902328
 20
30.48098984567429
 30
0.0
 10
45.38259682391744
 20
30.48870144949513
 30
0.0
 10
45.38134470695005
 20
30.49656199003911
 30
0.0
 10
45.38005813872181
 20
30.50457147054653
 30
0.0
 10
45.37873795156186
 20
30.5127298842757
 30
0.0
 10
45.37738522704382
 20
30.52103725616826
 30
0.0
 10
45.375072930385
 20
30.53515681710653
 30
0.0
 10
45.37144715975061
 20
30.55715880139383
 30
0.0
 10
45.36607953657508
 20
30.58910365049385
 30
0.0
 10
45.35950765612213
 20
30.62739260011091
 30
0.0
 10
45.35473988612011
 20
30.65503659911681
 30
0.0
 10
45.352159255933
 20
30.66991642516124
 30
0.0
 11
45.40215164069084
 21
30.31835207927716
 31
0.0
 11
45.40116152535043
 21
30.34297450771433
 31
0.0
 11
45.39841583991986
 21
30.37438178481173
 31
0.0
 11
45.39383448980212
 21
30.41257391056959
 31
0.0
 11
45.38980372052472
 21
30.44149745366602
 31
0.0
 11
45.38499909676917
 21
30.47337647683881
 31
0.0
 11
45.38381850746875
 21
30.48093920150157
 31
0.0
 11
45.3826018952748
 21
30.48865086955848
 31
0.0
 11
45.38135001053186
 21
30.49651148100955
 31
0.0
 11
45.38006366384607
 21
30.50452103585465
 31
0.0
 11
45.37874372662125
 21
30.51267953409391
 31
0.0
 11
45.37739113151295
 21
30.5209869757272
 31
0.0
 11
45.37600687279521
 21
30.52944336075464
 31
0.0
 11
45.3717839679804
 21
30.55503444364152
 31
0.0
 11
45.36641839849951
 21
30.58697698200493
 31
0.0
 11
45.3598659056552
 21
30.62527097584487
 31
0.0
 11
45.352159255933
 21
30.66991642516124
 31
0.0
  0
ARC
  5
11E
330
2
100
AcDbEntity
  8
GAIKEI
  6
Continuous
 62
     1
100
AcDbCircle
 10
45.52879411908864
 20
31.8454986750393
 30
0.0
 40
0.05
100
AcDbArc
 50
0.0
 51
89.0000000000243
  0
ARC
  5
11F
330
2
100
AcDbEntity
  8
GAIKEI
  6
Continuous
 62
     1
100
AcDbCircle
 10
45.52879411908864
 20
31.72309787503926
 30
0.0
 40
0.05
100
AcDbArc
 50
277.9999999999843
 51
0.0
  0
LINE
  5
120
330
2
100
AcDbEntity
  8
GAIKEI
  6
Continuous
 62
     1
100
AcDbLine
 10
45.57879411908871
 20
31.8454986750393
 30
0.0
 11
45.57879411908871
 21
31.72309787503926
 31
0.0
  0
LINE
  5
121
330
2
100
AcDbEntity
  8
GAIKEI
  6
Continuous
 62
     1
100
AcDbLine
 10
45.48462601908866
 20
31.84629247503929
 30
0.0
 11
45.48899246908868
 21
31.89620102503935
 31
0.0
  0
LINE
  5
122
330
2
100
AcDbEntity
  8
GAIKEI
  6
Continuous
 62
     1
100
AcDbLine
 10
45.48899246908868
 20
31.89620102503935
 30
0.0
 11
45.52966671908868
 21
31.89549102503932
 31
0.0
  0
LINE
  5
123
330
2
100
AcDbEntity
  8
GAIKEI
  6
Continuous
 62
     1
100
AcDbLine
 10
45.45129061908866
 20
31.84391447503927
 30
0.0
 11
45.48457056908867
 21
31.84565857503927
 31
0.0
  0
LINE
  5
124
330
2
100
AcDbEntity
  8
GAIKEI
  6
Continuous
 62
     1
100
AcDbLine
 10
45.47879411908868
 20
31.77963352503926
 30
0.0
 11
45.44693271908866
 21
31.77963352503926
 31
0.0
  0
LINE
  5
125
330
2
100
AcDbEntity
  8
GAIKEI
  6
Continuous
 62
     1
100
AcDbLine
 10
45.48462601908866
 20
31.84629247503929
 30
0.0
 11
45.47879411908868
 21
31.77963352503926
 31
0.0
  0
LINE
  5
126
330
2
100
AcDbEntity
  8
GAIKEI
  6
Continuous
 62
     1
100
AcDbLine
 10
45.53575276908865
 20
31.67358447503924
 30
0.0
 11
45.3387941190887
 21
31.64590372503929
 31
0.0
  0
ARC
  5
127
330
2
100
AcDbEntity
  8
GAIKEI
  6
Continuous
 62
     7
100
AcDbCircle
 10
43.09134411908869
 20
-3.522198960621579
 30
0.0
 40
0.05
100
AcDbArc
 50
180.0
 51
214.4001229999903
  0
ARC
  5
128
330
2
100
AcDbEntity
  8
GAIKEI
  6
Continuous
 62
     7
100
AcDbCircle
 10
43.09134411908869
 20
31.88915587503928
 30
0.0
 40
0.05
100
AcDbArc
 50
145.5998770000096
 51
180.0
  0
ARC
  5
129
330
2
100
AcDbEntity
  8
GAIKEI
  6
Continuous
 62
     7
100
AcDbCircle
 10
43.26728571908867
 20
32.10186067503926
 30
0.0
 40
0.075
100
AcDbArc
 50
93.00000000000558
 51
145.5998770000096
  0
ARC
  5
12A
330
2
100
AcDbEntity
  8
GAIKEI
  6
Continuous
 62
     7
100
AcDbCircle
 10
43.26728571908867
 20
-3.734903760621563
 30
0.0
 40
0.075
100
AcDbArc
 50
214.4001229999903
 51
266.9999999999944
  0
ARC
  5
12B
330
2
100
AcDbEntity
  8
GAIKEI
  6
Continuous
 62
     7
100
AcDbCircle
 10
45.31379411908867
 20
32.23797637503927
 30
0.0
 40
0.025
100
AcDbArc
 50
0.0
 51
84.99999999997728
  0
ARC
  5
12C
330
2
100
AcDbEntity
  8
GAIKEI
  6
Continuous
 62
     7
100
AcDbCircle
 10
45.31379411908867
 20
-3.871019460621567
 30
0.0
 40
0.025
100
AcDbArc
 50
275.0000000000227
 51
0.0
  0
LINE
  5
12D
330
2
100
AcDbEntity
  8
GAIKEI
  6
Continuous
 62
     7
100
AcDbLine
 10
43.04134411908868
 20
31.88915587503928
 30
0.0
 11
43.04134411908868
 21
31.71966522503934
 31
0.0
  0
LINE
  5
12E
330
2
100
AcDbEntity
  8
GAIKEI
  6
Continuous
 62
     7
100
AcDbLine
 10
43.04134411908868
 20
31.71966522503934
 30
0.0
 11
43.05008851908863
 21
31.71966522503934
 31
0.0
  0
LINE
  5
12F
330
2
100
AcDbEntity
  8
GAIKEI
  6
Continuous
 62
     7
100
AcDbLine
 10
43.04134411908868
 20
-3.522198960621579
 30
0.0
 11
43.04134411908868
 21
31.71966522503934
 31
0.0
  0
LINE
  5
130
330
2
100
AcDbEntity
  8
GAIKEI
  6
Continuous
 62
     1
100
AcDbLine
 10
43.20540231908867
 20
31.94649427503933
 30
0.0
 11
43.05008851908863
 21
31.71966522503934
 31
0.0
  0
LINE
  5
131
330
2
100
AcDbEntity
  8
GAIKEI
  6
Continuous
 62
     7
100
AcDbLine
 10
43.05008851908863
 20
31.91740432503926
 30
0.0
 11
43.20540231908867
 21
32.14423337503925
 31
0.0
  0
LINE
  5
132
330
2
100
AcDbEntity
  8
GAIKEI
  6
Continuous
 62
     7
100
AcDbLine
 10
43.20540231908867
 20
-3.777276460621664
 30
0.0
 11
43.05008851908863
 21
-3.550447410621558
 31
0.0
  0
LINE
  5
133
330
2
100
AcDbEntity
  8
GAIKEI
  6
Continuous
 62
     1
100
AcDbLine
 10
43.20540231908867
 20
-3.777276460621664
 30
0.0
 11
43.20540231908867
 21
31.94649427503933
 31
0.0
  0
LINE
  5
134
330
2
100
AcDbEntity
  8
GAIKEI
  6
Continuous
 62
     7
100
AcDbLine
 10
45.3387941190887
 20
32.23797637503927
 30
0.0
 11
45.3387941190887
 21
32.0636423250393
 31
0.0
  0
LINE
  5
135
330
2
100
AcDbEntity
  8
GAIKEI
  6
Continuous
 62
     1
100
AcDbLine
 10
45.3387941190887
 20
32.0636423250393
 30
0.0
 11
45.31597301908866
 21
32.0636423250393
 31
0.0
  0
LINE
  5
136
330
2
100
AcDbEntity
  8
GAIKEI
  6
Continuous
 62
     7
100
AcDbLine
 10
45.3387941190887
 20
32.0636423250393
 30
0.0
 11
45.3387941190887
 21
-3.871019460621567
 31
0.0
  0
LINE
  5
137
330
2
100
AcDbEntity
  8
GAIKEI
  6
Continuous
 62
     7
100
AcDbLine
 10
45.31597301908866
 20
-3.895924310621552
 30
0.0
 11
45.23879411908867
 21
-3.902676610621568
 31
0.0
  0
LINE
  5
138
330
2
100
AcDbEntity
  8
GAIKEI
  6
Continuous
 62
     1
100
AcDbLine
 10
45.31597301908866
 20
32.0636423250393
 30
0.0
 11
45.23879411908867
 21
32.07039457503928
 31
0.0
  0
LINE
  5
139
330
2
100
AcDbEntity
  8
GAIKEI
  6
Continuous
 62
     7
100
AcDbLine
 10
45.23879411908867
 20
32.26963352503927
 30
0.0
 11
45.31597301908866
 21
32.26288122503925
 31
0.0
  0
LINE
  5
13A
330
2
100
AcDbEntity
  8
GAIKEI
  6
Continuous
 62
     1
100
AcDbLine
 10
45.23879411908867
 20
-3.712950710621583
 30
0.0
 11
45.23879411908867
 21
-3.912676610621559
 31
0.0
  0
LINE
  5
13B
330
2
100
AcDbEntity
  8
GAIKEI
  6
Continuous
 62
     7
100
AcDbLine
 10
45.23879411908867
 20
-3.912676610621559
 30
0.0
 11
43.26336051908865
 21
-3.809801010621612
 31
0.0
  0
LINE
  5
13C
330
2
100
AcDbEntity
  8
GAIKEI
  6
Continuous
 62
     1
100
AcDbLine
 10
45.23879411908867
 20
32.27963352503926
 30
0.0
 11
45.23879411908867
 21
32.07990762503929
 31
0.0
  0
LINE
  5
13D
330
2
100
AcDbEntity
  8
GAIKEI
  6
Continuous
 62
     7
100
AcDbLine
 10
43.26336051908865
 20
32.17675792503931
 30
0.0
 11
45.23879411908867
 21
32.27963352503926
 31
0.0
  0
LINE
  5
13E
330
2
100
AcDbEntity
  8
GAIKEI
  6
Continuous
 62
     1
100
AcDbLine
 10
43.26336051908865
 20
31.97703202503934
 30
0.0
 11
43.26336051908865
 21
-3.809801010621612
 31
0.0
  0
LINE
  5
13F
330
2
100
AcDbEntity
  8
GAIKEI
  6
Continuous
 62
     1
100
AcDbLine
 10
43.26336051908865
 20
-3.610075110621636
 30
0.0
 11
45.23879411908867
 21
-3.712950710621583
 31
0.0
  0
LINE
  5
140
330
2
100
AcDbEntity
  8
GAIKEI
  6
Continuous
 62
     1
100
AcDbLine
 10
45.23879411908867
 20
32.07990762503929
 30
0.0
 11
45.23879411908867
 21
-3.712950710621583
 31
0.0
  0
LINE
  5
141
330
2
100
AcDbEntity
  8
GAIKEI
  6
Continuous
 62
     1
100
AcDbLine
 10
45.23879411908867
 20
32.07990762503929
 30
0.0
 11
43.26336051908865
 21
31.97703202503934
 31
0.0
  0
ELLIPSE
  5
142
330
2
100
AcDbEntity
  8
GAIKEI
  6
Continuous
 62
     1
100
AcDbEllipse
 10
46.75379411908866
 20
-2.098024410621604
 30
0.0
 11
-0.5749999999999888
 21
0.0000000000000021
 31
0.0
210
0.0
220
0.0
230
1.0
 40
0.3583520000000866
 41
2.345160897092421
 42
3.141592653589802
  0
ARC
  5
143
330
2
100
AcDbEntity
  8
GAIKEI
  6
Continuous
 62
     1
100
AcDbCircle
 10
46.75379411908866
 20
-2.098024410621604
 30
0.0
 40
0.5750000000000001
100
AcDbArc
 50
273.0000000000056
 51
0.0
  0
ARC
  5
144
330
2
100
AcDbEntity
  8
GAIKEI
  6
Continuous
 62
     1
100
AcDbCircle
 10
45.45129411908866
 20
-2.992417760621577
 30
0.0
 40
0.25
100
AcDbArc
 50
93.00000000000558
 51
101.6320759999917
  0
ARC
  5
145
330
2
100
AcDbEntity
  8
GAIKEI
  6
Continuous
 62
     1
100
AcDbCircle
 10
46.89558961908867
 20
30.58891477503929
 30
0.0
 40
0.25
100
AcDbArc
 50
7.999999999984294
 51
9.618225999996241
  0
ARC
  5
146
330
2
100
AcDbEntity
  8
GAIKEI
  6
Continuous
 62
     1
100
AcDbCircle
 10
45.45129411908866
 20
-2.992417760621577
 30
0.0
 40
0.25
100
AcDbArc
 50
101.6320759999917
 51
116.7436839999987
  0
ARC
  5
147
330
2
100
AcDbEntity
  8
GAIKEI
  6
Continuous
 62
     1
100
AcDbCircle
 10
47.34379411908864
 20
2.401313539378435
 30
0.0
 40
0.15
100
AcDbArc
 50
317.5188869999822
 51
0.0
  0
ARC
  5
148
330
2
100
AcDbEntity
  8
GAIKEI
  6
Continuous
 62
     1
100
AcDbCircle
 10
47.49129411908867
 20
2.266244089378375
 30
0.0
 40
0.05
100
AcDbArc
 50
137.5188869999822
 51
180.0
  0
ARC
  5
149
330
2
100
AcDbEntity
  8
GAIKEI
  6
Continuous
 62
     1
100
AcDbCircle
 10
47.49129411908867
 20
2.266259239378456
 30
0.0
 40
0.05
100
AcDbArc
 50
137.5189609999848
 51
180.0
  0
ARC
  5
14A
330
2
100
AcDbEntity
  8
GAIKEI
  6
Continuous
 62
     1
100
AcDbCircle
 10
47.34379411908864
 20
2.401328289378426
 30
0.0
 40
0.15
100
AcDbArc
 50
317.5189609999849
 51
0.0
  0
ARC
  5
14B
330
2
100
AcDbEntity
  8
GAIKEI
  6
Continuous
 62
     7
100
AcDbCircle
 10
46.89558961908867
 20
30.58891477503929
 30
0.0
 40
0.25
100
AcDbArc
 50
7.999999999984294
 51
76.97098900001979
  0
ARC
  5
14C
330
2
100
AcDbEntity
  8
GAIKEI
  6
Continuous
 62
     7
100
AcDbCircle
 10
47.19129411908866
 20
-1.337624710621611
 30
0.0
 40
0.25
100
AcDbArc
 50
289.9999999999965
 51
0.0
  0
ARC
  5
14D
330
2
100
AcDbEntity
  8
GAIKEI
  6
Continuous
 62
     7
100
AcDbCircle
 10
45.45129411908866
 20
31.40707952503934
 30
0.0
 40
0.25
100
AcDbArc
 50
243.2563160000013
 51
257.9999999999828
  0
LINE
  5
14E
330
2
100
AcDbEntity
  8
GAIKEI
  6
Continuous
 62
     1
100
AcDbLine
 10
47.49379411908868
 20
2.571519389378437
 30
0.0
 11
47.49379411908868
 21
3.668275239378459
 31
0.0
  0
LINE
  5
14F
330
2
100
AcDbEntity
  8
GAIKEI
  6
Continuous
 62
     1
100
AcDbLine
 10
47.49379411908868
 20
2.409590139378366
 30
0.0
 11
47.49379411908868
 21
2.566910489378329
 31
0.0
  0
LINE
  5
150
330
2
100
AcDbEntity
  8
GAIKEI
  6
Continuous
 62
     1
100
AcDbLine
 10
47.49379411908868
 20
25.63229552503927
 30
0.0
 11
47.49379411908868
 21
25.67541642503935
 31
0.0
  0
LINE
  5
151
330
2
100
AcDbEntity
  8
GAIKEI
  6
Continuous
 62
     1
100
AcDbLine
 10
47.49379411908868
 20
25.67541642503935
 30
0.0
 11
47.49379411908868
 21
26.13466187503937
 31
0.0
  0
LINE
  5
152
330
2
100
AcDbEntity
  8
GAIKEI
  6
Continuous
 62
     1
100
AcDbLine
 10
47.49379411908868
 20
2.571519389378437
 30
0.0
 11
47.49379411908868
 21
3.668275239378459
 31
0.0
  0
LINE
  5
153
330
2
100
AcDbEntity
  8
GAIKEI
  6
Continuous
 62
     1
100
AcDbLine
 10
47.49379411908868
 20
2.409590139378366
 30
0.0
 11
47.49379411908868
 21
2.566910489378329
 31
0.0
  0
LINE
  5
154
330
2
100
AcDbEntity
  8
GAIKEI
  6
Continuous
 62
     1
100
AcDbLine
 10
47.49379411908868
 20
2.566910489378329
 30
0.0
 11
47.49379411908868
 21
2.571519389378437
 31
0.0
  0
LINE
  5
155
330
2
100
AcDbEntity
  8
GAIKEI
  6
Continuous
 62
     1
100
AcDbLine
 10
47.49379411908868
 20
26.56582502503935
 30
0.0
 11
47.49379411908868
 21
28.12878842503929
 31
0.0
  0
LINE
  5
156
330
2
100
AcDbEntity
  8
GAIKEI
  6
Continuous
 62
     1
100
AcDbLine
 10
47.49379411908868
 20
28.12878842503929
 30
0.0
 11
47.49379411908868
 21
28.12879267503936
 31
0.0
  0
LINE
  5
157
330
2
100
AcDbEntity
  8
GAIKEI
  6
Continuous
 62
     1
100
AcDbLine
 10
47.32879411908871
 20
-2.098024410621604
 30
0.0
 11
47.32879411908871
 21
-1.712676610621628
 31
0.0
  0
LINE
  5
158
330
2
100
AcDbEntity
  8
GAIKEI
  6
Continuous
 62
     1
100
AcDbLine
 10
45.4382101190886
 20
-2.742760360621645
 30
0.0
 11
45.51352161908861
 21
-2.738813460621571
 31
0.0
  0
LINE
  5
159
330
2
100
AcDbEntity
  8
GAIKEI
  6
Continuous
 62
     1
100
AcDbLine
 10
47.49379411908868
 20
26.56582502503935
 30
0.0
 11
47.49379411908868
 21
28.12878842503929
 31
0.0
  0
LINE
  5
15A
330
2
100
AcDbEntity
  8
GAIKEI
  6
Continuous
 62
     1
100
AcDbLine
 10
47.49379411908868
 20
28.12878842503929
 30
0.0
 11
47.49379411908868
 21
28.12879267503936
 31
0.0
  0
LINE
  5
15B
330
2
100
AcDbEntity
  8
GAIKEI
  6
Continuous
 62
     1
100
AcDbLine
 10
47.49379411908868
 20
26.09679082503934
 30
0.0
 11
47.49379411908868
 21
26.56582502503935
 31
0.0
  0
LINE
  5
15C
330
2
100
AcDbEntity
  8
GAIKEI
  6
Continuous
 62
     1
100
AcDbLine
 10
45.54321011908863
 20
-2.7372575606216
 30
0.0
 11
46.78388726908863
 21
-2.672236410621593
 31
0.0
  0
LINE
  5
15D
330
2
100
AcDbEntity
  8
GAIKEI
  6
Continuous
 62
     1
100
AcDbLine
 10
45.51352161908861
 20
-2.738813460621571
 30
0.0
 11
45.54321011908863
 21
-2.7372575606216
 31
0.0
  0
LINE
  5
15E
330
2
100
AcDbEntity
  8
GAIKEI
  6
Continuous
 62
     1
100
AcDbLine
 10
47.44129411908867
 20
-1.06267661062165
 30
0.0
 11
47.44129411908867
 21
-1.112676610621605
 31
0.0
  0
LINE
  5
15F
330
2
100
AcDbEntity
  8
GAIKEI
  6
Continuous
 62
     1
100
AcDbLine
 10
47.44129411908867
 20
-1.06267661062165
 30
0.0
 11
47.44129411908867
 21
-0.9126766106215598
 31
0.0
  0
LINE
  5
160
330
2
100
AcDbEntity
  8
GAIKEI
  6
Continuous
 62
     7
100
AcDbLine
 10
47.49379411908868
 20
2.401328289378426
 30
0.0
 11
47.49379411908868
 21
2.435566389378351
 31
0.0
  0
LINE
  5
161
330
2
100
AcDbEntity
  8
GAIKEI
  6
Continuous
 62
     7
100
AcDbLine
 10
47.49379411908868
 20
2.435566389378351
 30
0.0
 11
47.49379411908868
 21
28.12582257503928
 31
0.0
  0
LINE
  5
162
330
2
100
AcDbEntity
  8
GAIKEI
  6
Continuous
 62
     1
100
AcDbLine
 10
47.49379411908868
 20
28.12879267503936
 30
0.0
 11
47.49129931908865
 21
28.14654417503928
 31
0.0
  0
LINE
  5
163
330
2
100
AcDbEntity
  8
GAIKEI
  6
Continuous
 62
     1
100
AcDbLine
 10
47.49379411908868
 20
28.12582257503928
 30
0.0
 11
47.49379411908868
 21
28.12879267503936
 31
0.0
  0
LINE
  5
164
330
2
100
AcDbEntity
  8
GAIKEI
  6
Continuous
 62
     7
100
AcDbLine
 10
47.49129931908865
 20
28.14654417503928
 30
0.0
 11
47.23357281908866
 21
29.98036327503931
 31
0.0
  0
LINE
  5
165
330
2
100
AcDbEntity
  8
GAIKEI
  6
Continuous
 62
     7
100
AcDbLine
 10
47.23357281908866
 20
29.98036327503931
 30
0.0
 11
47.14315661908861
 21
30.6237080250393
 31
0.0
  0
LINE
  5
166
330
2
100
AcDbEntity
  8
GAIKEI
  6
Continuous
 62
     7
100
AcDbLine
 10
46.95195436908867
 20
30.83247792503929
 30
0.0
 11
46.95124886908868
 21
30.83243277503928
 31
0.0
  0
LINE
  5
167
330
2
100
AcDbEntity
  8
GAIKEI
  6
Continuous
 62
     1
100
AcDbLine
 10
47.43886111908866
 20
1.546682039378453
 30
0.0
 11
47.44129411908867
 21
1.546682039378453
 31
0.0
  0
LINE
  5
168
330
2
100
AcDbEntity
  8
GAIKEI
  6
Continuous
 62
     7
100
AcDbLine
 10
46.94756751908861
 20
30.83345167503936
 30
0.0
 11
45.59604561908864
 21
31.12072647503933
 31
0.0
  0
LINE
  5
169
330
2
100
AcDbEntity
  8
GAIKEI
  6
Continuous
 62
     7
100
AcDbLine
 10
46.94756751908861
 20
30.83345167503936
 30
0.0
 11
46.95131901908863
 21
30.83240202503933
 31
0.0
  0
LINE
  5
16A
330
2
100
AcDbEntity
  8
GAIKEI
  6
Continuous
 62
     1
100
AcDbLine
 10
47.37462111908863
 20
26.95022072503926
 30
0.0
 11
47.37462111908863
 21
26.01351947503932
 31
0.0
  0
LINE
  5
16B
330
2
100
AcDbEntity
  8
GAIKEI
  6
Continuous
 62
     7
100
AcDbLine
 10
45.59604561908864
 20
31.12072647503933
 30
0.0
 11
45.55232176908865
 21
31.13002027503936
 31
0.0
  0
LINE
  5
16C
330
2
100
AcDbEntity
  8
GAIKEI
  6
Continuous
 62
     1
100
AcDbLine
 10
47.44129411908867
 20
1.358421739378428
 30
0.0
 11
47.44129411908867
 21
1.358897889378368
 31
0.0
  0
LINE
  5
16D
330
2
100
AcDbEntity
  8
GAIKEI
  6
Continuous
 62
     7
100
AcDbLine
 10
47.43886111908866
 20
2.403900289378412
 30
0.0
 11
47.43886111908866
 21
1.546682039378453
 31
0.0
  0
LINE
  5
16E
330
2
100
AcDbEntity
  8
GAIKEI
  6
Continuous
 62
     7
100
AcDbLine
 10
47.49136111908867
 20
2.447953039378404
 30
0.0
 11
47.43886111908866
 21
2.403900289378412
 31
0.0
  0
LINE
  5
16F
330
2
100
AcDbEntity
  8
GAIKEI
  6
Continuous
 62
     1
100
AcDbLine
 10
47.27379186908868
 20
25.42605222503929
 30
0.0
 11
47.13048256908862
 21
25.17844197503931
 31
0.0
  0
LINE
  5
170
330
2
100
AcDbEntity
  8
GAIKEI
  6
Continuous
 62
     7
100
AcDbLine
 10
47.44129411908867
 20
-1.337624710621611
 30
0.0
 11
47.44129411908867
 21
1.546682039378453
 31
0.0
  0
LINE
  5
171
330
2
100
AcDbEntity
  8
GAIKEI
  6
Continuous
 62
     7
100
AcDbLine
 10
45.3387941190887
 20
-2.277924045747312
 30
0.0
 11
47.27679916908866
 21
-1.572547860621597
 31
0.0
  0
LINE
  5
172
330
2
100
AcDbEntity
  8
GAIKEI
  6
Continuous
 62
     7
100
AcDbLine
 10
45.55275801908865
 20
31.12992757503926
 30
0.0
 11
45.39931621908865
 21
31.16254262503927
 31
0.0
  0
LINE
  5
173
330
2
100
AcDbEntity
  8
GAIKEI
  6
Continuous
 62
     1
100
AcDbLine
 10
47.04524996908864
 20
-0.915446810621546
 30
0.0
 11
45.3387941190887
 21
-1.536545981574789
 31
0.0
  0
LINE
  5
174
330
2
100
AcDbEntity
  8
GAIKEI
  6
Continuous
 62
     1
100
AcDbLine
 10
47.04524996908864
 20
1.267905339378359
 30
0.0
 11
47.04524996908864
 21
-0.915446810621546
 31
0.0
  0
LINE
  5
175
330
2
100
AcDbEntity
  8
GAIKEI
  6
Continuous
 62
     1
100
AcDbLine
 10
46.98230836908865
 20
1.342916189378371
 30
0.0
 11
47.04524996908864
 21
1.267905339378359
 31
0.0
  0
LINE
  5
176
330
2
100
AcDbEntity
  8
GAIKEI
  6
Continuous
 62
     1
100
AcDbLine
 10
46.96506751908865
 20
24.60590147503936
 30
0.0
 11
46.96506751908865
 21
1.878233239378374
 31
0.0
  0
LINE
  5
177
330
2
100
AcDbEntity
  8
GAIKEI
  6
Continuous
 62
     1
100
AcDbLine
 10
45.47431621908865
 20
23.54797067503924
 30
0.0
 11
45.47431621908865
 21
24.28129637503926
 31
0.0
  0
LINE
  5
178
330
2
100
AcDbEntity
  8
GAIKEI
  6
Continuous
 62
     1
100
AcDbLine
 10
45.47431621908865
 20
4.42066053937836
 30
0.0
 11
45.47431621908865
 21
5.153986239378383
 31
0.0
  0
ARC
  5
179
330
2
100
AcDbEntity
  8
GAIKEI
  6
Continuous
 62
     1
100
AcDbCircle
 10
47.25129411908866
 20
-0.2626766106215825
 30
0.0
 40
0.35
100
AcDbArc
 50
0.0
 51
16.25702800000551
  0
ARC
  5
17A
330
2
100
AcDbEntity
  8
GAIKEI
  6
Continuous
 62
     1
100
AcDbCircle
 10
47.25129411908866
 20
-0.2626766106215825
 30
0.0
 40
0.35
100
AcDbArc
 50
343.7429719999945
 51
0.0
  0
ARC
  5
17B
330
2
100
AcDbEntity
  8
GAIKEI
  6
Continuous
 62
     1
100
AcDbCircle
 10
47.53929876908867
 20
-0.3466606606216089
 30
0.0
 40
0.05
100
AcDbArc
 50
275.000001000022
 51
343.7429719999945
  0
ARC
  5
17C
330
2
100
AcDbEntity
  8
GAIKEI
  6
Continuous
 62
     1
100
AcDbCircle
 10
47.53929876908867
 20
-0.1786925606216698
 30
0.0
 40
0.05
100
AcDbArc
 50
16.25702800000551
 51
84.99999899997797
  0
LINE
  5
17D
330
2
100
AcDbEntity
  8
GAIKEI
  6
Continuous
 62
     1
100
AcDbLine
 10
47.50129411908867
 20
-0.1276766106215916
 30
0.0
 11
47.46629411908864
 21
-0.1276766106215916
 31
0.0
  0
LINE
  5
17E
330
2
100
AcDbEntity
  8
GAIKEI
  6
Continuous
 62
     1
100
AcDbLine
 10
47.46629411908864
 20
-0.3976766106215734
 30
0.0
 11
47.50129411908867
 21
-0.3976766106215734
 31
0.0
  0
LINE
  5
17F
330
2
100
AcDbEntity
  8
GAIKEI
  6
Continuous
 62
     1
100
AcDbLine
 10
47.54365656908865
 20
-0.1288828606215873
 30
0.0
 11
47.50129411908867
 21
-0.1251766106216507
 31
0.0
  0
LINE
  5
180
330
2
100
AcDbEntity
  8
GAIKEI
  6
Continuous
 62
     1
100
AcDbLine
 10
47.50129411908867
 20
-0.4001766106216281
 30
0.0
 11
47.54365656908865
 21
-0.3964703606215778
 31
0.0
  0
LINE
  5
181
330
2
100
AcDbEntity
  8
GAIKEI
  6
Continuous
 62
     1
100
AcDbLine
 10
47.46629411908864
 20
-0.0126766106215826
 30
0.0
 11
47.44129411908867
 21
-0.0126766106215826
 31
0.0
  0
LINE
  5
182
330
2
100
AcDbEntity
  8
GAIKEI
  6
Continuous
 62
     1
100
AcDbLine
 10
47.44129411908867
 20
-0.5126766106215826
 30
0.0
 11
47.46629411908864
 21
-0.5126766106215826
 31
0.0
  0
LINE
  5
183
330
2
100
AcDbEntity
  8
GAIKEI
  6
Continuous
 62
     1
100
AcDbLine
 10
47.46629411908864
 20
-0.5126766106215826
 30
0.0
 11
47.46629411908864
 21
-0.0126766106215826
 31
0.0
  0
ARC
  5
184
330
2
100
AcDbEntity
  8
GAIKEI
  6
Continuous
 62
     1
100
AcDbCircle
 10
47.25129411908866
 20
1.637323389378394
 30
0.0
 40
0.35
100
AcDbArc
 50
0.0
 51
16.25702800000551
  0
ARC
  5
185
330
2
100
AcDbEntity
  8
GAIKEI
  6
Continuous
 62
     1
100
AcDbCircle
 10
47.25129411908866
 20
1.637323389378394
 30
0.0
 40
0.35
100
AcDbArc
 50
343.7429719999945
 51
0.0
  0
ARC
  5
186
330
2
100
AcDbEntity
  8
GAIKEI
  6
Continuous
 62
     1
100
AcDbCircle
 10
47.53929876908867
 20
1.553339339378368
 30
0.0
 40
0.05
100
AcDbArc
 50
275.000001000022
 51
343.7429719999945
  0
ARC
  5
187
330
2
100
AcDbEntity
  8
GAIKEI
  6
Continuous
 62
     1
100
AcDbCircle
 10
47.53929876908867
 20
1.721307439378421
 30
0.0
 40
0.05
100
AcDbArc
 50
16.25702800000551
 51
84.99999899997797
  0
LINE
  5
188
330
2
100
AcDbEntity
  8
GAIKEI
  6
Continuous
 62
     1
100
AcDbLine
 10
47.50129411908867
 20
1.772323389378385
 30
0.0
 11
47.46629411908864
 21
1.772323389378385
 31
0.0
  0
LINE
  5
189
330
2
100
AcDbEntity
  8
GAIKEI
  6
Continuous
 62
     1
100
AcDbLine
 10
47.46629411908864
 20
1.502323389378403
 30
0.0
 11
47.50129411908867
 21
1.502323389378403
 31
0.0
  0
LINE
  5
18A
330
2
100
AcDbEntity
  8
GAIKEI
  6
Continuous
 62
     1
100
AcDbLine
 10
47.54365656908865
 20
1.771117139378389
 30
0.0
 11
47.50129411908867
 21
1.77482338937844
 31
0.0
  0
LINE
  5
18B
330
2
100
AcDbEntity
  8
GAIKEI
  6
Continuous
 62
     1
100
AcDbLine
 10
47.50129411908867
 20
1.499823389378349
 30
0.0
 11
47.54365656908865
 21
1.503529639378399
 31
0.0
  0
LINE
  5
18C
330
2
100
AcDbEntity
  8
GAIKEI
  6
Continuous
 62
     1
100
AcDbLine
 10
47.46629411908864
 20
1.887323389378394
 30
0.0
 11
47.44129411908867
 21
1.887323389378394
 31
0.0
  0
LINE
  5
18D
330
2
100
AcDbEntity
  8
GAIKEI
  6
Continuous
 62
     1
100
AcDbLine
 10
47.44129411908867
 20
1.387323389378394
 30
0.0
 11
47.46629411908864
 21
1.387323389378394
 31
0.0
  0
LINE
  5
18E
330
2
100
AcDbEntity
  8
GAIKEI
  6
Continuous
 62
     1
100
AcDbLine
 10
47.46629411908864
 20
1.387323389378394
 30
0.0
 11
47.46629411908864
 21
1.887323389378394
 31
0.0
  0
LINE
  5
18F
330
2
100
AcDbEntity
  8
GAIKEI
  6
Continuous
 62
     1
100
AcDbLine
 10
45.44129411908866
 20
29.28963352503925
 30
0.0
 11
45.44129411908866
 21
29.53963352503925
 31
0.0
  0
LINE
  5
190
330
2
100
AcDbEntity
  8
GAIKEI
  6
Continuous
 62
     1
100
AcDbLine
 10
45.40797066908865
 20
29.03963352503925
 30
0.0
 11
45.44129411908866
 21
29.03963352503925
 31
0.0
  0
LINE
  5
191
330
2
100
AcDbEntity
  8
GAIKEI
  6
Continuous
 62
     1
100
AcDbLine
 10
45.44129411908866
 20
29.53963352503925
 30
0.0
 11
45.40797066908865
 21
29.53963352503925
 31
0.0
  0
LINE
  5
192
330
2
100
AcDbEntity
  8
GAIKEI
  6
Continuous
 62
     1
100
AcDbLine
 10
45.44129411908866
 20
29.03963352503925
 30
0.0
 11
45.44129411908866
 21
29.28963352503925
 31
0.0
  0
ARC
  5
193
330
2
100
AcDbEntity
  8
GAIKEI
  6
Continuous
 62
     1
100
AcDbCircle
 10
45.20129411908865
 20
29.28963352503925
 30
0.0
 40
0.45
100
AcDbArc
 50
0.0
 51
16.60155000001892
  0
ARC
  5
194
330
2
100
AcDbEntity
  8
GAIKEI
  6
Continuous
 62
     1
100
AcDbCircle
 10
45.20129411908865
 20
29.28963352503925
 30
0.0
 40
0.45
100
AcDbArc
 50
343.3984499999811
 51
0.0
  0
ARC
  5
195
330
2
100
AcDbEntity
  8
GAIKEI
  6
Continuous
 62
     1
100
AcDbCircle
 10
45.57024531908862
 20
29.17963352503935
 30
0.0
 40
0.065
100
AcDbArc
 50
270.0
 51
343.3984499999811
  0
ARC
  5
196
330
2
100
AcDbEntity
  8
GAIKEI
  6
Continuous
 62
     1
100
AcDbCircle
 10
45.57024531908862
 20
29.39963352503927
 30
0.0
 40
0.065
100
AcDbArc
 50
16.60155000001892
 51
90.0
  0
LINE
  5
197
330
2
100
AcDbEntity
  8
GAIKEI
  6
Continuous
 62
     1
100
AcDbLine
 10
45.44129411908866
 20
29.19463352503934
 30
0.0
 11
45.47415181908869
 21
29.19463352503934
 31
0.0
  0
LINE
  5
198
330
2
100
AcDbEntity
  8
GAIKEI
  6
Continuous
 62
     1
100
AcDbLine
 10
45.44385166908867
 20
29.38463352503928
 30
0.0
 11
45.44129411908866
 21
29.38463352503928
 31
0.0
  0
LINE
  5
199
330
2
100
AcDbEntity
  8
GAIKEI
  6
Continuous
 62
     1
100
AcDbLine
 10
45.52129411908865
 20
29.38463352503928
 30
0.0
 11
45.48728446908867
 21
29.38463352503928
 31
0.0
  0
LINE
  5
19A
330
2
100
AcDbEntity
  8
GAIKEI
  6
Continuous
 62
     1
100
AcDbLine
 10
45.52129411908865
 20
29.11463352503929
 30
0.0
 11
45.57024531908862
 21
29.11463352503929
 31
0.0
  0
LINE
  5
19B
330
2
100
AcDbEntity
  8
GAIKEI
  6
Continuous
 62
     1
100
AcDbLine
 10
45.57024531908862
 20
29.46463352503932
 30
0.0
 11
45.52129411908865
 21
29.46463352503932
 31
0.0
  0
LINE
  5
19C
330
2
100
AcDbEntity
  8
GAIKEI
  6
Continuous
 62
     1
100
AcDbLine
 10
45.52129411908865
 20
29.28963352503925
 30
0.0
 11
45.52129411908865
 21
29.46463352503932
 31
0.0
  0
LINE
  5
19D
330
2
100
AcDbEntity
  8
GAIKEI
  6
Continuous
 62
     1
100
AcDbLine
 10
45.52129411908865
 20
29.11463352503929
 30
0.0
 11
45.52129411908865
 21
29.28963352503925
 31
0.0
  0
LINE
  5
19E
330
2
100
AcDbEntity
  8
GAIKEI
  6
Continuous
 62
     1
100
AcDbLine
 10
45.44129411908866
 20
29.30830072503935
 30
0.0
 11
45.48129411908862
 21
29.30830072503935
 31
0.0
  0
LINE
  5
19F
330
2
100
AcDbEntity
  8
GAIKEI
  6
Continuous
 62
     1
100
AcDbLine
 10
45.48129411908862
 20
29.28963352503925
 30
0.0
 11
45.52129411908865
 21
29.28963352503925
 31
0.0
  0
LINE
  5
1A0
330
2
100
AcDbEntity
  8
GAIKEI
  6
Continuous
 62
     1
100
AcDbLine
 10
45.51100661908864
 20
29.11213427503927
 30
0.0
 11
45.47100661908863
 21
29.11213427503927
 31
0.0
  0
LINE
  5
1A1
330
2
100
AcDbEntity
  8
GAIKEI
  6
Continuous
 62
     1
100
AcDbLine
 10
45.49043391908864
 20
29.46713492503935
 30
0.0
 11
45.45043391908868
 21
29.46713492503935
 31
0.0
  0
LINE
  5
1A2
330
2
100
AcDbEntity
  8
GAIKEI
  6
Continuous
 62
     1
100
AcDbLine
 10
45.48129411908862
 20
29.32045607503929
 30
0.0
 11
45.48129411908862
 21
29.30830072503935
 31
0.0
  0
LINE
  5
1A3
330
2
100
AcDbEntity
  8
GAIKEI
  6
Continuous
 62
     1
100
AcDbLine
 10
45.44129411908866
 20
25.66963352503936
 30
0.0
 11
45.44129411908866
 21
25.91963352503936
 31
0.0
  0
LINE
  5
1A4
330
2
100
AcDbEntity
  8
GAIKEI
  6
Continuous
 62
     1
100
AcDbLine
 10
45.40215161908863
 20
25.41963352503936
 30
0.0
 11
45.44129411908866
 21
25.41963352503936
 31
0.0
  0
LINE
  5
1A5
330
2
100
AcDbEntity
  8
GAIKEI
  6
Continuous
 62
     1
100
AcDbLine
 10
45.44129411908866
 20
25.91963352503936
 30
0.0
 11
45.40215161908863
 21
25.91963352503936
 31
0.0
  0
LINE
  5
1A6
330
2
100
AcDbEntity
  8
GAIKEI
  6
Continuous
 62
     1
100
AcDbLine
 10
45.44129411908866
 20
25.41963352503936
 30
0.0
 11
45.44129411908866
 21
25.66963352503936
 31
0.0
  0
ARC
  5
1A7
330
2
100
AcDbEntity
  8
GAIKEI
  6
Continuous
 62
     1
100
AcDbCircle
 10
45.20129411908865
 20
25.66963352503936
 30
0.0
 40
0.45
100
AcDbArc
 50
0.0
 51
16.60155000001892
  0
ARC
  5
1A8
330
2
100
AcDbEntity
  8
GAIKEI
  6
Continuous
 62
     1
100
AcDbCircle
 10
45.20129411908865
 20
25.66963352503936
 30
0.0
 40
0.45
100
AcDbArc
 50
343.3984499999811
 51
0.0
  0
ARC
  5
1A9
330
2
100
AcDbEntity
  8
GAIKEI
  6
Continuous
 62
     1
100
AcDbCircle
 10
45.57024531908862
 20
25.55963352503935
 30
0.0
 40
0.065
100
AcDbArc
 50
270.0
 51
343.3984499999811
  0
ARC
  5
1AA
330
2
100
AcDbEntity
  8
GAIKEI
  6
Continuous
 62
     1
100
AcDbCircle
 10
45.57024531908862
 20
25.77963352503926
 30
0.0
 40
0.065
100
AcDbArc
 50
16.60155000001892
 51
90.0
  0
LINE
  5
1AB
330
2
100
AcDbEntity
  8
GAIKEI
  6
Continuous
 62
     1
100
AcDbLine
 10
45.44129411908866
 20
25.57463352503933
 30
0.0
 11
45.47415181908869
 21
25.57463352503933
 31
0.0
  0
LINE
  5
1AC
330
2
100
AcDbEntity
  8
GAIKEI
  6
Continuous
 62
     1
100
AcDbLine
 10
45.52129411908865
 20
25.76463352503927
 30
0.0
 11
45.48728446908867
 21
25.76463352503927
 31
0.0
  0
LINE
  5
1AD
330
2
100
AcDbEntity
  8
GAIKEI
  6
Continuous
 62
     1
100
AcDbLine
 10
45.52129411908865
 20
25.49463352503929
 30
0.0
 11
45.57024531908862
 21
25.49463352503929
 31
0.0
  0
LINE
  5
1AE
330
2
100
AcDbEntity
  8
GAIKEI
  6
Continuous
 62
     1
100
AcDbLine
 10
45.57024531908862
 20
25.84463352503931
 30
0.0
 11
45.52129411908865
 21
25.84463352503931
 31
0.0
  0
LINE
  5
1AF
330
2
100
AcDbEntity
  8
GAIKEI
  6
Continuous
 62
     1
100
AcDbLine
 10
45.52129411908865
 20
25.66963352503936
 30
0.0
 11
45.52129411908865
 21
25.84463352503931
 31
0.0
  0
LINE
  5
1B0
330
2
100
AcDbEntity
  8
GAIKEI
  6
Continuous
 62
     1
100
AcDbLine
 10
45.52129411908865
 20
25.49463352503929
 30
0.0
 11
45.52129411908865
 21
25.66963352503936
 31
0.0
  0
LINE
  5
1B1
330
2
100
AcDbEntity
  8
GAIKEI
  6
Continuous
 62
     1
100
AcDbLine
 10
45.44129411908866
 20
25.68830072503934
 30
0.0
 11
45.48129411908862
 21
25.68830072503934
 31
0.0
  0
LINE
  5
1B2
330
2
100
AcDbEntity
  8
GAIKEI
  6
Continuous
 62
     1
100
AcDbLine
 10
45.48129411908862
 20
25.66963352503936
 30
0.0
 11
45.52129411908865
 21
25.66963352503936
 31
0.0
  0
LINE
  5
1B3
330
2
100
AcDbEntity
  8
GAIKEI
  6
Continuous
 62
     1
100
AcDbLine
 10
45.51100661908864
 20
25.49213427503926
 30
0.0
 11
45.47100661908863
 21
25.49213427503926
 31
0.0
  0
LINE
  5
1B4
330
2
100
AcDbEntity
  8
GAIKEI
  6
Continuous
 62
     1
100
AcDbLine
 10
45.49043391908864
 20
25.84713492503934
 30
0.0
 11
45.45043391908868
 21
25.84713492503934
 31
0.0
  0
LINE
  5
1B5
330
2
100
AcDbEntity
  8
GAIKEI
  6
Continuous
 62
     1
100
AcDbLine
 10
45.48129411908862
 20
25.70045607503928
 30
0.0
 11
45.48129411908862
 21
25.68830072503934
 31
0.0
  0
ARC
  5
1B6
330
2
100
AcDbEntity
  8
GAIKEI
  6
Continuous
 62
     1
100
AcDbCircle
 10
45.05129411908868
 20
-3.147676610621573
 30
0.0
 40
0.35
100
AcDbArc
 50
0.0
 51
16.25702800000551
  0
ARC
  5
1B7
330
2
100
AcDbEntity
  8
GAIKEI
  6
Continuous
 62
     1
100
AcDbCircle
 10
45.05129411908868
 20
-3.147676610621573
 30
0.0
 40
0.35
100
AcDbArc
 50
343.7429719999945
 51
0.0
  0
ARC
  5
1B8
330
2
100
AcDbEntity
  8
GAIKEI
  6
Continuous
 62
     1
100
AcDbCircle
 10
45.33929876908863
 20
-3.231660660621599
 30
0.0
 40
0.05
100
AcDbArc
 50
320.9555470000153
 51
343.7429719999945
  0
ARC
  5
1B9
330
2
100
AcDbEntity
  8
GAIKEI
  6
Continuous
 62
     1
100
AcDbCircle
 10
45.33929876908863
 20
-3.06369256062166
 30
0.0
 40
0.05
100
AcDbArc
 50
16.25702800000551
 51
80.92142899999226
  0
ARC
  5
1BA
330
2
100
AcDbEntity
  8
GAIKEI
  6
Continuous
 62
     1
100
AcDbCircle
 10
45.29929876908866
 20
-3.028692560621578
 30
0.0
 40
0.05
100
AcDbArc
 50
16.25702800000551
 51
37.82319200001224
  0
ARC
  5
1BB
330
2
100
AcDbEntity
  8
GAIKEI
  6
Continuous
 62
     1
100
AcDbCircle
 10
45.00129411908867
 20
-3.512676610621582
 30
0.0
 40
0.45
100
AcDbArc
 50
343.3984499999811
 51
348.2276048164396
  0
ARC
  5
1BC
330
2
100
AcDbEntity
  8
GAIKEI
  6
Continuous
 62
     1
100
AcDbCircle
 10
45.37024531908869
 20
-3.622676610621596
 30
0.0
 40
0.065
100
AcDbArc
 50
270.0
 51
343.3984499999811
  0
LINE
  5
1BD
330
2
100
AcDbEntity
  8
GAIKEI
  6
Continuous
 62
     1
100
AcDbLine
 10
45.3387941190887
 20
-3.68767661062165
 30
0.0
 11
45.37024531908869
 21
-3.68767661062165
 31
0.0
  0
ARC
  5
1BE
330
2
100
AcDbEntity
  8
GAIKEI
  6
Continuous
 62
     1
100
AcDbCircle
 10
45.00129411908867
 20
31.84213352503926
 30
0.0
 40
0.45
100
AcDbArc
 50
0.0
 51
16.60155000001892
  0
ARC
  5
1BF
330
2
100
AcDbEntity
  8
GAIKEI
  6
Continuous
 62
     1
100
AcDbCircle
 10
45.00129411908867
 20
31.84213352503926
 30
0.0
 40
0.45
100
AcDbArc
 50
343.3984499999811
 51
0.0
  0
ARC
  5
1C0
330
2
100
AcDbEntity
  8
GAIKEI
  6
Continuous
 62
     1
100
AcDbCircle
 10
45.37024531908869
 20
31.73213352503925
 30
0.0
 40
0.065
100
AcDbArc
 50
270.0
 51
343.3984499999811
  0
ARC
  5
1C1
330
2
100
AcDbEntity
  8
GAIKEI
  6
Continuous
 62
     1
100
AcDbCircle
 10
45.37024531908869
 20
31.95213352503927
 30
0.0
 40
0.065
100
AcDbArc
 50
16.60155000001892
 51
90.0
  0
LINE
  5
1C2
330
2
100
AcDbEntity
  8
GAIKEI
  6
Continuous
 62
     1
100
AcDbLine
 10
45.3387941190887
 20
31.66713352503931
 30
0.0
 11
45.37024531908869
 21
31.66713352503931
 31
0.0
  0
LINE
  5
1C3
330
2
100
AcDbEntity
  8
GAIKEI
  6
Continuous
 62
     1
100
AcDbLine
 10
45.37024531908869
 20
32.01713352503933
 30
0.0
 11
45.3387941190887
 21
32.01713352503933
 31
0.0
  0
ARC
  5
1C4
330
2
100
AcDbEntity
  8
GAIKEI
  6
Continuous
 62
     1
100
AcDbCircle
 10
45.00129411908867
 20
13.57755918861122
 30
0.0
 40
0.45
100
AcDbArc
 50
0.0
 51
16.60155000001892
  0
ARC
  5
1C5
330
2
100
AcDbEntity
  8
GAIKEI
  6
Continuous
 62
     1
100
AcDbCircle
 10
45.00129411908867
 20
13.57755918861122
 30
0.0
 40
0.45
100
AcDbArc
 50
343.3984499999811
 51
0.0
  0
ARC
  5
1C6
330
2
100
AcDbEntity
  8
GAIKEI
  6
Continuous
 62
     1
100
AcDbCircle
 10
45.37024531908869
 20
13.46755918861132
 30
0.0
 40
0.065
100
AcDbArc
 50
270.0
 51
343.3984499999811
  0
ARC
  5
1C7
330
2
100
AcDbEntity
  8
GAIKEI
  6
Continuous
 62
     1
100
AcDbCircle
 10
45.37024531908869
 20
13.68755918861123
 30
0.0
 40
0.065
100
AcDbArc
 50
16.60155000001892
 51
90.0
  0
LINE
  5
1C8
330
2
100
AcDbEntity
  8
GAIKEI
  6
Continuous
 62
     1
100
AcDbLine
 10
45.3387941190887
 20
13.40255918861126
 30
0.0
 11
45.37024531908869
 21
13.40255918861126
 31
0.0
  0
LINE
  5
1C9
330
2
100
AcDbEntity
  8
GAIKEI
  6
Continuous
 62
     1
100
AcDbLine
 10
45.37024531908869
 20
13.75255918861128
 30
0.0
 11
45.3387941190887
 21
13.75255918861128
 31
0.0
  0
LINE
  5
1CA
330
2
100
AcDbEntity
  8
GAIKEI
  6
Continuous
 62
     1
100
AcDbLine
 10
45.37024531908869
 20
-3.262676610621582
 30
0.0
 11
45.3387941190887
 21
-3.262676610621582
 31
0.0
  0
ARC
  5
1CB
330
2
100
AcDbEntity
  8
GAIKEI
  6
Continuous
 62
     1
100
AcDbCircle
 10
45.04129411908869
 20
-3.43767661062165
 30
0.0
 40
0.45
100
AcDbArc
 50
0.0
 51
16.60155000001892
  0
ARC
  5
1CC
330
2
100
AcDbEntity
  8
GAIKEI
  6
Continuous
 62
     1
100
AcDbCircle
 10
45.04129411908869
 20
-3.43767661062165
 30
0.0
 40
0.45
100
AcDbArc
 50
343.3984499999811
 51
0.0
  0
ARC
  5
1CD
330
2
100
AcDbEntity
  8
GAIKEI
  6
Continuous
 62
     1
100
AcDbCircle
 10
45.41024531908866
 20
-3.54767661062155
 30
0.0
 40
0.065
100
AcDbArc
 50
299.0713460000127
 51
343.3984499999811
  0
ARC
  5
1CE
330
2
100
AcDbEntity
  8
GAIKEI
  6
Continuous
 62
     1
100
AcDbCircle
 10
45.41024531908866
 20
-3.327676610621637
 30
0.0
 40
0.065
100
AcDbArc
 50
16.60155000001892
 51
90.0
  0
LINE
  5
1CF
330
2
100
AcDbEntity
  8
GAIKEI
  6
Continuous
 62
     1
100
AcDbLine
 10
45.41024531908866
 20
-3.262676610621582
 30
0.0
 11
45.37851621908865
 21
-3.262676610621582
 31
0.0
  0
ELLIPSE
  5
1D0
330
2
100
AcDbEntity
  8
GAIKEI
  6
Continuous
 62
     1
100
AcDbEllipse
 10
45.55531531908869
 20
30.2631267750393
 30
0.0
 11
0.1424851626795885
 21
0.0468826024892312
 31
0.0
210
0.0
220
0.0
230
1.0
 40
0.9984440000001793
 41
1.218517221577885
 42
2.82325303544779
  0
ELLIPSE
  5
1D1
330
2
100
AcDbEntity
  8
GAIKEI
  6
Continuous
 62
     1
100
AcDbEllipse
 10
45.55531531908869
 20
25.38628067503922
 30
0.0
 11
-0.1424851626777184
 21
0.0468826024949143
 31
0.0
210
0.0
220
0.0
230
1.0
 40
0.9984440000005646
 41
0.318339618181823
 42
1.923075432051857
  0
ELLIPSE
  5
1D2
330
2
100
AcDbEntity
  8
GAIKEI
  6
Continuous
 62
     1
100
AcDbEllipse
 10
45.99223806908864
 20
28.05484562503924
 30
0.0
 11
-0.0677683608693831
 21
0.9901836694613271
 31
0.0
210
0.0
220
0.0
230
1.0
 40
0.9986229999985823
 41
4.644149142569689
 42
4.780628818045713
  0
ELLIPSE
  5
1D3
330
2
100
AcDbEntity
  8
GAIKEI
  6
Continuous
 62
     1
100
AcDbEllipse
 10
46.54255061908864
 20
25.42075567503926
 30
0.0
 11
0.1113231012737732
 21
0.1005344076561978
 31
0.0
210
0.0
220
0.0
230
1.0
 40
0.9976620000000806
 41
4.013930599325021
 42
5.410847361505642
  0
ELLIPSE
  5
1D4
330
2
100
AcDbEntity
  8
GAIKEI
  6
Continuous
 62
     1
100
AcDbEllipse
 10
45.99223806908864
 20
27.59456177503924
 30
0.0
 11
0.0677683607176556
 21
0.9901836694785888
 31
0.0
210
0.0
220
0.0
230
1.0
 40
0.998622999991616
 41
4.644149142570644
 42
4.78062881804572
  0
ELLIPSE
  5
1D5
330
2
100
AcDbEntity
  8
GAIKEI
  6
Continuous
 62
     1
100
AcDbEllipse
 10
46.54255061908864
 20
30.22865172503933
 30
0.0
 11
-0.1113231012655573
 21
0.1005344076653982
 31
0.0
210
0.0
220
0.0
230
1.0
 40
0.9976619999996227
 41
4.013930599346159
 42
5.410847361526342
  0
ELLIPSE
  5
1D6
330
2
100
AcDbEntity
  8
GAIKEI
  6
Continuous
 62
     1
100
AcDbEllipse
 10
46.78623936908869
 20
25.24214137503932
 30
0.0
 11
-0.2200773139313426
 21
0.2042784546889193
 31
0.0
210
0.0
220
0.0
230
1.0
 40
0.9990920000004408
 41
2.530501865473186
 42
3.75268344169062
  0
ELLIPSE
  5
1D7
330
2
100
AcDbEntity
  8
GAIKEI
  6
Continuous
 62
     1
100
AcDbEllipse
 10
45.94863376908867
 20
27.59754607503922
 30
0.0
 11
-1.447501845782709
 21
0.0990673050774751
 31
0.0
210
0.0
220
0.0
230
1.0
 40
0.9993879999934986
 41
3.073300713334443
 42
3.209884594306729
  0
ELLIPSE
  5
1D8
330
2
100
AcDbEntity
  8
GAIKEI
  6
Continuous
 62
     1
100
AcDbEllipse
 10
45.94863376908867
 20
28.05186132503926
 30
0.0
 11
1.447501845805857
 21
0.0990673047384905
 31
0.0
210
0.0
220
0.0
230
1.0
 40
0.9993880000055288
 41
-0.0682919404817914
 42
0.0682919404888547
  0
ELLIPSE
  5
1D9
330
2
100
AcDbEntity
  8
GAIKEI
  6
Continuous
 62
     1
100
AcDbEllipse
 10
46.78623936908869
 20
30.4072660750393
 30
0.0
 11
0.2200773139137207
 21
0.2042784547079607
 31
0.0
210
0.0
220
0.0
230
1.0
 40
0.9990919999997052
 41
-0.6110907881875775
 42
0.6110907880307086
  0
ARC
  5
1DA
330
2
100
AcDbEntity
  8
GAIKEI
  6
Continuous
 62
     1
100
AcDbCircle
 10
46.78659826908867
 20
25.24180827503929
 30
0.0
 40
0.34978195
100
AcDbArc
 50
317.3057001384147
 51
349.609110091751
  0
LINE
  5
1DB
330
2
100
AcDbEntity
  8
GAIKEI
  6
Continuous
 62
     1
100
AcDbLine
 10
45.46605126908864
 20
25.5408253750393
 30
0.0
 11
45.46605126908864
 21
25.41021897503927
 31
0.0
  0
LINE
  5
1DC
330
2
100
AcDbEntity
  8
GAIKEI
  6
Continuous
 62
     1
100
AcDbLine
 10
45.46605126908864
 20
25.41021897503927
 30
0.0
 11
45.41605886908863
 21
25.41021897503927
 31
0.0
  0
LINE
  5
1DD
330
2
100
AcDbEntity
  8
GAIKEI
  6
Continuous
 62
     1
100
AcDbLine
 10
46.54777836908865
 20
25.27105252503933
 30
0.0
 11
46.54647451908866
 21
25.27249627503934
 31
0.0
  0
LINE
  5
1DE
330
2
100
AcDbEntity
  8
GAIKEI
  6
Continuous
 62
     1
100
AcDbLine
 10
45.41605886908863
 20
25.41021897503927
 30
0.0
 11
45.41605886908863
 21
25.41963352503936
 31
0.0
  0
LINE
  5
1DF
330
2
100
AcDbEntity
  8
GAIKEI
  6
Continuous
 62
     1
100
AcDbLine
 10
46.97413606908864
 20
28.18988072503933
 30
0.0
 11
46.82174111908866
 21
29.31922722503933
 31
0.0
  0
LINE
  5
1E0
330
2
100
AcDbEntity
  8
GAIKEI
  6
Continuous
 62
     1
100
AcDbLine
 10
46.69632486908861
 20
30.20996492503937
 30
0.0
 11
46.69094831908867
 21
30.24906007503924
 31
0.0
  0
LINE
  5
1E1
330
2
100
AcDbEntity
  8
GAIKEI
  6
Continuous
 62
     1
100
AcDbLine
 10
46.82174111908866
 20
29.31922722503933
 30
0.0
 11
46.71291316908869
 21
30.11056172503927
 31
0.0
  0
LINE
  5
1E2
330
2
100
AcDbEntity
  8
GAIKEI
  6
Continuous
 62
     1
100
AcDbLine
 10
46.98337786908862
 20
27.59456177503935
 30
0.0
 11
46.98337786908862
 21
28.05484562503935
 31
0.0
  0
LINE
  5
1E3
330
2
100
AcDbEntity
  8
GAIKEI
  6
Continuous
 62
     1
100
AcDbLine
 10
46.88929866908867
 20
26.84263772503928
 30
0.0
 11
46.97413606908864
 21
27.4595267250393
 31
0.0
  0
LINE
  5
1E4
330
2
100
AcDbEntity
  8
GAIKEI
  6
Continuous
 62
     1
100
AcDbLine
 10
46.71291316908869
 20
25.53884567503931
 30
0.0
 11
46.87840121908871
 21
26.74218022503934
 31
0.0
  0
LINE
  5
1E5
330
2
100
AcDbEntity
  8
GAIKEI
  6
Continuous
 62
     1
100
AcDbLine
 10
46.69094831908867
 20
25.40034737503928
 30
0.0
 11
46.69632486908861
 21
25.43944247503933
 31
0.0
  0
LINE
  5
1E6
330
2
100
AcDbEntity
  8
GAIKEI
  6
Continuous
 62
     1
100
AcDbLine
 10
45.56054306908865
 20
25.23657747503936
 30
0.0
 11
46.54777836908865
 21
25.27105252503933
 31
0.0
  0
LINE
  5
1E7
330
2
100
AcDbEntity
  8
GAIKEI
  6
Continuous
 62
     1
100
AcDbLine
 10
45.34580891908868
 20
24.62648022503927
 30
0.0
 11
46.84938711908867
 21
24.94867557503929
 31
0.0
  0
LINE
  5
1E8
330
2
100
AcDbEntity
  8
GAIKEI
  6
Continuous
 62
     1
100
AcDbLine
 10
47.08358826908866
 20
25.20098982503933
 30
0.0
 11
47.38600541908866
 21
27.39999427503929
 31
0.0
  0
LINE
  5
1E9
330
2
100
AcDbEntity
  8
GAIKEI
  6
Continuous
 62
     1
100
AcDbLine
 10
47.39951761908869
 20
27.59742512503934
 30
0.0
 11
47.39951761908869
 21
28.05198227503925
 31
0.0
  0
LINE
  5
1EA
330
2
100
AcDbEntity
  8
GAIKEI
  6
Continuous
 62
     1
100
AcDbLine
 10
47.38600541908866
 20
28.24941317503934
 30
0.0
 11
47.08358826908866
 21
30.4484176250393
 31
0.0
  0
LINE
  5
1EB
330
2
100
AcDbEntity
  8
GAIKEI
  6
Continuous
 62
     1
100
AcDbLine
 10
46.84938711908867
 20
30.70073187503934
 30
0.0
 11
45.34580891908868
 21
31.02292717503932
 31
0.0
  0
LINE
  5
1EC
330
2
100
AcDbEntity
  8
GAIKEI
  6
Continuous
 62
     1
100
AcDbLine
 10
45.40215161908863
 20
30.31835207503937
 30
0.0
 11
45.40215161908863
 21
25.33105532503933
 31
0.0
  0
LINE
  5
1ED
330
2
100
AcDbEntity
  8
GAIKEI
  6
Continuous
 62
     1
100
AcDbLine
 10
46.54777836908865
 20
30.3783549250393
 30
0.0
 11
45.56054306908865
 21
30.41282992503935
 31
0.0
  0
ARC
  5
1EE
330
2
100
AcDbEntity
  8
GAIKEI
  6
Continuous
 62
     1
100
AcDbCircle
 10
46.97405381908871
 20
-2.723482710621595
 30
0.0
 40
0.05
100
AcDbArc
 50
273.0000000000056
 51
359.0000000000243
  0
ARC
  5
1EF
330
2
100
AcDbEntity
  8
GAIKEI
  6
Continuous
 62
     1
100
AcDbCircle
 10
45.52218736908864
 20
-3.099983510621626
 30
0.0
 40
0.25
100
AcDbArc
 50
93.00000000000558
 51
137.1867789999951
  0
LINE
  5
1F0
330
2
100
AcDbEntity
  8
GAIKEI
  6
Continuous
 62
     1
100
AcDbLine
 10
45.50910341908869
 20
-2.850326160621619
 30
0.0
 11
46.51317991908868
 21
-2.797704710621559
 31
0.0
  0
LINE
  5
1F1
330
2
100
AcDbEntity
  8
GAIKEI
  6
Continuous
 62
     1
100
AcDbLine
 10
46.38651081908867
 20
-2.804343160621641
 30
0.0
 11
46.97667061908865
 21
-2.773414210621552
 31
0.0
  0
LINE
  5
1F2
330
2
100
AcDbEntity
  8
GAIKEI
  6
Continuous
 62
     1
100
AcDbLine
 10
47.02404621908866
 20
-2.724355360621615
 30
0.0
 11
47.02613941908865
 21
-2.604436360621633
 31
0.0
  0
LINE
  5
1F3
330
2
100
AcDbEntity
  8
GAIKEI
  6
Continuous
 62
     1
100
AcDbLine
 10
45.50910341908869
 20
-2.850326160621619
 30
0.0
 11
46.38651081908867
 21
-2.804343160621641
 31
0.0
  0
ELLIPSE
  5
1F4
330
2
100
AcDbEntity
  8
GAIKEI
  6
Continuous
 62
     1
100
AcDbEllipse
 10
47.51872551908869
 20
0.9373233893783492
 30
0.0
 11
0.0500686172998712
 21
0.0000000000139555
 31
0.0
210
0.0
220
0.0
230
1.0
 40
0.9986299999997962
 41
-0.0000000002791107
 42
1.57079632651655
  0
ARC
  5
1F5
330
2
100
AcDbEntity
  8
GAIKEI
  6
Continuous
 62
     1
100
AcDbCircle
 10
47.3187941190886
 20
0.6418318893784374
 30
0.0
 40
0.25
100
AcDbArc
 50
299.340581999988
 51
0.0
  0
LINE
  5
1F6
330
2
100
AcDbEntity
  8
GAIKEI
  6
Continuous
 62
     1
100
AcDbLine
 10
47.56879411908861
 20
0.6418318893784374
 30
0.0
 11
47.56879411908861
 21
0.9373233893783492
 31
0.0
  0
LINE
  5
1F7
330
2
100
AcDbEntity
  8
GAIKEI
  6
Continuous
 62
     1
100
AcDbLine
 10
47.51872551908869
 20
0.9873233893784174
 30
0.0
 11
47.51741531908865
 21
0.9873233893784174
 31
0.0
  0
LINE
  5
1F8
330
2
100
AcDbEntity
  8
GAIKEI
  6
Continuous
 62
     1
100
AcDbLine
 10
47.51741531908865
 20
0.9873233893784174
 30
0.0
 11
47.44129411908867
 21
0.9873233893784174
 31
0.0
  0
ELLIPSE
  5
1F9
330
2
100
AcDbEntity
  8
GAIKEI
  6
Continuous
 62
     1
100
AcDbEllipse
 10
47.47872551908861
 20
-1.162676610621559
 30
0.0
 11
-0.0500686172998712
 21
0.0000000000068056
 31
0.0
210
0.0
220
0.0
230
1.0
 40
0.9986300000009318
 41
3.141592653725905
 42
4.712388980520429
  0
ARC
  5
1FA
330
2
100
AcDbEntity
  8
GAIKEI
  6
Continuous
 62
     1
100
AcDbCircle
 10
45.4697771190886
 20
-2.362676610621605
 30
0.0
 40
0.25
100
AcDbArc
 50
270.0
 51
296.5650509999872
  0
ARC
  5
1FB
330
2
100
AcDbEntity
  8
GAIKEI
  6
Continuous
 62
     1
100
AcDbCircle
 10
47.27879411908864
 20
-1.458168110621585
 30
0.0
 40
0.25
100
AcDbArc
 50
296.5650509999872
 51
0.0
  0
LINE
  5
1FC
330
2
100
AcDbEntity
  8
GAIKEI
  6
Continuous
 62
     1
100
AcDbLine
 10
47.52879411908864
 20
-1.458168110621585
 30
0.0
 11
47.52879411908864
 21
-1.162676610621559
 31
0.0
  0
LINE
  5
1FD
330
2
100
AcDbEntity
  8
GAIKEI
  6
Continuous
 62
     1
100
AcDbLine
 10
45.58158051908864
 20
-2.586283410621575
 30
0.0
 11
47.39059751908863
 21
-1.681774910621555
 31
0.0
  0
LINE
  5
1FE
330
2
100
AcDbEntity
  8
GAIKEI
  6
Continuous
 62
     1
100
AcDbLine
 10
47.47872551908861
 20
-1.112676610621605
 30
0.0
 11
47.47741531908869
 21
-1.112676610621605
 31
0.0
  0
LINE
  5
1FF
330
2
100
AcDbEntity
  8
GAIKEI
  6
Continuous
 62
     1
100
AcDbLine
 10
47.47741531908869
 20
-1.112676610621605
 30
0.0
 11
47.44129411908867
 21
-1.112676610621605
 31
0.0
  0
LINE
  5
200
330
2
100
AcDbEntity
  8
GAIKEI
  6
Continuous
 62
     1
100
AcDbLine
 10
45.3387941190887
 20
-2.612676610621605
 30
0.0
 11
45.4697771190886
 21
-2.612676610621605
 31
0.0
  0
DIMENSION
  5
201
330
2
100
AcDbEntity
  8
SUNPO
100
AcDbDimension
  2
*D12
 10
30.91312166662402
 20
32.27194367518021
 30
0.0
 11
29.16312166662402
 21
14.1757886073498
 31
0.0
 70
    33
  1
724
 71
     5
 42
36.19231013566082
  3
STANDARD
100
AcDbAlignedDimension
 13
22.91312166662402
 23
-3.920366460480607
 33
0.0
 14
22.91312166662399
 24
32.27194367518021
 34
0.0
1001
ACAD
1000
DSTYLE
1002
{
1070
   287
1070
     3
1070
   287
1070
     3
1070
   287
1070
     3
1070
   287
1070
     3
1070
   287
1070
     3
1070
   287
1070
     3
1070
   287
1070
     3
1070
   287
1070
     3
1070
   287
1070
     3
1070
   287
1070
     3
1070
   287
1070
     3
1070
   287
1070
     3
1070
   287
1070
     3
1070
   287
1070
     3
1070
   287
1070
     3
1070
   287
1070
     3
1070
   287
1070
     3
1070
   287
1070
     3
1070
   287
1070
     3
1070
   287
1070
     3
1070
   287
1070
     3
1070
   287
1070
     3
1070
   287
1070
     3
1070
   287
1070
     3
1070
   287
1070
     3
1070
   287
1070
     3
1070
   287
1070
     3
1070
   287
1070
     3
1070
   287
1070
     3
1070
   287
1070
     3
1070
   287
1070
     3
1070
   287
1070
     3
1070
   287
1070
     3
1070
   287
1070
     3
1070
    40
1040
1.0
1070
   140
1040
2.5
1070
   147
1040
0.5
1070
   172
1070
     1
1070
   279
1070
     0
1002
}
  0
SPLINE
  5
20F
330
2
100
AcDbEntity
  8
GAIKEI
  6
Continuous
 62
     1
100
AcDbSpline
210
0.0
220
0.0
230
1.0
 70
     8
 71
     3
 72
    19
 73
    15
 74
    13
 42
0.0000000001
 43
0.0000000001
 44
0.000001
 12
0.9971663916962711
 22
-0.075227569889229
 32
0.0
 13
0.075244651693976
 23
-0.9971651028748709
 33
0.0
 40
0.0
 40
0.0
 40
0.0
 40
0.0
 40
0.030715435588374
 40
0.0474030577445464
 40
0.0651725077316638
 40
0.0907715901302183
 40
0.1187843457395302
 40
0.1493748434368632
 40
0.1799684720857404
 40
0.2079831862986427
 40
0.2335829246383331
 40
0.2513519490620154
 40
0.2680383244320077
 40
0.2987487387217205
 40
0.2987487387217205
 40
0.2987487387217205
 40
0.2987487387217205
 10
23.01974761758382
 20
32.14423335732832
 30
0.0
 10
23.0299570842755
 20
32.1434631414692
 30
0.0
 10
23.04566770882499
 20
32.14074147160619
 30
0.0
 10
23.06621903235901
 20
32.13361080173866
 30
0.0
 10
23.08445986530336
 20
32.12529438492391
 30
0.0
 10
23.10498778205276
 20
32.11315583845965
 30
0.0
 10
23.12750531684608
 20
32.09631831889783
 30
0.0
 10
23.14946931587251
 20
32.07621448225805
 30
0.0
 10
23.16957207178089
 20
32.05424862828306
 30
0.0
 10
23.18640985722482
 20
32.03172893272546
 30
0.0
 10
23.19854842529145
 20
32.01120019914805
 30
0.0
 10
23.2068647078828
 20
31.99295968996552
 30
0.0
 10
23.21399494396485
 20
31.9724105805943
 30
0.0
 10
23.21671642383202
 20
31.95670207074633
 30
0.0
 10
23.21748668864089
 20
31.94649428627148
 30
0.0
 11
23.01974761758382
 21
32.14423335732832
 31
0.0
 11
23.04999661217508
 21
32.13890019666329
 31
0.0
 11
23.06578383072494
 21
32.13349329882059
 31
0.0
 11
23.08196383871021
 21
32.12614779279764
 31
0.0
 11
23.10404675063583
 21
32.11319978435771
 31
0.0
 11
23.12653176406914
 21
32.09649256833259
 31
0.0
 11
23.149148617311
 21
32.07589528599866
 31
0.0
 11
23.16974659864687
 21
32.05327483465956
 31
0.0
 11
23.18645408001092
 21
32.03078757827873
 31
0.0
 11
23.19940203258616
 21
32.00870387316153
 31
0.0
 11
23.20674735965687
 21
31.99252425122475
 31
0.0
 11
23.21215401715566
 21
31.97673826809583
 31
0.0
 11
23.21748668864089
 21
31.94649428627148
 31
0.0
  0
SPLINE
  5
210
330
2
100
AcDbEntity
  8
GAIKEI
  6
Continuous
 62
     1
100
AcDbSpline
210
0.0
220
0.0
230
1.0
 70
     8
 71
     3
 72
    19
 73
    15
 74
    13
 42
0.0000000001
 43
0.0000000001
 44
0.000001
 12
-0.0752275697466489
 22
-0.9971663917070275
 32
0.0
 13
-0.9971651028676605
 23
-0.0752446517895329
 33
0.0
 40
0.0
 40
0.0
 40
0.0
 40
0.0
 40
0.030715435581542
 40
0.0474030577359828
 40
0.0651725077224488
 40
0.0907715901219655
 40
0.118784345734847
 40
0.1493748434380533
 40
0.179968472082968
 40
0.2079831862935395
 40
0.2335829246325459
 40
0.251351949056575
 40
0.2680383244278028
 40
0.2987487387220733
 40
0.2987487387220733
 40
0.2987487387220733
 40
0.2987487387220733
 10
23.21748668864078
 20
-3.587227221712822
 30
0.0
 10
23.21671647278328
 20
-3.597436688402353
 30
0.0
 10
23.21399480292251
 20
-3.613147312949422
 30
0.0
 10
23.20686413305671
 20
-3.633698636480801
 30
0.0
 10
23.19854771624256
 20
-3.651939469424888
 30
0.0
 10
23.18640916977772
 20
-3.672467386175526
 30
0.0
 10
23.16957165021368
 20
-3.694984920971478
 30
0.0
 10
23.14946781357277
 20
-3.716948919999367
 30
0.0
 10
23.1275019595977
 20
-3.737051675907451
 30
0.0
 10
23.10498226404197
 20
-3.753889461349928
 30
0.0
 10
23.08445353046542
 20
-3.766028029416304
 30
0.0
 10
23.06621302128272
 20
-3.77434431200794
 30
0.0
 10
23.04566391190974
 20
-3.781474548091182
 30
0.0
 10
23.0299554020601
 20
-3.784196027959808
 30
0.0
 10
23.01974761758382
 20
-3.78496629276978
 30
0.0
 11
23.21748668864078
 21
-3.587227221712822
 31
0.0
 11
23.21215352798018
 21
-3.617476216297944
 31
0.0
 11
23.20674663013873
 21
-3.633263434846384
 31
0.0
 11
23.19940112411646
 21
-3.649443442831255
 31
0.0
 11
23.18645311567619
 21
-3.671526354757787
 31
0.0
 11
23.16974589964892
 21
-3.69401136819394
 31
0.0
 11
23.149148617311
 21
-3.716628221440117
 31
0.0
 11
23.12652816597469
 21
-3.737226202773143
 31
0.0
 11
23.10404090959574
 21
-3.75393368413583
 31
0.0
 11
23.08195720447921
 21
-3.766881636710849
 31
0.0
 11
23.06577758254221
 21
-3.774226963781956
 31
0.0
 11
23.04999159941226
 21
-3.77963362128159
 31
0.0
 11
23.01974761758382
 21
-3.78496629276978
 31
0.0
  0
LINE
  5
211
330
2
100
AcDbEntity
  8
GAIKEI
  6
Continuous
 62
     1
100
AcDbLine
 10
21.54435175707513
 20
30.28390677583767
 30
0.0
 11
21.54435175707513
 21
-1.924639711278899
 31
0.0
  0
LINE
  5
212
330
2
100
AcDbEntity
  8
GAIKEI
  6
Continuous
 62
     1
100
AcDbLine
 10
22.99065765649666
 20
31.7196652252633
 30
0.0
 11
22.99065765649666
 21
-3.360398160704647
 31
0.0
  0
LINE
  5
213
330
2
100
AcDbEntity
  8
GAIKEI
  6
Continuous
 62
     1
100
AcDbLine
 10
22.7929185565757
 20
31.91740432518421
 30
0.0
 11
23.01974760648503
 21
32.14423337509348
 31
0.0
  0
LINE
  5
214
330
2
100
AcDbEntity
  8
GAIKEI
  6
Continuous
 62
     1
100
AcDbLine
 10
23.21748670640594
 20
31.94649427517257
 30
0.0
 11
22.99065765649666
 21
31.7196652252633
 31
0.0
  0
LINE
  5
215
330
2
100
AcDbEntity
  8
GAIKEI
  6
Continuous
 62
     1
100
AcDbLine
 10
22.99065765649666
 20
-3.360398160704647
 30
0.0
 11
23.21748670640594
 21
-3.587227210613917
 31
0.0
  0
LINE
  5
216
330
2
100
AcDbEntity
  8
GAIKEI
  6
Continuous
 62
     1
100
AcDbLine
 10
23.01974760648503
 20
-3.784966310534827
 30
0.0
 11
22.7929185565757
 21
-3.558137260625557
 31
0.0
  0
LINE
  5
217
330
2
100
AcDbEntity
  8
GAIKEI
  6
Continuous
 62
     1
100
AcDbLine
 10
23.21748670640594
 20
-3.587227210613917
 30
0.0
 11
23.21748670640594
 21
31.94649427517257
 31
0.0
  0
LINE
  5
218
330
2
100
AcDbEntity
  8
GAIKEI
  6
Continuous
 62
     1
100
AcDbLine
 10
21.38581565713858
 20
-1.917919261281639
 30
0.0
 11
21.38581565713858
 21
30.27718632584029
 31
0.0
  0
LINE
  5
219
330
2
100
AcDbEntity
  8
GAIKEI
  6
Continuous
 62
     1
100
AcDbLine
 10
21.36498070714688
 20
30.32922737581956
 30
0.0
 11
20.79376210737539
 21
29.758008776048
 31
0.0
  0
LINE
  5
21A
330
2
100
AcDbEntity
  8
GAIKEI
  6
Continuous
 62
     1
100
AcDbLine
 10
20.79376210737539
 20
-1.39874171148935
 30
0.0
 11
21.36498070714688
 21
-1.969960311260791
 31
0.0
  0
LINE
  5
21B
330
2
100
AcDbEntity
  8
GAIKEI
  6
Continuous
 62
     1
100
AcDbLine
 10
20.83565090735866
 20
29.65505802608916
 30
0.0
 11
20.83565090735866
 21
-1.295790961530514
 31
0.0
  0
LINE
  5
21C
330
2
100
AcDbEntity
  8
GAIKEI
  6
Continuous
 62
     1
100
AcDbLine
 10
20.77538685738276
 20
29.64037892609511
 30
0.0
 11
20.77538685738276
 21
-1.281111861536345
 31
0.0
  0
LINE
  5
21D
330
2
100
AcDbEntity
  8
GAIKEI
  6
Continuous
 62
     1
100
AcDbLine
 10
23.35288685635172
 20
32.07990762511921
 30
0.0
 11
23.21748670640591
 21
31.94450747517342
 31
0.0
  0
LINE
  5
21E
330
2
100
AcDbEntity
  8
GAIKEI
  6
Continuous
 62
     1
100
AcDbLine
 10
23.01776080648577
 20
32.14423337509348
 30
0.0
 11
23.15316095643166
 21
32.27963352503937
 31
0.0
  0
LINE
  5
21F
330
2
100
AcDbEntity
  8
GAIKEI
  6
Continuous
 62
     1
100
AcDbLine
 10
23.15316095643166
 20
-3.920366460480607
 30
0.0
 11
23.01776080648577
 21
-3.784966310534827
 31
0.0
  0
LINE
  5
220
330
2
100
AcDbEntity
  8
GAIKEI
  6
Continuous
 62
     1
100
AcDbLine
 10
23.21748670640591
 20
-3.585240410614659
 30
0.0
 11
23.35288685635172
 21
-3.720640560560553
 31
0.0
  0
LINE
  5
221
330
2
100
AcDbEntity
  8
GAIKEI
  6
Continuous
100
AcDbLine
 10
23.35288685635172
 20
32.07990762511921
 30
0.0
 11
23.35288685635172
 21
-3.720640560560553
 31
0.0
  0
ELLIPSE
  5
222
330
2
100
AcDbEntity
  8
GAIKEI
  6
Continuous
 62
     1
100
AcDbEllipse
 10
21.31904295716524
 20
-1.924022561279201
 30
0.0
 11
-0.159535404709188
 21
0.1595354047089651
 31
0.0
210
0.0
220
0.0
230
1.0
 40
0.9972649999999998
 41
2.357564018062
 42
3.925621289115982
  0
ELLIPSE
  5
223
330
2
100
AcDbEntity
  8
GAIKEI
  6
Continuous
 62
     1
100
AcDbEllipse
 10
21.31904295716524
 20
30.28328962583774
 30
0.0
 11
-0.1595354047091992
 21
-0.1595354047089534
 31
0.0
210
0.0
220
0.0
230
1.0
 40
0.9972649999999998
 41
2.357564018063572
 42
3.925621289117657
  0
ELLIPSE
  5
224
330
2
100
AcDbEntity
  8
GAIKEI
  6
Continuous
 62
     1
100
AcDbEllipse
 10
22.4314064067203
 20
31.35815307540795
 30
0.0
 11
-0.5021965241687404
 21
-0.5021965241687347
 31
0.0
210
0.0
220
0.0
230
1.0
 40
0.49281
 41
2.730628648546677
 42
3.552556658632908
  0
ELLIPSE
  5
225
330
2
100
AcDbEntity
  8
GAIKEI
  6
Continuous
 62
     1
100
AcDbEllipse
 10
22.4314064067203
 20
-2.998886010849304
 30
0.0
 11
-0.5021965241687355
 21
0.502196524168813
 31
0.0
210
0.0
220
0.0
230
1.0
 40
0.49281
 41
2.730628648546692
 42
3.552556658632933
  0
ELLIPSE
  5
226
330
2
100
AcDbEntity
  8
GAIKEI
  6
Continuous
 62
     1
100
AcDbEllipse
 10
21.31305185716761
 20
30.27527732584102
 30
0.0
 11
-0.0740370952919559
 21
0.0126634681883976
 31
0.0
210
0.0
220
0.0
230
1.0
 40
0.9955149999999999
 41
4.117568889116213
 42
4.882540434961859
  0
ELLIPSE
  5
227
330
2
100
AcDbEntity
  8
GAIKEI
  6
Continuous
 62
     1
100
AcDbEllipse
 10
21.31103065716846
 20
-1.918031461281628
 30
0.0
 11
-0.0126634681884195
 21
-0.0740370952919523
 31
0.0
210
0.0
220
0.0
230
1.0
 40
0.9955149999999999
 41
0.975976235527481
 42
1.740947781372396
  0
ELLIPSE
  5
228
330
2
100
AcDbEntity
  8
GAIKEI
  6
Continuous
 62
     1
100
AcDbEllipse
 10
21.31103065716846
 20
30.27729852584028
 30
0.0
 11
-0.0126634681884039
 21
0.0740370952919547
 31
0.0
210
0.0
220
0.0
230
1.0
 40
0.9955149999999999
 41
4.542237525807408
 42
5.30720907164956
  0
ELLIPSE
  5
229
330
2
100
AcDbEntity
  8
GAIKEI
  6
Continuous
 62
     1
100
AcDbEllipse
 10
21.31305185716767
 20
-1.91601026128248
 30
0.0
 11
-0.074037095291956
 21
-0.0126634681883971
 31
0.0
210
0.0
220
0.0
230
1.0
 40
0.9955149999999999
 41
1.400644872217725
 42
2.165616418060674
  0
ELLIPSE
  5
22A
330
2
100
AcDbEntity
  8
GAIKEI
  6
Continuous
 62
     1
100
AcDbEllipse
 10
20.68704655741803
 20
29.64725082609223
 30
0.0
 11
-0.0866320186582728
 21
-0.1272290693382461
 31
0.0
210
0.0
220
0.0
230
1.0
 40
0.9735809999999998
 41
2.9680855374661
 42
3.7270002697099
  0
ELLIPSE
  5
22B
330
2
100
AcDbEntity
  8
GAIKEI
  6
Continuous
 62
     1
100
AcDbEllipse
 10
20.68300415741967
 20
29.65129322609064
 30
0.0
 11
-0.1272290693382016
 21
-0.0866320186583367
 31
0.0
210
0.0
220
0.0
230
0.9999999999999998
 40
0.9735809999999998
 41
2.556185037469163
 42
3.315099769710879
  0
ELLIPSE
  5
22C
330
2
100
AcDbEntity
  8
GAIKEI
  6
Continuous
 62
     1
100
AcDbEllipse
 10
20.68300415741967
 20
-1.292026161532106
 30
0.0
 11
-0.1272290693381955
 21
0.0866320186583462
 31
0.0
210
0.0
220
0.0
230
1.0
 40
0.973581
 41
2.968085537466982
 42
3.727000269710492
  0
ELLIPSE
  5
22D
330
2
100
AcDbEntity
  8
GAIKEI
  6
Continuous
 62
     1
100
AcDbEllipse
 10
20.68704655741803
 20
-1.287983761533695
 30
0.0
 11
-0.0866320186582643
 21
0.1272290693382531
 31
0.0
210
0.0
220
0.0
230
1.0
 40
0.9735809999999998
 41
2.556185037470086
 42
3.315099769710523
  0
ELLIPSE
  5
22E
330
2
100
AcDbEntity
  8
GAIKEI
  6
Continuous
 62
     1
100
AcDbEllipse
 10
20.674635857423
 20
29.63888252609562
 30
0.0
 11
-0.0717687987905403
 21
-0.0717687987905877
 31
0.0
210
0.0
220
0.0
230
1.0
 40
0.9852569999999998
 41
2.363620831663935
 42
3.919564475514135
  0
ELLIPSE
  5
22F
330
2
100
AcDbEntity
  8
GAIKEI
  6
Continuous
 62
     1
100
AcDbEllipse
 10
20.674635857423
 20
-1.279615461536963
 30
0.0
 11
-0.0717687987905345
 21
0.071768798790594
 31
0.0
210
0.0
220
0.0
230
1.0
 40
0.985257
 41
2.363620831665123
 42
3.919564475515255
  0
ELLIPSE
  5
230
330
2
100
AcDbEntity
  8
GAIKEI
  6
Continuous
100
AcDbEllipse
 10
23.15261240643181
 20
32.07935907511936
 30
0.0
 11
-0.1418092486302781
 21
-0.1418092486303011
 31
0.0
210
0.0
220
0.0
230
1.0
 40
0.9972649999999998
 41
2.357564018062679
 42
3.925621289116665
  0
ELLIPSE
  5
231
330
2
100
AcDbEntity
  8
GAIKEI
  6
Continuous
100
AcDbEllipse
 10
23.15261240643181
 20
-3.720092010560819
 30
0.0
 11
-0.1418092486302895
 21
0.1418092486302897
 31
0.0
210
0.0
220
0.0
230
1.0
 40
0.9972649999999998
 41
2.35756401806288
 42
3.925621289116826
  0
DIMENSION
  5
232
330
2
100
AcDbEntity
  8
SUNPO
100
AcDbDimension
  2
*D11
 10
23.35288685635169
 20
40.27165723082887
 30
0.0
 11
-6.897113131548266
 21
42.02165723082887
 31
0.0
 70
    33
  1
1210
 71
     5
 42
60.49999997579991
  3
STANDARD
100
AcDbAlignedDimension
 13
-37.14711311944822
 23
32.27165723082888
 33
0.0
 14
23.35288685635169
 24
32.27165723082888
 34
0.0
1001
ACAD
1000
DSTYLE
1002
{
1070
   287
1070
     3
1070
   287
1070
     3
1070
   287
1070
     3
1070
   287
1070
     3
1070
   287
1070
     3
1070
   287
1070
     3
1070
   287
1070
     3
1070
   287
1070
     3
1070
   287
1070
     3
1070
   287
1070
     3
1070
   287
1070
     3
1070
   287
1070
     3
1070
   287
1070
     3
1070
   287
1070
     3
1070
   287
1070
     3
1070
   287
1070
     3
1070
   287
1070
     3
1070
   287
1070
     3
1070
   287
1070
     3
1070
   287
1070
     3
1070
   287
1070
     3
1070
   287
1070
     3
1070
   287
1070
     3
1070
   287
1070
     3
1070
   287
1070
     3
1070
   287
1070
     3
1070
   287
1070
     3
1070
   287
1070
     3
1070
   287
1070
     3
1070
   287
1070
     3
1070
   287
1070
     3
1070
   287
1070
     3
1070
   287
1070
     3
1070
   287
1070
     3
1070
    40
1040
1.0
1070
   140
1040
2.5
1070
   147
1040
0.5
1070
   172
1070
     1
1070
   279
1070
     0
1002
}
  0
SPLINE
  5
23F
330
2
100
AcDbEntity
  8
GAIKEI
  6
Continuous
 62
     1
100
AcDbSpline
210
0.0
220
0.0
230
1.0
 70
     8
 71
     3
 72
    19
 73
    15
 74
    13
 42
0.0000000001
 43
0.0000000001
 44
0.000001
 12
-0.9971663916962876
 22
-0.0752275698890099
 32
0.0
 13
-0.0752446516939761
 23
-0.9971651028748709
 33
0.0
 40
0.0
 40
0.0
 40
0.0
 40
0.0
 40
0.030715435588262
 40
0.0474030577445487
 40
0.0651725077316046
 40
0.0907715901301653
 40
0.1187843457395228
 40
0.1493748434368532
 40
0.1799684720857738
 40
0.2079831862985551
 40
0.233582924638303
 40
0.2513519490619589
 40
0.2680383244319317
 40
0.2987487387216457
 40
0.2987487387216457
 40
0.2987487387216457
 40
0.2987487387216457
 10
-36.81397388068044
 20
32.14423335732832
 30
0.0
 10
-36.82418334737208
 20
32.1434631414692
 30
0.0
 10
-36.83989397192155
 20
32.14074147160616
 30
0.0
 10
-36.86044529545561
 20
32.13361080173868
 30
0.0
 10
-36.87868612839991
 20
32.12529438492388
 30
0.0
 10
-36.89921404514936
 20
32.11315583845965
 30
0.0
 10
-36.92173157994267
 20
32.09631831889789
 30
0.0
 10
-36.94369557896918
 20
32.07621448225803
 30
0.0
 10
-36.96379833487739
 20
32.05424862828295
 30
0.0
 10
-36.98063612032131
 20
32.0317289327254
 30
0.0
 10
-36.99277468838811
 20
32.01120019914811
 30
0.0
 10
-37.00109097097934
 20
31.99295968996557
 30
0.0
 10
-37.00822120706131
 20
31.97241058059433
 30
0.0
 10
-37.01094268692853
 20
31.95670207074633
 30
0.0
 10
-37.0117129517374
 20
31.94649428627148
 30
0.0
 11
-36.81397388068044
 21
32.14423335732832
 31
0.0
 11
-36.84422287527159
 21
32.13890019666329
 31
0.0
 11
-36.86001009382156
 21
32.13349329882059
 31
0.0
 11
-36.87619010180677
 21
32.12614779279764
 31
0.0
 11
-36.89827301373239
 21
32.11319978435771
 31
0.0
 11
-36.92075802716576
 21
32.09649256833259
 31
0.0
 11
-36.94337488040762
 21
32.07589528599866
 31
0.0
 11
-36.96397286174343
 21
32.05327483465945
 31
0.0
 11
-36.98068034310742
 21
32.03078757827873
 31
0.0
 11
-36.99362829568278
 21
32.00870387316153
 31
0.0
 11
-37.00097362275343
 21
31.99252425122475
 31
0.0
 11
-37.00638028025216
 21
31.97673826809583
 31
0.0
 11
-37.0117129517374
 21
31.94649428627148
 31
0.0
  0
SPLINE
  5
240
330
2
100
AcDbEntity
  8
GAIKEI
  6
Continuous
 62
     1
100
AcDbSpline
210
0.0
220
0.0
230
1.0
 70
     8
 71
     3
 72
    19
 73
    15
 74
    13
 42
0.0000000001
 43
0.0000000001
 44
0.000001
 12
0.075227569746649
 22
-0.9971663917070275
 32
0.0
 13
0.9971651028676605
 23
-0.0752446517895329
 33
0.0
 40
0.0
 40
0.0
 40
0.0
 40
0.0
 40
0.0307154355815327
 40
0.0474030577359908
 40
0.0651725077224553
 40
0.0907715901219451
 40
0.1187843457348308
 40
0.1493748434379435
 40
0.1799684720829767
 40
0.2079831862935112
 40
0.2335829246325604
 40
0.2513519490565929
 40
0.2680383244278274
 40
0.2987487387220349
 40
0.2987487387220349
 40
0.2987487387220349
 40
0.2987487387220349
 10
-37.01171295173734
 20
-3.587227221712822
 30
0.0
 10
-37.01094273587984
 20
-3.597436688402325
 30
0.0
 10
-37.00822106601918
 20
-3.613147312949479
 30
0.0
 10
-37.00109039615325
 20
-3.633698636480801
 30
0.0
 10
-36.99277397933912
 20
-3.65193946942486
 30
0.0
 10
-36.98063543287435
 20
-3.672467386175526
 30
0.0
 10
-36.96379791331033
 20
-3.694984920971364
 30
0.0
 10
-36.94369407666931
 20
-3.71694891999931
 30
0.0
 10
-36.92172822269431
 20
-3.737051675907423
 30
0.0
 10
-36.89920852713857
 20
-3.753889461350013
 30
0.0
 10
-36.87867979356199
 20
-3.766028029416276
 30
0.0
 10
-36.86043928437929
 20
-3.77434431200794
 30
0.0
 10
-36.83989017500632
 20
-3.781474548091154
 30
0.0
 10
-36.8241816651567
 20
-3.784196027959808
 30
0.0
 10
-36.81397388068044
 20
-3.78496629276978
 30
0.0
 11
-37.01171295173734
 21
-3.587227221712822
 31
0.0
 11
-37.0063797910768
 21
-3.617476216297944
 31
0.0
 11
-37.00097289323529
 21
-3.633263434846384
 31
0.0
 11
-36.99362738721303
 21
-3.649443442831255
 31
0.0
 11
-36.98067937877281
 21
-3.671526354757787
 31
0.0
 11
-36.96397216274553
 21
-3.69401136819394
 31
0.0
 11
-36.94337488040762
 21
-3.716628221440004
 31
0.0
 11
-36.92075442907125
 21
-3.737226202773143
 31
0.0
 11
-36.89826717269236
 21
-3.75393368413583
 31
0.0
 11
-36.87618346757577
 21
-3.766881636710849
 31
0.0
 11
-36.86000384563878
 21
-3.774226963781956
 31
0.0
 11
-36.84421786250883
 21
-3.77963362128159
 31
0.0
 11
-36.81397388068044
 21
-3.78496629276978
 31
0.0
  0
LINE
  5
241
330
2
100
AcDbEntity
  8
GAIKEI
  6
Continuous
 62
     1
100
AcDbLine
 10
22.7929185565757
 20
31.91740432518421
 30
0.0
 11
-36.58714481967226
 21
31.91740432518421
 31
0.0
  0
LINE
  5
242
330
2
100
AcDbEntity
  8
GAIKEI
  6
Continuous
 62
     1
100
AcDbLine
 10
-35.3385780201717
 20
30.28390677583767
 30
0.0
 11
-35.3385780201717
 21
-1.924639711278899
 31
0.0
  0
LINE
  5
243
330
2
100
AcDbEntity
  8
GAIKEI
  6
Continuous
 62
     1
100
AcDbLine
 10
-35.11388637026156
 20
-2.149331361189041
 30
0.0
 11
21.31966010716505
 21
-2.149331361189041
 31
0.0
  0
LINE
  5
244
330
2
100
AcDbEntity
  8
GAIKEI
  6
Continuous
 62
     1
100
AcDbLine
 10
21.31966010716505
 20
30.50859842574781
 30
0.0
 11
-35.11388637026156
 21
30.50859842574781
 31
0.0
  0
LINE
  5
245
330
2
100
AcDbEntity
  8
GAIKEI
  6
Continuous
 62
     1
100
AcDbLine
 10
-34.20711312062426
 20
-3.395461610690603
 30
0.0
 11
-34.20711312062426
 21
-3.095271310810716
 31
0.0
  0
LINE
  5
246
330
2
100
AcDbEntity
  8
GAIKEI
  6
Continuous
 62
     1
100
AcDbLine
 10
-34.53220827049424
 20
-3.070366460820622
 30
0.0
 11
-34.23201797061429
 21
-3.070366460820622
 31
0.0
  0
LINE
  5
247
330
2
100
AcDbEntity
  8
GAIKEI
  6
Continuous
 62
     1
100
AcDbLine
 10
-34.55711312048427
 20
-3.395461610690603
 30
0.0
 11
-34.55711312048427
 21
-3.095271310810716
 31
0.0
  0
LINE
  5
248
330
2
100
AcDbEntity
  8
GAIKEI
  6
Continuous
 62
     1
100
AcDbLine
 10
-34.53220827049424
 20
-3.420366460680696
 30
0.0
 11
-34.23201797061429
 21
-3.420366460680696
 31
0.0
  0
LINE
  5
249
330
2
100
AcDbEntity
  8
GAIKEI
  6
Continuous
 62
     1
100
AcDbLine
 10
-36.04086311989076
 20
-3.301616460728126
 30
0.0
 11
-36.04086311989076
 21
-3.189116460773192
 31
0.0
  0
LINE
  5
24A
330
2
100
AcDbEntity
  8
GAIKEI
  6
Continuous
 62
     1
100
AcDbLine
 10
-36.15336311984581
 20
-3.189116460773192
 30
0.0
 11
-36.04086311989076
 21
-3.189116460773192
 31
0.0
  0
LINE
  5
24B
330
2
100
AcDbEntity
  8
GAIKEI
  6
Continuous
 62
     1
100
AcDbLine
 10
-36.15336311984581
 20
-3.301616460728126
 30
0.0
 11
-36.15336311984581
 21
-3.189116460773192
 31
0.0
  0
LINE
  5
24C
330
2
100
AcDbEntity
  8
GAIKEI
  6
Continuous
 62
     1
100
AcDbLine
 10
-36.15336311984581
 20
-3.301616460728126
 30
0.0
 11
-36.04086311989076
 21
-3.301616460728126
 31
0.0
  0
LINE
  5
24D
330
2
100
AcDbEntity
  8
GAIKEI
  6
Continuous
 62
     1
100
AcDbLine
 10
-36.78488391959317
 20
31.7196652252633
 30
0.0
 11
-36.78488391959317
 21
-3.360398160704647
 31
0.0
  0
LINE
  5
24E
330
2
100
AcDbEntity
  8
GAIKEI
  6
Continuous
 62
     1
100
AcDbLine
 10
-36.58714481967226
 20
-3.558137260625557
 30
0.0
 11
22.7929185565757
 21
-3.558137260625557
 31
0.0
  0
LINE
  5
24F
330
2
100
AcDbEntity
  8
GAIKEI
  6
Continuous
 62
     1
100
AcDbLine
 10
-37.01171296950244
 20
31.94649427517257
 30
0.0
 11
-36.78488391959317
 21
31.7196652252633
 31
0.0
  0
LINE
  5
250
330
2
100
AcDbEntity
  8
GAIKEI
  6
Continuous
 62
     1
100
AcDbLine
 10
-36.58714481967226
 20
31.91740432518421
 30
0.0
 11
-36.81397386958153
 21
32.14423337509348
 31
0.0
  0
LINE
  5
251
330
2
100
AcDbEntity
  8
GAIKEI
  6
Continuous
 62
     1
100
AcDbLine
 10
-36.81397386958153
 20
-3.784966310534827
 30
0.0
 11
-36.58714481967226
 21
-3.558137260625557
 31
0.0
  0
LINE
  5
252
330
2
100
AcDbEntity
  8
GAIKEI
  6
Continuous
 62
     1
100
AcDbLine
 10
-36.78488391959317
 20
-3.360398160704647
 30
0.0
 11
-37.01171296950244
 21
-3.587227210613917
 31
0.0
  0
LINE
  5
253
330
2
100
AcDbEntity
  8
GAIKEI
  6
Continuous
 62
     1
100
AcDbLine
 10
-36.81397386958153
 20
32.14423337509348
 30
0.0
 11
23.01974760648503
 21
32.14423337509348
 31
0.0
  0
LINE
  5
254
330
2
100
AcDbEntity
  8
GAIKEI
  6
Continuous
 62
     1
100
AcDbLine
 10
-37.01171296950244
 20
-3.587227210613917
 30
0.0
 11
-37.01171296950244
 21
31.94649427517257
 31
0.0
  0
LINE
  5
255
330
2
100
AcDbEntity
  8
GAIKEI
  6
Continuous
 62
     1
100
AcDbLine
 10
23.01974760648503
 20
-3.784966310534827
 30
0.0
 11
-36.81397386958153
 21
-3.784966310534827
 31
0.0
  0
LINE
  5
256
330
2
100
AcDbEntity
  8
GAIKEI
  6
Continuous
 62
     1
100
AcDbLine
 10
-35.10716592026424
 20
30.35006232581114
 30
0.0
 11
21.31293965716773
 21
30.35006232581114
 31
0.0
  0
LINE
  5
257
330
2
100
AcDbEntity
  8
GAIKEI
  6
Continuous
 62
     1
100
AcDbLine
 10
-35.18004192023509
 20
-1.917919261281639
 30
0.0
 11
-35.18004192023509
 21
30.27718632584029
 31
0.0
  0
LINE
  5
258
330
2
100
AcDbEntity
  8
GAIKEI
  6
Continuous
 62
     1
100
AcDbLine
 10
21.31293965716773
 20
-1.990795261252486
 30
0.0
 11
-35.10716592026424
 21
-1.990795261252486
 31
0.0
  0
LINE
  5
259
330
2
100
AcDbEntity
  8
GAIKEI
  6
Continuous
 62
     1
100
AcDbLine
 10
-35.15920697024339
 20
30.32922737581956
 30
0.0
 11
-34.58798837047189
 21
29.758008776048
 31
0.0
  0
LINE
  5
25A
330
2
100
AcDbEntity
  8
GAIKEI
  6
Continuous
 62
     1
100
AcDbLine
 10
20.69081135741661
 20
29.79989757603121
 30
0.0
 11
-34.48503762051311
 21
29.79989757603121
 31
0.0
  0
LINE
  5
25B
330
2
100
AcDbEntity
  8
GAIKEI
  6
Continuous
 62
     1
100
AcDbLine
 10
-34.58798837047189
 20
-1.39874171148935
 30
0.0
 11
-35.15920697024339
 21
-1.969960311260791
 31
0.0
  0
LINE
  5
25C
330
2
100
AcDbEntity
  8
GAIKEI
  6
Continuous
 62
     1
100
AcDbLine
 10
-34.62987717045516
 20
29.65505802608916
 30
0.0
 11
-34.62987717045516
 21
-1.295790961530514
 31
0.0
  0
LINE
  5
25D
330
2
100
AcDbEntity
  8
GAIKEI
  6
Continuous
 62
     1
100
AcDbLine
 10
-34.48503762051311
 20
-1.440630511472562
 30
0.0
 11
20.69081135741661
 21
-1.440630511472562
 31
0.0
  0
LINE
  5
25E
330
2
100
AcDbEntity
  8
GAIKEI
  6
Continuous
 62
     1
100
AcDbLine
 10
-34.47035852051894
 20
29.73963352605532
 30
0.0
 11
20.67613225742244
 21
29.73963352605532
 31
0.0
  0
LINE
  5
25F
330
2
100
AcDbEntity
  8
GAIKEI
  6
Continuous
 62
     1
100
AcDbLine
 10
-34.56961312047926
 20
29.64037892609511
 30
0.0
 11
-34.56961312047926
 21
-1.281111861536345
 31
0.0
  0
LINE
  5
260
330
2
100
AcDbEntity
  8
GAIKEI
  6
Continuous
 62
     1
100
AcDbLine
 10
-34.47035852051894
 20
-1.380366461496663
 30
0.0
 11
20.67613225742244
 21
-1.380366461496663
 31
0.0
  0
LINE
  5
261
330
2
100
AcDbEntity
  8
GAIKEI
  6
Continuous
 62
     1
100
AcDbLine
 10
-36.8119870695823
 20
32.14423337509348
 30
0.0
 11
-36.94738721952817
 21
32.27963352503937
 31
0.0
  0
LINE
  5
262
330
2
100
AcDbEntity
  8
GAIKEI
  6
Continuous
 62
     1
100
AcDbLine
 10
-37.14711311944828
 20
32.07990762511921
 30
0.0
 11
-37.01171296950244
 21
31.94450747517354
 31
0.0
  0
LINE
  5
263
330
2
100
AcDbEntity
  8
GAIKEI
  6
Continuous
 62
     1
100
AcDbLine
 10
-37.01171296950244
 20
-3.585240410614773
 30
0.0
 11
-37.14711311944828
 21
-3.720640560560553
 31
0.0
  0
LINE
  5
264
330
2
100
AcDbEntity
  8
GAIKEI
  6
Continuous
 62
     1
100
AcDbLine
 10
-36.94738721952817
 20
-3.920366460480607
 30
0.0
 11
-36.81198706958233
 21
-3.784966310534827
 31
0.0
  0
LINE
  5
265
330
2
100
AcDbEntity
  8
GAIKEI
  6
Continuous
100
AcDbLine
 10
-36.94738721952817
 20
32.27963352503937
 30
0.0
 11
23.15316095643166
 21
32.27963352503937
 31
0.0
  0
LINE
  5
266
330
2
100
AcDbEntity
  8
GAIKEI
  6
Continuous
100
AcDbLine
 10
-37.14711311944828
 20
32.07990762511921
 30
0.0
 11
-37.14711311944828
 21
-3.720640560560553
 31
0.0
  0
LINE
  5
267
330
2
100
AcDbEntity
  8
GAIKEI
  6
Continuous
100
AcDbLine
 10
-36.94738721952817
 20
-3.920366460480607
 30
0.0
 11
23.15316095643166
 21
-3.920366460480607
 31
0.0
  0
ELLIPSE
  5
268
330
2
100
AcDbEntity
  8
GAIKEI
  6
Continuous
 62
     1
100
AcDbEllipse
 10
-35.1132692202618
 20
30.28328962583774
 30
0.0
 11
-0.159535404709199
 21
0.1595354047089534
 31
0.0
210
0.0
220
0.0
230
1.0
 40
0.9972649999999998
 41
5.499156671651721
 42
7.067213942705842
  0
ELLIPSE
  5
269
330
2
100
AcDbEntity
  8
GAIKEI
  6
Continuous
 62
     1
100
AcDbEllipse
 10
-35.1132692202618
 20
-1.924022561279315
 30
0.0
 11
-0.1595354047091879
 21
-0.1595354047089651
 31
0.0
210
0.0
220
0.0
230
1.0
 40
0.9972649999999999
 41
5.499156671653361
 42
7.067213942707414
  0
ELLIPSE
  5
26A
330
2
100
AcDbEntity
  8
GAIKEI
  6
Continuous
 62
     1
100
AcDbEllipse
 10
-34.23220862061422
 20
-3.395270960690794
 30
0.0
 11
-0.0178124651901289
 21
0.0178124651901336
 31
0.0
210
0.0
220
0.0
230
1.0
 40
0.9924329999999997
 41
2.359992588465599
 42
3.923192718713108
  0
ELLIPSE
  5
26B
330
2
100
AcDbEntity
  8
GAIKEI
  6
Continuous
 62
     1
100
AcDbEllipse
 10
-34.23220862061422
 20
-3.095461960810638
 30
0.0
 11
-0.0178124651901247
 21
-0.017812465190138
 31
0.0
210
0.0
220
0.0
230
1.0
 40
0.9924329999999999
 41
2.359992588465041
 42
3.923192718713587
  0
ELLIPSE
  5
26C
330
2
100
AcDbEntity
  8
GAIKEI
  6
Continuous
 62
     1
100
AcDbEllipse
 10
-34.53201762049431
 20
-3.095461960810752
 30
0.0
 11
-0.0178124651901339
 21
0.0178124651901291
 31
0.0
210
0.0
220
0.0
230
1.0
 40
0.9924329999999999
 41
5.501585242053079
 42
7.064785372305734
  0
ELLIPSE
  5
26D
330
2
100
AcDbEntity
  8
GAIKEI
  6
Continuous
 62
     1
100
AcDbEllipse
 10
-34.53201762049431
 20
-3.395270960690794
 30
0.0
 11
-0.0178124651901381
 21
-0.0178124651901247
 31
0.0
210
0.0
220
0.0
230
1.0
 40
0.9924329999999999
 41
5.501585242054793
 42
7.064785372306292
  0
ELLIPSE
  5
26E
330
2
100
AcDbEntity
  8
GAIKEI
  6
Continuous
 62
     1
100
AcDbEllipse
 10
-36.22563266981686
 20
31.35815307540795
 30
0.0
 11
-0.5021965241687404
 21
0.5021965241687347
 31
0.0
210
0.0
220
0.0
230
1.0
 40
0.49281
 41
5.87222130213647
 42
6.694149312222702
  0
ELLIPSE
  5
26F
330
2
100
AcDbEntity
  8
GAIKEI
  6
Continuous
 62
     1
100
AcDbEllipse
 10
-36.22563266981681
 20
-2.998886010849304
 30
0.0
 11
-0.5021965241687356
 21
-0.502196524168813
 31
0.0
210
0.0
220
0.0
230
1.0
 40
0.49281
 41
5.872221302136444
 42
6.694149312222707
  0
ELLIPSE
  5
270
330
2
100
AcDbEntity
  8
GAIKEI
  6
Continuous
 62
     1
100
AcDbEllipse
 10
-35.10727812026417
 20
30.27527732584102
 30
0.0
 11
-0.0740370952919559
 21
-0.0126634681883976
 31
0.0
210
0.0
220
0.0
230
1.0
 40
0.9955150000000001
 41
4.54223752580752
 42
5.307209071653165
  0
ELLIPSE
  5
271
330
2
100
AcDbEntity
  8
GAIKEI
  6
Continuous
 62
     1
100
AcDbEllipse
 10
-35.10525692026496
 20
-1.918031461281628
 30
0.0
 11
-0.0126634681884195
 21
0.0740370952919524
 31
0.0
210
0.0
220
0.0
230
1.0
 40
0.9955149999999999
 41
1.400644872217396
 42
2.165616418062327
  0
ELLIPSE
  5
272
330
2
100
AcDbEntity
  8
GAIKEI
  6
Continuous
 62
     1
100
AcDbEllipse
 10
-35.10525692026496
 20
30.27729852584017
 30
0.0
 11
-0.012663468188404
 21
-0.0740370952919547
 31
0.0
210
0.0
220
0.0
230
1.0
 40
0.9955149999999997
 41
4.117568889119865
 42
4.882540434962009
  0
ELLIPSE
  5
273
330
2
100
AcDbEntity
  8
GAIKEI
  6
Continuous
 62
     1
100
AcDbEllipse
 10
-35.10727812026417
 20
-1.91601026128248
 30
0.0
 11
-0.0740370952919559
 21
0.0126634681883972
 31
0.0
210
0.0
220
0.0
230
1.0
 40
0.9955149999999999
 41
0.9759762355291181
 42
1.740947781372067
  0
ELLIPSE
  5
274
330
2
100
AcDbEntity
  8
GAIKEI
  6
Continuous
 62
     1
100
AcDbEllipse
 10
-34.48127282051465
 20
29.64725082609223
 30
0.0
 11
-0.0866320186582728
 21
0.1272290693382462
 31
0.0
210
0.0
220
0.0
230
1.0
 40
0.9735809999999998
 41
5.69777769105948
 42
6.456692423303279
  0
ELLIPSE
  5
275
330
2
100
AcDbEntity
  8
GAIKEI
  6
Continuous
 62
     1
100
AcDbEllipse
 10
-34.47723042051624
 20
-1.292026161532106
 30
0.0
 11
-0.1272290693381955
 21
-0.0866320186583462
 31
0.0
210
0.0
220
0.0
230
1.0
 40
0.9735809999999997
 41
5.697777691058886
 42
6.456692423302397
  0
ELLIPSE
  5
276
330
2
100
AcDbEntity
  8
GAIKEI
  6
Continuous
 62
     1
100
AcDbEllipse
 10
-34.47723042051624
 20
29.65129322609064
 30
0.0
 11
-0.1272290693382015
 21
0.0866320186583368
 31
0.0
210
0.0
220
0.0
230
1.0
 40
0.9735809999999998
 41
6.109678191058712
 42
6.868592923300215
  0
ELLIPSE
  5
277
330
2
100
AcDbEntity
  8
GAIKEI
  6
Continuous
 62
     1
100
AcDbEllipse
 10
-34.48127282051459
 20
-1.287983761533695
 30
0.0
 11
-0.0866320186582643
 21
-0.127229069338253
 31
0.0
210
0.0
220
0.0
230
1.0
 40
0.973581
 41
6.10967819105908
 42
6.868592923299293
  0
ELLIPSE
  5
278
330
2
100
AcDbEntity
  8
GAIKEI
  6
Continuous
 62
     1
100
AcDbEllipse
 10
-34.46886212051956
 20
29.63888252609562
 30
0.0
 11
-0.0717687987905402
 21
0.0717687987905878
 31
0.0
210
0.0
220
0.0
230
1.0
 40
0.9852570000000001
 41
5.505213485255321
 42
7.061157129105444
  0
ELLIPSE
  5
279
330
2
100
AcDbEntity
  8
GAIKEI
  6
Continuous
 62
     1
100
AcDbEllipse
 10
-34.46886212051956
 20
-1.279615461536963
 30
0.0
 11
-0.0717687987905345
 21
-0.071768798790594
 31
0.0
210
0.0
220
0.0
230
1.0
 40
0.985257
 41
5.505213485254125
 42
7.061157129104256
  0
ELLIPSE
  5
27A
330
2
100
AcDbEntity
  8
GAIKEI
  6
Continuous
100
AcDbEllipse
 10
-36.94683866952838
 20
32.07935907511936
 30
0.0
 11
-0.1418092486302778
 21
0.1418092486303013
 31
0.0
210
0.0
220
0.0
230
1.0
 40
0.9972649999999999
 41
5.499156671652713
 42
7.067213942706739
  0
ELLIPSE
  5
27B
330
2
100
AcDbEntity
  8
GAIKEI
  6
Continuous
100
AcDbEllipse
 10
-36.94683866952838
 20
-3.720092010560819
 30
0.0
 11
-0.1418092486302894
 21
-0.1418092486302897
 31
0.0
210
0.0
220
0.0
230
1.0
 40
0.9972649999999999
 41
5.499156671652512
 42
7.067213942706579
  0
TEXT
  5
27C
330
2
100
AcDbEntity
  8
MOJI1
100
AcDbText
 10
-19.86435674217068
 20
-23.19785950016501
 30
0.0
 40
3.0
  1
４６０Ｗ
100
AcDbText
  0
TEXT
  5
27D
330
2
100
AcDbEntity
  8
MOJI1
100
AcDbText
 10
-19.86435674217068
 20
-28.19785950016501
 30
0.0
 40
3.0
  1
５０型（１２６８ｃｍ）１６：９
100
AcDbText
  0
TEXT
  5
27E
330
2
100
AcDbEntity
  8
MOJI1
100
AcDbText
 10
-19.86435674217068
 20
-38.19785950016501
 30
0.0
 40
3.0
  1
５００００００：１
100
AcDbText
  0
LINE
  5
27F
330
2
100
AcDbEntity
  8
WAKU
 62
     1
100
AcDbLine
 10
-61.36435674217068
 20
-24.19785950016501
 30
0.0
 11
63.63564325782909
 21
-24.19785950016501
 31
0.0
  0
LINE
  5
281
330
2
100
AcDbEntity
  8
WAKU
 62
     1
100
AcDbLine
 10
-61.36435674217068
 20
-34.19785950016501
 30
0.0
 11
63.63564325782909
 21
-34.19785950016501
 31
0.0
  0
LINE
  5
282
330
2
100
AcDbEntity
  8
WAKU
 62
     4
100
AcDbLine
 10
-61.36435674217068
 20
-14.19785950016501
 30
0.0
 11
63.63564325782909
 21
-14.19785950016501
 31
0.0
  0
LINE
  5
283
330
2
100
AcDbEntity
  8
WAKU
 62
     1
100
AcDbLine
 10
-61.36435674217068
 20
-19.19785950016501
 30
0.0
 11
63.63564325782909
 21
-19.19785950016501
 31
0.0
  0
LINE
  5
284
330
2
100
AcDbEntity
  8
WAKU
 62
     1
100
AcDbLine
 10
-61.36435674217068
 20
-29.19785950016501
 30
0.0
 11
63.63564325782909
 21
-29.19785950016501
 31
0.0
  0
LINE
  5
285
330
2
100
AcDbEntity
  8
WAKU
 62
     1
100
AcDbLine
 10
-61.36435674217068
 20
-39.19785950016501
 30
0.0
 11
63.63564325782909
 21
-39.19785950016501
 31
0.0
  0
LINE
  5
286
330
2
100
AcDbEntity
  8
WAKU
 62
     1
100
AcDbLine
 10
-61.36435674217068
 20
-44.19785950016501
 30
0.0
 11
63.63564325782909
 21
-44.19785950016501
 31
0.0
  0
LINE
  5
287
330
2
100
AcDbEntity
  8
WAKU
 62
     4
100
AcDbLine
 10
63.63564325782909
 20
-59.19785950016501
 30
0.0
 11
-61.36435674217068
 21
-59.19785950016501
 31
0.0
  0
TEXT
  5
288
330
2
100
AcDbEntity
  8
MOJI1
100
AcDbText
 10
-19.86435674217068
 20
-33.19785950016501
 30
0.0
 40
3.0
  1
１９２０×１０８０画素
100
AcDbText
  0
TEXT
  5
289
330
2
100
AcDbEntity
  8
MOJI1
100
AcDbText
 10
-19.86435674217068
 20
-43.19785950016501
 30
0.0
 40
3.0
  1
ＲＣＡ×２(左右)
100
AcDbText
  0
TEXT
  5
28A
330
2
100
AcDbEntity
  8
MOJI1
100
AcDbText
 10
-19.86435674217068
 20
-18.19785950016501
 30
0.0
 40
3.0
  1
ＡＣ１００Ｖ　５０Ｈｚ／６０Ｈｚ
100
AcDbText
  0
TEXT
  5
28B
330
2
100
AcDbEntity
  8
MOJI1
100
AcDbText
 10
-19.86435674217068
 20
-48.19785950016501
 30
0.0
 40
3.0
  1
ビデオ入力、ＲＧＢ／コンポーネントビデオ入力、ＨＤＭＩ入力
 41
0.7800000000000001
100
AcDbText
  0
LINE
  5
28C
330
2
100
AcDbEntity
  8
WAKU
 62
     4
100
AcDbLine
 10
-21.36435674217091
 20
-14.19785950016501
 30
0.0
 11
-21.36435674217091
 21
-59.19785950016501
 31
0.0
  0
LINE
  5
28D
330
2
100
AcDbEntity
  8
WAKU
 62
     4
100
AcDbLine
 10
-61.36435674217091
 20
-14.19785950016501
 30
0.0
 11
-61.36435674217068
 21
-59.19785950016501
 31
0.0
  0
TEXT
  5
28E
330
2
100
AcDbEntity
  8
MOJI1
100
AcDbText
 10
-58.86435674217068
 20
-28.19785950016501
 30
0.0
 40
3.0
  1
画面サイズ
100
AcDbText
  0
TEXT
  5
28F
330
2
100
AcDbEntity
  8
MOJI1
100
AcDbText
 10
-58.86435674217068
 20
-38.19785950016501
 30
0.0
 40
3.0
  1
コントラスト
100
AcDbText
  0
TEXT
  5
290
330
2
100
AcDbEntity
  8
MOJI1
100
AcDbText
 10
-58.86435674217068
 20
-43.19785950016501
 30
0.0
 40
3.0
  1
音声出力
100
AcDbText
  0
TEXT
  5
291
330
2
100
AcDbEntity
  8
MOJI1
100
AcDbText
 10
-58.86435674217068
 20
-23.19785950016501
 30
0.0
 40
3.0
  1
消費電力
100
AcDbText
  0
TEXT
  5
292
330
2
100
AcDbEntity
  8
MOJI1
100
AcDbText
 10
-58.86435674217068
 20
-18.19785950016501
 30
0.0
 40
3.0
  1
電  源
100
AcDbText
  0
TEXT
  5
293
330
2
100
AcDbEntity
  8
MOJI1
100
AcDbText
 10
-58.86435674217068
 20
-33.19785950016501
 30
0.0
 40
3.0
  1
画素数
100
AcDbText
  0
LINE
  5
294
330
2
100
AcDbEntity
  8
WAKU
 62
     4
100
AcDbLine
 10
63.63564325782909
 20
-14.19785950016501
 30
0.0
 11
63.63564325782909
 21
-59.19785950016501
 31
0.0
  0
TEXT
  5
295
330
2
100
AcDbEntity
  8
MOJI1
100
AcDbText
 10
-19.86435674217068
 20
-53.19785950016501
 30
0.0
 40
3.0
  1
ＤＶＩ入力、ＰＣ入力、ＬＡＮ、ＲＳ２３２Ｃ、スロット２．０
 41
0.7900000000000001
100
AcDbText
  0
LINE
  5
296
330
2
100
AcDbEntity
  8
WAKU
 62
     1
100
AcDbLine
 10
-61.36435674217068
 20
-49.19785950016501
 30
0.0
 11
63.63564325782909
 21
-49.19785950016501
 31
0.0
  0
TEXT
  5
297
330
2
100
AcDbEntity
  8
MOJI1
100
AcDbText
 10
-58.86435674217068
 20
-48.19785950016501
 30
0.0
 40
3.0
  1
入出力端子
100
AcDbText
  0
LINE
  5
298
330
2
100
AcDbEntity
  8
WAKU
 62
     1
100
AcDbLine
 10
-61.36435674217068
 20
-54.19785950016501
 30
0.0
 11
63.63564325782909
 21
-54.19785950016501
 31
0.0
  0
TEXT
  5
299
330
2
100
AcDbEntity
  8
MOJI1
100
AcDbText
 10
-19.86435674217068
 20
-58.19785950016501
 30
0.0
 40
3.0
  1
約３１．０ ｋｇ
100
AcDbText
  0
TEXT
  5
29A
330
2
100
AcDbEntity
  8
MOJI1
100
AcDbText
 10
-58.86435674217068
 20
-58.19785950016501
 30
0.0
 40
3.0
  1
質　量
100
AcDbText
  0
MTEXT
  5
29B
330
2
100
AcDbEntity
  8
SUNPO
100
AcDbMText
 10
57.54967745232424
 20
42.02165723082887
 30
0.0
 40
2.5
 41
0.0
 71
     5
 72
     1
  1
20
 73
     1
 44
1.0
1001
ACAD
1000
MTEXTBEGIN
1070
    73
1070
     1
1070
    44
1040
1.0
1070
    74
1070
     0
1000
MTEXTEND
  0
INSERT
  5
29C
330
2
100
AcDbEntity
  8
SUNPO
100
AcDbBlockReference
  2
_OPEN30
 10
48.46634411899093
 20
40.27165723082887
 30
0.0
 41
2.0
 42
2.0
 43
2.0
 50
180.0
  0
LINE
  5
29D
330
2
100
AcDbEntity
  8
SUNPO
100
AcDbLine
 10
47.49134411908868
 20
40.27165723082887
 30
0.0
 11
48.46634411899093
 21
40.27165723082887
 31
0.0
  0
LINE
  5
29E
330
2
100
AcDbEntity
  8
SUNPO
100
AcDbLine
 10
50.46634411899093
 20
40.27165723082887
 30
0.0
 11
62.63301078565762
 21
40.27165723082887
 31
0.0
  0
LINE
  5
29F
330
2
100
AcDbEntity
  8
SUNPO
100
AcDbLine
 10
45.49134411908868
 20
40.27165723082887
 30
0.0
 11
43.49134411908868
 21
40.27165723082887
 31
0.0
  0
LINE
  5
2A0
330
2
100
AcDbEntity
  8
SUNPO
100
AcDbLine
 10
48.46634411899093
 20
34.27818973538794
 30
0.0
 11
48.46634411899093
 21
42.27165723082888
 31
0.0
  0
LINE
  5
2A1
330
2
100
AcDbEntity
  8
SUNPO
100
AcDbLine
 10
47.49134411908868
 20
34.27818973538794
 30
0.0
 11
47.49134411908868
 21
42.27165723082888
 31
0.0
  0
CIRCLE
  5
2A2
330
2
100
AcDbEntity
  8
SUNPO
100
AcDbCircle
 10
47.49134411908868
 20
40.27165723082887
 30
0.0
 40
0.2429999999756999
  0
LINE
  5
2A3
330
2
100
AcDbEntity
  8
SUNPO
100
AcDbLine
 10
47.24924840449442
 20
40.25071290072989
 30
0.0
 11
47.73343983368294
 21
40.25071290072989
 31
0.0
  0
LINE
  5
2A4
330
2
100
AcDbEntity
  8
SUNPO
100
AcDbLine
 10
47.24953774048382
 20
40.29571290072541
 30
0.0
 11
47.73315049769358
 21
40.29571290072541
 31
0.0
  0
LINE
  5
2A5
330
2
100
AcDbEntity
  8
SUNPO
100
AcDbLine
 10
47.35939608545957
 20
40.47571290070735
 30
0.0
 11
47.62329215271789
 21
40.47571290070735
 31
0.0
  0
LINE
  5
2A6
330
2
100
AcDbEntity
  8
SUNPO
100
AcDbLine
 10
47.30763158857915
 20
40.43071290071188
 30
0.0
 11
47.67505664959831
 21
40.43071290071188
 31
0.0
  0
LINE
  5
2A7
330
2
100
AcDbEntity
  8
SUNPO
100
AcDbLine
 10
47.27677407422065
 20
40.38571290071646
 30
0.0
 11
47.70591416395681
 21
40.38571290071646
 31
0.0
  0
LINE
  5
2A8
330
2
100
AcDbEntity
  8
SUNPO
100
AcDbLine
 10
47.25836275836648
 20
40.34071290072088
 30
0.0
 11
47.72432547981087
 21
40.34071290072088
 31
0.0
  0
LINE
  5
2A9
330
2
100
AcDbEntity
  8
SUNPO
100
AcDbLine
 10
47.25746306958579
 20
40.20571290073442
 30
0.0
 11
47.72522516859168
 21
40.20571290073442
 31
0.0
  0
LINE
  5
2AA
330
2
100
AcDbEntity
  8
SUNPO
100
AcDbLine
 10
47.27514893965802
 20
40.1607129007389
 30
0.0
 11
47.70753929851944
 21
40.1607129007389
 31
0.0
  0
LINE
  5
2AB
330
2
100
AcDbEntity
  8
SUNPO
100
AcDbLine
 10
47.30498327045789
 20
40.11571290074337
 30
0.0
 11
47.67770496771946
 21
40.11571290074337
 31
0.0
  0
LINE
  5
2AC
330
2
100
AcDbEntity
  8
SUNPO
100
AcDbLine
 10
47.35470453406115
 20
40.07071290074796
 30
0.0
 11
47.62798370411632
 21
40.07071290074796
 31
0.0
  0
MTEXT
  5
2AD
330
2
100
AcDbEntity
  8
SUNPO
100
AcDbMText
 10
36.45801078575538
 20
42.02165723082887
 30
0.0
 40
2.5
 41
0.0
 71
     5
 72
     1
  1
\A1;89
 73
     1
 44
1.0
1001
ACAD
1000
MTEXTBEGIN
1070
    73
1070
     1
1070
    44
1040
1.0
1070
    74
1070
     0
1000
MTEXTEND
  0
INSERT
  5
2AE
330
2
100
AcDbEntity
  8
SUNPO
100
AcDbBlockReference
  2
_OPEN30
 10
43.04134411908869
 20
40.27165723082887
 30
0.0
 41
2.0
 42
2.0
 43
2.0
  0
LINE
  5
2AF
330
2
100
AcDbEntity
  8
SUNPO
100
AcDbLine
 10
47.49134411908868
 20
40.27165723082887
 30
0.0
 11
43.04134411908869
 21
40.27165723082887
 31
0.0
  0
LINE
  5
2B0
330
2
100
AcDbEntity
  8
SUNPO
100
AcDbLine
 10
41.04134411908868
 20
40.27165723082887
 30
0.0
 11
33.87467745242201
 21
40.27165723082887
 31
0.0
  0
LINE
  5
2B1
330
2
100
AcDbEntity
  8
SUNPO
100
AcDbLine
 10
49.49134411908868
 20
40.27165723082887
 30
0.0
 11
51.49134411908868
 21
40.27165723082887
 31
0.0
  0
LINE
  5
2B2
330
2
100
AcDbEntity
  8
SUNPO
100
AcDbLine
 10
43.04134411908869
 20
34.27818973538794
 30
0.0
 11
43.04134411908869
 21
42.27165723082888
 31
0.0
  0
LINE
  5
2B3
330
2
100
AcDbEntity
  8
SUNPO
100
AcDbLine
 10
47.49134411908868
 20
34.27818973538794
 30
0.0
 11
47.49134411908868
 21
42.27165723082888
 31
0.0
  0
DIMENSION
  5
2B4
330
2
100
AcDbEntity
  8
SUNPO
100
AcDbDimension
  2
*D10
 10
-45.29602425076143
 20
32.27194367518021
 30
0.0
 11
-47.04602425076144
 21
38.10527700851354
 31
0.0
 70
    33
  1
133
 71
     5
 42
6.64615506783042
  3
STANDARD
100
AcDbAlignedDimension
 13
-37.29602425076143
 23
25.62578860734979
 33
0.0
 14
-37.29602425076143
 24
32.27194367518021
 34
0.0
1001
ACAD
1000
DSTYLE
1002
{
1070
    40
1040
1.0
1070
   140
1040
2.5
1070
   147
1040
0.5
1070
   172
1070
     1
1070
   279
1070
     0
1070
   288
1070
     0
1002
}
  0
DIMENSION
  5
2C2
330
2
100
AcDbEntity
  8
SUNPO
100
AcDbDimension
  2
*D9
 10
-45.29602425076143
 20
-3.920366460480605
 30
0.0
 11
-47.04602425076143
 21
-9.753699793813945
 31
0.0
 70
    33
  1
106
 71
     5
 42
5.296155067830454
  3
STANDARD
100
AcDbAlignedDimension
 13
-37.29602425076143
 23
1.375788607349846
 33
0.0
 14
-37.29602425076143
 24
-3.920366460480607
 34
0.0
1001
ACAD
1000
DSTYLE
1002
{
1070
    40
1040
1.0
1070
   140
1040
2.5
1070
   147
1040
0.5
1070
   172
1070
     1
1070
   279
1070
     0
1070
   288
1070
     0
1002
}
  0
DIMENSION
  5
2D0
330
2
100
AcDbEntity
  8
SUNPO
100
AcDbDimension
  2
*D8
 10
-45.29602425076143
 20
1.375788607349849
 30
0.0
 11
-47.04602425076143
 21
13.5007886073498
 31
0.0
 70
    33
  1
485
 71
     5
 42
24.24999999999992
  3
STANDARD
100
AcDbAlignedDimension
 13
-37.29602425076143
 23
25.62578860734976
 33
0.0
 14
-37.29602425076143
 24
1.375788607349846
 34
0.0
1001
ACAD
1000
DSTYLE
1002
{
1070
    40
1040
1.0
1070
   140
1040
2.5
1070
   147
1040
0.5
1070
   172
1070
     1
1070
   279
1070
     0
1070
   288
1070
     0
1002
}
  0
DIMENSION
  5
2DD
330
2
100
AcDbEntity
  8
SUNPO
100
AcDbDimension
  2
*D7
 10
6.852886868451732
 20
-11.98952737113703
 30
0.0
 11
-6.897113131548266
 21
-10.23952737113703
 31
0.0
 70
    33
  1
550
 71
     5
 42
27.5
  3
STANDARD
100
AcDbAlignedDimension
 13
-20.64711313154827
 23
-3.989527371137057
 33
0.0
 14
6.852886868451733
 24
-3.989527371137029
 34
0.0
1001
ACAD
1000
DSTYLE
1002
{
1070
    40
1040
1.0
1070
   140
1040
2.5
1070
   147
1040
0.5
1070
   172
1070
     1
1070
   279
1070
     0
1070
   288
1070
     0
1002
}
  0
LINE
  5
2EA
330
2
100
AcDbEntity
  8
S1
  6
HIDDEN2
 62
     3
100
AcDbLine
 10
4.077886868451756
 20
23.37578860734979
 30
0.0
 11
4.077886868451756
 21
23.47578860734978
 31
0.0
  0
LINE
  5
2EC
330
2
100
AcDbEntity
  8
S1
  6
HIDDEN2
 62
     3
100
AcDbLine
 10
-17.87211313154829
 20
23.37578860734979
 30
0.0
 11
-17.87211313154829
 21
23.47578860734978
 31
0.0
  0
LINE
  5
2ED
330
2
100
AcDbEntity
  8
S1
  6
HIDDEN2
 62
     3
100
AcDbLine
 10
6.352886868451733
 20
23.37578860734979
 30
0.0
 11
6.352886868451733
 21
23.47578860734978
 31
0.0
  0
LINE
  5
2EE
330
2
100
AcDbEntity
  8
S1
  6
HIDDEN2
 62
     3
100
AcDbLine
 10
2.12788686845171
 20
23.37578860734979
 30
0.0
 11
2.12788686845171
 21
23.47578860734978
 31
0.0
  0
LINE
  5
2EF
330
2
100
AcDbEntity
  8
S1
  6
HIDDEN2
 62
     3
100
AcDbLine
 10
6.102886868451733
 20
24.57578860734978
 30
0.0
 11
4.102886868451733
 21
24.57578860734978
 31
0.0
  0
LINE
  5
2F0
330
2
100
AcDbEntity
  8
S1
  6
HIDDEN2
 62
     3
100
AcDbLine
 10
6.102886868451733
 20
24.9257886073498
 30
0.0
 11
4.102886868451733
 21
24.9257886073498
 31
0.0
  0
ARC
  5
2F1
330
2
100
AcDbEntity
  8
S1
  6
HIDDEN2
 62
     3
100
AcDbCircle
 10
6.102886868451733
 20
24.75078860734979
 30
0.0
 40
0.175
100
AcDbArc
 50
270.0
 51
90.0
  0
ARC
  5
2F2
330
2
100
AcDbEntity
  8
S1
  6
HIDDEN2
 62
     3
100
AcDbCircle
 10
4.102886868451733
 20
24.75078860734979
 30
0.0
 40
0.175
100
AcDbArc
 50
90.0
 51
270.0
  0
LINE
  5
2F3
330
2
100
AcDbEntity
  8
S1
  6
HIDDEN2
 62
     3
100
AcDbLine
 10
4.652886868451687
 20
24.32578860734978
 30
0.0
 11
4.652886868451687
 21
23.9257886073498
 31
0.0
  0
LINE
  5
2F4
330
2
100
AcDbEntity
  8
S1
  6
HIDDEN2
 62
     3
100
AcDbLine
 10
5.452886868451756
 20
24.32578860734978
 30
0.0
 11
5.452886868451756
 21
23.9257886073498
 31
0.0
  0
LINE
  5
2F5
330
2
100
AcDbEntity
  8
S1
  6
HIDDEN2
 62
     3
100
AcDbLine
 10
6.852886868451733
 20
24.12578860734979
 30
0.0
 11
5.452886868451756
 21
24.12578860734979
 31
0.0
  0
LINE
  5
2F6
330
2
100
AcDbEntity
  8
S1
  6
HIDDEN2
 62
     3
100
AcDbLine
 10
6.852886868451733
 20
24.22578860734978
 30
0.0
 11
5.452886868451756
 21
24.22578860734978
 31
0.0
  0
LINE
  5
2F7
330
2
100
AcDbEntity
  8
S1
  6
HIDDEN2
 62
     3
100
AcDbLine
 10
5.452886868451756
 20
23.9257886073498
 30
0.0
 11
4.652886868451687
 21
23.9257886073498
 31
0.0
  0
LINE
  5
2F8
330
2
100
AcDbEntity
  8
S1
  6
HIDDEN2
 62
     3
100
AcDbLine
 10
5.452886868451756
 20
24.32578860734978
 30
0.0
 11
4.652886868451687
 21
24.32578860734978
 31
0.0
  0
LINE
  5
2F9
330
2
100
AcDbEntity
  8
S1
  6
HIDDEN2
 62
     3
100
AcDbLine
 10
1.62788686845171
 20
23.47578860734978
 30
0.0
 11
1.62788686845171
 21
23.37578860734979
 31
0.0
  0
LINE
  5
2FA
330
2
100
AcDbEntity
  8
S1
  6
HIDDEN2
 62
     3
100
AcDbLine
 10
1.927886868451722
 20
23.47578860734978
 30
0.0
 11
1.927886868451722
 21
23.37578860734979
 31
0.0
  0
LINE
  5
2FB
330
2
100
AcDbEntity
  8
S1
  6
HIDDEN2
 62
     3
100
AcDbLine
 10
4.277886868451687
 20
23.47578860734978
 30
0.0
 11
4.277886868451687
 21
23.37578860734979
 31
0.0
  0
LINE
  5
2FC
330
2
100
AcDbEntity
  8
S1
  6
HIDDEN2
 62
     3
100
AcDbLine
 10
4.577886868451756
 20
23.47578860734978
 30
0.0
 11
4.577886868451756
 21
23.37578860734979
 31
0.0
  0
LINE
  5
2FD
330
2
100
AcDbEntity
  8
S1
  6
HIDDEN2
 62
     3
100
AcDbLine
 10
0.7528868684517108
 20
24.32578860734978
 30
0.0
 11
0.7528868684517108
 21
23.9257886073498
 31
0.0
  0
LINE
  5
2FE
330
2
100
AcDbEntity
  8
S1
  6
HIDDEN2
 62
     3
100
AcDbLine
 10
1.552886868451722
 20
24.32578860734978
 30
0.0
 11
1.552886868451722
 21
23.9257886073498
 31
0.0
  0
LINE
  5
2FF
330
2
100
AcDbEntity
  8
S1
  6
HIDDEN2
 62
     3
100
AcDbLine
 10
0.7528868684517108
 20
23.9257886073498
 30
0.0
 11
1.552886868451722
 21
23.9257886073498
 31
0.0
  0
LINE
  5
300
330
2
100
AcDbEntity
  8
S1
  6
HIDDEN2
 62
     3
100
AcDbLine
 10
0.7528868684517108
 20
24.32578860734978
 30
0.0
 11
1.552886868451722
 21
24.32578860734978
 31
0.0
  0
LINE
  5
301
330
2
100
AcDbEntity
  8
S1
  6
HIDDEN2
 62
     3
100
AcDbLine
 10
1.552886868451722
 20
24.22578860734978
 30
0.0
 11
4.652886868451687
 21
24.22578860734978
 31
0.0
  0
LINE
  5
302
330
2
100
AcDbEntity
  8
S1
  6
HIDDEN2
 62
     3
100
AcDbLine
 10
1.552886868451722
 20
24.12578860734979
 30
0.0
 11
4.652886868451687
 21
24.12578860734979
 31
0.0
  0
LINE
  5
303
330
2
100
AcDbEntity
  8
S1
  6
HIDDEN2
 62
     3
100
AcDbLine
 10
6.852886868451733
 20
23.37578860734979
 30
0.0
 11
6.852886868451733
 21
25.62578860734979
 31
0.0
  0
LINE
  5
304
330
2
100
AcDbEntity
  8
S1
  6
HIDDEN2
 62
     3
100
AcDbLine
 10
-6.566545431548306
 20
24.12578860734979
 30
0.0
 11
0.7528868684517108
 21
24.12578860734979
 31
0.0
  0
LINE
  5
305
330
2
100
AcDbEntity
  8
S1
  6
HIDDEN2
 62
     3
100
AcDbLine
 10
-6.547113131548243
 20
24.22578860734978
 30
0.0
 11
0.7528868684517108
 21
24.22578860734978
 31
0.0
  0
LINE
  5
306
330
2
100
AcDbEntity
  8
S1
  6
HIDDEN2
 62
     3
100
AcDbLine
 10
-6.897113131548266
 20
25.5257886073498
 30
0.0
 11
6.852886868451733
 21
25.5257886073498
 31
0.0
  0
LINE
  5
307
330
2
100
AcDbEntity
  8
S1
  6
HIDDEN2
 62
     3
100
AcDbLine
 10
-6.897113131548266
 20
23.47578860734978
 30
0.0
 11
6.852886868451733
 21
23.47578860734978
 31
0.0
  0
LINE
  5
308
330
2
100
AcDbEntity
  8
S1
  6
HIDDEN2
 62
     3
100
AcDbLine
 10
-6.897113131548266
 20
23.37578860734979
 30
0.0
 11
6.852886868451733
 21
23.37578860734979
 31
0.0
  0
LINE
  5
309
330
2
100
AcDbEntity
  8
S1
  6
HIDDEN2
 62
     3
100
AcDbLine
 10
-6.897113131548266
 20
25.62578860734979
 30
0.0
 11
6.852886868451733
 21
25.62578860734979
 31
0.0
  0
LINE
  5
30A
330
2
100
AcDbEntity
  8
S1
  6
HIDDEN2
 62
     3
100
AcDbLine
 10
-20.64711313154827
 20
23.37578860734979
 30
0.0
 11
-20.64711313154827
 21
25.62578860734979
 31
0.0
  0
LINE
  5
30B
330
2
100
AcDbEntity
  8
S1
  6
HIDDEN2
 62
     3
100
AcDbLine
 10
-14.54711313154824
 20
24.32578860734978
 30
0.0
 11
-15.34711313154831
 21
24.32578860734978
 31
0.0
  0
LINE
  5
30C
330
2
100
AcDbEntity
  8
S1
  6
HIDDEN2
 62
     3
100
AcDbLine
 10
-14.54711313154824
 20
23.9257886073498
 30
0.0
 11
-15.34711313154831
 21
23.9257886073498
 31
0.0
  0
LINE
  5
30D
330
2
100
AcDbEntity
  8
S1
  6
HIDDEN2
 62
     3
100
AcDbLine
 10
-15.34711313154831
 20
24.32578860734978
 30
0.0
 11
-15.34711313154831
 21
23.9257886073498
 31
0.0
  0
LINE
  5
30E
330
2
100
AcDbEntity
  8
S1
  6
HIDDEN2
 62
     3
100
AcDbLine
 10
-14.54711313154824
 20
24.32578860734978
 30
0.0
 11
-14.54711313154824
 21
23.9257886073498
 31
0.0
  0
LINE
  5
30F
330
2
100
AcDbEntity
  8
S1
  6
HIDDEN2
 62
     3
100
AcDbLine
 10
-18.37211313154829
 20
23.47578860734978
 30
0.0
 11
-18.37211313154829
 21
23.37578860734979
 31
0.0
  0
LINE
  5
310
330
2
100
AcDbEntity
  8
S1
  6
HIDDEN2
 62
     3
100
AcDbLine
 10
-18.07211313154828
 20
23.47578860734978
 30
0.0
 11
-18.07211313154828
 21
23.37578860734979
 31
0.0
  0
LINE
  5
311
330
2
100
AcDbEntity
  8
S1
  6
HIDDEN2
 62
     3
100
AcDbLine
 10
-15.72211313154831
 20
23.47578860734978
 30
0.0
 11
-15.72211313154831
 21
23.37578860734979
 31
0.0
  0
LINE
  5
312
330
2
100
AcDbEntity
  8
S1
  6
HIDDEN2
 62
     3
100
AcDbLine
 10
-15.42211313154824
 20
23.47578860734978
 30
0.0
 11
-15.42211313154824
 21
23.37578860734979
 31
0.0
  0
LINE
  5
313
330
2
100
AcDbEntity
  8
S1
  6
HIDDEN2
 62
     3
100
AcDbLine
 10
-19.24711313154829
 20
24.32578860734978
 30
0.0
 11
-18.44711313154828
 21
24.32578860734978
 31
0.0
  0
LINE
  5
314
330
2
100
AcDbEntity
  8
S1
  6
HIDDEN2
 62
     3
100
AcDbLine
 10
-19.24711313154829
 20
23.9257886073498
 30
0.0
 11
-18.44711313154828
 21
23.9257886073498
 31
0.0
  0
LINE
  5
315
330
2
100
AcDbEntity
  8
S1
  6
HIDDEN2
 62
     3
100
AcDbLine
 10
-20.64711313154827
 20
24.22578860734978
 30
0.0
 11
-19.24711313154829
 21
24.22578860734978
 31
0.0
  0
LINE
  5
316
330
2
100
AcDbEntity
  8
S1
  6
HIDDEN2
 62
     3
100
AcDbLine
 10
-20.64711313154827
 20
24.12578860734979
 30
0.0
 11
-19.24711313154829
 21
24.12578860734979
 31
0.0
  0
LINE
  5
317
330
2
100
AcDbEntity
  8
S1
  6
HIDDEN2
 62
     3
100
AcDbLine
 10
-19.24711313154829
 20
24.32578860734978
 30
0.0
 11
-19.24711313154829
 21
23.9257886073498
 31
0.0
  0
LINE
  5
318
330
2
100
AcDbEntity
  8
S1
  6
HIDDEN2
 62
     3
100
AcDbLine
 10
-18.44711313154828
 20
24.32578860734978
 30
0.0
 11
-18.44711313154828
 21
23.9257886073498
 31
0.0
  0
LINE
  5
319
330
2
100
AcDbEntity
  8
S1
  6
HIDDEN2
 62
     3
100
AcDbLine
 10
-18.44711313154828
 20
24.12578860734979
 30
0.0
 11
-15.34711313154831
 21
24.12578860734979
 31
0.0
  0
LINE
  5
31A
330
2
100
AcDbEntity
  8
S1
  6
HIDDEN2
 62
     3
100
AcDbLine
 10
-18.44711313154828
 20
24.22578860734978
 30
0.0
 11
-15.34711313154831
 21
24.22578860734978
 31
0.0
  0
LINE
  5
31B
330
2
100
AcDbEntity
  8
S1
  6
HIDDEN2
 62
     3
100
AcDbLine
 10
-7.227680831548283
 20
24.12578860734979
 30
0.0
 11
-14.54711313154824
 21
24.12578860734979
 31
0.0
  0
LINE
  5
31C
330
2
100
AcDbEntity
  8
S1
  6
HIDDEN2
 62
     3
100
AcDbLine
 10
-7.247113131548289
 20
24.22578860734978
 30
0.0
 11
-14.54711313154824
 21
24.22578860734978
 31
0.0
  0
LINE
  5
31D
330
2
100
AcDbEntity
  8
S1
  6
HIDDEN2
 62
     3
100
AcDbLine
 10
-6.897113131548266
 20
25.5257886073498
 30
0.0
 11
-20.64711313154827
 21
25.5257886073498
 31
0.0
  0
ARC
  5
31E
330
2
100
AcDbEntity
  8
S1
  6
HIDDEN2
 62
     3
100
AcDbCircle
 10
-17.89711313154827
 20
24.75078860734979
 30
0.0
 40
0.175
100
AcDbArc
 50
270.0
 51
90.0
  0
ARC
  5
31F
330
2
100
AcDbEntity
  8
S1
  6
HIDDEN2
 62
     3
100
AcDbCircle
 10
-19.89711313154827
 20
24.75078860734979
 30
0.0
 40
0.175
100
AcDbArc
 50
90.0
 51
270.0
  0
LINE
  5
320
330
2
100
AcDbEntity
  8
S1
  6
HIDDEN2
 62
     3
100
AcDbLine
 10
-19.89711313154827
 20
24.9257886073498
 30
0.0
 11
-17.89711313154827
 21
24.9257886073498
 31
0.0
  0
LINE
  5
321
330
2
100
AcDbEntity
  8
S1
  6
HIDDEN2
 62
     3
100
AcDbLine
 10
-19.89711313154827
 20
24.57578860734978
 30
0.0
 11
-17.89711313154827
 21
24.57578860734978
 31
0.0
  0
ARC
  5
322
330
2
100
AcDbEntity
  8
S1
  6
HIDDEN2
 62
     3
100
AcDbCircle
 10
-7.122113131548289
 20
24.57150750734982
 30
0.0
 40
0.05
100
AcDbArc
 50
304.2288660000121
 51
0.0
  0
ARC
  5
323
330
2
100
AcDbEntity
  8
S1
  6
HIDDEN2
 62
     3
100
AcDbCircle
 10
-6.672113131548243
 20
24.57150750734982
 30
0.0
 40
0.05
100
AcDbArc
 50
180.0
 51
235.7711339999879
  0
LINE
  5
324
330
2
100
AcDbEntity
  8
S1
  6
HIDDEN2
 62
     3
100
AcDbLine
 10
-6.897113131548266
 20
23.47578860734978
 30
0.0
 11
-20.64711313154827
 21
23.47578860734978
 31
0.0
  0
ARC
  5
325
330
2
100
AcDbEntity
  8
S1
  6
HIDDEN2
 62
     3
100
AcDbCircle
 10
-6.897113131548266
 20
24.2407886073498
 30
0.0
 40
0.35
100
AcDbArc
 50
124.2288660000121
 51
55.77113399998792
  0
LINE
  5
326
330
2
100
AcDbEntity
  8
S1
  6
HIDDEN2
 62
     3
100
AcDbLine
 10
-6.897113131548266
 20
23.37578860734979
 30
0.0
 11
-20.64711313154827
 21
23.37578860734979
 31
0.0
  0
LINE
  5
327
330
2
100
AcDbEntity
  8
S1
  6
HIDDEN2
 62
     3
100
AcDbLine
 10
-6.897113131548266
 20
25.62578860734979
 30
0.0
 11
-20.64711313154827
 21
25.62578860734979
 31
0.0
  0
LINE
  5
328
330
2
100
AcDbEntity
  8
S1
  6
HIDDEN2
 62
     3
100
AcDbLine
 10
-6.722113131548312
 20
24.57150750734982
 30
0.0
 11
-6.722113131548312
 21
24.75078860734979
 31
0.0
  0
ARC
  5
329
330
2
100
AcDbEntity
  8
S1
  6
HIDDEN2
 62
     3
100
AcDbCircle
 10
-6.147113131548266
 20
24.75078860734979
 30
0.0
 40
0.175
100
AcDbArc
 50
90.0
 51
270.0
  0
LINE
  5
32A
330
2
100
AcDbEntity
  8
S1
  6
HIDDEN2
 62
     3
100
AcDbLine
 10
-6.147113131548266
 20
24.9257886073498
 30
0.0
 11
-4.147113131548266
 21
24.9257886073498
 31
0.0
  0
LINE
  5
32B
330
2
100
AcDbEntity
  8
S1
  6
HIDDEN2
 62
     3
100
AcDbLine
 10
-6.147113131548266
 20
24.57578860734978
 30
0.0
 11
-4.147113131548266
 21
24.57578860734978
 31
0.0
  0
ARC
  5
32C
330
2
100
AcDbEntity
  8
S1
  6
HIDDEN2
 62
     3
100
AcDbCircle
 10
-4.147113131548266
 20
24.75078860734979
 30
0.0
 40
0.175
100
AcDbArc
 50
270.0
 51
90.0
  0
LINE
  5
32D
330
2
100
AcDbEntity
  8
S1
  6
HIDDEN2
 62
     3
100
AcDbLine
 10
-7.072113131548277
 20
24.57150750734982
 30
0.0
 11
-7.072113131548277
 21
24.75078860734979
 31
0.0
  0
ARC
  5
32E
330
2
100
AcDbEntity
  8
S1
  6
HIDDEN2
 62
     3
100
AcDbCircle
 10
-7.647113131548266
 20
24.75078860734979
 30
0.0
 40
0.175
100
AcDbArc
 50
270.0
 51
90.0
  0
LINE
  5
32F
330
2
100
AcDbEntity
  8
S1
  6
HIDDEN2
 62
     3
100
AcDbLine
 10
-7.647113131548266
 20
24.9257886073498
 30
0.0
 11
-9.647113131548266
 21
24.9257886073498
 31
0.0
  0
LINE
  5
330
330
2
100
AcDbEntity
  8
S1
  6
HIDDEN2
 62
     3
100
AcDbLine
 10
-7.647113131548266
 20
24.57578860734978
 30
0.0
 11
-9.647113131548266
 21
24.57578860734978
 31
0.0
  0
ARC
  5
331
330
2
100
AcDbEntity
  8
S1
  6
HIDDEN2
 62
     3
100
AcDbCircle
 10
-9.647113131548266
 20
24.75078860734979
 30
0.0
 40
0.175
100
AcDbArc
 50
90.0
 51
270.0
  0
ARC
  5
332
330
2
100
AcDbEntity
  8
S1
  6
HIDDEN2
 62
     3
100
AcDbCircle
 10
-6.897113131548266
 20
24.75078860734979
 30
0.0
 40
0.175
100
AcDbArc
 50
0.0
 51
180.0
  0
LINE
  5
333
330
2
100
AcDbEntity
  8
S1
  6
HIDDEN2
 62
     3
100
AcDbLine
 10
-15.92211313154824
 20
23.37578860734979
 30
0.0
 11
-15.92211313154824
 21
23.47578860734978
 31
0.0
  0
LINE
  5
334
330
2
100
AcDbEntity
  8
S1
  6
HIDDEN2
 62
     3
100
AcDbLine
 10
-20.14711313154827
 20
23.37578860734979
 30
0.0
 11
-20.14711313154827
 21
23.47578860734978
 31
0.0
  0
LINE
  5
335
330
2
100
AcDbEntity
  8
S1
  6
HIDDEN2
 62
     3
100
AcDbLine
 10
-12.32211313154828
 20
23.37578860734979
 30
0.0
 11
-12.32211313154828
 21
23.47578860734978
 31
0.0
  0
LINE
  5
336
330
2
100
AcDbEntity
  8
S1
  6
HIDDEN2
 62
     3
100
AcDbLine
 10
-0.847113131548312
 20
23.37578860734979
 30
0.0
 11
-0.847113131548312
 21
23.47578860734978
 31
0.0
  0
ARC
  5
337
330
2
100
AcDbEntity
  8
S1
  6
HIDDEN2
 62
     3
100
AcDbCircle
 10
3.00288686845171
 20
7.675788607349801
 30
0.0
 40
0.65
100
AcDbArc
 50
180.0
 51
235.2885059999925
  0
ARC
  5
338
330
2
100
AcDbEntity
  8
S1
  6
HIDDEN2
 62
     3
100
AcDbCircle
 10
3.715386868451687
 20
6.935961757349787
 30
0.0
 40
0.25
100
AcDbArc
 50
124.7114940000075
 51
180.0
  0
ARC
  5
339
330
2
100
AcDbEntity
  8
S1
  6
HIDDEN2
 62
     3
100
AcDbCircle
 10
2.490386868451722
 20
6.935961757349787
 30
0.0
 40
0.25
100
AcDbArc
 50
0.0
 51
55.28850599999251
  0
LINE
  5
33A
330
2
100
AcDbEntity
  8
S1
  6
HIDDEN2
 62
     3
100
AcDbLine
 10
3.652886868451687
 20
8.50078860734979
 30
0.0
 11
2.552886868451722
 21
8.50078860734979
 31
0.0
  0
LINE
  5
33B
330
2
100
AcDbEntity
  8
S1
  6
HIDDEN2
 62
     3
100
AcDbLine
 10
3.852886868451733
 20
7.675788607349801
 30
0.0
 11
3.852886868451733
 21
8.580788607349802
 31
0.0
  0
LINE
  5
33C
330
2
100
AcDbEntity
  8
S1
  6
HIDDEN2
 62
     3
100
AcDbLine
 10
3.652886868451687
 20
8.580788607349802
 30
0.0
 11
2.552886868451722
 21
8.580788607349802
 31
0.0
  0
ARC
  5
33D
330
2
100
AcDbEntity
  8
S1
  6
HIDDEN2
 62
     3
100
AcDbCircle
 10
3.202886868451756
 20
7.675788607349801
 30
0.0
 40
0.65
100
AcDbArc
 50
304.7114940000075
 51
0.0
  0
LINE
  5
33E
330
2
100
AcDbEntity
  8
S1
  6
HIDDEN2
 62
     3
100
AcDbLine
 10
2.352886868451733
 20
7.675788607349801
 30
0.0
 11
2.352886868451733
 21
8.580788607349802
 31
0.0
  0
LINE
  5
33F
330
2
100
AcDbEntity
  8
S1
  6
HIDDEN2
 62
     3
100
AcDbLine
 10
4.852886868451733
 20
23.45078860734978
 30
0.0
 11
4.852886868451733
 21
3.550788607349801
 31
0.0
  0
LINE
  5
340
330
2
100
AcDbEntity
  8
S1
  6
HIDDEN2
 62
     3
100
AcDbLine
 10
4.747886868451715
 20
23.37578860734979
 30
0.0
 11
1.457886868451751
 21
23.37578860734979
 31
0.0
  0
LINE
  5
341
330
2
100
AcDbEntity
  8
S1
  6
HIDDEN2
 62
     3
100
AcDbLine
 10
4.747886868451715
 20
3.62578860734979
 30
0.0
 11
1.457886868451751
 21
3.62578860734979
 31
0.0
  0
LINE
  5
342
330
2
100
AcDbEntity
  8
S1
  6
HIDDEN2
 62
     3
100
AcDbLine
 10
4.077752018451704
 20
23.29578860734978
 30
0.0
 11
3.87788686845171
 21
23.29578860734978
 31
0.0
  0
LINE
  5
343
330
2
100
AcDbEntity
  8
S1
  6
HIDDEN2
 62
     3
100
AcDbLine
 10
4.772886868451692
 20
23.37578860734979
 30
0.0
 11
4.772886868451692
 21
23.21578860734979
 31
0.0
  0
LINE
  5
344
330
2
100
AcDbEntity
  8
S1
  6
HIDDEN2
 62
     3
100
AcDbLine
 10
4.852886868451733
 20
23.21578860734979
 30
0.0
 11
4.747886868451715
 21
23.21578860734979
 31
0.0
  0
LINE
  5
345
330
2
100
AcDbEntity
  8
S1
  6
HIDDEN2
 62
     3
100
AcDbLine
 10
4.772886868451692
 20
23.37578860734979
 30
0.0
 11
4.852886868451733
 21
23.37578860734979
 31
0.0
  0
LINE
  5
346
330
2
100
AcDbEntity
  8
S1
  6
HIDDEN2
 62
     3
100
AcDbLine
 10
4.667886868451731
 20
23.29578860734978
 30
0.0
 11
4.667886868451731
 21
23.37578860734979
 31
0.0
  0
LINE
  5
347
330
2
100
AcDbEntity
  8
S1
  6
HIDDEN2
 62
     3
100
AcDbLine
 10
4.667886868451731
 20
23.29578860734978
 30
0.0
 11
4.747886868451715
 21
23.29578860734978
 31
0.0
  0
LINE
  5
348
330
2
100
AcDbEntity
  8
S1
  6
HIDDEN2
 62
     3
100
AcDbLine
 10
4.772886868451692
 20
3.62578860734979
 30
0.0
 11
4.772886868451692
 21
3.785788607349786
 31
0.0
  0
LINE
  5
349
330
2
100
AcDbEntity
  8
S1
  6
HIDDEN2
 62
     3
100
AcDbLine
 10
4.852886868451733
 20
3.785788607349786
 30
0.0
 11
4.747886868451715
 21
3.785788607349786
 31
0.0
  0
LINE
  5
34A
330
2
100
AcDbEntity
  8
S1
  6
HIDDEN2
 62
     3
100
AcDbLine
 10
4.772886868451692
 20
3.62578860734979
 30
0.0
 11
4.852886868451733
 21
3.62578860734979
 31
0.0
  0
LINE
  5
34B
330
2
100
AcDbEntity
  8
S1
  6
HIDDEN2
 62
     3
100
AcDbLine
 10
4.667886868451731
 20
3.705788607349802
 30
0.0
 11
4.667886868451731
 21
3.62578860734979
 31
0.0
  0
LINE
  5
34C
330
2
100
AcDbEntity
  8
S1
  6
HIDDEN2
 62
     3
100
AcDbLine
 10
4.667886868451731
 20
3.705788607349802
 30
0.0
 11
4.747886868451715
 21
3.705788607349802
 31
0.0
  0
LINE
  5
34D
330
2
100
AcDbEntity
  8
S1
  6
HIDDEN2
 62
     3
100
AcDbLine
 10
4.747886868451715
 20
23.37578860734979
 30
0.0
 11
4.747886868451715
 21
23.29578860734978
 31
0.0
  0
LINE
  5
34E
330
2
100
AcDbEntity
  8
S1
  6
HIDDEN2
 62
     3
100
AcDbLine
 10
4.747886868451715
 20
3.62578860734979
 30
0.0
 11
4.747886868451715
 21
3.705788607349802
 31
0.0
  0
LINE
  5
34F
330
2
100
AcDbEntity
  8
S1
  6
HIDDEN2
 62
     3
100
AcDbLine
 10
4.677886868451722
 20
24.25078860734979
 30
0.0
 11
4.677886868451722
 21
23.60078860734978
 31
0.0
  0
LINE
  5
350
330
2
100
AcDbEntity
  8
S1
  6
HIDDEN2
 62
     3
100
AcDbLine
 10
5.427886868451722
 20
24.25078860734979
 30
0.0
 11
4.677886868451722
 21
24.25078860734979
 31
0.0
  0
LINE
  5
351
330
2
100
AcDbEntity
  8
S1
  6
HIDDEN2
 62
     3
100
AcDbLine
 10
5.427886868451722
 20
24.17078860734978
 30
0.0
 11
4.677886868451722
 21
24.17078860734978
 31
0.0
  0
LINE
  5
352
330
2
100
AcDbEntity
  8
S1
  6
HIDDEN2
 62
     3
100
AcDbLine
 10
5.327886868451756
 20
23.97078860734976
 30
0.0
 11
4.777886868451687
 21
23.97078860734976
 31
0.0
  0
ARC
  5
353
330
2
100
AcDbEntity
  8
S1
  6
HIDDEN2
 62
     3
100
AcDbCircle
 10
4.777886868451687
 20
24.07078860734979
 30
0.0
 40
0.1
100
AcDbArc
 50
180.0
 51
270.0
  0
ARC
  5
354
330
2
100
AcDbEntity
  8
S1
  6
HIDDEN2
 62
     3
100
AcDbCircle
 10
5.327886868451756
 20
24.07078860734979
 30
0.0
 40
0.1
100
AcDbArc
 50
270.0
 51
0.0
  0
LINE
  5
355
330
2
100
AcDbEntity
  8
S1
  6
HIDDEN2
 62
     3
100
AcDbLine
 10
4.772886868451692
 20
3.785788607349786
 30
0.0
 11
4.772886868451692
 21
23.21578860734979
 31
0.0
  0
LINE
  5
356
330
2
100
AcDbEntity
  8
S1
  6
HIDDEN2
 62
     3
100
AcDbLine
 10
4.667886868451731
 20
3.705788607349802
 30
0.0
 11
1.537886868451735
 21
3.705788607349802
 31
0.0
  0
LINE
  5
357
330
2
100
AcDbEntity
  8
S1
  6
HIDDEN2
 62
     3
100
AcDbLine
 10
2.128021718451705
 20
23.29578860734978
 30
0.0
 11
1.537886868451735
 21
23.29578860734978
 31
0.0
  0
LINE
  5
358
330
2
100
AcDbEntity
  8
S1
  6
HIDDEN2
 62
     3
100
AcDbLine
 10
4.077752018451704
 20
23.29578860734978
 30
0.0
 11
4.667886868451731
 21
23.29578860734978
 31
0.0
  0
LINE
  5
359
330
2
100
AcDbEntity
  8
S1
  6
HIDDEN2
 62
     3
100
AcDbLine
 10
5.427886868451722
 20
24.25078860734979
 30
0.0
 11
5.427886868451722
 21
2.75078860734979
 31
0.0
  0
ARC
  5
35A
330
2
100
AcDbEntity
  8
S1
  6
HIDDEN2
 62
     3
100
AcDbCircle
 10
4.75288686845171
 20
23.60078860734978
 30
0.0
 40
0.075
100
AcDbArc
 50
180.0
 51
270.0
  0
LINE
  5
35B
330
2
100
AcDbEntity
  8
S1
  6
HIDDEN2
 62
     3
100
AcDbLine
 10
1.537886868451735
 20
3.705788607349802
 30
0.0
 11
1.457886868451751
 21
3.705788607349802
 31
0.0
  0
LINE
  5
35C
330
2
100
AcDbEntity
  8
S1
  6
HIDDEN2
 62
     3
100
AcDbLine
 10
1.457886868451751
 20
3.62578860734979
 30
0.0
 11
1.457886868451751
 21
3.705788607349802
 31
0.0
  0
LINE
  5
35D
330
2
100
AcDbEntity
  8
S1
  6
HIDDEN2
 62
     3
100
AcDbLine
 10
1.432886868451717
 20
3.62578860734979
 30
0.0
 11
1.352886868451733
 21
3.62578860734979
 31
0.0
  0
LINE
  5
35E
330
2
100
AcDbEntity
  8
S1
  6
HIDDEN2
 62
     3
100
AcDbLine
 10
1.352886868451733
 20
3.785788607349786
 30
0.0
 11
1.457886868451751
 21
3.785788607349786
 31
0.0
  0
LINE
  5
35F
330
2
100
AcDbEntity
  8
S1
  6
HIDDEN2
 62
     3
100
AcDbLine
 10
1.432886868451717
 20
3.62578860734979
 30
0.0
 11
1.432886868451717
 21
3.785788607349786
 31
0.0
  0
LINE
  5
360
330
2
100
AcDbEntity
  8
S1
  6
HIDDEN2
 62
     3
100
AcDbLine
 10
1.537886868451735
 20
3.705788607349802
 30
0.0
 11
1.537886868451735
 21
3.62578860734979
 31
0.0
  0
LINE
  5
361
330
2
100
AcDbEntity
  8
S1
  6
HIDDEN2
 62
     3
100
AcDbLine
 10
4.227886868451733
 20
23.29578860734978
 30
0.0
 11
4.227886868451733
 21
23.19578860734978
 31
0.0
  0
LINE
  5
362
330
2
100
AcDbEntity
  8
S1
  6
HIDDEN2
 62
     3
100
AcDbLine
 10
4.62788686845171
 20
23.29578860734978
 30
0.0
 11
4.62788686845171
 21
23.19578860734978
 31
0.0
  0
LINE
  5
363
330
2
100
AcDbEntity
  8
S1
  6
HIDDEN2
 62
     3
100
AcDbLine
 10
4.327886868451756
 20
23.29578860734978
 30
0.0
 11
4.327886868451756
 21
23.19578860734978
 31
0.0
  0
LINE
  5
364
330
2
100
AcDbEntity
  8
S1
  6
HIDDEN2
 62
     3
100
AcDbLine
 10
4.527886868451687
 20
23.29578860734978
 30
0.0
 11
4.527886868451687
 21
23.19578860734978
 31
0.0
  0
LINE
  5
365
330
2
100
AcDbEntity
  8
S1
  6
HIDDEN2
 62
     3
100
AcDbLine
 10
4.62788686845171
 20
23.19578860734978
 30
0.0
 11
4.227886868451733
 21
23.19578860734978
 31
0.0
  0
ARC
  5
366
330
2
100
AcDbEntity
  8
S1
  6
HIDDEN2
 62
     3
100
AcDbCircle
 10
4.607886868451728
 20
23.29578860734978
 30
0.0
 40
0.08
100
AcDbArc
 50
90.0
 51
180.0
  0
ARC
  5
367
330
2
100
AcDbEntity
  8
S1
  6
HIDDEN2
 62
     3
100
AcDbCircle
 10
4.247886868451715
 20
23.29578860734978
 30
0.0
 40
0.08
100
AcDbArc
 50
0.0
 51
90.0
  0
LINE
  5
368
330
2
100
AcDbEntity
  8
S1
  6
HIDDEN2
 62
     3
100
AcDbLine
 10
1.352886868451733
 20
23.45078860734978
 30
0.0
 11
1.352886868451733
 21
3.550788607349801
 31
0.0
  0
LINE
  5
369
330
2
100
AcDbEntity
  8
S1
  6
HIDDEN2
 62
     3
100
AcDbLine
 10
0.777886868451688
 20
24.25078860734979
 30
0.0
 11
0.777886868451688
 21
2.75078860734979
 31
0.0
  0
ARC
  5
36A
330
2
100
AcDbEntity
  8
S1
  6
HIDDEN2
 62
     3
100
AcDbCircle
 10
1.452886868451756
 20
23.60078860734978
 30
0.0
 40
0.075
100
AcDbArc
 50
270.0
 51
0.0
  0
ARC
  5
36B
330
2
100
AcDbEntity
  8
S1
  6
HIDDEN2
 62
     3
100
AcDbCircle
 10
0.8778868684517107
 20
24.07078860734979
 30
0.0
 40
0.1
100
AcDbArc
 50
180.0
 51
270.0
  0
ARC
  5
36C
330
2
100
AcDbEntity
  8
S1
  6
HIDDEN2
 62
     3
100
AcDbCircle
 10
1.427886868451722
 20
24.07078860734979
 30
0.0
 40
0.1
100
AcDbArc
 50
270.0
 51
0.0
  0
LINE
  5
36D
330
2
100
AcDbEntity
  8
S1
  6
HIDDEN2
 62
     3
100
AcDbLine
 10
0.8778868684517107
 20
23.97078860734976
 30
0.0
 11
1.427886868451722
 21
23.97078860734976
 31
0.0
  0
LINE
  5
36E
330
2
100
AcDbEntity
  8
S1
  6
HIDDEN2
 62
     3
100
AcDbLine
 10
0.777886868451688
 20
24.17078860734978
 30
0.0
 11
1.527886868451687
 21
24.17078860734978
 31
0.0
  0
LINE
  5
36F
330
2
100
AcDbEntity
  8
S1
  6
HIDDEN2
 62
     3
100
AcDbLine
 10
0.777886868451688
 20
24.25078860734979
 30
0.0
 11
1.527886868451687
 21
24.25078860734979
 31
0.0
  0
LINE
  5
370
330
2
100
AcDbEntity
  8
S1
  6
HIDDEN2
 62
     3
100
AcDbLine
 10
1.527886868451687
 20
24.25078860734979
 30
0.0
 11
1.527886868451687
 21
23.60078860734978
 31
0.0
  0
LINE
  5
371
330
2
100
AcDbEntity
  8
S1
  6
HIDDEN2
 62
     3
100
AcDbLine
 10
1.432886868451717
 20
3.785788607349786
 30
0.0
 11
1.432886868451717
 21
23.21578860734979
 31
0.0
  0
ARC
  5
372
330
2
100
AcDbEntity
  8
S1
  6
HIDDEN2
 62
     3
100
AcDbCircle
 10
1.957886868451751
 20
23.29578860734978
 30
0.0
 40
0.08
100
AcDbArc
 50
90.0
 51
180.0
  0
ARC
  5
373
330
2
100
AcDbEntity
  8
S1
  6
HIDDEN2
 62
     3
100
AcDbCircle
 10
1.597886868451737
 20
23.29578860734978
 30
0.0
 40
0.08
100
AcDbArc
 50
0.0
 51
90.0
  0
LINE
  5
374
330
2
100
AcDbEntity
  8
S1
  6
HIDDEN2
 62
     3
100
AcDbLine
 10
1.577886868451756
 20
23.19578860734978
 30
0.0
 11
1.977886868451733
 21
23.19578860734978
 31
0.0
  0
LINE
  5
375
330
2
100
AcDbEntity
  8
S1
  6
HIDDEN2
 62
     3
100
AcDbLine
 10
1.677886868451722
 20
23.29578860734978
 30
0.0
 11
1.677886868451722
 21
23.19578860734978
 31
0.0
  0
LINE
  5
376
330
2
100
AcDbEntity
  8
S1
  6
HIDDEN2
 62
     3
100
AcDbLine
 10
1.87788686845171
 20
23.29578860734978
 30
0.0
 11
1.87788686845171
 21
23.19578860734978
 31
0.0
  0
LINE
  5
377
330
2
100
AcDbEntity
  8
S1
  6
HIDDEN2
 62
     3
100
AcDbLine
 10
1.577886868451756
 20
23.29578860734978
 30
0.0
 11
1.577886868451756
 21
23.19578860734978
 31
0.0
  0
LINE
  5
378
330
2
100
AcDbEntity
  8
S1
  6
HIDDEN2
 62
     3
100
AcDbLine
 10
1.977886868451733
 20
23.29578860734978
 30
0.0
 11
1.977886868451733
 21
23.19578860734978
 31
0.0
  0
LINE
  5
379
330
2
100
AcDbEntity
  8
S1
  6
HIDDEN2
 62
     3
100
AcDbLine
 10
1.457886868451751
 20
23.37578860734979
 30
0.0
 11
1.457886868451751
 21
23.29578860734978
 31
0.0
  0
LINE
  5
37A
330
2
100
AcDbEntity
  8
S1
  6
HIDDEN2
 62
     3
100
AcDbLine
 10
1.537886868451735
 20
23.29578860734978
 30
0.0
 11
1.457886868451751
 21
23.29578860734978
 31
0.0
  0
LINE
  5
37B
330
2
100
AcDbEntity
  8
S1
  6
HIDDEN2
 62
     3
100
AcDbLine
 10
1.537886868451735
 20
23.29578860734978
 30
0.0
 11
1.537886868451735
 21
23.37578860734979
 31
0.0
  0
LINE
  5
37C
330
2
100
AcDbEntity
  8
S1
  6
HIDDEN2
 62
     3
100
AcDbLine
 10
1.432886868451717
 20
23.37578860734979
 30
0.0
 11
1.352886868451733
 21
23.37578860734979
 31
0.0
  0
LINE
  5
37D
330
2
100
AcDbEntity
  8
S1
  6
HIDDEN2
 62
     3
100
AcDbLine
 10
1.352886868451733
 20
23.21578860734979
 30
0.0
 11
1.457886868451751
 21
23.21578860734979
 31
0.0
  0
LINE
  5
37E
330
2
100
AcDbEntity
  8
S1
  6
HIDDEN2
 62
     3
100
AcDbLine
 10
1.432886868451717
 20
23.37578860734979
 30
0.0
 11
1.432886868451717
 21
23.21578860734979
 31
0.0
  0
LINE
  5
37F
330
2
100
AcDbEntity
  8
S1
  6
HIDDEN2
 62
     3
100
AcDbLine
 10
1.527886868451687
 20
2.75078860734979
 30
0.0
 11
1.527886868451687
 21
3.400788607349795
 31
0.0
  0
LINE
  5
380
330
2
100
AcDbEntity
  8
S1
  6
HIDDEN2
 62
     3
100
AcDbLine
 10
0.777886868451688
 20
2.75078860734979
 30
0.0
 11
1.527886868451687
 21
2.75078860734979
 31
0.0
  0
LINE
  5
381
330
2
100
AcDbEntity
  8
S1
  6
HIDDEN2
 62
     3
100
AcDbLine
 10
0.777886868451688
 20
2.830788607349802
 30
0.0
 11
1.527886868451687
 21
2.830788607349802
 31
0.0
  0
LINE
  5
382
330
2
100
AcDbEntity
  8
S1
  6
HIDDEN2
 62
     3
100
AcDbLine
 10
0.8778868684517107
 20
3.030788607349819
 30
0.0
 11
1.427886868451722
 21
3.030788607349819
 31
0.0
  0
ARC
  5
383
330
2
100
AcDbEntity
  8
S1
  6
HIDDEN2
 62
     3
100
AcDbCircle
 10
1.427886868451722
 20
2.930788607349796
 30
0.0
 40
0.1
100
AcDbArc
 50
0.0
 51
90.0
  0
ARC
  5
384
330
2
100
AcDbEntity
  8
S1
  6
HIDDEN2
 62
     3
100
AcDbCircle
 10
0.8778868684517107
 20
2.930788607349796
 30
0.0
 40
0.1
100
AcDbArc
 50
90.0
 51
180.0
  0
ARC
  5
385
330
2
100
AcDbEntity
  8
S1
  6
HIDDEN2
 62
     3
100
AcDbCircle
 10
1.452886868451756
 20
3.400788607349795
 30
0.0
 40
0.075
100
AcDbArc
 50
0.0
 51
90.0
  0
ARC
  5
386
330
2
100
AcDbEntity
  8
S1
  6
HIDDEN2
 62
     3
100
AcDbCircle
 10
4.75288686845171
 20
3.400788607349795
 30
0.0
 40
0.075
100
AcDbArc
 50
90.0
 51
180.0
  0
ARC
  5
387
330
2
100
AcDbEntity
  8
S1
  6
HIDDEN2
 62
     3
100
AcDbCircle
 10
5.327886868451756
 20
2.930788607349796
 30
0.0
 40
0.1
100
AcDbArc
 50
0.0
 51
90.0
  0
ARC
  5
388
330
2
100
AcDbEntity
  8
S1
  6
HIDDEN2
 62
     3
100
AcDbCircle
 10
4.777886868451687
 20
2.930788607349796
 30
0.0
 40
0.1
100
AcDbArc
 50
90.0
 51
180.0
  0
LINE
  5
389
330
2
100
AcDbEntity
  8
S1
  6
HIDDEN2
 62
     3
100
AcDbLine
 10
5.327886868451756
 20
3.030788607349819
 30
0.0
 11
4.777886868451687
 21
3.030788607349819
 31
0.0
  0
LINE
  5
38A
330
2
100
AcDbEntity
  8
S1
  6
HIDDEN2
 62
     3
100
AcDbLine
 10
5.427886868451722
 20
2.830788607349802
 30
0.0
 11
4.677886868451722
 21
2.830788607349802
 31
0.0
  0
LINE
  5
38B
330
2
100
AcDbEntity
  8
S1
  6
HIDDEN2
 62
     3
100
AcDbLine
 10
5.427886868451722
 20
2.75078860734979
 30
0.0
 11
4.677886868451722
 21
2.75078860734979
 31
0.0
  0
LINE
  5
38C
330
2
100
AcDbEntity
  8
S1
  6
HIDDEN2
 62
     3
100
AcDbLine
 10
4.677886868451722
 20
2.75078860734979
 30
0.0
 11
4.677886868451722
 21
3.400788607349795
 31
0.0
  0
LINE
  5
38D
330
2
100
AcDbEntity
  8
S1
  6
HIDDEN2
 62
     3
100
AcDbLine
 10
1.577886868451756
 20
3.805788607349796
 30
0.0
 11
1.977886868451733
 21
3.805788607349796
 31
0.0
  0
LINE
  5
38E
330
2
100
AcDbEntity
  8
S1
  6
HIDDEN2
 62
     3
100
AcDbLine
 10
1.677886868451722
 20
3.705788607349802
 30
0.0
 11
1.677886868451722
 21
3.805788607349796
 31
0.0
  0
LINE
  5
38F
330
2
100
AcDbEntity
  8
S1
  6
HIDDEN2
 62
     3
100
AcDbLine
 10
1.87788686845171
 20
3.705788607349802
 30
0.0
 11
1.87788686845171
 21
3.805788607349796
 31
0.0
  0
LINE
  5
390
330
2
100
AcDbEntity
  8
S1
  6
HIDDEN2
 62
     3
100
AcDbLine
 10
1.977886868451733
 20
3.705788607349802
 30
0.0
 11
1.977886868451733
 21
3.805788607349796
 31
0.0
  0
ARC
  5
391
330
2
100
AcDbEntity
  8
S1
  6
HIDDEN2
 62
     3
100
AcDbCircle
 10
1.597886868451737
 20
3.705788607349802
 30
0.0
 40
0.08
100
AcDbArc
 50
270.0
 51
0.0
  0
ARC
  5
392
330
2
100
AcDbEntity
  8
S1
  6
HIDDEN2
 62
     3
100
AcDbCircle
 10
1.957886868451751
 20
3.705788607349802
 30
0.0
 40
0.08
100
AcDbArc
 50
180.0
 51
270.0
  0
LINE
  5
393
330
2
100
AcDbEntity
  8
S1
  6
HIDDEN2
 62
     3
100
AcDbLine
 10
4.227886868451733
 20
3.705788607349802
 30
0.0
 11
4.227886868451733
 21
3.805788607349796
 31
0.0
  0
LINE
  5
394
330
2
100
AcDbEntity
  8
S1
  6
HIDDEN2
 62
     3
100
AcDbLine
 10
4.327886868451756
 20
3.705788607349802
 30
0.0
 11
4.327886868451756
 21
3.805788607349796
 31
0.0
  0
LINE
  5
395
330
2
100
AcDbEntity
  8
S1
  6
HIDDEN2
 62
     3
100
AcDbLine
 10
4.527886868451687
 20
3.705788607349802
 30
0.0
 11
4.527886868451687
 21
3.805788607349796
 31
0.0
  0
LINE
  5
396
330
2
100
AcDbEntity
  8
S1
  6
HIDDEN2
 62
     3
100
AcDbLine
 10
4.62788686845171
 20
3.805788607349796
 30
0.0
 11
4.227886868451733
 21
3.805788607349796
 31
0.0
  0
ARC
  5
397
330
2
100
AcDbEntity
  8
S1
  6
HIDDEN2
 62
     3
100
AcDbCircle
 10
4.247886868451715
 20
3.705788607349802
 30
0.0
 40
0.08
100
AcDbArc
 50
270.0
 51
0.0
  0
ARC
  5
398
330
2
100
AcDbEntity
  8
S1
  6
HIDDEN2
 62
     3
100
AcDbCircle
 10
4.607886868451728
 20
3.705788607349802
 30
0.0
 40
0.08
100
AcDbArc
 50
180.0
 51
270.0
  0
LINE
  5
399
330
2
100
AcDbEntity
  8
S1
  6
HIDDEN2
 62
     3
100
AcDbLine
 10
1.577886868451756
 20
3.705788607349802
 30
0.0
 11
1.577886868451756
 21
3.805788607349796
 31
0.0
  0
LINE
  5
39A
330
2
100
AcDbEntity
  8
S1
  6
HIDDEN2
 62
     3
100
AcDbLine
 10
4.62788686845171
 20
3.705788607349802
 30
0.0
 11
4.62788686845171
 21
3.805788607349796
 31
0.0
  0
LINE
  5
39B
330
2
100
AcDbEntity
  8
S1
  6
HIDDEN2
 62
     3
100
AcDbLine
 10
4.75288686845171
 20
23.5257886073498
 30
0.0
 11
4.777886868451687
 21
23.5257886073498
 31
0.0
  0
ARC
  5
39C
330
2
100
AcDbEntity
  8
S1
  6
HIDDEN2
 62
     3
100
AcDbCircle
 10
4.777886868451687
 20
23.45078860734978
 30
0.0
 40
0.075
100
AcDbArc
 50
0.0
 51
90.0
  0
LINE
  5
39D
330
2
100
AcDbEntity
  8
S1
  6
HIDDEN2
 62
     3
100
AcDbLine
 10
1.452886868451756
 20
23.5257886073498
 30
0.0
 11
1.427886868451722
 21
23.5257886073498
 31
0.0
  0
ARC
  5
39E
330
2
100
AcDbEntity
  8
S1
  6
HIDDEN2
 62
     3
100
AcDbCircle
 10
1.427886868451722
 20
23.45078860734978
 30
0.0
 40
0.075
100
AcDbArc
 50
90.0
 51
180.0
  0
LINE
  5
39F
330
2
100
AcDbEntity
  8
S1
  6
HIDDEN2
 62
     3
100
AcDbLine
 10
1.452886868451756
 20
3.475788607349784
 30
0.0
 11
1.427886868451722
 21
3.475788607349784
 31
0.0
  0
ARC
  5
3A0
330
2
100
AcDbEntity
  8
S1
  6
HIDDEN2
 62
     3
100
AcDbCircle
 10
1.427886868451722
 20
3.550788607349801
 30
0.0
 40
0.075
100
AcDbArc
 50
180.0
 51
270.0
  0
LINE
  5
3A1
330
2
100
AcDbEntity
  8
S1
  6
HIDDEN2
 62
     3
100
AcDbLine
 10
4.75288686845171
 20
3.475788607349784
 30
0.0
 11
4.777886868451687
 21
3.475788607349784
 31
0.0
  0
ARC
  5
3A2
330
2
100
AcDbEntity
  8
S1
  6
HIDDEN2
 62
     3
100
AcDbCircle
 10
4.777886868451687
 20
3.550788607349801
 30
0.0
 40
0.075
100
AcDbArc
 50
270.0
 51
0.0
  0
LINE
  5
3A3
330
2
100
AcDbEntity
  8
S1
  6
HIDDEN2
 62
     3
100
AcDbLine
 10
3.465386868451687
 20
21.6757886073498
 30
0.0
 11
3.465386868451687
 21
22.6521947573498
 31
0.0
  0
ARC
  5
3A4
330
2
100
AcDbEntity
  8
S1
  6
HIDDEN2
 62
     3
100
AcDbCircle
 10
3.140386868451756
 20
21.6757886073498
 30
0.0
 40
0.325
100
AcDbArc
 50
270.0
 51
0.0
  0
LINE
  5
3A5
330
2
100
AcDbEntity
  8
S1
  6
HIDDEN2
 62
     3
100
AcDbLine
 10
2.740386868451722
 20
21.6757886073498
 30
0.0
 11
2.740386868451722
 21
22.6521947573498
 31
0.0
  0
LINE
  5
3A6
330
2
100
AcDbEntity
  8
S1
  6
HIDDEN2
 62
     3
100
AcDbLine
 10
3.140386868451756
 20
21.35078860734978
 30
0.0
 11
3.06538686845171
 21
21.35078860734978
 31
0.0
  0
ARC
  5
3A7
330
2
100
AcDbEntity
  8
S1
  6
HIDDEN2
 62
     3
100
AcDbCircle
 10
3.06538686845171
 20
21.6757886073498
 30
0.0
 40
0.325
100
AcDbArc
 50
180.0
 51
270.0
  0
LINE
  5
3A8
330
2
100
AcDbEntity
  8
S1
  6
HIDDEN2
 62
     3
100
AcDbLine
 10
3.140386868451756
 20
6.350788607349784
 30
0.0
 11
3.06538686845171
 21
6.350788607349784
 31
0.0
  0
ARC
  5
3A9
330
2
100
AcDbEntity
  8
S1
  6
HIDDEN2
 62
     3
100
AcDbCircle
 10
3.140386868451756
 20
6.675788607349801
 30
0.0
 40
0.325
100
AcDbArc
 50
270.0
 51
0.0
  0
ARC
  5
3AA
330
2
100
AcDbEntity
  8
S1
  6
HIDDEN2
 62
     3
100
AcDbCircle
 10
3.06538686845171
 20
6.675788607349801
 30
0.0
 40
0.325
100
AcDbArc
 50
180.0
 51
270.0
  0
LINE
  5
3AB
330
2
100
AcDbEntity
  8
S1
  6
HIDDEN2
 62
     3
100
AcDbLine
 10
2.740386868451722
 20
6.675788607349801
 30
0.0
 11
2.740386868451722
 21
6.935961757349787
 31
0.0
  0
LINE
  5
3AC
330
2
100
AcDbEntity
  8
S1
  6
HIDDEN2
 62
     3
100
AcDbLine
 10
3.465386868451687
 20
6.675788607349801
 30
0.0
 11
3.465386868451687
 21
6.935961757349787
 31
0.0
  0
LINE
  5
3AD
330
2
100
AcDbEntity
  8
S1
  6
HIDDEN2
 62
     3
100
AcDbLine
 10
3.727886868451733
 20
4.863288607349801
 30
0.0
 11
3.217713718451719
 21
4.863288607349801
 31
0.0
  0
LINE
  5
3AE
330
2
100
AcDbEntity
  8
S1
  6
HIDDEN2
 62
     3
100
AcDbLine
 10
3.727886868451733
 20
5.588288607349795
 30
0.0
 11
3.217713718451719
 21
5.588288607349795
 31
0.0
  0
LINE
  5
3AF
330
2
100
AcDbEntity
  8
S1
  6
HIDDEN2
 62
     3
100
AcDbLine
 10
4.052886868451722
 20
5.18828860734979
 30
0.0
 11
4.052886868451722
 21
5.263288607349778
 31
0.0
  0
ARC
  5
3B0
330
2
100
AcDbEntity
  8
S1
  6
HIDDEN2
 62
     3
100
AcDbCircle
 10
3.727886868451733
 20
5.263288607349778
 30
0.0
 40
0.325
100
AcDbArc
 50
0.0
 51
90.0
  0
ARC
  5
3B1
330
2
100
AcDbEntity
  8
S1
  6
HIDDEN2
 62
     3
100
AcDbCircle
 10
3.727886868451733
 20
5.18828860734979
 30
0.0
 40
0.325
100
AcDbArc
 50
270.0
 51
0.0
  0
LINE
  5
3B2
330
2
100
AcDbEntity
  8
S1
  6
HIDDEN2
 62
     3
100
AcDbLine
 10
3.652886868451687
 20
8.50078860734979
 30
0.0
 11
3.652886868451687
 21
8.580788607349802
 31
0.0
  0
LINE
  5
3B3
330
2
100
AcDbEntity
  8
S1
  6
HIDDEN2
 62
     3
100
AcDbLine
 10
2.552886868451722
 20
8.50078860734979
 30
0.0
 11
2.552886868451722
 21
8.580788607349802
 31
0.0
  0
LINE
  5
3B4
330
2
100
AcDbEntity
  8
S1
  6
HIDDEN2
 62
     3
100
AcDbLine
 10
1.902886868451687
 20
5.775788607349795
 30
0.0
 11
1.902886868451687
 21
4.675788607349801
 31
0.0
  0
LINE
  5
3B5
330
2
100
AcDbEntity
  8
S1
  6
HIDDEN2
 62
     3
100
AcDbLine
 10
1.82288686845176
 20
5.775788607349795
 30
0.0
 11
1.82288686845176
 21
4.675788607349801
 31
0.0
  0
LINE
  5
3B6
330
2
100
AcDbEntity
  8
S1
  6
HIDDEN2
 62
     3
100
AcDbLine
 10
1.902886868451687
 20
5.775788607349795
 30
0.0
 11
1.82288686845176
 21
5.775788607349795
 31
0.0
  0
LINE
  5
3B7
330
2
100
AcDbEntity
  8
S1
  6
HIDDEN2
 62
     3
100
AcDbLine
 10
1.902886868451687
 20
4.675788607349801
 30
0.0
 11
1.82288686845176
 21
4.675788607349801
 31
0.0
  0
LINE
  5
3B8
330
2
100
AcDbEntity
  8
S1
  6
HIDDEN2
 62
     3
100
AcDbLine
 10
2.477886868451733
 20
4.475788607349784
 30
0.0
 11
1.82288686845176
 21
4.475788607349784
 31
0.0
  0
LINE
  5
3B9
330
2
100
AcDbEntity
  8
S1
  6
HIDDEN2
 62
     3
100
AcDbLine
 10
2.477886868451733
 20
5.975788607349784
 30
0.0
 11
1.82288686845176
 21
5.975788607349784
 31
0.0
  0
ARC
  5
3BA
330
2
100
AcDbEntity
  8
S1
  6
HIDDEN2
 62
     3
100
AcDbCircle
 10
2.477886868451733
 20
5.325788607349778
 30
0.0
 40
0.65
100
AcDbArc
 50
34.71149400001837
 51
90.0
  0
ARC
  5
3BB
330
2
100
AcDbEntity
  8
S1
  6
HIDDEN2
 62
     3
100
AcDbCircle
 10
3.217713718451719
 20
5.838288607349795
 30
0.0
 40
0.25
100
AcDbArc
 50
214.7114940000184
 51
270.0
  0
ARC
  5
3BC
330
2
100
AcDbEntity
  8
S1
  6
HIDDEN2
 62
     3
100
AcDbCircle
 10
3.217713718451719
 20
4.613288607349801
 30
0.0
 40
0.25
100
AcDbArc
 50
90.0
 51
145.2885059999816
  0
ARC
  5
3BD
330
2
100
AcDbEntity
  8
S1
  6
HIDDEN2
 62
     3
100
AcDbCircle
 10
2.477886868451733
 20
5.12578860734979
 30
0.0
 40
0.65
100
AcDbArc
 50
270.0
 51
325.2885059999816
  0
ARC
  5
3BE
330
2
100
AcDbEntity
  8
S1
  6
HIDDEN2
 62
     3
100
AcDbCircle
 10
4.747886868451715
 20
3.705788607349802
 30
0.0
 40
0.08
100
AcDbArc
 50
90.0
 51
180.0
  0
ARC
  5
3BF
330
2
100
AcDbEntity
  8
S1
  6
HIDDEN2
 62
     3
100
AcDbCircle
 10
1.457886868451751
 20
3.705788607349802
 30
0.0
 40
0.08
100
AcDbArc
 50
0.0
 51
90.0
  0
ARC
  5
3C0
330
2
100
AcDbEntity
  8
S1
  6
HIDDEN2
 62
     3
100
AcDbCircle
 10
1.457886868451751
 20
23.29578860734978
 30
0.0
 40
0.08
100
AcDbArc
 50
270.0
 51
0.0
  0
ARC
  5
3C1
330
2
100
AcDbEntity
  8
S1
  6
HIDDEN2
 62
     3
100
AcDbCircle
 10
4.747886868451715
 20
23.29578860734978
 30
0.0
 40
0.08
100
AcDbArc
 50
180.0
 51
270.0
  0
LINE
  5
3C2
330
2
100
AcDbEntity
  8
S1
  6
HIDDEN2
 62
     3
100
AcDbLine
 10
4.552886868451722
 20
23.19578860734978
 30
0.0
 11
4.552886868451722
 21
23.35388335734979
 31
0.0
  0
LINE
  5
3C3
330
2
100
AcDbEntity
  8
S1
  6
HIDDEN2
 62
     3
100
AcDbLine
 10
4.302886868451722
 20
23.19578860734978
 30
0.0
 11
4.302886868451722
 21
23.35388335734979
 31
0.0
  0
LINE
  5
3C4
330
2
100
AcDbEntity
  8
S1
  6
HIDDEN2
 62
     3
100
AcDbLine
 10
4.772886868451692
 20
7.700788607349778
 30
0.0
 11
4.672886868451726
 21
7.700788607349778
 31
0.0
  0
LINE
  5
3C5
330
2
100
AcDbEntity
  8
S1
  6
HIDDEN2
 62
     3
100
AcDbLine
 10
4.772886868451692
 20
7.25078860734979
 30
0.0
 11
4.672886868451726
 21
7.25078860734979
 31
0.0
  0
LINE
  5
3C6
330
2
100
AcDbEntity
  8
S1
  6
HIDDEN2
 62
     3
100
AcDbLine
 10
4.772886868451692
 20
7.600788607349784
 30
0.0
 11
4.672886868451726
 21
7.600788607349784
 31
0.0
  0
LINE
  5
3C7
330
2
100
AcDbEntity
  8
S1
  6
HIDDEN2
 62
     3
100
AcDbLine
 10
4.772886868451692
 20
7.350788607349784
 30
0.0
 11
4.672886868451726
 21
7.350788607349784
 31
0.0
  0
LINE
  5
3C8
330
2
100
AcDbEntity
  8
S1
  6
HIDDEN2
 62
     3
100
AcDbLine
 10
4.672886868451726
 20
7.325788607349778
 30
0.0
 11
4.830981618451701
 21
7.325788607349778
 31
0.0
  0
LINE
  5
3C9
330
2
100
AcDbEntity
  8
S1
  6
HIDDEN2
 62
     3
100
AcDbLine
 10
4.672886868451726
 20
7.62578860734979
 30
0.0
 11
4.830981618451701
 21
7.62578860734979
 31
0.0
  0
LINE
  5
3CA
330
2
100
AcDbEntity
  8
S1
  6
HIDDEN2
 62
     3
100
AcDbLine
 10
4.672886868451726
 20
7.25078860734979
 30
0.0
 11
4.672886868451726
 21
7.700788607349778
 31
0.0
  0
ARC
  5
3CB
330
2
100
AcDbEntity
  8
S1
  6
HIDDEN2
 62
     3
100
AcDbCircle
 10
4.772886868451692
 20
7.270788607349771
 30
0.0
 40
0.08
100
AcDbArc
 50
0.0
 51
90.0
  0
ARC
  5
3CC
330
2
100
AcDbEntity
  8
S1
  6
HIDDEN2
 62
     3
100
AcDbCircle
 10
4.772886868451692
 20
7.680788607349796
 30
0.0
 40
0.08
100
AcDbArc
 50
270.0
 51
0.0
  0
LINE
  5
3CD
330
2
100
AcDbEntity
  8
S1
  6
HIDDEN2
 62
     3
100
AcDbLine
 10
3.102886868451733
 20
3.805788607349796
 30
0.0
 11
3.102886868451733
 21
3.647693857349793
 31
0.0
  0
LINE
  5
3CE
330
2
100
AcDbEntity
  8
S1
  6
HIDDEN2
 62
     3
100
AcDbLine
 10
2.852886868451733
 20
3.805788607349796
 30
0.0
 11
2.852886868451733
 21
3.647693857349793
 31
0.0
  0
LINE
  5
3CF
330
2
100
AcDbEntity
  8
S1
  6
HIDDEN2
 62
     3
100
AcDbLine
 10
2.777886868451687
 20
3.705788607349802
 30
0.0
 11
2.777886868451687
 21
3.805788607349796
 31
0.0
  0
LINE
  5
3D0
330
2
100
AcDbEntity
  8
S1
  6
HIDDEN2
 62
     3
100
AcDbLine
 10
2.87788686845171
 20
3.705788607349802
 30
0.0
 11
2.87788686845171
 21
3.805788607349796
 31
0.0
  0
LINE
  5
3D1
330
2
100
AcDbEntity
  8
S1
  6
HIDDEN2
 62
     3
100
AcDbLine
 10
3.077886868451756
 20
3.705788607349802
 30
0.0
 11
3.077886868451756
 21
3.805788607349796
 31
0.0
  0
LINE
  5
3D2
330
2
100
AcDbEntity
  8
S1
  6
HIDDEN2
 62
     3
100
AcDbLine
 10
3.177886868451722
 20
3.705788607349802
 30
0.0
 11
3.177886868451722
 21
3.805788607349796
 31
0.0
  0
LINE
  5
3D3
330
2
100
AcDbEntity
  8
S1
  6
HIDDEN2
 62
     3
100
AcDbLine
 10
3.177886868451722
 20
3.805788607349796
 30
0.0
 11
2.777886868451687
 21
3.805788607349796
 31
0.0
  0
ARC
  5
3D4
330
2
100
AcDbEntity
  8
S1
  6
HIDDEN2
 62
     3
100
AcDbCircle
 10
3.15788686845174
 20
3.705788607349802
 30
0.0
 40
0.08
100
AcDbArc
 50
180.0
 51
270.0
  0
ARC
  5
3D5
330
2
100
AcDbEntity
  8
S1
  6
HIDDEN2
 62
     3
100
AcDbCircle
 10
2.797886868451726
 20
3.705788607349802
 30
0.0
 40
0.08
100
AcDbArc
 50
270.0
 51
0.0
  0
LINE
  5
3D6
330
2
100
AcDbEntity
  8
S1
  6
HIDDEN2
 62
     3
100
AcDbLine
 10
3.87788686845171
 20
23.37578860734979
 30
0.0
 11
3.87788686845171
 21
23.29578860734978
 31
0.0
  0
LINE
  5
3D7
330
2
100
AcDbEntity
  8
S1
  6
HIDDEN2
 62
     3
100
AcDbLine
 10
2.327886868451756
 20
23.29578860734978
 30
0.0
 11
2.327886868451756
 21
23.37578860734979
 31
0.0
  0
LINE
  5
3D8
330
2
100
AcDbEntity
  8
S1
  6
HIDDEN2
 62
     3
100
AcDbLine
 10
3.87788686845171
 20
23.22578860734978
 30
0.0
 11
3.87788686845171
 21
23.29578860734978
 31
0.0
  0
LINE
  5
3D9
330
2
100
AcDbEntity
  8
S1
  6
HIDDEN2
 62
     3
100
AcDbLine
 10
2.327886868451756
 20
23.22578860734978
 30
0.0
 11
2.327886868451756
 21
23.29578860734978
 31
0.0
  0
LINE
  5
3DA
330
2
100
AcDbEntity
  8
S1
  6
HIDDEN2
 62
     3
100
AcDbLine
 10
3.87788686845171
 20
23.29578860734978
 30
0.0
 11
2.327886868451756
 21
23.29578860734978
 31
0.0
  0
LINE
  5
3DB
330
2
100
AcDbEntity
  8
S1
  6
HIDDEN2
 62
     3
100
AcDbLine
 10
2.327886868451756
 20
23.29578860734978
 30
0.0
 11
2.128021718451705
 21
23.29578860734978
 31
0.0
  0
LINE
  5
3DC
330
2
100
AcDbEntity
  8
S1
  6
HIDDEN2
 62
     3
100
AcDbLine
 10
4.077886868451756
 20
23.37578860734979
 30
0.0
 11
4.077886868451756
 21
23.28314800734978
 31
0.0
  0
LINE
  5
3DD
330
2
100
AcDbEntity
  8
S1
  6
HIDDEN2
 62
     3
100
AcDbLine
 10
2.12788686845171
 20
23.37578860734979
 30
0.0
 11
2.12788686845171
 21
23.28314800734978
 31
0.0
  0
LINE
  5
3DE
330
2
100
AcDbEntity
  8
S1
  6
HIDDEN2
 62
     3
100
AcDbLine
 10
2.658140818451741
 20
22.97578860734978
 30
0.0
 11
3.547632918451725
 21
22.97578860734978
 31
0.0
  0
ARC
  5
3DF
330
2
100
AcDbEntity
  8
S1
  6
HIDDEN2
 62
     3
100
AcDbCircle
 10
3.62788686845171
 20
23.22578860734978
 30
0.0
 40
0.25
100
AcDbArc
 50
270.0
 51
343.334908999996
  0
ARC
  5
3E0
330
2
100
AcDbEntity
  8
S1
  6
HIDDEN2
 62
     3
100
AcDbCircle
 10
2.577886868451756
 20
23.22578860734978
 30
0.0
 40
0.25
100
AcDbArc
 50
196.665091000004
 51
270.0
  0
LINE
  5
3E1
330
2
100
AcDbEntity
  8
S1
  6
HIDDEN2
 62
     3
100
AcDbLine
 10
3.547632918451725
 20
22.97578860734978
 30
0.0
 11
3.62788686845171
 21
22.97578860734978
 31
0.0
  0
ARC
  5
3E2
330
2
100
AcDbEntity
  8
S1
  6
HIDDEN2
 62
     3
100
AcDbCircle
 10
3.62788686845171
 20
23.22578860734978
 30
0.0
 40
0.25
100
AcDbArc
 50
343.334908999996
 51
0.0
  0
LINE
  5
3E3
330
2
100
AcDbEntity
  8
S1
  6
HIDDEN2
 62
     3
100
AcDbLine
 10
2.577886868451756
 20
22.97578860734978
 30
0.0
 11
2.658140818451741
 21
22.97578860734978
 31
0.0
  0
ARC
  5
3E4
330
2
100
AcDbEntity
  8
S1
  6
HIDDEN2
 62
     3
100
AcDbCircle
 10
2.577886868451756
 20
23.22578860734978
 30
0.0
 40
0.25
100
AcDbArc
 50
180.0
 51
196.665091000004
  0
ARC
  5
3E5
330
2
100
AcDbEntity
  8
S1
  6
HIDDEN2
 62
     3
100
AcDbCircle
 10
3.102886868451733
 20
8.50078860734979
 30
0.0
 40
0.55
100
AcDbArc
 50
180.0
 51
0.0
  0
ARC
  5
3E6
330
2
100
AcDbEntity
  8
S1
  6
HIDDEN2
 62
     3
100
AcDbCircle
 10
3.75288686845171
 20
8.580788607349802
 30
0.0
 40
0.1
100
AcDbArc
 50
0.0
 51
180.0
  0
ARC
  5
3E7
330
2
100
AcDbEntity
  8
S1
  6
HIDDEN2
 62
     3
100
AcDbCircle
 10
2.452886868451756
 20
8.580788607349802
 30
0.0
 40
0.1
100
AcDbArc
 50
0.0
 51
180.0
  0
ARC
  5
3E8
330
2
100
AcDbEntity
  8
S1
  6
HIDDEN2
 62
     3
100
AcDbCircle
 10
1.902886868451687
 20
5.225788607349784
 30
0.0
 40
0.55
100
AcDbArc
 50
270.0
 51
90.0
  0
ARC
  5
3E9
330
2
100
AcDbEntity
  8
S1
  6
HIDDEN2
 62
     3
100
AcDbCircle
 10
1.82288686845176
 20
5.87578860734979
 30
0.0
 40
0.1
100
AcDbArc
 50
90.0
 51
270.0
  0
ARC
  5
3EA
330
2
100
AcDbEntity
  8
S1
  6
HIDDEN2
 62
     3
100
AcDbCircle
 10
1.82288686845176
 20
4.575788607349778
 30
0.0
 40
0.1
100
AcDbArc
 50
90.0
 51
270.0
  0
LINE
  5
3EB
330
2
100
AcDbEntity
  8
S1
  6
HIDDEN2
 62
     3
100
AcDbLine
 10
3.727886868451733
 20
19.8632886073498
 30
0.0
 11
3.217713718451719
 21
19.8632886073498
 31
0.0
  0
LINE
  5
3EC
330
2
100
AcDbEntity
  8
S1
  6
HIDDEN2
 62
     3
100
AcDbLine
 10
3.727886868451733
 20
20.5882886073498
 30
0.0
 11
3.217713718451719
 21
20.5882886073498
 31
0.0
  0
ARC
  5
3ED
330
2
100
AcDbEntity
  8
S1
  6
HIDDEN2
 62
     3
100
AcDbCircle
 10
3.727886868451733
 20
20.18828860734979
 30
0.0
 40
0.325
100
AcDbArc
 50
270.0
 51
0.0
  0
ARC
  5
3EE
330
2
100
AcDbEntity
  8
S1
  6
HIDDEN2
 62
     3
100
AcDbCircle
 10
3.727886868451733
 20
20.26328860734978
 30
0.0
 40
0.325
100
AcDbArc
 50
0.0
 51
90.0
  0
LINE
  5
3EF
330
2
100
AcDbEntity
  8
S1
  6
HIDDEN2
 62
     3
100
AcDbLine
 10
4.052886868451722
 20
20.18828860734979
 30
0.0
 11
4.052886868451722
 21
20.26328860734978
 31
0.0
  0
ARC
  5
3F0
330
2
100
AcDbEntity
  8
S1
  6
HIDDEN2
 62
     3
100
AcDbCircle
 10
2.477886868451733
 20
20.32578860734978
 30
0.0
 40
0.65
100
AcDbArc
 50
34.71149400001837
 51
90.0
  0
ARC
  5
3F1
330
2
100
AcDbEntity
  8
S1
  6
HIDDEN2
 62
     3
100
AcDbCircle
 10
2.477886868451733
 20
20.12578860734979
 30
0.0
 40
0.65
100
AcDbArc
 50
270.0
 51
325.2885059999816
  0
ARC
  5
3F2
330
2
100
AcDbEntity
  8
S1
  6
HIDDEN2
 62
     3
100
AcDbCircle
 10
1.82288686845176
 20
19.57578860734978
 30
0.0
 40
0.1
100
AcDbArc
 50
90.0
 51
270.0
  0
ARC
  5
3F3
330
2
100
AcDbEntity
  8
S1
  6
HIDDEN2
 62
     3
100
AcDbCircle
 10
1.82288686845176
 20
20.87578860734979
 30
0.0
 40
0.1
100
AcDbArc
 50
90.0
 51
270.0
  0
ARC
  5
3F4
330
2
100
AcDbEntity
  8
S1
  6
HIDDEN2
 62
     3
100
AcDbCircle
 10
1.902886868451687
 20
20.22578860734979
 30
0.0
 40
0.55
100
AcDbArc
 50
270.0
 51
90.0
  0
LINE
  5
3F5
330
2
100
AcDbEntity
  8
S1
  6
HIDDEN2
 62
     3
100
AcDbLine
 10
2.477886868451733
 20
20.97578860734978
 30
0.0
 11
1.82288686845176
 21
20.97578860734978
 31
0.0
  0
LINE
  5
3F6
330
2
100
AcDbEntity
  8
S1
  6
HIDDEN2
 62
     3
100
AcDbLine
 10
2.477886868451733
 20
19.47578860734978
 30
0.0
 11
1.82288686845176
 21
19.47578860734978
 31
0.0
  0
LINE
  5
3F7
330
2
100
AcDbEntity
  8
S1
  6
HIDDEN2
 62
     3
100
AcDbLine
 10
1.902886868451687
 20
19.6757886073498
 30
0.0
 11
1.82288686845176
 21
19.6757886073498
 31
0.0
  0
LINE
  5
3F8
330
2
100
AcDbEntity
  8
S1
  6
HIDDEN2
 62
     3
100
AcDbLine
 10
1.902886868451687
 20
20.7757886073498
 30
0.0
 11
1.82288686845176
 21
20.7757886073498
 31
0.0
  0
LINE
  5
3F9
330
2
100
AcDbEntity
  8
S1
  6
HIDDEN2
 62
     3
100
AcDbLine
 10
1.82288686845176
 20
20.7757886073498
 30
0.0
 11
1.82288686845176
 21
19.6757886073498
 31
0.0
  0
LINE
  5
3FA
330
2
100
AcDbEntity
  8
S1
  6
HIDDEN2
 62
     3
100
AcDbLine
 10
1.902886868451687
 20
20.7757886073498
 30
0.0
 11
1.902886868451687
 21
19.6757886073498
 31
0.0
  0
ARC
  5
3FB
330
2
100
AcDbEntity
  8
S1
  6
HIDDEN2
 62
     3
100
AcDbCircle
 10
3.217713718451719
 20
20.8382886073498
 30
0.0
 40
0.25
100
AcDbArc
 50
214.7114940000184
 51
270.0
  0
ARC
  5
3FC
330
2
100
AcDbEntity
  8
S1
  6
HIDDEN2
 62
     3
100
AcDbCircle
 10
3.217713718451719
 20
19.6132886073498
 30
0.0
 40
0.25
100
AcDbArc
 50
90.0
 51
145.2885059999816
  0
LINE
  5
3FD
330
2
100
AcDbEntity
  8
S1
  6
HIDDEN2
 62
     3
100
AcDbLine
 10
4.048366368451709
 20
23.23753450734981
 30
0.0
 11
3.760591668451709
 21
23.1083295573498
 31
0.0
  0
LINE
  5
3FE
330
2
100
AcDbEntity
  8
S1
  6
HIDDEN2
 62
     3
100
AcDbLine
 10
2.1574073684517
 20
23.23753450734981
 30
0.0
 11
2.4451820684517
 21
23.1083295573498
 31
0.0
  0
ARC
  5
3FF
330
2
100
AcDbEntity
  8
S1
  6
HIDDEN2
 62
     3
100
AcDbCircle
 10
3.965386868451687
 20
22.6521947573498
 30
0.0
 40
0.5
100
AcDbArc
 50
114.1791069999964
 51
180.0
  0
ARC
  5
400
330
2
100
AcDbEntity
  8
S1
  6
HIDDEN2
 62
     3
100
AcDbCircle
 10
2.240386868451722
 20
22.6521947573498
 30
0.0
 40
0.5
100
AcDbArc
 50
0.0
 51
65.82089300000358
  0
ARC
  5
401
330
2
100
AcDbEntity
  8
S1
  6
HIDDEN2
 62
     3
100
AcDbCircle
 10
2.177886868451722
 20
23.28314800734978
 30
0.0
 40
0.05
100
AcDbArc
 50
180.0
 51
245.8208930000036
  0
ARC
  5
402
330
2
100
AcDbEntity
  8
S1
  6
HIDDEN2
 62
     3
100
AcDbCircle
 10
4.027886868451687
 20
23.28314800734978
 30
0.0
 40
0.05
100
AcDbArc
 50
294.1791069999964
 51
0.0
  0
HATCH
  5
403
330
2
100
AcDbEntity
  8
S1
  6
HIDDEN2
 62
     3
100
AcDbHatch
 10
0.0
 20
0.0
 30
0.0
210
0.0
220
0.0
230
1.0
  2
ANSI31
 70
     0
 71
     0
 91
        1
 92
        1
 93
        4
 72
     1
 10
2.12788686845171
 20
3.52578860734988
 11
4.077886868451713
 21
3.52578860734988
 72
     1
 10
4.077886868451756
 20
3.52578860734988
 11
4.077886868451756
 21
3.625788607349875
 72
     1
 10
4.077886868451756
 20
3.625788607349875
 11
2.127886868451753
 21
3.625788607349875
 72
     1
 10
2.12788686845171
 20
3.625788607349875
 11
2.12788686845171
 21
3.52578860734988
 97
        0
 75
     0
 76
     1
 52
0.0
 41
0.01574805
 77
     0
 78
     1
 53
45.0
 43
-6.897113131548266
 44
14.1757886073498
 45
-0.0353553390593274
 46
0.0353553390593274
 79
     0
 98
        1
 10
-6.897113131548266
 20
14.1757886073498
  0
LINE
  5
404
330
2
100
AcDbEntity
  8
S1
  6
HIDDEN2
 62
     3
100
AcDbLine
 10
-17.87211313154829
 20
3.62578860734979
 30
0.0
 11
-17.87211313154829
 21
3.525788607349795
 31
0.0
  0
LINE
  5
405
330
2
100
AcDbEntity
  8
S1
  6
HIDDEN2
 62
     3
100
AcDbLine
 10
4.077886868451756
 20
3.62578860734979
 30
0.0
 11
4.077886868451756
 21
3.525788607349795
 31
0.0
  0
LINE
  5
406
330
2
100
AcDbEntity
  8
S1
  6
HIDDEN2
 62
     3
100
AcDbLine
 10
-20.14711313154827
 20
3.62578860734979
 30
0.0
 11
-20.14711313154827
 21
3.525788607349795
 31
0.0
  0
LINE
  5
407
330
2
100
AcDbEntity
  8
S1
  6
HIDDEN2
 62
     3
100
AcDbLine
 10
-15.92211313154824
 20
3.62578860734979
 30
0.0
 11
-15.92211313154824
 21
3.525788607349795
 31
0.0
  0
LINE
  5
408
330
2
100
AcDbEntity
  8
S1
  6
HIDDEN2
 62
     3
100
AcDbLine
 10
-19.89711313154827
 20
2.425788607349801
 30
0.0
 11
-17.89711313154827
 21
2.425788607349801
 31
0.0
  0
LINE
  5
409
330
2
100
AcDbEntity
  8
S1
  6
HIDDEN2
 62
     3
100
AcDbLine
 10
-19.89711313154827
 20
2.075788607349778
 30
0.0
 11
-17.89711313154827
 21
2.075788607349778
 31
0.0
  0
ARC
  5
40A
330
2
100
AcDbEntity
  8
S1
  6
HIDDEN2
 62
     3
100
AcDbCircle
 10
-19.89711313154827
 20
2.25078860734979
 30
0.0
 40
0.175
100
AcDbArc
 50
90.0
 51
270.0
  0
ARC
  5
40B
330
2
100
AcDbEntity
  8
S1
  6
HIDDEN2
 62
     3
100
AcDbCircle
 10
-17.89711313154827
 20
2.25078860734979
 30
0.0
 40
0.175
100
AcDbArc
 50
270.0
 51
90.0
  0
LINE
  5
40C
330
2
100
AcDbEntity
  8
S1
  6
HIDDEN2
 62
     3
100
AcDbLine
 10
-18.44711313154828
 20
2.675788607349801
 30
0.0
 11
-18.44711313154828
 21
3.075788607349778
 31
0.0
  0
LINE
  5
40D
330
2
100
AcDbEntity
  8
S1
  6
HIDDEN2
 62
     3
100
AcDbLine
 10
-19.24711313154829
 20
2.675788607349801
 30
0.0
 11
-19.24711313154829
 21
3.075788607349778
 31
0.0
  0
LINE
  5
40E
330
2
100
AcDbEntity
  8
S1
  6
HIDDEN2
 62
     3
100
AcDbLine
 10
-20.64711313154827
 20
2.87578860734979
 30
0.0
 11
-19.24711313154829
 21
2.87578860734979
 31
0.0
  0
LINE
  5
40F
330
2
100
AcDbEntity
  8
S1
  6
HIDDEN2
 62
     3
100
AcDbLine
 10
-20.64711313154827
 20
2.775788607349795
 30
0.0
 11
-19.24711313154829
 21
2.775788607349795
 31
0.0
  0
LINE
  5
410
330
2
100
AcDbEntity
  8
S1
  6
HIDDEN2
 62
     3
100
AcDbLine
 10
-19.24711313154829
 20
3.075788607349778
 30
0.0
 11
-18.44711313154828
 21
3.075788607349778
 31
0.0
  0
LINE
  5
411
330
2
100
AcDbEntity
  8
S1
  6
HIDDEN2
 62
     3
100
AcDbLine
 10
-19.24711313154829
 20
2.675788607349801
 30
0.0
 11
-18.44711313154828
 21
2.675788607349801
 31
0.0
  0
LINE
  5
412
330
2
100
AcDbEntity
  8
S1
  6
HIDDEN2
 62
     3
100
AcDbLine
 10
-15.42211313154824
 20
3.525788607349795
 30
0.0
 11
-15.42211313154824
 21
3.62578860734979
 31
0.0
  0
LINE
  5
413
330
2
100
AcDbEntity
  8
S1
  6
HIDDEN2
 62
     3
100
AcDbLine
 10
-15.72211313154831
 20
3.525788607349795
 30
0.0
 11
-15.72211313154831
 21
3.62578860734979
 31
0.0
  0
LINE
  5
414
330
2
100
AcDbEntity
  8
S1
  6
HIDDEN2
 62
     3
100
AcDbLine
 10
-18.07211313154828
 20
3.525788607349795
 30
0.0
 11
-18.07211313154828
 21
3.62578860734979
 31
0.0
  0
LINE
  5
415
330
2
100
AcDbEntity
  8
S1
  6
HIDDEN2
 62
     3
100
AcDbLine
 10
-18.37211313154829
 20
3.525788607349795
 30
0.0
 11
-18.37211313154829
 21
3.62578860734979
 31
0.0
  0
LINE
  5
416
330
2
100
AcDbEntity
  8
S1
  6
HIDDEN2
 62
     3
100
AcDbLine
 10
-14.54711313154824
 20
2.675788607349801
 30
0.0
 11
-14.54711313154824
 21
3.075788607349778
 31
0.0
  0
LINE
  5
417
330
2
100
AcDbEntity
  8
S1
  6
HIDDEN2
 62
     3
100
AcDbLine
 10
-15.34711313154831
 20
2.675788607349801
 30
0.0
 11
-15.34711313154831
 21
3.075788607349778
 31
0.0
  0
LINE
  5
418
330
2
100
AcDbEntity
  8
S1
  6
HIDDEN2
 62
     3
100
AcDbLine
 10
-14.54711313154824
 20
3.075788607349778
 30
0.0
 11
-15.34711313154831
 21
3.075788607349778
 31
0.0
  0
LINE
  5
419
330
2
100
AcDbEntity
  8
S1
  6
HIDDEN2
 62
     3
100
AcDbLine
 10
-14.54711313154824
 20
2.675788607349801
 30
0.0
 11
-15.34711313154831
 21
2.675788607349801
 31
0.0
  0
LINE
  5
41A
330
2
100
AcDbEntity
  8
S1
  6
HIDDEN2
 62
     3
100
AcDbLine
 10
-15.34711313154831
 20
2.775788607349795
 30
0.0
 11
-18.44711313154828
 21
2.775788607349795
 31
0.0
  0
LINE
  5
41B
330
2
100
AcDbEntity
  8
S1
  6
HIDDEN2
 62
     3
100
AcDbLine
 10
-15.34711313154831
 20
2.87578860734979
 30
0.0
 11
-18.44711313154828
 21
2.87578860734979
 31
0.0
  0
LINE
  5
41C
330
2
100
AcDbEntity
  8
S1
  6
HIDDEN2
 62
     3
100
AcDbLine
 10
-20.64711313154827
 20
3.62578860734979
 30
0.0
 11
-20.64711313154827
 21
1.37578860734979
 31
0.0
  0
LINE
  5
41D
330
2
100
AcDbEntity
  8
S1
  6
HIDDEN2
 62
     3
100
AcDbLine
 10
-7.227680831548283
 20
2.87578860734979
 30
0.0
 11
-14.54711313154824
 21
2.87578860734979
 31
0.0
  0
LINE
  5
41E
330
2
100
AcDbEntity
  8
S1
  6
HIDDEN2
 62
     3
100
AcDbLine
 10
-7.247113131548289
 20
2.775788607349795
 30
0.0
 11
-14.54711313154824
 21
2.775788607349795
 31
0.0
  0
LINE
  5
41F
330
2
100
AcDbEntity
  8
S1
  6
HIDDEN2
 62
     3
100
AcDbLine
 10
-6.897113131548266
 20
1.475788607349784
 30
0.0
 11
-20.64711313154827
 21
1.475788607349784
 31
0.0
  0
LINE
  5
420
330
2
100
AcDbEntity
  8
S1
  6
HIDDEN2
 62
     3
100
AcDbLine
 10
-6.897113131548266
 20
3.525788607349795
 30
0.0
 11
-20.64711313154827
 21
3.525788607349795
 31
0.0
  0
LINE
  5
421
330
2
100
AcDbEntity
  8
S1
  6
HIDDEN2
 62
     3
100
AcDbLine
 10
-6.897113131548266
 20
3.62578860734979
 30
0.0
 11
-20.64711313154827
 21
3.62578860734979
 31
0.0
  0
LINE
  5
422
330
2
100
AcDbEntity
  8
S1
  6
HIDDEN2
 62
     3
100
AcDbLine
 10
-6.897113131548266
 20
1.37578860734979
 30
0.0
 11
-20.64711313154827
 21
1.37578860734979
 31
0.0
  0
LINE
  5
423
330
2
100
AcDbEntity
  8
S1
  6
HIDDEN2
 62
     3
100
AcDbLine
 10
6.852886868451733
 20
3.62578860734979
 30
0.0
 11
6.852886868451733
 21
1.37578860734979
 31
0.0
  0
LINE
  5
424
330
2
100
AcDbEntity
  8
S1
  6
HIDDEN2
 62
     3
100
AcDbLine
 10
0.7528868684517108
 20
2.675788607349801
 30
0.0
 11
1.552886868451722
 21
2.675788607349801
 31
0.0
  0
LINE
  5
425
330
2
100
AcDbEntity
  8
S1
  6
HIDDEN2
 62
     3
100
AcDbLine
 10
0.7528868684517108
 20
3.075788607349778
 30
0.0
 11
1.552886868451722
 21
3.075788607349778
 31
0.0
  0
LINE
  5
426
330
2
100
AcDbEntity
  8
S1
  6
HIDDEN2
 62
     3
100
AcDbLine
 10
1.552886868451722
 20
2.675788607349801
 30
0.0
 11
1.552886868451722
 21
3.075788607349778
 31
0.0
  0
LINE
  5
427
330
2
100
AcDbEntity
  8
S1
  6
HIDDEN2
 62
     3
100
AcDbLine
 10
0.7528868684517108
 20
2.675788607349801
 30
0.0
 11
0.7528868684517108
 21
3.075788607349778
 31
0.0
  0
LINE
  5
428
330
2
100
AcDbEntity
  8
S1
  6
HIDDEN2
 62
     3
100
AcDbLine
 10
4.577886868451756
 20
3.525788607349795
 30
0.0
 11
4.577886868451756
 21
3.62578860734979
 31
0.0
  0
LINE
  5
429
330
2
100
AcDbEntity
  8
S1
  6
HIDDEN2
 62
     3
100
AcDbLine
 10
4.277886868451687
 20
3.525788607349795
 30
0.0
 11
4.277886868451687
 21
3.62578860734979
 31
0.0
  0
LINE
  5
42A
330
2
100
AcDbEntity
  8
S1
  6
HIDDEN2
 62
     3
100
AcDbLine
 10
1.927886868451722
 20
3.525788607349795
 30
0.0
 11
1.927886868451722
 21
3.62578860734979
 31
0.0
  0
LINE
  5
42B
330
2
100
AcDbEntity
  8
S1
  6
HIDDEN2
 62
     3
100
AcDbLine
 10
1.62788686845171
 20
3.525788607349795
 30
0.0
 11
1.62788686845171
 21
3.62578860734979
 31
0.0
  0
LINE
  5
42C
330
2
100
AcDbEntity
  8
S1
  6
HIDDEN2
 62
     3
100
AcDbLine
 10
5.452886868451756
 20
2.675788607349801
 30
0.0
 11
4.652886868451687
 21
2.675788607349801
 31
0.0
  0
LINE
  5
42D
330
2
100
AcDbEntity
  8
S1
  6
HIDDEN2
 62
     3
100
AcDbLine
 10
5.452886868451756
 20
3.075788607349778
 30
0.0
 11
4.652886868451687
 21
3.075788607349778
 31
0.0
  0
LINE
  5
42E
330
2
100
AcDbEntity
  8
S1
  6
HIDDEN2
 62
     3
100
AcDbLine
 10
6.852886868451733
 20
2.775788607349795
 30
0.0
 11
5.452886868451756
 21
2.775788607349795
 31
0.0
  0
LINE
  5
42F
330
2
100
AcDbEntity
  8
S1
  6
HIDDEN2
 62
     3
100
AcDbLine
 10
6.852886868451733
 20
2.87578860734979
 30
0.0
 11
5.452886868451756
 21
2.87578860734979
 31
0.0
  0
LINE
  5
430
330
2
100
AcDbEntity
  8
S1
  6
HIDDEN2
 62
     3
100
AcDbLine
 10
5.452886868451756
 20
2.675788607349801
 30
0.0
 11
5.452886868451756
 21
3.075788607349778
 31
0.0
  0
LINE
  5
431
330
2
100
AcDbEntity
  8
S1
  6
HIDDEN2
 62
     3
100
AcDbLine
 10
4.652886868451687
 20
2.675788607349801
 30
0.0
 11
4.652886868451687
 21
3.075788607349778
 31
0.0
  0
LINE
  5
432
330
2
100
AcDbEntity
  8
S1
  6
HIDDEN2
 62
     3
100
AcDbLine
 10
4.652886868451687
 20
2.87578860734979
 30
0.0
 11
1.552886868451722
 21
2.87578860734979
 31
0.0
  0
LINE
  5
433
330
2
100
AcDbEntity
  8
S1
  6
HIDDEN2
 62
     3
100
AcDbLine
 10
4.652886868451687
 20
2.775788607349795
 30
0.0
 11
1.552886868451722
 21
2.775788607349795
 31
0.0
  0
LINE
  5
434
330
2
100
AcDbEntity
  8
S1
  6
HIDDEN2
 62
     3
100
AcDbLine
 10
-6.566545431548306
 20
2.87578860734979
 30
0.0
 11
0.7528868684517108
 21
2.87578860734979
 31
0.0
  0
LINE
  5
435
330
2
100
AcDbEntity
  8
S1
  6
HIDDEN2
 62
     3
100
AcDbLine
 10
-6.547113131548243
 20
2.775788607349795
 30
0.0
 11
0.7528868684517108
 21
2.775788607349795
 31
0.0
  0
LINE
  5
436
330
2
100
AcDbEntity
  8
S1
  6
HIDDEN2
 62
     3
100
AcDbLine
 10
-6.897113131548266
 20
1.475788607349784
 30
0.0
 11
6.852886868451733
 21
1.475788607349784
 31
0.0
  0
ARC
  5
437
330
2
100
AcDbEntity
  8
S1
  6
HIDDEN2
 62
     3
100
AcDbCircle
 10
4.102886868451733
 20
2.25078860734979
 30
0.0
 40
0.175
100
AcDbArc
 50
90.0
 51
270.0
  0
ARC
  5
438
330
2
100
AcDbEntity
  8
S1
  6
HIDDEN2
 62
     3
100
AcDbCircle
 10
6.102886868451733
 20
2.25078860734979
 30
0.0
 40
0.175
100
AcDbArc
 50
270.0
 51
90.0
  0
LINE
  5
439
330
2
100
AcDbEntity
  8
S1
  6
HIDDEN2
 62
     3
100
AcDbLine
 10
6.102886868451733
 20
2.075788607349778
 30
0.0
 11
4.102886868451733
 21
2.075788607349778
 31
0.0
  0
LINE
  5
43A
330
2
100
AcDbEntity
  8
S1
  6
HIDDEN2
 62
     3
100
AcDbLine
 10
6.102886868451733
 20
2.425788607349801
 30
0.0
 11
4.102886868451733
 21
2.425788607349801
 31
0.0
  0
ARC
  5
43B
330
2
100
AcDbEntity
  8
S1
  6
HIDDEN2
 62
     3
100
AcDbCircle
 10
-6.672113131548243
 20
2.430069707349758
 30
0.0
 40
0.05
100
AcDbArc
 50
124.2288660000121
 51
180.0
  0
ARC
  5
43C
330
2
100
AcDbEntity
  8
S1
  6
HIDDEN2
 62
     3
100
AcDbCircle
 10
-7.122113131548289
 20
2.430069707349758
 30
0.0
 40
0.05
100
AcDbArc
 50
0.0
 51
55.77113399998792
  0
LINE
  5
43D
330
2
100
AcDbEntity
  8
S1
  6
HIDDEN2
 62
     3
100
AcDbLine
 10
-6.897113131548266
 20
3.525788607349795
 30
0.0
 11
6.852886868451733
 21
3.525788607349795
 31
0.0
  0
ARC
  5
43E
330
2
100
AcDbEntity
  8
S1
  6
HIDDEN2
 62
     3
100
AcDbCircle
 10
-6.897113131548266
 20
2.76078860734978
 30
0.0
 40
0.35
100
AcDbArc
 50
304.2288660000121
 51
235.7711339999879
  0
LINE
  5
43F
330
2
100
AcDbEntity
  8
S1
  6
HIDDEN2
 62
     3
100
AcDbLine
 10
-6.897113131548266
 20
3.62578860734979
 30
0.0
 11
6.852886868451733
 21
3.62578860734979
 31
0.0
  0
LINE
  5
440
330
2
100
AcDbEntity
  8
S1
  6
HIDDEN2
 62
     3
100
AcDbLine
 10
-6.897113131548266
 20
1.37578860734979
 30
0.0
 11
6.852886868451733
 21
1.37578860734979
 31
0.0
  0
LINE
  5
441
330
2
100
AcDbEntity
  8
S1
  6
HIDDEN2
 62
     3
100
AcDbLine
 10
-7.072113131548277
 20
2.430069707349758
 30
0.0
 11
-7.072113131548277
 21
2.25078860734979
 31
0.0
  0
ARC
  5
442
330
2
100
AcDbEntity
  8
S1
  6
HIDDEN2
 62
     3
100
AcDbCircle
 10
-7.647113131548266
 20
2.25078860734979
 30
0.0
 40
0.175
100
AcDbArc
 50
270.0
 51
90.0
  0
LINE
  5
443
330
2
100
AcDbEntity
  8
S1
  6
HIDDEN2
 62
     3
100
AcDbLine
 10
-7.647113131548266
 20
2.075788607349778
 30
0.0
 11
-9.647113131548266
 21
2.075788607349778
 31
0.0
  0
LINE
  5
444
330
2
100
AcDbEntity
  8
S1
  6
HIDDEN2
 62
     3
100
AcDbLine
 10
-7.647113131548266
 20
2.425788607349801
 30
0.0
 11
-9.647113131548266
 21
2.425788607349801
 31
0.0
  0
ARC
  5
445
330
2
100
AcDbEntity
  8
S1
  6
HIDDEN2
 62
     3
100
AcDbCircle
 10
-9.647113131548266
 20
2.25078860734979
 30
0.0
 40
0.175
100
AcDbArc
 50
90.0
 51
270.0
  0
LINE
  5
446
330
2
100
AcDbEntity
  8
S1
  6
HIDDEN2
 62
     3
100
AcDbLine
 10
-6.722113131548312
 20
2.430069707349758
 30
0.0
 11
-6.722113131548312
 21
2.25078860734979
 31
0.0
  0
ARC
  5
447
330
2
100
AcDbEntity
  8
S1
  6
HIDDEN2
 62
     3
100
AcDbCircle
 10
-6.147113131548266
 20
2.25078860734979
 30
0.0
 40
0.175
100
AcDbArc
 50
90.0
 51
270.0
  0
LINE
  5
448
330
2
100
AcDbEntity
  8
S1
  6
HIDDEN2
 62
     3
100
AcDbLine
 10
-6.147113131548266
 20
2.075788607349778
 30
0.0
 11
-4.147113131548266
 21
2.075788607349778
 31
0.0
  0
LINE
  5
449
330
2
100
AcDbEntity
  8
S1
  6
HIDDEN2
 62
     3
100
AcDbLine
 10
-6.147113131548266
 20
2.425788607349801
 30
0.0
 11
-4.147113131548266
 21
2.425788607349801
 31
0.0
  0
ARC
  5
44A
330
2
100
AcDbEntity
  8
S1
  6
HIDDEN2
 62
     3
100
AcDbCircle
 10
-4.147113131548266
 20
2.25078860734979
 30
0.0
 40
0.175
100
AcDbArc
 50
270.0
 51
90.0
  0
ARC
  5
44B
330
2
100
AcDbEntity
  8
S1
  6
HIDDEN2
 62
     3
100
AcDbCircle
 10
-6.897113131548266
 20
2.25078860734979
 30
0.0
 40
0.175
100
AcDbArc
 50
180.0
 51
0.0
  0
LINE
  5
44C
330
2
100
AcDbEntity
  8
S1
  6
HIDDEN2
 62
     3
100
AcDbLine
 10
2.12788686845171
 20
3.62578860734979
 30
0.0
 11
2.12788686845171
 21
3.525788607349795
 31
0.0
  0
LINE
  5
44D
330
2
100
AcDbEntity
  8
S1
  6
HIDDEN2
 62
     3
100
AcDbLine
 10
6.352886868451733
 20
3.62578860734979
 30
0.0
 11
6.352886868451733
 21
3.525788607349795
 31
0.0
  0
LINE
  5
44E
330
2
100
AcDbEntity
  8
S1
  6
HIDDEN2
 62
     3
100
AcDbLine
 10
-1.472113131548312
 20
3.62578860734979
 30
0.0
 11
-1.472113131548312
 21
3.525788607349795
 31
0.0
  0
LINE
  5
44F
330
2
100
AcDbEntity
  8
S1
  6
HIDDEN2
 62
     3
100
AcDbLine
 10
-12.94711313154828
 20
3.62578860734979
 30
0.0
 11
-12.94711313154828
 21
3.525788607349795
 31
0.0
  0
ARC
  5
450
330
2
100
AcDbEntity
  8
S1
  6
HIDDEN2
 62
     3
100
AcDbCircle
 10
-17.42211313154824
 20
23.22578860734978
 30
0.0
 40
0.25
100
AcDbArc
 50
180.0
 51
196.665091000004
  0
LINE
  5
451
330
2
100
AcDbEntity
  8
S1
  6
HIDDEN2
 62
     3
100
AcDbLine
 10
-17.34185918154831
 20
22.97578860734978
 30
0.0
 11
-17.42211313154824
 21
22.97578860734978
 31
0.0
  0
LINE
  5
452
330
2
100
AcDbEntity
  8
S1
  6
HIDDEN2
 62
     3
100
AcDbLine
 10
-16.37211313154829
 20
22.97578860734978
 30
0.0
 11
-16.45236708154827
 21
22.97578860734978
 31
0.0
  0
ARC
  5
453
330
2
100
AcDbEntity
  8
S1
  6
HIDDEN2
 62
     3
100
AcDbCircle
 10
-16.37211313154829
 20
23.22578860734978
 30
0.0
 40
0.25
100
AcDbArc
 50
343.334908999996
 51
0.0
  0
ARC
  5
454
330
2
100
AcDbEntity
  8
S1
  6
HIDDEN2
 62
     3
100
AcDbCircle
 10
-17.42211313154824
 20
23.22578860734978
 30
0.0
 40
0.25
100
AcDbArc
 50
196.665091000004
 51
270.0
  0
ARC
  5
455
330
2
100
AcDbEntity
  8
S1
  6
HIDDEN2
 62
     3
100
AcDbCircle
 10
-16.37211313154829
 20
23.22578860734978
 30
0.0
 40
0.25
100
AcDbArc
 50
270.0
 51
343.334908999996
  0
LINE
  5
456
330
2
100
AcDbEntity
  8
S1
  6
HIDDEN2
 62
     3
100
AcDbLine
 10
-17.34185918154831
 20
22.97578860734978
 30
0.0
 11
-16.45236708154827
 21
22.97578860734978
 31
0.0
  0
LINE
  5
457
330
2
100
AcDbEntity
  8
S1
  6
HIDDEN2
 62
     3
100
AcDbLine
 10
-17.87211313154829
 20
23.37578860734979
 30
0.0
 11
-17.87211313154829
 21
23.28314800734978
 31
0.0
  0
LINE
  5
458
330
2
100
AcDbEntity
  8
S1
  6
HIDDEN2
 62
     3
100
AcDbLine
 10
-15.92211313154824
 20
23.37578860734979
 30
0.0
 11
-15.92211313154824
 21
23.28314800734978
 31
0.0
  0
LINE
  5
459
330
2
100
AcDbEntity
  8
S1
  6
HIDDEN2
 62
     3
100
AcDbLine
 10
-17.67211313154824
 20
23.29578860734978
 30
0.0
 11
-16.12211313154829
 21
23.29578860734978
 31
0.0
  0
LINE
  5
45A
330
2
100
AcDbEntity
  8
S1
  6
HIDDEN2
 62
     3
100
AcDbLine
 10
-16.12211313154829
 20
23.29578860734978
 30
0.0
 11
-15.92224798154824
 21
23.29578860734978
 31
0.0
  0
LINE
  5
45B
330
2
100
AcDbEntity
  8
S1
  6
HIDDEN2
 62
     3
100
AcDbLine
 10
-17.67211313154824
 20
23.22578860734978
 30
0.0
 11
-17.67211313154824
 21
23.29578860734978
 31
0.0
  0
LINE
  5
45C
330
2
100
AcDbEntity
  8
S1
  6
HIDDEN2
 62
     3
100
AcDbLine
 10
-16.12211313154829
 20
23.22578860734978
 30
0.0
 11
-16.12211313154829
 21
23.29578860734978
 31
0.0
  0
LINE
  5
45D
330
2
100
AcDbEntity
  8
S1
  6
HIDDEN2
 62
     3
100
AcDbLine
 10
-17.67211313154824
 20
23.29578860734978
 30
0.0
 11
-17.67211313154824
 21
23.37578860734979
 31
0.0
  0
LINE
  5
45E
330
2
100
AcDbEntity
  8
S1
  6
HIDDEN2
 62
     3
100
AcDbLine
 10
-16.12211313154829
 20
23.37578860734979
 30
0.0
 11
-16.12211313154829
 21
23.29578860734978
 31
0.0
  0
LINE
  5
45F
330
2
100
AcDbEntity
  8
S1
  6
HIDDEN2
 62
     3
100
AcDbLine
 10
-16.82211313154828
 20
3.705788607349802
 30
0.0
 11
-16.82211313154828
 21
3.805788607349796
 31
0.0
  0
LINE
  5
460
330
2
100
AcDbEntity
  8
S1
  6
HIDDEN2
 62
     3
100
AcDbLine
 10
-16.92211313154824
 20
3.705788607349802
 30
0.0
 11
-16.92211313154824
 21
3.805788607349796
 31
0.0
  0
LINE
  5
461
330
2
100
AcDbEntity
  8
S1
  6
HIDDEN2
 62
     3
100
AcDbLine
 10
-17.12211313154829
 20
3.705788607349802
 30
0.0
 11
-17.12211313154829
 21
3.805788607349796
 31
0.0
  0
LINE
  5
462
330
2
100
AcDbEntity
  8
S1
  6
HIDDEN2
 62
     3
100
AcDbLine
 10
-17.22211313154831
 20
3.705788607349802
 30
0.0
 11
-17.22211313154831
 21
3.805788607349796
 31
0.0
  0
LINE
  5
463
330
2
100
AcDbEntity
  8
S1
  6
HIDDEN2
 62
     3
100
AcDbLine
 10
-16.82211313154828
 20
3.805788607349796
 30
0.0
 11
-17.22211313154831
 21
3.805788607349796
 31
0.0
  0
ARC
  5
464
330
2
100
AcDbEntity
  8
S1
  6
HIDDEN2
 62
     3
100
AcDbCircle
 10
-17.20211313154827
 20
3.705788607349802
 30
0.0
 40
0.08
100
AcDbArc
 50
270.0
 51
0.0
  0
ARC
  5
465
330
2
100
AcDbEntity
  8
S1
  6
HIDDEN2
 62
     3
100
AcDbCircle
 10
-16.84211313154832
 20
3.705788607349802
 30
0.0
 40
0.08
100
AcDbArc
 50
180.0
 51
270.0
  0
LINE
  5
466
330
2
100
AcDbEntity
  8
S1
  6
HIDDEN2
 62
     3
100
AcDbLine
 10
-17.14711313154827
 20
3.805788607349796
 30
0.0
 11
-17.14711313154827
 21
3.647693857349793
 31
0.0
  0
LINE
  5
467
330
2
100
AcDbEntity
  8
S1
  6
HIDDEN2
 62
     3
100
AcDbLine
 10
-16.89711313154826
 20
3.805788607349796
 30
0.0
 11
-16.89711313154826
 21
3.647693857349793
 31
0.0
  0
LINE
  5
468
330
2
100
AcDbEntity
  8
S1
  6
HIDDEN2
 62
     3
100
AcDbLine
 10
-18.56711313154828
 20
7.700788607349778
 30
0.0
 11
-18.46711313154832
 21
7.700788607349778
 31
0.0
  0
LINE
  5
469
330
2
100
AcDbEntity
  8
S1
  6
HIDDEN2
 62
     3
100
AcDbLine
 10
-18.56711313154828
 20
7.600788607349784
 30
0.0
 11
-18.46711313154832
 21
7.600788607349784
 31
0.0
  0
LINE
  5
46A
330
2
100
AcDbEntity
  8
S1
  6
HIDDEN2
 62
     3
100
AcDbLine
 10
-18.46711313154832
 20
7.62578860734979
 30
0.0
 11
-18.62520788154829
 21
7.62578860734979
 31
0.0
  0
LINE
  5
46B
330
2
100
AcDbEntity
  8
S1
  6
HIDDEN2
 62
     3
100
AcDbLine
 10
-18.46711313154832
 20
7.25078860734979
 30
0.0
 11
-18.46711313154832
 21
7.700788607349778
 31
0.0
  0
LINE
  5
46C
330
2
100
AcDbEntity
  8
S1
  6
HIDDEN2
 62
     3
100
AcDbLine
 10
-18.56711313154828
 20
7.350788607349784
 30
0.0
 11
-18.46711313154832
 21
7.350788607349784
 31
0.0
  0
LINE
  5
46D
330
2
100
AcDbEntity
  8
S1
  6
HIDDEN2
 62
     3
100
AcDbLine
 10
-18.46711313154832
 20
7.325788607349778
 30
0.0
 11
-18.62520788154829
 21
7.325788607349778
 31
0.0
  0
LINE
  5
46E
330
2
100
AcDbEntity
  8
S1
  6
HIDDEN2
 62
     3
100
AcDbLine
 10
-18.56711313154828
 20
7.25078860734979
 30
0.0
 11
-18.46711313154832
 21
7.25078860734979
 31
0.0
  0
ARC
  5
46F
330
2
100
AcDbEntity
  8
S1
  6
HIDDEN2
 62
     3
100
AcDbCircle
 10
-18.56711313154828
 20
7.680788607349796
 30
0.0
 40
0.08
100
AcDbArc
 50
180.0
 51
270.0
  0
ARC
  5
470
330
2
100
AcDbEntity
  8
S1
  6
HIDDEN2
 62
     3
100
AcDbCircle
 10
-18.56711313154828
 20
7.270788607349771
 30
0.0
 40
0.08
100
AcDbArc
 50
90.0
 51
180.0
  0
ARC
  5
471
330
2
100
AcDbEntity
  8
S1
  6
HIDDEN2
 62
     3
100
AcDbCircle
 10
-18.54211313154825
 20
3.705788607349802
 30
0.0
 40
0.08
100
AcDbArc
 50
0.0
 51
90.0
  0
ARC
  5
472
330
2
100
AcDbEntity
  8
S1
  6
HIDDEN2
 62
     3
100
AcDbCircle
 10
-15.25211313154828
 20
3.705788607349802
 30
0.0
 40
0.08
100
AcDbArc
 50
90.0
 51
180.0
  0
ARC
  5
473
330
2
100
AcDbEntity
  8
S1
  6
HIDDEN2
 62
     3
100
AcDbCircle
 10
-15.25211313154828
 20
23.29578860734978
 30
0.0
 40
0.08
100
AcDbArc
 50
180.0
 51
270.0
  0
ARC
  5
474
330
2
100
AcDbEntity
  8
S1
  6
HIDDEN2
 62
     3
100
AcDbCircle
 10
-18.54211313154825
 20
23.29578860734978
 30
0.0
 40
0.08
100
AcDbArc
 50
270.0
 51
0.0
  0
LINE
  5
475
330
2
100
AcDbEntity
  8
S1
  6
HIDDEN2
 62
     3
100
AcDbLine
 10
-18.56711313154828
 20
21.00078860734979
 30
0.0
 11
-18.56711313154828
 21
19.45078860734978
 31
0.0
  0
LINE
  5
476
330
2
100
AcDbEntity
  8
S1
  6
HIDDEN2
 62
     3
100
AcDbLine
 10
-18.56711313154828
 20
21.20078860734978
 30
0.0
 11
-18.56711313154828
 21
21.00078860734979
 31
0.0
  0
LINE
  5
477
330
2
100
AcDbEntity
  8
S1
  6
HIDDEN2
 62
     3
100
AcDbLine
 10
-18.56711313154828
 20
4.450788607349778
 30
0.0
 11
-18.56711313154828
 21
6.00078860734979
 31
0.0
  0
LINE
  5
478
330
2
100
AcDbEntity
  8
S1
  6
HIDDEN2
 62
     3
100
AcDbLine
 10
-18.56711313154828
 20
6.00078860734979
 30
0.0
 11
-18.56711313154828
 21
6.200788607349778
 31
0.0
  0
LINE
  5
479
330
2
100
AcDbEntity
  8
S1
  6
HIDDEN2
 62
     3
100
AcDbLine
 10
-18.56711313154828
 20
4.450788607349778
 30
0.0
 11
-18.56711313154828
 21
4.25078860734979
 31
0.0
  0
LINE
  5
47A
330
2
100
AcDbEntity
  8
S1
  6
HIDDEN2
 62
     3
100
AcDbLine
 10
-16.34711313154831
 20
8.50078860734979
 30
0.0
 11
-16.34711313154831
 21
8.580788607349802
 31
0.0
  0
LINE
  5
47B
330
2
100
AcDbEntity
  8
S1
  6
HIDDEN2
 62
     3
100
AcDbLine
 10
-17.44711313154828
 20
8.50078860734979
 30
0.0
 11
-17.44711313154828
 21
8.580788607349802
 31
0.0
  0
ARC
  5
47C
330
2
100
AcDbEntity
  8
S1
  6
HIDDEN2
 62
     3
100
AcDbCircle
 10
-14.67211313154824
 20
24.07078860734979
 30
0.0
 40
0.1
100
AcDbArc
 50
270.0
 51
0.0
  0
ARC
  5
47D
330
2
100
AcDbEntity
  8
S1
  6
HIDDEN2
 62
     3
100
AcDbCircle
 10
-15.22211313154831
 20
3.550788607349801
 30
0.0
 40
0.075
100
AcDbArc
 50
270.0
 51
0.0
  0
LINE
  5
47E
330
2
100
AcDbEntity
  8
S1
  6
HIDDEN2
 62
     3
100
AcDbLine
 10
-15.24711313154829
 20
3.475788607349784
 30
0.0
 11
-15.22211313154831
 21
3.475788607349784
 31
0.0
  0
ARC
  5
47F
330
2
100
AcDbEntity
  8
S1
  6
HIDDEN2
 62
     3
100
AcDbCircle
 10
-18.57211313154827
 20
3.550788607349801
 30
0.0
 40
0.075
100
AcDbArc
 50
180.0
 51
270.0
  0
LINE
  5
480
330
2
100
AcDbEntity
  8
S1
  6
HIDDEN2
 62
     3
100
AcDbLine
 10
-18.54711313154824
 20
3.475788607349784
 30
0.0
 11
-18.57211313154827
 21
3.475788607349784
 31
0.0
  0
ARC
  5
481
330
2
100
AcDbEntity
  8
S1
  6
HIDDEN2
 62
     3
100
AcDbCircle
 10
-18.57211313154827
 20
23.45078860734978
 30
0.0
 40
0.075
100
AcDbArc
 50
90.0
 51
180.0
  0
LINE
  5
482
330
2
100
AcDbEntity
  8
S1
  6
HIDDEN2
 62
     3
100
AcDbLine
 10
-18.54711313154824
 20
23.5257886073498
 30
0.0
 11
-18.57211313154827
 21
23.5257886073498
 31
0.0
  0
ARC
  5
483
330
2
100
AcDbEntity
  8
S1
  6
HIDDEN2
 62
     3
100
AcDbCircle
 10
-15.22211313154831
 20
23.45078860734978
 30
0.0
 40
0.075
100
AcDbArc
 50
0.0
 51
90.0
  0
LINE
  5
484
330
2
100
AcDbEntity
  8
S1
  6
HIDDEN2
 62
     3
100
AcDbLine
 10
-15.24711313154829
 20
23.5257886073498
 30
0.0
 11
-15.22211313154831
 21
23.5257886073498
 31
0.0
  0
LINE
  5
485
330
2
100
AcDbEntity
  8
S1
  6
HIDDEN2
 62
     3
100
AcDbLine
 10
-18.56711313154828
 20
6.200788607349778
 30
0.0
 11
-18.56711313154828
 21
19.25078860734979
 31
0.0
  0
LINE
  5
486
330
2
100
AcDbEntity
  8
S1
  6
HIDDEN2
 62
     3
100
AcDbLine
 10
-18.56711313154828
 20
19.25078860734979
 30
0.0
 11
-18.56711313154828
 21
19.45078860734978
 31
0.0
  0
LINE
  5
487
330
2
100
AcDbEntity
  8
S1
  6
HIDDEN2
 62
     3
100
AcDbLine
 10
-18.56711313154828
 20
21.20078860734978
 30
0.0
 11
-18.56711313154828
 21
23.21578860734979
 31
0.0
  0
LINE
  5
488
330
2
100
AcDbEntity
  8
S1
  6
HIDDEN2
 62
     3
100
AcDbLine
 10
-15.37211313154829
 20
3.705788607349802
 30
0.0
 11
-15.37211313154829
 21
3.805788607349796
 31
0.0
  0
LINE
  5
489
330
2
100
AcDbEntity
  8
S1
  6
HIDDEN2
 62
     3
100
AcDbLine
 10
-18.42211313154824
 20
3.705788607349802
 30
0.0
 11
-18.42211313154824
 21
3.805788607349796
 31
0.0
  0
ARC
  5
48A
330
2
100
AcDbEntity
  8
S1
  6
HIDDEN2
 62
     3
100
AcDbCircle
 10
-15.39211313154827
 20
3.705788607349802
 30
0.0
 40
0.08
100
AcDbArc
 50
180.0
 51
270.0
  0
ARC
  5
48B
330
2
100
AcDbEntity
  8
S1
  6
HIDDEN2
 62
     3
100
AcDbCircle
 10
-15.75211313154828
 20
3.705788607349802
 30
0.0
 40
0.08
100
AcDbArc
 50
270.0
 51
0.0
  0
LINE
  5
48C
330
2
100
AcDbEntity
  8
S1
  6
HIDDEN2
 62
     3
100
AcDbLine
 10
-15.77211313154826
 20
3.705788607349802
 30
0.0
 11
-15.77211313154826
 21
3.805788607349796
 31
0.0
  0
LINE
  5
48D
330
2
100
AcDbEntity
  8
S1
  6
HIDDEN2
 62
     3
100
AcDbLine
 10
-15.67211313154824
 20
3.705788607349802
 30
0.0
 11
-15.67211313154824
 21
3.805788607349796
 31
0.0
  0
LINE
  5
48E
330
2
100
AcDbEntity
  8
S1
  6
HIDDEN2
 62
     3
100
AcDbLine
 10
-15.47211313154831
 20
3.705788607349802
 30
0.0
 11
-15.47211313154831
 21
3.805788607349796
 31
0.0
  0
LINE
  5
48F
330
2
100
AcDbEntity
  8
S1
  6
HIDDEN2
 62
     3
100
AcDbLine
 10
-15.37211313154829
 20
3.805788607349796
 30
0.0
 11
-15.77211313154826
 21
3.805788607349796
 31
0.0
  0
ARC
  5
490
330
2
100
AcDbEntity
  8
S1
  6
HIDDEN2
 62
     3
100
AcDbCircle
 10
-18.04211313154825
 20
3.705788607349802
 30
0.0
 40
0.08
100
AcDbArc
 50
180.0
 51
270.0
  0
ARC
  5
491
330
2
100
AcDbEntity
  8
S1
  6
HIDDEN2
 62
     3
100
AcDbCircle
 10
-18.40211313154826
 20
3.705788607349802
 30
0.0
 40
0.08
100
AcDbArc
 50
270.0
 51
0.0
  0
LINE
  5
492
330
2
100
AcDbEntity
  8
S1
  6
HIDDEN2
 62
     3
100
AcDbLine
 10
-18.32211313154828
 20
3.705788607349802
 30
0.0
 11
-18.32211313154828
 21
3.805788607349796
 31
0.0
  0
LINE
  5
493
330
2
100
AcDbEntity
  8
S1
  6
HIDDEN2
 62
     3
100
AcDbLine
 10
-18.12211313154829
 20
3.705788607349802
 30
0.0
 11
-18.12211313154829
 21
3.805788607349796
 31
0.0
  0
LINE
  5
494
330
2
100
AcDbEntity
  8
S1
  6
HIDDEN2
 62
     3
100
AcDbLine
 10
-18.02211313154827
 20
3.705788607349802
 30
0.0
 11
-18.02211313154827
 21
3.805788607349796
 31
0.0
  0
LINE
  5
495
330
2
100
AcDbEntity
  8
S1
  6
HIDDEN2
 62
     3
100
AcDbLine
 10
-18.42211313154824
 20
3.805788607349796
 30
0.0
 11
-18.02211313154827
 21
3.805788607349796
 31
0.0
  0
ARC
  5
496
330
2
100
AcDbEntity
  8
S1
  6
HIDDEN2
 62
     3
100
AcDbCircle
 10
-15.24711313154829
 20
3.400788607349795
 30
0.0
 40
0.075
100
AcDbArc
 50
90.0
 51
180.0
  0
ARC
  5
497
330
2
100
AcDbEntity
  8
S1
  6
HIDDEN2
 62
     3
100
AcDbCircle
 10
-14.67211313154824
 20
2.930788607349796
 30
0.0
 40
0.1
100
AcDbArc
 50
0.0
 51
90.0
  0
ARC
  5
498
330
2
100
AcDbEntity
  8
S1
  6
HIDDEN2
 62
     3
100
AcDbCircle
 10
-15.22211313154831
 20
2.930788607349796
 30
0.0
 40
0.1
100
AcDbArc
 50
90.0
 51
180.0
  0
LINE
  5
499
330
2
100
AcDbEntity
  8
S1
  6
HIDDEN2
 62
     3
100
AcDbLine
 10
-14.67211313154824
 20
3.030788607349819
 30
0.0
 11
-15.22211313154831
 21
3.030788607349819
 31
0.0
  0
LINE
  5
49A
330
2
100
AcDbEntity
  8
S1
  6
HIDDEN2
 62
     3
100
AcDbLine
 10
-14.57211313154828
 20
2.830788607349802
 30
0.0
 11
-15.32211313154828
 21
2.830788607349802
 31
0.0
  0
LINE
  5
49B
330
2
100
AcDbEntity
  8
S1
  6
HIDDEN2
 62
     3
100
AcDbLine
 10
-14.57211313154828
 20
2.75078860734979
 30
0.0
 11
-15.32211313154828
 21
2.75078860734979
 31
0.0
  0
LINE
  5
49C
330
2
100
AcDbEntity
  8
S1
  6
HIDDEN2
 62
     3
100
AcDbLine
 10
-15.32211313154828
 20
2.75078860734979
 30
0.0
 11
-15.32211313154828
 21
3.400788607349795
 31
0.0
  0
LINE
  5
49D
330
2
100
AcDbEntity
  8
S1
  6
HIDDEN2
 62
     3
100
AcDbLine
 10
-18.47211313154831
 20
2.75078860734979
 30
0.0
 11
-18.47211313154831
 21
3.400788607349795
 31
0.0
  0
LINE
  5
49E
330
2
100
AcDbEntity
  8
S1
  6
HIDDEN2
 62
     3
100
AcDbLine
 10
-19.22211313154831
 20
2.75078860734979
 30
0.0
 11
-18.47211313154831
 21
2.75078860734979
 31
0.0
  0
LINE
  5
49F
330
2
100
AcDbEntity
  8
S1
  6
HIDDEN2
 62
     3
100
AcDbLine
 10
-19.22211313154831
 20
2.830788607349802
 30
0.0
 11
-18.47211313154831
 21
2.830788607349802
 31
0.0
  0
LINE
  5
4A0
330
2
100
AcDbEntity
  8
S1
  6
HIDDEN2
 62
     3
100
AcDbLine
 10
-19.12211313154829
 20
3.030788607349819
 30
0.0
 11
-18.57211313154827
 21
3.030788607349819
 31
0.0
  0
ARC
  5
4A1
330
2
100
AcDbEntity
  8
S1
  6
HIDDEN2
 62
     3
100
AcDbCircle
 10
-18.57211313154827
 20
2.930788607349796
 30
0.0
 40
0.1
100
AcDbArc
 50
0.0
 51
90.0
  0
ARC
  5
4A2
330
2
100
AcDbEntity
  8
S1
  6
HIDDEN2
 62
     3
100
AcDbCircle
 10
-19.12211313154829
 20
2.930788607349796
 30
0.0
 40
0.1
100
AcDbArc
 50
90.0
 51
180.0
  0
ARC
  5
4A3
330
2
100
AcDbEntity
  8
S1
  6
HIDDEN2
 62
     3
100
AcDbCircle
 10
-18.54711313154824
 20
3.400788607349795
 30
0.0
 40
0.075
100
AcDbArc
 50
0.0
 51
90.0
  0
LINE
  5
4A4
330
2
100
AcDbEntity
  8
S1
  6
HIDDEN2
 62
     3
100
AcDbLine
 10
-15.22711313154831
 20
23.37578860734979
 30
0.0
 11
-15.22711313154831
 21
23.21578860734979
 31
0.0
  0
LINE
  5
4A5
330
2
100
AcDbEntity
  8
S1
  6
HIDDEN2
 62
     3
100
AcDbLine
 10
-15.33211313154827
 20
23.29578860734978
 30
0.0
 11
-15.33211313154827
 21
23.37578860734979
 31
0.0
  0
LINE
  5
4A6
330
2
100
AcDbEntity
  8
S1
  6
HIDDEN2
 62
     3
100
AcDbLine
 10
-15.33211313154827
 20
23.29578860734978
 30
0.0
 11
-15.25211313154828
 21
23.29578860734978
 31
0.0
  0
LINE
  5
4A7
330
2
100
AcDbEntity
  8
S1
  6
HIDDEN2
 62
     3
100
AcDbLine
 10
-15.25211313154828
 20
23.37578860734979
 30
0.0
 11
-15.25211313154828
 21
23.29578860734978
 31
0.0
  0
LINE
  5
4A8
330
2
100
AcDbEntity
  8
S1
  6
HIDDEN2
 62
     3
100
AcDbLine
 10
-15.77211313154826
 20
23.29578860734978
 30
0.0
 11
-15.77211313154826
 21
23.19578860734978
 31
0.0
  0
LINE
  5
4A9
330
2
100
AcDbEntity
  8
S1
  6
HIDDEN2
 62
     3
100
AcDbLine
 10
-15.37211313154829
 20
23.29578860734978
 30
0.0
 11
-15.37211313154829
 21
23.19578860734978
 31
0.0
  0
LINE
  5
4AA
330
2
100
AcDbEntity
  8
S1
  6
HIDDEN2
 62
     3
100
AcDbLine
 10
-15.67211313154824
 20
23.29578860734978
 30
0.0
 11
-15.67211313154824
 21
23.19578860734978
 31
0.0
  0
LINE
  5
4AB
330
2
100
AcDbEntity
  8
S1
  6
HIDDEN2
 62
     3
100
AcDbLine
 10
-15.47211313154831
 20
23.29578860734978
 30
0.0
 11
-15.47211313154831
 21
23.19578860734978
 31
0.0
  0
LINE
  5
4AC
330
2
100
AcDbEntity
  8
S1
  6
HIDDEN2
 62
     3
100
AcDbLine
 10
-15.37211313154829
 20
23.19578860734978
 30
0.0
 11
-15.77211313154826
 21
23.19578860734978
 31
0.0
  0
ARC
  5
4AD
330
2
100
AcDbEntity
  8
S1
  6
HIDDEN2
 62
     3
100
AcDbCircle
 10
-15.39211313154827
 20
23.29578860734978
 30
0.0
 40
0.08
100
AcDbArc
 50
90.0
 51
180.0
  0
ARC
  5
4AE
330
2
100
AcDbEntity
  8
S1
  6
HIDDEN2
 62
     3
100
AcDbCircle
 10
-15.75211313154828
 20
23.29578860734978
 30
0.0
 40
0.08
100
AcDbArc
 50
0.0
 51
90.0
  0
LINE
  5
4AF
330
2
100
AcDbEntity
  8
S1
  6
HIDDEN2
 62
     3
100
AcDbLine
 10
-15.22711313154831
 20
3.785788607349786
 30
0.0
 11
-15.22711313154831
 21
23.21578860734979
 31
0.0
  0
LINE
  5
4B0
330
2
100
AcDbEntity
  8
S1
  6
HIDDEN2
 62
     3
100
AcDbLine
 10
-15.22711313154831
 20
23.37578860734979
 30
0.0
 11
-15.14711313154826
 21
23.37578860734979
 31
0.0
  0
LINE
  5
4B1
330
2
100
AcDbEntity
  8
S1
  6
HIDDEN2
 62
     3
100
AcDbLine
 10
-15.14711313154826
 20
23.21578860734979
 30
0.0
 11
-15.25211313154828
 21
23.21578860734979
 31
0.0
  0
ARC
  5
4B2
330
2
100
AcDbEntity
  8
S1
  6
HIDDEN2
 62
     3
100
AcDbCircle
 10
-18.04211313154825
 20
23.29578860734978
 30
0.0
 40
0.08
100
AcDbArc
 50
90.0
 51
180.0
  0
ARC
  5
4B3
330
2
100
AcDbEntity
  8
S1
  6
HIDDEN2
 62
     3
100
AcDbCircle
 10
-18.40211313154826
 20
23.29578860734978
 30
0.0
 40
0.08
100
AcDbArc
 50
0.0
 51
90.0
  0
LINE
  5
4B4
330
2
100
AcDbEntity
  8
S1
  6
HIDDEN2
 62
     3
100
AcDbLine
 10
-18.42211313154824
 20
23.19578860734978
 30
0.0
 11
-18.02211313154827
 21
23.19578860734978
 31
0.0
  0
LINE
  5
4B5
330
2
100
AcDbEntity
  8
S1
  6
HIDDEN2
 62
     3
100
AcDbLine
 10
-18.32211313154828
 20
23.29578860734978
 30
0.0
 11
-18.32211313154828
 21
23.19578860734978
 31
0.0
  0
LINE
  5
4B6
330
2
100
AcDbEntity
  8
S1
  6
HIDDEN2
 62
     3
100
AcDbLine
 10
-18.12211313154829
 20
23.29578860734978
 30
0.0
 11
-18.12211313154829
 21
23.19578860734978
 31
0.0
  0
LINE
  5
4B7
330
2
100
AcDbEntity
  8
S1
  6
HIDDEN2
 62
     3
100
AcDbLine
 10
-18.42211313154824
 20
23.29578860734978
 30
0.0
 11
-18.42211313154824
 21
23.19578860734978
 31
0.0
  0
LINE
  5
4B8
330
2
100
AcDbEntity
  8
S1
  6
HIDDEN2
 62
     3
100
AcDbLine
 10
-18.02211313154827
 20
23.29578860734978
 30
0.0
 11
-18.02211313154827
 21
23.19578860734978
 31
0.0
  0
LINE
  5
4B9
330
2
100
AcDbEntity
  8
S1
  6
HIDDEN2
 62
     3
100
AcDbLine
 10
-18.54211313154825
 20
23.37578860734979
 30
0.0
 11
-18.54211313154825
 21
23.29578860734978
 31
0.0
  0
LINE
  5
4BA
330
2
100
AcDbEntity
  8
S1
  6
HIDDEN2
 62
     3
100
AcDbLine
 10
-18.46211313154826
 20
23.29578860734978
 30
0.0
 11
-18.54211313154825
 21
23.29578860734978
 31
0.0
  0
LINE
  5
4BB
330
2
100
AcDbEntity
  8
S1
  6
HIDDEN2
 62
     3
100
AcDbLine
 10
-18.46211313154826
 20
23.29578860734978
 30
0.0
 11
-18.46211313154826
 21
23.37578860734979
 31
0.0
  0
LINE
  5
4BC
330
2
100
AcDbEntity
  8
S1
  6
HIDDEN2
 62
     3
100
AcDbLine
 10
-18.56711313154828
 20
23.37578860734979
 30
0.0
 11
-18.56711313154828
 21
23.21578860734979
 31
0.0
  0
LINE
  5
4BD
330
2
100
AcDbEntity
  8
S1
  6
HIDDEN2
 62
     3
100
AcDbLine
 10
-18.64711313154827
 20
23.21578860734979
 30
0.0
 11
-18.54211313154825
 21
23.21578860734979
 31
0.0
  0
LINE
  5
4BE
330
2
100
AcDbEntity
  8
S1
  6
HIDDEN2
 62
     3
100
AcDbLine
 10
-18.56711313154828
 20
23.37578860734979
 30
0.0
 11
-18.64711313154827
 21
23.37578860734979
 31
0.0
  0
LINE
  5
4BF
330
2
100
AcDbEntity
  8
S1
  6
HIDDEN2
 62
     3
100
AcDbLine
 10
-18.56711313154828
 20
3.785788607349786
 30
0.0
 11
-18.56711313154828
 21
4.25078860734979
 31
0.0
  0
LINE
  5
4C0
330
2
100
AcDbEntity
  8
S1
  6
HIDDEN2
 62
     3
100
AcDbLine
 10
-15.32211313154828
 20
24.25078860734979
 30
0.0
 11
-15.32211313154828
 21
23.60078860734978
 31
0.0
  0
LINE
  5
4C1
330
2
100
AcDbEntity
  8
S1
  6
HIDDEN2
 62
     3
100
AcDbLine
 10
-14.57211313154828
 20
24.25078860734979
 30
0.0
 11
-15.32211313154828
 21
24.25078860734979
 31
0.0
  0
LINE
  5
4C2
330
2
100
AcDbEntity
  8
S1
  6
HIDDEN2
 62
     3
100
AcDbLine
 10
-14.57211313154828
 20
24.17078860734978
 30
0.0
 11
-15.32211313154828
 21
24.17078860734978
 31
0.0
  0
LINE
  5
4C3
330
2
100
AcDbEntity
  8
S1
  6
HIDDEN2
 62
     3
100
AcDbLine
 10
-14.67211313154824
 20
23.97078860734976
 30
0.0
 11
-15.22211313154831
 21
23.97078860734976
 31
0.0
  0
ARC
  5
4C4
330
2
100
AcDbEntity
  8
S1
  6
HIDDEN2
 62
     3
100
AcDbCircle
 10
-15.22211313154831
 20
24.07078860734979
 30
0.0
 40
0.1
100
AcDbArc
 50
180.0
 51
270.0
  0
ARC
  5
4C5
330
2
100
AcDbEntity
  8
S1
  6
HIDDEN2
 62
     3
100
AcDbCircle
 10
-15.24711313154829
 20
23.60078860734978
 30
0.0
 40
0.075
100
AcDbArc
 50
180.0
 51
270.0
  0
LINE
  5
4C6
330
2
100
AcDbEntity
  8
S1
  6
HIDDEN2
 62
     3
100
AcDbLine
 10
-14.57211313154828
 20
24.25078860734979
 30
0.0
 11
-14.57211313154828
 21
2.75078860734979
 31
0.0
  0
LINE
  5
4C7
330
2
100
AcDbEntity
  8
S1
  6
HIDDEN2
 62
     3
100
AcDbLine
 10
-15.14711313154826
 20
23.45078860734978
 30
0.0
 11
-15.14711313154826
 21
3.550788607349801
 31
0.0
  0
ARC
  5
4C8
330
2
100
AcDbEntity
  8
S1
  6
HIDDEN2
 62
     3
100
AcDbCircle
 10
-18.54711313154824
 20
23.60078860734978
 30
0.0
 40
0.075
100
AcDbArc
 50
270.0
 51
0.0
  0
ARC
  5
4C9
330
2
100
AcDbEntity
  8
S1
  6
HIDDEN2
 62
     3
100
AcDbCircle
 10
-19.12211313154829
 20
24.07078860734979
 30
0.0
 40
0.1
100
AcDbArc
 50
180.0
 51
270.0
  0
ARC
  5
4CA
330
2
100
AcDbEntity
  8
S1
  6
HIDDEN2
 62
     3
100
AcDbCircle
 10
-18.57211313154827
 20
24.07078860734979
 30
0.0
 40
0.1
100
AcDbArc
 50
270.0
 51
0.0
  0
LINE
  5
4CB
330
2
100
AcDbEntity
  8
S1
  6
HIDDEN2
 62
     3
100
AcDbLine
 10
-19.12211313154829
 20
23.97078860734976
 30
0.0
 11
-18.57211313154827
 21
23.97078860734976
 31
0.0
  0
LINE
  5
4CC
330
2
100
AcDbEntity
  8
S1
  6
HIDDEN2
 62
     3
100
AcDbLine
 10
-19.22211313154831
 20
24.17078860734978
 30
0.0
 11
-18.47211313154831
 21
24.17078860734978
 31
0.0
  0
LINE
  5
4CD
330
2
100
AcDbEntity
  8
S1
  6
HIDDEN2
 62
     3
100
AcDbLine
 10
-19.22211313154831
 20
24.25078860734979
 30
0.0
 11
-18.47211313154831
 21
24.25078860734979
 31
0.0
  0
LINE
  5
4CE
330
2
100
AcDbEntity
  8
S1
  6
HIDDEN2
 62
     3
100
AcDbLine
 10
-18.47211313154831
 20
24.25078860734979
 30
0.0
 11
-18.47211313154831
 21
23.60078860734978
 31
0.0
  0
LINE
  5
4CF
330
2
100
AcDbEntity
  8
S1
  6
HIDDEN2
 62
     3
100
AcDbLine
 10
-19.22211313154831
 20
24.25078860734979
 30
0.0
 11
-19.22211313154831
 21
2.75078860734979
 31
0.0
  0
LINE
  5
4D0
330
2
100
AcDbEntity
  8
S1
  6
HIDDEN2
 62
     3
100
AcDbLine
 10
-18.64711313154827
 20
23.45078860734978
 30
0.0
 11
-18.64711313154827
 21
3.550788607349801
 31
0.0
  0
LINE
  5
4D1
330
2
100
AcDbEntity
  8
S1
  6
HIDDEN2
 62
     3
100
AcDbLine
 10
-15.33211313154827
 20
3.705788607349802
 30
0.0
 11
-15.33211313154827
 21
3.62578860734979
 31
0.0
  0
LINE
  5
4D2
330
2
100
AcDbEntity
  8
S1
  6
HIDDEN2
 62
     3
100
AcDbLine
 10
-15.22711313154831
 20
3.62578860734979
 30
0.0
 11
-15.22711313154831
 21
3.785788607349786
 31
0.0
  0
LINE
  5
4D3
330
2
100
AcDbEntity
  8
S1
  6
HIDDEN2
 62
     3
100
AcDbLine
 10
-15.14711313154826
 20
3.785788607349786
 30
0.0
 11
-15.25211313154828
 21
3.785788607349786
 31
0.0
  0
LINE
  5
4D4
330
2
100
AcDbEntity
  8
S1
  6
HIDDEN2
 62
     3
100
AcDbLine
 10
-15.22711313154831
 20
3.62578860734979
 30
0.0
 11
-15.14711313154826
 21
3.62578860734979
 31
0.0
  0
LINE
  5
4D5
330
2
100
AcDbEntity
  8
S1
  6
HIDDEN2
 62
     3
100
AcDbLine
 10
-15.25211313154828
 20
3.62578860734979
 30
0.0
 11
-15.25211313154828
 21
3.705788607349802
 31
0.0
  0
LINE
  5
4D6
330
2
100
AcDbEntity
  8
S1
  6
HIDDEN2
 62
     3
100
AcDbLine
 10
-15.33211313154827
 20
3.705788607349802
 30
0.0
 11
-15.25211313154828
 21
3.705788607349802
 31
0.0
  0
LINE
  5
4D7
330
2
100
AcDbEntity
  8
S1
  6
HIDDEN2
 62
     3
100
AcDbLine
 10
-18.46211313154826
 20
3.705788607349802
 30
0.0
 11
-18.46211313154826
 21
3.62578860734979
 31
0.0
  0
LINE
  5
4D8
330
2
100
AcDbEntity
  8
S1
  6
HIDDEN2
 62
     3
100
AcDbLine
 10
-18.54211313154825
 20
3.62578860734979
 30
0.0
 11
-18.54211313154825
 21
3.705788607349802
 31
0.0
  0
LINE
  5
4D9
330
2
100
AcDbEntity
  8
S1
  6
HIDDEN2
 62
     3
100
AcDbLine
 10
-18.64711313154827
 20
3.785788607349786
 30
0.0
 11
-18.54211313154825
 21
3.785788607349786
 31
0.0
  0
LINE
  5
4DA
330
2
100
AcDbEntity
  8
S1
  6
HIDDEN2
 62
     3
100
AcDbLine
 10
-18.56711313154828
 20
3.62578860734979
 30
0.0
 11
-18.56711313154828
 21
3.785788607349786
 31
0.0
  0
LINE
  5
4DB
330
2
100
AcDbEntity
  8
S1
  6
HIDDEN2
 62
     3
100
AcDbLine
 10
-18.56711313154828
 20
3.62578860734979
 30
0.0
 11
-18.64711313154827
 21
3.62578860734979
 31
0.0
  0
LINE
  5
4DC
330
2
100
AcDbEntity
  8
S1
  6
HIDDEN2
 62
     3
100
AcDbLine
 10
-18.54211313154825
 20
3.705788607349802
 30
0.0
 11
-18.46211313154826
 21
3.705788607349802
 31
0.0
  0
LINE
  5
4DD
330
2
100
AcDbEntity
  8
S1
  6
HIDDEN2
 62
     3
100
AcDbLine
 10
-17.87197828154829
 20
23.29578860734978
 30
0.0
 11
-18.46211313154826
 21
23.29578860734978
 31
0.0
  0
LINE
  5
4DE
330
2
100
AcDbEntity
  8
S1
  6
HIDDEN2
 62
     3
100
AcDbLine
 10
-15.33211313154827
 20
23.29578860734978
 30
0.0
 11
-15.92224798154824
 21
23.29578860734978
 31
0.0
  0
LINE
  5
4DF
330
2
100
AcDbEntity
  8
S1
  6
HIDDEN2
 62
     3
100
AcDbLine
 10
-18.46211313154826
 20
3.705788607349802
 30
0.0
 11
-15.33211313154827
 21
3.705788607349802
 31
0.0
  0
LINE
  5
4E0
330
2
100
AcDbEntity
  8
S1
  6
HIDDEN2
 62
     3
100
AcDbLine
 10
-16.53461313154831
 20
21.6757886073498
 30
0.0
 11
-16.53461313154831
 21
22.6521947573498
 31
0.0
  0
LINE
  5
4E1
330
2
100
AcDbEntity
  8
S1
  6
HIDDEN2
 62
     3
100
AcDbLine
 10
-17.25961313154828
 20
21.67548810734979
 30
0.0
 11
-17.25961313154828
 21
22.6521947573498
 31
0.0
  0
LINE
  5
4E2
330
2
100
AcDbEntity
  8
S1
  6
HIDDEN2
 62
     3
100
AcDbLine
 10
-16.53461313154831
 20
6.675788607349801
 30
0.0
 11
-16.53461313154831
 21
6.935961757349787
 31
0.0
  0
LINE
  5
4E3
330
2
100
AcDbEntity
  8
S1
  6
HIDDEN2
 62
     3
100
AcDbLine
 10
-17.25961313154828
 20
6.675788607349801
 30
0.0
 11
-17.25961313154828
 21
6.935961757349787
 31
0.0
  0
LINE
  5
4E4
330
2
100
AcDbEntity
  8
S1
  6
HIDDEN2
 62
     3
100
AcDbLine
 10
-17.87197828154829
 20
23.29578860734978
 30
0.0
 11
-17.67211313154824
 21
23.29578860734978
 31
0.0
  0
LINE
  5
4E5
330
2
100
AcDbEntity
  8
S1
  6
HIDDEN2
 62
     3
100
AcDbLine
 10
-18.54211313154825
 20
3.62578860734979
 30
0.0
 11
-15.25211313154828
 21
3.62578860734979
 31
0.0
  0
LINE
  5
4E6
330
2
100
AcDbEntity
  8
S1
  6
HIDDEN2
 62
     3
100
AcDbLine
 10
-18.54211313154825
 20
23.37578860734979
 30
0.0
 11
-15.25211313154828
 21
23.37578860734979
 31
0.0
  0
ARC
  5
4E7
330
2
100
AcDbEntity
  8
S1
  6
HIDDEN2
 62
     3
100
AcDbCircle
 10
-16.99711313154829
 20
7.675788607349801
 30
0.0
 40
0.65
100
AcDbArc
 50
180.0
 51
235.2885059999925
  0
LINE
  5
4E8
330
2
100
AcDbEntity
  8
S1
  6
HIDDEN2
 62
     3
100
AcDbLine
 10
-17.64711313154826
 20
7.675788607349801
 30
0.0
 11
-17.64711313154826
 21
8.58161725734979
 31
0.0
  0
ARC
  5
4E9
330
2
100
AcDbEntity
  8
S1
  6
HIDDEN2
 62
     3
100
AcDbCircle
 10
-16.79711313154824
 20
7.675788607349801
 30
0.0
 40
0.65
100
AcDbArc
 50
304.7114940000075
 51
0.0
  0
LINE
  5
4EA
330
2
100
AcDbEntity
  8
S1
  6
HIDDEN2
 62
     3
100
AcDbLine
 10
-16.34711313154831
 20
8.580788607349802
 30
0.0
 11
-17.44711313154828
 21
8.580788607349802
 31
0.0
  0
LINE
  5
4EB
330
2
100
AcDbEntity
  8
S1
  6
HIDDEN2
 62
     3
100
AcDbLine
 10
-16.14711313154827
 20
7.675788607349801
 30
0.0
 11
-16.14711313154827
 21
8.580788607349802
 31
0.0
  0
LINE
  5
4EC
330
2
100
AcDbEntity
  8
S1
  6
HIDDEN2
 62
     3
100
AcDbLine
 10
-16.34711313154831
 20
8.50078860734979
 30
0.0
 11
-17.44711313154828
 21
8.50078860734979
 31
0.0
  0
ARC
  5
4ED
330
2
100
AcDbEntity
  8
S1
  6
HIDDEN2
 62
     3
100
AcDbCircle
 10
-16.28461313154831
 20
6.935961757349787
 30
0.0
 40
0.25
100
AcDbArc
 50
124.7114940000075
 51
180.0
  0
ARC
  5
4EE
330
2
100
AcDbEntity
  8
S1
  6
HIDDEN2
 62
     3
100
AcDbCircle
 10
-17.50961313154828
 20
6.935961757349787
 30
0.0
 40
0.25
100
AcDbArc
 50
0.0
 51
55.28850599999251
  0
LINE
  5
4EF
330
2
100
AcDbEntity
  8
S1
  6
HIDDEN2
 62
     3
100
AcDbLine
 10
-16.93461313154829
 20
21.35078860734978
 30
0.0
 11
-16.85961313154824
 21
21.35078860734978
 31
0.0
  0
ARC
  5
4F0
330
2
100
AcDbEntity
  8
S1
  6
HIDDEN2
 62
     3
100
AcDbCircle
 10
-16.85961313154824
 20
21.6757886073498
 30
0.0
 40
0.325
100
AcDbArc
 50
270.0
 51
0.0
  0
ARC
  5
4F1
330
2
100
AcDbEntity
  8
S1
  6
HIDDEN2
 62
     3
100
AcDbCircle
 10
-16.93461313154829
 20
21.6757886073498
 30
0.0
 40
0.325
100
AcDbArc
 50
180.0
 51
270.0
  0
LINE
  5
4F2
330
2
100
AcDbEntity
  8
S1
  6
HIDDEN2
 62
     3
100
AcDbLine
 10
-16.93461313154829
 20
6.350788607349784
 30
0.0
 11
-16.85961313154824
 21
6.350788607349784
 31
0.0
  0
ARC
  5
4F3
330
2
100
AcDbEntity
  8
S1
  6
HIDDEN2
 62
     3
100
AcDbCircle
 10
-16.85961313154824
 20
6.675788607349801
 30
0.0
 40
0.325
100
AcDbArc
 50
270.0
 51
0.0
  0
ARC
  5
4F4
330
2
100
AcDbEntity
  8
S1
  6
HIDDEN2
 62
     3
100
AcDbCircle
 10
-16.93461313154829
 20
6.675788607349801
 30
0.0
 40
0.325
100
AcDbArc
 50
180.0
 51
270.0
  0
ARC
  5
4F5
330
2
100
AcDbEntity
  8
S1
  6
HIDDEN2
 62
     3
100
AcDbCircle
 10
-16.89711313154826
 20
8.50078860734979
 30
0.0
 40
0.55
100
AcDbArc
 50
180.0
 51
0.0
  0
ARC
  5
4F6
330
2
100
AcDbEntity
  8
S1
  6
HIDDEN2
 62
     3
100
AcDbCircle
 10
-16.24711313154829
 20
8.580788607349802
 30
0.0
 40
0.1
100
AcDbArc
 50
0.0
 51
180.0
  0
ARC
  5
4F7
330
2
100
AcDbEntity
  8
S1
  6
HIDDEN2
 62
     3
100
AcDbCircle
 10
-17.54711313154824
 20
8.580788607349802
 30
0.0
 40
0.1
100
AcDbArc
 50
0.0
 51
180.0
  0
LINE
  5
4F8
330
2
100
AcDbEntity
  8
S1
  6
HIDDEN2
 62
     3
100
AcDbLine
 10
-18.64711313154827
 20
19.45078860734978
 30
0.0
 11
-18.29711313154824
 21
19.45078860734978
 31
0.0
  0
LINE
  5
4F9
330
2
100
AcDbEntity
  8
S1
  6
HIDDEN2
 62
     3
100
AcDbLine
 10
-18.64711313154827
 20
21.00078860734979
 30
0.0
 11
-18.29711313154824
 21
21.00078860734979
 31
0.0
  0
LINE
  5
4FA
330
2
100
AcDbEntity
  8
S1
  6
HIDDEN2
 62
     3
100
AcDbLine
 10
-18.64711313154827
 20
21.20078860734978
 30
0.0
 11
-18.00891003154827
 21
21.20078860734978
 31
0.0
  0
LINE
  5
4FB
330
2
100
AcDbEntity
  8
S1
  6
HIDDEN2
 62
     3
100
AcDbLine
 10
-18.64711313154827
 20
19.25078860734979
 30
0.0
 11
-18.00891003154827
 21
19.25078860734979
 31
0.0
  0
ARC
  5
4FC
330
2
100
AcDbEntity
  8
S1
  6
HIDDEN2
 62
     3
100
AcDbCircle
 10
-18.29711313154824
 20
20.75078860734979
 30
0.0
 40
0.25
100
AcDbArc
 50
0.0
 51
90.0
  0
LINE
  5
4FD
330
2
100
AcDbEntity
  8
S1
  6
HIDDEN2
 62
     3
100
AcDbLine
 10
-18.04711313154824
 20
19.70078860734978
 30
0.0
 11
-18.04711313154824
 21
20.75078860734979
 31
0.0
  0
ARC
  5
4FE
330
2
100
AcDbEntity
  8
S1
  6
HIDDEN2
 62
     3
100
AcDbCircle
 10
-18.29711313154824
 20
19.70078860734978
 30
0.0
 40
0.25
100
AcDbArc
 50
270.0
 51
0.0
  0
LINE
  5
4FF
330
2
100
AcDbEntity
  8
S1
  6
HIDDEN2
 62
     3
100
AcDbLine
 10
-16.27211313154826
 20
19.8632886073498
 30
0.0
 11
-17.24851928154827
 21
19.8632886073498
 31
0.0
  0
LINE
  5
500
330
2
100
AcDbEntity
  8
S1
  6
HIDDEN2
 62
     3
100
AcDbLine
 10
-16.27211313154826
 20
20.5882886073498
 30
0.0
 11
-17.24851928154827
 21
20.5882886073498
 31
0.0
  0
ARC
  5
501
330
2
100
AcDbEntity
  8
S1
  6
HIDDEN2
 62
     3
100
AcDbCircle
 10
-16.27211313154826
 20
20.18828860734979
 30
0.0
 40
0.325
100
AcDbArc
 50
270.0
 51
0.0
  0
ARC
  5
502
330
2
100
AcDbEntity
  8
S1
  6
HIDDEN2
 62
     3
100
AcDbCircle
 10
-16.27211313154826
 20
20.26328860734978
 30
0.0
 40
0.325
100
AcDbArc
 50
0.0
 51
90.0
  0
LINE
  5
503
330
2
100
AcDbEntity
  8
S1
  6
HIDDEN2
 62
     3
100
AcDbLine
 10
-15.94711313154828
 20
20.18828860734979
 30
0.0
 11
-15.94711313154828
 21
20.26328860734978
 31
0.0
  0
LINE
  5
504
330
2
100
AcDbEntity
  8
S1
  6
HIDDEN2
 62
     3
100
AcDbLine
 10
-17.29293578154828
 20
22.97578860734978
 30
0.0
 11
-16.48959438154825
 21
22.97578860734978
 31
0.0
  0
LINE
  5
505
330
2
100
AcDbEntity
  8
S1
  6
HIDDEN2
 62
     3
100
AcDbLine
 10
-17.29293578154828
 20
22.97578860734978
 30
0.0
 11
-16.48959438154825
 21
22.97578860734978
 31
0.0
  0
LINE
  5
506
330
2
100
AcDbEntity
  8
S1
  6
HIDDEN2
 62
     3
100
AcDbLine
 10
-17.29293578154828
 20
22.97578860734978
 30
0.0
 11
-16.48959438154825
 21
22.97578860734978
 31
0.0
  0
LINE
  5
507
330
2
100
AcDbEntity
  8
S1
  6
HIDDEN2
 62
     3
100
AcDbLine
 10
-17.29293578154828
 20
22.97578860734978
 30
0.0
 11
-16.48959438154825
 21
22.97578860734978
 31
0.0
  0
LINE
  5
508
330
2
100
AcDbEntity
  8
S1
  6
HIDDEN2
 62
     3
100
AcDbLine
 10
-15.95163363154829
 20
23.23753450734981
 30
0.0
 11
-16.23940833154829
 21
23.1083295573498
 31
0.0
  0
LINE
  5
509
330
2
100
AcDbEntity
  8
S1
  6
HIDDEN2
 62
     3
100
AcDbLine
 10
-17.5548179315483
 20
23.1083295573498
 30
0.0
 11
-17.8425926315483
 21
23.23753450734981
 31
0.0
  0
ARC
  5
50A
330
2
100
AcDbEntity
  8
S1
  6
HIDDEN2
 62
     3
100
AcDbCircle
 10
-16.03461313154831
 20
22.6521947573498
 30
0.0
 40
0.5
100
AcDbArc
 50
114.1791069999964
 51
180.0
  0
ARC
  5
50B
330
2
100
AcDbEntity
  8
S1
  6
HIDDEN2
 62
     3
100
AcDbCircle
 10
-17.75961313154828
 20
22.6521947573498
 30
0.0
 40
0.5
100
AcDbArc
 50
0.0
 51
65.82089300000358
  0
ARC
  5
50C
330
2
100
AcDbEntity
  8
S1
  6
HIDDEN2
 62
     3
100
AcDbCircle
 10
-17.82211313154828
 20
23.28314800734978
 30
0.0
 40
0.05
100
AcDbArc
 50
180.0
 51
245.8208930000036
  0
ARC
  5
50D
330
2
100
AcDbEntity
  8
S1
  6
HIDDEN2
 62
     3
100
AcDbCircle
 10
-15.97211313154831
 20
23.28314800734978
 30
0.0
 40
0.05
100
AcDbArc
 50
294.1791069999964
 51
0.0
  0
LINE
  5
50E
330
2
100
AcDbEntity
  8
S1
  6
HIDDEN2
 62
     3
100
AcDbLine
 10
-17.70465408154824
 20
20.88349340734979
 30
0.0
 11
-17.78084268154826
 21
21.0531862073498
 31
0.0
  0
LINE
  5
50F
330
2
100
AcDbEntity
  8
S1
  6
HIDDEN2
 62
     3
100
AcDbLine
 10
-17.70465408154824
 20
19.56808380734978
 30
0.0
 11
-17.78084268154826
 21
19.3983910073498
 31
0.0
  0
ARC
  5
510
330
2
100
AcDbEntity
  8
S1
  6
HIDDEN2
 62
     3
100
AcDbCircle
 10
-17.24851928154827
 20
21.0882886073498
 30
0.0
 40
0.5
100
AcDbArc
 50
204.1791069999861
 51
270.0
  0
ARC
  5
511
330
2
100
AcDbEntity
  8
S1
  6
HIDDEN2
 62
     3
100
AcDbCircle
 10
-17.24851928154827
 20
19.3632886073498
 30
0.0
 40
0.5
100
AcDbArc
 50
90.0
 51
155.8208930000138
  0
ARC
  5
512
330
2
100
AcDbEntity
  8
S1
  6
HIDDEN2
 62
     3
100
AcDbCircle
 10
-18.00891003154827
 20
20.95078860734978
 30
0.0
 40
0.25
100
AcDbArc
 50
24.17910699998617
 51
90.0
  0
ARC
  5
513
330
2
100
AcDbEntity
  8
S1
  6
HIDDEN2
 62
     3
100
AcDbCircle
 10
-18.00891003154827
 20
19.50078860734979
 30
0.0
 40
0.25
100
AcDbArc
 50
270.0
 51
335.8208930000138
  0
LINE
  5
514
330
2
100
AcDbEntity
  8
S1
  6
HIDDEN2
 62
     3
100
AcDbLine
 10
-16.27211313154826
 20
4.863288607349801
 30
0.0
 11
-17.24851928154827
 21
4.863288607349801
 31
0.0
  0
LINE
  5
515
330
2
100
AcDbEntity
  8
S1
  6
HIDDEN2
 62
     3
100
AcDbLine
 10
-16.27211313154826
 20
5.588288607349795
 30
0.0
 11
-17.24851928154827
 21
5.588288607349795
 31
0.0
  0
ARC
  5
516
330
2
100
AcDbEntity
  8
S1
  6
HIDDEN2
 62
     3
100
AcDbCircle
 10
-16.27211313154826
 20
5.263288607349778
 30
0.0
 40
0.325
100
AcDbArc
 50
0.0
 51
90.0
  0
ARC
  5
517
330
2
100
AcDbEntity
  8
S1
  6
HIDDEN2
 62
     3
100
AcDbCircle
 10
-16.27211313154826
 20
5.18828860734979
 30
0.0
 40
0.325
100
AcDbArc
 50
270.0
 51
0.0
  0
LINE
  5
518
330
2
100
AcDbEntity
  8
S1
  6
HIDDEN2
 62
     3
100
AcDbLine
 10
-18.64711313154827
 20
6.200788607349778
 30
0.0
 11
-18.00891003154827
 21
6.200788607349778
 31
0.0
  0
LINE
  5
519
330
2
100
AcDbEntity
  8
S1
  6
HIDDEN2
 62
     3
100
AcDbLine
 10
-18.64711313154827
 20
4.25078860734979
 30
0.0
 11
-18.00891003154827
 21
4.25078860734979
 31
0.0
  0
ARC
  5
51A
330
2
100
AcDbEntity
  8
S1
  6
HIDDEN2
 62
     3
100
AcDbCircle
 10
-18.29711313154824
 20
5.75078860734979
 30
0.0
 40
0.25
100
AcDbArc
 50
0.0
 51
90.0
  0
ARC
  5
51B
330
2
100
AcDbEntity
  8
S1
  6
HIDDEN2
 62
     3
100
AcDbCircle
 10
-18.29711313154824
 20
4.700788607349778
 30
0.0
 40
0.25
100
AcDbArc
 50
270.0
 51
0.0
  0
ARC
  5
51C
330
2
100
AcDbEntity
  8
S1
  6
HIDDEN2
 62
     3
100
AcDbCircle
 10
-18.00891003154827
 20
4.50078860734979
 30
0.0
 40
0.25
100
AcDbArc
 50
270.0
 51
335.8208930000138
  0
ARC
  5
51D
330
2
100
AcDbEntity
  8
S1
  6
HIDDEN2
 62
     3
100
AcDbCircle
 10
-18.00891003154827
 20
5.950788607349778
 30
0.0
 40
0.25
100
AcDbArc
 50
24.17910699998617
 51
90.0
  0
ARC
  5
51E
330
2
100
AcDbEntity
  8
S1
  6
HIDDEN2
 62
     3
100
AcDbCircle
 10
-17.24851928154827
 20
4.363288607349801
 30
0.0
 40
0.5
100
AcDbArc
 50
90.0
 51
155.8208930000138
  0
ARC
  5
51F
330
2
100
AcDbEntity
  8
S1
  6
HIDDEN2
 62
     3
100
AcDbCircle
 10
-17.24851928154827
 20
6.088288607349795
 30
0.0
 40
0.5
100
AcDbArc
 50
204.1791069999861
 51
270.0
  0
LINE
  5
520
330
2
100
AcDbEntity
  8
S1
  6
HIDDEN2
 62
     3
100
AcDbLine
 10
-17.70465408154824
 20
4.568083807349779
 30
0.0
 11
-17.78084268154826
 21
4.3983910073498
 31
0.0
  0
LINE
  5
521
330
2
100
AcDbEntity
  8
S1
  6
HIDDEN2
 62
     3
100
AcDbLine
 10
-17.70465408154824
 20
5.883493407349789
 30
0.0
 11
-17.78084268154826
 21
6.053186207349796
 31
0.0
  0
LINE
  5
522
330
2
100
AcDbEntity
  8
S1
  6
HIDDEN2
 62
     3
100
AcDbLine
 10
-18.04711313154824
 20
4.700788607349778
 30
0.0
 11
-18.04711313154824
 21
5.75078860734979
 31
0.0
  0
LINE
  5
523
330
2
100
AcDbEntity
  8
S1
  6
HIDDEN2
 62
     3
100
AcDbLine
 10
-18.64711313154827
 20
4.450788607349778
 30
0.0
 11
-18.29711313154824
 21
4.450788607349778
 31
0.0
  0
LINE
  5
524
330
2
100
AcDbEntity
  8
S1
  6
HIDDEN2
 62
     3
100
AcDbLine
 10
-18.64711313154827
 20
6.00078860734979
 30
0.0
 11
-18.29711313154824
 21
6.00078860734979
 31
0.0
  0
CIRCLE
  5
525
330
2
100
AcDbEntity
  8
S1
  6
HIDDEN2
 62
     3
100
AcDbCircle
 10
-16.89711313154826
 20
6.675788607349801
 30
0.0
 40
0.5
  0
CIRCLE
  5
526
330
2
100
AcDbEntity
  8
S1
  6
HIDDEN2
 62
     3
100
AcDbCircle
 10
-16.89711313154826
 20
6.675788607349801
 30
0.0
 40
0.325
  0
CIRCLE
  5
527
330
2
100
AcDbEntity
  8
S1
  6
HIDDEN2
 62
     3
100
AcDbCircle
 10
-16.89711313154826
 20
6.675788607349801
 30
0.0
 40
0.6000000000000001
  0
CIRCLE
  5
528
330
2
100
AcDbEntity
  8
S1
  6
HIDDEN2
 62
     3
100
AcDbCircle
 10
-16.89711313154826
 20
6.675788607349801
 30
0.0
 40
0.425
  0
CIRCLE
  5
529
330
2
100
AcDbEntity
  8
S1
  6
HIDDEN2
 62
     3
100
AcDbCircle
 10
-16.89711313154826
 20
6.675788607349801
 30
0.0
 40
0.2
  0
CIRCLE
  5
52A
330
2
100
AcDbEntity
  8
S1
  6
HIDDEN2
 62
     3
100
AcDbCircle
 10
-16.89711313154826
 20
21.6757886073498
 30
0.0
 40
0.5
  0
CIRCLE
  5
52B
330
2
100
AcDbEntity
  8
S1
  6
HIDDEN2
 62
     3
100
AcDbCircle
 10
-16.89711313154826
 20
21.6757886073498
 30
0.0
 40
0.325
  0
CIRCLE
  5
52C
330
2
100
AcDbEntity
  8
S1
  6
HIDDEN2
 62
     3
100
AcDbCircle
 10
-16.89711313154826
 20
21.6757886073498
 30
0.0
 40
0.6000000000000001
  0
CIRCLE
  5
52D
330
2
100
AcDbEntity
  8
S1
  6
HIDDEN2
 62
     3
100
AcDbCircle
 10
-16.89711313154826
 20
21.6757886073498
 30
0.0
 40
0.425
  0
CIRCLE
  5
52E
330
2
100
AcDbEntity
  8
S1
  6
HIDDEN2
 62
     3
100
AcDbCircle
 10
-16.89711313154826
 20
21.6757886073498
 30
0.0
 40
0.2
  0
CIRCLE
  5
52F
330
2
100
AcDbEntity
  8
S1
  6
HIDDEN2
 62
     3
100
AcDbCircle
 10
3.102886868451733
 20
21.6757886073498
 30
0.0
 40
0.5
  0
CIRCLE
  5
530
330
2
100
AcDbEntity
  8
S1
  6
HIDDEN2
 62
     3
100
AcDbCircle
 10
3.102886868451733
 20
21.6757886073498
 30
0.0
 40
0.325
  0
CIRCLE
  5
531
330
2
100
AcDbEntity
  8
S1
  6
HIDDEN2
 62
     3
100
AcDbCircle
 10
3.102886868451733
 20
21.6757886073498
 30
0.0
 40
0.6000000000000001
  0
CIRCLE
  5
532
330
2
100
AcDbEntity
  8
S1
  6
HIDDEN2
 62
     3
100
AcDbCircle
 10
3.102886868451733
 20
21.6757886073498
 30
0.0
 40
0.425
  0
CIRCLE
  5
533
330
2
100
AcDbEntity
  8
S1
  6
HIDDEN2
 62
     3
100
AcDbCircle
 10
3.102886868451733
 20
21.6757886073498
 30
0.0
 40
0.2
  0
CIRCLE
  5
534
330
2
100
AcDbEntity
  8
S1
  6
HIDDEN2
 62
     3
100
AcDbCircle
 10
3.102886868451733
 20
6.675788607349801
 30
0.0
 40
0.5
  0
CIRCLE
  5
535
330
2
100
AcDbEntity
  8
S1
  6
HIDDEN2
 62
     3
100
AcDbCircle
 10
3.102886868451733
 20
6.675788607349801
 30
0.0
 40
0.325
  0
CIRCLE
  5
536
330
2
100
AcDbEntity
  8
S1
  6
HIDDEN2
 62
     3
100
AcDbCircle
 10
3.102886868451733
 20
6.675788607349801
 30
0.0
 40
0.6000000000000001
  0
CIRCLE
  5
537
330
2
100
AcDbEntity
  8
S1
  6
HIDDEN2
 62
     3
100
AcDbCircle
 10
3.102886868451733
 20
6.675788607349801
 30
0.0
 40
0.425
  0
CIRCLE
  5
538
330
2
100
AcDbEntity
  8
S1
  6
HIDDEN2
 62
     3
100
AcDbCircle
 10
3.102886868451733
 20
6.675788607349801
 30
0.0
 40
0.2
  0
LINE
  5
539
330
2
100
AcDbEntity
  8
S1
  6
HIDDEN2
 62
     3
100
AcDbLine
 10
-18.12500158154829
 20
21.6757886073498
 30
0.0
 11
4.453484468451748
 21
21.6757886073498
 31
0.0
  0
LINE
  5
53A
330
2
100
AcDbEntity
  8
S1
  6
HIDDEN2
 62
     3
100
AcDbLine
 10
-18.12500158154829
 20
6.675788607349801
 30
0.0
 11
4.453484468451748
 21
6.675788607349801
 31
0.0
  0
LINE
  5
53B
330
2
100
AcDbEntity
  8
S1
  6
HIDDEN2
 62
     3
100
AcDbLine
 10
3.102886868451733
 20
5.125888207349817
 30
0.0
 11
3.102886868451733
 21
23.83903560734978
 31
0.0
  0
LINE
  5
53C
330
2
100
AcDbEntity
  8
S1
  6
HIDDEN2
 62
     3
100
AcDbLine
 10
-16.89711313154826
 20
5.125888207349817
 30
0.0
 11
-16.89711313154826
 21
23.83903560734978
 31
0.0
  0
LINE
  5
53D
330
2
100
AcDbEntity
  8
KIJUN
  6
S130
100
AcDbLine
 10
-6.897113131548266
 20
19.65356306841511
 30
0.0
 11
-6.897113131548266
 21
8.698014146284492
 31
0.0
  0
LINE
  5
541
330
2
100
AcDbEntity
  8
KIJUN
  6
S130
100
AcDbLine
 10
-1.419338670482943
 20
14.1757886073498
 30
0.0
 11
-12.37488759261359
 21
14.1757886073498
 31
0.0
  0
ENDSEC
  0
SECTION
  2
OBJECTS
  0
DICTIONARY
  5
7
330
0
100
AcDbDictionary
281
     1
  3
ACAD_COLOR
350
2D
  3
ACAD_GROUP
350
29
  3
ACAD_LAYOUT
350
B
  3
ACAD_MATERIAL
350
2C
  3
ACAD_MLINESTYLE
350
2A
  3
ACAD_PLOTSETTINGS
350
2B
  3
ACAD_PLOTSTYLENAME
350
6
  3
ACDBHEADERROUNDTRIPXREC
350
5A4
  3
AcDbVariableDictionary
350
59F
  0
DICTIONARY
  5
11
330
10
100
AcDbDictionary
280
     1
281
     1
  3
ACAD_LAYERFILTERS
360
12
  3
ACAD_LAYERSTATES
360
13
  0
DICTIONARY
  5
2D
102
{ACAD_REACTORS
330
7
102
}
330
7
100
AcDbDictionary
281
     1
  0
DICTIONARY
  5
29
102
{ACAD_REACTORS
330
7
102
}
330
7
100
AcDbDictionary
281
     1
  0
DICTIONARY
  5
B
102
{ACAD_REACTORS
330
7
102
}
330
7
100
AcDbDictionary
281
     1
  3
Model
350
A
  3
レイアウト1
350
F
  0
DICTIONARY
  5
2C
102
{ACAD_REACTORS
330
7
102
}
330
7
100
AcDbDictionary
281
     1
  0
DICTIONARY
  5
2A
102
{ACAD_REACTORS
330
7
102
}
330
7
100
AcDbDictionary
281
     1
  3
Standard
350
2F
  0
DICTIONARY
  5
2B
102
{ACAD_REACTORS
330
7
102
}
330
7
100
AcDbDictionary
281
     1
  0
ACDBDICTIONARYWDFLT
  5
6
102
{ACAD_REACTORS
330
7
102
}
330
7
100
AcDbDictionary
281
     1
  3
Normal
350
5
100
AcDbDictionaryWithDefault
340
5
  0
DICTIONARY
  5
5A4
102
{ACAD_REACTORS
330
7
102
}
330
7
100
AcDbDictionary
281
     1
  3
COLORDICT
350
5A6
  3
MATERIALDICT
350
5A5
  0
DICTIONARY
  5
59F
102
{ACAD_REACTORS
330
7
102
}
330
7
100
AcDbDictionary
281
     1
  3
DIMASSOC
350
5A1
  3
HIDETEXT
350
5A0
  3
PROJECTNAME
350
5A2
  0
DICTIONARY
  5
12
102
{ACAD_REACTORS
330
11
102
}
330
11
100
AcDbDictionary
281
     1
  0
DICTIONARY
  5
13
102
{ACAD_REACTORS
330
11
102
}
330
11
100
AcDbDictionary
281
     1
  0
LAYOUT
  5
A
102
{ACAD_XDICTIONARY
360
5A7
102
}
102
{ACAD_REACTORS
330
B
102
}
330
B
100
AcDbPlotSettings
  1

  2
10F06M_RICOH_SP-8100
  4
A4
  6

 40
5.873749732971191
 41
5.873747825622558
 42
5.873748779296875
 43
5.873748779296875
 44
209.9733276367187
 45
296.9259948730469
 46
5.429999999999999
 47
0.0
 48
0.0
 49
0.0
140
0.0
141
0.0
142
1.0
143
1.382388793903341
 70
 11956
 72
     1
 73
     0
 74
     1
  7
tmsacad.ctb
 75
     0
147
0.7233854935820042
148
0.0064050313486632
149
0.0060110292993159
100
AcDbLayout
  1
Model
 70
     1
 71
     0
 10
0.0
 20
0.0
 11
12.0
 21
9.0
 12
0.0
 22
0.0
 32
0.0
 14
0.0
 24
0.0
 34
0.0
 15
0.0
 25
0.0
 35
0.0
146
0.0
 13
0.0
 23
0.0
 33
0.0
 16
1.0
 26
0.0
 36
0.0
 17
0.0
 27
1.0
 37
0.0
 76
     0
330
2
  0
LAYOUT
  5
F
102
{ACAD_XDICTIONARY
360
5A9
102
}
102
{ACAD_REACTORS
330
B
102
}
330
B
100
AcDbPlotSettings
  1

  2
None
  4

  6

 40
0.0
 41
0.0
 42
0.0
 43
0.0
 44
0.0
 45
0.0
 46
0.0
 47
0.0
 48
0.0
 49
0.0
140
0.0
141
0.0
142
1.0
143
1.0
 70
   688
 72
     0
 73
     0
 74
     5
  7
tmsacad.ctb
 75
    16
147
1.0
148
0.0
149
0.0
100
AcDbLayout
  1
レイアウト1
 70
     1
 71
     1
 10
0.0
 20
0.0
 11
12.0
 21
9.0
 12
0.0
 22
0.0
 32
0.0
 14
0.0
 24
0.0
 34
0.0
 15
0.0
 25
0.0
 35
0.0
146
0.0
 13
0.0
 23
0.0
 33
0.0
 16
1.0
 26
0.0
 36
0.0
 17
0.0
 27
1.0
 37
0.0
 76
     0
330
C
  0
MLINESTYLE
  5
2F
102
{ACAD_REACTORS
330
2A
102
}
330
2A
100
AcDbMlineStyle
  2
STANDARD
 70
     0
  3

 62
   256
 51
90.0
 52
90.0
 71
     2
 49
0.5
 62
   256
  6
BYLAYER
 49
-0.5
 62
   256
  6
BYLAYER
  0
ACDBPLACEHOLDER
  5
5
102
{ACAD_REACTORS
330
6
102
}
330
6
  0
XRECORD
  5
5A6
102
{ACAD_REACTORS
330
5A4
102
}
330
5A4
100
AcDbXrecord
280
     1
340
2D
  0
XRECORD
  5
5A5
102
{ACAD_REACTORS
330
5A4
102
}
330
5A4
100
AcDbXrecord
280
     1
340
2C
  0
DICTIONARYVAR
  5
5A1
102
{ACAD_REACTORS
330
59F
102
}
330
59F
100
DictionaryVariables
280
     0
  1
1
  0
DICTIONARYVAR
  5
5A0
102
{ACAD_REACTORS
330
59F
102
}
330
59F
100
DictionaryVariables
280
     0
  1
1
  0
DICTIONARYVAR
  5
5A2
102
{ACAD_REACTORS
330
59F
102
}
330
59F
100
DictionaryVariables
280
     0
  1

  0
DICTIONARY
  5
5A7
330
A
100
AcDbDictionary
280
     1
281
     1
  3
ACAD_XREC_ROUNDTRIP
360
5A8
  0
DICTIONARY
  5
5A9
330
F
100
AcDbDictionary
280
     1
281
     1
  3
ACAD_XREC_ROUNDTRIP
360
5AA
  0
XRECORD
  5
5A8
102
{ACAD_REACTORS
330
5A7
102
}
330
5A7
100
AcDbXrecord
280
     1
102
SHADEPLOT
 70
     0
102
SHADEPLOTRESLEVEL
 70
     2
102
SHADEPLOTCUSTOMDPI
 70
   300
  0
XRECORD
  5
5AA
102
{ACAD_REACTORS
330
5A9
102
}
330
5A9
100
AcDbXrecord
280
     1
102
SHADEPLOT
 70
     0
102
SHADEPLOTRESLEVEL
 70
     2
102
SHADEPLOTCUSTOMDPI
 70
   300
  0
ENDSEC
  0
EOF
