  0
SECTION
  2
HEADER
  9
$ACADVER
  1
AC1015
  9
$ACADMAINTVER
 70
    20
  9
$DWGCODEPAGE
  3
ANSI_932
  9
$INSBASE
 10
0.4999999440410648
 20
372.5008351249344
 30
0.0
  9
$EXTMIN
 10
-62.20916657500106
 20
-57.60900816462117
 30
-0.0015258207003583
  9
$EXTMAX
 10
62.82440241755034
 20
55.41558878917204
 30
0.0000000349246037
  9
$LIMMIN
 10
0.0
 20
0.0
  9
$LIMMAX
 10
420.0
 20
297.0
  9
$ORTHOMODE
 70
     1
  9
$REGENMODE
 70
     0
  9
$FILLMODE
 70
     1
  9
$QTEXTMODE
 70
     0
  9
$MIRRTEXT
 70
     0
  9
$LTSCALE
 40
1.0
  9
$ATTMODE
 70
     1
  9
$TEXTSIZE
 40
2.5
  9
$TRACEWID
 40
1.0
  9
$TEXTSTYLE
  7
Standard
  9
$CLAYER
  8
GAIKEI
  9
$CELTYPE
  6
ByLayer
  9
$CECOLOR
 62
   256
  9
$CELTSCALE
 40
1.0
  9
$DISPSILH
 70
     0
  9
$DIMSCALE
 40
1.0
  9
$DIMASZ
 40
2.0
  9
$DIMEXO
 40
2.0
  9
$DIMDLI
 40
8.0
  9
$DIMRND
 40
0.0
  9
$DIMDLE
 40
0.0
  9
$DIMEXE
 40
2.0
  9
$DIMTP
 40
0.0
  9
$DIMTM
 40
0.0
  9
$DIMTXT
 40
2.5
  9
$DIMCEN
 40
0.0
  9
$DIMTSZ
 40
0.0
  9
$DIMTOL
 70
     0
  9
$DIMLIM
 70
     0
  9
$DIMTIH
 70
     0
  9
$DIMTOH
 70
     0
  9
$DIMSE1
 70
     0
  9
$DIMSE2
 70
     0
  9
$DIMTAD
 70
     3
  9
$DIMZIN
 70
     0
  9
$DIMBLK
  1

  9
$DIMASO
 70
     1
  9
$DIMSHO
 70
     1
  9
$DIMPOST
  1

  9
$DIMAPOST
  1

  9
$DIMALT
 70
     0
  9
$DIMALTD
 70
     2
  9
$DIMALTF
 40
25.4
  9
$DIMLFAC
 40
1.0
  9
$DIMTOFL
 70
     1
  9
$DIMTVP
 40
0.0
  9
$DIMTIX
 70
     0
  9
$DIMSOXD
 70
     0
  9
$DIMSAH
 70
     1
  9
$DIMBLK1
  1
OPEN30
  9
$DIMBLK2
  1
OPEN30
  9
$DIMSTYLE
  2
STANDARD
  9
$DIMCLRD
 70
     0
  9
$DIMCLRE
 70
     0
  9
$DIMCLRT
 70
     0
  9
$DIMTFAC
 40
1.0
  9
$DIMGAP
 40
0.5
  9
$DIMJUST
 70
     0
  9
$DIMSD1
 70
     0
  9
$DIMSD2
 70
     0
  9
$DIMTOLJ
 70
     1
  9
$DIMTZIN
 70
     0
  9
$DIMALTZ
 70
     0
  9
$DIMALTTZ
 70
     0
  9
$DIMUPT
 70
     0
  9
$DIMDEC
 70
     4
  9
$DIMTDEC
 70
     4
  9
$DIMALTU
 70
     2
  9
$DIMALTTD
 70
     2
  9
$DIMTXSTY
  7
Standard
  9
$DIMAUNIT
 70
     0
  9
$DIMADEC
 70
     0
  9
$DIMALTRND
 40
0.0
  9
$DIMAZIN
 70
     0
  9
$DIMDSEP
 70
    46
  9
$DIMATFIT
 70
     3
  9
$DIMFRAC
 70
     0
  9
$DIMLDRBLK
  1
OPEN30
  9
$DIMLUNIT
 70
     2
  9
$DIMLWD
 70
    -2
  9
$DIMLWE
 70
    -2
  9
$DIMTMOVE
 70
     0
  9
$LUNITS
 70
     2
  9
$LUPREC
 70
     4
  9
$SKETCHINC
 40
1.0
  9
$FILLETRAD
 40
0.0
  9
$AUNITS
 70
     0
  9
$AUPREC
 70
     0
  9
$MENU
  1
.
  9
$ELEVATION
 40
0.0
  9
$PELEVATION
 40
0.0
  9
$THICKNESS
 40
0.0
  9
$LIMCHECK
 70
     0
  9
$CHAMFERA
 40
0.0
  9
$CHAMFERB
 40
0.0
  9
$CHAMFERC
 40
0.0
  9
$CHAMFERD
 40
0.0
  9
$SKPOLY
 70
     0
  9
$TDCREATE
 40
2454349.434269746
  9
$TDUCREATE
 40
2454349.059269746
  9
$TDUPDATE
 40
2455292.624272512
  9
$TDUUPDATE
 40
2455292.249272512
  9
$TDINDWG
 40
0.1906619097
  9
$TDUSRTIMER
 40
0.1906619097
  9
$USRTIMER
 70
     1
  9
$ANGBASE
 50
0.0
  9
$ANGDIR
 70
     0
  9
$PDMODE
 70
     0
  9
$PDSIZE
 40
0.0
  9
$PLINEWID
 40
0.0
  9
$SPLFRAME
 70
     0
  9
$SPLINETYPE
 70
     6
  9
$SPLINESEGS
 70
     8
  9
$HANDSEED
  5
225
  9
$SURFTAB1
 70
     6
  9
$SURFTAB2
 70
     6
  9
$SURFTYPE
 70
     6
  9
$SURFU
 70
     6
  9
$SURFV
 70
     6
  9
$UCSBASE
  2

  9
$UCSNAME
  2

  9
$UCSORG
 10
0.0
 20
0.0
 30
0.0
  9
$UCSXDIR
 10
1.0
 20
0.0
 30
0.0
  9
$UCSYDIR
 10
0.0
 20
1.0
 30
0.0
  9
$UCSORTHOREF
  2

  9
$UCSORTHOVIEW
 70
     0
  9
$UCSORGTOP
 10
0.0
 20
0.0
 30
0.0
  9
$UCSORGBOTTOM
 10
0.0
 20
0.0
 30
0.0
  9
$UCSORGLEFT
 10
0.0
 20
0.0
 30
0.0
  9
$UCSORGRIGHT
 10
0.0
 20
0.0
 30
0.0
  9
$UCSORGFRONT
 10
0.0
 20
0.0
 30
0.0
  9
$UCSORGBACK
 10
0.0
 20
0.0
 30
0.0
  9
$PUCSBASE
  2

  9
$PUCSNAME
  2

  9
$PUCSORG
 10
0.0
 20
0.0
 30
0.0
  9
$PUCSXDIR
 10
1.0
 20
0.0
 30
0.0
  9
$PUCSYDIR
 10
0.0
 20
1.0
 30
0.0
  9
$PUCSORTHOREF
  2

  9
$PUCSORTHOVIEW
 70
     0
  9
$PUCSORGTOP
 10
0.0
 20
0.0
 30
0.0
  9
$PUCSORGBOTTOM
 10
0.0
 20
0.0
 30
0.0
  9
$PUCSORGLEFT
 10
0.0
 20
0.0
 30
0.0
  9
$PUCSORGRIGHT
 10
0.0
 20
0.0
 30
0.0
  9
$PUCSORGFRONT
 10
0.0
 20
0.0
 30
0.0
  9
$PUCSORGBACK
 10
0.0
 20
0.0
 30
0.0
  9
$USERI1
 70
     0
  9
$USERI2
 70
     0
  9
$USERI3
 70
     0
  9
$USERI4
 70
     0
  9
$USERI5
 70
     0
  9
$USERR1
 40
0.0
  9
$USERR2
 40
0.0
  9
$USERR3
 40
0.0
  9
$USERR4
 40
0.0
  9
$USERR5
 40
0.0
  9
$WORLDVIEW
 70
     1
  9
$SHADEDGE
 70
     3
  9
$SHADEDIF
 70
    70
  9
$TILEMODE
 70
     1
  9
$MAXACTVP
 70
    64
  9
$PINSBASE
 10
0.0
 20
0.0
 30
0.0
  9
$PLIMCHECK
 70
     0
  9
$PEXTMIN
 10
0.0
 20
0.0
 30
0.0
  9
$PEXTMAX
 10
0.0
 20
0.0
 30
0.0
  9
$PLIMMIN
 10
0.0
 20
0.0
  9
$PLIMMAX
 10
12.0
 20
9.0
  9
$UNITMODE
 70
     0
  9
$VISRETAIN
 70
     1
  9
$PLINEGEN
 70
     0
  9
$PSLTSCALE
 70
     1
  9
$TREEDEPTH
 70
  3020
  9
$CMLSTYLE
  2
Standard
  9
$CMLJUST
 70
     0
  9
$CMLSCALE
 40
20.0
  9
$PROXYGRAPHICS
 70
     1
  9
$MEASUREMENT
 70
     1
  9
$CELWEIGHT
370
    -1
  9
$ENDCAPS
280
     0
  9
$JOINSTYLE
280
     0
  9
$LWDISPLAY
290
     0
  9
$INSUNITS
 70
     4
  9
$HYPERLINKBASE
  1

  9
$STYLESHEET
  1

  9
$XEDIT
290
     1
  9
$CEPSNTYPE
380
     0
  9
$PSTYLEMODE
290
     1
  9
$FINGERPRINTGUID
  2
{FDEAD578-A652-11D2-9A35-0060089B3A3F}
  9
$VERSIONGUID
  2
{7FBE0F18-3930-4452-A7D2-8474E8E68AFA}
  9
$EXTNAMES
290
     1
  9
$PSVPSCALE
 40
0.0
  9
$OLESTARTUP
290
     0
  0
ENDSEC
  0
SECTION
  2
CLASSES
  0
CLASS
  1
ACDBDICTIONARYWDFLT
  2
AcDbDictionaryWithDefault
  3
ObjectDBX Classes
 90
        0
280
     0
281
     0
  0
CLASS
  1
ACDBPLACEHOLDER
  2
AcDbPlaceHolder
  3
ObjectDBX Classes
 90
        0
280
     0
281
     0
  0
CLASS
  1
LAYOUT
  2
AcDbLayout
  3
ObjectDBX Classes
 90
        0
280
     0
281
     0
  0
CLASS
  1
DICTIONARYVAR
  2
AcDbDictionaryVar
  3
ObjectDBX Classes
 90
        0
280
     0
281
     0
  0
ENDSEC
  0
SECTION
  2
TABLES
  0
TABLE
  2
VPORT
  5
1B
330
0
100
AcDbSymbolTable
 70
     3
  0
VPORT
  5
21D
330
1B
100
AcDbSymbolTableRecord
100
AcDbViewportTableRecord
  2
*Active
 70
     0
 10
0.0
 20
0.0
 11
1.0
 21
1.0
 12
0.307617921274641
 22
-1.096709687724569
 13
0.0
 23
0.0
 14
10.0
 24
10.0
 15
10.0
 25
10.0
 16
0.0
 26
0.0
 36
1.0
 17
0.0
 27
0.0
 37
0.0
 40
113.8884792235037
 41
1.392857142857142
 42
50.0
 43
0.0
 44
0.0
 50
0.0
 51
0.0
 71
     0
 72
  1000
 73
     1
 74
     2
 75
     0
 76
     0
 77
     0
 78
     0
281
     0
 65
     1
110
0.0
120
0.0
130
0.0
111
1.0
121
0.0
131
0.0
112
0.0
122
1.0
132
0.0
 79
     0
146
0.0
  0
ENDTAB
  0
TABLE
  2
LTYPE
  5
16
330
0
100
AcDbSymbolTable
 70
     1
  0
LTYPE
  5
17
330
16
100
AcDbSymbolTableRecord
100
AcDbLinetypeTableRecord
  2
ByBlock
 70
     0
  3

 72
    65
 73
     0
 40
0.0
  0
LTYPE
  5
18
330
16
100
AcDbSymbolTableRecord
100
AcDbLinetypeTableRecord
  2
ByLayer
 70
     0
  3

 72
    65
 73
     0
 40
0.0
  0
LTYPE
  5
8
330
16
100
AcDbSymbolTableRecord
100
AcDbLinetypeTableRecord
  2
Continuous
 70
     0
  3
Solid line
 72
    65
 73
     0
 40
0.0
  0
ENDTAB
  0
TABLE
  2
LAYER
  5
10
102
{ACAD_XDICTIONARY
360
11
102
}
330
0
100
AcDbSymbolTable
 70
     7
  0
LAYER
  5
4
330
10
100
AcDbSymbolTableRecord
100
AcDbLayerTableRecord
  2
0
 70
     0
 62
     7
  6
Continuous
370
    -3
390
5
  0
LAYER
  5
37
330
10
100
AcDbSymbolTableRecord
100
AcDbLayerTableRecord
  2
WAKU
 70
     0
 62
     4
  6
Continuous
370
    -3
390
5
  0
LAYER
  5
30
330
10
100
AcDbSymbolTableRecord
100
AcDbLayerTableRecord
  2
MOJI1
 70
     0
 62
     2
  6
Continuous
370
    -3
390
5
  0
LAYER
  5
32
330
10
100
AcDbSymbolTableRecord
100
AcDbLayerTableRecord
  2
TOUROKU
 70
     0
 62
     1
  6
Continuous
370
    -3
390
5
  0
LAYER
  5
162
330
10
100
AcDbSymbolTableRecord
100
AcDbLayerTableRecord
  2
DEFPOINTS
 70
     0
 62
     7
  6
Continuous
290
     0
370
    -3
390
5
  0
LAYER
  5
2D
330
10
100
AcDbSymbolTableRecord
100
AcDbLayerTableRecord
  2
GAIKEI
 70
     0
 62
     7
  6
Continuous
370
    -3
390
5
  0
LAYER
  5
156
330
10
100
AcDbSymbolTableRecord
100
AcDbLayerTableRecord
  2
SUNPO
 70
     0
 62
     3
  6
Continuous
370
    -3
390
5
  0
ENDTAB
  0
TABLE
  2
STYLE
  5
13
330
0
100
AcDbSymbolTable
 70
     1
  0
STYLE
  5
14
330
13
100
AcDbSymbolTableRecord
100
AcDbTextStyleTableRecord
  2
Standard
 70
     0
 40
0.0
 41
1.0
 50
0.0
 71
     0
 42
2.5
  3
MONOTXT.shx
  4
BIGFONT.shx
  0
ENDTAB
  0
TABLE
  2
VIEW
  5
19
330
0
100
AcDbSymbolTable
 70
     0
  0
ENDTAB
  0
TABLE
  2
UCS
  5
1A
330
0
100
AcDbSymbolTable
 70
     0
  0
ENDTAB
  0
TABLE
  2
APPID
  5
1D
330
0
100
AcDbSymbolTable
 70
     1
  0
APPID
  5
1E
330
1D
100
AcDbSymbolTableRecord
100
AcDbRegAppTableRecord
  2
ACAD
 70
     0
  0
ENDTAB
  0
TABLE
  2
DIMSTYLE
  5
1F
330
0
100
AcDbSymbolTable
 70
     1
100
AcDbDimStyleTable
 71
     1
340
20
  0
DIMSTYLE
105
20
102
{ACAD_REACTORS
330
173
330
166
330
155
102
}
330
1F
100
AcDbSymbolTableRecord
100
AcDbDimStyleTableRecord
  2
STANDARD
 70
     0
 40
0.0
 41
2.0
 42
2.0
 43
8.0
 44
2.0
 73
     0
 74
     0
 77
     3
140
3.0
141
0.0
173
     1
279
     2
288
     1
340
14
341
21
343
21
344
21
  0
ENDTAB
  0
TABLE
  2
BLOCK_RECORD
  5
1
330
0
100
AcDbSymbolTable
 70
     7
  0
BLOCK_RECORD
  5
2
330
1
100
AcDbSymbolTableRecord
100
AcDbBlockTableRecord
  2
*Model_Space
340
A
  0
BLOCK_RECORD
  5
C
330
1
100
AcDbSymbolTableRecord
100
AcDbBlockTableRecord
  2
*Paper_Space
340
F
  0
BLOCK_RECORD
  5
21
330
1
100
AcDbSymbolTableRecord
100
AcDbBlockTableRecord
  2
_OPEN30
340
0
102
{BLKREFS
331
179
331
17A
331
16C
331
16D
331
15E
331
15F
331
1F7
331
1F8
331
203
331
204
331
211
331
212
102
}
  0
BLOCK_RECORD
  5
174
330
1
100
AcDbSymbolTableRecord
100
AcDbBlockTableRecord
  2
*D1
340
0
  0
BLOCK_RECORD
  5
167
330
1
100
AcDbSymbolTableRecord
100
AcDbBlockTableRecord
  2
*D2
340
0
  0
BLOCK_RECORD
  5
157
330
1
100
AcDbSymbolTableRecord
100
AcDbBlockTableRecord
  2
*D3
340
0
  0
BLOCK_RECORD
  5
1F3
330
1
100
AcDbSymbolTableRecord
100
AcDbBlockTableRecord
  2
*D4
340
0
  0
BLOCK_RECORD
  5
1FF
330
1
100
AcDbSymbolTableRecord
100
AcDbBlockTableRecord
  2
*D5
340
0
  0
BLOCK_RECORD
  5
20B
330
1
100
AcDbSymbolTableRecord
100
AcDbBlockTableRecord
  2
*D6
340
0
  0
ENDTAB
  0
ENDSEC
  0
SECTION
  2
BLOCKS
  0
BLOCK
  5
3
330
2
100
AcDbEntity
  8
0
100
AcDbBlockBegin
  2
*Model_Space
 70
     0
 10
0.0
 20
0.0
 30
0.0
  3
*Model_Space
  1

  0
ENDBLK
  5
9
330
2
100
AcDbEntity
  8
0
100
AcDbBlockEnd
  0
BLOCK
  5
D
330
C
100
AcDbEntity
 67
     1
  8
0
100
AcDbBlockBegin
  2
*Paper_Space
 70
     0
 10
0.0
 20
0.0
 30
0.0
  3
*Paper_Space
  1

  0
ENDBLK
  5
E
330
C
100
AcDbEntity
 67
     1
  8
0
100
AcDbBlockEnd
  0
BLOCK
  5
22
330
21
100
AcDbEntity
  8
0
100
AcDbBlockBegin
  2
_OPEN30
 70
     0
 10
0.0
 20
0.0
 30
0.0
  3
_OPEN30
  1

  0
LINE
  5
23
330
21
100
AcDbEntity
  8
0
  6
ByBlock
 62
     0
100
AcDbLine
 10
-1.0
 20
0.26794919
 30
0.0
 11
0.0
 21
0.0
 31
0.0
  0
LINE
  5
24
330
21
100
AcDbEntity
  8
0
  6
ByBlock
 62
     0
100
AcDbLine
 10
0.0
 20
0.0
 30
0.0
 11
-1.0
 21
-0.26794919
 31
0.0
  0
LINE
  5
25
330
21
100
AcDbEntity
  8
0
  6
ByBlock
 62
     0
100
AcDbLine
 10
0.0
 20
0.0
 30
0.0
 11
-1.0
 21
0.0
 31
0.0
  0
ENDBLK
  5
26
330
21
100
AcDbEntity
  8
0
100
AcDbBlockEnd
  0
BLOCK
  5
175
330
174
100
AcDbEntity
  8
0
100
AcDbBlockBegin
  2
*D1
 70
     1
 10
0.0
 20
0.0
 30
0.0
  3
*D1
  1

  0
LINE
  5
176
330
174
100
AcDbEntity
  8
SUNPO
 62
     0
370
    -2
100
AcDbLine
 10
18.57507388723229
 20
348.8581264214169
 30
0.0
 11
18.57507388723229
 21
356.8581264214168
 31
0.0
  0
LINE
  5
177
330
174
100
AcDbEntity
  8
SUNPO
 62
     0
370
    -2
100
AcDbLine
 10
79.0750738630322
 20
348.8581264214169
 30
0.0
 11
79.0750738630322
 21
356.8581264214168
 31
0.0
  0
LINE
  5
178
330
174
100
AcDbEntity
  8
SUNPO
 62
     0
370
    -2
100
AcDbLine
 10
20.57507388723229
 20
354.8581264214168
 30
0.0
 11
77.0750738630322
 21
354.8581264214168
 31
0.0
  0
INSERT
  5
179
330
174
100
AcDbEntity
  8
SUNPO
 62
     0
370
    -2
100
AcDbBlockReference
  2
_OPEN30
 10
18.57507388723229
 20
354.8581264214168
 30
0.0
 41
2.0
 42
2.0
 43
2.0
 50
180.0
  0
INSERT
  5
17A
330
174
100
AcDbEntity
  8
SUNPO
 62
     0
370
    -2
100
AcDbBlockReference
  2
_OPEN30
 10
79.0750738630322
 20
354.8581264214168
 30
0.0
 41
2.0
 42
2.0
 43
2.0
  0
MTEXT
  5
17B
330
174
100
AcDbEntity
  8
SUNPO
 62
     0
100
AcDbMText
 10
48.82507387513225
 20
356.6081264214168
 30
0.0
 40
2.5
 41
0.0
 71
     5
 72
     1
  1
\A1;1210
 73
     1
 44
1.0
1001
ACAD
1000
MTEXTBEGIN
1070
    73
1070
     1
1070
    44
1040
1.0
1070
    74
1070
     0
1000
MTEXTEND
  0
POINT
  5
17C
330
174
100
AcDbEntity
  8
DEFPOINTS
 62
     0
100
AcDbPoint
 10
18.57507388723229
 20
346.8581264214169
 30
0.0
  0
POINT
  5
17D
330
174
100
AcDbEntity
  8
DEFPOINTS
 62
     0
100
AcDbPoint
 10
79.0750738630322
 20
346.8581264214169
 30
0.0
  0
POINT
  5
17E
330
174
100
AcDbEntity
  8
DEFPOINTS
 62
     0
100
AcDbPoint
 10
79.0750738630322
 20
354.8581264214168
 30
0.0
  0
ENDBLK
  5
17F
330
174
100
AcDbEntity
  8
0
100
AcDbBlockEnd
  0
BLOCK
  5
168
330
167
100
AcDbEntity
  8
0
100
AcDbBlockBegin
  2
*D2
 70
     1
 10
0.0
 20
0.0
 30
0.0
  3
*D2
  1

  0
LINE
  5
169
330
167
100
AcDbEntity
  8
SUNPO
 62
     0
370
    -2
100
AcDbLine
 10
80.63530867330454
 20
310.6661027301074
 30
0.0
 11
88.63530867330453
 21
310.6661027301074
 31
0.0
  0
LINE
  5
16A
330
167
100
AcDbEntity
  8
SUNPO
 62
     0
370
    -2
100
AcDbLine
 10
80.63530867330451
 20
346.8584128657682
 30
0.0
 11
88.63530867330453
 21
346.8584128657682
 31
0.0
  0
LINE
  5
16B
330
167
100
AcDbEntity
  8
SUNPO
 62
     0
370
    -2
100
AcDbLine
 10
86.63530867330454
 20
312.6661027301074
 30
0.0
 11
86.63530867330454
 21
344.8584128657682
 31
0.0
  0
INSERT
  5
16C
330
167
100
AcDbEntity
  8
SUNPO
 62
     0
370
    -2
100
AcDbBlockReference
  2
_OPEN30
 10
86.63530867330454
 20
310.6661027301074
 30
0.0
 41
2.0
 42
2.0
 43
2.0
 50
270.0
  0
INSERT
  5
16D
330
167
100
AcDbEntity
  8
SUNPO
 62
     0
370
    -2
100
AcDbBlockReference
  2
_OPEN30
 10
86.63530867330454
 20
346.8584128657682
 30
0.0
 41
2.0
 42
2.0
 43
2.0
 50
90.0
  0
MTEXT
  5
16E
330
167
100
AcDbEntity
  8
SUNPO
 62
     0
100
AcDbMText
 10
84.88530867330448
 20
328.7622577979377
 30
0.0
 40
2.5
 41
0.0
 71
     5
 72
     1
  1
\A1;724
 11
0.0000000000000001
 21
1.0
 31
0.0
 73
     1
 44
1.0
1001
ACAD
1000
MTEXTBEGIN
1070
    73
1070
     1
1070
    44
1040
1.0
1070
    74
1070
     0
1000
MTEXTEND
  0
POINT
  5
16F
330
167
100
AcDbEntity
  8
DEFPOINTS
 62
     0
100
AcDbPoint
 10
78.63530867330453
 20
310.6661027301074
 30
0.0
  0
POINT
  5
170
330
167
100
AcDbEntity
  8
DEFPOINTS
 62
     0
100
AcDbPoint
 10
78.6353086733045
 20
346.8584128657682
 30
0.0
  0
POINT
  5
171
330
167
100
AcDbEntity
  8
DEFPOINTS
 62
     0
100
AcDbPoint
 10
86.63530867330454
 20
346.8584128657682
 30
0.0
  0
ENDBLK
  5
172
330
167
100
AcDbEntity
  8
0
100
AcDbBlockEnd
  0
BLOCK
  5
158
330
157
100
AcDbEntity
  8
0
100
AcDbBlockBegin
  2
*D3
 70
     1
 10
0.0
 20
0.0
 30
0.0
  3
*D3
  1

  0
LINE
  5
159
330
157
100
AcDbEntity
  8
SUNPO
 62
     0
370
    -2
100
AcDbLine
 10
98.7635311257692
 20
348.864658925976
 30
0.0
 11
98.7635311257692
 21
356.8581264214168
 31
0.0
  0
LINE
  5
15A
330
157
100
AcDbEntity
  8
SUNPO
 62
     0
370
    -2
100
AcDbLine
 10
103.2135311257692
 20
348.864658925976
 30
0.0
 11
103.2135311257692
 21
356.8581264214168
 31
0.0
  0
LINE
  5
15B
330
157
100
AcDbEntity
  8
SUNPO
 62
     0
370
    -2
100
AcDbLine
 10
96.76353112576919
 20
354.8581264214168
 30
0.0
 11
94.76353112576919
 21
354.8581264214168
 31
0.0
  0
LINE
  5
15C
330
157
100
AcDbEntity
  8
SUNPO
 62
     0
370
    -2
100
AcDbLine
 10
105.2135311257692
 20
354.8581264214168
 30
0.0
 11
112.3801977924358
 21
354.8581264214168
 31
0.0
  0
LINE
  5
15D
330
157
100
AcDbEntity
  8
SUNPO
 62
     0
370
    -2
100
AcDbLine
 10
98.7635311257692
 20
354.8581264214168
 30
0.0
 11
103.2135311257692
 21
354.8581264214168
 31
0.0
  0
INSERT
  5
15E
330
157
100
AcDbEntity
  8
SUNPO
 62
     0
370
    -2
100
AcDbBlockReference
  2
_OPEN30
 10
98.7635311257692
 20
354.8581264214168
 30
0.0
 41
2.0
 42
2.0
 43
2.0
  0
INSERT
  5
15F
330
157
100
AcDbEntity
  8
SUNPO
 62
     0
370
    -2
100
AcDbBlockReference
  2
_OPEN30
 10
103.2135311257692
 20
354.8581264214168
 30
0.0
 41
2.0
 42
2.0
 43
2.0
 50
180.0
  0
MTEXT
  5
160
330
157
100
AcDbEntity
  8
SUNPO
 62
     0
100
AcDbMText
 10
109.7968644591025
 20
356.6081264214168
 30
0.0
 40
2.5
 41
0.0
 71
     5
 72
     1
  1
\A1;89
 73
     1
 44
1.0
1001
ACAD
1000
MTEXTBEGIN
1070
    73
1070
     1
1070
    44
1040
1.0
1070
    74
1070
     0
1000
MTEXTEND
  0
POINT
  5
161
330
157
100
AcDbEntity
  8
DEFPOINTS
 62
     0
100
AcDbPoint
 10
98.7635311257692
 20
346.864658925976
 30
0.0
  0
POINT
  5
163
330
157
100
AcDbEntity
  8
DEFPOINTS
 62
     0
100
AcDbPoint
 10
103.2135311257692
 20
346.864658925976
 30
0.0
  0
POINT
  5
164
330
157
100
AcDbEntity
  8
DEFPOINTS
 62
     0
100
AcDbPoint
 10
103.2135311257692
 20
354.8581264214168
 30
0.0
  0
ENDBLK
  5
165
330
157
100
AcDbEntity
  8
0
100
AcDbBlockEnd
  0
BLOCK
  5
1FD
330
1F3
100
AcDbEntity
  8
0
100
AcDbBlockBegin
  2
*D4
 70
     1
 10
0.0
 20
0.0
 30
0.0
  3
*D4
  1

  0
LINE
  5
1F4
330
1F3
100
AcDbEntity
  8
SUNPO
 62
     0
370
    -2
100
AcDbLine
 10
-46.13191254693652
 20
33.7706798590558
 30
0.0
 11
-46.13191254693652
 21
41.7706798590558
 31
0.0
  0
LINE
  5
1F5
330
1F3
100
AcDbEntity
  8
SUNPO
 62
     0
370
    -2
100
AcDbLine
 10
14.36808742886339
 20
33.7706798590558
 30
0.0
 11
14.36808742886339
 21
41.7706798590558
 31
0.0
  0
LINE
  5
1F6
330
1F3
100
AcDbEntity
  8
SUNPO
 62
     0
370
    -2
100
AcDbLine
 10
-44.13191254693652
 20
39.77067985905581
 30
0.0
 11
12.36808742886339
 21
39.77067985905581
 31
0.0
  0
INSERT
  5
1F7
330
1F3
100
AcDbEntity
  8
SUNPO
 62
     0
370
    -2
100
AcDbBlockReference
  2
_OPEN30
 10
-46.13191254693652
 20
39.77067985905581
 30
0.0
 41
2.0
 42
2.0
 43
2.0
 50
180.0
  0
INSERT
  5
1F8
330
1F3
100
AcDbEntity
  8
SUNPO
 62
     0
370
    -2
100
AcDbBlockReference
  2
_OPEN30
 10
14.36808742886339
 20
39.77067985905581
 30
0.0
 41
2.0
 42
2.0
 43
2.0
  0
MTEXT
  5
1F9
330
1F3
100
AcDbEntity
  8
SUNPO
 62
     0
100
AcDbMText
 10
-15.88191255903656
 20
41.5206798590558
 30
0.0
 40
2.5
 41
0.0
 71
     5
 72
     1
  1
\A1;1210
 73
     1
 44
1.0
1001
ACAD
1000
MTEXTBEGIN
1070
    73
1070
     1
1070
    44
1040
1.0
1070
    74
1070
     0
1000
MTEXTEND
  0
POINT
  5
1FA
330
1F3
100
AcDbEntity
  8
DEFPOINTS
 62
     0
100
AcDbPoint
 10
-46.13191254693652
 20
31.7706798590558
 30
0.0
  0
POINT
  5
1FB
330
1F3
100
AcDbEntity
  8
DEFPOINTS
 62
     0
100
AcDbPoint
 10
14.36808742886339
 20
31.7706798590558
 30
0.0
  0
POINT
  5
1FC
330
1F3
100
AcDbEntity
  8
DEFPOINTS
 62
     0
100
AcDbPoint
 10
14.36808742886339
 20
39.77067985905581
 30
0.0
  0
ENDBLK
  5
1FE
330
1F3
100
AcDbEntity
  8
0
100
AcDbBlockEnd
  0
BLOCK
  5
209
330
1FF
100
AcDbEntity
  8
0
100
AcDbBlockBegin
  2
*D5
 70
     1
 10
0.0
 20
0.0
 30
0.0
  3
*D5
  1

  0
LINE
  5
200
330
1FF
100
AcDbEntity
  8
SUNPO
 62
     0
370
    -2
100
AcDbLine
 10
15.92832223913572
 20
-4.421343832253683
 30
0.0
 11
23.92832223913572
 21
-4.421343832253686
 31
0.0
  0
LINE
  5
201
330
1FF
100
AcDbEntity
  8
SUNPO
 62
     0
370
    -2
100
AcDbLine
 10
15.92832223913569
 20
31.77096630340713
 30
0.0
 11
23.92832223913572
 21
31.77096630340713
 31
0.0
  0
LINE
  5
202
330
1FF
100
AcDbEntity
  8
SUNPO
 62
     0
370
    -2
100
AcDbLine
 10
21.92832223913572
 20
-2.421343832253686
 30
0.0
 11
21.92832223913573
 21
29.77096630340714
 31
0.0
  0
INSERT
  5
203
330
1FF
100
AcDbEntity
  8
SUNPO
 62
     0
370
    -2
100
AcDbBlockReference
  2
_OPEN30
 10
21.92832223913572
 20
-4.421343832253685
 30
0.0
 41
2.0
 42
2.0
 43
2.0
 50
270.0
  0
INSERT
  5
204
330
1FF
100
AcDbEntity
  8
SUNPO
 62
     0
370
    -2
100
AcDbBlockReference
  2
_OPEN30
 10
21.92832223913573
 20
31.77096630340713
 30
0.0
 41
2.0
 42
2.0
 43
2.0
 50
90.0
  0
MTEXT
  5
205
330
1FF
100
AcDbEntity
  8
SUNPO
 62
     0
100
AcDbMText
 10
20.17832223913572
 20
13.67481123557673
 30
0.0
 40
2.5
 41
0.0
 71
     5
 72
     1
  1
\A1;724
 11
0.0000000000000001
 21
1.0
 31
0.0
 73
     1
 44
1.0
1001
ACAD
1000
MTEXTBEGIN
1070
    73
1070
     1
1070
    44
1040
1.0
1070
    74
1070
     0
1000
MTEXTEND
  0
POINT
  5
206
330
1FF
100
AcDbEntity
  8
DEFPOINTS
 62
     0
100
AcDbPoint
 10
13.92832223913572
 20
-4.421343832253683
 30
0.0
  0
POINT
  5
207
330
1FF
100
AcDbEntity
  8
DEFPOINTS
 62
     0
100
AcDbPoint
 10
13.92832223913569
 20
31.77096630340713
 30
0.0
  0
POINT
  5
208
330
1FF
100
AcDbEntity
  8
DEFPOINTS
 62
     0
100
AcDbPoint
 10
21.92832223913573
 20
31.77096630340713
 30
0.0
  0
ENDBLK
  5
20A
330
1FF
100
AcDbEntity
  8
0
100
AcDbBlockEnd
  0
BLOCK
  5
217
330
20B
100
AcDbEntity
  8
0
100
AcDbBlockBegin
  2
*D6
 70
     1
 10
0.0
 20
0.0
 30
0.0
  3
*D6
  1

  0
LINE
  5
20C
330
20B
100
AcDbEntity
  8
SUNPO
 62
     0
370
    -2
100
AcDbLine
 10
34.05654469160038
 20
33.77721236361492
 30
0.0
 11
34.05654469160038
 21
41.7706798590558
 31
0.0
  0
LINE
  5
20D
330
20B
100
AcDbEntity
  8
SUNPO
 62
     0
370
    -2
100
AcDbLine
 10
38.50654469160037
 20
33.77721236361492
 30
0.0
 11
38.50654469160037
 21
41.7706798590558
 31
0.0
  0
LINE
  5
20E
330
20B
100
AcDbEntity
  8
SUNPO
 62
     0
370
    -2
100
AcDbLine
 10
32.05654469160038
 20
39.77067985905581
 30
0.0
 11
30.05654469160038
 21
39.77067985905581
 31
0.0
  0
LINE
  5
20F
330
20B
100
AcDbEntity
  8
SUNPO
 62
     0
370
    -2
100
AcDbLine
 10
40.50654469160036
 20
39.77067985905581
 30
0.0
 11
47.67321135826703
 21
39.77067985905581
 31
0.0
  0
LINE
  5
210
330
20B
100
AcDbEntity
  8
SUNPO
 62
     0
370
    -2
100
AcDbLine
 10
34.05654469160038
 20
39.77067985905581
 30
0.0
 11
38.50654469160037
 21
39.77067985905581
 31
0.0
  0
INSERT
  5
211
330
20B
100
AcDbEntity
  8
SUNPO
 62
     0
370
    -2
100
AcDbBlockReference
  2
_OPEN30
 10
34.05654469160038
 20
39.77067985905581
 30
0.0
 41
2.0
 42
2.0
 43
2.0
  0
INSERT
  5
212
330
20B
100
AcDbEntity
  8
SUNPO
 62
     0
370
    -2
100
AcDbBlockReference
  2
_OPEN30
 10
38.50654469160037
 20
39.77067985905581
 30
0.0
 41
2.0
 42
2.0
 43
2.0
 50
180.0
  0
MTEXT
  5
213
330
20B
100
AcDbEntity
  8
SUNPO
 62
     0
100
AcDbMText
 10
45.0898780249337
 20
41.5206798590558
 30
0.0
 40
2.5
 41
0.0
 71
     5
 72
     1
  1
\A1;89
 73
     1
 44
1.0
1001
ACAD
1000
MTEXTBEGIN
1070
    73
1070
     1
1070
    44
1040
1.0
1070
    74
1070
     0
1000
MTEXTEND
  0
POINT
  5
214
330
20B
100
AcDbEntity
  8
DEFPOINTS
 62
     0
100
AcDbPoint
 10
34.05654469160038
 20
31.77721236361492
 30
0.0
  0
POINT
  5
215
330
20B
100
AcDbEntity
  8
DEFPOINTS
 62
     0
100
AcDbPoint
 10
38.50654469160037
 20
31.77721236361492
 30
0.0
  0
POINT
  5
216
330
20B
100
AcDbEntity
  8
DEFPOINTS
 62
     0
100
AcDbPoint
 10
38.50654469160037
 20
39.77067985905581
 30
0.0
  0
ENDBLK
  5
218
330
20B
100
AcDbEntity
  8
0
100
AcDbBlockEnd
  0
ENDSEC
  0
SECTION
  2
ENTITIES
  0
TEXT
  5
2F
330
2
100
AcDbEntity
  8
MOJI1
100
AcDbText
 10
-35.20698649012795
 20
51.4133885625738
 30
0.0
 40
4.0
  1
ハイビジョンプラズマディスプレイ
100
AcDbText
  0
TEXT
  5
31
330
2
100
AcDbEntity
  8
TOUROKU
100
AcDbText
 10
42.25963020946627
 20
45.41338856257334
 30
0.0
 40
2.0
  1
ＴＨ５０ＰＦ２０Ｊ
 72
     2
 11
62.79296354279961
 21
45.41338856257334
 31
0.0
100
AcDbText
  0
TEXT
  5
33
330
2
100
AcDbEntity
  8
MOJI1
100
AcDbText
 10
-20.70698649012775
 20
-21.58661143742631
 30
0.0
 40
3.0
  1
４６０Ｗ
100
AcDbText
  0
TEXT
  5
34
330
2
100
AcDbEntity
  8
MOJI1
100
AcDbText
 10
-20.70698649012775
 20
-26.58661143742631
 30
0.0
 40
3.0
  1
５０型（１２６８ｃｍ）１６：９
100
AcDbText
  0
TEXT
  5
35
330
2
100
AcDbEntity
  8
MOJI1
100
AcDbText
 10
-20.70698649012775
 20
-36.58661143742631
 30
0.0
 40
3.0
  1
５００００００：１
100
AcDbText
  0
LINE
  5
36
330
2
100
AcDbEntity
  8
WAKU
 62
     1
100
AcDbLine
 10
-62.20698649012774
 20
-22.58661143742632
 30
0.0
 11
62.79301350987203
 21
-22.58661143742632
 31
0.0
  0
LINE
  5
38
330
2
100
AcDbEntity
  8
WAKU
 62
     1
100
AcDbLine
 10
-62.20698649012774
 20
-32.58661143742632
 30
0.0
 11
62.79301350987203
 21
-32.58661143742632
 31
0.0
  0
LINE
  5
39
330
2
100
AcDbEntity
  8
WAKU
 62
     4
100
AcDbLine
 10
-62.20698649012774
 20
-12.58661143742631
 30
0.0
 11
62.79301350987203
 21
-12.58661143742631
 31
0.0
  0
LINE
  5
3A
330
2
100
AcDbEntity
  8
WAKU
 62
     1
100
AcDbLine
 10
-62.20698649012774
 20
-17.58661143742631
 30
0.0
 11
62.79301350987203
 21
-17.58661143742631
 31
0.0
  0
LINE
  5
3B
330
2
100
AcDbEntity
  8
WAKU
 62
     1
100
AcDbLine
 10
-62.20698649012774
 20
-27.58661143742632
 30
0.0
 11
62.79301350987203
 21
-27.58661143742632
 31
0.0
  0
LINE
  5
3C
330
2
100
AcDbEntity
  8
WAKU
 62
     1
100
AcDbLine
 10
-62.20698649012774
 20
-37.58661143742632
 30
0.0
 11
62.79301350987203
 21
-37.58661143742632
 31
0.0
  0
LINE
  5
3D
330
2
100
AcDbEntity
  8
WAKU
 62
     1
100
AcDbLine
 10
-62.20698649012774
 20
-42.58661143742631
 30
0.0
 11
62.79301350987203
 21
-42.58661143742631
 31
0.0
  0
LINE
  5
3E
330
2
100
AcDbEntity
  8
WAKU
 62
     4
100
AcDbLine
 10
62.79301350987203
 20
-57.58661143742632
 30
0.0
 11
-62.20698649012774
 21
-57.58661143742632
 31
0.0
  0
TEXT
  5
3F
330
2
100
AcDbEntity
  8
MOJI1
100
AcDbText
 10
-20.70698649012775
 20
-31.58661143742631
 30
0.0
 40
3.0
  1
１９２０×１０８０画素
100
AcDbText
  0
TEXT
  5
40
330
2
100
AcDbEntity
  8
MOJI1
100
AcDbText
 10
-20.70698649012775
 20
-41.58661143742631
 30
0.0
 40
3.0
  1
ＲＣＡ×２(左右)
100
AcDbText
  0
TEXT
  5
41
330
2
100
AcDbEntity
  8
MOJI1
100
AcDbText
 10
-20.70698649012775
 20
-16.58661143742631
 30
0.0
 40
3.0
  1
ＡＣ１００Ｖ　５０Ｈｚ／６０Ｈｚ
100
AcDbText
  0
TEXT
  5
42
330
2
100
AcDbEntity
  8
MOJI1
100
AcDbText
 10
-20.70698649012775
 20
-46.58661143742631
 30
0.0
 40
3.0
  1
ビデオ入力、ＲＧＢ／コンポーネントビデオ入力、ＨＤＭＩ入力
 41
0.7800000000000001
100
AcDbText
  0
LINE
  5
43
330
2
100
AcDbEntity
  8
WAKU
 62
     4
100
AcDbLine
 10
-22.20698649012797
 20
-12.58661143742631
 30
0.0
 11
-22.20698649012797
 21
-57.58661143742632
 31
0.0
  0
LINE
  5
44
330
2
100
AcDbEntity
  8
WAKU
 62
     4
100
AcDbLine
 10
-62.20698649012797
 20
-12.58661143742631
 30
0.0
 11
-62.20698649012774
 21
-57.58661143742632
 31
0.0
  0
TEXT
  5
45
330
2
100
AcDbEntity
  8
MOJI1
100
AcDbText
 10
-59.70698649012774
 20
-26.58661143742631
 30
0.0
 40
3.0
  1
画面サイズ
100
AcDbText
  0
TEXT
  5
46
330
2
100
AcDbEntity
  8
MOJI1
100
AcDbText
 10
-59.70698649012774
 20
-36.58661143742631
 30
0.0
 40
3.0
  1
コントラスト
100
AcDbText
  0
TEXT
  5
47
330
2
100
AcDbEntity
  8
MOJI1
100
AcDbText
 10
-59.70698649012774
 20
-41.58661143742631
 30
0.0
 40
3.0
  1
音声出力
100
AcDbText
  0
TEXT
  5
48
330
2
100
AcDbEntity
  8
MOJI1
100
AcDbText
 10
-59.70698649012774
 20
-21.58661143742631
 30
0.0
 40
3.0
  1
消費電力
100
AcDbText
  0
TEXT
  5
49
330
2
100
AcDbEntity
  8
MOJI1
100
AcDbText
 10
-59.70698649012774
 20
-16.58661143742631
 30
0.0
 40
3.0
  1
電  源
100
AcDbText
  0
TEXT
  5
4A
330
2
100
AcDbEntity
  8
MOJI1
100
AcDbText
 10
-59.70698649012774
 20
-31.58661143742631
 30
0.0
 40
3.0
  1
画素数
100
AcDbText
  0
LINE
  5
4B
330
2
100
AcDbEntity
  8
WAKU
 62
     4
100
AcDbLine
 10
62.79301350987203
 20
-12.58661143742631
 30
0.0
 11
62.79301350987203
 21
-57.58661143742632
 31
0.0
  0
TEXT
  5
4C
330
2
100
AcDbEntity
  8
MOJI1
100
AcDbText
 10
-20.70698649012775
 20
-51.58661143742631
 30
0.0
 40
3.0
  1
ＤＶＩ入力、ＰＣ入力、ＬＡＮ、ＲＳ２３２Ｃ、スロット２．０
 41
0.7900000000000001
100
AcDbText
  0
LINE
  5
4D
330
2
100
AcDbEntity
  8
WAKU
 62
     1
100
AcDbLine
 10
-62.20698649012774
 20
-47.58661143742631
 30
0.0
 11
62.79301350987203
 21
-47.58661143742631
 31
0.0
  0
TEXT
  5
4E
330
2
100
AcDbEntity
  8
MOJI1
100
AcDbText
 10
-59.70698649012774
 20
-46.58661143742631
 30
0.0
 40
3.0
  1
入出力端子
100
AcDbText
  0
LINE
  5
4F
330
2
100
AcDbEntity
  8
WAKU
 62
     1
100
AcDbLine
 10
-62.20698649012774
 20
-52.58661143742632
 30
0.0
 11
62.79301350987203
 21
-52.58661143742632
 31
0.0
  0
TEXT
  5
50
330
2
100
AcDbEntity
  8
MOJI1
100
AcDbText
 10
-20.70698649012775
 20
-56.58661143742631
 30
0.0
 40
3.0
  1
約３１．０ ｋｇ
100
AcDbText
  0
TEXT
  5
51
330
2
100
AcDbEntity
  8
MOJI1
100
AcDbText
 10
-59.70698649012774
 20
-56.58661143742631
 30
0.0
 40
3.0
  1
質　量
100
AcDbText
  0
SPLINE
  5
52
330
2
100
AcDbEntity
  8
GAIKEI
  6
Continuous
 62
     1
100
AcDbSpline
210
0.0
220
0.0
230
1.0
 70
     8
 71
     3
 72
    19
 73
    15
 74
    13
 42
0.0000000001
 43
0.0000000001
 44
0.000001
 12
-0.4537847692220346
 22
-0.891111319208832
 32
0.0
 13
0.0558661521317871
 23
-0.9984382670180405
 33
0.0
 40
0.0
 40
0.0
 40
0.0
 40
0.0
 40
0.0058433329848989
 40
0.0115431011623589
 40
0.0191493870676808
 40
0.0323458963040312
 40
0.0491681393602464
 40
0.069780667886457
 40
0.0924149932146329
 40
0.114987861298643
 40
0.137218237240033
 40
0.1535179712648737
 40
0.1694067174933783
 40
0.1997454480061719
 40
0.1997454480061719
 40
0.1997454480061719
 40
0.1997454480061719
 10
34.22060287618052
 20
31.64325598550113
 30
0.0
 10
34.21971900434384
 20
31.64152029877954
 30
0.0
 10
34.21812581242317
 20
31.63800695873869
 30
0.0
 10
34.21617953945359
 20
31.63192073238491
 30
0.0
 10
34.21388688975499
 20
31.62338679406304
 30
0.0
 10
34.21151346181688
 20
31.6110563699267
 30
0.0
 10
34.20958026877962
 20
31.59427502586823
 30
0.0
 10
34.20885624019561
 20
31.57424254224208
 30
0.0
 10
34.20972761687618
 20
31.55230404202018
 30
0.0
 10
34.21177137899335
 20
31.52991289373512
 30
0.0
 10
34.21418275667412
 20
31.50968773035072
 30
0.0
 10
34.21640826956394
 20
31.49168539852576
 30
0.0
 10
34.21885125918709
 20
31.47098580927548
 30
0.0
 10
34.22003790680242
 20
31.45561403087061
 30
0.0
 10
34.22060287618052
 20
31.44551691436504
 30
0.0
 11
34.22060287618052
 21
31.64325598550113
 31
0.0
 11
34.21821441029351
 21
31.63792282483439
 31
0.0
 11
34.21641108101415
 21
31.63251592698941
 31
0.0
 11
34.21443646256392
 21
31.62517042096363
 31
0.0
 11
34.21188744287884
 21
31.61222241251846
 31
0.0
 11
34.20992330351982
 21
31.5955151964863
 31
0.0
 11
34.20912986339101
 21
31.57491791414407
 31
0.0
 11
34.20992260686961
 21
31.55229746278724
 31
0.0
 11
34.21188667604952
 21
31.5298102063922
 31
0.0
 11
34.21443594961494
 21
31.50772650126408
 31
0.0
 11
34.21641082030919
 21
31.49154687932185
 31
0.0
 11
34.21821436041722
 21
31.47576089618963
 31
0.0
 11
34.22060287618052
 21
31.44551691436504
 31
0.0
  0
SPLINE
  5
53
330
2
100
AcDbEntity
  8
GAIKEI
  6
Continuous
 62
     1
100
AcDbSpline
210
0.0
220
0.0
230
1.0
 70
     8
 71
     3
 72
    11
 73
     7
 74
     5
 42
0.0000000001
 43
0.0000000001
 44
0.000001
 12
-0.9272724310398604
 22
-0.3743872842838379
 32
0.0
 13
-0.8850743362206914
 23
-0.465449695846396
 33
0.0
 40
0.0
 40
0.0
 40
0.0
 40
0.0
 40
0.0143995265551268
 40
0.0364303848129772
 40
0.054352588973912
 40
0.0655662738736491
 40
0.0655662738736491
 40
0.0655662738736491
 40
0.0655662738736491
 10
34.27856110087305
 20
31.47605463555624
 30
0.0
 10
34.27411033954153
 20
31.4742576356756
 30
0.0
 10
34.26297260323512
 20
31.46939331237354
 30
0.0
 10
34.24702881907682
 20
31.46074190481556
 30
0.0
 10
34.23247269109015
 20
31.45184893489352
 30
0.0
 10
34.22391119108693
 20
31.44725671644045
 30
0.0
 10
34.22060287618052
 20
31.44551691436516
 30
0.0
 11
34.27856110087305
 21
31.47605463555624
 31
0.0
 11
34.26537564666967
 21
31.47026712888226
 31
0.0
 11
34.24593057307118
 21
31.45991097573938
 31
0.0
 11
34.23046128048282
 21
31.45086049279246
 31
0.0
 11
34.22060287618052
 21
31.44551691436516
 31
0.0
  0
SPLINE
  5
54
330
2
100
AcDbEntity
  8
GAIKEI
  6
Continuous
 62
     1
100
AcDbSpline
210
0.0
220
0.0
230
1.0
 70
     8
 71
     3
 72
    15
 73
    11
 74
     9
 42
0.0000000001
 43
0.0000000001
 44
0.000001
 12
0.1151974769613444
 22
0.9933426102316062
 32
0.0
 13
-0.8415501913672635
 23
0.5401789290686208
 33
0.0
 40
0.0
 40
0.0
 40
0.0
 40
0.0
 40
0.0394084963478186
 40
0.0771399072617108
 40
0.1117967484185931
 40
0.1420880407746224
 40
0.1668916500996185
 40
0.1853241616436331
 40
0.1968791077613228
 40
0.2022733320264256
 40
0.2022733320264256
 40
0.2022733320264256
 40
0.2022733320264256
 10
34.27856110087305
 20
31.47605463555624
 30
0.0
 10
34.28007435398975
 20
31.48910334843208
 30
0.0
 10
34.28268560823486
 20
31.514690041846
 30
0.0
 10
34.28543847650914
 20
31.55184845500969
 30
0.0
 10
34.28714847648374
 20
31.58606535671367
 30
0.0
 10
34.28764999441896
 20
31.61589825367582
 30
0.0
 10
34.2875546153099
 20
31.64064056534397
 30
0.0
 10
34.28544377804744
 20
31.6583227039709
 30
0.0
 10
34.28463881443183
 20
31.67100200197916
 30
0.0
 10
34.28007427102719
 20
31.67480926041156
 30
0.0
 10
34.27856110087299
 20
31.67578054250714
 30
0.0
 11
34.27856110087305
 21
31.47605463555624
 31
0.0
 11
34.28255576950767
 21
31.51525952764689
 31
0.0
 11
34.28535659455298
 21
31.55288683591232
 31
0.0
 11
34.28701569989812
 21
31.58750393248658
 31
0.0
 11
34.28756516841338
 21
31.61779022629901
 31
0.0
 11
34.28701581521631
 21
31.64258772541291
 31
0.0
 11
34.28535677552907
 21
31.6609453665111
 31
0.0
 11
34.28255592278834
 21
31.67215541492033
 31
0.0
 11
34.27856110087299
 21
31.67578054250714
 31
0.0
  0
SPLINE
  5
55
330
2
100
AcDbEntity
  8
GAIKEI
  6
Continuous
 62
     1
100
AcDbSpline
210
0.0
220
0.0
230
1.0
 70
     8
 71
     3
 72
    13
 73
     9
 74
     7
 42
0.0000000001
 43
0.0000000001
 44
0.000001
 12
-0.9958439311814659
 22
-0.091076147969947
 32
0.0
 13
-0.9929680145434634
 23
-0.1183829468023682
 33
0.0
 40
0.0
 40
0.0
 40
0.0
 40
0.0
 40
0.2790849670557496
 40
0.4824077539591935
 40
0.6857426128006063
 40
0.8891214813044722
 40
1.092568902581013
 40
1.132064281388675
 40
1.132064281388675
 40
1.132064281388675
 40
1.132064281388675
 10
38.17107032421785
 20
-2.746301538781722
 30
0.0
 10
38.07842863397571
 20
-2.754774200033637
 30
0.0
 10
37.91833333744741
 20
-2.769848987304158
 30
0.0
 10
37.6908540594103
 20
-2.792268448512913
 30
0.0
 10
37.48858060151169
 20
-2.813129380863074
 30
0.0
 10
37.28637439269502
 20
-2.835022821551717
 30
0.0
 10
37.13856244207479
 20
-2.851924478022283
 30
0.0
 10
37.05814492194048
 20
-2.861460510439655
 30
0.0
 10
37.04507237264773
 20
-2.863019036882405
 30
0.0
 11
38.17107032421785
 21
-2.746301538781722
 31
0.0
 11
37.89321313308312
 21
-2.772450723718975
 31
0.0
 11
37.69087355383045
 21
-2.792421785269425
 31
0.0
 11
37.48861344286496
 21
-2.813300174952246
 31
0.0
 11
37.28641965353467
 21
-2.835223406402405
 31
0.0
 11
37.08429313627187
 21
-2.858368936839497
 31
0.0
 11
37.04507237264773
 21
-2.863019036882405
 31
0.0
  0
SPLINE
  5
56
330
2
100
AcDbEntity
  8
GAIKEI
  6
Continuous
 62
     1
100
AcDbSpline
210
0.0
220
0.0
230
1.0
 70
     8
 71
     3
 72
    23
 73
    19
 74
    17
 42
0.0000000001
 43
0.0000000001
 44
0.000001
 12
0.1037512493360999
 22
-0.9946032768200588
 32
0.0
 13
-0.9066396789115103
 23
-0.4219057864301387
 33
0.0
 40
0.0
 40
0.0
 40
0.0
 40
0.0
 40
0.06070261108013
 40
0.1185986751946615
 40
0.1736064872697767
 40
0.2256490779792204
 40
0.2746574152566538
 40
0.3205734925395617
 40
0.3633544662869463
 40
0.4029783719658721
 40
0.438923835632511
 40
0.4721139622826788
 40
0.5025974616641518
 40
0.5304770080022378
 40
0.5559339520156497
 40
0.5792613998137277
 40
0.6009024388063931
 40
0.6214788907307584
 40
0.6214788907307584
 40
0.6214788907307584
 40
0.6214788907307584
 10
38.38982167600432
 20
25.51254212554079
 30
0.0
 10
38.39192099991682
 20
25.49241712024349
 30
0.0
 10
38.39552900037578
 20
25.45304470671863
 30
0.0
 10
38.39947111081837
 20
25.39530490816844
 30
0.0
 10
38.40178243982294
 20
25.3403644475693
 30
0.0
 10
38.40249669828131
 20
25.28834213266117
 30
0.0
 10
38.40162366816498
 20
25.23935180831984
 30
0.0
 10
38.39917261994647
 20
25.19350443117463
 30
0.0
 10
38.39514552585388
 20
25.1509071040436
 30
0.0
 10
38.38956643862453
 20
25.11183552700129
 30
0.0
 10
38.38243046369267
 20
25.07626955015644
 30
0.0
 10
38.37379820857447
 20
25.04417686065534
 30
0.0
 10
38.36363068328717
 20
25.01536494544098
 30
0.0
 10
38.35193344780839
 20
24.9899402089676
 30
0.0
 10
38.33870139691903
 20
24.96800055782245
 30
0.0
 10
38.32388853768402
 20
24.94968186534982
 30
0.0
 10
38.30749072752409
 20
24.93505458992649
 30
0.0
 10
38.29521091879586
 20
24.92796862999973
 30
0.0
 10
38.28899244287391
 20
24.92507485528938
 30
0.0
 11
38.38982167600432
 21
25.51254212554079
 31
0.0
 11
38.39537406378929
 21
25.45209482220184
 31
0.0
 11
38.39927795842857
 21
25.39433053760956
 31
0.0
 11
38.40155668785235
 21
25.33936995405077
 31
0.0
 11
38.40222811781121
 21
25.28733170485123
 31
0.0
 11
38.40130467626887
 21
25.2383320797718
 31
0.0
 11
38.39879339248296
 21
25.19248474189249
 31
0.0
 11
38.39469595036224
 21
25.14990045656146
 31
0.0
 11
38.38900875565963
 21
25.11068683293286
 31
0.0
 11
38.38185598756911
 21
25.07546024126327
 31
0.0
 11
38.37314104494772
 21
25.0434347420296
 31
0.0
 11
38.36288739636575
 21
25.01472752152267
 31
0.0
 11
38.35111344227875
 21
24.98945617637617
 31
0.0
 11
38.33783228228515
 21
24.96773834626902
 31
0.0
 11
38.32305149201506
 21
24.94969133138795
 31
0.0
 11
38.3067729109975
 21
24.93543169546263
 31
0.0
 11
38.28899244287391
 21
24.92507485528938
 31
0.0
  0
SPLINE
  5
57
330
2
100
AcDbEntity
  8
GAIKEI
  6
Continuous
 62
     1
100
AcDbSpline
210
0.0
220
0.0
230
1.0
 70
     8
 71
     3
 72
    27
 73
    23
 74
    21
 42
0.0000000001
 43
0.0000000001
 44
0.000001
 12
-0.3587289631765114
 22
-0.9334417662491352
 32
0.0
 13
-0.3043867708718783
 23
-0.952548525650106
 33
0.0
 40
0.0
 40
0.0
 40
0.0
 40
0.0
 40
0.000052765316051
 40
0.0137452944831976
 40
0.0277848726959968
 40
0.0420904151999908
 40
0.0621802894338917
 40
0.0825042457509834
 40
0.1029273041857152
 40
0.1204407067947604
 40
0.1390172120262883
 40
0.1586623151565408
 40
0.1727209773580802
 40
0.1881397105005388
 40
0.2049363464391849
 40
0.2220007426194551
 40
0.2384281114962988
 40
0.2550330349711568
 40
0.2718074234064906
 40
0.3201416250121721
 40
0.3656184092027225
 40
0.4082186707019194
 40
0.4082186707019194
 40
0.4082186707019194
 40
0.4082186707019194
 10
38.05899043794227
 20
24.50392998515236
 30
0.0
 10
38.0589841284599
 20
24.50391356736907
 30
0.0
 10
38.05734085463742
 20
24.49963662695706
 30
0.0
 10
38.05405994683656
 20
24.49097539204058
 30
0.0
 10
38.04925217949986
 20
24.47781303154784
 30
0.0
 10
38.04392401620717
 20
24.46257195889609
 30
0.0
 10
38.03829495881379
 20
24.44521945792002
 30
0.0
 10
38.03268479164675
 20
24.42572771608764
 30
0.0
 10
38.02801084127395
 20
24.40687261605968
 30
0.0
 10
38.02421513607916
 20
24.3884173725769
 30
0.0
 10
38.02106962492108
 20
24.37010436462822
 30
0.0
 10
38.01861904220303
 20
24.35284834975818
 30
0.0
 10
38.01668084321392
 20
24.33658867609063
 30
0.0
 10
38.01506275289924
 20
24.32124877145043
 30
0.0
 10
38.01349474169768
 20
24.30489699320293
 30
0.0
 10
38.01201680525203
 20
24.28819942590519
 30
0.0
 10
38.01047531474163
 20
24.27157180901503
 30
0.0
 10
38.00887982668519
 20
24.25504629187628
 30
0.0
 10
38.00630019856804
 20
24.22793162443696
 30
0.0
 10
38.00158422258792
 20
24.19134591743421
 30
0.0
 10
37.99255642310571
 20
24.14673860016672
 30
0.0
 10
37.98459042940013
 20
24.11845037408915
 30
0.0
 10
37.98026811072146
 20
24.1049241019947
 30
0.0
 11
38.05899043794227
 21
24.50392998515236
 31
0.0
 11
38.05897151032832
 21
24.50388073109025
 31
0.0
 11
38.05412505693368
 21
24.49107440895534
 31
0.0
 11
38.04931194488915
 21
24.47788563008567
 31
0.0
 11
38.04460179893926
 21
24.46437773385526
 31
0.0
 11
38.03842446004592
 21
24.44526114296559
 31
0.0
 11
38.03281450166185
 21
24.42572675895281
 31
0.0
 11
38.02792001343119
 21
24.40589885207817
 31
0.0
 11
38.02437672456438
 21
24.38874761947727
 31
0.0
 11
38.02121527963243
 21
24.37044209679084
 31
0.0
 11
38.01844112494189
 21
24.35099384885587
 31
0.0
 11
38.01676361066893
 21
24.33703562797393
 31
0.0
 11
38.01513317976105
 21
24.32170334520004
 31
0.0
 11
38.01352251031005
 21
24.30498412397014
 31
0.0
 11
38.01198508596963
 21
24.28798914593324
 31
0.0
 11
38.01046947231947
 21
24.27163187111114
 31
0.0
 11
38.00888811487011
 21
24.25510246225986
 31
0.0
 11
38.00724769166823
 21
24.2384085616776
 31
0.0
 11
38.00087655502006
 21
24.19049693003126
 31
0.0
 11
37.99179730053493
 21
24.14593513624379
 31
0.0
 11
37.98026811072146
 21
24.1049241019947
 31
0.0
  0
SPLINE
  5
58
330
2
100
AcDbEntity
  8
GAIKEI
  6
Continuous
 62
     1
100
AcDbSpline
210
0.0
220
0.0
230
1.0
 70
     8
 71
     3
 72
    30
 73
    26
 74
    24
 42
0.0000000001
 43
0.0000000001
 44
0.000001
 12
-0.0200236380412519
 22
-0.9997995068610471
 32
0.0
 13
0.6382126117635996
 23
-0.7698601575519316
 33
0.0
 40
0.0
 40
0.0
 40
0.0
 40
0.0
 40
0.0166069238215936
 40
0.0373010785548882
 40
0.0621612230433276
 40
0.0912321347745228
 40
0.1271247647504669
 40
0.1661149835442039
 40
0.1996843709300488
 40
0.2075830122509336
 40
0.2151115874076527
 40
0.2222706400799742
 40
0.2290608027015169
 40
0.2354828166742118
 40
0.241537558617695
 40
0.2695382121070925
 40
0.2966935088714126
 40
0.3230613834754884
 40
0.3487051081642305
 40
0.3736934566496598
 40
0.3981007431757765
 40
0.4408164956220402
 40
0.480723960764669
 40
0.5184525715331068
 40
0.5547443344004142
 40
0.5547443344004142
 40
0.5547443344004142
 40
0.5547443344004142
 10
37.98026811072146
 20
1.377255888424429
 30
0.0
 10
37.98015726704426
 20
1.371721357008652
 30
0.0
 10
37.97952884468043
 20
1.359289195597852
 30
0.0
 10
37.97666247869634
 20
1.338749741390529
 30
0.0
 10
37.97217477568587
 20
1.314280139823836
 30
0.0
 10
37.9657171727271
 20
1.285036915269586
 30
0.0
 10
37.95732786825232
 20
1.251415729526058
 30
0.0
 10
37.94924531407884
 20
1.216177883371869
 30
0.0
 10
37.94372366771387
 20
1.189930263596011
 30
0.0
 10
37.94066202977659
 20
1.173887414102637
 30
0.0
 10
37.93931043914387
 20
1.166480885898067
 30
0.0
 10
37.93808766242381
 20
1.159426705111684
 30
0.0
 10
37.93699447491335
 20
1.152724764847334
 30
0.0
 10
37.93602812803198
 20
1.146375383339943
 30
0.0
 10
37.93417807440948
 20
1.13301016692958
 30
0.0
 10
37.9319440541056
 20
1.112721596014068
 30
0.0
 10
37.93014931400037
 20
1.085597414444634
 30
0.0
 10
37.92966886256393
 20
1.059201900096127
 30
0.0
 10
37.93049417420343
 20
1.033537498655618
 30
0.0
 10
37.93262418816423
 20
1.008601616341763
 30
0.0
 10
37.93696094832645
 20
0.9781931908829051
 30
0.0
 10
37.94476220659645
 20
0.9433016755820062
 30
0.0
 10
37.95807661243214
 20
0.9053510555806951
 30
0.0
 10
37.97532938887494
 20
0.8713754540946183
 30
0.0
 10
37.98978832034161
 20
0.8512520318246856
 30
0.0
 10
37.99750894059662
 20
0.8419388377317318
 30
0.0
 11
37.98026811072146
 21
1.377255888424429
 31
0.0
 11
37.97938036446692
 21
1.360672906832064
 31
0.0
 11
37.97672177588555
 21
1.340150270152435
 31
0.0
 11
37.9722923449774
 21
1.315687978385767
 31
0.0
 11
37.96609207174254
 21
1.287286031531948
 31
0.0
 11
37.95768321773869
 21
1.252392378252125
 31
0.0
 11
37.94896406621183
 21
1.214389642294122
 31
0.0
 11
37.9421280129161
 21
1.181523724050407
 31
0.0
 11
37.94064879892051
 21
1.173764839773298
 31
0.0
 11
37.9392987543614
 21
1.166358310906161
 31
0.0
 11
37.93807787923868
 21
1.159304137449225
 31
0.0
 11
37.93698617355256
 21
1.152602319402376
 31
0.0
 11
37.93602363730287
 21
1.146252856765613
 31
0.0
 11
37.93519027048967
 21
1.140255749539051
 31
0.0
 11
37.93211832467534
 21
1.112424158089424
 31
0.0
 11
37.930350966265
 21
1.085326471781627
 31
0.0
 11
37.92988819525874
 21
1.058962690615544
 31
0.0
 11
37.93073001165647
 21
1.03333281459129
 31
0.0
 11
37.93287641545828
 21
1.008436843708864
 31
0.0
 11
37.93632740666408
 21
0.9842747779681531
 31
0.0
 11
37.94579981294851
 21
0.942622554118202
 31
0.0
 11
37.95915420403208
 21
0.9050158227955762
 31
0.0
 11
37.97639057991478
 21
0.8714545840000482
 31
0.0
 11
37.99750894059662
 21
0.8419388377317318
 31
0.0
  0
SPLINE
  5
59
330
2
100
AcDbEntity
  8
GAIKEI
  6
Continuous
 62
     1
100
AcDbSpline
210
0.0
220
0.0
230
1.0
 70
     8
 71
     3
 72
    12
 73
     8
 74
     6
 42
0.0000000001
 43
0.0000000001
 44
0.000001
 12
0.4769591228667053
 22
0.8789254775657735
 32
0.0
 13
0.3555935529301539
 23
0.9346406930550958
 33
0.0
 40
0.0
 40
0.0
 40
0.0
 40
0.0
 40
0.0463485371772527
 40
0.09288144435473
 40
0.139644928986831
 40
0.1864441356850213
 40
0.1874282895021355
 40
0.1874282895021355
 40
0.1874282895021355
 40
0.1874282895021355
 10
36.41451676889608
 20
22.87537976200804
 30
0.0
 10
36.42188555477549
 20
22.8889587320657
 30
0.0
 10
36.43600523011685
 20
22.91653359848681
 30
0.0
 10
36.45482936469512
 20
22.95912287093011
 30
0.0
 10
36.4724194017134
 20
23.00238499355623
 30
0.0
 10
36.4837354299345
 20
23.03180029230924
 30
0.0
 10
36.48940011597841
 20
23.04668671407097
 30
0.0
 10
36.4895167688959
 20
23.04699332413952
 30
0.0
 11
36.41451676889608
 21
22.87537976200804
 31
0.0
 11
36.43557995269356
 21
22.91666600156464
 31
0.0
 11
36.45458466389772
 21
22.95914169831883
 31
0.0
 11
36.47227780396224
 21
23.00242905384471
 31
0.0
 11
36.48916671058714
 21
23.04607354895393
 31
0.0
 11
36.4895167688959
 21
23.04699332413952
 31
0.0
  0
SPLINE
  5
5A
330
2
100
AcDbEntity
  8
GAIKEI
  6
Continuous
 62
     1
100
AcDbSpline
210
0.0
220
0.0
230
1.0
 70
     8
 71
     3
 72
    12
 73
     8
 74
     6
 42
0.0000000001
 43
0.0000000001
 44
0.000001
 12
0.4769591228668367
 22
0.8789254775657024
 32
0.0
 13
0.355593553261721
 23
0.9346406929289477
 33
0.0
 40
0.0
 40
0.0
 40
0.0
 40
0.0
 40
0.0463485371772527
 40
0.0928814443548106
 40
0.13964492898663
 40
0.186444135684952
 40
0.1874282895021243
 40
0.1874282895021243
 40
0.1874282895021243
 40
0.1874282895021243
 10
36.41451676889608
 20
3.74806962634716
 30
0.0
 10
36.42188555477549
 20
3.761648596404825
 30
0.0
 10
36.43600523011708
 20
3.789223462825873
 30
0.0
 10
36.45482936469446
 20
3.831812735269238
 30
0.0
 10
36.47241940171515
 20
3.875074857895242
 30
0.0
 10
36.48373542992955
 20
3.904490156649274
 30
0.0
 10
36.4894001159783
 20
3.919376578410094
 30
0.0
 10
36.4895167688959
 20
3.919683188478643
 30
0.0
 11
36.41451676889608
 21
3.74806962634716
 31
0.0
 11
36.43557995269356
 21
3.789355865903758
 31
0.0
 11
36.45458466389772
 21
3.831831562657953
 31
0.0
 11
36.47227780396224
 21
3.875118918183716
 31
0.0
 11
36.48916671058686
 21
3.918763413293163
 31
0.0
 11
36.4895167688959
 21
3.919683188478643
 31
0.0
  0
SPLINE
  5
5B
330
2
100
AcDbEntity
  8
GAIKEI
  6
Continuous
 62
     1
100
AcDbSpline
210
0.0
220
0.0
230
1.0
 70
     8
 71
     3
 72
    13
 73
     9
 74
     7
 42
0.0000000001
 43
0.0000000001
 44
0.000001
 12
-0.355604041378737
 22
0.9346367025508412
 32
0.0
 13
-0.4792288571631189
 23
0.877689980837272
 33
0.0
 40
0.0
 40
0.0
 40
0.0
 40
0.0
 40
0.0009841552555797
 40
0.0341752847051326
 40
0.0724502295557767
 40
0.1107098708129843
 40
0.1490911211198964
 40
0.1874325864602328
 40
0.1874325864602328
 40
0.1874325864602328
 40
0.1874325864602328
 10
36.4895167688959
 20
23.78031898239294
 30
0.0
 10
36.48940011236715
 20
23.78062559160054
 30
0.0
 10
36.48534878356625
 20
23.79127260823759
 30
0.0
 10
36.4766963966913
 20
23.8138196273369
 30
0.0
 10
36.46321336949788
 20
23.84782100904727
 30
0.0
 10
36.44833007711951
 20
23.88312004141676
 30
0.0
 10
36.4324156315397
 20
23.91799863386626
 30
0.0
 10
36.42064154776841
 20
23.94071523786448
 30
0.0
 10
36.41451676889608
 20
23.95193254452443
 30
0.0
 11
36.4895167688959
 21
23.78031898239294
 31
0.0
 11
36.48916671062568
 21
23.78123875759491
 31
0.0
 11
36.47724977169321
 21
23.81221613623734
 31
0.0
 11
36.46308419046534
 21
23.84777305071168
 31
0.0
 11
36.44817631862691
 21
23.88300851454187
 31
0.0
 11
36.43212205391444
 21
23.91787156316445
 31
0.0
 11
36.41451676889608
 21
23.95193254452443
 31
0.0
  0
SPLINE
  5
5C
330
2
100
AcDbEntity
  8
GAIKEI
  6
Continuous
 62
     1
100
AcDbSpline
210
0.0
220
0.0
230
1.0
 70
     8
 71
     3
 72
    13
 73
     9
 74
     7
 42
0.0000000001
 43
0.0000000001
 44
0.000001
 12
-0.3556040416314752
 22
0.9346367024546809
 32
0.0
 13
-0.4792288571630963
 23
0.8776899808372844
 33
0.0
 40
0.0
 40
0.0
 40
0.0
 40
0.0
 40
0.0009841552556807
 40
0.0341752847052837
 40
0.0724502295558697
 40
0.110709870812967
 40
0.1490911211198892
 40
0.1874325864602256
 40
0.1874325864602256
 40
0.1874325864602256
 40
0.1874325864602256
 10
36.4895167688959
 20
4.653008846732063
 30
0.0
 10
36.48940011236707
 20
4.653315455939662
 30
0.0
 10
36.48534878356317
 20
4.663962472576656
 30
0.0
 10
36.47669639669274
 20
4.686509491676133
 30
0.0
 10
36.46321336949734
 20
4.720510873386388
 30
0.0
 10
36.44833007711947
 20
4.755809905755882
 30
0.0
 10
36.43241563153974
 20
4.790688498205383
 30
0.0
 10
36.42064154776841
 20
4.813405102203603
 30
0.0
 10
36.41451676889608
 20
4.824622408863547
 30
0.0
 11
36.4895167688959
 21
4.653008846732063
 31
0.0
 11
36.48916671062546
 21
4.653928621934028
 31
0.0
 11
36.47724977169321
 21
4.684906000576461
 31
0.0
 11
36.46308419046534
 21
4.720462915050802
 31
0.0
 11
36.44817631862691
 21
4.755698378880993
 31
0.0
 11
36.43212205391444
 21
4.790561427503575
 31
0.0
 11
36.41451676889608
 21
4.824622408863547
 31
0.0
  0
SPLINE
  5
5D
330
2
100
AcDbEntity
  8
GAIKEI
  6
Continuous
 62
     1
100
AcDbSpline
210
0.0
220
0.0
230
1.0
 70
     8
 71
     3
 72
    11
 73
     7
 74
     5
 42
0.0000000001
 43
0.0000000001
 44
0.000001
 12
-0.5697183474043875
 22
0.8218400115781744
 32
0.0
 13
-0.7258381967822672
 23
0.6878654752870411
 33
0.0
 40
0.0
 40
0.0
 40
0.0
 40
0.0
 40
0.0271269143005459
 40
0.0541651219876461
 40
0.0813877632111765
 40
0.0927557661412386
 40
0.0927557661412386
 40
0.0927557661412386
 40
0.0927557661412386
 10
36.41451676889608
 20
4.824622408863547
 30
0.0
 10
36.40936520196759
 20
4.832053736717853
 30
0.0
 10
36.39861369778638
 20
4.846576692776977
 30
0.0
 10
36.38110377372259
 20
4.867319433523448
 30
0.0
 10
36.36602352981244
 20
4.88318588361659
 30
0.0
 10
36.35679178151375
 20
4.892145292039401
 30
0.0
 10
36.35404133793116
 20
4.894751844285565
 30
0.0
 11
36.41451676889608
 21
4.824622408863547
 31
0.0
 11
36.39837048560043
 21
4.846421153662959
 31
0.0
 11
36.38094645766865
 21
4.867096863649976
 31
0.0
 11
36.36219812826437
 21
4.88683458419814
 31
0.0
 11
36.35404133793116
 21
4.894751844285565
 31
0.0
  0
SPLINE
  5
5E
330
2
100
AcDbEntity
  8
GAIKEI
  6
Continuous
 62
     1
100
AcDbSpline
210
0.0
220
0.0
230
1.0
 70
     8
 71
     3
 72
    11
 73
     7
 74
     5
 42
0.0000000001
 43
0.0000000001
 44
0.000001
 12
0.7261327727614697
 22
0.6875545042552915
 32
0.0
 13
0.5694961259186093
 23
0.8219940161361854
 33
0.0
 40
0.0
 40
0.0
 40
0.0
 40
0.0
 40
0.0216057200347024
 40
0.0445668898279325
 40
0.0685149071729119
 40
0.0928153822368552
 40
0.0928153822368552
 40
0.0928153822368552
 40
0.0928153822368552
 10
36.35399987954833
 20
22.80521102094383
 30
0.0
 10
36.35922942001376
 20
22.8101627243197
 30
0.0
 10
36.36978396692989
 20
22.82062547242833
 30
0.0
 10
36.385235063448
 20
22.83745577483557
 30
0.0
 10
36.40037045910357
 20
22.85575579538875
 30
0.0
 10
36.40990376009379
 20
22.86872148031074
 30
0.0
 10
36.41451676889608
 20
22.87537976200804
 30
0.0
 11
36.35399987954833
 21
22.80521102094383
 31
0.0
 11
36.36934358783412
 21
22.82042163784092
 31
0.0
 11
36.38486645413758
 21
22.83733990386509
 31
0.0
 11
36.40011822725228
 21
22.85580389095355
 31
0.0
 11
36.41451676889608
 21
22.87537976200804
 31
0.0
  0
SPLINE
  5
5F
330
2
100
AcDbEntity
  8
GAIKEI
  6
Continuous
 62
     1
100
AcDbSpline
210
0.0
220
0.0
230
1.0
 70
     8
 71
     3
 72
    11
 73
     7
 74
     5
 42
0.0000000001
 43
0.0000000001
 44
0.000001
 12
0.7261327727615202
 22
0.6875545042552385
 32
0.0
 13
0.5694961259181754
 23
0.8219940161364862
 33
0.0
 40
0.0
 40
0.0
 40
0.0
 40
0.0
 40
0.0216057200346623
 40
0.0445668898279344
 40
0.0685149071729138
 40
0.092815382236857
 40
0.092815382236857
 40
0.092815382236857
 40
0.092815382236857
 10
36.35399987954833
 20
3.677900885282952
 30
0.0
 10
36.35922942001375
 20
3.682852588658761
 30
0.0
 10
36.36978396692992
 20
3.693315336767284
 30
0.0
 10
36.38523506344801
 20
3.710145639174754
 30
0.0
 10
36.40037045910356
 20
3.72844565972781
 30
0.0
 10
36.40990376009379
 20
3.741411344649861
 30
0.0
 10
36.41451676889608
 20
3.74806962634716
 30
0.0
 11
36.35399987954833
 21
3.677900885282952
 31
0.0
 11
36.36934358783412
 21
3.693111502180045
 31
0.0
 11
36.38486645413758
 21
3.710029768204208
 31
0.0
 11
36.40011822725228
 21
3.728493755292674
 31
0.0
 11
36.41451676889608
 21
3.74806962634716
 31
0.0
  0
SPLINE
  5
60
330
2
100
AcDbEntity
  8
GAIKEI
  6
Continuous
 62
     1
100
AcDbSpline
210
0.0
220
0.0
230
1.0
 70
     8
 71
     3
 72
    11
 73
     7
 74
     5
 42
0.0000000001
 43
0.0000000001
 44
0.000001
 12
-0.5697183474044964
 22
0.8218400115780987
 32
0.0
 13
-0.725838196782078
 23
0.6878654752872409
 33
0.0
 40
0.0
 40
0.0
 40
0.0
 40
0.0
 40
0.0271269143005459
 40
0.0541651219876461
 40
0.0813877632111765
 40
0.0927557661412386
 40
0.0927557661412386
 40
0.0927557661412386
 40
0.0927557661412386
 10
36.41451676889608
 20
23.95193254452443
 30
0.0
 10
36.40936520196758
 20
23.95936387237873
 30
0.0
 10
36.39861369778638
 20
23.97388682843786
 30
0.0
 10
36.38110377372259
 20
23.99462956918433
 30
0.0
 10
36.36602352981244
 20
24.01049601927741
 30
0.0
 10
36.35679178151375
 20
24.01945542770028
 30
0.0
 10
36.35404133793116
 20
24.02206197994644
 30
0.0
 11
36.41451676889608
 21
23.95193254452443
 31
0.0
 11
36.39837048560043
 21
23.97373128932384
 31
0.0
 11
36.38094645766865
 21
23.99440699931085
 31
0.0
 11
36.36219812826437
 21
24.01414471985902
 31
0.0
 11
36.35404133793116
 21
24.02206197994644
 31
0.0
  0
SPLINE
  5
61
330
2
100
AcDbEntity
  8
GAIKEI
  6
Continuous
 62
     1
100
AcDbSpline
210
0.0
220
0.0
230
1.0
 70
     8
 71
     3
 72
    16
 73
    12
 74
    10
 42
0.0000000001
 43
0.0000000001
 44
0.000001
 12
-0.7246933390181188
 22
0.6890715234159442
 32
0.0
 13
-0.0435589224551712
 23
0.999050859703621
 33
0.0
 40
0.0
 40
0.0
 40
0.0
 40
0.0
 40
0.0008245869742816
 40
0.0042427686756445
 40
0.010416972395223
 40
0.0192855983072265
 40
0.0307089239071617
 40
0.0445088940072588
 40
0.0604644486191607
 40
0.0783168924071111
 40
0.0828709020179592
 40
0.0828709020179592
 40
0.0828709020179592
 40
0.0828709020179592
 10
36.4862072737393
 20
28.61115691314706
 30
0.0
 10
36.4860080828434
 20
28.61134631294789
 30
0.0
 10
36.48502736402887
 20
28.61240321221999
 30
0.0
 10
36.48481680223334
 20
28.61611471402972
 30
0.0
 10
36.48375650603245
 20
28.62203372582462
 30
0.0
 10
36.48309869277773
 20
28.63090768773446
 30
0.0
 10
36.4822362835584
 20
28.64220916573083
 30
0.0
 10
36.48143923612295
 20
28.65592350951823
 30
0.0
 10
36.48061329017809
 20
28.6717676546495
 30
0.0
 10
36.48002044284691
 20
28.68454231218612
 30
0.0
 10
36.47969339789578
 20
28.69200389826693
 30
0.0
 10
36.47962727531194
 20
28.69352046067252
 30
0.0
 11
36.4862072737393
 21
28.61115691314706
 31
0.0
 11
36.48566135826718
 21
28.61177504466752
 31
0.0
 11
36.48482802493385
 21
28.61508983611941
 31
0.0
 11
36.48399469160052
 21
28.62120750577242
 31
0.0
 11
36.48316135826713
 21
28.63003687617925
 31
0.0
 11
36.48232802493385
 21
28.64142975600737
 31
0.0
 11
36.48149469160052
 21
28.65520453627221
 31
0.0
 11
36.48066135826719
 21
28.67113831029326
 31
0.0
 11
36.4798280249338
 21
28.68897129051447
 31
0.0
 11
36.47962727531194
 21
28.69352046067252
 31
0.0
  0
SPLINE
  5
62
330
2
100
AcDbEntity
  8
GAIKEI
  6
Continuous
 62
     1
100
AcDbSpline
210
0.0
220
0.0
230
1.0
 70
     8
 71
     3
 72
    18
 73
    14
 74
    12
 42
0.0000000001
 43
0.0000000001
 44
0.000001
 12
-0.5846562919338174
 22
-0.8112810982034519
 32
0.0
 13
-0.0371796361213846
 23
-0.9993085983107928
 33
0.0
 40
0.0
 40
0.0
 40
0.0
 40
0.0
 40
0.0015787525645385
 40
0.0058612971317751
 40
0.0128958923591801
 40
0.0225827165460961
 40
0.0347748335201111
 40
0.0492781281816669
 40
0.0658580340895536
 40
0.0842514048913409
 40
0.1041566705154363
 40
0.1252574645254074
 40
0.1472102067833182
 40
0.1472102067833182
 40
0.1472102067833182
 40
0.1472102067833182
 10
36.46563453466018
 20
28.96615753422281
 30
0.0
 10
36.46532685878677
 20
28.96573059685136
 30
0.0
 10
36.46427706297915
 20
28.9640483982642
 30
0.0
 10
36.4639651772569
 20
28.95963237697379
 30
0.0
 10
36.46296531716004
 20
28.9527686959633
 30
0.0
 10
36.46226175403967
 20
28.94312197553006
 30
0.0
 10
36.46141362968589
 20
28.93103714504105
 30
0.0
 10
36.46060886739338
 20
28.91662959117491
 30
0.0
 10
36.45978340589155
 20
28.90015956970024
 30
0.0
 10
36.45896158796762
 20
28.88188464030054
 30
0.0
 10
36.45813614116013
 20
28.86210217223447
 30
0.0
 10
36.45731119780609
 20
28.84113206803926
 30
0.0
 10
36.45676675659016
 20
28.82679122616707
 30
0.0
 10
36.45649469160048
 20
28.81947870480212
 30
0.0
 11
36.46563453466018
 21
28.96615753422281
 31
0.0
 11
36.46482802493387
 21
28.96480023906383
 31
0.0
 11
36.46399469160054
 21
28.96059973066724
 31
0.0
 11
36.46316135826714
 21
28.95361469942839
 31
0.0
 11
36.46232802493387
 21
28.94396380114756
 31
0.0
 11
36.46149469160054
 21
28.93180020523937
 31
0.0
 11
36.4606613582672
 21
28.91732087676553
 31
0.0
 11
36.45982802493382
 21
28.90076193022492
 31
0.0
 11
36.45899469160054
 21
28.88238744944295
 31
0.0
 11
36.45816135826715
 21
28.86249963733462
 31
0.0
 11
36.45732802493387
 21
28.84141530714192
 31
0.0
 11
36.45649469160048
 21
28.81947870480212
 31
0.0
  0
SPLINE
  5
63
330
2
100
AcDbEntity
  8
GAIKEI
  6
Continuous
 62
     1
100
AcDbSpline
210
0.0
220
0.0
230
1.0
 70
     8
 71
     3
 72
    18
 73
    14
 74
    12
 42
0.0000000001
 43
0.0000000001
 44
0.000001
 12
-0.5844656576224157
 22
-0.8114184463394934
 32
0.0
 13
-0.0371796361214128
 23
-0.9993085983107919
 33
0.0
 40
0.0
 40
0.0
 40
0.0
 40
0.0
 40
0.0015785755413335
 40
0.0058611200296627
 40
0.0128957152542898
 40
0.0225825394405176
 40
0.0347746564143357
 40
0.0492779510757339
 40
0.0658578569835892
 40
0.0842512277853649
 40
0.1041564934094466
 40
0.1252572874194666
 40
0.1472100295646772
 40
0.1472100295646772
 40
0.1472100295646772
 40
0.1472100295646772
 10
36.50563419486934
 20
28.96615753013782
 30
0.0
 10
36.50532665380538
 20
28.96573056836678
 30
0.0
 10
36.50427724151214
 20
28.96404824267785
 30
0.0
 10
36.5039650642286
 20
28.95963243539825
 30
0.0
 10
36.50296536820665
 20
28.95276866936496
 30
0.0
 10
36.50226173416391
 20
28.94312198569833
 30
0.0
 10
36.50141363665918
 20
28.93103714129217
 30
0.0
 10
36.50060886502031
 20
28.91662959227137
 30
0.0
 10
36.49978340658663
 20
28.90015956920661
 30
0.0
 10
36.4989615876994
 20
28.88188464030611
 30
0.0
 10
36.49813614118875
 20
28.86210217208855
 30
0.0
 10
36.49731119772844
 20
28.84113206797684
 30
0.0
 10
36.49676675658884
 20
28.8267912261295
 30
0.0
 10
36.49649469160056
 20
28.81947870480212
 30
0.0
 11
36.50563419486934
 21
28.96615753013782
 31
0.0
 11
36.50482802493383
 21
28.96480023906383
 31
0.0
 11
36.5039946916005
 21
28.96059973066724
 31
0.0
 11
36.50316135826722
 21
28.95361469942839
 31
0.0
 11
36.50232802493383
 21
28.94396380114756
 31
0.0
 11
36.5014946916005
 21
28.93180020523937
 31
0.0
 11
36.50066135826717
 21
28.91732087676553
 31
0.0
 11
36.49982802493389
 21
28.90076193022492
 31
0.0
 11
36.4989946916005
 21
28.88238744944295
 31
0.0
 11
36.49816135826717
 21
28.86249963733462
 31
0.0
 11
36.49732802493384
 21
28.84141530714192
 31
0.0
 11
36.49649469160056
 21
28.81947870480212
 31
0.0
  0
SPLINE
  5
64
330
2
100
AcDbEntity
  8
GAIKEI
  6
Continuous
 62
     1
100
AcDbSpline
210
0.0
220
0.0
230
1.0
 70
     8
 71
     3
 72
    20
 73
    16
 74
    14
 42
0.0000000001
 43
0.0000000001
 44
0.000001
 12
-0.0366600883891987
 22
-0.9993277930285419
 32
0.0
 13
-0.8962567755996664
 23
-0.4435355591062449
 33
0.0
 40
0.0
 40
0.0
 40
0.0
 40
0.0
 40
0.0225441489661095
 40
0.0447243509195021
 40
0.0661807098233039
 40
0.0865702989487714
 40
0.105560024997201
 40
0.1228469656545373
 40
0.1381506161008298
 40
0.1512251988682479
 40
0.1618642916135566
 40
0.1698958897130195
 40
0.1752100305703386
 40
0.1777642420885777
 40
0.1780980751421437
 40
0.1780980751421437
 40
0.1780980751421437
 40
0.1780980751421437
 10
36.53649469160053
 20
28.78865615326617
 30
0.0
 10
36.53621920143594
 20
28.78114648838886
 30
0.0
 10
36.53566856951058
 20
28.76624854863087
 30
0.0
 10
36.53484267062146
 20
28.74420375145081
 30
0.0
 10
36.53401645938871
 20
28.72287777343741
 30
0.0
 10
36.53319171647201
 20
28.70261569120055
 30
0.0
 10
36.5323668185536
 20
28.68374586758267
 30
0.0
 10
36.53154753231817
 20
28.66656884293906
 30
0.0
 10
36.53071999868871
 20
28.65137890034066
 30
0.0
 10
36.52993052102659
 20
28.63836939573656
 30
0.0
 10
36.52905739580831
 20
28.62789718632127
 30
0.0
 10
36.52843653678173
 20
28.61974554920613
 30
0.0
 10
36.52735372389779
 20
28.61488863665926
 30
0.0
 10
36.52716764890703
 20
28.61168448839658
 30
0.0
 10
36.52630674703684
 20
28.61120626980551
 30
0.0
 10
36.52620701365811
 20
28.61115691419548
 30
0.0
 11
36.53649469160053
 21
28.78865615326617
 31
0.0
 11
36.53566135826713
 21
28.76612794765538
 31
0.0
 11
36.53482802493386
 21
28.74396340724457
 31
0.0
 11
36.53399469160053
 21
28.72252323863552
 31
0.0
 11
36.53316135826719
 21
28.70215068785399
 31
0.0
 11
36.53232802493381
 21
28.68317925778524
 31
0.0
 11
36.53149469160053
 21
28.66591241795948
 31
0.0
 11
36.5306613582672
 21
28.65063147799594
 31
0.0
 11
36.52982802493387
 21
28.63758348656416
 31
0.0
 11
36.52899469160047
 21
28.62697709245902
 31
0.0
 11
36.5281613582672
 21
28.6189888658464
 31
0.0
 11
36.52732802493387
 21
28.61374052598547
 31
0.0
 11
36.52649469160053
 21
28.61132640152482
 31
0.0
 11
36.52620701365811
 21
28.61115691419548
 31
0.0
  0
SPLINE
  5
65
330
2
100
AcDbEntity
  8
GAIKEI
  6
Continuous
 62
     1
100
AcDbSpline
210
0.0
220
0.0
230
1.0
 70
     8
 71
     3
 72
    16
 73
    12
 74
    10
 42
0.0000000001
 43
0.0000000001
 44
0.000001
 12
-0.0430768721965857
 22
0.9990717607268052
 32
0.0
 13
-0.9995301167088943
 23
0.0306520112211923
 33
0.0
 40
0.0
 40
0.0
 40
0.0
 40
0.0
 40
0.0160287203943067
 40
0.032720496009847
 40
0.0473482253724389
 40
0.059679252428639
 40
0.0695126747968553
 40
0.0767030109011081
 40
0.0811430012141312
 40
0.0828762629778492
 40
0.0829034368634684
 40
0.0829034368634684
 40
0.0829034368634684
 40
0.0829034368634684
 10
36.5122212195854
 20
28.88374613573501
 30
0.0
 10
36.5119910638721
 20
28.88908408303718
 30
0.0
 10
36.51149541888688
 20
28.89997805664183
 30
0.0
 10
36.51071726615894
 20
28.91574890668562
 30
0.0
 10
36.50989525729726
 20
28.93025362180742
 30
0.0
 10
36.50909428499662
 20
28.94255607199887
 30
0.0
 10
36.50826451561247
 20
28.95213615241511
 30
0.0
 10
36.50755271952041
 20
28.95965294685482
 30
0.0
 10
36.50671008978366
 20
28.96331078466045
 30
0.0
 10
36.50623327600653
 20
28.96614480920658
 30
0.0
 10
36.50564324857503
 20
28.96615725249308
 30
0.0
 10
36.50563419486934
 20
28.96615753013782
 30
0.0
 11
36.5122212195854
 21
28.88374613573501
 31
0.0
 11
36.51149469160055
 21
28.89975766732323
 31
0.0
 11
36.51066135826716
 21
28.91642862443496
 31
0.0
 11
36.50982802493388
 21
28.93103259265433
 31
0.0
 11
36.50899469160049
 21
28.94333542188656
 31
0.0
 11
36.50816135826716
 21
28.95313345754903
 31
0.0
 11
36.50732802493383
 21
28.96027531345863
 31
0.0
 11
36.50649469160055
 21
28.96463631643371
 31
0.0
 11
36.50566135826716
 21
28.96615634064972
 31
0.0
 11
36.50563419486934
 21
28.96615753013782
 31
0.0
  0
SPLINE
  5
66
330
2
100
AcDbEntity
  8
GAIKEI
  6
Continuous
 62
     1
100
AcDbSpline
210
0.0
220
0.0
230
1.0
 70
     8
 71
     3
 72
    20
 73
    16
 74
    14
 42
0.0000000001
 43
0.0000000001
 44
0.000001
 12
-0.03666008838921
 22
-0.9993277930285415
 32
0.0
 13
-0.89604732285992
 23
-0.443958551213478
 33
0.0
 40
0.0
 40
0.0
 40
0.0
 40
0.0
 40
0.0225441487658523
 40
0.0447243507194046
 40
0.0661807096233625
 40
0.0865702987490919
 40
0.1055600247977212
 40
0.1228469654554159
 40
0.1381506159022079
 40
0.1512251986702934
 40
0.1618642914167717
 40
0.1698958895183467
 40
0.1752100303814306
 40
0.1777642418023381
 40
0.1780978513807329
 40
0.1780978513807329
 40
0.1780978513807329
 40
0.1780978513807329
 10
36.49649469160056
 20
28.78865615326617
 30
0.0
 10
36.49621920143842
 20
28.78114648845553
 30
0.0
 10
36.49566856970316
 20
28.76624854875274
 30
0.0
 10
36.4948426707322
 20
28.74420375166216
 30
0.0
 10
36.49401645955939
 20
28.72287777357854
 30
0.0
 10
36.49319171649722
 20
28.7026156915797
 30
0.0
 10
36.49236681905373
 20
28.68374586716436
 30
0.0
 10
36.49154753128849
 20
28.66656884509905
 30
0.0
 10
36.49072000240827
 20
28.65137889449943
 30
0.0
 10
36.48993051077682
 20
28.63836941343596
 30
0.0
 10
36.48905742378777
 20
28.62789713960672
 30
0.0
 10
36.48843647109444
 20
28.61974566032603
 30
0.0
 10
36.48735384760426
 20
28.61488842869733
 30
0.0
 10
36.487167517936
 20
28.61168480548315
 30
0.0
 10
36.48630691706249
 20
28.61120628275541
 30
0.0
 10
36.4862072737393
 20
28.61115691314706
 30
0.0
 11
36.49649469160056
 21
28.78865615326617
 31
0.0
 11
36.49566135826717
 21
28.76612794765538
 31
0.0
 11
36.49482802493384
 21
28.74396340724457
 31
0.0
 11
36.49399469160051
 21
28.72252323863552
 31
0.0
 11
36.49316135826723
 21
28.70215068785399
 31
0.0
 11
36.49232802493384
 21
28.68317925778524
 31
0.0
 11
36.49149469160051
 21
28.66591241795948
 31
0.0
 11
36.49066135826718
 21
28.65063147799594
 31
0.0
 11
36.4898280249339
 21
28.63758348656416
 31
0.0
 11
36.48899469160051
 21
28.62697709245902
 31
0.0
 11
36.48816135826718
 21
28.6189888658464
 31
0.0
 11
36.48732802493384
 21
28.61374052598547
 31
0.0
 11
36.48649469160057
 21
28.61132640152482
 31
0.0
 11
36.4862072737393
 21
28.61115691314706
 31
0.0
  0
SPLINE
  5
67
330
2
100
AcDbEntity
  8
GAIKEI
  6
Continuous
 62
     1
100
AcDbSpline
210
0.0
220
0.0
230
1.0
 70
     8
 71
     3
 72
    20
 73
    16
 74
    14
 42
0.0000000001
 43
0.0000000001
 44
0.000001
 12
-0.0366600883891941
 22
-0.9993277930285421
 32
0.0
 13
-0.8960473228605128
 23
-0.4439585512122816
 33
0.0
 40
0.0
 40
0.0
 40
0.0
 40
0.0
 40
0.0225441487658523
 40
0.0447243507194046
 40
0.0661807096233625
 40
0.0865702987490919
 40
0.1055600247977212
 40
0.1228469654554159
 40
0.1381506159022079
 40
0.1512251986702934
 40
0.1618642914167717
 40
0.1698958895183467
 40
0.1752100303814306
 40
0.1777642418023381
 40
0.1780978513807329
 40
0.1780978513807329
 40
0.1780978513807329
 40
0.1780978513807329
 10
36.49649469160056
 20
25.16865615326617
 30
0.0
 10
36.49621920143842
 20
25.16114648845553
 30
0.0
 10
36.49566856970316
 20
25.14624854875274
 30
0.0
 10
36.4948426707322
 20
25.12420375166215
 30
0.0
 10
36.49401645955939
 20
25.10287777357843
 30
0.0
 10
36.49319171649722
 20
25.08261569157969
 30
0.0
 10
36.49236681905373
 20
25.06374586716436
 30
0.0
 10
36.49154753128849
 20
25.04656884509905
 30
0.0
 10
36.49072000240827
 20
25.03137889449943
 30
0.0
 10
36.48993051077682
 20
25.01836941343595
 30
0.0
 10
36.48905742378777
 20
25.00789713960671
 30
0.0
 10
36.48843647109444
 20
24.99974566032597
 30
0.0
 10
36.48735384760426
 20
24.99488842869738
 30
0.0
 10
36.487167517936
 20
24.99168480548303
 30
0.0
 10
36.48630691706249
 20
24.9912062827554
 30
0.0
 10
36.4862072737393
 20
24.99115691314705
 30
0.0
 11
36.49649469160056
 21
25.16865615326617
 31
0.0
 11
36.49566135826717
 21
25.14612794765537
 31
0.0
 11
36.49482802493384
 21
25.12396340724456
 31
0.0
 11
36.49399469160051
 21
25.10252323863551
 31
0.0
 11
36.49316135826723
 21
25.08215068785399
 31
0.0
 11
36.49232802493384
 21
25.06317925778524
 31
0.0
 11
36.49149469160051
 21
25.04591241795947
 31
0.0
 11
36.49066135826718
 21
25.03063147799594
 31
0.0
 11
36.4898280249339
 21
25.01758348656415
 31
0.0
 11
36.48899469160051
 21
25.00697709245901
 31
0.0
 11
36.48816135826718
 21
24.9989888658464
 31
0.0
 11
36.48732802493384
 21
24.99374052598546
 31
0.0
 11
36.48649469160057
 21
24.99132640152482
 31
0.0
 11
36.4862072737393
 21
24.99115691314705
 31
0.0
  0
SPLINE
  5
68
330
2
100
AcDbEntity
  8
GAIKEI
  6
Continuous
 62
     1
100
AcDbSpline
210
0.0
220
0.0
230
1.0
 70
     8
 71
     3
 72
    16
 73
    12
 74
    10
 42
0.0000000001
 43
0.0000000001
 44
0.000001
 12
-0.7246933390218108
 22
0.6890715234120614
 32
0.0
 13
-0.043558922455188
 23
0.9990508597036205
 33
0.0
 40
0.0
 40
0.0
 40
0.0
 40
0.0
 40
0.0008245869742816
 40
0.0042427686756445
 40
0.010416972395223
 40
0.0192855983072158
 40
0.0307089239071593
 40
0.0445088940072564
 40
0.0604644486191583
 40
0.0783168924071087
 40
0.0828709020179568
 40
0.0828709020179568
 40
0.0828709020179568
 40
0.0828709020179568
 10
36.4862072737393
 20
24.99115691314705
 30
0.0
 10
36.4860080828434
 20
24.99134631294789
 30
0.0
 10
36.48502736402887
 20
24.99240321221993
 30
0.0
 10
36.48481680223336
 20
24.99611471402983
 30
0.0
 10
36.48375650603239
 20
25.00203372582445
 30
0.0
 10
36.48309869277793
 20
25.01090768773452
 30
0.0
 10
36.48223628355834
 20
25.02220916573083
 30
0.0
 10
36.48143923612301
 20
25.03592350951834
 30
0.0
 10
36.48061329017807
 20
25.0517676546495
 30
0.0
 10
36.48002044284692
 20
25.06454231218607
 30
0.0
 10
36.47969339789578
 20
25.07200389826693
 30
0.0
 10
36.47962727531194
 20
25.07352046067251
 30
0.0
 11
36.4862072737393
 21
24.99115691314705
 31
0.0
 11
36.48566135826718
 21
24.99177504466752
 31
0.0
 11
36.48482802493385
 21
24.99508983611941
 31
0.0
 11
36.48399469160052
 21
25.00120750577242
 31
0.0
 11
36.48316135826724
 21
25.01003687617924
 31
0.0
 11
36.48232802493385
 21
25.02142975600737
 31
0.0
 11
36.48149469160052
 21
25.03520453627221
 31
0.0
 11
36.48066135826719
 21
25.05113831029325
 31
0.0
 11
36.4798280249338
 21
25.06897129051447
 31
0.0
 11
36.47962727531194
 21
25.07352046067251
 31
0.0
  0
SPLINE
  5
69
330
2
100
AcDbEntity
  8
GAIKEI
  6
Continuous
 62
     1
100
AcDbSpline
210
0.0
220
0.0
230
1.0
 70
     8
 71
     3
 72
    18
 73
    14
 74
    12
 42
0.0000000001
 43
0.0000000001
 44
0.000001
 12
-0.5846562919338174
 22
-0.8112810982034519
 32
0.0
 13
-0.0371796361214128
 23
-0.9993085983107919
 33
0.0
 40
0.0
 40
0.0
 40
0.0
 40
0.0
 40
0.0015787525645385
 40
0.0058612971317751
 40
0.0128958923591801
 40
0.0225827165462093
 40
0.0347748335201109
 40
0.0492781281816668
 40
0.0658580340895534
 40
0.0842514048913408
 40
0.1041566705155474
 40
0.1252574645254071
 40
0.1472102067833179
 40
0.1472102067833179
 40
0.1472102067833179
 40
0.1472102067833179
 10
36.46563453466018
 20
25.34615753422281
 30
0.0
 10
36.46532685878677
 20
25.34573059685135
 30
0.0
 10
36.46427706297915
 20
25.34404839826419
 30
0.0
 10
36.46396517725688
 20
25.33963237697378
 30
0.0
 10
36.46296531716004
 20
25.33276869596335
 30
0.0
 10
36.46226175403969
 20
25.32312197553006
 30
0.0
 10
36.46141362968589
 20
25.31103714504104
 30
0.0
 10
36.4606088673934
 20
25.29662959117497
 30
0.0
 10
36.45978340589153
 20
25.28015956970006
 30
0.0
 10
36.45896158796762
 20
25.26188464030065
 30
0.0
 10
36.4581361411602
 20
25.2421021722343
 30
0.0
 10
36.45731119780609
 20
25.22113206803937
 30
0.0
 10
36.45676675659016
 20
25.20679122616707
 30
0.0
 10
36.45649469160048
 20
25.19947870480212
 30
0.0
 11
36.46563453466018
 21
25.34615753422281
 31
0.0
 11
36.46482802493387
 21
25.34480023906383
 31
0.0
 11
36.46399469160054
 21
25.34059973066724
 31
0.0
 11
36.46316135826714
 21
25.33361469942838
 31
0.0
 11
36.46232802493387
 21
25.32396380114744
 31
0.0
 11
36.46149469160054
 21
25.31180020523937
 31
0.0
 11
36.4606613582672
 21
25.29732087676553
 31
0.0
 11
36.45982802493382
 21
25.28076193022491
 31
0.0
 11
36.45899469160054
 21
25.26238744944294
 31
0.0
 11
36.4581613582672
 21
25.24249963733451
 31
0.0
 11
36.45732802493387
 21
25.22141530714191
 31
0.0
 11
36.45649469160048
 21
25.19947870480212
 31
0.0
  0
SPLINE
  5
6A
330
2
100
AcDbEntity
  8
GAIKEI
  6
Continuous
 62
     1
100
AcDbSpline
210
0.0
220
0.0
230
1.0
 70
     8
 71
     3
 72
    18
 73
    14
 74
    12
 42
0.0000000001
 43
0.0000000001
 44
0.000001
 12
-0.5844656576229886
 22
-0.8114184463390806
 32
0.0
 13
-0.0371796361214176
 23
-0.9993085983107917
 33
0.0
 40
0.0
 40
0.0
 40
0.0
 40
0.0
 40
0.0015785755413335
 40
0.0058611200296627
 40
0.0128957152542898
 40
0.0225825394406309
 40
0.0347746564143355
 40
0.0492779510757338
 40
0.065857856983589
 40
0.0842512277853647
 40
0.10415649340956
 40
0.1252572874194664
 40
0.147210029564677
 40
0.147210029564677
 40
0.147210029564677
 40
0.147210029564677
 10
36.50563419486934
 20
25.34615753013782
 30
0.0
 10
36.50532665380538
 20
25.34573056836677
 30
0.0
 10
36.50427724151216
 20
25.34404824267785
 30
0.0
 10
36.50396506422857
 20
25.33963243539825
 30
0.0
 10
36.50296536820665
 20
25.3327686693649
 30
0.0
 10
36.50226173416395
 20
25.32312198569832
 30
0.0
 10
36.50141363665913
 20
25.31103714129211
 30
0.0
 10
36.50060886502034
 20
25.29662959227136
 30
0.0
 10
36.4997834065866
 20
25.28015956920666
 30
0.0
 10
36.4989615876994
 20
25.26188464030616
 30
0.0
 10
36.49813614118875
 20
25.24210217208838
 30
0.0
 10
36.4973111977284
 20
25.2211320679769
 30
0.0
 10
36.49676675658884
 20
25.2067912261295
 30
0.0
 10
36.49649469160056
 20
25.19947870480212
 30
0.0
 11
36.50563419486934
 21
25.34615753013782
 31
0.0
 11
36.50482802493383
 21
25.34480023906383
 31
0.0
 11
36.5039946916005
 21
25.34059973066724
 31
0.0
 11
36.50316135826722
 21
25.33361469942838
 31
0.0
 11
36.50232802493383
 21
25.32396380114744
 31
0.0
 11
36.5014946916005
 21
25.31180020523937
 31
0.0
 11
36.50066135826717
 21
25.29732087676553
 31
0.0
 11
36.49982802493389
 21
25.28076193022491
 31
0.0
 11
36.4989946916005
 21
25.26238744944294
 31
0.0
 11
36.49816135826717
 21
25.24249963733451
 31
0.0
 11
36.49732802493384
 21
25.22141530714191
 31
0.0
 11
36.49649469160056
 21
25.19947870480212
 31
0.0
  0
SPLINE
  5
6B
330
2
100
AcDbEntity
  8
GAIKEI
  6
Continuous
 62
     1
100
AcDbSpline
210
0.0
220
0.0
230
1.0
 70
     8
 71
     3
 72
    20
 73
    16
 74
    14
 42
0.0000000001
 43
0.0000000001
 44
0.000001
 12
-0.0366600883891987
 22
-0.9993277930285419
 32
0.0
 13
-0.8962567756003743
 23
-0.4435355591048144
 33
0.0
 40
0.0
 40
0.0
 40
0.0
 40
0.0
 40
0.0225441489661095
 40
0.0447243509195021
 40
0.0661807098233039
 40
0.0865702989487714
 40
0.105560024997201
 40
0.1228469656545373
 40
0.1381506161008298
 40
0.1512251988682479
 40
0.1618642916135566
 40
0.1698958897130195
 40
0.1752100305703386
 40
0.1777642420885777
 40
0.1780980751421437
 40
0.1780980751421437
 40
0.1780980751421437
 40
0.1780980751421437
 10
36.53649469160053
 20
25.16865615326617
 30
0.0
 10
36.53621920143594
 20
25.16114648838885
 30
0.0
 10
36.53566856951058
 20
25.14624854863086
 30
0.0
 10
36.53484267062146
 20
25.12420375145087
 30
0.0
 10
36.53401645938871
 20
25.1028777734374
 30
0.0
 10
36.53319171647201
 20
25.08261569120055
 30
0.0
 10
36.5323668185536
 20
25.06374586758267
 30
0.0
 10
36.53154753231817
 20
25.04656884293905
 30
0.0
 10
36.53071999868871
 20
25.0313789003406
 30
0.0
 10
36.52993052102659
 20
25.01836939573667
 30
0.0
 10
36.52905739580831
 20
25.0078971863212
 30
0.0
 10
36.52843653678173
 20
24.99974554920607
 30
0.0
 10
36.52735372389779
 20
24.99488863665948
 30
0.0
 10
36.52716764890703
 20
24.99168448839646
 30
0.0
 10
36.52630674703684
 20
24.99120626980551
 30
0.0
 10
36.52620701365811
 20
24.99115691419547
 30
0.0
 11
36.53649469160053
 21
25.16865615326617
 31
0.0
 11
36.53566135826713
 21
25.14612794765537
 31
0.0
 11
36.53482802493386
 21
25.12396340724456
 31
0.0
 11
36.53399469160053
 21
25.10252323863551
 31
0.0
 11
36.53316135826719
 21
25.08215068785399
 31
0.0
 11
36.53232802493381
 21
25.06317925778524
 31
0.0
 11
36.53149469160053
 21
25.04591241795947
 31
0.0
 11
36.5306613582672
 21
25.03063147799594
 31
0.0
 11
36.52982802493387
 21
25.01758348656415
 31
0.0
 11
36.52899469160047
 21
25.00697709245901
 31
0.0
 11
36.5281613582672
 21
24.9989888658464
 31
0.0
 11
36.52732802493387
 21
24.99374052598546
 31
0.0
 11
36.52649469160053
 21
24.99132640152482
 31
0.0
 11
36.52620701365811
 21
24.99115691419547
 31
0.0
  0
SPLINE
  5
6C
330
2
100
AcDbEntity
  8
GAIKEI
  6
Continuous
 62
     1
100
AcDbSpline
210
0.0
220
0.0
230
1.0
 70
     8
 71
     3
 72
    16
 73
    12
 74
    10
 42
0.0000000001
 43
0.0000000001
 44
0.000001
 12
-0.0430768721966507
 22
0.9990717607268027
 32
0.0
 13
-0.9995301167089067
 23
0.0306520112207888
 33
0.0
 40
0.0
 40
0.0
 40
0.0
 40
0.0
 40
0.0160287203943067
 40
0.032720496009847
 40
0.0473482253724389
 40
0.059679252428639
 40
0.0695126747968553
 40
0.0767030109011081
 40
0.0811430012141312
 40
0.0828762629778492
 40
0.0829034368634684
 40
0.0829034368634684
 40
0.0829034368634684
 40
0.0829034368634684
 10
36.5122212195854
 20
25.26374613573501
 30
0.0
 10
36.5119910638721
 20
25.26908408303717
 30
0.0
 10
36.51149541888688
 20
25.27997805664177
 30
0.0
 10
36.51071726615894
 20
25.29574890668556
 30
0.0
 10
36.50989525729726
 20
25.31025362180748
 30
0.0
 10
36.50909428499662
 20
25.32255607199881
 30
0.0
 10
36.50826451561247
 20
25.33213615241533
 30
0.0
 10
36.50755271952041
 20
25.33965294685425
 30
0.0
 10
36.50671008978366
 20
25.34331078466136
 30
0.0
 10
36.50623327600653
 20
25.34614480920573
 30
0.0
 10
36.50564324857503
 20
25.34615725249307
 30
0.0
 10
36.50563419486934
 20
25.34615753013782
 30
0.0
 11
36.5122212195854
 21
25.26374613573501
 31
0.0
 11
36.51149469160055
 21
25.27975766732323
 31
0.0
 11
36.51066135826716
 21
25.29642862443495
 31
0.0
 11
36.50982802493388
 21
25.31103259265433
 31
0.0
 11
36.50899469160049
 21
25.32333542188656
 31
0.0
 11
36.50816135826716
 21
25.33313345754903
 31
0.0
 11
36.50732802493383
 21
25.34027531345862
 31
0.0
 11
36.50649469160055
 21
25.34463631643371
 31
0.0
 11
36.50566135826716
 21
25.34615634064972
 31
0.0
 11
36.50563419486934
 21
25.34615753013782
 31
0.0
  0
SPLINE
  5
6D
330
2
100
AcDbEntity
  8
GAIKEI
  6
Continuous
 62
     1
100
AcDbSpline
210
0.0
220
0.0
230
1.0
 70
     8
 71
     3
 72
    11
 73
     7
 74
     5
 42
0.0000000001
 43
0.0000000001
 44
0.000001
 12
0.0263247353920106
 22
0.9996534441027755
 32
0.0
 13
0.1800564184768131
 23
0.9836562845655501
 33
0.0
 40
0.0
 40
0.0
 40
0.0
 40
0.0
 40
0.0222209517494263
 40
0.0388462874323282
 40
0.049882048448065
 40
0.0553514638909737
 40
0.0553514638909737
 40
0.0553514638909737
 40
0.0553514638909737
 10
36.41735221320255
 20
24.83007797416144
 30
0.0
 10
36.41754720009421
 20
24.83748239114397
 30
0.0
 10
36.4179712568304
 20
24.8504274354732
 30
0.0
 10
36.4187955315362
 20
24.86702690528375
 30
0.0
 10
36.41933510681793
 20
24.87807239607918
 30
0.0
 10
36.42021047397471
 20
24.88350995033773
 30
0.0
 10
36.42053874175997
 20
24.88530329196215
 30
0.0
 11
36.41735221320255
 21
24.83007797416144
 31
0.0
 11
36.41810461565786
 21
24.85228607895852
 31
0.0
 11
36.41888650456912
 21
24.86889300019095
 31
0.0
 11
36.41969787993651
 21
24.87989873785887
 31
0.0
 11
36.42053874175997
 21
24.88530329196215
 31
0.0
  0
SPLINE
  5
6E
330
2
100
AcDbEntity
  8
GAIKEI
  6
Continuous
 62
     1
100
AcDbSpline
210
0.0
220
0.0
230
1.0
 70
     8
 71
     3
 72
    13
 73
     9
 74
     7
 42
0.0000000001
 43
0.0000000001
 44
0.000001
 12
-0.1367026333584174
 22
0.9906121289550588
 32
0.0
 13
-0.1693098136655528
 23
0.9855628782561444
 33
0.0
 40
0.0
 40
0.0
 40
0.0
 40
0.0
 40
0.0167469922486499
 40
0.0333773442702691
 40
0.0502571168680879
 40
0.0667711030724865
 40
0.0840636332563482
 40
0.1007849533910366
 40
0.1007849533910366
 40
0.1007849533910366
 40
0.1007849533910366
 10
37.72811373679673
 20
29.6095843769474
 30
0.0
 10
37.72735061748298
 20
29.61511430149574
 30
0.0
 10
37.72575904614965
 20
29.62612602768144
 30
0.0
 10
37.72314946280076
 20
29.64267431958678
 30
0.0
 10
37.72036178280824
 20
29.65911462576855
 30
0.0
 10
37.71741369152814
 20
29.67575092288161
 30
0.0
 10
37.71440983707421
 20
29.69232355396906
 30
0.0
 10
37.71246912652097
 20
29.70349427279979
 30
0.0
 10
37.71152543198889
 20
29.70898757693317
 30
0.0
 11
37.72811373679673
 21
29.6095843769474
 31
0.0
 11
37.72571883094383
 21
29.62615930830646
 31
0.0
 11
37.72313201151462
 21
29.64258724635215
 31
0.0
 11
37.72032158365016
 21
29.65923141613643
 31
0.0
 11
37.71744957501119
 21
29.67549375075601
 31
0.0
 11
37.7143963488536
 21
29.69251526619007
 31
0.0
 11
37.71152543198889
 21
29.70898757693317
 31
0.0
  0
SPLINE
  5
6F
330
2
100
AcDbEntity
  8
GAIKEI
  6
Continuous
 62
     1
100
AcDbSpline
210
0.0
220
0.0
230
1.0
 70
     8
 71
     3
 72
    13
 73
     9
 74
     7
 42
0.0000000001
 43
0.0000000001
 44
0.000001
 12
0.1358537149050929
 22
0.9907289074951259
 32
0.0
 13
0.1028701000007821
 23
0.9946947986824044
 33
0.0
 40
0.0
 40
0.0
 40
0.0
 40
0.0
 40
0.0167629848690612
 40
0.0334123275051458
 40
0.0503098774187991
 40
0.0668410117253159
 40
0.0842373612998063
 40
0.1010541529109476
 40
0.1010541529109476
 40
0.1010541529109476
 40
0.1010541529109476
 10
37.89360178567426
 20
26.24120283155582
 30
0.0
 10
37.89436089026338
 20
26.24673868945104
 30
0.0
 10
37.89580393369393
 20
26.25778260990114
 30
0.0
 10
37.89776647088472
 20
26.27443775267727
 30
0.0
 10
37.89952645796442
 20
26.29103766972128
 30
0.0
 10
37.90118552737164
 20
26.30789798659032
 30
0.0
 10
37.9027688572855
 20
26.32473853504564
 30
0.0
 10
37.90392259160133
 20
26.33608450706868
 30
0.0
 10
37.90449923994624
 20
26.34166036545071
 30
0.0
 11
37.89360178567426
 21
26.24120283155582
 31
0.0
 11
37.89577468602897
 21
26.25782445267101
 31
0.0
 11
37.89772585737376
 21
26.27435907339725
 31
0.0
 11
37.89951896223681
 21
26.29116121983668
 31
0.0
 11
37.90114667912457
 21
26.30761202937708
 31
0.0
 11
37.90280969000412
 21
26.32492936723395
 31
0.0
 11
37.90449923994624
 21
26.34166036545071
 31
0.0
  0
SPLINE
  5
70
330
2
100
AcDbEntity
  8
GAIKEI
  6
Continuous
 62
     1
100
AcDbSpline
210
0.0
220
0.0
230
1.0
 70
     8
 71
     3
 72
    13
 73
     9
 74
     7
 42
0.0000000001
 43
0.0000000001
 44
0.000001
 12
0.1686465211669663
 22
0.9856765954907725
 32
0.0
 13
0.1366868105490227
 23
0.9906143123445854
 33
0.0
 40
0.0
 40
0.0
 40
0.0
 40
0.0
 40
0.0148768856752681
 40
0.0303404718420845
 40
0.0467491639371592
 40
0.0635503078503972
 40
0.0820032027515628
 40
0.100784933155334
 40
0.100784933155334
 40
0.100784933155334
 40
0.100784933155334
 10
37.71152543198889
 20
24.93846510473236
 30
0.0
 10
37.71236174366054
 20
24.94335303740701
 30
0.0
 10
37.71408643366549
 20
24.95331848150499
 30
0.0
 10
37.71686274874884
 20
24.96865227739244
 30
0.0
 10
37.71971180999699
 20
24.9846246703404
 30
0.0
 10
37.72262657022462
 20
25.00159733545013
 30
0.0
 10
37.72547450816175
 20
25.0193832191261
 30
0.0
 10
37.72725799852157
 20
25.03166648773527
 30
0.0
 10
37.72811373679673
 20
25.03786830471813
 30
0.0
 11
37.71152543198889
 21
24.93846510473236
 31
0.0
 11
37.71407256181931
 21
24.95312210806571
 31
0.0
 11
37.71680119625444
 21
24.96834321215704
 31
0.0
 11
37.71967266634533
 21
24.98449870435479
 31
0.0
 11
37.72250461709587
 21
25.00105945831649
 31
0.0
 11
37.72541420530036
 21
25.01928152825224
 31
0.0
 11
37.72811373679673
 21
25.03786830471813
 31
0.0
  0
SPLINE
  5
71
330
2
100
AcDbEntity
  8
GAIKEI
  6
Continuous
 62
     1
100
AcDbSpline
210
0.0
220
0.0
230
1.0
 70
     8
 71
     3
 72
    23
 73
    19
 74
    17
 42
0.0000000001
 43
0.0000000001
 44
0.000001
 12
-0.0195855615079534
 22
0.9998081844936148
 32
0.0
 13
-0.1708806009777295
 23
0.9852917437030972
 33
0.0
 40
0.0
 40
0.0
 40
0.0
 40
0.0
 40
0.0246422057409199
 40
0.0561693393133863
 40
0.0946352834719927
 40
0.1238383489245238
 40
0.1560774103075219
 40
0.1637317308166681
 40
0.1715387786614522
 40
0.1794984554017595
 40
0.1876106488051588
 40
0.1958752329952482
 40
0.2042920686457141
 40
0.2128610032233835
 40
0.2387981685051509
 40
0.2711882160498584
 40
0.3100387699381647
 40
0.3553446180978695
 40
0.3553446180978695
 40
0.3553446180978695
 40
0.3553446180978695
 10
36.41735221320255
 20
29.81737470750409
 30
0.0
 10
36.41719133605715
 20
29.82558720049866
 30
0.0
 10
36.41647266412856
 20
29.84430468542763
 30
0.0
 10
36.41353156379263
 20
29.87572347597285
 30
0.0
 10
36.40954205312048
 20
29.90854889389164
 30
0.0
 10
36.40491414168714
 20
29.94152963893032
 30
0.0
 10
36.40146715326068
 20
29.96430267411938
 30
0.0
 10
36.39901424153499
 20
29.98001247390124
 30
0.0
 10
36.39779739642913
 20
29.98772407772197
 30
0.0
 10
36.39654527946176
 20
29.99558461826621
 30
0.0
 10
36.39525871123351
 20
30.00359409877342
 30
0.0
 10
36.39393852407355
 20
30.01175251250254
 30
0.0
 10
36.39258579955552
 20
30.02005988439527
 30
0.0
 10
36.39027350289669
 20
30.03417944533334
 30
0.0
 10
36.3866477322623
 20
30.05618142962078
 30
0.0
 10
36.38128010908682
 20
30.08812627872078
 30
0.0
 10
36.37470822863384
 20
30.12641522833781
 30
0.0
 10
36.36994045863182
 20
30.15405922734374
 30
0.0
 10
36.3673598284447
 20
30.16893905338816
 30
0.0
 11
36.41735221320255
 21
29.81737470750409
 31
0.0
 11
36.41636209786213
 21
29.84199713594126
 31
0.0
 11
36.41361641243157
 21
29.87340441303866
 31
0.0
 11
36.40903506231382
 21
29.91159653879652
 31
0.0
 11
36.40500429303643
 21
29.94052008189294
 31
0.0
 11
36.40019966928088
 21
29.97239910506574
 31
0.0
 11
36.39901907998047
 21
29.9799618297285
 31
0.0
 11
36.39780246778651
 21
29.98767349778541
 31
0.0
 11
36.39655058304356
 21
29.99553410923648
 31
0.0
 11
36.39526423635778
 21
30.00354366408158
 31
0.0
 11
36.39394429913295
 21
30.01170216232083
 31
0.0
 11
36.39259170402465
 21
30.02000960395412
 31
0.0
 11
36.39120744530692
 21
30.02846598898157
 31
0.0
 11
36.38698454049211
 21
30.05405707186844
 31
0.0
 11
36.38161897101122
 21
30.08599961023185
 31
0.0
 11
36.3750664781669
 21
30.1242936040718
 31
0.0
 11
36.3673598284447
 21
30.16893905338816
 31
0.0
  0
ARC
  5
72
330
2
100
AcDbEntity
  8
GAIKEI
  6
Continuous
 62
     1
100
AcDbCircle
 10
36.54399469160035
 20
31.34452130326622
 30
0.0
 40
0.05
100
AcDbArc
 50
0.0
 51
89.00000000002432
  0
ARC
  5
73
330
2
100
AcDbEntity
  8
GAIKEI
  6
Continuous
 62
     1
100
AcDbCircle
 10
36.54399469160035
 20
31.22212050326619
 30
0.0
 40
0.05
100
AcDbArc
 50
277.9999999999843
 51
0.0
  0
LINE
  5
74
330
2
100
AcDbEntity
  8
GAIKEI
  6
Continuous
 62
     1
100
AcDbLine
 10
36.59399469160041
 20
31.34452130326622
 30
0.0
 11
36.59399469160041
 21
31.22212050326619
 31
0.0
  0
LINE
  5
75
330
2
100
AcDbEntity
  8
GAIKEI
  6
Continuous
 62
     1
100
AcDbLine
 10
36.49982659160037
 20
31.34531510326622
 30
0.0
 11
36.50419304160039
 21
31.39522365326627
 31
0.0
  0
LINE
  5
76
330
2
100
AcDbEntity
  8
GAIKEI
  6
Continuous
 62
     1
100
AcDbLine
 10
36.50419304160039
 20
31.39522365326627
 30
0.0
 11
36.54486729160038
 21
31.39451365326625
 31
0.0
  0
LINE
  5
77
330
2
100
AcDbEntity
  8
GAIKEI
  6
Continuous
 62
     1
100
AcDbLine
 10
36.46649119160037
 20
31.3429371032662
 30
0.0
 11
36.49977114160038
 21
31.34468120326619
 31
0.0
  0
LINE
  5
78
330
2
100
AcDbEntity
  8
GAIKEI
  6
Continuous
 62
     1
100
AcDbLine
 10
36.49399469160039
 20
31.27865615326618
 30
0.0
 11
36.46213329160037
 21
31.27865615326618
 31
0.0
  0
LINE
  5
79
330
2
100
AcDbEntity
  8
GAIKEI
  6
Continuous
 62
     1
100
AcDbLine
 10
36.49982659160037
 20
31.34531510326622
 30
0.0
 11
36.49399469160039
 21
31.27865615326618
 31
0.0
  0
LINE
  5
7A
330
2
100
AcDbEntity
  8
GAIKEI
  6
Continuous
 62
     1
100
AcDbLine
 10
36.55095334160035
 20
31.17260710326616
 30
0.0
 11
36.35399469160041
 21
31.14492635326622
 31
0.0
  0
ARC
  5
7B
330
2
100
AcDbEntity
  8
GAIKEI
  6
Continuous
 62
     7
100
AcDbCircle
 10
34.10654469160039
 20
-4.023176332394655
 30
0.0
 40
0.05
100
AcDbArc
 50
180.0
 51
214.4001229999906
  0
ARC
  5
7C
330
2
100
AcDbEntity
  8
GAIKEI
  6
Continuous
 62
     7
100
AcDbCircle
 10
34.10654469160039
 20
31.38817850326621
 30
0.0
 40
0.05
100
AcDbArc
 50
145.5998770000094
 51
180.0
  0
ARC
  5
7D
330
2
100
AcDbEntity
  8
GAIKEI
  6
Continuous
 62
     7
100
AcDbCircle
 10
34.28248629160038
 20
31.60088330326619
 30
0.0
 40
0.075
100
AcDbArc
 50
93.00000000000558
 51
145.5998770000094
  0
ARC
  5
7E
330
2
100
AcDbEntity
  8
GAIKEI
  6
Continuous
 62
     7
100
AcDbCircle
 10
34.28248629160038
 20
-4.235881132394638
 30
0.0
 40
0.075
100
AcDbArc
 50
214.4001229999906
 51
266.9999999999944
  0
ARC
  5
7F
330
2
100
AcDbEntity
  8
GAIKEI
  6
Continuous
 62
     7
100
AcDbCircle
 10
36.32899469160037
 20
31.73699900326619
 30
0.0
 40
0.025
100
AcDbArc
 50
0.0
 51
84.99999999997722
  0
ARC
  5
80
330
2
100
AcDbEntity
  8
GAIKEI
  6
Continuous
 62
     7
100
AcDbCircle
 10
36.32899469160037
 20
-4.371996832394643
 30
0.0
 40
0.025
100
AcDbArc
 50
275.0000000000228
 51
0.0
  0
LINE
  5
81
330
2
100
AcDbEntity
  8
GAIKEI
  6
Continuous
 62
     7
100
AcDbLine
 10
34.05654469160038
 20
31.38817850326621
 30
0.0
 11
34.05654469160038
 21
31.21868785326626
 31
0.0
  0
LINE
  5
82
330
2
100
AcDbEntity
  8
GAIKEI
  6
Continuous
 62
     7
100
AcDbLine
 10
34.05654469160038
 20
31.21868785326626
 30
0.0
 11
34.06528909160034
 21
31.21868785326626
 31
0.0
  0
LINE
  5
83
330
2
100
AcDbEntity
  8
GAIKEI
  6
Continuous
 62
     7
100
AcDbLine
 10
34.05654469160038
 20
-4.023176332394655
 30
0.0
 11
34.05654469160038
 21
31.21868785326626
 31
0.0
  0
LINE
  5
84
330
2
100
AcDbEntity
  8
GAIKEI
  6
Continuous
 62
     1
100
AcDbLine
 10
34.22060289160038
 20
31.44551690326625
 30
0.0
 11
34.06528909160034
 21
31.21868785326626
 31
0.0
  0
LINE
  5
85
330
2
100
AcDbEntity
  8
GAIKEI
  6
Continuous
 62
     7
100
AcDbLine
 10
34.06528909160034
 20
31.41642695326618
 30
0.0
 11
34.22060289160038
 21
31.64325600326618
 31
0.0
  0
LINE
  5
86
330
2
100
AcDbEntity
  8
GAIKEI
  6
Continuous
 62
     7
100
AcDbLine
 10
34.22060289160038
 20
-4.278253832394739
 30
0.0
 11
34.06528909160034
 21
-4.051424782394633
 31
0.0
  0
LINE
  5
87
330
2
100
AcDbEntity
  8
GAIKEI
  6
Continuous
 62
     1
100
AcDbLine
 10
34.22060289160038
 20
-4.278253832394739
 30
0.0
 11
34.22060289160038
 21
31.44551690326625
 31
0.0
  0
LINE
  5
88
330
2
100
AcDbEntity
  8
GAIKEI
  6
Continuous
 62
     7
100
AcDbLine
 10
36.35399469160041
 20
31.73699900326619
 30
0.0
 11
36.35399469160041
 21
31.56266495326622
 31
0.0
  0
LINE
  5
89
330
2
100
AcDbEntity
  8
GAIKEI
  6
Continuous
 62
     1
100
AcDbLine
 10
36.35399469160041
 20
31.56266495326622
 30
0.0
 11
36.33117359160036
 21
31.56266495326622
 31
0.0
  0
LINE
  5
8A
330
2
100
AcDbEntity
  8
GAIKEI
  6
Continuous
 62
     7
100
AcDbLine
 10
36.35399469160041
 20
31.56266495326622
 30
0.0
 11
36.35399469160041
 21
-4.371996832394643
 31
0.0
  0
LINE
  5
8B
330
2
100
AcDbEntity
  8
GAIKEI
  6
Continuous
 62
     7
100
AcDbLine
 10
36.33117359160036
 20
-4.396901682394627
 30
0.0
 11
36.25399469160039
 21
-4.403653982394644
 31
0.0
  0
LINE
  5
8C
330
2
100
AcDbEntity
  8
GAIKEI
  6
Continuous
 62
     1
100
AcDbLine
 10
36.33117359160036
 20
31.56266495326622
 30
0.0
 11
36.25399469160039
 21
31.5694172032662
 31
0.0
  0
LINE
  5
8D
330
2
100
AcDbEntity
  8
GAIKEI
  6
Continuous
 62
     7
100
AcDbLine
 10
36.25399469160039
 20
31.76865615326619
 30
0.0
 11
36.33117359160036
 21
31.76190385326618
 31
0.0
  0
LINE
  5
8E
330
2
100
AcDbEntity
  8
GAIKEI
  6
Continuous
 62
     1
100
AcDbLine
 10
36.25399469160039
 20
-4.213928082394659
 30
0.0
 11
36.25399469160039
 21
-4.413653982394635
 31
0.0
  0
LINE
  5
8F
330
2
100
AcDbEntity
  8
GAIKEI
  6
Continuous
 62
     7
100
AcDbLine
 10
36.25399469160039
 20
-4.413653982394635
 30
0.0
 11
34.27856109160035
 21
-4.310778382394687
 31
0.0
  0
LINE
  5
90
330
2
100
AcDbEntity
  8
GAIKEI
  6
Continuous
 62
     1
100
AcDbLine
 10
36.25399469160039
 20
31.77865615326619
 30
0.0
 11
36.25399469160039
 21
31.57893025326621
 31
0.0
  0
LINE
  5
91
330
2
100
AcDbEntity
  8
GAIKEI
  6
Continuous
 62
     7
100
AcDbLine
 10
34.27856109160035
 20
31.67578055326624
 30
0.0
 11
36.25399469160039
 21
31.77865615326619
 31
0.0
  0
LINE
  5
92
330
2
100
AcDbEntity
  8
GAIKEI
  6
Continuous
 62
     1
100
AcDbLine
 10
34.27856109160035
 20
31.47605465326626
 30
0.0
 11
34.27856109160035
 21
-4.310778382394687
 31
0.0
  0
LINE
  5
93
330
2
100
AcDbEntity
  8
GAIKEI
  6
Continuous
 62
     1
100
AcDbLine
 10
34.27856109160035
 20
-4.111052482394711
 30
0.0
 11
36.25399469160039
 21
-4.213928082394659
 31
0.0
  0
LINE
  5
94
330
2
100
AcDbEntity
  8
GAIKEI
  6
Continuous
 62
     1
100
AcDbLine
 10
36.25399469160039
 20
31.57893025326621
 30
0.0
 11
36.25399469160039
 21
-4.213928082394659
 31
0.0
  0
LINE
  5
95
330
2
100
AcDbEntity
  8
GAIKEI
  6
Continuous
 62
     1
100
AcDbLine
 10
36.25399469160039
 20
31.57893025326621
 30
0.0
 11
34.27856109160035
 21
31.47605465326626
 31
0.0
  0
ELLIPSE
  5
96
330
2
100
AcDbEntity
  8
GAIKEI
  6
Continuous
 62
     1
100
AcDbEllipse
 10
37.76899469160037
 20
-2.59900178239468
 30
0.0
 11
-0.5749999999999888
 21
0.0000000000000021
 31
0.0
210
0.0
220
0.0
230
1.0
 40
0.3583520000000866
 41
2.345160897092421
 42
3.141592653589802
  0
ARC
  5
97
330
2
100
AcDbEntity
  8
GAIKEI
  6
Continuous
 62
     1
100
AcDbCircle
 10
37.76899469160037
 20
-2.59900178239468
 30
0.0
 40
0.5750000000000001
100
AcDbArc
 50
273.0000000000056
 51
0.0
  0
ARC
  5
98
330
2
100
AcDbEntity
  8
GAIKEI
  6
Continuous
 62
     1
100
AcDbCircle
 10
36.46649469160036
 20
-3.493395132394653
 30
0.0
 40
0.25
100
AcDbArc
 50
93.00000000000558
 51
101.6320759999917
  0
ARC
  5
99
330
2
100
AcDbEntity
  8
GAIKEI
  6
Continuous
 62
     1
100
AcDbCircle
 10
37.91079019160037
 20
30.08793740326621
 30
0.0
 40
0.25
100
AcDbArc
 50
7.999999999984337
 51
9.618225999996282
  0
ARC
  5
9A
330
2
100
AcDbEntity
  8
GAIKEI
  6
Continuous
 62
     1
100
AcDbCircle
 10
36.46649469160036
 20
-3.493395132394653
 30
0.0
 40
0.25
100
AcDbArc
 50
101.6320759999917
 51
116.7436839999986
  0
ARC
  5
9B
330
2
100
AcDbEntity
  8
GAIKEI
  6
Continuous
 62
     1
100
AcDbCircle
 10
38.35899469160035
 20
1.90033616760536
 30
0.0
 40
0.15
100
AcDbArc
 50
317.5188869999826
 51
0.0
  0
ARC
  5
9C
330
2
100
AcDbEntity
  8
GAIKEI
  6
Continuous
 62
     1
100
AcDbCircle
 10
38.50649469160038
 20
1.7652667176053
 30
0.0
 40
0.05
100
AcDbArc
 50
137.5188869999826
 51
180.0
  0
ARC
  5
9D
330
2
100
AcDbEntity
  8
GAIKEI
  6
Continuous
 62
     1
100
AcDbCircle
 10
38.50649469160038
 20
1.765281867605381
 30
0.0
 40
0.05
100
AcDbArc
 50
137.5189609999845
 51
180.0
  0
ARC
  5
9E
330
2
100
AcDbEntity
  8
GAIKEI
  6
Continuous
 62
     1
100
AcDbCircle
 10
38.35899469160035
 20
1.900350917605351
 30
0.0
 40
0.15
100
AcDbArc
 50
317.5189609999845
 51
0.0
  0
ARC
  5
9F
330
2
100
AcDbEntity
  8
GAIKEI
  6
Continuous
 62
     7
100
AcDbCircle
 10
37.91079019160037
 20
30.08793740326621
 30
0.0
 40
0.25
100
AcDbArc
 50
7.999999999984337
 51
76.97098900001984
  0
ARC
  5
A0
330
2
100
AcDbEntity
  8
GAIKEI
  6
Continuous
 62
     7
100
AcDbCircle
 10
38.20649469160037
 20
-1.838602082394686
 30
0.0
 40
0.25
100
AcDbArc
 50
289.9999999999963
 51
0.0
  0
ARC
  5
A1
330
2
100
AcDbEntity
  8
GAIKEI
  6
Continuous
 62
     7
100
AcDbCircle
 10
36.46649469160036
 20
30.90610215326626
 30
0.0
 40
0.25
100
AcDbArc
 50
243.2563160000013
 51
257.9999999999834
  0
LINE
  5
A2
330
2
100
AcDbEntity
  8
GAIKEI
  6
Continuous
 62
     1
100
AcDbLine
 10
38.50899469160038
 20
2.070542017605362
 30
0.0
 11
38.50899469160038
 21
3.167297867605384
 31
0.0
  0
LINE
  5
A3
330
2
100
AcDbEntity
  8
GAIKEI
  6
Continuous
 62
     1
100
AcDbLine
 10
38.50899469160038
 20
1.908612767605291
 30
0.0
 11
38.50899469160038
 21
2.065933117605254
 31
0.0
  0
LINE
  5
A4
330
2
100
AcDbEntity
  8
GAIKEI
  6
Continuous
 62
     1
100
AcDbLine
 10
38.50899469160038
 20
25.13131815326619
 30
0.0
 11
38.50899469160038
 21
25.17443905326627
 31
0.0
  0
LINE
  5
A5
330
2
100
AcDbEntity
  8
GAIKEI
  6
Continuous
 62
     1
100
AcDbLine
 10
38.50899469160038
 20
25.17443905326627
 30
0.0
 11
38.50899469160038
 21
25.6336845032663
 31
0.0
  0
LINE
  5
A6
330
2
100
AcDbEntity
  8
GAIKEI
  6
Continuous
 62
     1
100
AcDbLine
 10
38.50899469160038
 20
2.070542017605362
 30
0.0
 11
38.50899469160038
 21
3.167297867605384
 31
0.0
  0
LINE
  5
A7
330
2
100
AcDbEntity
  8
GAIKEI
  6
Continuous
 62
     1
100
AcDbLine
 10
38.50899469160038
 20
1.908612767605291
 30
0.0
 11
38.50899469160038
 21
2.065933117605254
 31
0.0
  0
LINE
  5
A8
330
2
100
AcDbEntity
  8
GAIKEI
  6
Continuous
 62
     1
100
AcDbLine
 10
38.50899469160038
 20
2.065933117605254
 30
0.0
 11
38.50899469160038
 21
2.070542017605362
 31
0.0
  0
LINE
  5
A9
330
2
100
AcDbEntity
  8
GAIKEI
  6
Continuous
 62
     1
100
AcDbLine
 10
38.50899469160038
 20
26.06484765326627
 30
0.0
 11
38.50899469160038
 21
27.62781105326622
 31
0.0
  0
LINE
  5
AA
330
2
100
AcDbEntity
  8
GAIKEI
  6
Continuous
 62
     1
100
AcDbLine
 10
38.50899469160038
 20
27.62781105326622
 30
0.0
 11
38.50899469160038
 21
27.62781530326629
 31
0.0
  0
LINE
  5
AB
330
2
100
AcDbEntity
  8
GAIKEI
  6
Continuous
 62
     1
100
AcDbLine
 10
38.34399469160042
 20
-2.59900178239468
 30
0.0
 11
38.34399469160042
 21
-2.213653982394703
 31
0.0
  0
LINE
  5
AC
330
2
100
AcDbEntity
  8
GAIKEI
  6
Continuous
 62
     1
100
AcDbLine
 10
36.45341069160031
 20
-3.24373773239472
 30
0.0
 11
36.52872219160031
 21
-3.239790832394646
 31
0.0
  0
LINE
  5
AD
330
2
100
AcDbEntity
  8
GAIKEI
  6
Continuous
 62
     1
100
AcDbLine
 10
38.50899469160038
 20
26.06484765326627
 30
0.0
 11
38.50899469160038
 21
27.62781105326622
 31
0.0
  0
LINE
  5
AE
330
2
100
AcDbEntity
  8
GAIKEI
  6
Continuous
 62
     1
100
AcDbLine
 10
38.50899469160038
 20
27.62781105326622
 30
0.0
 11
38.50899469160038
 21
27.62781530326629
 31
0.0
  0
LINE
  5
AF
330
2
100
AcDbEntity
  8
GAIKEI
  6
Continuous
 62
     1
100
AcDbLine
 10
38.50899469160038
 20
25.59581345326626
 30
0.0
 11
38.50899469160038
 21
26.06484765326627
 31
0.0
  0
LINE
  5
B0
330
2
100
AcDbEntity
  8
GAIKEI
  6
Continuous
 62
     1
100
AcDbLine
 10
36.55841069160033
 20
-3.238234932394675
 30
0.0
 11
37.79908784160034
 21
-3.173213782394668
 31
0.0
  0
LINE
  5
B1
330
2
100
AcDbEntity
  8
GAIKEI
  6
Continuous
 62
     1
100
AcDbLine
 10
36.52872219160031
 20
-3.239790832394646
 30
0.0
 11
36.55841069160033
 21
-3.238234932394675
 31
0.0
  0
LINE
  5
B2
330
2
100
AcDbEntity
  8
GAIKEI
  6
Continuous
 62
     1
100
AcDbLine
 10
38.45649469160037
 20
-1.563653982394725
 30
0.0
 11
38.45649469160037
 21
-1.61365398239468
 31
0.0
  0
LINE
  5
B3
330
2
100
AcDbEntity
  8
GAIKEI
  6
Continuous
 62
     1
100
AcDbLine
 10
38.45649469160037
 20
-1.563653982394725
 30
0.0
 11
38.45649469160037
 21
-1.413653982394635
 31
0.0
  0
LINE
  5
B4
330
2
100
AcDbEntity
  8
GAIKEI
  6
Continuous
 62
     7
100
AcDbLine
 10
38.50899469160038
 20
1.900350917605351
 30
0.0
 11
38.50899469160038
 21
1.934589017605276
 31
0.0
  0
LINE
  5
B5
330
2
100
AcDbEntity
  8
GAIKEI
  6
Continuous
 62
     7
100
AcDbLine
 10
38.50899469160038
 20
1.934589017605276
 30
0.0
 11
38.50899469160038
 21
27.62484520326621
 31
0.0
  0
LINE
  5
B6
330
2
100
AcDbEntity
  8
GAIKEI
  6
Continuous
 62
     1
100
AcDbLine
 10
38.50899469160038
 20
27.62781530326629
 30
0.0
 11
38.50649989160036
 21
27.64556680326621
 31
0.0
  0
LINE
  5
B7
330
2
100
AcDbEntity
  8
GAIKEI
  6
Continuous
 62
     1
100
AcDbLine
 10
38.50899469160038
 20
27.62484520326621
 30
0.0
 11
38.50899469160038
 21
27.62781530326629
 31
0.0
  0
LINE
  5
B8
330
2
100
AcDbEntity
  8
GAIKEI
  6
Continuous
 62
     7
100
AcDbLine
 10
38.50649989160036
 20
27.64556680326621
 30
0.0
 11
38.24877339160037
 21
29.47938590326624
 31
0.0
  0
LINE
  5
B9
330
2
100
AcDbEntity
  8
GAIKEI
  6
Continuous
 62
     7
100
AcDbLine
 10
38.24877339160037
 20
29.47938590326624
 30
0.0
 11
38.15835719160032
 21
30.12273065326622
 31
0.0
  0
LINE
  5
BA
330
2
100
AcDbEntity
  8
GAIKEI
  6
Continuous
 62
     7
100
AcDbLine
 10
37.96715494160037
 20
30.33150055326621
 30
0.0
 11
37.96644944160039
 21
30.3314554032662
 31
0.0
  0
LINE
  5
BB
330
2
100
AcDbEntity
  8
GAIKEI
  6
Continuous
 62
     1
100
AcDbLine
 10
38.45406169160037
 20
1.045704667605377
 30
0.0
 11
38.45649469160037
 21
1.045704667605377
 31
0.0
  0
LINE
  5
BC
330
2
100
AcDbEntity
  8
GAIKEI
  6
Continuous
 62
     7
100
AcDbLine
 10
37.96276809160031
 20
30.33247430326628
 30
0.0
 11
36.61124619160034
 21
30.61974910326626
 31
0.0
  0
LINE
  5
BD
330
2
100
AcDbEntity
  8
GAIKEI
  6
Continuous
 62
     7
100
AcDbLine
 10
37.96276809160031
 20
30.33247430326628
 30
0.0
 11
37.96651959160033
 21
30.33142465326625
 31
0.0
  0
LINE
  5
BE
330
2
100
AcDbEntity
  8
GAIKEI
  6
Continuous
 62
     1
100
AcDbLine
 10
38.38982169160033
 20
26.44924335326618
 30
0.0
 11
38.38982169160033
 21
25.51254210326624
 31
0.0
  0
LINE
  5
BF
330
2
100
AcDbEntity
  8
GAIKEI
  6
Continuous
 62
     7
100
AcDbLine
 10
36.61124619160034
 20
30.61974910326626
 30
0.0
 11
36.56752234160035
 21
30.62904290326628
 31
0.0
  0
LINE
  5
C0
330
2
100
AcDbEntity
  8
GAIKEI
  6
Continuous
 62
     1
100
AcDbLine
 10
38.45649469160037
 20
0.8574443676053533
 30
0.0
 11
38.45649469160037
 21
0.8579205176052937
 31
0.0
  0
LINE
  5
C1
330
2
100
AcDbEntity
  8
GAIKEI
  6
Continuous
 62
     7
100
AcDbLine
 10
38.45406169160037
 20
1.902922917605337
 30
0.0
 11
38.45406169160037
 21
1.045704667605377
 31
0.0
  0
LINE
  5
C2
330
2
100
AcDbEntity
  8
GAIKEI
  6
Continuous
 62
     7
100
AcDbLine
 10
38.50656169160038
 20
1.946975667605329
 30
0.0
 11
38.45406169160037
 21
1.902922917605337
 31
0.0
  0
LINE
  5
C3
330
2
100
AcDbEntity
  8
GAIKEI
  6
Continuous
 62
     1
100
AcDbLine
 10
38.28899244160039
 20
24.92507485326621
 30
0.0
 11
38.14568314160033
 21
24.67746460326623
 31
0.0
  0
LINE
  5
C4
330
2
100
AcDbEntity
  8
GAIKEI
  6
Continuous
 62
     7
100
AcDbLine
 10
38.45649469160037
 20
-1.838602082394686
 30
0.0
 11
38.45649469160037
 21
1.045704667605377
 31
0.0
  0
LINE
  5
C5
330
2
100
AcDbEntity
  8
GAIKEI
  6
Continuous
 62
     7
100
AcDbLine
 10
36.35399469160041
 20
-2.778901417520387
 30
0.0
 11
38.29199974160037
 21
-2.073525232394672
 31
0.0
  0
LINE
  5
C6
330
2
100
AcDbEntity
  8
GAIKEI
  6
Continuous
 62
     7
100
AcDbLine
 10
36.56795859160036
 20
30.62895020326619
 30
0.0
 11
36.41451679160037
 21
30.66156525326619
 31
0.0
  0
LINE
  5
C7
330
2
100
AcDbEntity
  8
GAIKEI
  6
Continuous
 62
     1
100
AcDbLine
 10
38.06045054160035
 20
-1.416424182394621
 30
0.0
 11
36.35399469160041
 21
-2.037523353347864
 31
0.0
  0
LINE
  5
C8
330
2
100
AcDbEntity
  8
GAIKEI
  6
Continuous
 62
     1
100
AcDbLine
 10
38.06045054160035
 20
0.7669279676052839
 30
0.0
 11
38.06045054160035
 21
-1.416424182394621
 31
0.0
  0
LINE
  5
C9
330
2
100
AcDbEntity
  8
GAIKEI
  6
Continuous
 62
     1
100
AcDbLine
 10
37.99750894160036
 20
0.8419388176052962
 30
0.0
 11
38.06045054160035
 21
0.7669279676052839
 31
0.0
  0
LINE
  5
CA
330
2
100
AcDbEntity
  8
GAIKEI
  6
Continuous
 62
     1
100
AcDbLine
 10
37.98026809160035
 20
24.10492410326629
 30
0.0
 11
37.98026809160035
 21
1.377255867605299
 31
0.0
  0
LINE
  5
CB
330
2
100
AcDbEntity
  8
GAIKEI
  6
Continuous
 62
     1
100
AcDbLine
 10
36.48951679160035
 20
23.04699330326617
 30
0.0
 11
36.48951679160035
 21
23.78031900326619
 31
0.0
  0
LINE
  5
CC
330
2
100
AcDbEntity
  8
GAIKEI
  6
Continuous
 62
     1
100
AcDbLine
 10
36.48951679160035
 20
3.919683167605285
 30
0.0
 11
36.48951679160035
 21
4.653008867605308
 31
0.0
  0
ARC
  5
CD
330
2
100
AcDbEntity
  8
GAIKEI
  6
Continuous
 62
     1
100
AcDbCircle
 10
38.26649469160037
 20
-0.7636539823946578
 30
0.0
 40
0.35
100
AcDbArc
 50
0.0
 51
16.25702800000541
  0
ARC
  5
CE
330
2
100
AcDbEntity
  8
GAIKEI
  6
Continuous
 62
     1
100
AcDbCircle
 10
38.26649469160037
 20
-0.7636539823946578
 30
0.0
 40
0.35
100
AcDbArc
 50
343.7429719999946
 51
0.0
  0
ARC
  5
CF
330
2
100
AcDbEntity
  8
GAIKEI
  6
Continuous
 62
     1
100
AcDbCircle
 10
38.55449934160038
 20
-0.8476380323946841
 30
0.0
 40
0.05
100
AcDbArc
 50
275.0000010000219
 51
343.7429719999946
  0
ARC
  5
D0
330
2
100
AcDbEntity
  8
GAIKEI
  6
Continuous
 62
     1
100
AcDbCircle
 10
38.55449934160038
 20
-0.6796699323947451
 30
0.0
 40
0.05
100
AcDbArc
 50
16.25702800000541
 51
84.99999899997805
  0
LINE
  5
D1
330
2
100
AcDbEntity
  8
GAIKEI
  6
Continuous
 62
     1
100
AcDbLine
 10
38.51649469160037
 20
-0.6286539823946669
 30
0.0
 11
38.48149469160034
 21
-0.6286539823946669
 31
0.0
  0
LINE
  5
D2
330
2
100
AcDbEntity
  8
GAIKEI
  6
Continuous
 62
     1
100
AcDbLine
 10
38.48149469160034
 20
-0.8986539823946486
 30
0.0
 11
38.51649469160037
 21
-0.8986539823946486
 31
0.0
  0
LINE
  5
D3
330
2
100
AcDbEntity
  8
GAIKEI
  6
Continuous
 62
     1
100
AcDbLine
 10
38.55885714160036
 20
-0.6298602323946625
 30
0.0
 11
38.51649469160037
 21
-0.626153982394726
 31
0.0
  0
LINE
  5
D4
330
2
100
AcDbEntity
  8
GAIKEI
  6
Continuous
 62
     1
100
AcDbLine
 10
38.51649469160037
 20
-0.9011539823947032
 30
0.0
 11
38.55885714160036
 21
-0.897447732394653
 31
0.0
  0
LINE
  5
D5
330
2
100
AcDbEntity
  8
GAIKEI
  6
Continuous
 62
     1
100
AcDbLine
 10
38.48149469160034
 20
-0.5136539823946578
 30
0.0
 11
38.45649469160037
 21
-0.5136539823946578
 31
0.0
  0
LINE
  5
D6
330
2
100
AcDbEntity
  8
GAIKEI
  6
Continuous
 62
     1
100
AcDbLine
 10
38.45649469160037
 20
-1.013653982394657
 30
0.0
 11
38.48149469160034
 21
-1.013653982394657
 31
0.0
  0
LINE
  5
D7
330
2
100
AcDbEntity
  8
GAIKEI
  6
Continuous
 62
     1
100
AcDbLine
 10
38.48149469160034
 20
-1.013653982394657
 30
0.0
 11
38.48149469160034
 21
-0.5136539823946578
 31
0.0
  0
ARC
  5
D8
330
2
100
AcDbEntity
  8
GAIKEI
  6
Continuous
 62
     1
100
AcDbCircle
 10
38.26649469160037
 20
1.136346017605319
 30
0.0
 40
0.35
100
AcDbArc
 50
0.0
 51
16.25702800000541
  0
ARC
  5
D9
330
2
100
AcDbEntity
  8
GAIKEI
  6
Continuous
 62
     1
100
AcDbCircle
 10
38.26649469160037
 20
1.136346017605319
 30
0.0
 40
0.35
100
AcDbArc
 50
343.7429719999946
 51
0.0
  0
ARC
  5
DA
330
2
100
AcDbEntity
  8
GAIKEI
  6
Continuous
 62
     1
100
AcDbCircle
 10
38.55449934160038
 20
1.052361967605293
 30
0.0
 40
0.05
100
AcDbArc
 50
275.0000010000219
 51
343.7429719999946
  0
ARC
  5
DB
330
2
100
AcDbEntity
  8
GAIKEI
  6
Continuous
 62
     1
100
AcDbCircle
 10
38.55449934160038
 20
1.220330067605345
 30
0.0
 40
0.05
100
AcDbArc
 50
16.25702800000541
 51
84.99999899997805
  0
LINE
  5
DC
330
2
100
AcDbEntity
  8
GAIKEI
  6
Continuous
 62
     1
100
AcDbLine
 10
38.51649469160037
 20
1.27134601760531
 30
0.0
 11
38.48149469160034
 21
1.27134601760531
 31
0.0
  0
LINE
  5
DD
330
2
100
AcDbEntity
  8
GAIKEI
  6
Continuous
 62
     1
100
AcDbLine
 10
38.48149469160034
 20
1.001346017605328
 30
0.0
 11
38.51649469160037
 21
1.001346017605328
 31
0.0
  0
LINE
  5
DE
330
2
100
AcDbEntity
  8
GAIKEI
  6
Continuous
 62
     1
100
AcDbLine
 10
38.55885714160036
 20
1.270139767605314
 30
0.0
 11
38.51649469160037
 21
1.273846017605364
 31
0.0
  0
LINE
  5
DF
330
2
100
AcDbEntity
  8
GAIKEI
  6
Continuous
 62
     1
100
AcDbLine
 10
38.51649469160037
 20
0.998846017605274
 30
0.0
 11
38.55885714160036
 21
1.002552267605324
 31
0.0
  0
LINE
  5
E0
330
2
100
AcDbEntity
  8
GAIKEI
  6
Continuous
 62
     1
100
AcDbLine
 10
38.48149469160034
 20
1.386346017605319
 30
0.0
 11
38.45649469160037
 21
1.386346017605319
 31
0.0
  0
LINE
  5
E1
330
2
100
AcDbEntity
  8
GAIKEI
  6
Continuous
 62
     1
100
AcDbLine
 10
38.45649469160037
 20
0.8863460176053195
 30
0.0
 11
38.48149469160034
 21
0.8863460176053195
 31
0.0
  0
LINE
  5
E2
330
2
100
AcDbEntity
  8
GAIKEI
  6
Continuous
 62
     1
100
AcDbLine
 10
38.48149469160034
 20
0.8863460176053195
 30
0.0
 11
38.48149469160034
 21
1.386346017605319
 31
0.0
  0
LINE
  5
E3
330
2
100
AcDbEntity
  8
GAIKEI
  6
Continuous
 62
     1
100
AcDbLine
 10
36.45649469160037
 20
28.78865615326617
 30
0.0
 11
36.45649469160037
 21
29.03865615326618
 31
0.0
  0
LINE
  5
E4
330
2
100
AcDbEntity
  8
GAIKEI
  6
Continuous
 62
     1
100
AcDbLine
 10
36.42317124160036
 20
28.53865615326617
 30
0.0
 11
36.45649469160037
 21
28.53865615326617
 31
0.0
  0
LINE
  5
E5
330
2
100
AcDbEntity
  8
GAIKEI
  6
Continuous
 62
     1
100
AcDbLine
 10
36.45649469160037
 20
29.03865615326618
 30
0.0
 11
36.42317124160036
 21
29.03865615326618
 31
0.0
  0
LINE
  5
E6
330
2
100
AcDbEntity
  8
GAIKEI
  6
Continuous
 62
     1
100
AcDbLine
 10
36.45649469160037
 20
28.53865615326617
 30
0.0
 11
36.45649469160037
 21
28.78865615326617
 31
0.0
  0
ARC
  5
E7
330
2
100
AcDbEntity
  8
GAIKEI
  6
Continuous
 62
     1
100
AcDbCircle
 10
36.21649469160036
 20
28.78865615326617
 30
0.0
 40
0.45
100
AcDbArc
 50
0.0
 51
16.60155000001893
  0
ARC
  5
E8
330
2
100
AcDbEntity
  8
GAIKEI
  6
Continuous
 62
     1
100
AcDbCircle
 10
36.21649469160036
 20
28.78865615326617
 30
0.0
 40
0.45
100
AcDbArc
 50
343.3984499999811
 51
0.0
  0
ARC
  5
E9
330
2
100
AcDbEntity
  8
GAIKEI
  6
Continuous
 62
     1
100
AcDbCircle
 10
36.58544589160033
 20
28.67865615326627
 30
0.0
 40
0.065
100
AcDbArc
 50
270.0
 51
343.3984499999811
  0
ARC
  5
EA
330
2
100
AcDbEntity
  8
GAIKEI
  6
Continuous
 62
     1
100
AcDbCircle
 10
36.58544589160033
 20
28.89865615326619
 30
0.0
 40
0.065
100
AcDbArc
 50
16.60155000001893
 51
90.0
  0
LINE
  5
EB
330
2
100
AcDbEntity
  8
GAIKEI
  6
Continuous
 62
     1
100
AcDbLine
 10
36.45649469160037
 20
28.69365615326626
 30
0.0
 11
36.48935239160039
 21
28.69365615326626
 31
0.0
  0
LINE
  5
EC
330
2
100
AcDbEntity
  8
GAIKEI
  6
Continuous
 62
     1
100
AcDbLine
 10
36.45905224160038
 20
28.8836561532662
 30
0.0
 11
36.45649469160037
 21
28.8836561532662
 31
0.0
  0
LINE
  5
ED
330
2
100
AcDbEntity
  8
GAIKEI
  6
Continuous
 62
     1
100
AcDbLine
 10
36.53649469160035
 20
28.8836561532662
 30
0.0
 11
36.50248504160038
 21
28.8836561532662
 31
0.0
  0
LINE
  5
EE
330
2
100
AcDbEntity
  8
GAIKEI
  6
Continuous
 62
     1
100
AcDbLine
 10
36.53649469160035
 20
28.61365615326622
 30
0.0
 11
36.58544589160033
 21
28.61365615326622
 31
0.0
  0
LINE
  5
EF
330
2
100
AcDbEntity
  8
GAIKEI
  6
Continuous
 62
     1
100
AcDbLine
 10
36.58544589160033
 20
28.96365615326624
 30
0.0
 11
36.53649469160035
 21
28.96365615326624
 31
0.0
  0
LINE
  5
F0
330
2
100
AcDbEntity
  8
GAIKEI
  6
Continuous
 62
     1
100
AcDbLine
 10
36.53649469160035
 20
28.78865615326617
 30
0.0
 11
36.53649469160035
 21
28.96365615326624
 31
0.0
  0
LINE
  5
F1
330
2
100
AcDbEntity
  8
GAIKEI
  6
Continuous
 62
     1
100
AcDbLine
 10
36.53649469160035
 20
28.61365615326622
 30
0.0
 11
36.53649469160035
 21
28.78865615326617
 31
0.0
  0
LINE
  5
F2
330
2
100
AcDbEntity
  8
GAIKEI
  6
Continuous
 62
     1
100
AcDbLine
 10
36.45649469160037
 20
28.80732335326627
 30
0.0
 11
36.49649469160034
 21
28.80732335326627
 31
0.0
  0
LINE
  5
F3
330
2
100
AcDbEntity
  8
GAIKEI
  6
Continuous
 62
     1
100
AcDbLine
 10
36.49649469160034
 20
28.78865615326617
 30
0.0
 11
36.53649469160035
 21
28.78865615326617
 31
0.0
  0
LINE
  5
F4
330
2
100
AcDbEntity
  8
GAIKEI
  6
Continuous
 62
     1
100
AcDbLine
 10
36.52620719160035
 20
28.61115690326619
 30
0.0
 11
36.48620719160033
 21
28.61115690326619
 31
0.0
  0
LINE
  5
F5
330
2
100
AcDbEntity
  8
GAIKEI
  6
Continuous
 62
     1
100
AcDbLine
 10
36.50563449160035
 20
28.96615755326627
 30
0.0
 11
36.46563449160038
 21
28.96615755326627
 31
0.0
  0
LINE
  5
F6
330
2
100
AcDbEntity
  8
GAIKEI
  6
Continuous
 62
     1
100
AcDbLine
 10
36.49649469160034
 20
28.81947870326622
 30
0.0
 11
36.49649469160034
 21
28.80732335326627
 31
0.0
  0
LINE
  5
F7
330
2
100
AcDbEntity
  8
GAIKEI
  6
Continuous
 62
     1
100
AcDbLine
 10
36.45649469160037
 20
25.16865615326628
 30
0.0
 11
36.45649469160037
 21
25.41865615326628
 31
0.0
  0
LINE
  5
F8
330
2
100
AcDbEntity
  8
GAIKEI
  6
Continuous
 62
     1
100
AcDbLine
 10
36.41735219160035
 20
24.91865615326628
 30
0.0
 11
36.45649469160037
 21
24.91865615326628
 31
0.0
  0
LINE
  5
F9
330
2
100
AcDbEntity
  8
GAIKEI
  6
Continuous
 62
     1
100
AcDbLine
 10
36.45649469160037
 20
25.41865615326628
 30
0.0
 11
36.41735219160035
 21
25.41865615326628
 31
0.0
  0
LINE
  5
FA
330
2
100
AcDbEntity
  8
GAIKEI
  6
Continuous
 62
     1
100
AcDbLine
 10
36.45649469160037
 20
24.91865615326628
 30
0.0
 11
36.45649469160037
 21
25.16865615326628
 31
0.0
  0
ARC
  5
FB
330
2
100
AcDbEntity
  8
GAIKEI
  6
Continuous
 62
     1
100
AcDbCircle
 10
36.21649469160036
 20
25.16865615326628
 30
0.0
 40
0.45
100
AcDbArc
 50
0.0
 51
16.60155000001893
  0
ARC
  5
FC
330
2
100
AcDbEntity
  8
GAIKEI
  6
Continuous
 62
     1
100
AcDbCircle
 10
36.21649469160036
 20
25.16865615326628
 30
0.0
 40
0.45
100
AcDbArc
 50
343.3984499999811
 51
0.0
  0
ARC
  5
FD
330
2
100
AcDbEntity
  8
GAIKEI
  6
Continuous
 62
     1
100
AcDbCircle
 10
36.58544589160033
 20
25.05865615326627
 30
0.0
 40
0.065
100
AcDbArc
 50
270.0
 51
343.3984499999811
  0
ARC
  5
FE
330
2
100
AcDbEntity
  8
GAIKEI
  6
Continuous
 62
     1
100
AcDbCircle
 10
36.58544589160033
 20
25.27865615326618
 30
0.0
 40
0.065
100
AcDbArc
 50
16.60155000001893
 51
90.0
  0
LINE
  5
FF
330
2
100
AcDbEntity
  8
GAIKEI
  6
Continuous
 62
     1
100
AcDbLine
 10
36.45649469160037
 20
25.07365615326626
 30
0.0
 11
36.48935239160039
 21
25.07365615326626
 31
0.0
  0
LINE
  5
100
330
2
100
AcDbEntity
  8
GAIKEI
  6
Continuous
 62
     1
100
AcDbLine
 10
36.53649469160035
 20
25.2636561532662
 30
0.0
 11
36.50248504160038
 21
25.2636561532662
 31
0.0
  0
LINE
  5
101
330
2
100
AcDbEntity
  8
GAIKEI
  6
Continuous
 62
     1
100
AcDbLine
 10
36.53649469160035
 20
24.99365615326622
 30
0.0
 11
36.58544589160033
 21
24.99365615326622
 31
0.0
  0
LINE
  5
102
330
2
100
AcDbEntity
  8
GAIKEI
  6
Continuous
 62
     1
100
AcDbLine
 10
36.58544589160033
 20
25.34365615326624
 30
0.0
 11
36.53649469160035
 21
25.34365615326624
 31
0.0
  0
LINE
  5
103
330
2
100
AcDbEntity
  8
GAIKEI
  6
Continuous
 62
     1
100
AcDbLine
 10
36.53649469160035
 20
25.16865615326628
 30
0.0
 11
36.53649469160035
 21
25.34365615326624
 31
0.0
  0
LINE
  5
104
330
2
100
AcDbEntity
  8
GAIKEI
  6
Continuous
 62
     1
100
AcDbLine
 10
36.53649469160035
 20
24.99365615326622
 30
0.0
 11
36.53649469160035
 21
25.16865615326628
 31
0.0
  0
LINE
  5
105
330
2
100
AcDbEntity
  8
GAIKEI
  6
Continuous
 62
     1
100
AcDbLine
 10
36.45649469160037
 20
25.18732335326627
 30
0.0
 11
36.49649469160034
 21
25.18732335326627
 31
0.0
  0
LINE
  5
106
330
2
100
AcDbEntity
  8
GAIKEI
  6
Continuous
 62
     1
100
AcDbLine
 10
36.49649469160034
 20
25.16865615326628
 30
0.0
 11
36.53649469160035
 21
25.16865615326628
 31
0.0
  0
LINE
  5
107
330
2
100
AcDbEntity
  8
GAIKEI
  6
Continuous
 62
     1
100
AcDbLine
 10
36.52620719160035
 20
24.99115690326619
 30
0.0
 11
36.48620719160033
 21
24.99115690326619
 31
0.0
  0
LINE
  5
108
330
2
100
AcDbEntity
  8
GAIKEI
  6
Continuous
 62
     1
100
AcDbLine
 10
36.50563449160035
 20
25.34615755326627
 30
0.0
 11
36.46563449160038
 21
25.34615755326627
 31
0.0
  0
LINE
  5
109
330
2
100
AcDbEntity
  8
GAIKEI
  6
Continuous
 62
     1
100
AcDbLine
 10
36.49649469160034
 20
25.19947870326621
 30
0.0
 11
36.49649469160034
 21
25.18732335326627
 31
0.0
  0
ARC
  5
10A
330
2
100
AcDbEntity
  8
GAIKEI
  6
Continuous
 62
     1
100
AcDbCircle
 10
36.06649469160038
 20
-3.648653982394648
 30
0.0
 40
0.35
100
AcDbArc
 50
0.0
 51
16.25702800000541
  0
ARC
  5
10B
330
2
100
AcDbEntity
  8
GAIKEI
  6
Continuous
 62
     1
100
AcDbCircle
 10
36.06649469160038
 20
-3.648653982394648
 30
0.0
 40
0.35
100
AcDbArc
 50
343.7429719999946
 51
0.0
  0
ARC
  5
10C
330
2
100
AcDbEntity
  8
GAIKEI
  6
Continuous
 62
     1
100
AcDbCircle
 10
36.35449934160033
 20
-3.732638032394675
 30
0.0
 40
0.05
100
AcDbArc
 50
320.9555470000156
 51
343.7429719999946
  0
ARC
  5
10D
330
2
100
AcDbEntity
  8
GAIKEI
  6
Continuous
 62
     1
100
AcDbCircle
 10
36.35449934160033
 20
-3.564669932394735
 30
0.0
 40
0.05
100
AcDbArc
 50
16.25702800000541
 51
80.92142899999224
  0
ARC
  5
10E
330
2
100
AcDbEntity
  8
GAIKEI
  6
Continuous
 62
     1
100
AcDbCircle
 10
36.31449934160037
 20
-3.529669932394654
 30
0.0
 40
0.05
100
AcDbArc
 50
16.25702800000541
 51
37.82319200001238
  0
ARC
  5
10F
330
2
100
AcDbEntity
  8
GAIKEI
  6
Continuous
 62
     1
100
AcDbCircle
 10
36.01649469160037
 20
-4.013653982394657
 30
0.0
 40
0.45
100
AcDbArc
 50
343.3984499999811
 51
348.2276048164396
  0
ARC
  5
110
330
2
100
AcDbEntity
  8
GAIKEI
  6
Continuous
 62
     1
100
AcDbCircle
 10
36.3854458916004
 20
-4.123653982394671
 30
0.0
 40
0.065
100
AcDbArc
 50
270.0
 51
343.3984499999811
  0
LINE
  5
111
330
2
100
AcDbEntity
  8
GAIKEI
  6
Continuous
 62
     1
100
AcDbLine
 10
36.35399469160041
 20
-4.188653982394725
 30
0.0
 11
36.3854458916004
 21
-4.188653982394725
 31
0.0
  0
ARC
  5
112
330
2
100
AcDbEntity
  8
GAIKEI
  6
Continuous
 62
     1
100
AcDbCircle
 10
36.01649469160037
 20
31.34115615326618
 30
0.0
 40
0.45
100
AcDbArc
 50
0.0
 51
16.60155000001893
  0
ARC
  5
113
330
2
100
AcDbEntity
  8
GAIKEI
  6
Continuous
 62
     1
100
AcDbCircle
 10
36.01649469160037
 20
31.34115615326618
 30
0.0
 40
0.45
100
AcDbArc
 50
343.3984499999811
 51
0.0
  0
ARC
  5
114
330
2
100
AcDbEntity
  8
GAIKEI
  6
Continuous
 62
     1
100
AcDbCircle
 10
36.3854458916004
 20
31.23115615326617
 30
0.0
 40
0.065
100
AcDbArc
 50
270.0
 51
343.3984499999811
  0
ARC
  5
115
330
2
100
AcDbEntity
  8
GAIKEI
  6
Continuous
 62
     1
100
AcDbCircle
 10
36.3854458916004
 20
31.4511561532662
 30
0.0
 40
0.065
100
AcDbArc
 50
16.60155000001893
 51
90.0
  0
LINE
  5
116
330
2
100
AcDbEntity
  8
GAIKEI
  6
Continuous
 62
     1
100
AcDbLine
 10
36.35399469160041
 20
31.16615615326623
 30
0.0
 11
36.3854458916004
 21
31.16615615326623
 31
0.0
  0
LINE
  5
117
330
2
100
AcDbEntity
  8
GAIKEI
  6
Continuous
 62
     1
100
AcDbLine
 10
36.3854458916004
 20
31.51615615326625
 30
0.0
 11
36.35399469160041
 21
31.51615615326625
 31
0.0
  0
ARC
  5
118
330
2
100
AcDbEntity
  8
GAIKEI
  6
Continuous
 62
     1
100
AcDbCircle
 10
36.01649469160037
 20
13.07658181683814
 30
0.0
 40
0.45
100
AcDbArc
 50
0.0
 51
16.60155000001893
  0
ARC
  5
119
330
2
100
AcDbEntity
  8
GAIKEI
  6
Continuous
 62
     1
100
AcDbCircle
 10
36.01649469160037
 20
13.07658181683814
 30
0.0
 40
0.45
100
AcDbArc
 50
343.3984499999811
 51
0.0
  0
ARC
  5
11A
330
2
100
AcDbEntity
  8
GAIKEI
  6
Continuous
 62
     1
100
AcDbCircle
 10
36.3854458916004
 20
12.96658181683824
 30
0.0
 40
0.065
100
AcDbArc
 50
270.0
 51
343.3984499999811
  0
ARC
  5
11B
330
2
100
AcDbEntity
  8
GAIKEI
  6
Continuous
 62
     1
100
AcDbCircle
 10
36.3854458916004
 20
13.18658181683815
 30
0.0
 40
0.065
100
AcDbArc
 50
16.60155000001893
 51
90.0
  0
LINE
  5
11C
330
2
100
AcDbEntity
  8
GAIKEI
  6
Continuous
 62
     1
100
AcDbLine
 10
36.35399469160041
 20
12.90158181683819
 30
0.0
 11
36.3854458916004
 21
12.90158181683819
 31
0.0
  0
LINE
  5
11D
330
2
100
AcDbEntity
  8
GAIKEI
  6
Continuous
 62
     1
100
AcDbLine
 10
36.3854458916004
 20
13.25158181683821
 30
0.0
 11
36.35399469160041
 21
13.25158181683821
 31
0.0
  0
LINE
  5
11E
330
2
100
AcDbEntity
  8
GAIKEI
  6
Continuous
 62
     1
100
AcDbLine
 10
36.3854458916004
 20
-3.763653982394657
 30
0.0
 11
36.35399469160041
 21
-3.763653982394657
 31
0.0
  0
ARC
  5
11F
330
2
100
AcDbEntity
  8
GAIKEI
  6
Continuous
 62
     1
100
AcDbCircle
 10
36.05649469160039
 20
-3.938653982394725
 30
0.0
 40
0.45
100
AcDbArc
 50
0.0
 51
16.60155000001893
  0
ARC
  5
120
330
2
100
AcDbEntity
  8
GAIKEI
  6
Continuous
 62
     1
100
AcDbCircle
 10
36.05649469160039
 20
-3.938653982394725
 30
0.0
 40
0.45
100
AcDbArc
 50
343.3984499999811
 51
0.0
  0
ARC
  5
121
330
2
100
AcDbEntity
  8
GAIKEI
  6
Continuous
 62
     1
100
AcDbCircle
 10
36.42544589160036
 20
-4.048653982394625
 30
0.0
 40
0.065
100
AcDbArc
 50
299.071346000013
 51
343.3984499999811
  0
ARC
  5
122
330
2
100
AcDbEntity
  8
GAIKEI
  6
Continuous
 62
     1
100
AcDbCircle
 10
36.42544589160036
 20
-3.828653982394712
 30
0.0
 40
0.065
100
AcDbArc
 50
16.60155000001893
 51
90.0
  0
LINE
  5
123
330
2
100
AcDbEntity
  8
GAIKEI
  6
Continuous
 62
     1
100
AcDbLine
 10
36.42544589160036
 20
-3.763653982394657
 30
0.0
 11
36.39371679160035
 21
-3.763653982394657
 31
0.0
  0
ELLIPSE
  5
124
330
2
100
AcDbEntity
  8
GAIKEI
  6
Continuous
 62
     1
100
AcDbEllipse
 10
36.57051589160039
 20
29.76214940326622
 30
0.0
 11
0.1424851626795885
 21
0.0468826024892312
 31
0.0
210
0.0
220
0.0
230
1.0
 40
0.9984440000001793
 41
1.218517221577885
 42
2.82325303544779
  0
ELLIPSE
  5
125
330
2
100
AcDbEntity
  8
GAIKEI
  6
Continuous
 62
     1
100
AcDbEllipse
 10
36.57051589160039
 20
24.88530330326614
 30
0.0
 11
-0.1424851626777184
 21
0.0468826024949143
 31
0.0
210
0.0
220
0.0
230
1.0
 40
0.9984440000005646
 41
0.318339618181823
 42
1.923075432051857
  0
ELLIPSE
  5
126
330
2
100
AcDbEntity
  8
GAIKEI
  6
Continuous
 62
     1
100
AcDbEllipse
 10
37.00743864160035
 20
27.55386825326616
 30
0.0
 11
-0.0677683608693831
 21
0.9901836694613267
 31
0.0
210
0.0
220
0.0
230
1.0
 40
0.9986229999985823
 41
4.644149142569689
 42
4.780628818045713
  0
ELLIPSE
  5
127
330
2
100
AcDbEntity
  8
GAIKEI
  6
Continuous
 62
     1
100
AcDbEllipse
 10
37.55775119160035
 20
24.91977830326618
 30
0.0
 11
0.1113231012737732
 21
0.1005344076561978
 31
0.0
210
0.0
220
0.0
230
1.0
 40
0.9976620000000806
 41
4.013930599325021
 42
5.410847361505642
  0
ELLIPSE
  5
128
330
2
100
AcDbEntity
  8
GAIKEI
  6
Continuous
 62
     1
100
AcDbEllipse
 10
37.00743864160035
 20
27.09358440326616
 30
0.0
 11
0.0677683607176556
 21
0.9901836694785888
 31
0.0
210
0.0
220
0.0
230
1.0
 40
0.998622999991616
 41
4.644149142570644
 42
4.78062881804572
  0
ELLIPSE
  5
129
330
2
100
AcDbEntity
  8
GAIKEI
  6
Continuous
 62
     1
100
AcDbEllipse
 10
37.55775119160035
 20
29.72767435326625
 30
0.0
 11
-0.1113231012655573
 21
0.1005344076653982
 31
0.0
210
0.0
220
0.0
230
1.0
 40
0.9976619999996227
 41
4.013930599346159
 42
5.410847361526342
  0
ELLIPSE
  5
12A
330
2
100
AcDbEntity
  8
GAIKEI
  6
Continuous
 62
     1
100
AcDbEllipse
 10
37.80143994160039
 20
24.74116400326625
 30
0.0
 11
-0.2200773139313426
 21
0.2042784546889193
 31
0.0
210
0.0
220
0.0
230
1.0
 40
0.9990920000004408
 41
2.530501865473186
 42
3.75268344169062
  0
ELLIPSE
  5
12B
330
2
100
AcDbEntity
  8
GAIKEI
  6
Continuous
 62
     1
100
AcDbEllipse
 10
36.96383434160038
 20
27.09656870326615
 30
0.0
 11
-1.447501845782709
 21
0.0990673050774751
 31
0.0
210
0.0
220
0.0
230
1.0
 40
0.9993879999934986
 41
3.073300713334443
 42
3.209884594306729
  0
ELLIPSE
  5
12C
330
2
100
AcDbEntity
  8
GAIKEI
  6
Continuous
 62
     1
100
AcDbEllipse
 10
36.96383434160038
 20
27.55088395326618
 30
0.0
 11
1.447501845805857
 21
0.0990673047384905
 31
0.0
210
0.0
220
0.0
230
1.0
 40
0.9993880000055288
 41
-0.0682919404817914
 42
0.0682919404888547
  0
ELLIPSE
  5
12D
330
2
100
AcDbEntity
  8
GAIKEI
  6
Continuous
 62
     1
100
AcDbEllipse
 10
37.80143994160039
 20
29.90628870326623
 30
0.0
 11
0.2200773139137207
 21
0.2042784547079607
 31
0.0
210
0.0
220
0.0
230
1.0
 40
0.9990919999997052
 41
-0.6110907881875775
 42
0.6110907880307086
  0
ARC
  5
12E
330
2
100
AcDbEntity
  8
GAIKEI
  6
Continuous
 62
     1
100
AcDbCircle
 10
37.80179884160038
 20
24.74083090326621
 30
0.0
 40
0.34978195
100
AcDbArc
 50
317.3057001384141
 51
349.609110091751
  0
LINE
  5
12F
330
2
100
AcDbEntity
  8
GAIKEI
  6
Continuous
 62
     1
100
AcDbLine
 10
36.48125184160034
 20
25.03984800326623
 30
0.0
 11
36.48125184160034
 21
24.9092416032662
 31
0.0
  0
LINE
  5
130
330
2
100
AcDbEntity
  8
GAIKEI
  6
Continuous
 62
     1
100
AcDbLine
 10
36.48125184160034
 20
24.9092416032662
 30
0.0
 11
36.43125944160033
 21
24.9092416032662
 31
0.0
  0
LINE
  5
131
330
2
100
AcDbEntity
  8
GAIKEI
  6
Continuous
 62
     1
100
AcDbLine
 10
37.56297894160037
 20
24.77007515326625
 30
0.0
 11
37.56167509160036
 21
24.77151890326627
 31
0.0
  0
LINE
  5
132
330
2
100
AcDbEntity
  8
GAIKEI
  6
Continuous
 62
     1
100
AcDbLine
 10
36.43125944160033
 20
24.9092416032662
 30
0.0
 11
36.43125944160033
 21
24.91865615326628
 31
0.0
  0
LINE
  5
133
330
2
100
AcDbEntity
  8
GAIKEI
  6
Continuous
 62
     1
100
AcDbLine
 10
37.98933664160035
 20
27.68890335326626
 30
0.0
 11
37.83694169160038
 21
28.81824985326625
 31
0.0
  0
LINE
  5
134
330
2
100
AcDbEntity
  8
GAIKEI
  6
Continuous
 62
     1
100
AcDbLine
 10
37.71152544160031
 20
29.7089875532663
 30
0.0
 11
37.70614889160038
 21
29.74808270326617
 31
0.0
  0
LINE
  5
135
330
2
100
AcDbEntity
  8
GAIKEI
  6
Continuous
 62
     1
100
AcDbLine
 10
37.83694169160038
 20
28.81824985326625
 30
0.0
 11
37.7281137416004
 21
29.6095843532662
 31
0.0
  0
LINE
  5
136
330
2
100
AcDbEntity
  8
GAIKEI
  6
Continuous
 62
     1
100
AcDbLine
 10
37.99857844160033
 20
27.09358440326628
 30
0.0
 11
37.99857844160033
 21
27.55386825326628
 31
0.0
  0
LINE
  5
137
330
2
100
AcDbEntity
  8
GAIKEI
  6
Continuous
 62
     1
100
AcDbLine
 10
37.90449924160038
 20
26.34166035326621
 30
0.0
 11
37.98933664160035
 21
26.95854935326622
 31
0.0
  0
LINE
  5
138
330
2
100
AcDbEntity
  8
GAIKEI
  6
Continuous
 62
     1
100
AcDbLine
 10
37.7281137416004
 20
25.03786830326624
 30
0.0
 11
37.89360179160042
 21
26.24120285326626
 31
0.0
  0
LINE
  5
139
330
2
100
AcDbEntity
  8
GAIKEI
  6
Continuous
 62
     1
100
AcDbLine
 10
37.70614889160038
 20
24.8993700032662
 30
0.0
 11
37.71152544160031
 21
24.93846510326625
 31
0.0
  0
LINE
  5
13A
330
2
100
AcDbEntity
  8
GAIKEI
  6
Continuous
 62
     1
100
AcDbLine
 10
36.57574364160036
 20
24.73560010326628
 30
0.0
 11
37.56297894160037
 21
24.77007515326625
 31
0.0
  0
LINE
  5
13B
330
2
100
AcDbEntity
  8
GAIKEI
  6
Continuous
 62
     1
100
AcDbLine
 10
36.36100949160038
 20
24.1255028532662
 30
0.0
 11
37.86458769160038
 21
24.44769820326622
 31
0.0
  0
LINE
  5
13C
330
2
100
AcDbEntity
  8
GAIKEI
  6
Continuous
 62
     1
100
AcDbLine
 10
38.09878884160037
 20
24.70001245326626
 30
0.0
 11
38.40120599160036
 21
26.89901690326621
 31
0.0
  0
LINE
  5
13D
330
2
100
AcDbEntity
  8
GAIKEI
  6
Continuous
 62
     1
100
AcDbLine
 10
38.4147181916004
 20
27.09644775326626
 30
0.0
 11
38.4147181916004
 21
27.55100490326618
 31
0.0
  0
LINE
  5
13E
330
2
100
AcDbEntity
  8
GAIKEI
  6
Continuous
 62
     1
100
AcDbLine
 10
38.40120599160036
 20
27.74843580326626
 30
0.0
 11
38.09878884160037
 21
29.94744025326622
 31
0.0
  0
LINE
  5
13F
330
2
100
AcDbEntity
  8
GAIKEI
  6
Continuous
 62
     1
100
AcDbLine
 10
37.86458769160038
 20
30.19975450326626
 30
0.0
 11
36.36100949160038
 21
30.52194980326624
 31
0.0
  0
LINE
  5
140
330
2
100
AcDbEntity
  8
GAIKEI
  6
Continuous
 62
     1
100
AcDbLine
 10
36.41735219160035
 20
29.8173747032663
 30
0.0
 11
36.41735219160035
 21
24.83007795326626
 31
0.0
  0
LINE
  5
141
330
2
100
AcDbEntity
  8
GAIKEI
  6
Continuous
 62
     1
100
AcDbLine
 10
37.56297894160037
 20
29.87737755326623
 30
0.0
 11
36.57574364160036
 21
29.91185255326627
 31
0.0
  0
ARC
  5
142
330
2
100
AcDbEntity
  8
GAIKEI
  6
Continuous
 62
     1
100
AcDbCircle
 10
37.98925439160041
 20
-3.224460082394671
 30
0.0
 40
0.05
100
AcDbArc
 50
273.0000000000056
 51
359.0000000000243
  0
ARC
  5
143
330
2
100
AcDbEntity
  8
GAIKEI
  6
Continuous
 62
     1
100
AcDbCircle
 10
36.53738794160034
 20
-3.600960882394701
 30
0.0
 40
0.25
100
AcDbArc
 50
93.00000000000558
 51
137.1867789999956
  0
LINE
  5
144
330
2
100
AcDbEntity
  8
GAIKEI
  6
Continuous
 62
     1
100
AcDbLine
 10
36.52430399160039
 20
-3.351303532394695
 30
0.0
 11
37.52838049160039
 21
-3.298682082394634
 31
0.0
  0
LINE
  5
145
330
2
100
AcDbEntity
  8
GAIKEI
  6
Continuous
 62
     1
100
AcDbLine
 10
37.40171139160037
 20
-3.305320532394716
 30
0.0
 11
37.99187119160035
 21
-3.274391582394628
 31
0.0
  0
LINE
  5
146
330
2
100
AcDbEntity
  8
GAIKEI
  6
Continuous
 62
     1
100
AcDbLine
 10
38.03924679160036
 20
-3.22533273239469
 30
0.0
 11
38.04133999160035
 21
-3.105413732394708
 31
0.0
  0
LINE
  5
147
330
2
100
AcDbEntity
  8
GAIKEI
  6
Continuous
 62
     1
100
AcDbLine
 10
36.52430399160039
 20
-3.351303532394695
 30
0.0
 11
37.40171139160037
 21
-3.305320532394716
 31
0.0
  0
ELLIPSE
  5
148
330
2
100
AcDbEntity
  8
GAIKEI
  6
Continuous
 62
     1
100
AcDbEllipse
 10
38.53392609160039
 20
0.4363460176052741
 30
0.0
 11
0.0500686172998712
 21
0.0000000000139555
 31
0.0
210
0.0
220
0.0
230
1.0
 40
0.9986299999997962
 41
-0.0000000002791107
 42
1.57079632651655
  0
ARC
  5
149
330
2
100
AcDbEntity
  8
GAIKEI
  6
Continuous
 62
     1
100
AcDbCircle
 10
38.33399469160031
 20
0.1408545176053622
 30
0.0
 40
0.25
100
AcDbArc
 50
299.3405819999889
 51
0.0
  0
LINE
  5
14A
330
2
100
AcDbEntity
  8
GAIKEI
  6
Continuous
 62
     1
100
AcDbLine
 10
38.58399469160031
 20
0.1408545176053622
 30
0.0
 11
38.58399469160031
 21
0.4363460176052741
 31
0.0
  0
LINE
  5
14B
330
2
100
AcDbEntity
  8
GAIKEI
  6
Continuous
 62
     1
100
AcDbLine
 10
38.53392609160039
 20
0.4863460176053423
 30
0.0
 11
38.53261589160036
 21
0.4863460176053423
 31
0.0
  0
LINE
  5
14C
330
2
100
AcDbEntity
  8
GAIKEI
  6
Continuous
 62
     1
100
AcDbLine
 10
38.53261589160036
 20
0.4863460176053423
 30
0.0
 11
38.45649469160037
 21
0.4863460176053423
 31
0.0
  0
ELLIPSE
  5
14D
330
2
100
AcDbEntity
  8
GAIKEI
  6
Continuous
 62
     1
100
AcDbEllipse
 10
38.49392609160032
 20
-1.663653982394635
 30
0.0
 11
-0.0500686172998712
 21
0.0000000000068056
 31
0.0
210
0.0
220
0.0
230
1.0
 40
0.9986300000009318
 41
3.141592653725905
 42
4.712388980520429
  0
ARC
  5
14E
330
2
100
AcDbEntity
  8
GAIKEI
  6
Continuous
 62
     1
100
AcDbCircle
 10
36.48497769160031
 20
-2.86365398239468
 30
0.0
 40
0.25
100
AcDbArc
 50
270.0
 51
296.5650509999881
  0
ARC
  5
14F
330
2
100
AcDbEntity
  8
GAIKEI
  6
Continuous
 62
     1
100
AcDbCircle
 10
38.29399469160035
 20
-1.95914548239466
 30
0.0
 40
0.25
100
AcDbArc
 50
296.5650509999881
 51
0.0
  0
LINE
  5
150
330
2
100
AcDbEntity
  8
GAIKEI
  6
Continuous
 62
     1
100
AcDbLine
 10
38.54399469160035
 20
-1.95914548239466
 30
0.0
 11
38.54399469160035
 21
-1.663653982394635
 31
0.0
  0
LINE
  5
151
330
2
100
AcDbEntity
  8
GAIKEI
  6
Continuous
 62
     1
100
AcDbLine
 10
36.59678109160035
 20
-3.08726078239465
 30
0.0
 11
38.40579809160033
 21
-2.182752282394631
 31
0.0
  0
LINE
  5
152
330
2
100
AcDbEntity
  8
GAIKEI
  6
Continuous
 62
     1
100
AcDbLine
 10
38.49392609160032
 20
-1.61365398239468
 30
0.0
 11
38.4926158916004
 21
-1.61365398239468
 31
0.0
  0
LINE
  5
153
330
2
100
AcDbEntity
  8
GAIKEI
  6
Continuous
 62
     1
100
AcDbLine
 10
38.4926158916004
 20
-1.61365398239468
 30
0.0
 11
38.45649469160037
 21
-1.61365398239468
 31
0.0
  0
LINE
  5
154
330
2
100
AcDbEntity
  8
GAIKEI
  6
Continuous
 62
     1
100
AcDbLine
 10
36.35399469160041
 20
-3.11365398239468
 30
0.0
 11
36.48497769160031
 21
-3.11365398239468
 31
0.0
  0
DIMENSION
  5
155
330
2
100
AcDbEntity
  8
SUNPO
100
AcDbDimension
  2
*D6
 10
38.50654469160037
 20
39.77067985905581
 30
0.0
 11
45.0898780249337
 21
41.5206798590558
 31
0.0
 70
    33
  1
89
 71
     5
 42
4.449999999999988
  3
STANDARD
100
AcDbAlignedDimension
 13
34.05654469160038
 23
31.77721236361492
 33
0.0
 14
38.50654469160037
 24
31.77721236361492
 34
0.0
1001
ACAD
1000
DSTYLE
1002
{
1070
    40
1040
1.0
1070
   140
1040
2.5
1070
   147
1040
0.5
1070
   172
1070
     1
1070
   279
1070
     0
1070
   288
1070
     0
1002
}
  0
DIMENSION
  5
166
330
2
100
AcDbEntity
  8
SUNPO
100
AcDbDimension
  2
*D5
 10
21.92832223913573
 20
31.77096630340713
 30
0.0
 11
20.17832223913572
 21
13.67481123557673
 31
0.0
 70
    33
  1
724
 71
     5
 42
36.19231013566082
  3
STANDARD
100
AcDbAlignedDimension
 13
13.92832223913572
 23
-4.421343832253683
 33
0.0
 14
13.92832223913569
 24
31.77096630340713
 34
0.0
1001
ACAD
1000
DSTYLE
1002
{
1070
   287
1070
     3
1070
   287
1070
     3
1070
   287
1070
     3
1070
   287
1070
     3
1070
   287
1070
     3
1070
   287
1070
     3
1070
   287
1070
     3
1070
   287
1070
     3
1070
   287
1070
     3
1070
   287
1070
     3
1070
   287
1070
     3
1070
   287
1070
     3
1070
   287
1070
     3
1070
   287
1070
     3
1070
   287
1070
     3
1070
   287
1070
     3
1070
   287
1070
     3
1070
   287
1070
     3
1070
   287
1070
     3
1070
   287
1070
     3
1070
   287
1070
     3
1070
   287
1070
     3
1070
   287
1070
     3
1070
   287
1070
     3
1070
   287
1070
     3
1070
   287
1070
     3
1070
   287
1070
     3
1070
   287
1070
     3
1070
   287
1070
     3
1070
   287
1070
     3
1070
   287
1070
     3
1070
   287
1070
     3
1070
   287
1070
     3
1070
   287
1070
     3
1070
    40
1040
1.0
1070
   140
1040
2.5
1070
   147
1040
0.5
1070
   172
1070
     1
1070
   279
1070
     0
1002
}
  0
DIMENSION
  5
173
330
2
100
AcDbEntity
  8
SUNPO
100
AcDbDimension
  2
*D4
 10
14.36808742886339
 20
39.77067985905581
 30
0.0
 11
-15.88191255903656
 21
41.5206798590558
 31
0.0
 70
    33
  1
1210
 71
     5
 42
60.49999997579991
  3
STANDARD
100
AcDbAlignedDimension
 13
-46.13191254693652
 23
31.7706798590558
 33
0.0
 14
14.36808742886339
 24
31.7706798590558
 34
0.0
1001
ACAD
1000
DSTYLE
1002
{
1070
   287
1070
     3
1070
   287
1070
     3
1070
   287
1070
     3
1070
   287
1070
     3
1070
   287
1070
     3
1070
   287
1070
     3
1070
   287
1070
     3
1070
   287
1070
     3
1070
   287
1070
     3
1070
   287
1070
     3
1070
   287
1070
     3
1070
   287
1070
     3
1070
   287
1070
     3
1070
   287
1070
     3
1070
   287
1070
     3
1070
   287
1070
     3
1070
   287
1070
     3
1070
   287
1070
     3
1070
   287
1070
     3
1070
   287
1070
     3
1070
   287
1070
     3
1070
   287
1070
     3
1070
   287
1070
     3
1070
   287
1070
     3
1070
   287
1070
     3
1070
   287
1070
     3
1070
   287
1070
     3
1070
   287
1070
     3
1070
   287
1070
     3
1070
   287
1070
     3
1070
   287
1070
     3
1070
   287
1070
     3
1070
   287
1070
     3
1070
   287
1070
     3
1070
    40
1040
1.0
1070
   140
1040
2.5
1070
   147
1040
0.5
1070
   172
1070
     1
1070
   279
1070
     0
1002
}
  0
SPLINE
  5
180
330
2
100
AcDbEntity
  8
GAIKEI
  6
Continuous
 62
     1
100
AcDbSpline
210
0.0
220
0.0
230
1.0
 70
     8
 71
     3
 72
    19
 73
    15
 74
    13
 42
0.0000000001
 43
0.0000000001
 44
0.000001
 12
-0.9971663916962876
 22
-0.0752275698890099
 32
0.0
 13
-0.0752446516939761
 23
-0.9971651028748709
 33
0.0
 40
0.0
 40
0.0
 40
0.0
 40
0.0
 40
0.0307154355882571
 40
0.047403057744553
 40
0.0651725077316206
 40
0.0907715901301813
 40
0.1187843457395388
 40
0.1493748434368309
 40
0.1799684720857725
 40
0.2079831862985767
 40
0.2335829246383
 40
0.2513519490619301
 40
0.2680383244319028
 40
0.2987487387216448
 40
0.2987487387216448
 40
0.2987487387216448
 40
0.2987487387216448
 10
-45.79877330816873
 20
31.64325598555524
 30
0.0
 10
-45.80898277486038
 20
31.64248576969612
 30
0.0
 10
-45.82469339940987
 20
31.63976409983315
 30
0.0
 10
-45.8452447229439
 20
31.63263342996561
 30
0.0
 10
-45.86348555588819
 20
31.62431701315075
 30
0.0
 10
-45.88401347263766
 20
31.61217846668649
 30
0.0
 10
-45.90653100743094
 20
31.59534094712479
 30
0.0
 10
-45.9284950064575
 20
31.57523711048509
 30
0.0
 10
-45.94859776236567
 20
31.55327125650984
 30
0.0
 10
-45.96543554780958
 20
31.53075156095236
 30
0.0
 10
-45.9775741158764
 20
31.510222827375
 30
0.0
 10
-45.98589039846765
 20
31.49198231819247
 30
0.0
 10
-45.99302063454961
 20
31.47143320882128
 30
0.0
 10
-45.99574211441682
 20
31.45572469897326
 30
0.0
 10
-45.99651237922569
 20
31.4455169144984
 30
0.0
 11
-45.79877330816873
 21
31.64325598555524
 31
0.0
 11
-45.82902230275988
 21
31.63792282489021
 31
0.0
 11
-45.84480952130985
 21
31.63251592704751
 31
0.0
 11
-45.86098952929506
 21
31.62517042102456
 31
0.0
 11
-45.88307244122069
 21
31.61222241258463
 31
0.0
 11
-45.90555745465406
 21
31.59551519655952
 31
0.0
 11
-45.92817430789591
 21
31.57491791422558
 31
0.0
 11
-45.94877228923173
 21
31.55229746288637
 31
0.0
 11
-45.96547977059572
 21
31.52981020650566
 31
0.0
 11
-45.97842772317108
 21
31.50772650138845
 31
0.0
 11
-45.98577305024173
 21
31.49154687945168
 31
0.0
 11
-45.99117970774045
 21
31.47576089632276
 31
0.0
 11
-45.99651237922569
 21
31.4455169144984
 31
0.0
  0
SPLINE
  5
181
330
2
100
AcDbEntity
  8
GAIKEI
  6
Continuous
 62
     1
100
AcDbSpline
210
0.0
220
0.0
230
1.0
 70
     8
 71
     3
 72
    19
 73
    15
 74
    13
 42
0.0000000001
 43
0.0000000001
 44
0.000001
 12
0.9971663916962711
 22
-0.075227569889229
 32
0.0
 13
0.075244651693976
 23
-0.9971651028748709
 33
0.0
 40
0.0
 40
0.0
 40
0.0
 40
0.0
 40
0.0307154355883691
 40
0.0474030577445506
 40
0.0651725077316798
 40
0.0907715901302344
 40
0.1187843457395462
 40
0.149374843436841
 40
0.1799684720857392
 40
0.2079831862986643
 40
0.2335829246383301
 40
0.2513519490619866
 40
0.2680383244319789
 40
0.2987487387217197
 40
0.2987487387217197
 40
0.2987487387217197
 40
0.2987487387217197
 10
14.03494819009552
 20
31.64325598555524
 30
0.0
 10
14.04515765678719
 20
31.64248576969612
 30
0.0
 10
14.06086828133668
 20
31.63976409983309
 30
0.0
 10
14.08141960487074
 20
31.63263342996561
 30
0.0
 10
14.09966043781501
 20
31.62431701315075
 30
0.0
 10
14.12018835456447
 20
31.61217846668654
 30
0.0
 10
14.14270588935774
 20
31.59534094712479
 30
0.0
 10
14.16466988838427
 20
31.57523711048503
 30
0.0
 10
14.18477264429258
 20
31.55327125651002
 30
0.0
 10
14.20161042973649
 20
31.53075156095236
 30
0.0
 10
14.21374899780316
 20
31.510222827375
 30
0.0
 10
14.2220652803945
 20
31.49198231819247
 30
0.0
 10
14.22919551647654
 20
31.47143320882128
 30
0.0
 10
14.23191699634372
 20
31.45572469897326
 30
0.0
 10
14.23268726115259
 20
31.4455169144984
 30
0.0
 11
14.03494819009552
 21
31.64325598555524
 31
0.0
 11
14.06519718468678
 21
31.63792282489021
 31
0.0
 11
14.08098440323664
 21
31.63251592704751
 31
0.0
 11
14.09716441122191
 21
31.62517042102456
 31
0.0
 11
14.11924732314753
 21
31.61222241258463
 31
0.0
 11
14.14173233658084
 21
31.59551519655952
 31
0.0
 11
14.1643491898227
 21
31.57491791422558
 31
0.0
 11
14.18494717115857
 21
31.55229746288649
 31
0.0
 11
14.20165465252262
 21
31.52981020650566
 31
0.0
 11
14.21460260509786
 21
31.50772650138845
 31
0.0
 11
14.22194793216857
 21
31.49154687945168
 31
0.0
 11
14.22735458966736
 21
31.47576089632276
 31
0.0
 11
14.23268726115259
 21
31.4455169144984
 31
0.0
  0
SPLINE
  5
182
330
2
100
AcDbEntity
  8
GAIKEI
  6
Continuous
 62
     1
100
AcDbSpline
210
0.0
220
0.0
230
1.0
 70
     8
 71
     3
 72
    19
 73
    15
 74
    13
 42
0.0000000001
 43
0.0000000001
 44
0.000001
 12
0.075227569746649
 22
-0.9971663917070275
 32
0.0
 13
0.9971651028676605
 23
-0.0752446517895329
 33
0.0
 40
0.0
 40
0.0
 40
0.0
 40
0.0
 40
0.0307154355815327
 40
0.0474030577359908
 40
0.0651725077224812
 40
0.090771590121971
 40
0.1187843457348567
 40
0.1493748434379274
 40
0.1799684720829606
 40
0.207983186293529
 40
0.2335829246325495
 40
0.2513519490566054
 40
0.2680383244278215
 40
0.298748738722034
 40
0.298748738722034
 40
0.298748738722034
 40
0.298748738722034
 10
-45.99651237922564
 20
-4.088204593485897
 30
0.0
 10
-45.99574216336813
 20
-4.0984140601754
 30
0.0
 10
-45.99302049350747
 20
-4.114124684722582
 30
0.0
 10
-45.98588982364154
 20
-4.134676008253848
 30
0.0
 10
-45.97757340682742
 20
-4.15291684119802
 30
0.0
 10
-45.96543486036265
 20
-4.17344475794863
 30
0.0
 10
-45.94859734079864
 20
-4.195962292744468
 30
0.0
 10
-45.92849350415758
 20
-4.217926291772357
 30
0.0
 10
-45.90652765018259
 20
-4.23802904768047
 30
0.0
 10
-45.88400795462689
 20
-4.25486683312306
 30
0.0
 10
-45.86347922105026
 20
-4.267005401189351
 30
0.0
 10
-45.8452387118676
 20
-4.275321683781044
 30
0.0
 10
-45.82468960249459
 20
-4.282451919864115
 30
0.0
 10
-45.808981092645
 20
-4.285173399732912
 30
0.0
 10
-45.79877330816873
 20
-4.285943664542855
 30
0.0
 11
-45.99651237922564
 21
-4.088204593485897
 31
0.0
 11
-45.99117921856509
 21
-4.11845358807102
 31
0.0
 11
-45.98577232072358
 21
-4.134240806619459
 31
0.0
 11
-45.97842681470132
 21
-4.150420814604331
 31
0.0
 11
-45.9654788062611
 21
-4.172503726530862
 31
0.0
 11
-45.94877159023383
 21
-4.194988739967016
 31
0.0
 11
-45.92817430789591
 21
-4.217605593213079
 31
0.0
 11
-45.90555385655955
 21
-4.238203574546218
 31
0.0
 11
-45.88306660018065
 21
-4.254911055908905
 31
0.0
 11
-45.86098289506407
 21
-4.267859008483924
 31
0.0
 11
-45.84480327312706
 21
-4.275204335555031
 31
0.0
 11
-45.82901728999712
 21
-4.280610993054665
 31
0.0
 11
-45.79877330816873
 21
-4.285943664542855
 31
0.0
  0
SPLINE
  5
183
330
2
100
AcDbEntity
  8
GAIKEI
  6
Continuous
 62
     1
100
AcDbSpline
210
0.0
220
0.0
230
1.0
 70
     8
 71
     3
 72
    19
 73
    15
 74
    13
 42
0.0000000001
 43
0.0000000001
 44
0.000001
 12
-0.0752275697466489
 22
-0.9971663917070275
 32
0.0
 13
-0.9971651028676605
 23
-0.0752446517895329
 33
0.0
 40
0.0
 40
0.0
 40
0.0
 40
0.0
 40
0.030715435581542
 40
0.0474030577359828
 40
0.0651725077224747
 40
0.0907715901219914
 40
0.1187843457348729
 40
0.1493748434380371
 40
0.1799684720829518
 40
0.2079831862935572
 40
0.2335829246325348
 40
0.2513519490565875
 40
0.2680383244277968
 40
0.2987487387220723
 40
0.2987487387220723
 40
0.2987487387220723
 40
0.2987487387220723
 10
14.23268726115248
 20
-4.088204593485897
 30
0.0
 10
14.23191704529498
 20
-4.0984140601754
 30
0.0
 10
14.22919537543421
 20
-4.114124684722469
 30
0.0
 10
14.2220647055684
 20
-4.134676008253848
 30
0.0
 10
14.21374828875426
 20
-4.15291684119802
 30
0.0
 10
14.2016097422894
 20
-4.173444757948686
 30
0.0
 10
14.18477222272542
 20
-4.195962292744525
 30
0.0
 10
14.16466838608446
 20
-4.217926291772414
 30
0.0
 10
14.14270253210938
 20
-4.238029047680413
 30
0.0
 10
14.12018283655368
 20
-4.254866833123173
 30
0.0
 10
14.0996541029771
 20
-4.26700540118918
 30
0.0
 10
14.08141359379444
 20
-4.275321683781044
 30
0.0
 10
14.06086448442141
 20
-4.282451919864115
 30
0.0
 10
14.04515597457181
 20
-4.285173399732912
 30
0.0
 10
14.03494819009552
 20
-4.285943664542855
 30
0.0
 11
14.23268726115248
 21
-4.088204593485897
 31
0.0
 11
14.22735410049188
 21
-4.11845358807102
 31
0.0
 11
14.22194720265042
 21
-4.134240806619459
 31
0.0
 11
14.21460169662816
 21
-4.150420814604331
 31
0.0
 11
14.20165368818789
 21
-4.172503726530862
 31
0.0
 11
14.18494647216062
 21
-4.194988739967016
 31
0.0
 11
14.1643491898227
 21
-4.217605593213193
 31
0.0
 11
14.14172873848639
 21
-4.238203574546218
 31
0.0
 11
14.11924148210744
 21
-4.254911055908905
 31
0.0
 11
14.09715777699091
 21
-4.267859008483924
 31
0.0
 11
14.08097815505391
 21
-4.275204335555031
 31
0.0
 11
14.06519217192396
 21
-4.280610993054665
 31
0.0
 11
14.03494819009552
 21
-4.285943664542855
 31
0.0
  0
LINE
  5
184
330
2
100
AcDbEntity
  8
GAIKEI
  6
Continuous
 62
     1
100
AcDbLine
 10
13.8081191290874
 20
31.41642695341114
 30
0.0
 11
-45.57194424716056
 21
31.41642695341114
 31
0.0
  0
LINE
  5
185
330
2
100
AcDbEntity
  8
GAIKEI
  6
Continuous
 62
     1
100
AcDbLine
 10
-44.32337744765999
 20
29.78292940406459
 30
0.0
 11
-44.32337744765999
 21
-2.425617083051974
 31
0.0
  0
LINE
  5
186
330
2
100
AcDbEntity
  8
GAIKEI
  6
Continuous
 62
     1
100
AcDbLine
 10
-44.09868579774985
 20
-2.650308732962116
 30
0.0
 11
12.33486067967675
 21
-2.650308732962116
 31
0.0
  0
LINE
  5
187
330
2
100
AcDbEntity
  8
GAIKEI
  6
Continuous
 62
     1
100
AcDbLine
 10
12.55955232958683
 20
29.78292940406459
 30
0.0
 11
12.55955232958683
 21
-2.425617083051974
 31
0.0
  0
LINE
  5
188
330
2
100
AcDbEntity
  8
GAIKEI
  6
Continuous
 62
     1
100
AcDbLine
 10
12.33486067967675
 20
30.00762105397473
 30
0.0
 11
-44.09868579774985
 21
30.00762105397473
 31
0.0
  0
LINE
  5
189
330
2
100
AcDbEntity
  8
GAIKEI
  6
Continuous
 62
     1
100
AcDbLine
 10
-43.19191254811255
 20
-3.896438982463678
 30
0.0
 11
-43.19191254811255
 21
-3.596248682583791
 31
0.0
  0
LINE
  5
18A
330
2
100
AcDbEntity
  8
GAIKEI
  6
Continuous
 62
     1
100
AcDbLine
 10
-43.51700769798253
 20
-3.571343832593697
 30
0.0
 11
-43.21681739810259
 21
-3.571343832593697
 31
0.0
  0
LINE
  5
18B
330
2
100
AcDbEntity
  8
GAIKEI
  6
Continuous
 62
     1
100
AcDbLine
 10
-43.54191254797257
 20
-3.896438982463678
 30
0.0
 11
-43.54191254797257
 21
-3.596248682583791
 31
0.0
  0
LINE
  5
18C
330
2
100
AcDbEntity
  8
GAIKEI
  6
Continuous
 62
     1
100
AcDbLine
 10
-43.51700769798253
 20
-3.921343832453771
 30
0.0
 11
-43.21681739810259
 21
-3.921343832453771
 31
0.0
  0
LINE
  5
18D
330
2
100
AcDbEntity
  8
GAIKEI
  6
Continuous
 62
     1
100
AcDbLine
 10
-45.02566254737906
 20
-3.802593832501202
 30
0.0
 11
-45.02566254737906
 21
-3.690093832546267
 31
0.0
  0
LINE
  5
18E
330
2
100
AcDbEntity
  8
GAIKEI
  6
Continuous
 62
     1
100
AcDbLine
 10
-45.1381625473341
 20
-3.690093832546267
 30
0.0
 11
-45.02566254737906
 21
-3.690093832546267
 31
0.0
  0
LINE
  5
18F
330
2
100
AcDbEntity
  8
GAIKEI
  6
Continuous
 62
     1
100
AcDbLine
 10
-45.1381625473341
 20
-3.802593832501202
 30
0.0
 11
-45.1381625473341
 21
-3.690093832546267
 31
0.0
  0
LINE
  5
190
330
2
100
AcDbEntity
  8
GAIKEI
  6
Continuous
 62
     1
100
AcDbLine
 10
-45.1381625473341
 20
-3.802593832501202
 30
0.0
 11
-45.02566254737906
 21
-3.802593832501202
 31
0.0
  0
LINE
  5
191
330
2
100
AcDbEntity
  8
GAIKEI
  6
Continuous
 62
     1
100
AcDbLine
 10
14.00585822900836
 20
31.21868785349022
 30
0.0
 11
14.00585822900836
 21
-3.861375532477723
 31
0.0
  0
LINE
  5
192
330
2
100
AcDbEntity
  8
GAIKEI
  6
Continuous
 62
     1
100
AcDbLine
 10
-45.76968334708147
 20
31.21868785349022
 30
0.0
 11
-45.76968334708147
 21
-3.861375532477723
 31
0.0
  0
LINE
  5
193
330
2
100
AcDbEntity
  8
GAIKEI
  6
Continuous
 62
     1
100
AcDbLine
 10
-45.57194424716056
 20
-4.059114632398632
 30
0.0
 11
13.8081191290874
 21
-4.059114632398632
 31
0.0
  0
LINE
  5
194
330
2
100
AcDbEntity
  8
GAIKEI
  6
Continuous
 62
     1
100
AcDbLine
 10
-45.99651239699073
 20
31.44551690339949
 30
0.0
 11
-45.76968334708147
 21
31.21868785349022
 31
0.0
  0
LINE
  5
195
330
2
100
AcDbEntity
  8
GAIKEI
  6
Continuous
 62
     1
100
AcDbLine
 10
-45.57194424716056
 20
31.41642695341114
 30
0.0
 11
-45.79877329706983
 21
31.6432560033204
 31
0.0
  0
LINE
  5
196
330
2
100
AcDbEntity
  8
GAIKEI
  6
Continuous
 62
     1
100
AcDbLine
 10
13.8081191290874
 20
31.41642695341114
 30
0.0
 11
14.03494817899673
 21
31.6432560033204
 31
0.0
  0
LINE
  5
197
330
2
100
AcDbEntity
  8
GAIKEI
  6
Continuous
 62
     1
100
AcDbLine
 10
14.23268727891764
 20
31.44551690339949
 30
0.0
 11
14.00585822900836
 21
31.21868785349022
 31
0.0
  0
LINE
  5
198
330
2
100
AcDbEntity
  8
GAIKEI
  6
Continuous
 62
     1
100
AcDbLine
 10
-45.79877329706983
 20
-4.285943682307902
 30
0.0
 11
-45.57194424716056
 21
-4.059114632398632
 31
0.0
  0
LINE
  5
199
330
2
100
AcDbEntity
  8
GAIKEI
  6
Continuous
 62
     1
100
AcDbLine
 10
-45.76968334708147
 20
-3.861375532477723
 30
0.0
 11
-45.99651239699073
 21
-4.088204582386993
 31
0.0
  0
LINE
  5
19A
330
2
100
AcDbEntity
  8
GAIKEI
  6
Continuous
 62
     1
100
AcDbLine
 10
14.00585822900836
 20
-3.861375532477723
 30
0.0
 11
14.23268727891764
 21
-4.088204582386993
 31
0.0
  0
LINE
  5
19B
330
2
100
AcDbEntity
  8
GAIKEI
  6
Continuous
 62
     1
100
AcDbLine
 10
14.03494817899673
 20
-4.285943682307902
 30
0.0
 11
13.8081191290874
 21
-4.059114632398632
 31
0.0
  0
LINE
  5
19C
330
2
100
AcDbEntity
  8
GAIKEI
  6
Continuous
 62
     1
100
AcDbLine
 10
-45.79877329706983
 20
31.6432560033204
 30
0.0
 11
14.03494817899673
 21
31.6432560033204
 31
0.0
  0
LINE
  5
19D
330
2
100
AcDbEntity
  8
GAIKEI
  6
Continuous
 62
     1
100
AcDbLine
 10
-45.99651239699073
 20
-4.088204582386993
 30
0.0
 11
-45.99651239699073
 21
31.44551690339949
 31
0.0
  0
LINE
  5
19E
330
2
100
AcDbEntity
  8
GAIKEI
  6
Continuous
 62
     1
100
AcDbLine
 10
14.23268727891764
 20
-4.088204582386993
 30
0.0
 11
14.23268727891764
 21
31.44551690339949
 31
0.0
  0
LINE
  5
19F
330
2
100
AcDbEntity
  8
GAIKEI
  6
Continuous
 62
     1
100
AcDbLine
 10
14.03494817899673
 20
-4.285943682307902
 30
0.0
 11
-45.79877329706983
 21
-4.285943682307902
 31
0.0
  0
LINE
  5
1A0
330
2
100
AcDbEntity
  8
GAIKEI
  6
Continuous
 62
     1
100
AcDbLine
 10
-44.09196534775253
 20
29.84908495403806
 30
0.0
 11
12.32814022967943
 21
29.84908495403806
 31
0.0
  0
LINE
  5
1A1
330
2
100
AcDbEntity
  8
GAIKEI
  6
Continuous
 62
     1
100
AcDbLine
 10
-44.16484134772338
 20
-2.418896633054714
 30
0.0
 11
-44.16484134772338
 21
29.77620895406722
 31
0.0
  0
LINE
  5
1A2
330
2
100
AcDbEntity
  8
GAIKEI
  6
Continuous
 62
     1
100
AcDbLine
 10
12.40101622965028
 20
-2.418896633054714
 30
0.0
 11
12.40101622965028
 21
29.77620895406722
 31
0.0
  0
LINE
  5
1A3
330
2
100
AcDbEntity
  8
GAIKEI
  6
Continuous
 62
     1
100
AcDbLine
 10
12.32814022967943
 20
-2.491772633025561
 30
0.0
 11
-44.09196534775253
 21
-2.491772633025561
 31
0.0
  0
LINE
  5
1A4
330
2
100
AcDbEntity
  8
GAIKEI
  6
Continuous
 62
     1
100
AcDbLine
 10
-44.14400639773169
 20
29.82825000404648
 30
0.0
 11
-43.57278779796018
 21
29.25703140427493
 31
0.0
  0
LINE
  5
1A5
330
2
100
AcDbEntity
  8
GAIKEI
  6
Continuous
 62
     1
100
AcDbLine
 10
12.38018127965858
 20
29.82825000404648
 30
0.0
 11
11.80896267988709
 21
29.25703140427493
 31
0.0
  0
LINE
  5
1A6
330
2
100
AcDbEntity
  8
GAIKEI
  6
Continuous
 62
     1
100
AcDbLine
 10
11.70601192992831
 20
29.29892020425814
 30
0.0
 11
-43.4698370480014
 21
29.29892020425814
 31
0.0
  0
LINE
  5
1A7
330
2
100
AcDbEntity
  8
GAIKEI
  6
Continuous
 62
     1
100
AcDbLine
 10
-43.57278779796018
 20
-1.899719083262425
 30
0.0
 11
-44.14400639773169
 21
-2.470937683033866
 31
0.0
  0
LINE
  5
1A8
330
2
100
AcDbEntity
  8
GAIKEI
  6
Continuous
 62
     1
100
AcDbLine
 10
-43.61467659794345
 20
29.15408065431609
 30
0.0
 11
-43.61467659794345
 21
-1.796768333303589
 31
0.0
  0
LINE
  5
1A9
330
2
100
AcDbEntity
  8
GAIKEI
  6
Continuous
 62
     1
100
AcDbLine
 10
11.80896267988709
 20
-1.899719083262425
 30
0.0
 11
12.38018127965858
 21
-2.470937683033866
 31
0.0
  0
LINE
  5
1AA
330
2
100
AcDbEntity
  8
GAIKEI
  6
Continuous
 62
     1
100
AcDbLine
 10
11.85085147987035
 20
29.15408065431609
 30
0.0
 11
11.85085147987035
 21
-1.796768333303589
 31
0.0
  0
LINE
  5
1AB
330
2
100
AcDbEntity
  8
GAIKEI
  6
Continuous
 62
     1
100
AcDbLine
 10
-43.4698370480014
 20
-1.941607883245637
 30
0.0
 11
11.70601192992831
 21
-1.941607883245637
 31
0.0
  0
LINE
  5
1AC
330
2
100
AcDbEntity
  8
GAIKEI
  6
Continuous
 62
     1
100
AcDbLine
 10
-43.45515794800724
 20
29.23865615428224
 30
0.0
 11
11.69133282993414
 21
29.23865615428224
 31
0.0
  0
LINE
  5
1AD
330
2
100
AcDbEntity
  8
GAIKEI
  6
Continuous
 62
     1
100
AcDbLine
 10
11.79058742989446
 20
29.13940155432204
 30
0.0
 11
11.79058742989446
 21
-1.78208923330942
 31
0.0
  0
LINE
  5
1AE
330
2
100
AcDbEntity
  8
GAIKEI
  6
Continuous
 62
     1
100
AcDbLine
 10
-43.55441254796756
 20
29.13940155432204
 30
0.0
 11
-43.55441254796756
 21
-1.78208923330942
 31
0.0
  0
LINE
  5
1AF
330
2
100
AcDbEntity
  8
GAIKEI
  6
Continuous
 62
     1
100
AcDbLine
 10
-43.45515794800724
 20
-1.881343833269738
 30
0.0
 11
11.69133282993414
 21
-1.881343833269738
 31
0.0
  0
LINE
  5
1B0
330
2
100
AcDbEntity
  8
GAIKEI
  6
Continuous
 62
     1
100
AcDbLine
 10
-45.7967864970706
 20
31.6432560033204
 30
0.0
 11
-45.93218664701646
 21
31.7786561532663
 31
0.0
  0
LINE
  5
1B1
330
2
100
AcDbEntity
  8
GAIKEI
  6
Continuous
 62
     1
100
AcDbLine
 10
-46.13191254693657
 20
31.57893025334613
 30
0.0
 11
-45.99651239699073
 21
31.44353010340046
 31
0.0
  0
LINE
  5
1B2
330
2
100
AcDbEntity
  8
GAIKEI
  6
Continuous
 62
     1
100
AcDbLine
 10
14.36808742886342
 20
31.57893025334613
 30
0.0
 11
14.23268727891761
 21
31.44353010340035
 31
0.0
  0
LINE
  5
1B3
330
2
100
AcDbEntity
  8
GAIKEI
  6
Continuous
 62
     1
100
AcDbLine
 10
14.03296137899747
 20
31.6432560033204
 30
0.0
 11
14.16836152894336
 21
31.7786561532663
 31
0.0
  0
LINE
  5
1B4
330
2
100
AcDbEntity
  8
GAIKEI
  6
Continuous
 62
     1
100
AcDbLine
 10
-45.99651239699073
 20
-4.086217782387848
 30
0.0
 11
-46.13191254693657
 21
-4.221617932333629
 31
0.0
  0
LINE
  5
1B5
330
2
100
AcDbEntity
  8
GAIKEI
  6
Continuous
 62
     1
100
AcDbLine
 10
-45.93218664701646
 20
-4.421343832253683
 30
0.0
 11
-45.79678649707062
 21
-4.285943682307902
 31
0.0
  0
LINE
  5
1B6
330
2
100
AcDbEntity
  8
GAIKEI
  6
Continuous
 62
     1
100
AcDbLine
 10
14.16836152894336
 20
-4.421343832253683
 30
0.0
 11
14.03296137899747
 21
-4.285943682307902
 31
0.0
  0
LINE
  5
1B7
330
2
100
AcDbEntity
  8
GAIKEI
  6
Continuous
 62
     1
100
AcDbLine
 10
14.23268727891761
 20
-4.086217782387734
 30
0.0
 11
14.36808742886342
 21
-4.221617932333629
 31
0.0
  0
LINE
  5
1B8
330
2
100
AcDbEntity
  8
GAIKEI
  6
Continuous
100
AcDbLine
 10
-45.93218664701646
 20
31.7786561532663
 30
0.0
 11
14.16836152894336
 21
31.7786561532663
 31
0.0
  0
LINE
  5
1B9
330
2
100
AcDbEntity
  8
GAIKEI
  6
Continuous
100
AcDbLine
 10
14.36808742886342
 20
31.57893025334613
 30
0.0
 11
14.36808742886342
 21
-4.221617932333629
 31
0.0
  0
LINE
  5
1BA
330
2
100
AcDbEntity
  8
GAIKEI
  6
Continuous
100
AcDbLine
 10
-46.13191254693657
 20
31.57893025334613
 30
0.0
 11
-46.13191254693657
 21
-4.221617932333629
 31
0.0
  0
LINE
  5
1BB
330
2
100
AcDbEntity
  8
GAIKEI
  6
Continuous
100
AcDbLine
 10
-45.93218664701646
 20
-4.421343832253683
 30
0.0
 11
14.16836152894336
 21
-4.421343832253683
 31
0.0
  0
ELLIPSE
  5
1BC
330
2
100
AcDbEntity
  8
GAIKEI
  6
Continuous
 62
     1
100
AcDbEllipse
 10
-44.09806864775009
 20
29.78231225406466
 30
0.0
 11
-0.159535404709199
 21
0.1595354047089534
 31
0.0
210
0.0
220
0.0
230
1.0
 40
0.9972649999999998
 41
5.499156671651721
 42
7.067213942705842
  0
ELLIPSE
  5
1BD
330
2
100
AcDbEntity
  8
GAIKEI
  6
Continuous
 62
     1
100
AcDbEllipse
 10
-44.09806864775009
 20
-2.42499993305239
 30
0.0
 11
-0.1595354047091879
 21
-0.1595354047089651
 31
0.0
210
0.0
220
0.0
230
1.0
 40
0.9972649999999999
 41
5.499156671653361
 42
7.067213942707414
  0
ELLIPSE
  5
1BE
330
2
100
AcDbEntity
  8
GAIKEI
  6
Continuous
 62
     1
100
AcDbEllipse
 10
12.33424352967694
 20
-2.424999933052276
 30
0.0
 11
-0.159535404709188
 21
0.1595354047089651
 31
0.0
210
0.0
220
0.0
230
1.0
 40
0.9972649999999998
 41
2.357564018062
 42
3.925621289115982
  0
ELLIPSE
  5
1BF
330
2
100
AcDbEntity
  8
GAIKEI
  6
Continuous
 62
     1
100
AcDbEllipse
 10
12.33424352967694
 20
29.78231225406466
 30
0.0
 11
-0.1595354047091992
 21
-0.1595354047089533
 31
0.0
210
0.0
220
0.0
230
1.0
 40
0.9972649999999998
 41
2.357564018063572
 42
3.925621289117657
  0
ELLIPSE
  5
1C0
330
2
100
AcDbEntity
  8
GAIKEI
  6
Continuous
 62
     1
100
AcDbEllipse
 10
-43.21700804810251
 20
-3.896248332463869
 30
0.0
 11
-0.0178124651901289
 21
0.0178124651901336
 31
0.0
210
0.0
220
0.0
230
1.0
 40
0.9924329999999997
 41
2.359992588465599
 42
3.923192718713108
  0
ELLIPSE
  5
1C1
330
2
100
AcDbEntity
  8
GAIKEI
  6
Continuous
 62
     1
100
AcDbEllipse
 10
-43.21700804810251
 20
-3.596439332583713
 30
0.0
 11
-0.0178124651901247
 21
-0.017812465190138
 31
0.0
210
0.0
220
0.0
230
1.0
 40
0.9924329999999999
 41
2.359992588465041
 42
3.923192718713587
  0
ELLIPSE
  5
1C2
330
2
100
AcDbEntity
  8
GAIKEI
  6
Continuous
 62
     1
100
AcDbEllipse
 10
-43.51681704798261
 20
-3.596439332583827
 30
0.0
 11
-0.0178124651901339
 21
0.0178124651901291
 31
0.0
210
0.0
220
0.0
230
1.0
 40
0.9924329999999999
 41
5.501585242053079
 42
7.064785372305734
  0
ELLIPSE
  5
1C3
330
2
100
AcDbEntity
  8
GAIKEI
  6
Continuous
 62
     1
100
AcDbEllipse
 10
-43.51681704798261
 20
-3.896248332463869
 30
0.0
 11
-0.0178124651901381
 21
-0.0178124651901247
 31
0.0
210
0.0
220
0.0
230
1.0
 40
0.9924329999999999
 41
5.501585242054793
 42
7.064785372306292
  0
ELLIPSE
  5
1C4
330
2
100
AcDbEntity
  8
GAIKEI
  6
Continuous
 62
     1
100
AcDbEllipse
 10
13.446606979232
 20
30.85717570363488
 30
0.0
 11
-0.5021965241687404
 21
-0.5021965241687347
 31
0.0
210
0.0
220
0.0
230
1.0
 40
0.49281
 41
2.730628648546677
 42
3.552556658632908
  0
ELLIPSE
  5
1C5
330
2
100
AcDbEntity
  8
GAIKEI
  6
Continuous
 62
     1
100
AcDbEllipse
 10
-45.21043209730516
 20
30.85717570363488
 30
0.0
 11
-0.5021965241687404
 21
0.5021965241687347
 31
0.0
210
0.0
220
0.0
230
1.0
 40
0.49281
 41
5.87222130213647
 42
6.694149312222702
  0
ELLIPSE
  5
1C6
330
2
100
AcDbEntity
  8
GAIKEI
  6
Continuous
 62
     1
100
AcDbEllipse
 10
13.446606979232
 20
-3.499863382622379
 30
0.0
 11
-0.5021965241687355
 21
0.502196524168813
 31
0.0
210
0.0
220
0.0
230
1.0
 40
0.49281
 41
2.730628648546692
 42
3.552556658632933
  0
ELLIPSE
  5
1C7
330
2
100
AcDbEntity
  8
GAIKEI
  6
Continuous
 62
     1
100
AcDbEllipse
 10
-45.21043209730509
 20
-3.499863382622379
 30
0.0
 11
-0.5021965241687356
 21
-0.502196524168813
 31
0.0
210
0.0
220
0.0
230
1.0
 40
0.49281
 41
5.872221302136444
 42
6.694149312222707
  0
ELLIPSE
  5
1C8
330
2
100
AcDbEntity
  8
GAIKEI
  6
Continuous
 62
     1
100
AcDbEllipse
 10
12.32825242967931
 20
29.77429995406794
 30
0.0
 11
-0.0740370952919559
 21
0.0126634681883976
 31
0.0
210
0.0
220
0.0
230
1.0
 40
0.9955149999999999
 41
4.117568889116213
 42
4.882540434961859
  0
ELLIPSE
  5
1C9
330
2
100
AcDbEntity
  8
GAIKEI
  6
Continuous
 62
     1
100
AcDbEllipse
 10
-44.09207754775247
 20
29.77429995406794
 30
0.0
 11
-0.0740370952919559
 21
-0.0126634681883976
 31
0.0
210
0.0
220
0.0
230
1.0
 40
0.9955150000000001
 41
4.54223752580752
 42
5.307209071653165
  0
ELLIPSE
  5
1CA
330
2
100
AcDbEntity
  8
GAIKEI
  6
Continuous
 62
     1
100
AcDbEllipse
 10
-44.09005634775326
 20
-2.419008833054704
 30
0.0
 11
-0.0126634681884195
 21
0.0740370952919524
 31
0.0
210
0.0
220
0.0
230
1.0
 40
0.9955149999999999
 41
1.400644872217396
 42
2.165616418062327
  0
ELLIPSE
  5
1CB
330
2
100
AcDbEntity
  8
GAIKEI
  6
Continuous
 62
     1
100
AcDbEllipse
 10
12.32623122968016
 20
-2.419008833054704
 30
0.0
 11
-0.0126634681884195
 21
-0.0740370952919523
 31
0.0
210
0.0
220
0.0
230
1.0
 40
0.9955149999999999
 41
0.975976235527481
 42
1.740947781372396
  0
ELLIPSE
  5
1CC
330
2
100
AcDbEntity
  8
GAIKEI
  6
Continuous
 62
     1
100
AcDbEllipse
 10
-44.09005634775326
 20
29.77632115406709
 30
0.0
 11
-0.012663468188404
 21
-0.0740370952919547
 31
0.0
210
0.0
220
0.0
230
1.0
 40
0.9955149999999997
 41
4.117568889119865
 42
4.882540434962009
  0
ELLIPSE
  5
1CD
330
2
100
AcDbEntity
  8
GAIKEI
  6
Continuous
 62
     1
100
AcDbEllipse
 10
12.32623122968016
 20
29.7763211540672
 30
0.0
 11
-0.0126634681884039
 21
0.0740370952919547
 31
0.0
210
0.0
220
0.0
230
1.0
 40
0.9955149999999999
 41
4.542237525807408
 42
5.30720907164956
  0
ELLIPSE
  5
1CE
330
2
100
AcDbEntity
  8
GAIKEI
  6
Continuous
 62
     1
100
AcDbEllipse
 10
12.32825242967936
 20
-2.416987633055555
 30
0.0
 11
-0.074037095291956
 21
-0.0126634681883971
 31
0.0
210
0.0
220
0.0
230
1.0
 40
0.9955149999999999
 41
1.400644872217725
 42
2.165616418060674
  0
ELLIPSE
  5
1CF
330
2
100
AcDbEntity
  8
GAIKEI
  6
Continuous
 62
     1
100
AcDbEllipse
 10
-44.09207754775247
 20
-2.416987633055555
 30
0.0
 11
-0.0740370952919559
 21
0.0126634681883972
 31
0.0
210
0.0
220
0.0
230
1.0
 40
0.9955149999999999
 41
0.9759762355291181
 42
1.740947781372067
  0
ELLIPSE
  5
1D0
330
2
100
AcDbEntity
  8
GAIKEI
  6
Continuous
 62
     1
100
AcDbEllipse
 10
-43.46607224800294
 20
29.14627345431916
 30
0.0
 11
-0.0866320186582728
 21
0.1272290693382462
 31
0.0
210
0.0
220
0.0
230
1.0
 40
0.9735809999999998
 41
5.69777769105948
 42
6.456692423303279
  0
ELLIPSE
  5
1D1
330
2
100
AcDbEntity
  8
GAIKEI
  6
Continuous
 62
     1
100
AcDbEllipse
 10
11.70224712992973
 20
29.14627345431916
 30
0.0
 11
-0.0866320186582728
 21
-0.1272290693382461
 31
0.0
210
0.0
220
0.0
230
1.0
 40
0.9735809999999998
 41
2.9680855374661
 42
3.7270002697099
  0
ELLIPSE
  5
1D2
330
2
100
AcDbEntity
  8
GAIKEI
  6
Continuous
 62
     1
100
AcDbEllipse
 10
-43.46202984800453
 20
-1.793003533305181
 30
0.0
 11
-0.1272290693381955
 21
-0.0866320186583462
 31
0.0
210
0.0
220
0.0
230
1.0
 40
0.9735809999999997
 41
5.697777691058886
 42
6.456692423302397
  0
ELLIPSE
  5
1D3
330
2
100
AcDbEntity
  8
GAIKEI
  6
Continuous
 62
     1
100
AcDbEllipse
 10
-43.46202984800453
 20
29.15031585431757
 30
0.0
 11
-0.1272290693382015
 21
0.0866320186583368
 31
0.0
210
0.0
220
0.0
230
1.0
 40
0.9735809999999998
 41
6.109678191058712
 42
6.868592923300215
  0
ELLIPSE
  5
1D4
330
2
100
AcDbEntity
  8
GAIKEI
  6
Continuous
 62
     1
100
AcDbEllipse
 10
11.69820472993137
 20
29.15031585431757
 30
0.0
 11
-0.1272290693382016
 21
-0.0866320186583367
 31
0.0
210
0.0
220
0.0
230
0.9999999999999998
 40
0.9735809999999998
 41
2.556185037469163
 42
3.315099769710879
  0
ELLIPSE
  5
1D5
330
2
100
AcDbEntity
  8
GAIKEI
  6
Continuous
 62
     1
100
AcDbEllipse
 10
11.69820472993137
 20
-1.793003533305181
 30
0.0
 11
-0.1272290693381955
 21
0.0866320186583462
 31
0.0
210
0.0
220
0.0
230
1.0
 40
0.973581
 41
2.968085537466982
 42
3.727000269710492
  0
ELLIPSE
  5
1D6
330
2
100
AcDbEntity
  8
GAIKEI
  6
Continuous
 62
     1
100
AcDbEllipse
 10
11.70224712992973
 20
-1.78896113330677
 30
0.0
 11
-0.0866320186582643
 21
0.1272290693382531
 31
0.0
210
0.0
220
0.0
230
1.0
 40
0.9735809999999998
 41
2.556185037470086
 42
3.315099769710523
  0
ELLIPSE
  5
1D7
330
2
100
AcDbEntity
  8
GAIKEI
  6
Continuous
 62
     1
100
AcDbEllipse
 10
-43.46607224800289
 20
-1.78896113330677
 30
0.0
 11
-0.0866320186582643
 21
-0.127229069338253
 31
0.0
210
0.0
220
0.0
230
1.0
 40
0.973581
 41
6.10967819105908
 42
6.868592923299293
  0
ELLIPSE
  5
1D8
330
2
100
AcDbEntity
  8
GAIKEI
  6
Continuous
 62
     1
100
AcDbEllipse
 10
-43.45366154800785
 20
29.13790515432254
 30
0.0
 11
-0.0717687987905402
 21
0.0717687987905878
 31
0.0
210
0.0
220
0.0
230
1.0
 40
0.9852570000000001
 41
5.505213485255321
 42
7.061157129105444
  0
ELLIPSE
  5
1D9
330
2
100
AcDbEntity
  8
GAIKEI
  6
Continuous
 62
     1
100
AcDbEllipse
 10
11.6898364299347
 20
29.13790515432254
 30
0.0
 11
-0.0717687987905403
 21
-0.0717687987905877
 31
0.0
210
0.0
220
0.0
230
1.0
 40
0.9852569999999998
 41
2.363620831663935
 42
3.919564475514135
  0
ELLIPSE
  5
1DA
330
2
100
AcDbEntity
  8
GAIKEI
  6
Continuous
 62
     1
100
AcDbEllipse
 10
11.6898364299347
 20
-1.780592833310038
 30
0.0
 11
-0.0717687987905345
 21
0.071768798790594
 31
0.0
210
0.0
220
0.0
230
1.0
 40
0.985257
 41
2.363620831665123
 42
3.919564475515255
  0
ELLIPSE
  5
1DB
330
2
100
AcDbEntity
  8
GAIKEI
  6
Continuous
 62
     1
100
AcDbEllipse
 10
-43.45366154800785
 20
-1.780592833310038
 30
0.0
 11
-0.0717687987905345
 21
-0.071768798790594
 31
0.0
210
0.0
220
0.0
230
1.0
 40
0.985257
 41
5.505213485254125
 42
7.061157129104256
  0
ELLIPSE
  5
1DC
330
2
100
AcDbEntity
  8
GAIKEI
  6
Continuous
100
AcDbEllipse
 10
-45.93163809701667
 20
31.57838170334628
 30
0.0
 11
-0.1418092486302778
 21
0.1418092486303013
 31
0.0
210
0.0
220
0.0
230
1.0
 40
0.9972649999999999
 41
5.499156671652713
 42
7.067213942706739
  0
ELLIPSE
  5
1DD
330
2
100
AcDbEntity
  8
GAIKEI
  6
Continuous
100
AcDbEllipse
 10
14.16781297894351
 20
31.57838170334628
 30
0.0
 11
-0.1418092486302781
 21
-0.1418092486303011
 31
0.0
210
0.0
220
0.0
230
1.0
 40
0.9972649999999998
 41
2.357564018062679
 42
3.925621289116665
  0
ELLIPSE
  5
1DE
330
2
100
AcDbEntity
  8
GAIKEI
  6
Continuous
100
AcDbEllipse
 10
-45.93163809701667
 20
-4.221069382333894
 30
0.0
 11
-0.1418092486302894
 21
-0.1418092486302897
 31
0.0
210
0.0
220
0.0
230
1.0
 40
0.9972649999999999
 41
5.499156671652512
 42
7.067213942706579
  0
ELLIPSE
  5
1DF
330
2
100
AcDbEntity
  8
GAIKEI
  6
Continuous
100
AcDbEllipse
 10
14.16781297894351
 20
-4.221069382333894
 30
0.0
 11
-0.1418092486302895
 21
0.1418092486302897
 31
0.0
210
0.0
220
0.0
230
1.0
 40
0.9972649999999998
 41
2.35756401806288
 42
3.925621289116826
  0
ENDSEC
  0
SECTION
  2
OBJECTS
  0
DICTIONARY
  5
7
330
0
100
AcDbDictionary
281
     1
  3
ACAD_COLOR
350
2C
  3
ACAD_GROUP
350
28
  3
ACAD_LAYOUT
350
B
  3
ACAD_MATERIAL
350
2B
  3
ACAD_MLINESTYLE
350
29
  3
ACAD_PLOTSETTINGS
350
2A
  3
ACAD_PLOTSTYLENAME
350
6
  3
ACDBHEADERROUNDTRIPXREC
350
21E
  3
AcDbVariableDictionary
350
219
  0
DICTIONARY
  5
11
330
10
100
AcDbDictionary
280
     1
281
     1
  3
ACAD_LAYERSTATES
360
12
  0
DICTIONARY
  5
2C
102
{ACAD_REACTORS
330
7
102
}
330
7
100
AcDbDictionary
281
     1
  0
DICTIONARY
  5
28
102
{ACAD_REACTORS
330
7
102
}
330
7
100
AcDbDictionary
281
     1
  0
DICTIONARY
  5
B
102
{ACAD_REACTORS
330
7
102
}
330
7
100
AcDbDictionary
281
     1
  3
Model
350
A
  3
レイアウト1
350
F
  0
DICTIONARY
  5
2B
102
{ACAD_REACTORS
330
7
102
}
330
7
100
AcDbDictionary
281
     1
  0
DICTIONARY
  5
29
102
{ACAD_REACTORS
330
7
102
}
330
7
100
AcDbDictionary
281
     1
  3
Standard
350
2E
  0
DICTIONARY
  5
2A
102
{ACAD_REACTORS
330
7
102
}
330
7
100
AcDbDictionary
281
     1
  0
ACDBDICTIONARYWDFLT
  5
6
102
{ACAD_REACTORS
330
7
102
}
330
7
100
AcDbDictionary
281
     1
  3
Normal
350
5
100
AcDbDictionaryWithDefault
340
5
  0
DICTIONARY
  5
21E
102
{ACAD_REACTORS
330
7
102
}
330
7
100
AcDbDictionary
281
     1
  3
COLORDICT
350
220
  3
MATERIALDICT
350
21F
  0
DICTIONARY
  5
219
102
{ACAD_REACTORS
330
7
102
}
330
7
100
AcDbDictionary
281
     1
  3
DIMASSOC
350
21B
  3
HIDETEXT
350
21A
  3
PROJECTNAME
350
21C
  0
DICTIONARY
  5
12
102
{ACAD_REACTORS
330
11
102
}
330
11
100
AcDbDictionary
281
     1
  0
LAYOUT
  5
A
102
{ACAD_XDICTIONARY
360
221
102
}
102
{ACAD_REACTORS
330
B
102
}
330
B
100
AcDbPlotSettings
  1

  2
10F06M_RICOH_SP-8100
  4
A4
  6

 40
5.873749732971191
 41
5.873747825622558
 42
5.873748779296875
 43
5.873748779296875
 44
209.9733276367187
 45
296.9259948730469
 46
5.429999999999999
 47
0.0
 48
0.0
 49
0.0
140
0.0
141
0.0
142
1.0
143
1.382430978808389
 70
 11956
 72
     1
 73
     0
 74
     1
  7
tmsacad.ctb
 75
     0
147
0.7233634194612505
148
0.0126780140091114
149
0.0120236189740126
100
AcDbLayout
  1
Model
 70
     1
 71
     0
 10
0.0
 20
0.0
 11
12.0
 21
9.0
 12
0.0
 22
0.0
 32
0.0
 14
0.0
 24
0.0
 34
0.0
 15
0.0
 25
0.0
 35
0.0
146
0.0
 13
0.0
 23
0.0
 33
0.0
 16
1.0
 26
0.0
 36
0.0
 17
0.0
 27
1.0
 37
0.0
 76
     0
330
2
  0
LAYOUT
  5
F
102
{ACAD_XDICTIONARY
360
223
102
}
102
{ACAD_REACTORS
330
B
102
}
330
B
100
AcDbPlotSettings
  1

  2
None
  4

  6

 40
0.0
 41
0.0
 42
0.0
 43
0.0
 44
0.0
 45
0.0
 46
0.0
 47
0.0
 48
0.0
 49
0.0
140
0.0
141
0.0
142
1.0
143
1.0
 70
   688
 72
     0
 73
     0
 74
     5
  7
tmsacad.ctb
 75
    16
147
1.0
148
0.0
149
0.0
100
AcDbLayout
  1
レイアウト1
 70
     1
 71
     1
 10
0.0
 20
0.0
 11
12.0
 21
9.0
 12
0.0
 22
0.0
 32
0.0
 14
0.0
 24
0.0
 34
0.0
 15
0.0
 25
0.0
 35
0.0
146
0.0
 13
0.0
 23
0.0
 33
0.0
 16
1.0
 26
0.0
 36
0.0
 17
0.0
 27
1.0
 37
0.0
 76
     0
330
C
  0
MLINESTYLE
  5
2E
102
{ACAD_REACTORS
330
29
102
}
330
29
100
AcDbMlineStyle
  2
STANDARD
 70
     0
  3

 62
   256
 51
90.0
 52
90.0
 71
     2
 49
0.5
 62
   256
  6
BYLAYER
 49
-0.5
 62
   256
  6
BYLAYER
  0
ACDBPLACEHOLDER
  5
5
102
{ACAD_REACTORS
330
6
102
}
330
6
  0
XRECORD
  5
220
102
{ACAD_REACTORS
330
21E
102
}
330
21E
100
AcDbXrecord
280
     1
340
2C
  0
XRECORD
  5
21F
102
{ACAD_REACTORS
330
21E
102
}
330
21E
100
AcDbXrecord
280
     1
340
2B
  0
DICTIONARYVAR
  5
21B
102
{ACAD_REACTORS
330
219
102
}
330
219
100
DictionaryVariables
280
     0
  1
1
  0
DICTIONARYVAR
  5
21A
102
{ACAD_REACTORS
330
219
102
}
330
219
100
DictionaryVariables
280
     0
  1
1
  0
DICTIONARYVAR
  5
21C
102
{ACAD_REACTORS
330
219
102
}
330
219
100
DictionaryVariables
280
     0
  1

  0
DICTIONARY
  5
221
330
A
100
AcDbDictionary
280
     1
281
     1
  3
ACAD_XREC_ROUNDTRIP
360
222
  0
DICTIONARY
  5
223
330
F
100
AcDbDictionary
280
     1
281
     1
  3
ACAD_XREC_ROUNDTRIP
360
224
  0
XRECORD
  5
222
102
{ACAD_REACTORS
330
221
102
}
330
221
100
AcDbXrecord
280
     1
102
SHADEPLOT
 70
     0
102
SHADEPLOTRESLEVEL
 70
     2
102
SHADEPLOTCUSTOMDPI
 70
   300
  0
XRECORD
  5
224
102
{ACAD_REACTORS
330
223
102
}
330
223
100
AcDbXrecord
280
     1
102
SHADEPLOT
 70
     0
102
SHADEPLOTRESLEVEL
 70
     2
102
SHADEPLOTCUSTOMDPI
 70
   300
  0
ENDSEC
  0
EOF
