  0
SECTION
  2
HEADER
  9
$ACADVER
  1
AC1015
  9
$ACADMAINTVER
 70
    20
  9
$DWGCODEPAGE
  3
ANSI_932
  9
$INSBASE
 10
129.499999944041
 20
120.5008351249346
 30
0.0
  9
$EXTMIN
 10
-61.66442780483555
 20
-45.55425961543142
 30
-0.0015258207003583
  9
$EXTMAX
 10
63.36914118771574
 20
67.47033733836179
 30
0.0000000349246037
  9
$LIMMIN
 10
0.0
 20
0.0
  9
$LIMMAX
 10
420.0
 20
297.0
  9
$ORTHOMODE
 70
     1
  9
$REGENMODE
 70
     0
  9
$FILLMODE
 70
     1
  9
$QTEXTMODE
 70
     0
  9
$MIRRTEXT
 70
     0
  9
$LTSCALE
 40
1.0
  9
$ATTMODE
 70
     1
  9
$TEXTSIZE
 40
2.5
  9
$TRACEWID
 40
1.0
  9
$TEXTSTYLE
  7
Standard
  9
$CLAYER
  8
MOJI1
  9
$CELTYPE
  6
ByLayer
  9
$CECOLOR
 62
   256
  9
$CELTSCALE
 40
1.0
  9
$DISPSILH
 70
     0
  9
$DIMSCALE
 40
1.0
  9
$DIMASZ
 40
2.0
  9
$DIMEXO
 40
2.0
  9
$DIMDLI
 40
8.0
  9
$DIMRND
 40
0.0
  9
$DIMDLE
 40
0.0
  9
$DIMEXE
 40
2.0
  9
$DIMTP
 40
0.0
  9
$DIMTM
 40
0.0
  9
$DIMTXT
 40
2.5
  9
$DIMCEN
 40
0.0
  9
$DIMTSZ
 40
0.0
  9
$DIMTOL
 70
     0
  9
$DIMLIM
 70
     0
  9
$DIMTIH
 70
     0
  9
$DIMTOH
 70
     0
  9
$DIMSE1
 70
     0
  9
$DIMSE2
 70
     0
  9
$DIMTAD
 70
     3
  9
$DIMZIN
 70
     0
  9
$DIMBLK
  1

  9
$DIMASO
 70
     1
  9
$DIMSHO
 70
     1
  9
$DIMPOST
  1

  9
$DIMAPOST
  1

  9
$DIMALT
 70
     0
  9
$DIMALTD
 70
     2
  9
$DIMALTF
 40
25.4
  9
$DIMLFAC
 40
1.0
  9
$DIMTOFL
 70
     1
  9
$DIMTVP
 40
0.0
  9
$DIMTIX
 70
     0
  9
$DIMSOXD
 70
     0
  9
$DIMSAH
 70
     1
  9
$DIMBLK1
  1
OPEN30
  9
$DIMBLK2
  1
OPEN30
  9
$DIMSTYLE
  2
STANDARD
  9
$DIMCLRD
 70
     0
  9
$DIMCLRE
 70
     0
  9
$DIMCLRT
 70
     0
  9
$DIMTFAC
 40
1.0
  9
$DIMGAP
 40
0.5
  9
$DIMJUST
 70
     0
  9
$DIMSD1
 70
     0
  9
$DIMSD2
 70
     0
  9
$DIMTOLJ
 70
     1
  9
$DIMTZIN
 70
     0
  9
$DIMALTZ
 70
     0
  9
$DIMALTTZ
 70
     0
  9
$DIMUPT
 70
     0
  9
$DIMDEC
 70
     4
  9
$DIMTDEC
 70
     4
  9
$DIMALTU
 70
     2
  9
$DIMALTTD
 70
     2
  9
$DIMTXSTY
  7
Standard
  9
$DIMAUNIT
 70
     0
  9
$DIMADEC
 70
     0
  9
$DIMALTRND
 40
0.0
  9
$DIMAZIN
 70
     0
  9
$DIMDSEP
 70
    46
  9
$DIMATFIT
 70
     3
  9
$DIMFRAC
 70
     0
  9
$DIMLDRBLK
  1
OPEN30
  9
$DIMLUNIT
 70
     2
  9
$DIMLWD
 70
    -2
  9
$DIMLWE
 70
    -2
  9
$DIMTMOVE
 70
     0
  9
$LUNITS
 70
     2
  9
$LUPREC
 70
     4
  9
$SKETCHINC
 40
1.0
  9
$FILLETRAD
 40
0.0
  9
$AUNITS
 70
     0
  9
$AUPREC
 70
     0
  9
$MENU
  1
.
  9
$ELEVATION
 40
0.0
  9
$PELEVATION
 40
0.0
  9
$THICKNESS
 40
0.0
  9
$LIMCHECK
 70
     0
  9
$CHAMFERA
 40
0.0
  9
$CHAMFERB
 40
0.0
  9
$CHAMFERC
 40
0.0
  9
$CHAMFERD
 40
0.0
  9
$SKPOLY
 70
     0
  9
$TDCREATE
 40
2454349.434269746
  9
$TDUCREATE
 40
2454349.059269746
  9
$TDUPDATE
 40
2455756.337859560
  9
$TDUUPDATE
 40
2455755.962859560
  9
$TDINDWG
 40
0.5174136574
  9
$TDUSRTIMER
 40
0.5174136574
  9
$USRTIMER
 70
     1
  9
$ANGBASE
 50
0.0
  9
$ANGDIR
 70
     0
  9
$PDMODE
 70
     0
  9
$PDSIZE
 40
0.0
  9
$PLINEWID
 40
0.0
  9
$SPLFRAME
 70
     0
  9
$SPLINETYPE
 70
     6
  9
$SPLINESEGS
 70
     8
  9
$HANDSEED
  5
308
  9
$SURFTAB1
 70
     6
  9
$SURFTAB2
 70
     6
  9
$SURFTYPE
 70
     6
  9
$SURFU
 70
     6
  9
$SURFV
 70
     6
  9
$UCSBASE
  2

  9
$UCSNAME
  2

  9
$UCSORG
 10
0.0
 20
0.0
 30
0.0
  9
$UCSXDIR
 10
1.0
 20
0.0
 30
0.0
  9
$UCSYDIR
 10
0.0
 20
1.0
 30
0.0
  9
$UCSORTHOREF
  2

  9
$UCSORTHOVIEW
 70
     0
  9
$UCSORGTOP
 10
0.0
 20
0.0
 30
0.0
  9
$UCSORGBOTTOM
 10
0.0
 20
0.0
 30
0.0
  9
$UCSORGLEFT
 10
0.0
 20
0.0
 30
0.0
  9
$UCSORGRIGHT
 10
0.0
 20
0.0
 30
0.0
  9
$UCSORGFRONT
 10
0.0
 20
0.0
 30
0.0
  9
$UCSORGBACK
 10
0.0
 20
0.0
 30
0.0
  9
$PUCSBASE
  2

  9
$PUCSNAME
  2

  9
$PUCSORG
 10
0.0
 20
0.0
 30
0.0
  9
$PUCSXDIR
 10
1.0
 20
0.0
 30
0.0
  9
$PUCSYDIR
 10
0.0
 20
1.0
 30
0.0
  9
$PUCSORTHOREF
  2

  9
$PUCSORTHOVIEW
 70
     0
  9
$PUCSORGTOP
 10
0.0
 20
0.0
 30
0.0
  9
$PUCSORGBOTTOM
 10
0.0
 20
0.0
 30
0.0
  9
$PUCSORGLEFT
 10
0.0
 20
0.0
 30
0.0
  9
$PUCSORGRIGHT
 10
0.0
 20
0.0
 30
0.0
  9
$PUCSORGFRONT
 10
0.0
 20
0.0
 30
0.0
  9
$PUCSORGBACK
 10
0.0
 20
0.0
 30
0.0
  9
$USERI1
 70
     0
  9
$USERI2
 70
     0
  9
$USERI3
 70
     0
  9
$USERI4
 70
     0
  9
$USERI5
 70
     0
  9
$USERR1
 40
0.0
  9
$USERR2
 40
0.0
  9
$USERR3
 40
0.0
  9
$USERR4
 40
0.0
  9
$USERR5
 40
0.0
  9
$WORLDVIEW
 70
     1
  9
$SHADEDGE
 70
     3
  9
$SHADEDIF
 70
    70
  9
$TILEMODE
 70
     1
  9
$MAXACTVP
 70
    64
  9
$PINSBASE
 10
0.0
 20
0.0
 30
0.0
  9
$PLIMCHECK
 70
     0
  9
$PEXTMIN
 10
0.0
 20
0.0
 30
0.0
  9
$PEXTMAX
 10
0.0
 20
0.0
 30
0.0
  9
$PLIMMIN
 10
0.0
 20
0.0
  9
$PLIMMAX
 10
12.0
 20
9.0
  9
$UNITMODE
 70
     0
  9
$VISRETAIN
 70
     1
  9
$PLINEGEN
 70
     0
  9
$PSLTSCALE
 70
     1
  9
$TREEDEPTH
 70
  3020
  9
$CMLSTYLE
  2
Standard
  9
$CMLJUST
 70
     0
  9
$CMLSCALE
 40
20.0
  9
$PROXYGRAPHICS
 70
     1
  9
$MEASUREMENT
 70
     1
  9
$CELWEIGHT
370
    -1
  9
$ENDCAPS
280
     0
  9
$JOINSTYLE
280
     0
  9
$LWDISPLAY
290
     0
  9
$INSUNITS
 70
     4
  9
$HYPERLINKBASE
  1

  9
$STYLESHEET
  1

  9
$XEDIT
290
     1
  9
$CEPSNTYPE
380
     0
  9
$PSTYLEMODE
290
     1
  9
$FINGERPRINTGUID
  2
{FDEAD578-A652-11D2-9A35-0060089B3A3F}
  9
$VERSIONGUID
  2
{6C145D19-05F9-4987-AFD3-6AD6819B5C69}
  9
$EXTNAMES
290
     1
  9
$PSVPSCALE
 40
0.0
  9
$OLESTARTUP
290
     0
  0
ENDSEC
  0
SECTION
  2
CLASSES
  0
CLASS
  1
ACDBDICTIONARYWDFLT
  2
AcDbDictionaryWithDefault
  3
ObjectDBX Classes
 90
        0
280
     0
281
     0
  0
CLASS
  1
ACDBPLACEHOLDER
  2
AcDbPlaceHolder
  3
ObjectDBX Classes
 90
        0
280
     0
281
     0
  0
CLASS
  1
LAYOUT
  2
AcDbLayout
  3
ObjectDBX Classes
 90
        0
280
     0
281
     0
  0
CLASS
  1
DICTIONARYVAR
  2
AcDbDictionaryVar
  3
ObjectDBX Classes
 90
        0
280
     0
281
     0
  0
CLASS
  1
SORTENTSTABLE
  2
AcDbSortentsTable
  3
ObjectDBX Classes
 90
    32768
280
     0
281
     0
  0
ENDSEC
  0
SECTION
  2
TABLES
  0
TABLE
  2
VPORT
  5
1C
330
0
100
AcDbSymbolTable
 70
     3
  0
VPORT
  5
300
330
1C
100
AcDbSymbolTableRecord
100
AcDbViewportTableRecord
  2
*Active
 70
     0
 10
0.0
 20
0.0
 11
1.0
 21
1.0
 12
0.852356691440093
 22
10.95803886146518
 13
0.0
 23
0.0
 14
10.0
 24
10.0
 15
10.0
 25
10.0
 16
0.0
 26
0.0
 36
1.0
 17
0.0
 27
0.0
 37
0.0
 40
113.8786871070964
 41
2.184110970996216
 42
50.0
 43
0.0
 44
0.0
 50
0.0
 51
0.0
 71
     0
 72
  1000
 73
     1
 74
     2
 75
     0
 76
     0
 77
     0
 78
     0
281
     0
 65
     1
110
0.0
120
0.0
130
0.0
111
1.0
121
0.0
131
0.0
112
0.0
122
1.0
132
0.0
 79
     0
146
0.0
  0
ENDTAB
  0
TABLE
  2
LTYPE
  5
17
330
0
100
AcDbSymbolTable
 70
     1
  0
LTYPE
  5
18
330
17
100
AcDbSymbolTableRecord
100
AcDbLinetypeTableRecord
  2
ByBlock
 70
     0
  3

 72
    65
 73
     0
 40
0.0
  0
LTYPE
  5
19
330
17
100
AcDbSymbolTableRecord
100
AcDbLinetypeTableRecord
  2
ByLayer
 70
     0
  3

 72
    65
 73
     0
 40
0.0
  0
LTYPE
  5
8
330
17
100
AcDbSymbolTableRecord
100
AcDbLinetypeTableRecord
  2
Continuous
 70
     0
  3
Solid line
 72
    65
 73
     0
 40
0.0
  0
ENDTAB
  0
TABLE
  2
LAYER
  5
10
102
{ACAD_XDICTIONARY
360
11
102
}
330
0
100
AcDbSymbolTable
 70
     7
  0
LAYER
  5
4
330
10
100
AcDbSymbolTableRecord
100
AcDbLayerTableRecord
  2
0
 70
     0
 62
     7
  6
Continuous
370
    -3
390
5
  0
LAYER
  5
2A5
330
10
100
AcDbSymbolTableRecord
100
AcDbLayerTableRecord
  2
WAKU
 70
     0
 62
     4
  6
Continuous
370
    -3
390
5
  0
LAYER
  5
2E
330
10
100
AcDbSymbolTableRecord
100
AcDbLayerTableRecord
  2
MOJI1
 70
     0
 62
     2
  6
Continuous
370
    -3
390
5
  0
LAYER
  5
32
330
10
100
AcDbSymbolTableRecord
100
AcDbLayerTableRecord
  2
TOUROKU
 70
     0
 62
     1
  6
Continuous
370
    -3
390
5
  0
LAYER
  5
3E
330
10
100
AcDbSymbolTableRecord
100
AcDbLayerTableRecord
  2
DEFPOINTS
 70
     0
 62
     7
  6
Continuous
290
     0
370
    -3
390
5
  0
LAYER
  5
43
330
10
100
AcDbSymbolTableRecord
100
AcDbLayerTableRecord
  2
GAIKEI
 70
     0
 62
     7
  6
Continuous
370
    -3
390
5
  0
LAYER
  5
34
330
10
100
AcDbSymbolTableRecord
100
AcDbLayerTableRecord
  2
SUNPO
 70
     0
 62
     3
  6
Continuous
370
    -3
390
5
  0
ENDTAB
  0
TABLE
  2
STYLE
  5
14
330
0
100
AcDbSymbolTable
 70
     1
  0
STYLE
  5
15
330
14
100
AcDbSymbolTableRecord
100
AcDbTextStyleTableRecord
  2
Standard
 70
     0
 40
0.0
 41
1.0
 50
0.0
 71
     0
 42
2.5
  3
MONOTXT.shx
  4
BIGFONT.shx
  0
ENDTAB
  0
TABLE
  2
VIEW
  5
1A
330
0
100
AcDbSymbolTable
 70
     0
  0
ENDTAB
  0
TABLE
  2
UCS
  5
1B
330
0
100
AcDbSymbolTable
 70
     0
  0
ENDTAB
  0
TABLE
  2
APPID
  5
1E
330
0
100
AcDbSymbolTable
 70
     1
  0
APPID
  5
1F
330
1E
100
AcDbSymbolTableRecord
100
AcDbRegAppTableRecord
  2
ACAD
 70
     0
  0
ENDTAB
  0
TABLE
  2
DIMSTYLE
  5
20
330
0
100
AcDbSymbolTable
 70
     1
100
AcDbDimStyleTable
 71
     1
340
21
  0
DIMSTYLE
105
21
102
{ACAD_REACTORS
330
14C
330
13F
330
33
330
28C
102
}
330
20
100
AcDbSymbolTableRecord
100
AcDbDimStyleTableRecord
  2
STANDARD
 70
     0
 40
0.0
 41
2.0
 42
2.0
 43
8.0
 44
2.0
 73
     0
 74
     0
 77
     3
140
3.0
141
0.0
173
     1
279
     2
288
     1
340
15
341
22
343
22
344
22
  0
ENDTAB
  0
TABLE
  2
BLOCK_RECORD
  5
1
330
0
100
AcDbSymbolTable
 70
     9
  0
BLOCK_RECORD
  5
2
330
1
100
AcDbSymbolTableRecord
100
AcDbBlockTableRecord
  2
*Model_Space
340
A
  0
BLOCK_RECORD
  5
C
330
1
100
AcDbSymbolTableRecord
100
AcDbBlockTableRecord
  2
*Paper_Space
340
F
  0
BLOCK_RECORD
  5
22
330
1
100
AcDbSymbolTableRecord
100
AcDbBlockTableRecord
  2
_OPEN30
340
0
102
{BLKREFS
331
3A
331
3B
331
145
331
146
331
152
331
153
331
294
331
295
331
2D0
331
2D1
331
2DC
331
2DD
331
2E8
331
2E9
331
2F4
331
2F5
102
}
  0
BLOCK_RECORD
  5
14D
330
1
100
AcDbSymbolTableRecord
100
AcDbBlockTableRecord
  2
*D1
340
0
  0
BLOCK_RECORD
  5
140
330
1
100
AcDbSymbolTableRecord
100
AcDbBlockTableRecord
  2
*D2
340
0
  0
BLOCK_RECORD
  5
35
330
1
100
AcDbSymbolTableRecord
100
AcDbBlockTableRecord
  2
*D3
340
0
  0
BLOCK_RECORD
  5
28D
330
1
100
AcDbSymbolTableRecord
100
AcDbBlockTableRecord
  2
*D4
340
0
  0
BLOCK_RECORD
  5
2CA
330
1
100
AcDbSymbolTableRecord
100
AcDbBlockTableRecord
  2
*D5
340
0
  0
BLOCK_RECORD
  5
2D8
330
1
100
AcDbSymbolTableRecord
100
AcDbBlockTableRecord
  2
*D6
340
0
  0
BLOCK_RECORD
  5
2E4
330
1
100
AcDbSymbolTableRecord
100
AcDbBlockTableRecord
  2
*D7
340
0
  0
BLOCK_RECORD
  5
2F0
330
1
100
AcDbSymbolTableRecord
100
AcDbBlockTableRecord
  2
*D8
340
0
  0
ENDTAB
  0
ENDSEC
  0
SECTION
  2
BLOCKS
  0
BLOCK
  5
3
330
2
100
AcDbEntity
  8
0
100
AcDbBlockBegin
  2
*Model_Space
 70
     0
 10
0.0
 20
0.0
 30
0.0
  3
*Model_Space
  1

  0
ENDBLK
  5
9
330
2
100
AcDbEntity
  8
0
100
AcDbBlockEnd
  0
BLOCK
  5
D
330
C
100
AcDbEntity
 67
     1
  8
0
100
AcDbBlockBegin
  2
*Paper_Space
 70
     0
 10
0.0
 20
0.0
 30
0.0
  3
*Paper_Space
  1

  0
ENDBLK
  5
E
330
C
100
AcDbEntity
 67
     1
  8
0
100
AcDbBlockEnd
  0
BLOCK
  5
23
330
22
100
AcDbEntity
  8
0
100
AcDbBlockBegin
  2
_OPEN30
 70
     0
 10
0.0
 20
0.0
 30
0.0
  3
_OPEN30
  1

  0
LINE
  5
24
330
22
100
AcDbEntity
  8
0
  6
ByBlock
 62
     0
100
AcDbLine
 10
-1.0
 20
0.26794919
 30
0.0
 11
0.0
 21
0.0
 31
0.0
  0
LINE
  5
25
330
22
100
AcDbEntity
  8
0
  6
ByBlock
 62
     0
100
AcDbLine
 10
0.0
 20
0.0
 30
0.0
 11
-1.0
 21
-0.26794919
 31
0.0
  0
LINE
  5
26
330
22
100
AcDbEntity
  8
0
  6
ByBlock
 62
     0
100
AcDbLine
 10
0.0
 20
0.0
 30
0.0
 11
-1.0
 21
0.0
 31
0.0
  0
ENDBLK
  5
27
330
22
100
AcDbEntity
  8
0
100
AcDbBlockEnd
  0
BLOCK
  5
14E
330
14D
100
AcDbEntity
  8
0
100
AcDbBlockBegin
  2
*D1
 70
     1
 10
0.0
 20
0.0
 30
0.0
  3
*D1
  1

  0
LINE
  5
14F
330
14D
100
AcDbEntity
  8
SUNPO
 62
     0
370
    -2
100
AcDbLine
 10
214.4868583324444
 20
52.68521770487757
 30
0.0
 11
222.4868583324444
 21
52.68521770487757
 31
0.0
  0
LINE
  5
150
330
14D
100
AcDbEntity
  8
SUNPO
 62
     0
370
    -2
100
AcDbLine
 10
214.4868583324444
 20
88.88521770487756
 30
0.0
 11
222.4868583324444
 21
88.88521770487756
 31
0.0
  0
LINE
  5
151
330
14D
100
AcDbEntity
  8
SUNPO
 62
     0
370
    -2
100
AcDbLine
 10
220.4868583324444
 20
54.68521770487758
 30
0.0
 11
220.4868583324444
 21
86.88521770487756
 31
0.0
  0
INSERT
  5
152
330
14D
100
AcDbEntity
  8
SUNPO
 62
     0
370
    -2
100
AcDbBlockReference
  2
_OPEN30
 10
220.4868583324444
 20
52.68521770487757
 30
0.0
 41
2.0
 42
2.0
 43
2.0
 50
270.0
  0
INSERT
  5
153
330
14D
100
AcDbEntity
  8
SUNPO
 62
     0
370
    -2
100
AcDbBlockReference
  2
_OPEN30
 10
220.4868583324444
 20
88.88521770487756
 30
0.0
 41
2.0
 42
2.0
 43
2.0
 50
90.0
  0
MTEXT
  5
154
330
14D
100
AcDbEntity
  8
SUNPO
 62
     0
100
AcDbMText
 10
218.7368583324444
 20
70.7852177048776
 30
0.0
 40
2.5
 41
0.0
 71
     5
 72
     1
  1
\A1;724
 11
0.0000000000000001
 21
1.0
 31
0.0
 73
     1
 44
1.0
1001
ACAD
1000
MTEXTBEGIN
1070
    73
1070
     1
1070
    44
1040
1.0
1070
    74
1070
     0
1000
MTEXTEND
  0
POINT
  5
155
330
14D
100
AcDbEntity
  8
DEFPOINTS
 62
     0
100
AcDbPoint
 10
212.4868583324444
 20
52.68521770487757
 30
0.0
  0
POINT
  5
156
330
14D
100
AcDbEntity
  8
DEFPOINTS
 62
     0
100
AcDbPoint
 10
212.4868583324444
 20
88.88521770487756
 30
0.0
  0
POINT
  5
157
330
14D
100
AcDbEntity
  8
DEFPOINTS
 62
     0
100
AcDbPoint
 10
220.4868583324444
 20
88.88521770487756
 30
0.0
  0
ENDBLK
  5
158
330
14D
100
AcDbEntity
  8
0
100
AcDbBlockEnd
  0
BLOCK
  5
141
330
140
100
AcDbEntity
  8
0
100
AcDbBlockBegin
  2
*D2
 70
     1
 10
0.0
 20
0.0
 30
0.0
  3
*D2
  1

  0
LINE
  5
142
330
140
100
AcDbEntity
  8
SUNPO
 62
     0
370
    -2
100
AcDbLine
 10
141.4781525557222
 20
90.87396504921157
 30
0.0
 11
141.4781525557222
 21
103.8849413856671
 31
0.0
  0
LINE
  5
143
330
140
100
AcDbEntity
  8
SUNPO
 62
     0
370
    -2
100
AcDbLine
 10
212.4685605557223
 20
90.86130379151393
 30
0.0
 11
212.4685605557223
 21
103.8849413856671
 31
0.0
  0
LINE
  5
144
330
140
100
AcDbEntity
  8
SUNPO
 62
     0
370
    -2
100
AcDbLine
 10
143.4781525557222
 20
101.8849413856671
 30
0.0
 11
210.4685605557223
 21
101.8849413856671
 31
0.0
  0
INSERT
  5
145
330
140
100
AcDbEntity
  8
SUNPO
 62
     0
370
    -2
100
AcDbBlockReference
  2
_OPEN30
 10
141.4781525557222
 20
101.8849413856671
 30
0.0
 41
2.0
 42
2.0
 43
2.0
 50
180.0
  0
INSERT
  5
146
330
140
100
AcDbEntity
  8
SUNPO
 62
     0
370
    -2
100
AcDbBlockReference
  2
_OPEN30
 10
212.4685605557223
 20
101.8849413856671
 30
0.0
 41
2.0
 42
2.0
 43
2.0
  0
MTEXT
  5
147
330
140
100
AcDbEntity
  8
SUNPO
 62
     0
100
AcDbMText
 10
176.9733565557222
 20
103.6349413856671
 30
0.0
 40
2.5
 41
0.0
 71
     5
 72
     1
  1
\A1;1427
 73
     1
 44
1.0
1001
ACAD
1000
MTEXTBEGIN
1070
    73
1070
     1
1070
    44
1040
1.0
1070
    74
1070
     0
1000
MTEXTEND
  0
POINT
  5
148
330
140
100
AcDbEntity
  8
DEFPOINTS
 62
     0
100
AcDbPoint
 10
141.4781525557222
 20
88.87396504921156
 30
0.0
  0
POINT
  5
149
330
140
100
AcDbEntity
  8
DEFPOINTS
 62
     0
100
AcDbPoint
 10
212.4685605557223
 20
88.86130379151394
 30
0.0
  0
POINT
  5
14A
330
140
100
AcDbEntity
  8
DEFPOINTS
 62
     0
100
AcDbPoint
 10
212.4685605557223
 20
101.8849413856671
 30
0.0
  0
ENDBLK
  5
14B
330
140
100
AcDbEntity
  8
0
100
AcDbBlockEnd
  0
BLOCK
  5
36
330
35
100
AcDbEntity
  8
0
100
AcDbBlockBegin
  2
*D3
 70
     1
 10
0.0
 20
0.0
 30
0.0
  3
*D3
  1

  0
LINE
  5
37
330
35
100
AcDbEntity
  8
SUNPO
 62
     0
370
    -2
100
AcDbLine
 10
146.7233565557222
 20
90.88493126052624
 30
0.0
 11
146.7233565557222
 21
98.8849413856672
 31
0.0
  0
LINE
  5
38
330
35
100
AcDbEntity
  8
SUNPO
 62
     0
370
    -2
100
AcDbLine
 10
207.2233565557223
 20
90.88493126052624
 30
0.0
 11
207.2233565557223
 21
98.8849413856672
 31
0.0
  0
LINE
  5
39
330
35
100
AcDbEntity
  8
SUNPO
 62
     0
370
    -2
100
AcDbLine
 10
148.7233565557222
 20
96.88494138566719
 30
0.0
 11
205.2233565557223
 21
96.88494138566719
 31
0.0
  0
INSERT
  5
3A
330
35
100
AcDbEntity
  8
SUNPO
 62
     0
370
    -2
100
AcDbBlockReference
  2
_OPEN30
 10
146.7233565557222
 20
96.88494138566719
 30
0.0
 41
2.0
 42
2.0
 43
2.0
 50
180.0
  0
INSERT
  5
3B
330
35
100
AcDbEntity
  8
SUNPO
 62
     0
370
    -2
100
AcDbBlockReference
  2
_OPEN30
 10
207.2233565557223
 20
96.88494138566719
 30
0.0
 41
2.0
 42
2.0
 43
2.0
  0
MTEXT
  5
3C
330
35
100
AcDbEntity
  8
SUNPO
 62
     0
100
AcDbMText
 10
176.9733565557222
 20
98.6349413856672
 30
0.0
 40
2.5
 41
0.0
 71
     5
 72
     1
  1
\A1;1210
 73
     1
 44
1.0
1001
ACAD
1000
MTEXTBEGIN
1070
    73
1070
     1
1070
    44
1040
1.0
1070
    74
1070
     0
1000
MTEXTEND
  0
POINT
  5
3D
330
35
100
AcDbEntity
  8
DEFPOINTS
 62
     0
100
AcDbPoint
 10
146.7233565557222
 20
88.88493126052622
 30
0.0
  0
POINT
  5
3F
330
35
100
AcDbEntity
  8
DEFPOINTS
 62
     0
100
AcDbPoint
 10
207.2233565557223
 20
88.88493126052622
 30
0.0
  0
POINT
  5
40
330
35
100
AcDbEntity
  8
DEFPOINTS
 62
     0
100
AcDbPoint
 10
207.2233565557223
 20
96.88494138566719
 30
0.0
  0
ENDBLK
  5
41
330
35
100
AcDbEntity
  8
0
100
AcDbBlockEnd
  0
BLOCK
  5
28E
330
28D
100
AcDbEntity
  8
0
100
AcDbBlockBegin
  2
*D4
 70
     1
 10
0.0
 20
0.0
 30
0.0
  3
*D4
  1

  0
LINE
  5
28F
330
28D
100
AcDbEntity
  8
SUNPO
 62
     0
370
    -2
100
AcDbLine
 10
232.0926721666904
 20
90.89146376508535
 30
0.0
 11
232.0926721666904
 21
98.89144138566726
 31
0.0
  0
LINE
  5
290
330
28D
100
AcDbEntity
  8
SUNPO
 62
     0
370
    -2
100
AcDbLine
 10
236.5426721666904
 20
90.89146376508535
 30
0.0
 11
236.5426721666904
 21
98.89144138566726
 31
0.0
  0
LINE
  5
291
330
28D
100
AcDbEntity
  8
SUNPO
 62
     0
370
    -2
100
AcDbLine
 10
230.0926721666904
 20
96.89144138566724
 30
0.0
 11
228.0926721666904
 21
96.89144138566724
 31
0.0
  0
LINE
  5
292
330
28D
100
AcDbEntity
  8
SUNPO
 62
     0
370
    -2
100
AcDbLine
 10
238.5426721666904
 20
96.89144138566724
 30
0.0
 11
245.7093388333571
 21
96.89144138566724
 31
0.0
  0
LINE
  5
293
330
28D
100
AcDbEntity
  8
SUNPO
 62
     0
370
    -2
100
AcDbLine
 10
232.0926721666904
 20
96.89144138566724
 30
0.0
 11
236.5426721666904
 21
96.89144138566724
 31
0.0
  0
INSERT
  5
294
330
28D
100
AcDbEntity
  8
SUNPO
 62
     0
370
    -2
100
AcDbBlockReference
  2
_OPEN30
 10
232.0926721666904
 20
96.89144138566724
 30
0.0
 41
2.0
 42
2.0
 43
2.0
  0
INSERT
  5
295
330
28D
100
AcDbEntity
  8
SUNPO
 62
     0
370
    -2
100
AcDbBlockReference
  2
_OPEN30
 10
236.5426721666904
 20
96.89144138566724
 30
0.0
 41
2.0
 42
2.0
 43
2.0
 50
180.0
  0
MTEXT
  5
296
330
28D
100
AcDbEntity
  8
SUNPO
 62
     0
100
AcDbMText
 10
243.1260055000238
 20
98.64144138566725
 30
0.0
 40
2.5
 41
0.0
 71
     5
 72
     1
  1
\A1;89
 73
     1
 44
1.0
1001
ACAD
1000
MTEXTBEGIN
1070
    73
1070
     1
1070
    44
1040
1.0
1070
    74
1070
     0
1000
MTEXTEND
  0
POINT
  5
297
330
28D
100
AcDbEntity
  8
DEFPOINTS
 62
     0
100
AcDbPoint
 10
232.0926721666904
 20
88.89146376508534
 30
0.0
  0
POINT
  5
298
330
28D
100
AcDbEntity
  8
DEFPOINTS
 62
     0
100
AcDbPoint
 10
236.5426721666904
 20
88.89146376508534
 30
0.0
  0
POINT
  5
299
330
28D
100
AcDbEntity
  8
DEFPOINTS
 62
     0
100
AcDbPoint
 10
236.5426721666904
 20
96.89144138566724
 30
0.0
  0
ENDBLK
  5
29A
330
28D
100
AcDbEntity
  8
0
100
AcDbBlockEnd
  0
BLOCK
  5
2D6
330
2CA
100
AcDbEntity
  8
0
100
AcDbBlockBegin
  2
*D5
 70
     1
 10
0.0
 20
0.0
 30
0.0
  3
*D5
  1

  0
LINE
  5
2CB
330
2CA
100
AcDbEntity
  8
SUNPO
 62
     0
370
    -2
100
AcDbLine
 10
38.94348757724316
 20
39.85395677049206
 30
0.0
 11
38.94348757724316
 21
47.85393439107396
 31
0.0
  0
LINE
  5
2CC
330
2CA
100
AcDbEntity
  8
SUNPO
 62
     0
370
    -2
100
AcDbLine
 10
43.39348757724315
 20
39.85395677049206
 30
0.0
 11
43.39348757724315
 21
47.85393439107396
 31
0.0
  0
LINE
  5
2CD
330
2CA
100
AcDbEntity
  8
SUNPO
 62
     0
370
    -2
100
AcDbLine
 10
36.94348757724316
 20
45.85393439107396
 30
0.0
 11
34.94348757724316
 21
45.85393439107396
 31
0.0
  0
LINE
  5
2CE
330
2CA
100
AcDbEntity
  8
SUNPO
 62
     0
370
    -2
100
AcDbLine
 10
45.39348757724314
 20
45.85393439107396
 30
0.0
 11
52.56015424390981
 21
45.85393439107396
 31
0.0
  0
LINE
  5
2CF
330
2CA
100
AcDbEntity
  8
SUNPO
 62
     0
370
    -2
100
AcDbLine
 10
38.94348757724316
 20
45.85393439107396
 30
0.0
 11
43.39348757724315
 21
45.85393439107396
 31
0.0
  0
INSERT
  5
2D0
330
2CA
100
AcDbEntity
  8
SUNPO
 62
     0
370
    -2
100
AcDbBlockReference
  2
_OPEN30
 10
38.94348757724316
 20
45.85393439107396
 30
0.0
 41
2.0
 42
2.0
 43
2.0
  0
INSERT
  5
2D1
330
2CA
100
AcDbEntity
  8
SUNPO
 62
     0
370
    -2
100
AcDbBlockReference
  2
_OPEN30
 10
43.39348757724315
 20
45.85393439107396
 30
0.0
 41
2.0
 42
2.0
 43
2.0
 50
180.0
  0
MTEXT
  5
2D2
330
2CA
100
AcDbEntity
  8
SUNPO
 62
     0
100
AcDbMText
 10
49.97682091057648
 20
47.60393439107396
 30
0.0
 40
2.5
 41
0.0
 71
     5
 72
     1
  1
\A1;89
 73
     1
 44
1.0
1001
ACAD
1000
MTEXTBEGIN
1070
    73
1070
     1
1070
    44
1040
1.0
1070
    74
1070
     0
1000
MTEXTEND
  0
POINT
  5
2D3
330
2CA
100
AcDbEntity
  8
DEFPOINTS
 62
     0
100
AcDbPoint
 10
38.94348757724316
 20
37.85395677049206
 30
0.0
  0
POINT
  5
2D4
330
2CA
100
AcDbEntity
  8
DEFPOINTS
 62
     0
100
AcDbPoint
 10
43.39348757724315
 20
37.85395677049206
 30
0.0
  0
POINT
  5
2D5
330
2CA
100
AcDbEntity
  8
DEFPOINTS
 62
     0
100
AcDbPoint
 10
43.39348757724315
 20
45.85393439107396
 30
0.0
  0
ENDBLK
  5
2D7
330
2CA
100
AcDbEntity
  8
0
100
AcDbBlockEnd
  0
BLOCK
  5
2E2
330
2D8
100
AcDbEntity
  8
0
100
AcDbBlockBegin
  2
*D6
 70
     1
 10
0.0
 20
0.0
 30
0.0
  3
*D6
  1

  0
LINE
  5
2D9
330
2D8
100
AcDbEntity
  8
SUNPO
 62
     0
370
    -2
100
AcDbLine
 10
21.33767374299714
 20
1.647710710284285
 30
0.0
 11
29.33767374299713
 21
1.647710710284283
 31
0.0
  0
LINE
  5
2DA
330
2D8
100
AcDbEntity
  8
SUNPO
 62
     0
370
    -2
100
AcDbLine
 10
21.33767374299714
 20
37.84771071028428
 30
0.0
 11
29.33767374299714
 21
37.84771071028428
 31
0.0
  0
LINE
  5
2DB
330
2D8
100
AcDbEntity
  8
SUNPO
 62
     0
370
    -2
100
AcDbLine
 10
27.33767374299713
 20
3.647710710284283
 30
0.0
 11
27.33767374299714
 21
35.84771071028427
 31
0.0
  0
INSERT
  5
2DC
330
2D8
100
AcDbEntity
  8
SUNPO
 62
     0
370
    -2
100
AcDbBlockReference
  2
_OPEN30
 10
27.33767374299713
 20
1.647710710284284
 30
0.0
 41
2.0
 42
2.0
 43
2.0
 50
270.0
  0
INSERT
  5
2DD
330
2D8
100
AcDbEntity
  8
SUNPO
 62
     0
370
    -2
100
AcDbBlockReference
  2
_OPEN30
 10
27.33767374299714
 20
37.84771071028428
 30
0.0
 41
2.0
 42
2.0
 43
2.0
 50
90.0
  0
MTEXT
  5
2DE
330
2D8
100
AcDbEntity
  8
SUNPO
 62
     0
100
AcDbMText
 10
25.58767374299713
 20
19.74771071028429
 30
0.0
 40
2.5
 41
0.0
 71
     5
 72
     1
  1
\A1;724
 11
0.0000000000000001
 21
1.0
 31
0.0
 73
     1
 44
1.0
1001
ACAD
1000
MTEXTBEGIN
1070
    73
1070
     1
1070
    44
1040
1.0
1070
    74
1070
     0
1000
MTEXTEND
  0
POINT
  5
2DF
330
2D8
100
AcDbEntity
  8
DEFPOINTS
 62
     0
100
AcDbPoint
 10
19.33767374299714
 20
1.647710710284286
 30
0.0
  0
POINT
  5
2E0
330
2D8
100
AcDbEntity
  8
DEFPOINTS
 62
     0
100
AcDbPoint
 10
19.33767374299714
 20
37.84771071028428
 30
0.0
  0
POINT
  5
2E1
330
2D8
100
AcDbEntity
  8
DEFPOINTS
 62
     0
100
AcDbPoint
 10
27.33767374299714
 20
37.84771071028428
 30
0.0
  0
ENDBLK
  5
2E3
330
2D8
100
AcDbEntity
  8
0
100
AcDbBlockEnd
  0
BLOCK
  5
2EE
330
2E4
100
AcDbEntity
  8
0
100
AcDbBlockBegin
  2
*D7
 70
     1
 10
0.0
 20
0.0
 30
0.0
  3
*D7
  1

  0
LINE
  5
2E5
330
2E4
100
AcDbEntity
  8
SUNPO
 62
     0
370
    -2
100
AcDbLine
 10
-51.67103203372505
 20
39.83645805461828
 30
0.0
 11
-51.67103203372505
 21
52.84743439107384
 31
0.0
  0
LINE
  5
2E6
330
2E4
100
AcDbEntity
  8
SUNPO
 62
     0
370
    -2
100
AcDbLine
 10
19.31937596627506
 20
39.82379679692065
 30
0.0
 11
19.31937596627506
 21
52.84743439107384
 31
0.0
  0
LINE
  5
2E7
330
2E4
100
AcDbEntity
  8
SUNPO
 62
     0
370
    -2
100
AcDbLine
 10
-49.67103203372506
 20
50.84743439107384
 30
0.0
 11
17.31937596627506
 21
50.84743439107384
 31
0.0
  0
INSERT
  5
2E8
330
2E4
100
AcDbEntity
  8
SUNPO
 62
     0
370
    -2
100
AcDbBlockReference
  2
_OPEN30
 10
-51.67103203372505
 20
50.84743439107384
 30
0.0
 41
2.0
 42
2.0
 43
2.0
 50
180.0
  0
INSERT
  5
2E9
330
2E4
100
AcDbEntity
  8
SUNPO
 62
     0
370
    -2
100
AcDbBlockReference
  2
_OPEN30
 10
19.31937596627506
 20
50.84743439107384
 30
0.0
 41
2.0
 42
2.0
 43
2.0
  0
MTEXT
  5
2EA
330
2E4
100
AcDbEntity
  8
SUNPO
 62
     0
100
AcDbMText
 10
-16.17582803372499
 20
52.59743439107385
 30
0.0
 40
2.5
 41
0.0
 71
     5
 72
     1
  1
\A1;1427
 73
     1
 44
1.0
1001
ACAD
1000
MTEXTBEGIN
1070
    73
1070
     1
1070
    44
1040
1.0
1070
    74
1070
     0
1000
MTEXTEND
  0
POINT
  5
2EB
330
2E4
100
AcDbEntity
  8
DEFPOINTS
 62
     0
100
AcDbPoint
 10
-51.67103203372505
 20
37.83645805461828
 30
0.0
  0
POINT
  5
2EC
330
2E4
100
AcDbEntity
  8
DEFPOINTS
 62
     0
100
AcDbPoint
 10
19.31937596627506
 20
37.82379679692065
 30
0.0
  0
POINT
  5
2ED
330
2E4
100
AcDbEntity
  8
DEFPOINTS
 62
     0
100
AcDbPoint
 10
19.31937596627506
 20
50.84743439107384
 30
0.0
  0
ENDBLK
  5
2EF
330
2E4
100
AcDbEntity
  8
0
100
AcDbBlockEnd
  0
BLOCK
  5
2FA
330
2F0
100
AcDbEntity
  8
0
100
AcDbBlockBegin
  2
*D8
 70
     1
 10
0.0
 20
0.0
 30
0.0
  3
*D8
  1

  0
LINE
  5
2F1
330
2F0
100
AcDbEntity
  8
SUNPO
 62
     0
370
    -2
100
AcDbLine
 10
-46.425828033725
 20
39.84742426593295
 30
0.0
 11
-46.425828033725
 21
47.8474343910739
 31
0.0
  0
LINE
  5
2F2
330
2F0
100
AcDbEntity
  8
SUNPO
 62
     0
370
    -2
100
AcDbLine
 10
14.074171966275
 20
39.84742426593295
 30
0.0
 11
14.074171966275
 21
47.8474343910739
 31
0.0
  0
LINE
  5
2F3
330
2F0
100
AcDbEntity
  8
SUNPO
 62
     0
370
    -2
100
AcDbLine
 10
-44.42582803372499
 20
45.8474343910739
 30
0.0
 11
12.074171966275
 21
45.8474343910739
 31
0.0
  0
INSERT
  5
2F4
330
2F0
100
AcDbEntity
  8
SUNPO
 62
     0
370
    -2
100
AcDbBlockReference
  2
_OPEN30
 10
-46.425828033725
 20
45.8474343910739
 30
0.0
 41
2.0
 42
2.0
 43
2.0
 50
180.0
  0
INSERT
  5
2F5
330
2F0
100
AcDbEntity
  8
SUNPO
 62
     0
370
    -2
100
AcDbBlockReference
  2
_OPEN30
 10
14.074171966275
 20
45.8474343910739
 30
0.0
 41
2.0
 42
2.0
 43
2.0
  0
MTEXT
  5
2F6
330
2F0
100
AcDbEntity
  8
SUNPO
 62
     0
100
AcDbMText
 10
-16.17582803372499
 20
47.5974343910739
 30
0.0
 40
2.5
 41
0.0
 71
     5
 72
     1
  1
\A1;1210
 73
     1
 44
1.0
1001
ACAD
1000
MTEXTBEGIN
1070
    73
1070
     1
1070
    44
1040
1.0
1070
    74
1070
     0
1000
MTEXTEND
  0
POINT
  5
2F7
330
2F0
100
AcDbEntity
  8
DEFPOINTS
 62
     0
100
AcDbPoint
 10
-46.425828033725
 20
37.84742426593294
 30
0.0
  0
POINT
  5
2F8
330
2F0
100
AcDbEntity
  8
DEFPOINTS
 62
     0
100
AcDbPoint
 10
14.074171966275
 20
37.84742426593294
 30
0.0
  0
POINT
  5
2F9
330
2F0
100
AcDbEntity
  8
DEFPOINTS
 62
     0
100
AcDbPoint
 10
14.074171966275
 20
45.8474343910739
 30
0.0
  0
ENDBLK
  5
2FB
330
2F0
100
AcDbEntity
  8
0
100
AcDbBlockEnd
  0
ENDSEC
  0
SECTION
  2
ENTITIES
  0
TEXT
  5
30
330
2
100
AcDbEntity
  8
MOJI1
100
AcDbText
 10
-34.64918464540654
 20
63.46332813034178
 30
0.0
 40
4.0
  1
ハイビジョンプラズマディスプレイスピーカ付
 41
0.95
100
AcDbText
  0
TEXT
  5
31
330
2
100
AcDbEntity
  8
TOUROKU
100
AcDbText
 10
20.95076538752112
 20
57.46332813034133
 30
0.0
 40
2.0
  1
ＴＨ５０ＰＦ３０＋ＴＹＳＰ５０Ｐ８Ｋ
 72
     2
 11
63.35076538752111
 21
57.46332813034133
 31
0.0
100
AcDbText
  0
DIMENSION
  5
33
330
2
100
AcDbEntity
  8
SUNPO
100
AcDbDimension
  2
*D8
 10
14.074171966275
 20
45.8474343910739
 30
0.0
 11
-16.17582803372499
 21
47.5974343910739
 31
0.0
 70
    33
  1
1210
 71
     5
 42
60.5
  3
STANDARD
100
AcDbAlignedDimension
 13
-46.425828033725
 23
37.84742426593294
 33
0.0
 14
14.074171966275
 24
37.84742426593294
 34
0.0
1001
ACAD
1000
DSTYLE
1002
{
1070
   287
1070
     3
1070
   287
1070
     3
1070
   287
1070
     3
1070
   287
1070
     3
1070
   287
1070
     3
1070
   287
1070
     3
1070
   287
1070
     3
1070
   287
1070
     3
1070
   287
1070
     3
1070
   287
1070
     3
1070
   287
1070
     3
1070
   287
1070
     3
1070
   287
1070
     3
1070
   287
1070
     3
1070
   287
1070
     3
1070
   287
1070
     3
1070
   287
1070
     3
1070
   287
1070
     3
1070
   287
1070
     3
1070
   287
1070
     3
1070
   287
1070
     3
1070
   287
1070
     3
1070
   287
1070
     3
1070
   287
1070
     3
1070
   287
1070
     3
1070
   287
1070
     3
1070
   287
1070
     3
1070
   287
1070
     3
1070
   287
1070
     3
1070
   287
1070
     3
1070
   287
1070
     3
1070
   287
1070
     3
1070
   287
1070
     3
1070
   287
1070
     3
1070
    40
1040
1.0
1070
   140
1040
2.5
1070
   147
1040
0.5
1070
   172
1070
     1
1070
   279
1070
     0
1002
}
  0
SPLINE
  5
42
330
2
100
AcDbEntity
  8
GAIKEI
  6
Continuous
 62
     1
100
AcDbSpline
210
0.0
220
0.0
230
1.0
 70
     8
 71
     3
 72
    15
 73
    11
 74
     9
 42
0.0000000001
 43
0.0000000001
 44
0.000001
 12
-0.2924958065310857
 22
0.9562668054270888
 32
0.0
 13
-0.9560185359242824
 23
0.2933062545688235
 33
0.0
 40
0.0
 40
0.0
 40
0.0
 40
0.0
 40
0.0168063404896156
 40
0.0336211194742663
 40
0.0503583126183956
 40
0.06700084293541
 40
0.0837880166497456
 40
0.1004733571095624
 40
0.1170568982760552
 40
0.1337837633035195
 40
0.1337837633035195
 40
0.1337837633035195
 40
0.1337837633035195
 10
11.69164992449396
 20
35.53440443173776
 30
0.0
 10
11.69001132978852
 20
35.53976154691473
 30
0.0
 10
11.68608174973548
 20
35.55029170747486
 30
0.0
 10
11.6783260791513
 20
35.56522390038404
 30
0.0
 10
11.66883033407902
 20
35.57905152306573
 30
0.0
 10
11.65772046612215
 20
35.59160546526744
 30
0.0
 10
11.64516578318952
 20
35.60268976181024
 30
0.0
 10
11.63136210484322
 20
35.61213810145421
 30
0.0
 10
11.61653465018338
 20
35.61982995526654
 30
0.0
 10
11.60610429542339
 20
35.623729305721
 30
0.0
 10
11.60077389775199
 20
35.62536467043162
 30
0.0
 11
11.69164992449396
 21
35.53440443173776
 31
0.0
 11
11.68577152346353
 21
35.55014960199532
 31
0.0
 11
11.67801850273497
 21
35.5650702964324
 31
0.0
 11
11.66854225363988
 21
35.57886648997249
 31
0.0
 11
11.6575124442399
 21
35.59132915182477
 31
0.0
 11
11.64492840295281
 21
35.60244004557956
 31
0.0
 11
11.63116056665461
 21
35.61186596149378
 31
0.0
 11
11.61644118826405
 21
35.61950489958639
 31
0.0
 11
11.60077389775199
 21
35.62536467043162
 31
0.0
  0
SPLINE
  5
44
330
2
100
AcDbEntity
  8
GAIKEI
  6
Continuous
 62
     1
100
AcDbSpline
210
0.0
220
0.0
230
1.0
 70
     8
 71
     3
 72
    15
 73
    11
 74
     9
 42
0.0000000001
 43
0.0000000001
 44
0.000001
 12
0.9999398593324002
 22
0.0109671198725969
 32
0.0
 13
-0.0109745129035742
 23
-0.9999397782199332
 33
0.0
 40
0.0
 40
0.0
 40
0.0
 40
0.0
 40
0.0144545412891382
 40
0.0288481230524572
 40
0.0432449733897726
 40
0.0575864329608325
 40
0.0720053976517493
 40
0.0863379338911683
 40
0.1007485460548314
 40
0.1151186774904471
 40
0.1151186774904471
 40
0.1151186774904471
 40
0.1151186774904471
 10
12.10651310180037
 20
36.11581029178524
 30
0.0
 10
12.11133099246149
 20
36.11586313334758
 30
0.0
 10
12.1209846330581
 20
36.11504097149508
 30
0.0
 10
12.134912591485
 20
36.11098550802456
 30
0.0
 10
12.14773168369871
 20
36.10426141713359
 30
0.0
 10
12.15894910496692
 20
36.095099456527
 30
0.0
 10
12.16808173593443
 20
36.08388406375477
 30
0.0
 10
12.17479025043889
 20
36.07104681768905
 30
0.0
 10
12.17881767114298
 20
36.0571562519269
 30
0.0
 10
12.17963226792778
 20
36.04752571838822
 30
0.0
 10
12.17957969953016
 20
36.04273596304131
 30
0.0
 11
12.10651310180037
 21
36.11581029178524
 31
0.0
 11
12.12091463372855
 21
36.11456724099344
 31
0.0
 11
12.1347332508011
 21
36.11053959323897
 31
0.0
 11
12.14747989066393
 21
36.10384677597767
 31
0.0
 11
12.15858646441472
 21
36.09477357787131
 31
0.0
 11
12.16769221612878
 21
36.08359353801006
 31
0.0
 11
12.17433570728246
 21
36.07089365876482
 31
0.0
 11
12.17835244079452
 21
36.0570541309595
 31
0.0
 11
12.17957969953016
 21
36.04273596304131
 31
0.0
  0
SPLINE
  5
45
330
2
100
AcDbEntity
  8
GAIKEI
  6
Continuous
 62
     1
100
AcDbSpline
210
0.0
220
0.0
230
1.0
 70
     8
 71
     3
 72
    15
 73
    11
 74
     9
 42
0.0000000001
 43
0.0000000001
 44
0.000001
 12
-0.9999398593324002
 22
0.0109671198725968
 32
0.0
 13
0.0109745129035741
 23
-0.9999397782199332
 33
0.0
 40
0.0
 40
0.0
 40
0.0
 40
0.0
 40
0.0144545412891382
 40
0.0288481230524572
 40
0.0432449733898229
 40
0.0575864329608388
 40
0.0720053976517915
 40
0.0863379338912105
 40
0.1007485460548578
 40
0.1151186774904734
 40
0.1151186774904734
 40
0.1151186774904734
 40
0.1151186774904734
 10
-44.45816916925031
 20
36.11581029178524
 30
0.0
 10
-44.46298705991142
 20
36.11586313334758
 30
0.0
 10
-44.47264070050809
 20
36.11504097149508
 30
0.0
 10
-44.48656865893497
 20
36.11098550802453
 30
0.0
 10
-44.49938775114867
 20
36.10426141713366
 30
0.0
 10
-44.51060517241683
 20
36.09509945652693
 30
0.0
 10
-44.51973780338443
 20
36.0838840637548
 30
0.0
 10
-44.52644631788894
 20
36.07104681768905
 30
0.0
 10
-44.53047373859289
 20
36.05715625192689
 30
0.0
 10
-44.53128833537772
 20
36.04752571838822
 30
0.0
 10
-44.5312357669801
 20
36.04273596304131
 30
0.0
 11
-44.45816916925031
 21
36.11581029178524
 31
0.0
 11
-44.47257070117848
 21
36.11456724099344
 31
0.0
 11
-44.48638931825104
 21
36.11053959323897
 31
0.0
 11
-44.49913595811392
 21
36.10384677597767
 31
0.0
 11
-44.51024253186466
 21
36.09477357787131
 31
0.0
 11
-44.51934828357877
 21
36.08359353801006
 31
0.0
 11
-44.52599177473246
 21
36.07089365876482
 31
0.0
 11
-44.53000850824446
 21
36.0570541309595
 31
0.0
 11
-44.5312357669801
 21
36.04273596304131
 31
0.0
  0
SPLINE
  5
46
330
2
100
AcDbEntity
  8
GAIKEI
  6
Continuous
 62
     1
100
AcDbSpline
210
0.0
220
0.0
230
1.0
 70
     8
 71
     3
 72
    15
 73
    11
 74
     9
 42
0.0000000001
 43
0.0000000001
 44
0.000001
 12
0.2924958065310856
 22
0.9562668054270886
 32
0.0
 13
0.9560185359243778
 23
0.293306254568513
 33
0.0
 40
0.0
 40
0.0
 40
0.0
 40
0.0
 40
0.0168063404896156
 40
0.0336211194742401
 40
0.0503583126183694
 40
0.0670008429354214
 40
0.0837880166497145
 40
0.1004733571095782
 40
0.117056898276071
 40
0.133783763303482
 40
0.133783763303482
 40
0.133783763303482
 40
0.133783763303482
 10
-44.04330599194389
 20
35.53440443173776
 30
0.0
 10
-44.04166739723845
 20
35.53976154691473
 30
0.0
 10
-44.03773781718538
 20
35.55029170747488
 30
0.0
 10
-44.02998214660129
 20
35.56522390038401
 30
0.0
 10
-44.02048640152901
 20
35.57905152306577
 30
0.0
 10
-44.00937653357203
 20
35.59160546526741
 30
0.0
 10
-43.99682185063954
 20
35.60268976181027
 30
0.0
 10
-43.98301817229318
 20
35.61213810145421
 30
0.0
 10
-43.96819071763334
 20
35.61982995526651
 30
0.0
 10
-43.95776036287336
 20
35.623729305721
 30
0.0
 10
-43.95242996520198
 20
35.62536467043162
 30
0.0
 11
-44.04330599194389
 21
35.53440443173776
 31
0.0
 11
-44.03742759091346
 21
35.55014960199532
 31
0.0
 11
-44.02967457018497
 21
35.5650702964324
 31
0.0
 11
-44.02019832108988
 21
35.57886648997249
 31
0.0
 11
-44.00916851168983
 21
35.59132915182477
 31
0.0
 11
-43.9965844704028
 21
35.60244004557956
 31
0.0
 11
-43.98281663410455
 21
35.61186596149378
 31
0.0
 11
-43.96809725571398
 21
35.61950489958639
 31
0.0
 11
-43.95242996520198
 21
35.62536467043162
 31
0.0
  0
SPLINE
  5
47
330
2
100
AcDbEntity
  8
GAIKEI
  6
Continuous
 62
     1
100
AcDbSpline
210
0.0
220
0.0
230
1.0
 70
     8
 71
     3
 72
    15
 73
    11
 74
     9
 42
0.0000000001
 43
0.0000000001
 44
0.000001
 12
-0.9560175965648596
 22
0.2933093163510996
 32
0.0
 13
-0.2924928147296205
 23
0.9562677205320401
 33
0.0
 40
0.0
 40
0.0
 40
0.0
 40
0.0
 40
0.0168063827191905
 40
0.0336212646659269
 40
0.0503584224868603
 40
0.0670009486666347
 40
0.0837881260374175
 40
0.1004733754750111
 40
0.1170569269589617
 40
0.1337837630426251
 40
0.1337837630426251
 40
0.1337837630426251
 40
0.1337837630426251
 10
-43.95242996520176
 20
3.885436449854694
 30
0.0
 10
-43.9577856977398
 20
3.887079606063259
 30
0.0
 10
-43.96831250022933
 20
3.891018385470573
 30
0.0
 10
-43.98323759665806
 20
3.898787843740421
 30
0.0
 10
-43.99705621224481
 20
3.908296754614639
 30
0.0
 10
-44.00959940765321
 20
3.919418744974834
 30
0.0
 10
-44.02067154372724
 20
3.931984105090528
 30
0.0
 10
-44.03010674180257
 20
3.945796719420094
 30
0.0
 10
-44.03778491399586
 20
3.960631192749609
 30
0.0
 10
-44.0416751654883
 20
3.971064910744253
 30
0.0
 10
-44.04330599194418
 20
3.976396688548732
 30
0.0
 11
-43.95242996520176
 21
3.885436449854694
 31
0.0
 11
-43.96817003970409
 21
3.891328607358389
 31
0.0
 11
-43.98308370100818
 21
3.899095371736734
 31
0.0
 11
-43.99687086899336
 21
3.908584685267896
 31
0.0
 11
-44.00932289184822
 21
3.919626497861429
 31
0.0
 11
-44.02042165666955
 21
3.932221242676916
 31
0.0
 11
-44.02983446792211
 21
3.945997931406566
 31
0.0
 11
-44.03745990678589
 21
3.960724319049234
 31
0.0
 11
-44.04330599194418
 21
3.976396688548732
 31
0.0
  0
SPLINE
  5
48
330
2
100
AcDbEntity
  8
GAIKEI
  6
Continuous
 62
     1
100
AcDbSpline
210
0.0
220
0.0
230
1.0
 70
     8
 71
     3
 72
    15
 73
    11
 74
     9
 42
0.0000000001
 43
0.0000000001
 44
0.000001
 12
-0.0109562642203222
 22
-0.999939978335867
 32
0.0
 13
0.9999396584535913
 23
0.0109854199608156
 33
0.0
 40
0.0
 40
0.0
 40
0.0
 40
0.0
 40
0.0144545160022977
 40
0.0288481527290739
 40
0.043244988342609
 40
0.0575864997005964
 40
0.0720054578610224
 40
0.0863379547938061
 40
0.1007485652535475
 40
0.1151186776865935
 40
0.1151186776865935
 40
0.1151186776865935
 40
0.1151186776865935
 10
-44.53123576697993
 20
3.468065157245348
 30
0.0
 10
-44.53128855614543
 20
3.463247274439282
 30
0.0
 10
-44.53046656494726
 20
3.453593657969967
 30
0.0
 10
-44.5264123153737
 20
3.439665401841665
 30
0.0
 10
-44.51969000877158
 20
3.426845386617614
 30
0.0
 10
-44.51052994553632
 20
3.415626421727978
 30
0.0
 10
-44.49931607778248
 20
3.406491890018834
 30
0.0
 10
-44.48647973680709
 20
3.399781589886025
 30
0.0
 10
-44.47258947757219
 20
3.395752970566618
 30
0.0
 10
-44.46295891768966
 20
3.394938207928269
 30
0.0
 10
-44.45816916925025
 20
3.39499082850159
 30
0.0
 11
-44.53123576697993
 21
3.468065157245348
 31
0.0
 11
-44.52999300038601
 21
3.453663627092566
 31
0.0
 11
-44.5259664898067
 21
3.43984462147722
 31
0.0
 11
-44.51927539991863
 21
3.42709709145862
 31
0.0
 11
-44.5102039879282
 21
3.415988991986637
 31
0.0
 11
-44.49902544044266
 21
3.406881418557816
 31
0.0
 11
-44.48632648920704
 21
3.400236238381069
 31
0.0
 11
-44.47248729573255
 21
3.396218358879593
 31
0.0
 11
-44.45816916925025
 21
3.39499082850159
 31
0.0
  0
SPLINE
  5
49
330
2
100
AcDbEntity
  8
GAIKEI
  6
Continuous
 62
     1
100
AcDbSpline
210
0.0
220
0.0
230
1.0
 70
     8
 71
     3
 72
    15
 73
    11
 74
     9
 42
0.0000000001
 43
0.0000000001
 44
0.000001
 12
0.0109562642203223
 22
-0.999939978335867
 32
0.0
 13
-0.9999396584535913
 23
0.0109854199608153
 33
0.0
 40
0.0
 40
0.0
 40
0.0
 40
0.0
 40
0.0144545160022977
 40
0.0288481527290739
 40
0.043244988342609
 40
0.0575864997005964
 40
0.0720054578610224
 40
0.0863379547938564
 40
0.1007485652535432
 40
0.1151186776865892
 40
0.1151186776865892
 40
0.1151186776865892
 40
0.1151186776865892
 10
12.17957969952999
 20
3.468065157245348
 30
0.0
 10
12.17963248869549
 20
3.463247274439282
 30
0.0
 10
12.17881049749735
 20
3.453593657969967
 30
0.0
 10
12.17475624792382
 20
3.439665401841665
 30
0.0
 10
12.16803394132159
 20
3.426845386617614
 30
0.0
 10
12.15887387808644
 20
3.415626421727985
 30
0.0
 10
12.14766001033246
 20
3.406491890018784
 30
0.0
 10
12.13482366935716
 20
3.399781589886046
 30
0.0
 10
12.12093341012223
 20
3.395752970566626
 30
0.0
 10
12.11130285023972
 20
3.394938207928269
 30
0.0
 10
12.10651310180032
 20
3.39499082850159
 30
0.0
 11
12.17957969952999
 21
3.468065157245348
 31
0.0
 11
12.17833693293608
 21
3.453663627092566
 31
0.0
 11
12.17431042235677
 21
3.43984462147722
 31
0.0
 11
12.16761933246869
 21
3.42709709145862
 31
0.0
 11
12.15854792047827
 21
3.415988991986637
 31
0.0
 11
12.14736937299273
 21
3.406881418557816
 31
0.0
 11
12.13467042175705
 21
3.400236238381069
 31
0.0
 11
12.12083122828261
 21
3.396218358879593
 31
0.0
 11
12.10651310180032
 21
3.39499082850159
 31
0.0
  0
SPLINE
  5
4A
330
2
100
AcDbEntity
  8
GAIKEI
  6
Continuous
 62
     1
100
AcDbSpline
210
0.0
220
0.0
230
1.0
 70
     8
 71
     3
 72
    15
 73
    11
 74
     9
 42
0.0000000001
 43
0.0000000001
 44
0.000001
 12
0.9560175965647365
 22
0.2933093163515013
 32
0.0
 13
0.2924928147293096
 23
0.9562677205321351
 33
0.0
 40
0.0
 40
0.0
 40
0.0
 40
0.0
 40
0.0168063827191905
 40
0.0336212646659269
 40
0.0503584224868135
 40
0.0670009486665879
 40
0.0837881260374083
 40
0.1004733754750018
 40
0.1170569269589524
 40
0.1337837630426159
 40
0.1337837630426159
 40
0.1337837630426159
 40
0.1337837630426159
 10
11.60077389775182
 20
3.885436449854694
 30
0.0
 10
11.60612963028987
 20
3.887079606063259
 30
0.0
 10
11.61665643277939
 20
3.891018385470566
 30
0.0
 10
11.63158152920812
 20
3.898787843740386
 30
0.0
 10
11.64540014479482
 20
3.908296754614653
 30
0.0
 10
11.65794334020324
 20
3.919418744974862
 30
0.0
 10
11.66901547627725
 20
3.931984105090492
 30
0.0
 10
11.67845067435269
 20
3.945796719420116
 30
0.0
 10
11.68612884654592
 20
3.960631192749609
 30
0.0
 10
11.69001909803836
 20
3.971064910744253
 30
0.0
 10
11.69164992449424
 20
3.976396688548732
 30
0.0
 11
11.60077389775182
 21
3.885436449854694
 31
0.0
 11
11.61651397225415
 21
3.891328607358389
 31
0.0
 11
11.63142763355824
 21
3.899095371736734
 31
0.0
 11
11.64521480154337
 21
3.908584685267896
 31
0.0
 11
11.65766682439823
 21
3.919626497861429
 31
0.0
 11
11.66876558921962
 21
3.932221242676916
 31
0.0
 11
11.67817840047217
 21
3.945997931406566
 31
0.0
 11
11.68580383933596
 21
3.960724319049234
 31
0.0
 11
11.69164992449424
 21
3.976396688548732
 31
0.0
  0
LINE
  5
4B
330
2
100
AcDbEntity
  8
GAIKEI
  6
Continuous
 62
     1
100
AcDbLine
 10
13.51420366627502
 20
2.017629760143336
 30
0.0
 11
-45.86585973372495
 21
2.017629760143336
 31
0.0
  0
LINE
  5
4C
330
2
100
AcDbEntity
  8
GAIKEI
  6
Continuous
 62
     1
100
AcDbLine
 10
-44.68979293372501
 20
36.04967381014331
 30
0.0
 11
-44.68979293372501
 21
3.461127310143353
 31
0.0
  0
LINE
  5
4D
330
2
100
AcDbEntity
  8
GAIKEI
  6
Continuous
 62
     1
100
AcDbLine
 10
12.11344521627501
 20
3.236435660143342
 30
0.0
 11
-44.46510128372494
 21
3.236435660143342
 31
0.0
  0
LINE
  5
4E
330
2
100
AcDbEntity
  8
GAIKEI
  6
Continuous
 62
     1
100
AcDbLine
 10
12.33813686627502
 20
36.04967381014331
 30
0.0
 11
12.33813686627502
 21
3.461127310143353
 31
0.0
  0
LINE
  5
4F
330
2
100
AcDbEntity
  8
GAIKEI
  6
Continuous
 62
     1
100
AcDbLine
 10
-44.46510128372494
 20
36.27436546014332
 30
0.0
 11
12.11344521627501
 21
36.27436546014332
 31
0.0
  0
LINE
  5
50
330
2
100
AcDbEntity
  8
GAIKEI
  6
Continuous
 62
     1
100
AcDbLine
 10
-45.43207803372496
 20
2.274150560143368
 30
0.0
 11
-45.31957803372494
 21
2.274150560143368
 31
0.0
  0
LINE
  5
51
330
2
100
AcDbEntity
  8
GAIKEI
  6
Continuous
 62
     1
100
AcDbLine
 10
-45.43207803372496
 20
2.386650560143323
 30
0.0
 11
-45.31957803372494
 21
2.386650560143323
 31
0.0
  0
LINE
  5
52
330
2
100
AcDbEntity
  8
GAIKEI
  6
Continuous
 62
     1
100
AcDbLine
 10
-43.48582803372494
 20
2.180305410143319
 30
0.0
 11
-43.48582803372494
 21
2.480495710143316
 31
0.0
  0
LINE
  5
53
330
2
100
AcDbEntity
  8
GAIKEI
  6
Continuous
 62
     1
100
AcDbLine
 10
-43.83582803372497
 20
2.180305410143319
 30
0.0
 11
-43.83582803372497
 21
2.480495710143316
 31
0.0
  0
LINE
  5
54
330
2
100
AcDbEntity
  8
GAIKEI
  6
Continuous
 62
     1
100
AcDbLine
 10
-45.31957803372494
 20
2.274150560143368
 30
0.0
 11
-45.31957803372494
 21
2.386650560143323
 31
0.0
  0
LINE
  5
55
330
2
100
AcDbEntity
  8
GAIKEI
  6
Continuous
 62
     1
100
AcDbLine
 10
-45.43207803372496
 20
2.274150560143368
 30
0.0
 11
-45.43207803372496
 21
2.386650560143323
 31
0.0
  0
LINE
  5
56
330
2
100
AcDbEntity
  8
GAIKEI
  6
Continuous
 62
     1
100
AcDbLine
 10
-43.81092318372497
 20
2.5054005601433
 30
0.0
 11
-43.51073288372492
 21
2.5054005601433
 31
0.0
  0
LINE
  5
57
330
2
100
AcDbEntity
  8
GAIKEI
  6
Continuous
 62
     1
100
AcDbLine
 10
-43.81092318372497
 20
2.155400560143334
 30
0.0
 11
-43.51073288372492
 21
2.155400560143334
 31
0.0
  0
LINE
  5
58
330
2
100
AcDbEntity
  8
GAIKEI
  6
Continuous
 62
     1
100
AcDbLine
 10
-45.86585973372495
 20
37.49317136014332
 30
0.0
 11
13.51420366627502
 21
37.49317136014332
 31
0.0
  0
LINE
  5
59
330
2
100
AcDbEntity
  8
GAIKEI
  6
Continuous
 62
     1
100
AcDbLine
 10
-46.09268878372501
 20
1.790800710143287
 30
0.0
 11
13.74103271627507
 21
1.790800710143287
 31
0.0
  0
LINE
  5
5A
330
2
100
AcDbEntity
  8
GAIKEI
  6
Continuous
 62
     1
100
AcDbLine
 10
13.74103271627507
 20
37.72000041014332
 30
0.0
 11
-46.09268878372501
 21
37.72000041014332
 31
0.0
  0
LINE
  5
5B
330
2
100
AcDbEntity
  8
GAIKEI
  6
Continuous
 62
     1
100
AcDbLine
 10
12.088772716275
 20
36.11559616014336
 30
0.0
 11
11.60077391627499
 21
35.62536466014331
 31
0.0
  0
LINE
  5
5C
330
2
100
AcDbEntity
  8
GAIKEI
  6
Continuous
 62
     1
100
AcDbLine
 10
12.088772716275
 20
36.11559616014336
 30
0.0
 11
12.10651311627504
 21
36.11581031014333
 31
0.0
  0
LINE
  5
5D
330
2
100
AcDbEntity
  8
GAIKEI
  6
Continuous
 62
     1
100
AcDbLine
 10
12.17957971627504
 20
36.04273596014332
 30
0.0
 11
12.17935786627504
 21
36.02434371014329
 31
0.0
  0
LINE
  5
5E
330
2
100
AcDbEntity
  8
GAIKEI
  6
Continuous
 62
     1
100
AcDbLine
 10
11.69164991627502
 20
35.53440441014334
 30
0.0
 11
12.17935786627504
 21
36.02434371014329
 31
0.0
  0
LINE
  5
5F
330
2
100
AcDbEntity
  8
GAIKEI
  6
Continuous
 62
     1
100
AcDbLine
 10
-44.53123578372498
 20
36.04273596014332
 30
0.0
 11
-44.53101393372498
 21
36.02434371014329
 31
0.0
  0
LINE
  5
60
330
2
100
AcDbEntity
  8
GAIKEI
  6
Continuous
 62
     1
100
AcDbLine
 10
-44.44042878372499
 20
36.11559616014336
 30
0.0
 11
-44.45816918372497
 21
36.11581031014333
 31
0.0
  0
LINE
  5
61
330
2
100
AcDbEntity
  8
GAIKEI
  6
Continuous
 62
     1
100
AcDbLine
 10
-44.44042878372499
 20
36.11559616014336
 30
0.0
 11
-43.95242998372498
 21
35.62536466014331
 31
0.0
  0
LINE
  5
62
330
2
100
AcDbEntity
  8
GAIKEI
  6
Continuous
 62
     1
100
AcDbLine
 10
-44.04330598372496
 20
35.53440441014334
 30
0.0
 11
-44.53101393372498
 21
36.02434371014329
 31
0.0
  0
LINE
  5
63
330
2
100
AcDbEntity
  8
GAIKEI
  6
Continuous
 62
     1
100
AcDbLine
 10
-43.95242998372498
 20
3.885436460143353
 30
0.0
 11
-44.44042878372499
 21
3.395204960143303
 31
0.0
  0
LINE
  5
64
330
2
100
AcDbEntity
  8
GAIKEI
  6
Continuous
 62
     1
100
AcDbLine
 10
-44.45816918372497
 20
3.394990810143326
 30
0.0
 11
-44.44042878372499
 21
3.395204960143303
 31
0.0
  0
LINE
  5
65
330
2
100
AcDbEntity
  8
GAIKEI
  6
Continuous
 62
     1
100
AcDbLine
 10
-44.53101393372498
 20
3.486457410143373
 30
0.0
 11
-44.53123578372498
 21
3.468065160143339
 31
0.0
  0
LINE
  5
66
330
2
100
AcDbEntity
  8
GAIKEI
  6
Continuous
 62
     1
100
AcDbLine
 10
-44.53101393372498
 20
3.486457410143373
 30
0.0
 11
-44.04330598372496
 21
3.976396710143319
 31
0.0
  0
LINE
  5
67
330
2
100
AcDbEntity
  8
GAIKEI
  6
Continuous
 62
     1
100
AcDbLine
 10
12.17935786627504
 20
3.486457410143373
 30
0.0
 11
12.17957971627504
 21
3.468065160143339
 31
0.0
  0
LINE
  5
68
330
2
100
AcDbEntity
  8
GAIKEI
  6
Continuous
 62
     1
100
AcDbLine
 10
12.10651311627504
 20
3.394990810143326
 30
0.0
 11
12.088772716275
 21
3.395204960143303
 31
0.0
  0
LINE
  5
69
330
2
100
AcDbEntity
  8
GAIKEI
  6
Continuous
 62
     1
100
AcDbLine
 10
11.60077391627499
 20
3.885436460143353
 30
0.0
 11
12.088772716275
 21
3.395204960143303
 31
0.0
  0
LINE
  5
6A
330
2
100
AcDbEntity
  8
GAIKEI
  6
Continuous
 62
     1
100
AcDbLine
 10
12.17935786627504
 20
3.486457410143373
 30
0.0
 11
11.69164991627502
 21
3.976396710143319
 31
0.0
  0
LINE
  5
6B
330
2
100
AcDbEntity
  8
GAIKEI
  6
Continuous
 62
     1
100
AcDbLine
 10
-44.44042878372499
 20
36.11559616014336
 30
0.0
 11
12.088772716275
 21
36.11559616014336
 31
0.0
  0
LINE
  5
6C
330
2
100
AcDbEntity
  8
GAIKEI
  6
Continuous
 62
     1
100
AcDbLine
 10
12.088772716275
 20
3.395204960143303
 30
0.0
 11
-44.44042878372499
 21
3.395204960143303
 31
0.0
  0
LINE
  5
6D
330
2
100
AcDbEntity
  8
GAIKEI
  6
Continuous
 62
     1
100
AcDbLine
 10
-44.53101393372498
 20
36.02434371014329
 30
0.0
 11
-44.53101393372498
 21
3.486457410143373
 31
0.0
  0
LINE
  5
6E
330
2
100
AcDbEntity
  8
GAIKEI
  6
Continuous
 62
     1
100
AcDbLine
 10
12.17935786627504
 20
36.02434371014329
 30
0.0
 11
12.17935786627504
 21
3.486457410143373
 31
0.0
  0
LINE
  5
6F
330
2
100
AcDbEntity
  8
GAIKEI
  6
Continuous
 62
     1
100
AcDbLine
 10
11.55464646627502
 20
35.63272141014335
 30
0.0
 11
-43.90630253372495
 21
35.63272141014335
 31
0.0
  0
LINE
  5
70
330
2
100
AcDbEntity
  8
GAIKEI
  6
Continuous
 62
     1
100
AcDbLine
 10
-43.90630253372495
 20
3.87807971014331
 30
0.0
 11
11.55464646627502
 21
3.87807971014331
 31
0.0
  0
LINE
  5
71
330
2
100
AcDbEntity
  8
GAIKEI
  6
Continuous
 62
     1
100
AcDbLine
 10
11.69897431627498
 20
4.022423960143385
 30
0.0
 11
11.69897431627498
 21
35.48837716014328
 31
0.0
  0
LINE
  5
72
330
2
100
AcDbEntity
  8
GAIKEI
  6
Continuous
 62
     1
100
AcDbLine
 10
-44.05063038372498
 20
4.022423960143385
 30
0.0
 11
-44.05063038372498
 21
35.48837716014328
 31
0.0
  0
LINE
  5
73
330
2
100
AcDbEntity
  8
GAIKEI
  6
Continuous
 62
     1
100
AcDbLine
 10
11.63917196627505
 20
35.47364596014336
 30
0.0
 11
11.63917196627505
 21
4.037155160143299
 31
0.0
  0
LINE
  5
74
330
2
100
AcDbEntity
  8
GAIKEI
  6
Continuous
 62
     1
100
AcDbLine
 10
-43.990828033725
 20
35.47364596014336
 30
0.0
 11
-43.990828033725
 21
4.037155160143299
 31
0.0
  0
LINE
  5
75
330
2
100
AcDbEntity
  8
GAIKEI
  6
Continuous
 62
     1
100
AcDbLine
 10
11.53991736627506
 20
35.57290056014335
 30
0.0
 11
-43.891573433725
 21
35.57290056014335
 31
0.0
  0
LINE
  5
76
330
2
100
AcDbEntity
  8
GAIKEI
  6
Continuous
 62
     1
100
AcDbLine
 10
11.53991736627506
 20
3.937900560143305
 30
0.0
 11
-43.891573433725
 21
3.937900560143305
 31
0.0
  0
LINE
  5
77
330
2
100
AcDbEntity
  8
GAIKEI
  6
Continuous
100
AcDbLine
 10
13.87444606627503
 20
37.85540056014332
 30
0.0
 11
-46.22610213372496
 21
37.85540056014332
 31
0.0
  0
LINE
  5
78
330
2
100
AcDbEntity
  8
GAIKEI
  6
Continuous
100
AcDbLine
 10
13.87444606627503
 20
1.655400560143334
 30
0.0
 11
-46.22610213372496
 21
1.655400560143334
 31
0.0
  0
ELLIPSE
  5
79
330
2
100
AcDbEntity
  8
GAIKEI
  6
Continuous
 62
     1
100
AcDbEllipse
 10
-43.51092353372496
 20
2.480305060143336
 30
0.0
 11
0.0178124651972453
 21
0.0178124651972453
 31
0.0
210
0.0
220
0.0
230
1.0
 40
0.9924330000012384
 41
5.50158524205745
 42
7.064785372302008
  0
ELLIPSE
  5
7A
330
2
100
AcDbEntity
  8
GAIKEI
  6
Continuous
 62
     1
100
AcDbEllipse
 10
-44.46448413372496
 20
3.461744460143336
 30
0.0
 11
0.1595354047728925
 21
0.1595354047728925
 31
0.0
210
0.0
220
0.0
230
1.0
 40
0.997265000000023
 41
2.357564018062564
 42
3.925621289116989
  0
ELLIPSE
  5
7B
330
2
100
AcDbEntity
  8
GAIKEI
  6
Continuous
 62
     1
100
AcDbEllipse
 10
12.11282806627503
 20
3.461744460143336
 30
0.0
 11
-0.1595354047728925
 21
0.1595354047728925
 31
0.0
210
0.0
220
0.0
230
1.0
 40
0.997265000000023
 41
2.357564018062596
 42
3.925621289117021
  0
ELLIPSE
  5
7C
330
2
100
AcDbEntity
  8
GAIKEI
  6
Continuous
 62
     1
100
AcDbEllipse
 10
12.11282806627503
 20
36.04905666014332
 30
0.0
 11
0.159535404772889
 21
0.159535404772889
 31
0.0
210
0.0
220
0.0
230
0.9999999999999998
 40
0.9972650000000992
 41
5.499156671652616
 42
7.067213942706619
  0
ELLIPSE
  5
7D
330
2
100
AcDbEntity
  8
GAIKEI
  6
Continuous
 62
     1
100
AcDbEllipse
 10
-44.46448413372496
 20
36.04905666014332
 30
0.0
 11
-0.159535404772889
 21
0.159535404772889
 31
0.0
210
0.0
220
0.0
230
0.9999999999999998
 40
0.9972650000000992
 41
-0.7840286355270326
 42
0.7840286355269695
  0
ELLIPSE
  5
7E
330
2
100
AcDbEntity
  8
GAIKEI
  6
Continuous
 62
     1
100
AcDbEllipse
 10
-43.51092353372496
 20
2.180496060143298
 30
0.0
 11
-0.0178124651972667
 21
0.0178124651972667
 31
0.0
210
0.0
220
0.0
230
1.0
 40
0.9924329999999773
 41
2.359992588465603
 42
3.923192718713703
  0
ELLIPSE
  5
7F
330
2
100
AcDbEntity
  8
GAIKEI
  6
Continuous
 62
     1
100
AcDbEllipse
 10
-43.81073253372494
 20
2.480305060143336
 30
0.0
 11
-0.0178124651972667
 21
0.0178124651972667
 31
0.0
210
0.0
220
0.0
230
1.0
 40
0.992432999998279
 41
-0.7816000651239091
 42
0.7816000651241919
  0
ELLIPSE
  5
80
330
2
100
AcDbEntity
  8
GAIKEI
  6
Continuous
 62
     1
100
AcDbEllipse
 10
-43.81073253372494
 20
2.180496060143298
 30
0.0
 11
0.0178124651972631
 21
0.0178124651972631
 31
0.0
210
0.0
220
0.0
230
1.0
 40
0.9924330000003765
 41
2.359992588465516
 42
3.923192718713782
  0
ELLIPSE
  5
81
330
2
100
AcDbEntity
  8
GAIKEI
  6
Continuous
 62
     1
100
AcDbEllipse
 10
11.55069256627502
 20
35.4798856101433
 30
0.0
 11
0.085259189355603
 21
0.1284167499149077
 31
0.0
210
0.0
220
0.0
230
1.0
 40
0.9720119999987916
 41
0.2615629867885685
 42
0.5730948651545389
  0
ELLIPSE
  5
82
330
2
100
AcDbEntity
  8
GAIKEI
  6
Continuous
 62
     1
100
AcDbEllipse
 10
-43.90234863372495
 20
35.4798856101433
 30
0.0
 11
-0.0852591893556044
 21
0.1284167499149068
 31
0.0
210
0.0
220
0.0
230
1.0
 40
0.9720119999987918
 41
-0.5730948651545499
 42
-0.2615629867885796
  0
ELLIPSE
  5
83
330
2
100
AcDbEntity
  8
GAIKEI
  6
Continuous
 62
     1
100
AcDbEllipse
 10
-43.90234863372495
 20
4.030915510143358
 30
0.0
 11
0.0852591893545455
 21
0.1284167499155941
 31
0.0
210
0.0
220
0.0
230
1.0
 40
0.9720119999983715
 41
3.403155640370685
 42
3.714687518736063
  0
ELLIPSE
  5
84
330
2
100
AcDbEntity
  8
GAIKEI
  6
Continuous
 62
     1
100
AcDbEllipse
 10
11.55069256627502
 20
4.030915510143358
 30
0.0
 11
-0.0852591893577444
 21
0.1284167499135195
 31
0.0
210
0.0
220
0.0
230
1.0
 40
0.9720119999996089
 41
2.568497788419069
 42
2.880029666783867
  0
ELLIPSE
  5
85
330
2
100
AcDbEntity
  8
GAIKEI
  6
Continuous
 62
     1
100
AcDbEllipse
 10
11.54613056627505
 20
4.026385760143341
 30
0.0
 11
-0.12846358223822
 21
0.0852052786893615
 31
0.0
210
0.0
220
0.0
230
1.0
 40
0.9719460000015663
 41
3.403369935232094
 42
3.714202442917041
  0
ELLIPSE
  5
86
330
2
100
AcDbEntity
  8
GAIKEI
  6
Continuous
 62
     1
100
AcDbEllipse
 10
11.54613056627505
 20
35.48441536014332
 30
0.0
 11
0.1284635822350019
 21
0.0852052786943477
 31
0.0
210
0.0
220
0.0
230
1.0
 40
0.9719460000026607
 41
-0.5726097893656941
 42
-0.2617772816832753
  0
ELLIPSE
  5
87
330
2
100
AcDbEntity
  8
GAIKEI
  6
Continuous
 62
     1
100
AcDbEllipse
 10
-43.89778663372498
 20
35.48441536014332
 30
0.0
 11
-0.1284635822448187
 21
0.085205278679174
 31
0.0
210
0.0
220
0.0
230
1.0
 40
0.9719459999970283
 41
0.2617772815647359
 42
0.5726097892496785
  0
ELLIPSE
  5
88
330
2
100
AcDbEntity
  8
GAIKEI
  6
Continuous
 62
     1
100
AcDbEllipse
 10
-43.89778663372498
 20
4.026385760143341
 30
0.0
 11
0.1284635822291533
 21
0.0852052787034152
 31
0.0
210
0.0
220
0.0
230
1.0
 40
0.9719460000057027
 41
2.568982864154635
 42
2.879815371837112
  0
ELLIPSE
  5
89
330
2
100
AcDbEntity
  8
GAIKEI
  6
Continuous
 62
     1
100
AcDbEllipse
 10
11.53842096627505
 20
4.038651560143364
 30
0.0
 11
-0.0717687988192779
 21
0.0717687988192779
 31
0.0
210
0.0
220
0.0
230
1.0
 40
0.9852569999999586
 41
2.363620831665282
 42
3.919564475514587
  0
ELLIPSE
  5
8A
330
2
100
AcDbEntity
  8
GAIKEI
  6
Continuous
 62
     1
100
AcDbEllipse
 10
-43.89007703372499
 20
4.038651560143364
 30
0.0
 11
0.0717687988192779
 21
0.0717687988192779
 31
0.0
210
0.0
220
0.0
230
1.0
 40
0.9852570000000294
 41
2.363620831664963
 42
3.91956447551427
  0
ELLIPSE
  5
8B
330
2
100
AcDbEntity
  8
GAIKEI
  6
Continuous
 62
     1
100
AcDbEllipse
 10
-43.89007703372499
 20
35.47214956014329
 30
0.0
 11
-0.0717687988192637
 21
0.0717687988192637
 31
0.0
210
0.0
220
0.0
230
1.0
 40
0.9852570000004961
 41
-0.7779718219248054
 42
0.7779718219250871
  0
ELLIPSE
  5
8C
330
2
100
AcDbEntity
  8
GAIKEI
  6
Continuous
 62
     1
100
AcDbEllipse
 10
11.53842096627505
 20
35.47214956014329
 30
0.0
 11
0.0717687988192637
 21
0.0717687988192637
 31
0.0
210
0.0
220
0.0
230
1.0
 40
0.9852570000004959
 41
5.505213485254499
 42
7.061157129104673
  0
LINE
  5
8D
330
2
100
AcDbEntity
  8
GAIKEI
  6
Continuous
 62
     7
100
AcDbLine
 10
14.568179666275
 20
37.12261858514336
 30
0.0
 11
14.568179666275
 21
2.388170385143325
 31
0.0
  0
SPLINE
  5
8E
330
2
100
AcDbEntity
  8
GAIKEI
  6
Continuous
 62
     7
100
AcDbSpline
210
0.0
220
0.0
230
1.0
 70
     8
 71
     3
 72
     9
 73
     5
 74
     0
 42
0.0000000001
 43
0.0000000001
 40
0.0
 40
0.0
 40
0.0
 40
0.0
 40
14.91719755737096
 40
30.09423971494808
 40
30.09423971494808
 40
30.09423971494808
 40
30.09423971494808
 10
16.17865331002508
 20
1.658507274596445
 30
0.0
 10
15.93003339480913
 20
1.658359236826299
 30
0.0
 10
15.42846276008845
 20
1.658161953056719
 30
0.0
 10
14.92689209841558
 20
1.658101597944721
 30
0.0
 10
14.67394139596251
 20
1.658092235533956
 30
0.0
  0
SPLINE
  5
8F
330
2
100
AcDbEntity
  8
GAIKEI
  6
Continuous
 62
     7
100
AcDbSpline
210
0.0
220
0.0
230
1.0
 70
     8
 71
     3
 72
     9
 73
     5
 74
     0
 42
0.0000000001
 43
0.0000000001
 40
0.0
 40
0.0
 40
0.0
 40
0.0
 40
3.131012357143871
 40
6.214320535329698
 40
6.214320535329698
 40
6.214320535329698
 40
6.214320535329698
 10
19.31937596627506
 20
1.865001415221456
 30
0.0
 10
19.31930654806535
 20
1.812817922108251
 30
0.0
 10
19.27602908151334
 20
1.705084194575306
 30
0.0
 10
19.16842028564588
 20
1.660977789615003
 30
0.0
 10
19.1170322162751
 20
1.66118061444024
 30
0.0
  0
SPLINE
  5
90
330
2
100
AcDbEntity
  8
GAIKEI
  6
Continuous
 62
     1
100
AcDbSpline
210
0.0
220
0.0
230
1.0
 70
     8
 71
     3
 72
     9
 73
     5
 74
     0
 42
0.0000000001
 43
0.0000000001
 40
0.0
 40
0.0
 40
0.0
 40
0.0
 40
0.0078534411293542
 40
0.0157394946032041
 40
0.0157394946032041
 40
0.0157394946032041
 40
0.0157394946032041
 10
16.17787206002503
 20
1.658592723815218
 30
0.0
 10
16.17799982656299
 20
1.658564297008979
 30
0.0
 10
16.17825952240628
 20
1.658522876226129
 30
0.0
 10
16.17852188328402
 20
1.658508677141696
 30
0.0
 10
16.17865331002508
 20
1.658507274596445
 30
0.0
  0
SPLINE
  5
91
330
2
100
AcDbEntity
  8
GAIKEI
  6
Continuous
 62
     7
100
AcDbSpline
210
0.0
220
0.0
230
1.0
 70
     8
 71
     3
 72
     9
 73
     5
 74
     0
 42
0.0000000001
 43
0.0000000001
 40
0.0
 40
0.0
 40
0.0
 40
0.0
 40
29.39737301754986
 40
58.7946987442469
 40
58.7946987442469
 40
58.7946987442469
 40
58.7946987442469
 10
19.11838719674381
 20
1.660899852721456
 30
0.0
 10
18.6284314633823
 20
1.660211461052313
 30
0.0
 10
17.64852019406589
 20
1.659255399679182
 30
0.0
 10
16.66860867991113
 20
1.658747501821437
 30
0.0
 10
16.17865331002508
 20
1.658507274596445
 30
0.0
  0
SPLINE
  5
92
330
2
100
AcDbEntity
  8
GAIKEI
  6
Continuous
 62
     1
100
AcDbSpline
210
0.0
220
0.0
230
1.0
 70
     8
 71
     3
 72
     9
 73
     5
 74
     0
 42
0.0000000001
 43
0.0000000001
 40
0.0
 40
0.0
 40
0.0
 40
0.0
 40
0.0137885163468726
 40
0.0277971563202312
 40
0.0277971563202312
 40
0.0277971563202312
 40
0.0277971563202312
 10
19.11838719674381
 20
1.660899852721456
 30
0.0
 10
19.11815739081373
 20
1.660900961684944
 30
0.0
 10
19.11769341455215
 20
1.66095486330613
 30
0.0
 10
19.11724910883038
 20
1.661094189418179
 30
0.0
 10
19.1170322162751
 20
1.66118061444024
 30
0.0
  0
SPLINE
  5
93
330
2
100
AcDbEntity
  8
GAIKEI
  6
Continuous
 62
     7
100
AcDbSpline
210
0.0
220
0.0
230
1.0
 70
     8
 71
     3
 72
     9
 73
     5
 74
     0
 42
0.0000000001
 43
0.0000000001
 40
0.0
 40
0.0
 40
0.0
 40
0.0
 40
2.608801521942092
 40
5.218901201754872
 40
5.218901201754872
 40
5.218901201754872
 40
5.218901201754872
 10
14.47424657174383
 20
1.857872508971468
 30
0.0
 10
14.4742785299029
 20
1.814392495350489
 30
0.0
 10
14.50531559061767
 20
1.725267853614127
 30
0.0
 10
14.5846219076459
 20
1.674068563069738
 30
0.0
 10
14.62689549752508
 20
1.66380512615899
 30
0.0
  0
LINE
  5
94
330
2
100
AcDbEntity
  8
GAIKEI
  6
Continuous
 62
     1
100
AcDbLine
 10
14.47424665191147
 20
1.857789205666733
 30
0.0
 11
14.84430291627507
 21
2.22820928514335
 31
0.0
  0
SPLINE
  5
95
330
2
100
AcDbEntity
  8
GAIKEI
  6
Continuous
 62
     1
100
AcDbSpline
210
0.0
220
0.0
230
1.0
 70
     8
 71
     3
 72
     9
 73
     5
 74
     0
 42
0.0000000001
 43
0.0000000001
 40
0.0
 40
0.0
 40
0.0
 40
0.0
 40
3.00649021551401
 40
6.013928399846387
 40
6.013928399846387
 40
6.013928399846387
 40
6.013928399846387
 10
15.04429051705631
 20
2.028209423033956
 30
0.0
 10
14.99446015319984
 20
2.033478537247219
 30
0.0
 10
14.89442398666756
 20
2.078355226820576
 30
0.0
 10
14.84957012363918
 20
2.178358577496055
 30
0.0
 10
14.84422948190001
 20
2.22819721600274
 30
0.0
  0
LINE
  5
96
330
2
100
AcDbEntity
  8
GAIKEI
  6
Continuous
 62
     1
100
AcDbLine
 10
14.67387477558202
 20
1.658153332145218
 30
0.0
 11
15.04429656627508
 21
2.028211385143322
 31
0.0
  0
SPLINE
  5
97
330
2
100
AcDbEntity
  8
GAIKEI
  6
Continuous
 62
     1
100
AcDbSpline
210
0.0
220
0.0
230
1.0
 70
     8
 71
     3
 72
     9
 73
     5
 74
     0
 42
0.0000000001
 43
0.0000000001
 40
0.0
 40
0.0
 40
0.0
 40
0.0
 40
0.0029296476091856
 40
0.8659950720233828
 40
0.8659950720233828
 40
0.8659950720233828
 40
0.8659950720233828
 10
14.81047704049376
 20
1.794505809752706
 30
0.0
 10
14.81042835897312
 20
1.79450203743147
 30
0.0
 10
14.79597296533382
 20
1.79504700558283
 30
0.0
 10
14.78185695534932
 20
1.798661036800922
 30
0.0
 10
14.76755711861881
 20
1.80021870037774
 30
0.0
  0
LINE
  5
98
330
2
100
AcDbEntity
  8
GAIKEI
  6
Continuous
 62
     1
100
AcDbLine
 10
15.04429051627505
 20
2.028209435143367
 30
0.0
 11
18.80338476627503
 21
2.028209435143367
 31
0.0
  0
LINE
  5
99
330
2
100
AcDbEntity
  8
GAIKEI
  6
Continuous
 62
     1
100
AcDbLine
 10
19.23696676627503
 20
1.993559285143362
 30
0.0
 11
19.00334866627509
 21
2.228156685143346
 31
0.0
  0
SPLINE
  5
9A
330
2
100
AcDbEntity
  8
GAIKEI
  6
Continuous
 62
     1
100
AcDbSpline
210
0.0
220
0.0
230
1.0
 70
     8
 71
     3
 72
     9
 73
     5
 74
     0
 42
0.0000000001
 43
0.0000000001
 40
0.0
 40
0.0
 40
0.0
 40
0.0
 40
0.432326092216564
 40
0.8912202709941183
 40
0.8912202709941183
 40
0.8912202709941183
 40
0.8912202709941183
 10
19.23111913033756
 20
1.949376415221479
 30
0.0
 10
19.2318916027358
 20
1.956540323237618
 30
0.0
 10
19.23354997631429
 20
1.971301935229632
 30
0.0
 10
19.23570765462307
 20
1.986003695475403
 30
0.0
 10
19.23700291940008
 20
1.993541454283956
 30
0.0
  0
SPLINE
  5
9B
330
2
100
AcDbEntity
  8
GAIKEI
  6
Continuous
 62
     1
100
AcDbSpline
210
0.0
220
0.0
230
1.0
 70
     8
 71
     3
 72
     9
 73
     5
 74
     0
 42
0.0000000001
 43
0.0000000001
 40
0.0
 40
0.0
 40
0.0
 40
0.0
 40
1.656235736553358
 40
4.523581821308481
 40
4.523581821308481
 40
4.523581821308481
 40
4.523581821308481
 10
19.07999608346256
 20
1.797874950377718
 30
0.0
 10
19.10745046438239
 20
1.800744420951218
 30
0.0
 10
19.1817381610906
 20
1.826294859987115
 30
0.0
 10
19.22603175296001
 20
1.901858873142373
 30
0.0
 10
19.23111913033756
 20
1.949376415221479
 30
0.0
  0
SPLINE
  5
9C
330
2
100
AcDbEntity
  8
GAIKEI
  6
Continuous
 62
     1
100
AcDbSpline
210
0.0
220
0.0
230
1.0
 70
     8
 71
     3
 72
     9
 73
     5
 74
     0
 42
0.0000000001
 43
0.0000000001
 40
0.0
 40
0.0
 40
0.0
 40
0.0
 40
0.4082020433341026
 40
0.8156013125728581
 40
0.8156013125728581
 40
0.8156013125728581
 40
0.8156013125728581
 10
19.03956639596254
 20
1.792577098815229
 30
0.0
 10
19.04627754947398
 20
1.793693443911422
 30
0.0
 10
19.05973486097855
 20
1.795637847497403
 30
0.0
 10
19.0732425801749
 20
1.797172008026848
 30
0.0
 10
19.07999608346256
 20
1.797874950377718
 30
0.0
  0
LINE
  5
9D
330
2
100
AcDbEntity
  8
GAIKEI
  6
Continuous
 62
     1
100
AcDbLine
 10
18.80338471627499
 20
2.028218035143368
 30
0.0
 11
19.03967496627501
 21
1.792597785143357
 31
0.0
  0
SPLINE
  5
9E
330
2
100
AcDbEntity
  8
GAIKEI
  6
Continuous
 62
     1
100
AcDbSpline
210
0.0
220
0.0
230
1.0
 70
     8
 71
     3
 72
     9
 73
     5
 74
     0
 42
0.0000000001
 43
0.0000000001
 40
0.0
 40
0.0
 40
0.0
 40
0.0
 40
1.517294349229331
 40
5.91932657678531
 40
5.91932657678531
 40
5.91932657678531
 40
5.91932657678531
 10
19.00334813424376
 20
2.228160594908956
 30
0.0
 10
19.00147115703134
 20
2.202942109703769
 30
0.0
 10
18.97538455764561
 20
2.105949045407783
 30
0.0
 10
18.87634221691326
 20
2.035952509807202
 30
0.0
 10
18.80338475533756
 20
2.028209423033956
 30
0.0
  0
SPLINE
  5
9F
330
2
100
AcDbEntity
  8
GAIKEI
  6
Continuous
 62
     1
100
AcDbSpline
210
0.0
220
0.0
230
1.0
 70
     8
 71
     3
 72
     9
 73
     5
 74
     0
 42
0.0000000001
 43
0.0000000001
 40
0.0
 40
0.0
 40
0.0
 40
0.0
 40
0.4323703203184989
 40
0.8655681094042307
 40
0.8655681094042307
 40
0.8655681094042307
 40
0.8655681094042307
 10
14.61631200143131
 20
1.951476024596445
 30
0.0
 10
14.61553042907292
 20
1.958639687040999
 30
0.0
 10
14.61385195661614
 20
1.972968801271292
 30
0.0
 10
14.61177893244803
 20
1.98724861946539
 30
0.0
 10
14.61059911080633
 20
1.99437153240899
 30
0.0
  0
SPLINE
  5
A0
330
2
100
AcDbEntity
  8
GAIKEI
  6
Continuous
 62
     7
100
AcDbSpline
210
0.0
220
0.0
230
1.0
 70
     8
 71
     3
 72
     9
 73
     5
 74
     0
 42
0.0000000001
 43
0.0000000001
 40
0.0
 40
0.0
 40
0.0
 40
0.0
 40
0.4745863747763912
 40
0.9491031297469218
 40
0.9491031297469218
 40
0.9491031297469218
 40
0.9491031297469218
 10
14.67392918893131
 20
1.658153270690206
 30
0.0
 10
14.66601941991655
 20
1.658161123589763
 30
0.0
 10
14.65018886734981
 20
1.65912282661992
 30
0.0
 10
14.63458006850283
 20
1.661936029619653
 30
0.0
 10
14.62689549752508
 20
1.66380512615899
 30
0.0
  0
LINE
  5
A1
330
2
100
AcDbEntity
  8
GAIKEI
  6
Continuous
 62
     7
100
AcDbLine
 10
14.62689491627509
 20
1.663806435143328
 30
0.0
 11
14.62687031627502
 21
1.663704835143335
 31
0.0
  0
SPLINE
  5
A2
330
2
100
AcDbEntity
  8
GAIKEI
  6
Continuous
 62
     7
100
AcDbSpline
210
0.0
220
0.0
230
1.0
 70
     8
 71
     3
 72
     9
 73
     5
 74
     0
 42
0.0000000001
 43
0.0000000001
 40
0.0
 40
0.0
 40
0.0
 40
0.0
 40
0.000307133192375
 40
0.0012511406223669
 40
0.0012511406223669
 40
0.0012511406223669
 40
0.0012511406223669
 10
14.67394139596251
 20
1.658092235533956
 30
0.0
 10
14.67393647374751
 20
1.658090830258743
 30
0.0
 10
14.67393560951666
 20
1.658125617633118
 30
0.0
 10
14.67393055873469
 20
1.658137596976132
 30
0.0
 10
14.67392918893131
 20
1.658153270690206
 30
0.0
  0
SPLINE
  5
A3
330
2
100
AcDbEntity
  8
GAIKEI
  6
Continuous
 62
     7
100
AcDbSpline
210
0.0
220
0.0
230
1.0
 70
     8
 71
     3
 72
     9
 73
     5
 74
     0
 42
0.0000000001
 43
0.0000000001
 40
0.0
 40
0.0
 40
0.0
 40
0.0
 40
29.39312756231776
 40
58.78322706070662
 40
58.78322706070662
 40
58.78322706070662
 40
58.78322706070662
 10
16.17787206002503
 20
1.658592723815218
 30
0.0
 10
16.66775736950001
 20
1.658975953160961
 30
0.0
 10
17.64747765559446
 20
1.659499170722483
 30
0.0
 10
18.62719783096475
 20
1.66040989886693
 30
0.0
 10
19.1170322162751
 20
1.66118061444024
 30
0.0
  0
SPLINE
  5
A4
330
2
100
AcDbEntity
  8
GAIKEI
  6
Continuous
 62
     7
100
AcDbSpline
210
0.0
220
0.0
230
1.0
 70
     8
 71
     3
 72
     9
 73
     5
 74
     0
 42
0.0000000001
 43
0.0000000001
 40
0.0
 40
0.0
 40
0.0
 40
0.0
 40
15.17019098155854
 40
30.07885903948136
 40
30.07885903948136
 40
30.07885903948136
 40
30.07885903948136
 10
14.67392918893131
 20
1.658153270690206
 30
0.0
 10
14.92676570508161
 20
1.658163550890265
 30
0.0
 10
15.4280800223097
 20
1.658224587830886
 30
0.0
 10
15.92939430957938
 20
1.658434274943658
 30
0.0
 10
16.17787206002503
 20
1.658592723815218
 30
0.0
  0
LINE
  5
A5
330
2
100
AcDbEntity
  8
GAIKEI
  6
Continuous
 62
     7
100
AcDbLine
 10
14.55485752304082
 20
1.930394485143324
 30
0.0
 11
14.56818591627507
 21
2.388171735143373
 31
0.0
  0
LINE
  5
A6
330
2
100
AcDbEntity
  8
GAIKEI
  6
Continuous
 62
     1
100
AcDbLine
 10
14.568179666275
 20
2.388170385143325
 30
0.0
 11
14.00637546627502
 21
2.388170385143325
 31
0.0
  0
SPLINE
  5
A7
330
2
100
AcDbEntity
  8
GAIKEI
  6
Continuous
 62
     1
100
AcDbSpline
210
0.0
220
0.0
230
1.0
 70
     8
 71
     3
 72
     9
 73
     5
 74
     0
 42
0.0000000001
 43
0.0000000001
 40
0.0
 40
0.0
 40
0.0
 40
0.0
 40
42.29127472562083
 40
84.58180013910597
 40
84.58180013910597
 40
84.58180013910597
 40
84.58180013910597
 10
19.03956639596254
 20
1.792577098815229
 30
0.0
 10
18.33471218965996
 20
1.793301706948966
 30
0.0
 10
16.92501590792619
 20
1.794433485806223
 30
0.0
 10
15.51531911081531
 20
1.794673312747363
 30
0.0
 10
14.81047704049376
 20
1.794505809752706
 30
0.0
  0
SPLINE
  5
A8
330
2
100
AcDbEntity
  8
GAIKEI
  6
Continuous
 62
     1
100
AcDbSpline
210
0.0
220
0.0
230
1.0
 70
     8
 71
     3
 72
     9
 73
     5
 74
     0
 42
0.0000000001
 43
0.0000000001
 40
0.0
 40
0.0
 40
0.0
 40
0.0
 40
1.945368404595981
 40
4.533175250603751
 40
4.533175250603751
 40
4.533175250603751
 40
4.533175250603751
 10
14.76755711861881
 20
1.80021870037774
 30
0.0
 10
14.7352180165991
 20
1.802546978211978
 30
0.0
 10
14.66090184670611
 20
1.834247202065284
 30
0.0
 10
14.62094875258322
 20
1.908595874397974
 30
0.0
 10
14.61631200143131
 20
1.951476024596445
 30
0.0
  0
LINE
  5
A9
330
2
100
AcDbEntity
  8
GAIKEI
  6
Continuous
 62
     7
100
AcDbLine
 10
14.47424656627504
 20
1.857872485143332
 30
0.0
 11
14.47424656627504
 21
1.930394485143324
 31
0.0
  0
LINE
  5
AA
330
2
100
AcDbEntity
  8
GAIKEI
  6
Continuous
 62
     1
100
AcDbLine
 10
14.47424656627504
 20
1.857872485143332
 30
0.0
 11
14.47418551627504
 21
1.857872485143332
 31
0.0
  0
LINE
  5
AB
330
2
100
AcDbEntity
  8
GAIKEI
  6
Continuous
 62
     1
100
AcDbLine
 10
14.4741860162751
 20
1.857875235143353
 30
0.0
 11
14.47417381627508
 21
1.857875235143353
 31
0.0
  0
LINE
  5
AC
330
2
100
AcDbEntity
  8
GAIKEI
  6
Continuous
 62
     1
100
AcDbLine
 10
19.31937596627506
 20
1.865001435143312
 30
0.0
 11
19.31943701627506
 21
1.865001435143312
 31
0.0
  0
SPLINE
  5
AD
330
2
100
AcDbEntity
  8
GAIKEI
  6
Continuous
 62
     7
100
AcDbSpline
210
0.0
220
0.0
230
1.0
 70
     8
 71
     3
 72
     9
 73
     5
 74
     0
 42
0.0000000001
 43
0.0000000001
 40
0.0
 40
0.0
 40
0.0
 40
0.0
 40
15.17688766217361
 40
30.09423971492175
 40
30.09423971492175
 40
30.09423971492175
 40
30.09423971492175
 10
14.67394139596251
 20
37.85270893475269
 30
0.0
 10
14.92688952351455
 20
37.85270019863259
 30
0.0
 10
15.42846018534567
 20
37.85263922750932
 30
0.0
 10
15.93003081950508
 20
37.85244129271069
 30
0.0
 10
16.17865331002508
 20
37.85229389569025
 30
0.0
  0
SPLINE
  5
AE
330
2
100
AcDbEntity
  8
GAIKEI
  6
Continuous
 62
     7
100
AcDbSpline
210
0.0
220
0.0
230
1.0
 70
     8
 71
     3
 72
    10
 73
     6
 74
     0
 42
0.0000000001
 43
0.0000000001
 40
0.0
 40
0.0
 40
0.0
 40
0.0
 40
0.2724492370619989
 40
0.9948730228349431
 40
6.021982962936184
 40
6.021982962936184
 40
6.021982962936184
 40
6.021982962936184
 10
19.12368504830635
 20
37.86193745037775
 30
0.0
 10
19.12307009614346
 20
37.85743846318957
 30
0.0
 10
19.13344673328436
 20
37.84017896082872
 30
0.0
 10
19.24630005014296
 20
37.8627627144196
 30
0.0
 10
19.3199702570547
 20
37.72958330055264
 30
0.0
 10
19.31944920846251
 20
37.64579975506519
 30
0.0
  0
SPLINE
  5
AF
330
2
100
AcDbEntity
  8
GAIKEI
  6
Continuous
 62
     1
100
AcDbSpline
210
0.0
220
0.0
230
1.0
 70
     8
 71
     3
 72
     9
 73
     5
 74
     0
 42
0.0000000001
 43
0.0000000001
 40
0.0
 40
0.0
 40
0.0
 40
0.0
 40
0.0078759195154627
 40
0.0157679125147925
 40
0.0157679125147925
 40
0.0157679125147925
 40
0.0157679125147925
 10
16.17787206002503
 20
37.85219623944022
 30
0.0
 10
16.17800019226081
 20
37.85222474761065
 30
0.0
 10
16.1782590319857
 20
37.85227214801904
 30
0.0
 10
16.17852178429757
 20
37.85229249208863
 30
0.0
 10
16.17865331002508
 20
37.85229389569025
 30
0.0
  0
SPLINE
  5
B0
330
2
100
AcDbEntity
  8
GAIKEI
  6
Continuous
 62
     7
100
AcDbSpline
210
0.0
220
0.0
230
1.0
 70
     8
 71
     3
 72
     9
 73
     5
 74
     0
 42
0.0000000001
 43
0.0000000001
 40
0.0
 40
0.0
 40
0.0
 40
0.0
 40
29.41054305853916
 40
58.9011871801054
 40
58.9011871801054
 40
58.9011871801054
 40
58.9011871801054
 10
16.17865331002508
 20
37.85229389569025
 30
0.0
 10
16.66882897263519
 20
37.85206162246095
 30
0.0
 10
17.65051459181711
 20
37.85154172858842
 30
0.0
 10
18.6322032108435
 20
37.8566076832355
 30
0.0
 10
19.12368504830635
 20
37.86193745037775
 30
0.0
  0
SPLINE
  5
B1
330
2
100
AcDbEntity
  8
GAIKEI
  6
Continuous
 62
     7
100
AcDbSpline
210
0.0
220
0.0
230
1.0
 70
     8
 71
     3
 72
     9
 73
     5
 74
     0
 42
0.0000000001
 43
0.0000000001
 40
0.0
 40
0.0
 40
0.0
 40
0.0
 40
2.608801521942092
 40
5.218901201754872
 40
5.218901201754872
 40
5.218901201754872
 40
5.218901201754872
 10
14.47424657174383
 20
37.65291645428397
 30
0.0
 10
14.4742785299029
 20
37.69639646790489
 30
0.0
 10
14.50531559061767
 20
37.78552110964125
 30
0.0
 10
14.5846219076459
 20
37.8367204001857
 30
0.0
 10
14.62689549752508
 20
37.8469838370965
 30
0.0
  0
LINE
  5
B2
330
2
100
AcDbEntity
  8
GAIKEI
  6
Continuous
 62
     1
100
AcDbLine
 10
14.84429841627502
 20
37.28260993514334
 30
0.0
 11
14.47424668421223
 21
37.65302539868793
 31
0.0
  0
SPLINE
  5
B3
330
2
100
AcDbEntity
  8
GAIKEI
  6
Continuous
 62
     1
100
AcDbSpline
210
0.0
220
0.0
230
1.0
 70
     8
 71
     3
 72
     9
 73
     5
 74
     0
 42
0.0000000001
 43
0.0000000001
 40
0.0
 40
0.0
 40
0.0
 40
0.0
 40
3.00649021551401
 40
6.013928399846387
 40
6.013928399846387
 40
6.013928399846387
 40
6.013928399846387
 10
15.04429051705631
 20
37.48259174725268
 30
0.0
 10
14.99446015319984
 20
37.47732263303942
 30
0.0
 10
14.89442398666756
 20
37.43244594346612
 30
0.0
 10
14.84957012363918
 20
37.33244259279064
 30
0.0
 10
14.84422948190001
 20
37.28260395428396
 30
0.0
  0
LINE
  5
B4
330
2
100
AcDbEntity
  8
GAIKEI
  6
Continuous
 62
     1
100
AcDbLine
 10
14.67387051100627
 20
37.85264783263631
 30
0.0
 11
15.04429146627501
 21
37.48259053514335
 31
0.0
  0
SPLINE
  5
B5
330
2
100
AcDbEntity
  8
GAIKEI
  6
Continuous
 62
     1
100
AcDbSpline
210
0.0
220
0.0
230
1.0
 70
     8
 71
     3
 72
     9
 73
     5
 74
     0
 42
0.0000000001
 43
0.0000000001
 40
0.0
 40
0.0
 40
0.0
 40
0.0
 40
0.0029398165566283
 40
0.8660048802469422
 40
0.8660048802469422
 40
0.8660048802469422
 40
0.8660048802469422
 10
14.81047704049376
 20
37.71628315350273
 30
0.0
 10
14.8104281899972
 20
37.7162869389179
 30
0.0
 10
14.79604705583517
 20
37.71753125994957
 30
0.0
 10
14.78185694937258
 20
37.71214013283469
 30
0.0
 10
14.76755711861881
 20
37.71058246990896
 30
0.0
  0
LINE
  5
B6
330
2
100
AcDbEntity
  8
GAIKEI
  6
Continuous
 62
     1
100
AcDbLine
 10
15.04429051627505
 20
37.48257953514332
 30
0.0
 11
18.80338476627503
 21
37.48257953514332
 31
0.0
  0
LINE
  5
B7
330
2
100
AcDbEntity
  8
GAIKEI
  6
Continuous
 62
     1
100
AcDbLine
 10
19.23696761627502
 20
37.51724638514332
 30
0.0
 11
19.00334951627508
 21
37.28264898514334
 31
0.0
  0
SPLINE
  5
B8
330
2
100
AcDbEntity
  8
GAIKEI
  6
Continuous
 62
     1
100
AcDbSpline
210
0.0
220
0.0
230
1.0
 70
     8
 71
     3
 72
     9
 73
     5
 74
     0
 42
0.0000000001
 43
0.0000000001
 40
0.0
 40
0.0
 40
0.0
 40
0.0
 40
0.4322048384549121
 40
0.8909782849838181
 40
0.8909782849838181
 40
0.8909782849838181
 40
0.8909782849838181
 10
19.23111913033756
 20
37.56141254803396
 30
0.0
 10
19.23189138608177
 20
37.55425064926686
 30
0.0
 10
19.23354996382386
 20
37.53949310781127
 30
0.0
 10
19.23570799539936
 20
37.5247954916731
 30
0.0
 10
19.23700291940008
 20
37.51725971600269
 30
0.0
  0
SPLINE
  5
B9
330
2
100
AcDbEntity
  8
GAIKEI
  6
Continuous
 62
     1
100
AcDbSpline
210
0.0
220
0.0
230
1.0
 70
     8
 71
     3
 72
     9
 73
     5
 74
     0
 42
0.0000000001
 43
0.0000000001
 40
0.0
 40
0.0
 40
0.0
 40
0.0
 40
1.656235735949052
 40
4.523791651747365
 40
4.523791651747365
 40
4.523791651747365
 40
4.523791651747365
 10
19.07999608346256
 20
37.71292621990898
 30
0.0
 10
19.10745046437239
 20
37.7100567493365
 30
0.0
 10
19.18174290116212
 20
37.68450562166123
 30
0.0
 10
19.22603138066813
 20
37.60893356742457
 30
0.0
 10
19.23111913033756
 20
37.56141254803396
 30
0.0
  0
SPLINE
  5
BA
330
2
100
AcDbEntity
  8
GAIKEI
  6
Continuous
 62
     1
100
AcDbSpline
210
0.0
220
0.0
230
1.0
 70
     8
 71
     3
 72
     9
 73
     5
 74
     0
 42
0.0000000001
 43
0.0000000001
 40
0.0
 40
0.0
 40
0.0
 40
0.0
 40
0.4081843447942165
 40
0.8155696340608679
 40
0.8155696340608679
 40
0.8155696340608679
 40
0.8155696340608679
 10
19.03956639596254
 20
37.71821186444021
 30
0.0
 10
19.0462772584965
 20
37.71709556774573
 30
0.0
 10
19.05973501115818
 20
37.7151571831879
 30
0.0
 10
19.07324281192245
 20
37.71362913813823
 30
0.0
 10
19.07999608346256
 20
37.71292621990898
 30
0.0
  0
LINE
  5
BB
330
2
100
AcDbEntity
  8
GAIKEI
  6
Continuous
 62
     1
100
AcDbLine
 10
18.80337721627507
 20
37.48259608514337
 30
0.0
 11
19.03966741627505
 21
37.71821628514334
 31
0.0
  0
SPLINE
  5
BC
330
2
100
AcDbEntity
  8
GAIKEI
  6
Continuous
 62
     1
100
AcDbSpline
210
0.0
220
0.0
230
1.0
 70
     8
 71
     3
 72
     9
 73
     5
 74
     0
 42
0.0000000001
 43
0.0000000001
 40
0.0
 40
0.0
 40
0.0
 40
0.0
 40
1.517294350060504
 40
5.919467210682682
 40
5.919467210682682
 40
5.919467210682682
 40
5.919467210682682
 10
19.00334813424376
 20
37.28262836834648
 30
0.0
 10
19.00147115703032
 20
37.30784685356548
 30
0.0
 10
18.97538272516738
 20
37.40484073439387
 30
0.0
 10
18.8763445477075
 20
37.47484841310876
 30
0.0
 10
18.80338475533756
 20
37.48259174725268
 30
0.0
  0
SPLINE
  5
BD
330
2
100
AcDbEntity
  8
GAIKEI
  6
Continuous
 62
     1
100
AcDbSpline
210
0.0
220
0.0
230
1.0
 70
     8
 71
     3
 72
     9
 73
     5
 74
     0
 42
0.0000000001
 43
0.0000000001
 40
0.0
 40
0.0
 40
0.0
 40
0.0
 40
0.4322491288119172
 40
0.8653261276181417
 40
0.8653261276181417
 40
0.8653261276181417
 40
0.8653261276181417
 10
14.61631200143131
 20
37.55931293865894
 30
0.0
 10
14.61553064814427
 20
37.55215128415767
 30
0.0
 10
14.61385200324298
 20
37.53782623993817
 30
0.0
 10
14.61177860347368
 20
37.52355056471089
 30
0.0
 10
14.61059911080633
 20
37.51642963787771
 30
0.0
  0
SPLINE
  5
BE
330
2
100
AcDbEntity
  8
GAIKEI
  6
Continuous
 62
     7
100
AcDbSpline
210
0.0
220
0.0
230
1.0
 70
     8
 71
     3
 72
     9
 73
     5
 74
     0
 42
0.0000000001
 43
0.0000000001
 40
0.0
 40
0.0
 40
0.0
 40
0.0
 40
0.4745936221338634
 40
0.9491322391598641
 40
0.9491322391598641
 40
0.9491322391598641
 40
0.9491322391598641
 10
14.67392918893131
 20
37.85264789959644
 30
0.0
 10
14.66601929912735
 20
37.852640046577
 30
0.0
 10
14.65018828019651
 20
37.85167214191484
 30
0.0
 10
14.63458042254831
 20
37.84885301974924
 30
0.0
 10
14.62689549752508
 20
37.8469838370965
 30
0.0
  0
LINE
  5
BF
330
2
100
AcDbEntity
  8
GAIKEI
  6
Continuous
 62
     7
100
AcDbLine
 10
14.62689966627499
 20
37.84699623514331
 30
0.0
 11
14.62687666627505
 21
37.84709113514333
 31
0.0
  0
SPLINE
  5
C0
330
2
100
AcDbEntity
  8
GAIKEI
  6
Continuous
 62
     7
100
AcDbSpline
210
0.0
220
0.0
230
1.0
 70
     8
 71
     3
 72
     9
 73
     5
 74
     0
 42
0.0000000001
 43
0.0000000001
 40
0.0
 40
0.0
 40
0.0
 40
0.0
 40
0.000307133192375
 40
0.0012511406223669
 40
0.0012511406223669
 40
0.0012511406223669
 40
0.0012511406223669
 10
14.67394139596251
 20
37.85270893475269
 30
0.0
 10
14.67393647374751
 20
37.85271034002795
 30
0.0
 10
14.67393560951666
 20
37.85267555265358
 30
0.0
 10
14.67393055873469
 20
37.85266357331051
 30
0.0
 10
14.67392918893131
 20
37.85264789959644
 30
0.0
  0
SPLINE
  5
C1
330
2
100
AcDbEntity
  8
GAIKEI
  6
Continuous
 62
     7
100
AcDbSpline
210
0.0
220
0.0
230
1.0
 70
     8
 71
     3
 72
     9
 73
     5
 74
     0
 42
0.0000000001
 43
0.0000000001
 40
0.0
 40
0.0
 40
0.0
 40
0.0
 40
15.17019099972979
 40
30.07885911212641
 40
30.07885911212641
 40
30.07885911212641
 40
30.07885911212641
 10
14.67392918893131
 20
37.85264789959644
 30
0.0
 10
14.92676570538447
 20
37.85263761939638
 30
0.0
 10
15.4280800238572
 20
37.8525705850825
 30
0.0
 10
15.92939430867147
 20
37.85235468831235
 30
0.0
 10
16.17787206002503
 20
37.85219623944022
 30
0.0
  0
LINE
  5
C2
330
2
100
AcDbEntity
  8
GAIKEI
  6
Continuous
 62
     7
100
AcDbLine
 10
14.5548580249449
 20
37.58039448514342
 30
0.0
 11
14.56818631627504
 21
37.12262073514336
 31
0.0
  0
LINE
  5
C3
330
2
100
AcDbEntity
  8
GAIKEI
  6
Continuous
 62
     1
100
AcDbLine
 10
14.00480076627502
 20
37.12261858514336
 30
0.0
 11
14.568179666275
 21
37.12261858514336
 31
0.0
  0
SPLINE
  5
C4
330
2
100
AcDbEntity
  8
GAIKEI
  6
Continuous
 62
     1
100
AcDbSpline
210
0.0
220
0.0
230
1.0
 70
     8
 71
     3
 72
     9
 73
     5
 74
     0
 42
0.0000000001
 43
0.0000000001
 40
0.0
 40
0.0
 40
0.0
 40
0.0
 40
42.29127472562083
 40
84.58180013910597
 40
84.58180013910597
 40
84.58180013910597
 40
84.58180013910597
 10
19.03956639596254
 20
37.71821186444021
 30
0.0
 10
18.33471218965996
 20
37.71748725630647
 30
0.0
 10
16.92501590792619
 20
37.71635547744921
 30
0.0
 10
15.51531911081531
 20
37.71611565050813
 30
0.0
 10
14.81047704049376
 20
37.71628315350273
 30
0.0
  0
SPLINE
  5
C5
330
2
100
AcDbEntity
  8
GAIKEI
  6
Continuous
 62
     1
100
AcDbSpline
210
0.0
220
0.0
230
1.0
 70
     8
 71
     3
 72
     9
 73
     5
 74
     0
 42
0.0000000001
 43
0.0000000001
 40
0.0
 40
0.0
 40
0.0
 40
0.0
 40
1.945462263820249
 40
4.533269112037771
 40
4.533269112037771
 40
4.533269112037771
 40
4.533269112037771
 10
14.76755711861881
 20
37.71058246990896
 30
0.0
 10
14.73521645631729
 20
37.70825407974104
 30
0.0
 10
14.66090575851626
 20
37.67653612971435
 30
0.0
 10
14.62094875258719
 20
37.60219308889407
 30
0.0
 10
14.61631200143131
 20
37.55931293865894
 30
0.0
  0
LINE
  5
C6
330
2
100
AcDbEntity
  8
GAIKEI
  6
Continuous
 62
     7
100
AcDbLine
 10
14.47424656627504
 20
37.58039448514336
 30
0.0
 11
14.47424656627504
 21
37.65291643514337
 31
0.0
  0
LINE
  5
C7
330
2
100
AcDbEntity
  8
GAIKEI
  6
Continuous
 62
     1
100
AcDbLine
 10
14.47424656627504
 20
37.65291643514337
 30
0.0
 11
14.47418551627504
 21
37.65291643514337
 31
0.0
  0
LINE
  5
C8
330
2
100
AcDbEntity
  8
GAIKEI
  6
Continuous
 62
     1
100
AcDbLine
 10
14.84430271627502
 20
37.28259173514334
 30
0.0
 11
14.84430271627502
 21
2.228197235143341
 31
0.0
  0
LINE
  5
C9
330
2
100
AcDbEntity
  8
GAIKEI
  6
Continuous
 62
     7
100
AcDbLine
 10
19.31937596627506
 20
37.64579973514333
 30
0.0
 11
19.31937596627506
 21
1.865001435143312
 31
0.0
  0
LINE
  5
CA
330
2
100
AcDbEntity
  8
GAIKEI
  6
Continuous
 62
     7
100
AcDbLine
 10
19.31937596627506
 20
37.64579973514333
 30
0.0
 11
19.31943701627506
 21
37.64579973514333
 31
0.0
  0
LINE
  5
CB
330
2
100
AcDbEntity
  8
GAIKEI
  6
Continuous
 62
     1
100
AcDbLine
 10
19.00334811627499
 20
37.28262838514337
 30
0.0
 11
19.00334811627499
 21
2.228172785143328
 31
0.0
  0
LINE
  5
CC
330
2
100
AcDbEntity
  8
GAIKEI
  6
Continuous
 62
     1
100
AcDbLine
 10
19.23703951627499
 20
37.51725973514334
 30
0.0
 11
19.23703951627499
 21
1.993541435143356
 31
0.0
  0
LINE
  5
CD
330
2
100
AcDbEntity
  8
GAIKEI
  6
Continuous
 62
     1
100
AcDbLine
 10
14.61061131627502
 20
37.51642963514331
 30
0.0
 11
14.61061131627502
 21
1.994371535143329
 31
0.0
  0
LINE
  5
CE
330
2
100
AcDbEntity
  8
GAIKEI
  6
Continuous
 62
     7
100
AcDbLine
 10
14.01791232842493
 20
37.58039448514336
 30
0.0
 11
14.00481026627506
 21
37.13039118514331
 31
0.0
  0
LINE
  5
CF
330
2
100
AcDbEntity
  8
GAIKEI
  6
Continuous
 62
     7
100
AcDbLine
 10
14.00481101627508
 20
2.380401285143364
 30
0.0
 11
14.01791313032885
 21
1.930394485143324
 31
0.0
  0
LINE
  5
D0
330
2
100
AcDbEntity
  8
GAIKEI
  6
Continuous
 62
     7
100
AcDbLine
 10
14.00480076627502
 20
2.380394485143369
 30
0.0
 11
14.00480076627502
 21
37.13039448514332
 31
0.0
  0
LINE
  5
D1
330
2
100
AcDbEntity
  8
GAIKEI
  6
Continuous
 62
     7
100
AcDbLine
 10
14.01791232842493
 20
37.58039448514336
 30
0.0
 11
14.5548580249449
 21
37.58039448514342
 31
0.0
  0
LINE
  5
D2
330
2
100
AcDbEntity
  8
GAIKEI
  6
Continuous
 62
     7
100
AcDbLine
 10
14.01791313032885
 20
1.930394485143324
 30
0.0
 11
14.55485752304082
 21
1.930394485143324
 31
0.0
  0
LINE
  5
D3
330
2
100
AcDbEntity
  8
GAIKEI
  6
Continuous
 62
     1
100
AcDbLine
 10
14.01791111627506
 20
1.930394485143324
 30
0.0
 11
14.036246066275
 21
1.930394485143324
 31
0.0
  0
LINE
  5
D4
330
2
100
AcDbEntity
  8
GAIKEI
  6
Continuous
 62
     7
100
AcDbLine
 10
14.074171966275
 20
1.930394485143381
 30
0.0
 11
14.074171966275
 21
1.855126485143387
 31
0.0
  0
LINE
  5
D5
330
2
100
AcDbEntity
  8
GAIKEI
  6
Continuous
 62
     1
100
AcDbLine
 10
13.711942766275
 20
37.29543228514331
 30
0.0
 11
13.711942766275
 21
2.215368835143294
 31
0.0
  0
LINE
  5
D6
330
2
100
AcDbEntity
  8
GAIKEI
  6
Continuous
 62
     1
100
AcDbLine
 10
13.711942766275
 20
2.215368835143294
 30
0.0
 11
13.93877176627507
 21
1.988539835143342
 31
0.0
  0
LINE
  5
D7
330
2
100
AcDbEntity
  8
GAIKEI
  6
Continuous
 62
     1
100
AcDbLine
 10
13.74103271627507
 20
1.790800735143307
 30
0.0
 11
13.51420366627508
 21
2.017629785143356
 31
0.0
  0
LINE
  5
D8
330
2
100
AcDbEntity
  8
GAIKEI
  6
Continuous
 62
     1
100
AcDbLine
 10
13.51420366627508
 20
37.49317138514334
 30
0.0
 11
13.74103271627507
 21
37.72000038514335
 31
0.0
  0
LINE
  5
D9
330
2
100
AcDbEntity
  8
GAIKEI
  6
Continuous
 62
     1
100
AcDbLine
 10
13.93877176627507
 20
37.5222613351433
 30
0.0
 11
13.711942766275
 21
37.29543228514331
 31
0.0
  0
LINE
  5
DA
330
2
100
AcDbEntity
  8
GAIKEI
  6
Continuous
 62
     1
100
AcDbLine
 10
13.93877176627507
 20
1.988539835143342
 30
0.0
 11
13.93877176627507
 21
37.5222613351433
 31
0.0
  0
LINE
  5
DB
330
2
100
AcDbEntity
  8
GAIKEI
  6
Continuous
 62
     1
100
AcDbLine
 10
14.074171966275
 20
37.65567468514337
 30
0.0
 11
13.93877176627507
 21
37.52027448514343
 31
0.0
  0
LINE
  5
DC
330
2
100
AcDbEntity
  8
GAIKEI
  6
Continuous
 62
     1
100
AcDbLine
 10
13.73904582546726
 20
37.72000041014332
 30
0.0
 11
13.87444606627503
 21
37.85540058514334
 31
0.0
  0
LINE
  5
DD
330
2
100
AcDbEntity
  8
GAIKEI
  6
Continuous
 62
     1
100
AcDbLine
 10
13.87444606627503
 20
1.655400585143354
 30
0.0
 11
13.73904587546735
 21
1.790800710143344
 31
0.0
  0
LINE
  5
DE
330
2
100
AcDbEntity
  8
GAIKEI
  6
Continuous
 62
     1
100
AcDbLine
 10
13.93877176627507
 20
1.990526795890048
 30
0.0
 11
14.07417196665341
 21
1.855126134472016
 31
0.0
  0
LINE
  5
DF
330
2
100
AcDbEntity
  8
GAIKEI
  6
Continuous
 62
     7
100
AcDbLine
 10
14.074171966275
 20
37.65567468514337
 30
0.0
 11
14.074171966275
 21
37.58039448514336
 31
0.0
  0
ELLIPSE
  5
E0
330
2
100
AcDbEntity
  8
GAIKEI
  6
Continuous
 62
     1
100
AcDbEllipse
 10
13.15269151627501
 20
2.576881035143344
 30
0.0
 11
-0.502196524369623
 21
0.502196524369623
 31
0.0
210
0.0
220
0.0
230
1.0
 40
0.4928099999998565
 41
2.730628648546518
 42
3.552556658633039
  0
ELLIPSE
  5
E1
330
2
100
AcDbEntity
  8
GAIKEI
  6
Continuous
 62
     1
100
AcDbEllipse
 10
13.15269151627501
 20
36.9339201351433
 30
0.0
 11
0.502196524369623
 21
0.502196524369623
 31
0.0
210
0.0
220
0.0
230
1.0
 40
0.4928099999999944
 41
5.872221302136416
 42
6.694149312222723
  0
ELLIPSE
  5
E2
330
2
100
AcDbEntity
  8
GAIKEI
  6
Continuous
 62
     7
100
AcDbEllipse
 10
13.87389746627502
 20
37.65512608514337
 30
0.0
 11
0.1418092486869966
 21
0.1418092486869966
 31
0.0
210
0.0
220
0.0
230
1.0
 40
0.9972650000003218
 41
5.499156671652783
 42
7.067213942706318
  0
ELLIPSE
  5
E3
330
2
100
AcDbEntity
  8
GAIKEI
  6
Continuous
 62
     7
100
AcDbEllipse
 10
13.87389746627502
 20
1.855675035143349
 30
0.0
 11
-0.1418092486870215
 21
0.1418092486870215
 31
0.0
210
0.0
220
0.0
230
1.0
 40
0.9972649999999706
 41
2.357564018062885
 42
3.925621289116736
  0
SPLINE
  5
E4
330
2
100
AcDbEntity
  8
GAIKEI
  6
Continuous
 62
     1
100
AcDbSpline
210
0.0
220
0.0
230
1.0
 70
     8
 71
     3
 72
    19
 73
    15
 74
    13
 42
0.0000000001
 43
0.0000000001
 44
0.000001
 12
-0.0752275696311223
 22
-0.997166391715743
 32
0.0
 13
-0.9971651028730411
 23
-0.075244651718227
 33
0.0
 40
0.0
 40
0.0
 40
0.0
 40
0.0
 40
0.0307154355883356
 40
0.0474030577480272
 40
0.0651725077410125
 40
0.0907715901516265
 40
0.1187843457784684
 40
0.149374843498568
 40
0.1799684721587508
 40
0.2079831863823026
 40
0.2335829247320592
 40
0.251351949162864
 40
0.2680383245397582
 40
0.298748738842953
 40
0.298748738842953
 40
0.298748738842953
 40
0.298748738842953
 10
13.93877178490379
 20
1.988539810157021
 30
0.0
 10
13.93800156904731
 20
1.978330343465152
 30
0.0
 10
13.93527989918743
 20
1.962619718913728
 30
0.0
 10
13.9281492293201
 20
1.94206839537626
 30
0.0
 10
13.91983281250318
 20
1.92382756242506
 30
0.0
 10
13.90769426603305
 20
1.903299645665306
 30
0.0
 10
13.89085674646046
 20
1.880782110858227
 30
0.0
 10
13.870752909809
 20
1.858818111819132
 30
0.0
 10
13.84878705582301
 20
1.838715355900674
 30
0.0
 10
13.8262673602569
 20
1.821877570450368
 30
0.0
 10
13.80573862667148
 20
1.809739002378833
 30
0.0
 10
13.78749811748167
 20
1.801422719784234
 30
0.0
 10
13.76694900810184
 20
1.79429248369896
 30
0.0
 10
13.75124049824714
 20
1.791571003830391
 30
0.0
 10
13.74103271376782
 20
1.790800739020937
 30
0.0
 11
13.93877178490379
 21
1.988539810157021
 31
0.0
 11
13.93343862424478
 21
1.958290815564737
 31
0.0
 11
13.92803172640219
 21
1.942503597011125
 31
0.0
 11
13.92068622037754
 21
1.926323589020171
 31
0.0
 11
13.90773821193181
 21
1.904240677083976
 31
0.0
 11
13.89103099589613
 21
1.881755663636681
 31
0.0
 11
13.87043371354673
 21
1.859138810378112
 31
0.0
 11
13.84781326219922
 21
1.838540829034684
 31
0.0
 11
13.82532600580987
 21
1.821833347664266
 31
0.0
 11
13.80324230068402
 21
1.808885395083848
 31
0.0
 11
13.78706267874077
 21
1.801540068010183
 31
0.0
 11
13.77127669560536
 21
1.796133410509014
 31
0.0
 11
13.74103271376782
 21
1.790800739020937
 31
0.0
  0
SPLINE
  5
E5
330
2
100
AcDbEntity
  8
GAIKEI
  6
Continuous
 62
     1
100
AcDbSpline
210
0.0
220
0.0
230
1.0
 70
     8
 71
     3
 72
    19
 73
    15
 74
    13
 42
0.0000000001
 43
0.0000000001
 44
0.000001
 12
0.9971663916999085
 22
-0.0752275698410131
 32
0.0
 13
0.0752446515490343
 23
-0.9971651028858081
 33
0.0
 40
0.0
 40
0.0
 40
0.0
 40
0.0
 40
0.0307154356042063
 40
0.047403057768089
 40
0.0651725077625336
 40
0.0907715901707995
 40
0.1187843457902467
 40
0.1493748434977908
 40
0.1799684721688237
 40
0.2079831863987726
 40
0.2335829247505188
 40
0.2513519491800713
 40
0.2680383245533162
 40
0.2987487388425291
 40
0.2987487388425291
 40
0.2987487388425291
 40
0.2987487388425291
 10
13.74103271376782
 20
37.72000040349082
 30
0.0
 10
13.7512421804648
 20
37.71923018763178
 30
0.0
 10
13.76695280502235
 20
37.71650851776812
 30
0.0
 10
13.78750412856604
 20
37.70937784789732
 30
0.0
 10
13.80574496151808
 20
37.70106143107944
 30
0.0
 10
13.82627287827515
 20
37.68892288461027
 30
0.0
 10
13.84879041307579
 20
37.6720853650414
 30
0.0
 10
13.87075441211124
 20
37.65198152839047
 30
0.0
 10
13.89085716802913
 20
37.63001567440182
 30
0.0
 10
13.90769495348252
 20
37.60749597882997
 30
0.0
 10
13.9198335215548
 20
37.58696724524235
 30
0.0
 10
13.92814980414857
 20
37.56872673605318
 30
0.0
 10
13.9352800402311
 20
37.548177626679
 30
0.0
 10
13.93800152009641
 20
37.53246911682963
 30
0.0
 10
13.93877178490379
 20
37.52226133235485
 30
0.0
 11
13.74103271376782
 21
37.72000040349082
 31
0.0
 11
13.77128170837488
 21
37.71466724282414
 31
0.0
 11
13.78706892693208
 21
37.7092603449791
 31
0.0
 11
13.80324893492411
 21
37.70191483895331
 31
0.0
 11
13.82533184685792
 21
37.68896683050815
 31
0.0
 11
13.84781686029862
 21
37.67225961447599
 31
0.0
 11
13.87043371354673
 21
37.65166233213375
 31
0.0
 11
13.89103169489601
 21
37.62904188077693
 31
0.0
 11
13.90773917626939
 21
37.60655462438177
 31
0.0
 11
13.9206871288502
 21
37.58447091925388
 31
0.0
 11
13.9280324559229
 21
37.56829129731154
 31
0.0
 11
13.93343911342208
 21
37.55250531417932
 31
0.0
 11
13.93877178490379
 21
37.52226133235485
 31
0.0
  0
SPLINE
  5
E6
330
2
100
AcDbEntity
  8
GAIKEI
  6
Continuous
 62
     1
100
AcDbSpline
210
0.0
220
0.0
230
1.0
 70
     8
 71
     3
 72
    19
 73
    15
 74
    13
 42
0.0000000001
 43
0.0000000001
 44
0.000001
 12
-0.9971663916999085
 22
-0.0752275698410131
 32
0.0
 13
-0.0752446515490343
 23
-0.9971651028858081
 33
0.0
 40
0.0
 40
0.0
 40
0.0
 40
0.0
 40
0.0307154356042063
 40
0.047403057768089
 40
0.0651725077625336
 40
0.0907715901707995
 40
0.1187843457902467
 40
0.1493748434977908
 40
0.1799684721688237
 40
0.2079831863987726
 40
0.2335829247505188
 40
0.2513519491800713
 40
0.2680383245533162
 40
0.2987487388425291
 40
0.2987487388425291
 40
0.2987487388425291
 40
0.2987487388425291
 10
-46.09268878121781
 20
37.72000040349082
 30
0.0
 10
-46.10289824791479
 20
37.71923018763178
 30
0.0
 10
-46.11860887247224
 20
37.71650851776812
 30
0.0
 10
-46.13916019601606
 20
37.70937784789732
 30
0.0
 10
-46.15740102896802
 20
37.70106143107944
 30
0.0
 10
-46.17792894572517
 20
37.68892288461027
 30
0.0
 10
-46.20044648052567
 20
37.6720853650414
 30
0.0
 10
-46.22241047956132
 20
37.65198152839047
 30
0.0
 10
-46.24251323547904
 20
37.63001567440182
 30
0.0
 10
-46.25935102093251
 20
37.60749597882997
 30
0.0
 10
-46.27148958900486
 20
37.58696724524235
 30
0.0
 10
-46.27980587159848
 20
37.56872673605318
 30
0.0
 10
-46.28693610768107
 20
37.548177626679
 30
0.0
 10
-46.2896575875464
 20
37.53246911682963
 30
0.0
 10
-46.29042785235379
 20
37.52226133235485
 30
0.0
 11
-46.09268878121781
 21
37.72000040349082
 31
0.0
 11
-46.12293777582488
 21
37.71466724282414
 31
0.0
 11
-46.13872499438207
 21
37.7092603449791
 31
0.0
 11
-46.1549050023741
 21
37.70191483895331
 31
0.0
 11
-46.17698791430791
 21
37.68896683050815
 31
0.0
 11
-46.19947292774861
 21
37.67225961447599
 31
0.0
 11
-46.22208978099672
 21
37.65166233213375
 31
0.0
 11
-46.242687762346
 21
37.62904188077693
 31
0.0
 11
-46.25939524371938
 21
37.60655462438177
 31
0.0
 11
-46.27234319630019
 21
37.58447091925388
 31
0.0
 11
-46.27968852337289
 21
37.56829129731154
 31
0.0
 11
-46.28509518087208
 21
37.55250531417932
 31
0.0
 11
-46.29042785235379
 21
37.52226133235485
 31
0.0
  0
SPLINE
  5
E7
330
2
100
AcDbEntity
  8
GAIKEI
  6
Continuous
 62
     1
100
AcDbSpline
210
0.0
220
0.0
230
1.0
 70
     8
 71
     3
 72
    19
 73
    15
 74
    13
 42
0.0000000001
 43
0.0000000001
 44
0.000001
 12
0.0752275696311223
 22
-0.997166391715743
 32
0.0
 13
0.9971651028730411
 23
-0.075244651718227
 33
0.0
 40
0.0
 40
0.0
 40
0.0
 40
0.0
 40
0.0307154355883356
 40
0.0474030577480272
 40
0.0651725077410125
 40
0.0907715901516265
 40
0.1187843457784684
 40
0.149374843498568
 40
0.1799684721587508
 40
0.2079831863823026
 40
0.2335829247320592
 40
0.251351949162864
 40
0.2680383245397582
 40
0.298748738842953
 40
0.298748738842953
 40
0.298748738842953
 40
0.298748738842953
 10
-46.29042785235379
 20
1.988539810157021
 30
0.0
 10
-46.28965763649731
 20
1.978330343465152
 30
0.0
 10
-46.28693596663737
 20
1.962619718913728
 30
0.0
 10
-46.27980529677015
 20
1.94206839537626
 30
0.0
 10
-46.27148887995315
 20
1.92382756242506
 30
0.0
 10
-46.25935033348304
 20
1.903299645665306
 30
0.0
 10
-46.24251281391051
 20
1.880782110858227
 30
0.0
 10
-46.22240897725894
 20
1.858818111819132
 30
0.0
 10
-46.20044312327303
 20
1.838715355900674
 30
0.0
 10
-46.17792342770679
 20
1.821877570450368
 30
0.0
 10
-46.15739469412154
 20
1.809739002378833
 30
0.0
 10
-46.13915418493161
 20
1.801422719784234
 30
0.0
 10
-46.11860507555184
 20
1.79429248369896
 30
0.0
 10
-46.10289656569714
 20
1.791571003830391
 30
0.0
 10
-46.09268878121781
 20
1.790800739020937
 30
0.0
 11
-46.29042785235379
 21
1.988539810157021
 31
0.0
 11
-46.28509469169478
 21
1.958290815564737
 31
0.0
 11
-46.27968779385219
 21
1.942503597011125
 31
0.0
 11
-46.27234228782754
 21
1.926323589020171
 31
0.0
 11
-46.2593942793818
 21
1.904240677083976
 31
0.0
 11
-46.24268706334612
 21
1.881755663636681
 31
0.0
 11
-46.22208978099672
 21
1.859138810378112
 31
0.0
 11
-46.19946932964921
 21
1.838540829034684
 31
0.0
 11
-46.17698207325986
 21
1.821833347664266
 31
0.0
 11
-46.15489836813401
 21
1.808885395083848
 31
0.0
 11
-46.13871874619076
 21
1.801540068010183
 31
0.0
 11
-46.12293276305535
 21
1.796133410509014
 31
0.0
 11
-46.09268878121781
 21
1.790800739020937
 31
0.0
  0
ELLIPSE
  5
E8
330
2
100
AcDbEntity
  8
GAIKEI
  6
Continuous
 62
     7
100
AcDbEllipse
 10
-46.22555353372502
 20
1.855675035143349
 30
0.0
 11
0.1418092486870215
 21
0.1418092486870215
 31
0.0
210
0.0
220
0.0
230
-1.0
 40
0.9972649999999706
 41
2.357564018062885
 42
3.925621289116736
  0
ELLIPSE
  5
E9
330
2
100
AcDbEntity
  8
GAIKEI
  6
Continuous
 62
     7
100
AcDbEllipse
 10
-46.22555353372502
 20
37.65512608514337
 30
0.0
 11
-0.1418092486869966
 21
0.1418092486869966
 31
0.0
210
0.0
220
0.0
230
-1.0
 40
0.9972650000003218
 41
5.499156671652783
 42
7.067213942706318
  0
ELLIPSE
  5
EA
330
2
100
AcDbEntity
  8
GAIKEI
  6
Continuous
 62
     1
100
AcDbEllipse
 10
-45.504347583725
 20
36.9339201351433
 30
0.0
 11
-0.502196524369623
 21
0.502196524369623
 31
0.0
210
0.0
220
0.0
230
-1.0
 40
0.4928099999999944
 41
5.872221302136416
 42
6.694149312222723
  0
ELLIPSE
  5
EB
330
2
100
AcDbEntity
  8
GAIKEI
  6
Continuous
 62
     1
100
AcDbEllipse
 10
-45.504347583725
 20
2.576881035143344
 30
0.0
 11
0.502196524369623
 21
0.502196524369623
 31
0.0
210
0.0
220
0.0
230
-1.0
 40
0.4928099999998565
 41
2.730628648546518
 42
3.552556658633039
  0
LINE
  5
EC
330
2
100
AcDbEntity
  8
GAIKEI
  6
Continuous
 62
     7
100
AcDbLine
 10
-46.425828033725
 20
37.65567468514337
 30
0.0
 11
-46.425828033725
 21
37.58039448514336
 31
0.0
  0
LINE
  5
ED
330
2
100
AcDbEntity
  8
GAIKEI
  6
Continuous
 62
     1
100
AcDbLine
 10
-46.29042783372506
 20
1.990526795890048
 30
0.0
 11
-46.4258280341034
 21
1.855126134472016
 31
0.0
  0
LINE
  5
EE
330
2
100
AcDbEntity
  8
GAIKEI
  6
Continuous
 62
     1
100
AcDbLine
 10
-46.22610213372502
 20
1.655400585143354
 30
0.0
 11
-46.09070194291734
 21
1.790800710143344
 31
0.0
  0
LINE
  5
EF
330
2
100
AcDbEntity
  8
GAIKEI
  6
Continuous
 62
     1
100
AcDbLine
 10
-46.09070189291725
 20
37.72000041014332
 30
0.0
 11
-46.22610213372502
 21
37.85540058514334
 31
0.0
  0
LINE
  5
F0
330
2
100
AcDbEntity
  8
GAIKEI
  6
Continuous
 62
     1
100
AcDbLine
 10
-46.425828033725
 20
37.65567468514337
 30
0.0
 11
-46.29042783372506
 21
37.52027448514343
 31
0.0
  0
LINE
  5
F1
330
2
100
AcDbEntity
  8
GAIKEI
  6
Continuous
 62
     1
100
AcDbLine
 10
-46.29042783372506
 20
1.988539835143342
 30
0.0
 11
-46.29042783372506
 21
37.5222613351433
 31
0.0
  0
LINE
  5
F2
330
2
100
AcDbEntity
  8
GAIKEI
  6
Continuous
 62
     1
100
AcDbLine
 10
-46.29042783372506
 20
37.5222613351433
 30
0.0
 11
-46.06359883372499
 21
37.29543228514331
 31
0.0
  0
LINE
  5
F3
330
2
100
AcDbEntity
  8
GAIKEI
  6
Continuous
 62
     1
100
AcDbLine
 10
-45.86585973372507
 20
37.49317138514334
 30
0.0
 11
-46.09268878372506
 21
37.72000038514335
 31
0.0
  0
LINE
  5
F4
330
2
100
AcDbEntity
  8
GAIKEI
  6
Continuous
 62
     1
100
AcDbLine
 10
-46.09268878372506
 20
1.790800735143307
 30
0.0
 11
-45.86585973372507
 21
2.017629785143356
 31
0.0
  0
LINE
  5
F5
330
2
100
AcDbEntity
  8
GAIKEI
  6
Continuous
 62
     1
100
AcDbLine
 10
-46.06359883372499
 20
2.215368835143294
 30
0.0
 11
-46.29042783372506
 21
1.988539835143342
 31
0.0
  0
LINE
  5
F6
330
2
100
AcDbEntity
  8
GAIKEI
  6
Continuous
 62
     1
100
AcDbLine
 10
-46.06359883372499
 20
37.29543228514331
 30
0.0
 11
-46.06359883372499
 21
2.215368835143294
 31
0.0
  0
LINE
  5
F7
330
2
100
AcDbEntity
  8
GAIKEI
  6
Continuous
 62
     7
100
AcDbLine
 10
-46.425828033725
 20
1.930394485143381
 30
0.0
 11
-46.425828033725
 21
1.855126485143387
 31
0.0
  0
LINE
  5
F8
330
2
100
AcDbEntity
  8
GAIKEI
  6
Continuous
 62
     1
100
AcDbLine
 10
-46.36956718372505
 20
1.930394485143324
 30
0.0
 11
-46.38790213372499
 21
1.930394485143324
 31
0.0
  0
LINE
  5
F9
330
2
100
AcDbEntity
  8
GAIKEI
  6
Continuous
 62
     7
100
AcDbLine
 10
-46.36956919777884
 20
1.930394485143324
 30
0.0
 11
-46.90651359049081
 21
1.930394485143324
 31
0.0
  0
LINE
  5
FA
330
2
100
AcDbEntity
  8
GAIKEI
  6
Continuous
 62
     7
100
AcDbLine
 10
-46.36956839587492
 20
37.58039448514336
 30
0.0
 11
-46.9065140923949
 21
37.58039448514342
 31
0.0
  0
LINE
  5
FB
330
2
100
AcDbEntity
  8
GAIKEI
  6
Continuous
 62
     7
100
AcDbLine
 10
-46.35645683372501
 20
2.380394485143369
 30
0.0
 11
-46.35645683372501
 21
37.13039448514332
 31
0.0
  0
LINE
  5
FC
330
2
100
AcDbEntity
  8
GAIKEI
  6
Continuous
 62
     7
100
AcDbLine
 10
-46.35646708372507
 20
2.380401285143364
 30
0.0
 11
-46.36956919777884
 21
1.930394485143324
 31
0.0
  0
LINE
  5
FD
330
2
100
AcDbEntity
  8
GAIKEI
  6
Continuous
 62
     7
100
AcDbLine
 10
-46.36956839587492
 20
37.58039448514336
 30
0.0
 11
-46.35646633372505
 21
37.13039118514331
 31
0.0
  0
LINE
  5
FE
330
2
100
AcDbEntity
  8
GAIKEI
  6
Continuous
 62
     1
100
AcDbLine
 10
-46.96226738372502
 20
37.51642963514331
 30
0.0
 11
-46.96226738372502
 21
1.994371535143329
 31
0.0
  0
LINE
  5
FF
330
2
100
AcDbEntity
  8
GAIKEI
  6
Continuous
 62
     1
100
AcDbLine
 10
-51.58869558372498
 20
37.51725973514334
 30
0.0
 11
-51.58869558372498
 21
1.993541435143356
 31
0.0
  0
LINE
  5
100
330
2
100
AcDbEntity
  8
GAIKEI
  6
Continuous
 62
     1
100
AcDbLine
 10
-51.35500418372498
 20
37.28262838514337
 30
0.0
 11
-51.35500418372498
 21
2.228172785143328
 31
0.0
  0
LINE
  5
101
330
2
100
AcDbEntity
  8
GAIKEI
  6
Continuous
 62
     7
100
AcDbLine
 10
-51.67103203372505
 20
37.64579973514333
 30
0.0
 11
-51.67109308372506
 21
37.64579973514333
 31
0.0
  0
LINE
  5
102
330
2
100
AcDbEntity
  8
GAIKEI
  6
Continuous
 62
     7
100
AcDbLine
 10
-51.67103203372505
 20
37.64579973514333
 30
0.0
 11
-51.67103203372505
 21
1.865001435143312
 31
0.0
  0
LINE
  5
103
330
2
100
AcDbEntity
  8
GAIKEI
  6
Continuous
 62
     1
100
AcDbLine
 10
-47.19595878372501
 20
37.28259173514334
 30
0.0
 11
-47.19595878372501
 21
2.228197235143341
 31
0.0
  0
LINE
  5
104
330
2
100
AcDbEntity
  8
GAIKEI
  6
Continuous
 62
     1
100
AcDbLine
 10
-46.82590263372503
 20
37.65291643514337
 30
0.0
 11
-46.82584158372503
 21
37.65291643514337
 31
0.0
  0
LINE
  5
105
330
2
100
AcDbEntity
  8
GAIKEI
  6
Continuous
 62
     7
100
AcDbLine
 10
-46.82590263372503
 20
37.58039448514336
 30
0.0
 11
-46.82590263372503
 21
37.65291643514337
 31
0.0
  0
SPLINE
  5
106
330
2
100
AcDbEntity
  8
GAIKEI
  6
Continuous
 62
     1
100
AcDbSpline
210
0.0
220
0.0
230
1.0
 70
     8
 71
     3
 72
     9
 73
     5
 74
     0
 42
0.0000000001
 43
0.0000000001
 40
0.0
 40
0.0
 40
0.0
 40
0.0
 40
1.945462263820249
 40
4.533269112037771
 40
4.533269112037771
 40
4.533269112037771
 40
4.533269112037771
 10
-47.1192131860688
 20
37.71058246990896
 30
0.0
 10
-47.08687252376728
 20
37.70825407974104
 30
0.0
 10
-47.01256182596625
 20
37.67653612971435
 30
0.0
 10
-46.97260482003719
 20
37.60219308889407
 30
0.0
 10
-46.9679680688813
 20
37.55931293865894
 30
0.0
  0
SPLINE
  5
107
330
2
100
AcDbEntity
  8
GAIKEI
  6
Continuous
 62
     1
100
AcDbSpline
210
0.0
220
0.0
230
1.0
 70
     8
 71
     3
 72
     9
 73
     5
 74
     0
 42
0.0000000001
 43
0.0000000001
 40
0.0
 40
0.0
 40
0.0
 40
0.0
 40
42.29127472562083
 40
84.58180013910597
 40
84.58180013910597
 40
84.58180013910597
 40
84.58180013910597
 10
-51.39122246341253
 20
37.71821186444021
 30
0.0
 10
-50.68636825710996
 20
37.71748725630647
 30
0.0
 10
-49.27667197537619
 20
37.71635547744921
 30
0.0
 10
-47.86697517826531
 20
37.71611565050813
 30
0.0
 10
-47.16213310794375
 20
37.71628315350273
 30
0.0
  0
LINE
  5
108
330
2
100
AcDbEntity
  8
GAIKEI
  6
Continuous
 62
     1
100
AcDbLine
 10
-46.35645683372501
 20
37.12261858514336
 30
0.0
 11
-46.91983573372499
 21
37.12261858514336
 31
0.0
  0
LINE
  5
109
330
2
100
AcDbEntity
  8
GAIKEI
  6
Continuous
 62
     7
100
AcDbLine
 10
-46.9065140923949
 20
37.58039448514342
 30
0.0
 11
-46.91984238372504
 21
37.12262073514336
 31
0.0
  0
SPLINE
  5
10A
330
2
100
AcDbEntity
  8
GAIKEI
  6
Continuous
 62
     7
100
AcDbSpline
210
0.0
220
0.0
230
1.0
 70
     8
 71
     3
 72
     9
 73
     5
 74
     0
 42
0.0000000001
 43
0.0000000001
 40
0.0
 40
0.0
 40
0.0
 40
0.0
 40
15.17019099972979
 40
30.07885911212641
 40
30.07885911212641
 40
30.07885911212641
 40
30.07885911212641
 10
-47.02558525638131
 20
37.85264789959644
 30
0.0
 10
-47.27842177283446
 20
37.85263761939638
 30
0.0
 10
-47.7797360913072
 20
37.8525705850825
 30
0.0
 10
-48.28105037612147
 20
37.85235468831235
 30
0.0
 10
-48.52952812747503
 20
37.85219623944022
 30
0.0
  0
SPLINE
  5
10B
330
2
100
AcDbEntity
  8
GAIKEI
  6
Continuous
 62
     7
100
AcDbSpline
210
0.0
220
0.0
230
1.0
 70
     8
 71
     3
 72
     9
 73
     5
 74
     0
 42
0.0000000001
 43
0.0000000001
 40
0.0
 40
0.0
 40
0.0
 40
0.0
 40
0.000307133192375
 40
0.0012511406223669
 40
0.0012511406223669
 40
0.0012511406223669
 40
0.0012511406223669
 10
-47.0255974634125
 20
37.85270893475269
 30
0.0
 10
-47.0255925411975
 20
37.85271034002795
 30
0.0
 10
-47.02559167696665
 20
37.85267555265358
 30
0.0
 10
-47.02558662618469
 20
37.85266357331051
 30
0.0
 10
-47.02558525638131
 20
37.85264789959644
 30
0.0
  0
LINE
  5
10C
330
2
100
AcDbEntity
  8
GAIKEI
  6
Continuous
 62
     7
100
AcDbLine
 10
-46.97855573372499
 20
37.84699623514331
 30
0.0
 11
-46.97853273372504
 21
37.84709113514333
 31
0.0
  0
SPLINE
  5
10D
330
2
100
AcDbEntity
  8
GAIKEI
  6
Continuous
 62
     7
100
AcDbSpline
210
0.0
220
0.0
230
1.0
 70
     8
 71
     3
 72
     9
 73
     5
 74
     0
 42
0.0000000001
 43
0.0000000001
 40
0.0
 40
0.0
 40
0.0
 40
0.0
 40
0.4745936221338634
 40
0.9491322391598641
 40
0.9491322391598641
 40
0.9491322391598641
 40
0.9491322391598641
 10
-47.02558525638131
 20
37.85264789959644
 30
0.0
 10
-47.01767536657735
 20
37.852640046577
 30
0.0
 10
-47.00184434764651
 20
37.85167214191484
 30
0.0
 10
-46.9862364899983
 20
37.84885301974924
 30
0.0
 10
-46.97855156497507
 20
37.8469838370965
 30
0.0
  0
SPLINE
  5
10E
330
2
100
AcDbEntity
  8
GAIKEI
  6
Continuous
 62
     1
100
AcDbSpline
210
0.0
220
0.0
230
1.0
 70
     8
 71
     3
 72
     9
 73
     5
 74
     0
 42
0.0000000001
 43
0.0000000001
 40
0.0
 40
0.0
 40
0.0
 40
0.0
 40
0.4322491288119172
 40
0.8653261276181417
 40
0.8653261276181417
 40
0.8653261276181417
 40
0.8653261276181417
 10
-46.9679680688813
 20
37.55931293865894
 30
0.0
 10
-46.96718671559426
 20
37.55215128415767
 30
0.0
 10
-46.96550807069297
 20
37.53782623993817
 30
0.0
 10
-46.96343467092368
 20
37.52355056471089
 30
0.0
 10
-46.96225517825633
 20
37.51642963787771
 30
0.0
  0
SPLINE
  5
10F
330
2
100
AcDbEntity
  8
GAIKEI
  6
Continuous
 62
     1
100
AcDbSpline
210
0.0
220
0.0
230
1.0
 70
     8
 71
     3
 72
     9
 73
     5
 74
     0
 42
0.0000000001
 43
0.0000000001
 40
0.0
 40
0.0
 40
0.0
 40
0.0
 40
1.517294350060504
 40
5.919467210682682
 40
5.919467210682682
 40
5.919467210682682
 40
5.919467210682682
 10
-51.35500420169376
 20
37.28262836834648
 30
0.0
 10
-51.35312722448031
 20
37.30784685356548
 30
0.0
 10
-51.32703879261737
 20
37.40484073439387
 30
0.0
 10
-51.2280006151575
 20
37.47484841310876
 30
0.0
 10
-51.15504082278755
 20
37.48259174725268
 30
0.0
  0
LINE
  5
110
330
2
100
AcDbEntity
  8
GAIKEI
  6
Continuous
 62
     1
100
AcDbLine
 10
-51.15503328372506
 20
37.48259608514337
 30
0.0
 11
-51.39132348372505
 21
37.71821628514334
 31
0.0
  0
SPLINE
  5
111
330
2
100
AcDbEntity
  8
GAIKEI
  6
Continuous
 62
     1
100
AcDbSpline
210
0.0
220
0.0
230
1.0
 70
     8
 71
     3
 72
     9
 73
     5
 74
     0
 42
0.0000000001
 43
0.0000000001
 40
0.0
 40
0.0
 40
0.0
 40
0.0
 40
0.4081843447942165
 40
0.8155696340608679
 40
0.8155696340608679
 40
0.8155696340608679
 40
0.8155696340608679
 10
-51.39122246341253
 20
37.71821186444021
 30
0.0
 10
-51.39793332594649
 20
37.71709556774573
 30
0.0
 10
-51.41139107860817
 20
37.7151571831879
 30
0.0
 10
-51.42489887937244
 20
37.71362913813823
 30
0.0
 10
-51.43165215091255
 20
37.71292621990898
 30
0.0
  0
SPLINE
  5
112
330
2
100
AcDbEntity
  8
GAIKEI
  6
Continuous
 62
     1
100
AcDbSpline
210
0.0
220
0.0
230
1.0
 70
     8
 71
     3
 72
     9
 73
     5
 74
     0
 42
0.0000000001
 43
0.0000000001
 40
0.0
 40
0.0
 40
0.0
 40
0.0
 40
1.656235735949052
 40
4.523791651747365
 40
4.523791651747365
 40
4.523791651747365
 40
4.523791651747365
 10
-51.43165215091255
 20
37.71292621990898
 30
0.0
 10
-51.45910653182238
 20
37.7100567493365
 30
0.0
 10
-51.53339896861211
 20
37.68450562166123
 30
0.0
 10
-51.57768744811813
 20
37.60893356742457
 30
0.0
 10
-51.58277519778756
 20
37.56141254803396
 30
0.0
  0
SPLINE
  5
113
330
2
100
AcDbEntity
  8
GAIKEI
  6
Continuous
 62
     1
100
AcDbSpline
210
0.0
220
0.0
230
1.0
 70
     8
 71
     3
 72
     9
 73
     5
 74
     0
 42
0.0000000001
 43
0.0000000001
 40
0.0
 40
0.0
 40
0.0
 40
0.0
 40
0.4322048384549121
 40
0.8909782849838181
 40
0.8909782849838181
 40
0.8909782849838181
 40
0.8909782849838181
 10
-51.58277519778756
 20
37.56141254803396
 30
0.0
 10
-51.58354745353176
 20
37.55425064926686
 30
0.0
 10
-51.58520603127385
 20
37.53949310781127
 30
0.0
 10
-51.58736406284936
 20
37.5247954916731
 30
0.0
 10
-51.58865898685007
 20
37.51725971600269
 30
0.0
  0
LINE
  5
114
330
2
100
AcDbEntity
  8
GAIKEI
  6
Continuous
 62
     1
100
AcDbLine
 10
-51.58862368372502
 20
37.51724638514332
 30
0.0
 11
-51.35500558372507
 21
37.28264898514334
 31
0.0
  0
LINE
  5
115
330
2
100
AcDbEntity
  8
GAIKEI
  6
Continuous
 62
     1
100
AcDbLine
 10
-47.39594658372505
 20
37.48257953514332
 30
0.0
 11
-51.15504083372503
 21
37.48257953514332
 31
0.0
  0
SPLINE
  5
116
330
2
100
AcDbEntity
  8
GAIKEI
  6
Continuous
 62
     1
100
AcDbSpline
210
0.0
220
0.0
230
1.0
 70
     8
 71
     3
 72
     9
 73
     5
 74
     0
 42
0.0000000001
 43
0.0000000001
 40
0.0
 40
0.0
 40
0.0
 40
0.0
 40
0.0029398165566283
 40
0.8660048802469422
 40
0.8660048802469422
 40
0.8660048802469422
 40
0.8660048802469422
 10
-47.16213310794375
 20
37.71628315350273
 30
0.0
 10
-47.16208425744719
 20
37.7162869389179
 30
0.0
 10
-47.14770312328517
 20
37.71753125994957
 30
0.0
 10
-47.13351301682258
 20
37.71214013283469
 30
0.0
 10
-47.1192131860688
 20
37.71058246990896
 30
0.0
  0
LINE
  5
117
330
2
100
AcDbEntity
  8
GAIKEI
  6
Continuous
 62
     1
100
AcDbLine
 10
-47.02552657845626
 20
37.85264783263631
 30
0.0
 11
-47.395947533725
 21
37.48259053514335
 31
0.0
  0
SPLINE
  5
118
330
2
100
AcDbEntity
  8
GAIKEI
  6
Continuous
 62
     1
100
AcDbSpline
210
0.0
220
0.0
230
1.0
 70
     8
 71
     3
 72
     9
 73
     5
 74
     0
 42
0.0000000001
 43
0.0000000001
 40
0.0
 40
0.0
 40
0.0
 40
0.0
 40
3.00649021551401
 40
6.013928399846387
 40
6.013928399846387
 40
6.013928399846387
 40
6.013928399846387
 10
-47.3959465845063
 20
37.48259174725268
 30
0.0
 10
-47.34611622064983
 20
37.47732263303942
 30
0.0
 10
-47.24608005411755
 20
37.43244594346612
 30
0.0
 10
-47.20122619108917
 20
37.33244259279064
 30
0.0
 10
-47.19588554935
 20
37.28260395428396
 30
0.0
  0
LINE
  5
119
330
2
100
AcDbEntity
  8
GAIKEI
  6
Continuous
 62
     1
100
AcDbLine
 10
-47.19595448372501
 20
37.28260993514334
 30
0.0
 11
-46.82590275166222
 21
37.65302539868793
 31
0.0
  0
SPLINE
  5
11A
330
2
100
AcDbEntity
  8
GAIKEI
  6
Continuous
 62
     7
100
AcDbSpline
210
0.0
220
0.0
230
1.0
 70
     8
 71
     3
 72
     9
 73
     5
 74
     0
 42
0.0000000001
 43
0.0000000001
 40
0.0
 40
0.0
 40
0.0
 40
0.0
 40
2.608801521942092
 40
5.218901201754872
 40
5.218901201754872
 40
5.218901201754872
 40
5.218901201754872
 10
-46.82590263919382
 20
37.65291645428397
 30
0.0
 10
-46.82593459735289
 20
37.69639646790489
 30
0.0
 10
-46.85697165806766
 20
37.78552110964125
 30
0.0
 10
-46.93627797509589
 20
37.8367204001857
 30
0.0
 10
-46.97855156497507
 20
37.8469838370965
 30
0.0
  0
SPLINE
  5
11B
330
2
100
AcDbEntity
  8
GAIKEI
  6
Continuous
 62
     7
100
AcDbSpline
210
0.0
220
0.0
230
1.0
 70
     8
 71
     3
 72
     9
 73
     5
 74
     0
 42
0.0000000001
 43
0.0000000001
 40
0.0
 40
0.0
 40
0.0
 40
0.0
 40
29.41054305853916
 40
58.9011871801054
 40
58.9011871801054
 40
58.9011871801054
 40
58.9011871801054
 10
-48.53030937747508
 20
37.85229389569025
 30
0.0
 10
-49.02048504008519
 20
37.85206162246095
 30
0.0
 10
-50.00217065926711
 20
37.85154172858842
 30
0.0
 10
-50.98385927829349
 20
37.8566076832355
 30
0.0
 10
-51.47534111575635
 20
37.86193745037775
 30
0.0
  0
SPLINE
  5
11C
330
2
100
AcDbEntity
  8
GAIKEI
  6
Continuous
 62
     1
100
AcDbSpline
210
0.0
220
0.0
230
1.0
 70
     8
 71
     3
 72
     9
 73
     5
 74
     0
 42
0.0000000001
 43
0.0000000001
 40
0.0
 40
0.0
 40
0.0
 40
0.0
 40
0.0078759195154627
 40
0.0157679125147925
 40
0.0157679125147925
 40
0.0157679125147925
 40
0.0157679125147925
 10
-48.52952812747503
 20
37.85219623944022
 30
0.0
 10
-48.5296562597108
 20
37.85222474761065
 30
0.0
 10
-48.5299150994357
 20
37.85227214801904
 30
0.0
 10
-48.53017785174756
 20
37.85229249208863
 30
0.0
 10
-48.53030937747508
 20
37.85229389569025
 30
0.0
  0
SPLINE
  5
11D
330
2
100
AcDbEntity
  8
GAIKEI
  6
Continuous
 62
     7
100
AcDbSpline
210
0.0
220
0.0
230
1.0
 70
     8
 71
     3
 72
    10
 73
     6
 74
     0
 42
0.0000000001
 43
0.0000000001
 40
0.0
 40
0.0
 40
0.0
 40
0.0
 40
0.2724492370619989
 40
0.9948730228349431
 40
6.021982962936184
 40
6.021982962936184
 40
6.021982962936184
 40
6.021982962936184
 10
-51.47534111575635
 20
37.86193745037775
 30
0.0
 10
-51.47472616359346
 20
37.85743846318957
 30
0.0
 10
-51.48510280073435
 20
37.84017896082872
 30
0.0
 10
-51.59795611759296
 20
37.8627627144196
 30
0.0
 10
-51.6716263245047
 20
37.72958330055264
 30
0.0
 10
-51.67110527591251
 20
37.64579975506519
 30
0.0
  0
SPLINE
  5
11E
330
2
100
AcDbEntity
  8
GAIKEI
  6
Continuous
 62
     7
100
AcDbSpline
210
0.0
220
0.0
230
1.0
 70
     8
 71
     3
 72
     9
 73
     5
 74
     0
 42
0.0000000001
 43
0.0000000001
 40
0.0
 40
0.0
 40
0.0
 40
0.0
 40
15.17688766217361
 40
30.09423971492175
 40
30.09423971492175
 40
30.09423971492175
 40
30.09423971492175
 10
-47.0255974634125
 20
37.85270893475269
 30
0.0
 10
-47.27854559096454
 20
37.85270019863259
 30
0.0
 10
-47.78011625279567
 20
37.85263922750932
 30
0.0
 10
-48.28168688695507
 20
37.85244129271069
 30
0.0
 10
-48.53030937747508
 20
37.85229389569025
 30
0.0
  0
LINE
  5
11F
330
2
100
AcDbEntity
  8
GAIKEI
  6
Continuous
 62
     1
100
AcDbLine
 10
-51.67103203372505
 20
1.865001435143312
 30
0.0
 11
-51.67109308372506
 21
1.865001435143312
 31
0.0
  0
LINE
  5
120
330
2
100
AcDbEntity
  8
GAIKEI
  6
Continuous
 62
     1
100
AcDbLine
 10
-46.82584208372509
 20
1.857875235143353
 30
0.0
 11
-46.82582988372508
 21
1.857875235143353
 31
0.0
  0
LINE
  5
121
330
2
100
AcDbEntity
  8
GAIKEI
  6
Continuous
 62
     1
100
AcDbLine
 10
-46.82590263372503
 20
1.857872485143332
 30
0.0
 11
-46.82584158372503
 21
1.857872485143332
 31
0.0
  0
LINE
  5
122
330
2
100
AcDbEntity
  8
GAIKEI
  6
Continuous
 62
     7
100
AcDbLine
 10
-46.82590263372503
 20
1.857872485143332
 30
0.0
 11
-46.82590263372503
 21
1.930394485143324
 31
0.0
  0
SPLINE
  5
123
330
2
100
AcDbEntity
  8
GAIKEI
  6
Continuous
 62
     1
100
AcDbSpline
210
0.0
220
0.0
230
1.0
 70
     8
 71
     3
 72
     9
 73
     5
 74
     0
 42
0.0000000001
 43
0.0000000001
 40
0.0
 40
0.0
 40
0.0
 40
0.0
 40
1.945368404595981
 40
4.533175250603751
 40
4.533175250603751
 40
4.533175250603751
 40
4.533175250603751
 10
-47.1192131860688
 20
1.80021870037774
 30
0.0
 10
-47.0868740840491
 20
1.802546978211978
 30
0.0
 10
-47.01255791415611
 20
1.834247202065284
 30
0.0
 10
-46.97260482003321
 20
1.908595874397974
 30
0.0
 10
-46.9679680688813
 20
1.951476024596445
 30
0.0
  0
SPLINE
  5
124
330
2
100
AcDbEntity
  8
GAIKEI
  6
Continuous
 62
     1
100
AcDbSpline
210
0.0
220
0.0
230
1.0
 70
     8
 71
     3
 72
     9
 73
     5
 74
     0
 42
0.0000000001
 43
0.0000000001
 40
0.0
 40
0.0
 40
0.0
 40
0.0
 40
42.29127472562083
 40
84.58180013910597
 40
84.58180013910597
 40
84.58180013910597
 40
84.58180013910597
 10
-51.39122246341253
 20
1.792577098815229
 30
0.0
 10
-50.68636825710996
 20
1.793301706948966
 30
0.0
 10
-49.27667197537619
 20
1.794433485806223
 30
0.0
 10
-47.86697517826531
 20
1.794673312747363
 30
0.0
 10
-47.16213310794375
 20
1.794505809752706
 30
0.0
  0
LINE
  5
125
330
2
100
AcDbEntity
  8
GAIKEI
  6
Continuous
 62
     1
100
AcDbLine
 10
-46.91983573372499
 20
2.388170385143325
 30
0.0
 11
-46.35803153372501
 21
2.388170385143325
 31
0.0
  0
LINE
  5
126
330
2
100
AcDbEntity
  8
GAIKEI
  6
Continuous
 62
     7
100
AcDbLine
 10
-46.90651359049081
 20
1.930394485143324
 30
0.0
 11
-46.91984198372506
 21
2.388171735143373
 31
0.0
  0
SPLINE
  5
127
330
2
100
AcDbEntity
  8
GAIKEI
  6
Continuous
 62
     7
100
AcDbSpline
210
0.0
220
0.0
230
1.0
 70
     8
 71
     3
 72
     9
 73
     5
 74
     0
 42
0.0000000001
 43
0.0000000001
 40
0.0
 40
0.0
 40
0.0
 40
0.0
 40
15.17019098155854
 40
30.07885903948136
 40
30.07885903948136
 40
30.07885903948136
 40
30.07885903948136
 10
-47.02558525638131
 20
1.658153270690206
 30
0.0
 10
-47.2784217725316
 20
1.658163550890265
 30
0.0
 10
-47.77973608975969
 20
1.658224587830886
 30
0.0
 10
-48.28105037702937
 20
1.658434274943658
 30
0.0
 10
-48.52952812747503
 20
1.658592723815218
 30
0.0
  0
SPLINE
  5
128
330
2
100
AcDbEntity
  8
GAIKEI
  6
Continuous
 62
     7
100
AcDbSpline
210
0.0
220
0.0
230
1.0
 70
     8
 71
     3
 72
     9
 73
     5
 74
     0
 42
0.0000000001
 43
0.0000000001
 40
0.0
 40
0.0
 40
0.0
 40
0.0
 40
29.39312756231776
 40
58.78322706070662
 40
58.78322706070662
 40
58.78322706070662
 40
58.78322706070662
 10
-48.52952812747503
 20
1.658592723815218
 30
0.0
 10
-49.01941343695
 20
1.658975953160961
 30
0.0
 10
-49.99913372304445
 20
1.659499170722483
 30
0.0
 10
-50.97885389841474
 20
1.66040989886693
 30
0.0
 10
-51.4686882837251
 20
1.66118061444024
 30
0.0
  0
SPLINE
  5
129
330
2
100
AcDbEntity
  8
GAIKEI
  6
Continuous
 62
     7
100
AcDbSpline
210
0.0
220
0.0
230
1.0
 70
     8
 71
     3
 72
     9
 73
     5
 74
     0
 42
0.0000000001
 43
0.0000000001
 40
0.0
 40
0.0
 40
0.0
 40
0.0
 40
0.000307133192375
 40
0.0012511406223669
 40
0.0012511406223669
 40
0.0012511406223669
 40
0.0012511406223669
 10
-47.0255974634125
 20
1.658092235533956
 30
0.0
 10
-47.0255925411975
 20
1.658090830258743
 30
0.0
 10
-47.02559167696665
 20
1.658125617633118
 30
0.0
 10
-47.02558662618469
 20
1.658137596976132
 30
0.0
 10
-47.02558525638131
 20
1.658153270690206
 30
0.0
  0
LINE
  5
12A
330
2
100
AcDbEntity
  8
GAIKEI
  6
Continuous
 62
     7
100
AcDbLine
 10
-46.97855098372508
 20
1.663806435143328
 30
0.0
 11
-46.97852638372501
 21
1.663704835143335
 31
0.0
  0
SPLINE
  5
12B
330
2
100
AcDbEntity
  8
GAIKEI
  6
Continuous
 62
     7
100
AcDbSpline
210
0.0
220
0.0
230
1.0
 70
     8
 71
     3
 72
     9
 73
     5
 74
     0
 42
0.0000000001
 43
0.0000000001
 40
0.0
 40
0.0
 40
0.0
 40
0.0
 40
0.4745863747763912
 40
0.9491031297469218
 40
0.9491031297469218
 40
0.9491031297469218
 40
0.9491031297469218
 10
-47.02558525638131
 20
1.658153270690206
 30
0.0
 10
-47.01767548736654
 20
1.658161123589763
 30
0.0
 10
-47.0018449347998
 20
1.65912282661992
 30
0.0
 10
-46.98623613595282
 20
1.661936029619653
 30
0.0
 10
-46.97855156497507
 20
1.66380512615899
 30
0.0
  0
SPLINE
  5
12C
330
2
100
AcDbEntity
  8
GAIKEI
  6
Continuous
 62
     1
100
AcDbSpline
210
0.0
220
0.0
230
1.0
 70
     8
 71
     3
 72
     9
 73
     5
 74
     0
 42
0.0000000001
 43
0.0000000001
 40
0.0
 40
0.0
 40
0.0
 40
0.0
 40
0.4323703203184989
 40
0.8655681094042307
 40
0.8655681094042307
 40
0.8655681094042307
 40
0.8655681094042307
 10
-46.9679680688813
 20
1.951476024596445
 30
0.0
 10
-46.96718649652291
 20
1.958639687040999
 30
0.0
 10
-46.96550802406614
 20
1.972968801271292
 30
0.0
 10
-46.96343499989803
 20
1.98724861946539
 30
0.0
 10
-46.96225517825633
 20
1.99437153240899
 30
0.0
  0
SPLINE
  5
12D
330
2
100
AcDbEntity
  8
GAIKEI
  6
Continuous
 62
     1
100
AcDbSpline
210
0.0
220
0.0
230
1.0
 70
     8
 71
     3
 72
     9
 73
     5
 74
     0
 42
0.0000000001
 43
0.0000000001
 40
0.0
 40
0.0
 40
0.0
 40
0.0
 40
1.517294349229331
 40
5.91932657678531
 40
5.91932657678531
 40
5.91932657678531
 40
5.91932657678531
 10
-51.35500420169376
 20
2.228160594908956
 30
0.0
 10
-51.35312722448134
 20
2.202942109703769
 30
0.0
 10
-51.3270406250956
 20
2.105949045407783
 30
0.0
 10
-51.22799828436325
 20
2.035952509807202
 30
0.0
 10
-51.15504082278755
 20
2.028209423033956
 30
0.0
  0
LINE
  5
12E
330
2
100
AcDbEntity
  8
GAIKEI
  6
Continuous
 62
     1
100
AcDbLine
 10
-51.15504078372499
 20
2.028218035143368
 30
0.0
 11
-51.391331033725
 21
1.792597785143357
 31
0.0
  0
SPLINE
  5
12F
330
2
100
AcDbEntity
  8
GAIKEI
  6
Continuous
 62
     1
100
AcDbSpline
210
0.0
220
0.0
230
1.0
 70
     8
 71
     3
 72
     9
 73
     5
 74
     0
 42
0.0000000001
 43
0.0000000001
 40
0.0
 40
0.0
 40
0.0
 40
0.0
 40
0.4082020433341026
 40
0.8156013125728581
 40
0.8156013125728581
 40
0.8156013125728581
 40
0.8156013125728581
 10
-51.39122246341253
 20
1.792577098815229
 30
0.0
 10
-51.39793361692397
 20
1.793693443911422
 30
0.0
 10
-51.41139092842855
 20
1.795637847497403
 30
0.0
 10
-51.4248986476249
 20
1.797172008026848
 30
0.0
 10
-51.43165215091255
 20
1.797874950377718
 30
0.0
  0
SPLINE
  5
130
330
2
100
AcDbEntity
  8
GAIKEI
  6
Continuous
 62
     1
100
AcDbSpline
210
0.0
220
0.0
230
1.0
 70
     8
 71
     3
 72
     9
 73
     5
 74
     0
 42
0.0000000001
 43
0.0000000001
 40
0.0
 40
0.0
 40
0.0
 40
0.0
 40
1.656235736553358
 40
4.523581821308481
 40
4.523581821308481
 40
4.523581821308481
 40
4.523581821308481
 10
-51.43165215091255
 20
1.797874950377718
 30
0.0
 10
-51.45910653183239
 20
1.800744420951218
 30
0.0
 10
-51.5333942285406
 20
1.826294859987115
 30
0.0
 10
-51.57768782041
 20
1.901858873142373
 30
0.0
 10
-51.58277519778756
 20
1.949376415221479
 30
0.0
  0
SPLINE
  5
131
330
2
100
AcDbEntity
  8
GAIKEI
  6
Continuous
 62
     1
100
AcDbSpline
210
0.0
220
0.0
230
1.0
 70
     8
 71
     3
 72
     9
 73
     5
 74
     0
 42
0.0000000001
 43
0.0000000001
 40
0.0
 40
0.0
 40
0.0
 40
0.0
 40
0.432326092216564
 40
0.8912202709941183
 40
0.8912202709941183
 40
0.8912202709941183
 40
0.8912202709941183
 10
-51.58277519778756
 20
1.949376415221479
 30
0.0
 10
-51.58354767018579
 20
1.956540323237618
 30
0.0
 10
-51.58520604376429
 20
1.971301935229632
 30
0.0
 10
-51.58736372207306
 20
1.986003695475403
 30
0.0
 10
-51.58865898685007
 20
1.993541454283956
 30
0.0
  0
LINE
  5
132
330
2
100
AcDbEntity
  8
GAIKEI
  6
Continuous
 62
     1
100
AcDbLine
 10
-51.58862283372503
 20
1.993559285143362
 30
0.0
 11
-51.35500473372508
 21
2.228156685143346
 31
0.0
  0
LINE
  5
133
330
2
100
AcDbEntity
  8
GAIKEI
  6
Continuous
 62
     1
100
AcDbLine
 10
-47.39594658372505
 20
2.028209435143367
 30
0.0
 11
-51.15504083372503
 21
2.028209435143367
 31
0.0
  0
SPLINE
  5
134
330
2
100
AcDbEntity
  8
GAIKEI
  6
Continuous
 62
     1
100
AcDbSpline
210
0.0
220
0.0
230
1.0
 70
     8
 71
     3
 72
     9
 73
     5
 74
     0
 42
0.0000000001
 43
0.0000000001
 40
0.0
 40
0.0
 40
0.0
 40
0.0
 40
0.0029296476091856
 40
0.8659950720233828
 40
0.8659950720233828
 40
0.8659950720233828
 40
0.8659950720233828
 10
-47.16213310794375
 20
1.794505809752706
 30
0.0
 10
-47.16208442642312
 20
1.79450203743147
 30
0.0
 10
-47.14762903278381
 20
1.79504700558283
 30
0.0
 10
-47.13351302279932
 20
1.798661036800922
 30
0.0
 10
-47.1192131860688
 20
1.80021870037774
 30
0.0
  0
LINE
  5
135
330
2
100
AcDbEntity
  8
GAIKEI
  6
Continuous
 62
     1
100
AcDbLine
 10
-47.02553084303201
 20
1.658153332145218
 30
0.0
 11
-47.39595263372507
 21
2.028211385143322
 31
0.0
  0
SPLINE
  5
136
330
2
100
AcDbEntity
  8
GAIKEI
  6
Continuous
 62
     1
100
AcDbSpline
210
0.0
220
0.0
230
1.0
 70
     8
 71
     3
 72
     9
 73
     5
 74
     0
 42
0.0000000001
 43
0.0000000001
 40
0.0
 40
0.0
 40
0.0
 40
0.0
 40
3.00649021551401
 40
6.013928399846387
 40
6.013928399846387
 40
6.013928399846387
 40
6.013928399846387
 10
-47.3959465845063
 20
2.028209423033956
 30
0.0
 10
-47.34611622064983
 20
2.033478537247219
 30
0.0
 10
-47.24608005411755
 20
2.078355226820576
 30
0.0
 10
-47.20122619108917
 20
2.178358577496055
 30
0.0
 10
-47.19588554935
 20
2.22819721600274
 30
0.0
  0
LINE
  5
137
330
2
100
AcDbEntity
  8
GAIKEI
  6
Continuous
 62
     1
100
AcDbLine
 10
-46.82590271936146
 20
1.857789205666733
 30
0.0
 11
-47.19595898372506
 21
2.22820928514335
 31
0.0
  0
SPLINE
  5
138
330
2
100
AcDbEntity
  8
GAIKEI
  6
Continuous
 62
     7
100
AcDbSpline
210
0.0
220
0.0
230
1.0
 70
     8
 71
     3
 72
     9
 73
     5
 74
     0
 42
0.0000000001
 43
0.0000000001
 40
0.0
 40
0.0
 40
0.0
 40
0.0
 40
2.608801521942092
 40
5.218901201754872
 40
5.218901201754872
 40
5.218901201754872
 40
5.218901201754872
 10
-46.82590263919382
 20
1.857872508971468
 30
0.0
 10
-46.82593459735289
 20
1.814392495350489
 30
0.0
 10
-46.85697165806766
 20
1.725267853614127
 30
0.0
 10
-46.93627797509589
 20
1.674068563069738
 30
0.0
 10
-46.97855156497507
 20
1.66380512615899
 30
0.0
  0
SPLINE
  5
139
330
2
100
AcDbEntity
  8
GAIKEI
  6
Continuous
 62
     1
100
AcDbSpline
210
0.0
220
0.0
230
1.0
 70
     8
 71
     3
 72
     9
 73
     5
 74
     0
 42
0.0000000001
 43
0.0000000001
 40
0.0
 40
0.0
 40
0.0
 40
0.0
 40
0.0137885163468726
 40
0.0277971563202312
 40
0.0277971563202312
 40
0.0277971563202312
 40
0.0277971563202312
 10
-51.47004326419381
 20
1.660899852721456
 30
0.0
 10
-51.46981345826373
 20
1.660900961684944
 30
0.0
 10
-51.46934948200215
 20
1.66095486330613
 30
0.0
 10
-51.46890517628037
 20
1.661094189418179
 30
0.0
 10
-51.4686882837251
 20
1.66118061444024
 30
0.0
  0
SPLINE
  5
13A
330
2
100
AcDbEntity
  8
GAIKEI
  6
Continuous
 62
     7
100
AcDbSpline
210
0.0
220
0.0
230
1.0
 70
     8
 71
     3
 72
     9
 73
     5
 74
     0
 42
0.0000000001
 43
0.0000000001
 40
0.0
 40
0.0
 40
0.0
 40
0.0
 40
29.39737301754986
 40
58.7946987442469
 40
58.7946987442469
 40
58.7946987442469
 40
58.7946987442469
 10
-51.47004326419381
 20
1.660899852721456
 30
0.0
 10
-50.98008753083229
 20
1.660211461052313
 30
0.0
 10
-50.00017626151588
 20
1.659255399679182
 30
0.0
 10
-49.02026474736112
 20
1.658747501821437
 30
0.0
 10
-48.53030937747508
 20
1.658507274596445
 30
0.0
  0
SPLINE
  5
13B
330
2
100
AcDbEntity
  8
GAIKEI
  6
Continuous
 62
     1
100
AcDbSpline
210
0.0
220
0.0
230
1.0
 70
     8
 71
     3
 72
     9
 73
     5
 74
     0
 42
0.0000000001
 43
0.0000000001
 40
0.0
 40
0.0
 40
0.0
 40
0.0
 40
0.0078534411293542
 40
0.0157394946032041
 40
0.0157394946032041
 40
0.0157394946032041
 40
0.0157394946032041
 10
-48.52952812747503
 20
1.658592723815218
 30
0.0
 10
-48.52965589401299
 20
1.658564297008979
 30
0.0
 10
-48.52991558985627
 20
1.658522876226129
 30
0.0
 10
-48.53017795073402
 20
1.658508677141696
 30
0.0
 10
-48.53030937747508
 20
1.658507274596445
 30
0.0
  0
SPLINE
  5
13C
330
2
100
AcDbEntity
  8
GAIKEI
  6
Continuous
 62
     7
100
AcDbSpline
210
0.0
220
0.0
230
1.0
 70
     8
 71
     3
 72
     9
 73
     5
 74
     0
 42
0.0000000001
 43
0.0000000001
 40
0.0
 40
0.0
 40
0.0
 40
0.0
 40
3.131012357143871
 40
6.214320535329698
 40
6.214320535329698
 40
6.214320535329698
 40
6.214320535329698
 10
-51.67103203372505
 20
1.865001415221456
 30
0.0
 10
-51.67096261551535
 20
1.812817922108251
 30
0.0
 10
-51.62768514896334
 20
1.705084194575306
 30
0.0
 10
-51.52007635309587
 20
1.660977789615003
 30
0.0
 10
-51.4686882837251
 20
1.66118061444024
 30
0.0
  0
SPLINE
  5
13D
330
2
100
AcDbEntity
  8
GAIKEI
  6
Continuous
 62
     7
100
AcDbSpline
210
0.0
220
0.0
230
1.0
 70
     8
 71
     3
 72
     9
 73
     5
 74
     0
 42
0.0000000001
 43
0.0000000001
 40
0.0
 40
0.0
 40
0.0
 40
0.0
 40
14.91719755737096
 40
30.09423971494808
 40
30.09423971494808
 40
30.09423971494808
 40
30.09423971494808
 10
-48.53030937747508
 20
1.658507274596445
 30
0.0
 10
-48.28168946225912
 20
1.658359236826299
 30
0.0
 10
-47.78011882753844
 20
1.658161953056719
 30
0.0
 10
-47.27854816586557
 20
1.658101597944721
 30
0.0
 10
-47.0255974634125
 20
1.658092235533956
 30
0.0
  0
LINE
  5
13E
330
2
100
AcDbEntity
  8
GAIKEI
  6
Continuous
 62
     7
100
AcDbLine
 10
-46.91983573372499
 20
37.12261858514336
 30
0.0
 11
-46.91983573372499
 21
2.388170385143325
 31
0.0
  0
DIMENSION
  5
13F
330
2
100
AcDbEntity
  8
SUNPO
100
AcDbDimension
  2
*D7
 10
19.31937596627506
 20
50.84743439107384
 30
0.0
 11
-16.17582803372499
 21
52.59743439107385
 31
0.0
 70
    32
  1
1427
 71
     5
 42
70.99040800000011
  3
STANDARD
100
AcDbAlignedDimension
 13
-51.67103203372505
 23
37.83645805461828
 33
0.0
 14
19.31937596627506
 24
37.82379679692065
 34
0.0
100
AcDbRotatedDimension
1001
ACAD
1000
DSTYLE
1002
{
1070
   287
1070
     3
1070
   287
1070
     3
1070
    40
1040
1.0
1070
   140
1040
2.5
1070
   147
1040
0.5
1070
   172
1070
     1
1070
   279
1070
     0
1070
   288
1070
     0
1002
}
  0
DIMENSION
  5
14C
330
2
100
AcDbEntity
  8
SUNPO
100
AcDbDimension
  2
*D6
 10
27.33767374299714
 20
37.84771071028428
 30
0.0
 11
25.58767374299713
 21
19.74771071028429
 31
0.0
 70
    33
  1
724
 71
     5
 42
36.19999999999999
  3
STANDARD
100
AcDbAlignedDimension
 13
19.33767374299714
 23
1.647710710284286
 33
0.0
 14
19.33767374299714
 24
37.84771071028428
 34
0.0
1001
ACAD
1000
DSTYLE
1002
{
1070
   287
1070
     3
1070
   287
1070
     3
1070
   287
1070
     3
1070
   287
1070
     3
1070
   287
1070
     3
1070
   287
1070
     3
1070
   287
1070
     3
1070
   287
1070
     3
1070
   287
1070
     3
1070
   287
1070
     3
1070
   287
1070
     3
1070
   287
1070
     3
1070
   287
1070
     3
1070
   287
1070
     3
1070
   287
1070
     3
1070
   287
1070
     3
1070
   287
1070
     3
1070
   287
1070
     3
1070
   287
1070
     3
1070
   287
1070
     3
1070
   287
1070
     3
1070
   287
1070
     3
1070
   287
1070
     3
1070
   287
1070
     3
1070
   287
1070
     3
1070
   287
1070
     3
1070
   287
1070
     3
1070
   287
1070
     3
1070
   287
1070
     3
1070
   287
1070
     3
1070
   287
1070
     3
1070
   287
1070
     3
1070
   287
1070
     3
1070
   287
1070
     3
1070
    40
1040
1.0
1070
   140
1040
2.5
1070
   147
1040
0.5
1070
   172
1070
     1
1070
   279
1070
     0
1002
}
  0
SPLINE
  5
159
330
2
100
AcDbEntity
  8
GAIKEI
  6
Continuous
 62
     1
100
AcDbSpline
210
0.0
220
0.0
230
1.0
 70
     8
 71
     3
 72
    13
 73
     9
 74
     7
 42
0.0000000001
 43
0.0000000001
 44
0.000001
 12
-0.1367026333584174
 22
0.9906121289550588
 32
0.0
 13
-0.1693098136655528
 23
0.9855628782561444
 33
0.0
 40
0.0
 40
0.0
 40
0.0
 40
0.0
 40
0.0167470476316635
 40
0.0333774141265641
 40
0.0502571988826622
 40
0.0667711969075428
 40
0.1235173939548199
 40
0.1402380169356289
 40
0.1402380169356289
 40
0.1402380169356289
 40
0.1402380169356289
 10
42.60260662243957
 20
35.67863893396543
 30
0.0
 10
42.60184350060214
 20
35.68416887680147
 30
0.0
 10
42.60025679534272
 20
35.69518137107406
 30
0.0
 10
42.59763714053656
 20
35.71172804896038
 30
0.0
 10
42.59488262398014
 20
35.72817384729296
 30
0.0
 10
42.58942239053888
 20
35.75772371427664
 30
0.0
 10
42.58600202715024
 20
35.78755371205206
 30
0.0
 10
42.58158539801058
 20
35.81164414407569
 30
0.0
 10
42.5806417428235
 20
35.81713721917942
 30
0.0
 11
42.60260662243957
 21
35.67863893396543
 31
0.0
 11
42.60021171658673
 21
35.69521386532449
 31
0.0
 11
42.59762489715751
 21
35.71164180337019
 31
0.0
 11
42.59481446929299
 21
35.72828597315447
 31
0.0
 11
42.59194246065402
 21
35.74454830777404
 31
0.0
 11
42.58351265968826
 21
35.80066490843638
 31
0.0
 11
42.5806417428235
 21
35.81713721917942
 31
0.0
  0
SPLINE
  5
15A
330
2
100
AcDbEntity
  8
GAIKEI
  6
Continuous
 62
     1
100
AcDbSpline
210
0.0
220
0.0
230
1.0
 70
     8
 71
     3
 72
    35
 73
    31
 74
    29
 42
0.0000000001
 43
0.0000000001
 44
0.000001
 12
-0.0254197298119269
 22
0.9996768664605022
 32
0.0
 13
-0.555524397846804
 23
0.8315002365585627
 33
0.0
 40
0.0
 40
0.0
 40
0.0
 40
0.0
 40
0.0275806639849073
 40
0.0463466764000972
 40
0.0658667687191301
 40
0.0863243287775273
 40
0.107556179521046
 40
0.1301098550111812
 40
0.1534456693045686
 40
0.1777301339391415
 40
0.2027520453587402
 40
0.2283265340758608
 40
0.2545592826343661
 40
0.2816029609292953
 40
0.309234403936909
 40
0.3380150010157092
 40
0.3673196186614396
 40
0.3973079319911159
 40
0.4277336080971323
 40
0.4740829563056059
 40
0.5213227404662599
 40
0.5580878557223703
 40
0.5729895593536203
 40
0.5734845308519342
 40
0.579249939372056
 40
0.5800416187173556
 40
0.5816820830763396
 40
0.5817084320311905
 40
0.5819521501676825
 40
0.5831999734319623
 40
0.5831999734319623
 40
0.5831999734319623
 40
0.5831999734319623
 10
43.17774856623986
 20
4.121275850396045
 30
0.0
 10
43.17751486856437
 20
4.13046643431182
 30
0.0
 10
43.17645336677588
 20
4.145906511630911
 30
0.0
 10
43.17322676961516
 20
4.167633625547082
 30
0.0
 10
43.16939524368669
 20
4.18684380760871
 30
0.0
 10
43.16449662586959
 20
4.206656637176124
 30
0.0
 10
43.15853005700495
 20
4.227228181439585
 30
0.0
 10
43.15152680575855
 20
4.248482307356539
 30
0.0
 10
43.14349322372871
 20
4.270454620735577
 30
0.0
 10
43.13452485436369
 20
4.292949848246095
 30
0.0
 10
43.12468507405441
 20
4.315891473652463
 30
0.0
 10
43.1140489807583
 20
4.339190287935892
 30
0.0
 10
43.10264091787877
 20
4.362870964192133
 30
0.0
 10
43.09048161161465
 20
4.386945256119702
 30
0.0
 10
43.07751868321505
 20
4.411560352056554
 30
0.0
 10
43.06381104229217
 20
4.436630935166256
 30
0.0
 10
43.04935886198888
 20
4.462186184187231
 30
0.0
 10
43.03429683154357
 20
4.488023439604098
 30
0.0
 10
43.01600631708114
 20
4.518552101669683
 30
0.0
 10
42.99427555175973
 20
4.553719856306656
 30
0.0
 10
42.9709063143772
 20
4.590353392497576
 30
0.0
 10
42.95286749689194
 20
4.617950094897466
 30
0.0
 10
42.94326561137916
 20
4.632445669518091
 30
0.0
 10
42.93935990937654
 20
4.638319748223146
 30
0.0
 10
42.93805701917245
 20
4.640276329093566
 30
0.0
 10
42.93654077279041
 20
4.642549575142865
 30
0.0
 10
42.93608596706849
 20
4.643231285065098
 30
0.0
 10
42.93573197516701
 20
4.643760680741003
 30
0.0
 10
42.93545075248414
 20
4.644181290794207
 30
0.0
 10
42.93517448807381
 20
4.644594650691267
 30
0.0
 10
42.93494342265131
 20
4.644940505804413
 30
0.0
 11
43.17774856623986
 21
4.121275850396045
 31
0.0
 11
43.17582241431142
 21
4.148789522877734
 31
0.0
 11
43.17311337281529
 21
4.167358896057635
 31
0.0
 11
43.16931428666793
 21
4.186505685428244
 31
0.0
 11
43.16442865893731
 21
4.206371267921895
 31
0.0
 11
43.15853381903906
 21
4.226768363367625
 31
0.0
 11
43.15149497686213
 21
4.248195500718622
 31
0.0
 11
43.14349815588673
 21
4.270118329226704
 31
0.0
 11
43.13451985907386
 21
4.292682123150541
 31
0.0
 11
43.1246696658651
 21
4.31568362726
 31
0.0
 11
43.1140603236812
 21
4.338953690289827
 31
0.0
 11
43.10268481970967
 21
4.362591679864124
 31
0.0
 11
43.09050151130622
 21
4.386735563326567
 31
0.0
 11
43.07763404184362
 21
4.411188057749086
 31
0.0
 11
43.0638343171845
 21
4.43644454195595
 31
0.0
 11
43.04941517990317
 21
4.461956279497087
 31
0.0
 11
43.03431808676203
 21
4.487867211446143
 31
0.0
 11
43.01868620209051
 21
4.513970193130546
 31
0.0
 11
42.9943376696317
 21
4.553408885426165
 31
0.0
 11
42.96894491908801
 21
4.593243605198665
 31
0.0
 11
42.94883461242676
 21
4.624021015572282
 31
0.0
 11
42.94060567858053
 21
4.636444597033118
 31
0.0
 11
42.94033162097775
 21
4.636856773167551
 31
0.0
 11
42.93713604201525
 21
4.641655544241643
 31
0.0
 11
42.9366967593736
 21
4.642314169168628
 31
0.0
 11
42.93578624466255
 21
4.643678528576003
 31
0.0
 11
42.93577162103758
 21
4.643700432628122
 31
0.0
 11
42.93563634639861
 21
4.643903041247881
 31
0.0
 11
42.93494342265131
 21
4.644940505804413
 31
0.0
  0
SPLINE
  5
15B
330
2
100
AcDbEntity
  8
GAIKEI
  6
Continuous
 62
     1
100
AcDbSpline
210
0.0
220
0.0
230
1.0
 70
     8
 71
     3
 72
    20
 73
    16
 74
    14
 42
0.0000000001
 43
0.0000000001
 44
0.000001
 12
0.299379595244951
 22
-0.9541340880353082
 32
0.0
 13
0.0543241289414467
 23
-0.9985233542660647
 33
0.0
 40
0.0
 40
0.0
 40
0.0
 40
0.0
 40
0.0063807478429947
 40
0.0340721766799074
 40
0.0639604415144966
 40
0.096044420709983
 40
0.1303192580884646
 40
0.1667773842440195
 40
0.203422368353348
 40
0.2421105810853491
 40
0.2827305287953021
 40
0.3157167484610425
 40
0.3498659610588975
 40
0.3850650557778393
 40
0.4212011070297878
 40
0.4212011070297878
 40
0.4212011070297878
 40
0.4212011070297878
 10
42.98429805718416
 20
3.730818978390004
 30
0.0
 10
42.98493481241968
 20
3.728789615381948
 30
0.0
 10
42.98829386335424
 20
3.717940221773709
 30
0.0
 10
42.99411265360916
 20
3.697424153898275
 30
0.0
 10
43.00132240366315
 20
3.668414374845426
 30
0.0
 10
43.00815788138152
 20
3.637064491688292
 30
0.0
 10
43.01459001838952
 20
3.603397686255597
 30
0.0
 10
43.02048076166371
 20
3.568090059259027
 30
0.0
 10
43.02584807116327
 20
3.53121254890911
 30
0.0
 10
43.03070913600175
 20
3.4928663736938
 30
0.0
 10
43.03477930141485
 20
3.455655060680697
 30
0.0
 10
43.03817159498158
 20
3.419896302935143
 30
0.0
 10
43.04098577730087
 20
3.385900263165858
 30
0.0
 10
43.04348281235536
 20
3.350826889538559
 30
0.0
 10
43.04490885669148
 20
3.327090717599261
 30
0.0
 10
43.04556320986068
 20
3.315063153897256
 30
0.0
 11
42.98429805718416
 21
3.730818978390004
 31
0.0
 11
42.98618296452803
 21
3.724722749706302
 31
0.0
 11
42.99377119187982
 21
3.698091366638777
 31
0.0
 11
43.00100961093227
 21
3.669092878842889
 31
0.0
 11
43.00787012777658
 21
3.637750987392848
 31
0.0
 11
43.01432464850404
 21
3.604089393362869
 31
0.0
 11
43.02034507920587
 21
3.568131797827334
 31
0.0
 11
43.02564050793904
 21
3.531871452353357
 31
0.0
 11
43.03052008374573
 21
3.493492200875209
 31
0.0
 11
43.03494827009717
 21
3.453114351292981
 31
0.0
 11
43.03806952166747
 21
3.420276141147212
 31
0.0
 11
43.04089160554719
 21
3.386243744792011
 31
0.0
 11
43.04339575664272
 21
3.351133852338364
 31
0.0
 11
43.04556320986068
 21
3.315063153897256
 31
0.0
  0
SPLINE
  5
15C
330
2
100
AcDbEntity
  8
GAIKEI
  6
Continuous
 62
     1
100
AcDbSpline
210
0.0
220
0.0
230
1.0
 70
     8
 71
     3
 72
    18
 73
    14
 74
    12
 42
0.0000000001
 43
0.0000000001
 44
0.000001
 12
-0.9988897441339355
 22
-0.0471092248295469
 32
0.0
 13
-0.3585121632137753
 23
0.9335250552758502
 33
0.0
 40
0.0
 40
0.0
 40
0.0
 40
0.0
 40
0.0119805905300651
 40
0.024331061290752
 40
0.0376234896336699
 40
0.0522411295060456
 40
0.0668180788349941
 40
0.0830395302716152
 40
0.1011283162673229
 40
0.1216709828861066
 40
0.1446528964452394
 40
0.1703155568409978
 40
0.1739624955742539
 40
0.1739624955742539
 40
0.1739624955742539
 40
0.1739624955742539
 10
41.43290358818251
 20
2.823129769118907
 30
0.0
 10
41.42891449184611
 20
2.82294163700795
 30
0.0
 10
41.42074517199148
 20
2.823346746012234
 30
0.0
 10
41.40856178000916
 20
2.826668613886894
 30
0.0
 10
41.3964651958648
 20
2.832647484044315
 30
0.0
 10
41.38496393657848
 20
2.8410091657598
 30
0.0
 10
41.37398807743392
 20
2.851482998649771
 30
0.0
 10
41.36346799759155
 20
2.863964108225729
 30
0.0
 10
41.35300749759742
 20
2.878986663882784
 30
0.0
 10
41.34262508369011
 20
2.896728721326738
 30
0.0
 10
41.33237902538033
 20
2.91740764533975
 30
0.0
 10
41.32559872678609
 20
2.933476910415407
 30
0.0
 10
41.32206063093303
 20
2.942583524703117
 30
0.0
 10
41.32162480696826
 20
2.943718360930631
 30
0.0
 11
41.43290358818251
 21
2.823129769118907
 31
0.0
 11
41.42093888931589
 21
2.823763722533669
 31
0.0
 11
41.40900507169158
 21
2.826944294897941
 31
0.0
 11
41.39705113521443
 21
2.832757252344435
 31
0.0
 11
41.38516486443052
 21
2.841265522427022
 31
0.0
 11
41.37456780007357
 21
2.851274957321038
 31
0.0
 11
41.36405730326209
 21
2.86363069130931
 31
0.0
 11
41.35366313181759
 21
2.878434903077561
 31
0.0
 11
41.34323384914575
 21
2.896133224781635
 31
0.0
 11
41.33297592785772
 21
2.91669879877952
 31
0.0
 11
41.32294506546026
 21
2.940319825290544
 31
0.0
 11
41.32162480696826
 21
2.943718360930631
 31
0.0
  0
SPLINE
  5
15D
330
2
100
AcDbEntity
  8
GAIKEI
  6
Continuous
 62
     1
100
AcDbSpline
210
0.0
220
0.0
230
1.0
 70
     8
 71
     3
 72
    11
 73
     7
 74
     5
 42
0.0000000001
 43
0.0000000001
 44
0.000001
 12
0.9703345670641711
 22
0.2417660603980373
 32
0.0
 13
0.9797500259308318
 23
0.2002245906189711
 33
0.0
 40
0.0
 40
0.0
 40
0.0
 40
0.0
 40
0.0041473159911531
 40
0.0230972194081771
 40
0.0430134616241683
 40
0.063731099072353
 40
0.063731099072353
 40
0.063731099072353
 40
0.063731099072353
 10
41.22837894041686
 20
2.798977627056046
 30
0.0
 10
41.2297203684391
 20
2.799311853805512
 30
0.0
 10
41.23719478329363
 20
2.801158244918326
 30
0.0
 10
41.25115630035432
 20
2.804425347716744
 30
0.0
 10
41.27055896332396
 20
2.808670167876123
 30
0.0
 10
41.28381496962311
 20
2.811452473228101
 30
0.0
 10
41.2905810048988
 20
2.812835200053655
 30
0.0
 11
41.22837894041686
 21
2.798977627056046
 31
0.0
 11
41.23240530791912
 21
2.799972131271317
 31
0.0
 11
41.25085264644826
 21
2.804307435296777
 31
0.0
 11
41.27030404296118
 21
2.808585079790191
 31
0.0
 11
41.2905810048988
 21
2.812835200053655
 31
0.0
  0
SPLINE
  5
15E
330
2
100
AcDbEntity
  8
GAIKEI
  6
Continuous
 62
     1
100
AcDbSpline
210
0.0
220
0.0
230
1.0
 70
     8
 71
     3
 72
     9
 73
     5
 74
     3
 42
0.0000000001
 43
0.0000000001
 44
0.000001
 12
0.9999857704525481
 22
-0.0053346876594615
 32
0.0
 13
0.9999959155307976
 23
-0.0028581325584514
 33
0.0
 40
0.0
 40
0.0
 40
0.0
 40
0.0
 40
0.3908998216266075
 40
0.4190327266555318
 40
0.4190327266555318
 40
0.4190327266555318
 40
0.4190327266555318
 10
40.14981291448044
 20
1.643469560230585
 30
0.0
 10
40.28011100091345
 20
1.642774450745747
 30
0.0
 10
40.41978753949857
 20
1.642190660499998
 30
0.0
 10
40.55946450848156
 20
1.641779831279031
 30
0.0
 10
40.56884210518854
 20
1.64175302875509
 30
0.0
 11
40.14981291448044
 21
1.643469560230585
 31
0.0
 11
40.54070932294052
 21
1.641835775167862
 31
0.0
 11
40.56884210518854
 21
1.64175302875509
 31
0.0
  0
SPLINE
  5
15F
330
2
100
AcDbEntity
  8
GAIKEI
  6
Continuous
 62
     7
100
AcDbSpline
210
0.0
220
0.0
230
1.0
 70
     8
 71
     3
 72
     9
 73
     5
 74
     3
 42
0.0000000001
 43
0.0000000001
 44
0.000001
 12
-0.9999967948792836
 22
-0.0025318434312368
 32
0.0
 13
-0.9999860532931538
 23
-0.0052814031451416
 33
0.0
 40
0.0
 40
0.0
 40
0.0
 40
0.0
 40
0.0968157403298449
 40
0.4877122289167754
 40
0.4877122289167754
 40
0.4877122289167754
 40
0.4877122289167754
 10
40.63752467542752
 20
37.83385718953662
 30
0.0
 10
40.60525286541962
 20
37.83377548210456
 30
0.0
 10
40.4426827620048
 20
37.83331951135191
 30
0.0
 10
40.28011325381348
 20
37.83264004033717
 30
0.0
 10
40.14981624152409
 20
37.83195187968909
 30
0.0
 11
40.63752467542752
 21
37.83385718953662
 31
0.0
 11
40.54070932294047
 21
37.83358564540066
 31
0.0
 11
40.14981624152409
 21
37.83195187968909
 31
0.0
  0
SPLINE
  5
160
330
2
100
AcDbEntity
  8
GAIKEI
  6
Continuous
 62
     7
100
AcDbSpline
210
0.0
220
0.0
230
1.0
 70
     8
 71
     3
 72
     9
 73
     5
 74
     3
 42
0.0000000001
 43
0.0000000001
 44
0.000001
 12
-0.9947747753350332
 22
-0.1020938115516043
 32
0.0
 13
-0.9947988961165853
 23
-0.1018585111084175
 33
0.0
 40
0.0
 40
0.0
 40
0.0
 40
0.0
 40
0.1977011781494299
 40
0.944782611872483
 40
0.944782611872483
 40
0.944782611872483
 40
0.944782611872483
 10
40.14442470051193
 20
37.83188026648611
 30
0.0
 10
40.07886865215292
 20
37.82515224421094
 30
0.0
 10
39.76558588638147
 20
37.79300784467702
 30
0.0
 10
39.45229931863884
 20
37.76090049604605
 30
0.0
 10
39.2045673901132
 20
37.73553496187413
 30
0.0
 11
40.14442470051193
 21
37.83188026648611
 31
0.0
 11
39.94775605608447
 21
37.81170106682044
 31
0.0
 11
39.2045673901132
 21
37.73553496187413
 31
0.0
  0
SPLINE
  5
161
330
2
100
AcDbEntity
  8
GAIKEI
  6
Continuous
 62
     1
100
AcDbSpline
210
0.0
220
0.0
230
1.0
 70
     8
 71
     3
 72
    21
 73
    17
 74
    15
 42
0.0000000001
 43
0.0000000001
 44
0.000001
 12
0.0382553536958656
 22
0.9992679960419048
 32
0.0
 13
-0.7595848949301688
 23
0.6504081698394668
 33
0.0
 40
0.0
 40
0.0
 40
0.0
 40
0.0
 40
0.0221910289686871
 40
0.0441849332591015
 40
0.0655784734027641
 40
0.0863132603141312
 40
0.1060380685474968
 40
0.1243777896296458
 40
0.1409618325684401
 40
0.1558604188062607
 40
0.16879454101976
 40
0.1794887649079415
 40
0.1880571758778945
 40
0.1943546315347328
 40
0.1985899972598501
 40
0.200311883501781
 40
0.200311883501781
 40
0.200311883501781
 40
0.200311883501781
 10
39.20739147360564
 20
37.53585022576511
 30
0.0
 10
39.20767444882634
 20
37.54324182078099
 30
0.0
 10
39.20816637841961
 20
37.55796224587854
 30
0.0
 10
39.208660306226
 20
37.57981647753299
 30
0.0
 10
39.20897294100127
 20
37.60118845091805
 30
0.0
 10
39.20913502123125
 20
37.62180564316256
 30
0.0
 10
39.20916894764801
 20
37.64140558868258
 30
0.0
 10
39.20909273499916
 20
37.6596214375044
 30
0.0
 10
39.20892693969626
 20
37.67622907942508
 30
0.0
 10
39.20866761358047
 20
37.69102971554094
 30
0.0
 10
39.20834389641573
 20
37.70387658667917
 30
0.0
 10
39.20787890978585
 20
37.71457608660181
 30
0.0
 10
39.20747875796508
 20
37.72314773691431
 30
0.0
 10
39.20659231052659
 20
37.72932911045541
 30
0.0
 10
39.20641548884464
 20
37.7336728928737
 30
0.0
 10
39.20499507736418
 20
37.73516069501953
 30
0.0
 10
39.20455910443747
 20
37.73553400464596
 30
0.0
 11
39.20739147360564
 21
37.53585022576511
 31
0.0
 11
39.20812753741746
 21
37.55802857050685
 31
0.0
 11
39.20863431707829
 21
37.58001663536698
 31
0.0
 11
39.20895075682137
 21
37.60140783365148
 31
0.0
 11
39.20911505964756
 21
37.62214196754309
 31
0.0
 11
39.20914870162153
 21
37.64186674456175
 31
0.0
 11
39.20907077730254
 21
37.66020629692901
 31
0.0
 11
39.20889850777832
 21
37.67678944100544
 31
0.0
 11
39.20863481036474
 21
37.69168568782391
 31
0.0
 11
39.20828143195917
 21
37.70461497374606
 31
0.0
 11
39.20784012907194
 21
37.71530007636
 31
0.0
 11
39.20729046386902
 21
37.72385081807096
 31
0.0
 11
39.2066161790641
 21
37.73011202921271
 31
0.0
 11
39.20570403104284
 21
37.73424777079725
 31
0.0
 11
39.20455910443747
 21
37.73553400464596
 31
0.0
  0
SPLINE
  5
162
330
2
100
AcDbEntity
  8
GAIKEI
  6
Continuous
 62
     1
100
AcDbSpline
210
0.0
220
0.0
230
1.0
 70
     8
 71
     3
 72
    25
 73
    21
 74
    19
 42
0.0000000001
 43
0.0000000001
 44
0.000001
 12
-0.0255134206165988
 22
-0.9996744797024883
 32
0.0
 13
0.9743074816367307
 23
-0.2252219599121975
 33
0.0
 40
0.0
 40
0.0
 40
0.0
 40
0.0
 40
0.0204813486621756
 40
0.0409688729825677
 40
0.0576179634096592
 40
0.0741051539890635
 40
0.0901792402221535
 40
0.1058345015999207
 40
0.1202818072328477
 40
0.1339991181210809
 40
0.1470723265839186
 40
0.1591864839562975
 40
0.1697261044376251
 40
0.1792402916126943
 40
0.1877892930673852
 40
0.1951896496431825
 40
0.2012055425433604
 40
0.2062281867816495
 40
0.2104862133427884
 40
0.2122113217879108
 40
0.2122113217879108
 40
0.2122113217879108
 40
0.2122113217879108
 10
40.10744554702433
 20
1.847312321217998
 30
0.0
 10
40.10727136393657
 20
1.840487427362177
 30
0.0
 10
40.10707217210205
 20
1.826831337656884
 30
0.0
 10
40.10720926511484
 20
1.807624293126224
 30
0.0
 10
40.10770504645842
 20
1.789755518967368
 30
0.0
 10
40.10847945203852
 20
1.773369237650847
 30
0.0
 10
40.1095717082008
 20
1.757332978161471
 30
0.0
 10
40.1109634281006
 20
1.7420023502304
 30
0.0
 10
40.11263939657687
 20
1.727490637585724
 30
0.0
 10
40.11458186363293
 20
1.713880761812404
 30
0.0
 10
40.11680849861238
 20
1.701102699754528
 30
0.0
 10
40.11927739323062
 20
1.68944922192314
 30
0.0
 10
40.12194584003828
 20
1.679060064494926
 30
0.0
 10
40.12478611065995
 20
1.66995343614019
 30
0.0
 10
40.12783716690671
 20
1.662024340064562
 30
0.0
 10
40.13105343389969
 20
1.655433922413095
 30
0.0
 10
40.13439542328422
 20
1.650249815090475
 30
0.0
 10
40.13784831582674
 20
1.646463419977095
 30
0.0
 10
40.14097173958771
 20
1.644400864113627
 30
0.0
 10
40.14289168417536
 20
1.64382510033964
 30
0.0
 10
40.14345194619693
 20
1.643695589571279
 30
0.0
 11
40.10744554702433
 21
1.847312321217998
 31
0.0
 11
40.10714697300807
 21
1.826833938301092
 31
0.0
 11
40.10729662380896
 21
1.806346964878059
 31
0.0
 11
40.10776145808733
 21
1.789704368525292
 31
0.0
 11
40.10854430321939
 21
1.773235778381319
 31
0.0
 11
40.10964275835817
 21
1.757199273804758
 31
0.0
 11
40.11106644217853
 21
1.741608887658173
 31
0.0
 11
40.11273354458523
 21
1.727258096625007
 31
0.0
 11
40.11468392340947
 21
1.713680158559839
 31
0.0
 11
40.11694450641721
 21
1.700803891306009
 31
0.0
 11
40.1194764652393
 21
1.688957302814117
 31
0.0
 11
40.12212198301279
 21
1.678755122619236
 31
0.0
 11
40.12498529110922
 21
1.669682041204794
 31
0.0
 11
40.12809718085685
 21
1.6617195632179
 31
0.0
 11
40.13139872032058
 21
1.655096535487928
 31
0.0
 11
40.13472164974314
 21
1.650081716186605
 31
0.0
 11
40.13817902346295
 21
1.646438551428445
 31
0.0
 11
40.14180310860837
 21
1.644203461435552
 31
0.0
 11
40.14345194619693
 21
1.643695589571279
 31
0.0
  0
SPLINE
  5
163
330
2
100
AcDbEntity
  8
GAIKEI
  6
Continuous
 62
     1
100
AcDbSpline
210
0.0
220
0.0
230
1.0
 70
     8
 71
     3
 72
    21
 73
    17
 74
    15
 42
0.0000000001
 43
0.0000000001
 44
0.000001
 12
0.0382553536963009
 22
-0.9992679960418882
 32
0.0
 13
-0.7595848949307547
 23
-0.6504081698387826
 33
0.0
 40
0.0
 40
0.0
 40
0.0
 40
0.0
 40
0.0221910289687439
 40
0.0441849332590944
 40
0.0655784734027641
 40
0.0863132603141809
 40
0.1060380685475536
 40
0.1243777896297098
 40
0.1409618325684899
 40
0.1558604188063247
 40
0.1687945410197601
 40
0.1794887649079913
 40
0.1880571758779442
 40
0.194354631534726
 40
0.1985899972598988
 40
0.2003118835017926
 40
0.2003118835017926
 40
0.2003118835017926
 40
0.2003118835017926
 10
39.20739147360564
 20
1.939571194803477
 30
0.0
 10
39.20767444882634
 20
1.932179599787573
 30
0.0
 10
39.20816637841961
 20
1.91745917469003
 30
0.0
 10
39.208660306226
 20
1.895604943035564
 30
0.0
 10
39.20897294100127
 20
1.874232969650542
 30
0.0
 10
39.20913502123119
 20
1.853615777405948
 30
0.0
 10
39.2091689476481
 20
1.834015831885963
 30
0.0
 10
39.20909273499908
 20
1.815799983064138
 30
0.0
 10
39.20892693969634
 20
1.799192341143395
 30
0.0
 10
39.20866761358045
 20
1.78439170502763
 30
0.0
 10
39.20834389641576
 20
1.771544833889379
 30
0.0
 10
39.20787890978585
 20
1.760845333966727
 30
0.0
 10
39.20747875796508
 20
1.752273683654252
 30
0.0
 10
39.20659231052653
 20
1.746092310113155
 30
0.0
 10
39.20641548884473
 20
1.741748527694845
 30
0.0
 10
39.20499507736418
 20
1.740260725549042
 30
0.0
 10
39.20455910443747
 20
1.739887415922623
 30
0.0
 11
39.20739147360564
 21
1.939571194803477
 31
0.0
 11
39.20812753741746
 21
1.917392850061673
 31
0.0
 11
39.20863431707829
 21
1.895404785201606
 31
0.0
 11
39.20895075682137
 21
1.874013586917101
 31
0.0
 11
39.20911505964756
 21
1.853279453025436
 31
0.0
 11
39.20914870162153
 21
1.83355467600677
 31
0.0
 11
39.20907077730254
 21
1.815215123639518
 31
0.0
 11
39.20889850777832
 21
1.798631979563083
 31
0.0
 11
39.20863481036474
 21
1.783735732744617
 31
0.0
 11
39.20828143195917
 21
1.770806446822518
 31
0.0
 11
39.20784012907194
 21
1.760121344208528
 31
0.0
 11
39.20729046386902
 21
1.751570602497565
 31
0.0
 11
39.2066161790641
 21
1.745309391355874
 31
0.0
 11
39.20570403104284
 21
1.741173649771269
 31
0.0
 11
39.20455910443747
 21
1.739887415922623
 31
0.0
  0
SPLINE
  5
164
330
2
100
AcDbEntity
  8
GAIKEI
  6
Continuous
 62
     7
100
AcDbSpline
210
0.0
220
0.0
230
1.0
 70
     8
 71
     3
 72
     9
 73
     5
 74
     3
 42
0.0000000001
 43
0.0000000001
 44
0.000001
 12
0.9946733934099068
 22
-0.1030768666695919
 32
0.0
 13
0.9996677582123131
 23
-0.0257754377415425
 33
0.0
 40
0.0
 40
0.0
 40
0.0
 40
0.0
 40
0.00192921952105
 40
0.0047028439137039
 40
0.0047028439137039
 40
0.0047028439137039
 40
0.0047028439137039
 10
40.14464477317011
 20
1.643826121412246
 30
0.0
 10
40.14528442094598
 20
1.643759835444463
 30
0.0
 10
40.14684631126437
 20
1.643623050586867
 30
0.0
 10
40.14841274765146
 20
1.643546817749985
 30
0.0
 10
40.14933698194437
 20
1.643522987289031
 30
0.0
 11
40.14464477317011
 21
1.643826121412246
 31
0.0
 11
40.14656659730639
 21
1.643657778924023
 31
0.0
 11
40.14933698194437
 21
1.643522987289031
 31
0.0
  0
SPLINE
  5
165
330
2
100
AcDbEntity
  8
GAIKEI
  6
Continuous
 62
     1
100
AcDbSpline
210
0.0
220
0.0
230
1.0
 70
     8
 71
     3
 72
     9
 73
     5
 74
     3
 42
0.0000000001
 43
0.0000000001
 44
0.000001
 12
0.0107468806351511
 22
0.9999422506108111
 32
0.0
 13
0.1266484047962899
 23
0.9919476707783307
 33
0.0
 40
0.0
 40
0.0
 40
0.0
 40
0.0
 40
0.0181772876333758
 40
0.0364254517197337
 40
0.0364254517197337
 40
0.0364254517197337
 40
0.0364254517197337
 10
39.2048859489484
 20
37.49952645084409
 30
0.0
 10
39.20495106532854
 20
37.50558519681279
 30
0.0
 10
39.20543426697065
 20
37.51772504843443
 30
0.0
 10
39.2066211066483
 20
37.52981648447795
 30
0.0
 10
39.20739147360564
 20
37.53585022576511
 30
0.0
 11
39.2048859489484
 21
37.49952645084409
 31
0.0
 11
39.20560788283598
 21
37.5176894086448
 31
0.0
 11
39.20739147360564
 21
37.53585022576511
 31
0.0
  0
SPLINE
  5
166
330
2
100
AcDbEntity
  8
GAIKEI
  6
Continuous
 62
     1
100
AcDbSpline
210
0.0
220
0.0
230
1.0
 70
     8
 71
     3
 72
     9
 73
     5
 74
     3
 42
0.0000000001
 43
0.0000000001
 44
0.000001
 12
0.0107468806355603
 22
-0.9999422506108064
 32
0.0
 13
0.1266484047959066
 23
-0.9919476707783793
 33
0.0
 40
0.0
 40
0.0
 40
0.0
 40
0.0
 40
0.0181772876333676
 40
0.0364254517196732
 40
0.0364254517196732
 40
0.0364254517196732
 40
0.0364254517196732
 10
39.20488594894846
 20
1.975894969724436
 30
0.0
 10
39.20495106532863
 20
1.969836223755734
 30
0.0
 10
39.20543426697071
 20
1.95769637213408
 30
0.0
 10
39.2066211066483
 20
1.94560493609061
 30
0.0
 10
39.20739147360564
 20
1.939571194803477
 30
0.0
 11
39.20488594894846
 21
1.975894969724436
 31
0.0
 11
39.20560788283598
 21
1.957732011923724
 31
0.0
 11
39.20739147360564
 21
1.939571194803477
 31
0.0
  0
SPLINE
  5
167
330
2
100
AcDbEntity
  8
GAIKEI
  6
Continuous
 62
     1
100
AcDbSpline
210
0.0
220
0.0
230
1.0
 70
     8
 71
     3
 72
    17
 73
    13
 74
    11
 42
0.0000000001
 43
0.0000000001
 44
0.000001
 12
0.3612359225596014
 22
-0.9324744544771796
 32
0.0
 13
-0.0627016803872264
 23
-0.9980323137437075
 33
0.0
 40
0.0
 40
0.0
 40
0.0
 40
0.0
 40
0.0028300885610925
 40
0.0073793218412024
 40
0.0162740123555915
 40
0.0284944018718172
 40
0.0435304452718028
 40
0.0615754826925127
 40
0.0817126975661947
 40
0.1041653858556464
 40
0.1273126048373586
 40
0.1517927467179394
 40
0.1517927467179394
 40
0.1517927467179394
 40
0.1517927467179394
 10
39.14590059182069
 20
37.69523430240747
 30
0.0
 10
39.14624136837145
 20
37.6943546406451
 30
0.0
 10
39.14701537177405
 20
37.69200717523299
 30
0.0
 10
39.14760906049279
 20
37.68659110123113
 30
0.0
 10
39.14819109616437
 20
37.67806608744812
 30
0.0
 10
39.14847154573923
 20
37.66601081618211
 30
0.0
 10
39.14854695766022
 20
37.65091254086153
 30
0.0
 10
39.14836493044652
 20
37.63317258319211
 30
0.0
 10
39.14793351690145
 20
37.61296549622442
 30
0.0
 10
39.14723506391289
 20
37.59106376121235
 30
0.0
 10
39.14624434011239
 20
37.56772425614518
 30
0.0
 10
39.14535198909988
 20
37.55187293645746
 30
0.0
 10
39.14484034042255
 20
37.54372894557685
 30
0.0
 11
39.14590059182069
 21
37.69523430240747
 31
0.0
 11
39.14675987624503
 21
37.69253774445326
 31
0.0
 11
39.14742833013287
 21
37.68803797624901
 31
0.0
 11
39.14805879832761
 21
37.67916569306886
 31
0.0
 11
39.14841534708211
 21
37.66695052371267
 31
0.0
 11
39.14850622200305
 21
37.65191476532914
 31
0.0
 11
39.14833960292282
 21
37.63387050418555
 31
0.0
 11
39.14791559472991
 21
37.61373775867719
 31
0.0
 11
39.14720263797494
 21
37.59129639635029
 31
0.0
 11
39.14621046733368
 21
37.5681704524867
 31
0.0
 11
39.14484034042255
 21
37.54372894557685
 31
0.0
  0
SPLINE
  5
168
330
2
100
AcDbEntity
  8
GAIKEI
  6
Continuous
 62
     1
100
AcDbSpline
210
0.0
220
0.0
230
1.0
 70
     8
 71
     3
 72
    17
 73
    13
 74
    11
 42
0.0000000001
 43
0.0000000001
 44
0.000001
 12
0.3612359225583266
 22
0.9324744544776734
 32
0.0
 13
-0.0627016803875014
 23
0.9980323137436903
 33
0.0
 40
0.0
 40
0.0
 40
0.0
 40
0.0
 40
0.0028300885610925
 40
0.0073793218411953
 40
0.0162740123556482
 40
0.0284944018718171
 40
0.0435304452717957
 40
0.0615754826925055
 40
0.0817126975661946
 40
0.1041653858556463
 40
0.1273126048373657
 40
0.1517927467179393
 40
0.1517927467179393
 40
0.1517927467179393
 40
0.1517927467179393
 10
39.14590059182069
 20
1.780187118161052
 30
0.0
 10
39.14624136837145
 20
1.781066779923428
 30
0.0
 10
39.14701537177399
 20
1.783414245335514
 30
0.0
 10
39.14760906049273
 20
1.788830319337399
 30
0.0
 10
39.14819109616443
 20
1.797355333120428
 30
0.0
 10
39.14847154573914
 20
1.809410604386421
 30
0.0
 10
39.14854695766027
 20
1.824508879707018
 30
0.0
 10
39.14836493044655
 20
1.842248837376409
 30
0.0
 10
39.14793351690148
 20
1.862455924344104
 30
0.0
 10
39.14723506391286
 20
1.884357659356197
 30
0.0
 10
39.14624434011236
 20
1.907697164423304
 30
0.0
 10
39.14535198909988
 20
1.923548484111066
 30
0.0
 10
39.14484034042255
 20
1.931692474991677
 30
0.0
 11
39.14590059182069
 21
1.780187118161052
 31
0.0
 11
39.14675987624503
 21
1.782883676115261
 31
0.0
 11
39.14742833013287
 21
1.787383444319516
 31
0.0
 11
39.14805879832761
 21
1.796255727499726
 31
0.0
 11
39.14841534708211
 21
1.808470896855851
 31
0.0
 11
39.14850622200305
 21
1.823506655239384
 31
0.0
 11
39.14833960292282
 21
1.841550916382971
 31
0.0
 11
39.14791559472991
 21
1.861683661891333
 31
0.0
 11
39.14720263797494
 21
1.884125024218235
 31
0.0
 11
39.14621046733368
 21
1.907250968081825
 31
0.0
 11
39.14484034042255
 21
1.931692474991677
 31
0.0
  0
SPLINE
  5
169
330
2
100
AcDbEntity
  8
GAIKEI
  6
Continuous
 62
     1
100
AcDbSpline
210
0.0
220
0.0
230
1.0
 70
     8
 71
     3
 72
    11
 73
     7
 74
     5
 42
0.0000000001
 43
0.0000000001
 44
0.000001
 12
-0.0654000757821216
 22
-0.9978591233674684
 32
0.0
 13
0.0982885050871231
 23
-0.9951579622189326
 33
0.0
 40
0.0
 40
0.0
 40
0.0
 40
0.0
 40
0.0110413870342985
 40
0.0220816452102942
 40
0.0331549967802795
 40
0.0442276311423504
 40
0.0442276311423504
 40
0.0442276311423504
 40
0.0442276311423504
 10
39.14484034042255
 20
37.54372894557685
 30
0.0
 10
39.14459963790628
 20
37.5400563626479
 30
0.0
 10
39.14424348004132
 20
37.53270289350104
 30
0.0
 10
39.14406620788538
 20
37.52165059291471
 30
0.0
 10
39.14432553572351
 20
37.51058774405193
 30
0.0
 10
39.14487521783531
 20
37.50322246151299
 30
0.0
 10
39.14523798872824
 20
37.49954945476361
 30
0.0
 11
39.14484034042255
 21
37.54372894557685
 31
0.0
 11
39.14430397256422
 21
37.53270083304836
 31
0.0
 11
39.14413966561364
 21
37.52166227690947
 31
0.0
 11
39.14441874739941
 21
37.51059210283285
 31
0.0
 11
39.14523798872824
 21
37.49954945476361
 31
0.0
  0
SPLINE
  5
16A
330
2
100
AcDbEntity
  8
GAIKEI
  6
Continuous
 62
     1
100
AcDbSpline
210
0.0
220
0.0
230
1.0
 70
     8
 71
     3
 72
    11
 73
     7
 74
     5
 42
0.0000000001
 43
0.0000000001
 44
0.000001
 12
-0.0654000757818637
 22
0.9978591233674855
 32
0.0
 13
0.098288505086618
 23
0.9951579622189827
 33
0.0
 40
0.0
 40
0.0
 40
0.0
 40
0.0
 40
0.0110413870343056
 40
0.0220816452102942
 40
0.0331549967803434
 40
0.0442276311424072
 40
0.0442276311424072
 40
0.0442276311424072
 40
0.0442276311424072
 10
39.14484034042255
 20
1.931692474991677
 30
0.0
 10
39.14459963790628
 20
1.935365057920613
 30
0.0
 10
39.14424348004132
 20
1.942718527067512
 30
0.0
 10
39.14406620788538
 20
1.953770827653841
 30
0.0
 10
39.14432553572343
 20
1.96483367651664
 30
0.0
 10
39.14487521783531
 20
1.972198959055589
 30
0.0
 10
39.14523798872824
 20
1.975871965804969
 30
0.0
 11
39.14484034042255
 21
1.931692474991677
 31
0.0
 11
39.14430397256422
 21
1.94272058752017
 31
0.0
 11
39.14413966561364
 21
1.953759143659056
 31
0.0
 11
39.14441874739941
 21
1.964829317735734
 31
0.0
 11
39.14523798872824
 21
1.975871965804969
 31
0.0
  0
SPLINE
  5
16B
330
2
100
AcDbEntity
  8
GAIKEI
  6
Continuous
 62
     1
100
AcDbSpline
210
0.0
220
0.0
230
1.0
 70
     8
 71
     3
 72
    12
 73
     8
 74
     6
 42
0.0000000001
 43
0.0000000001
 44
0.000001
 12
-0.9997199128824609
 22
0.0236663429005118
 32
0.0
 13
-0.5897290979336681
 23
-0.8076011336361174
 33
0.0
 40
0.0
 40
0.0
 40
0.0
 40
0.0
 40
0.0096251542167735
 40
0.0199387934551342
 40
0.0318105192887571
 40
0.0457159054561243
 40
0.050248664879283
 40
0.050248664879283
 40
0.050248664879283
 40
0.050248664879283
 10
40.22312655247958
 20
36.88940592376412
 30
0.0
 10
40.21991906636791
 20
36.88948185449751
 30
0.0
 10
40.21320623694359
 20
36.88882794335884
 30
0.0
 10
40.20328938846051
 20
36.88471778118647
 30
0.0
 10
40.19353133431212
 20
36.87752574008613
 30
0.0
 10
40.18667250815602
 20
36.87003897940231
 30
0.0
 10
40.18291856323898
 20
36.86517257563462
 30
0.0
 10
40.18202752986371
 20
36.86395235508508
 30
0.0
 11
40.22312655247958
 21
36.88940592376412
 31
0.0
 11
40.21355291333873
 21
36.88840293420674
 31
0.0
 11
40.20397248240425
 21
36.88458312877106
 31
0.0
 11
40.19432128592979
 21
36.87766968691938
 31
0.0
 11
40.18478896063032
 21
36.86754559098773
 31
0.0
 11
40.18202752986371
 21
36.86395235508508
 31
0.0
  0
SPLINE
  5
16C
330
2
100
AcDbEntity
  8
GAIKEI
  6
Continuous
 62
     7
100
AcDbSpline
210
0.0
220
0.0
230
1.0
 70
     8
 71
     3
 72
    12
 73
     8
 74
     6
 42
0.0000000001
 43
0.0000000001
 44
0.000001
 12
-0.5210043848710568
 22
0.853554000017065
 32
0.0
 13
0.4724306694582073
 23
0.8813678361247761
 33
0.0
 40
0.0
 40
0.0
 40
0.0
 40
0.0
 40
0.0000005781458884
 40
0.0017333552898061
 40
0.0031452536161891
 40
0.0043832590831246
 40
0.0055717860833932
 40
0.0055717860833932
 40
0.0055717860833932
 40
0.0055717860833932
 10
39.1464900189311
 20
1.774907106291323
 30
0.0
 10
39.14648991852559
 20
1.774907270784233
 30
0.0
 10
39.14618891171105
 20
1.775400454211478
 30
0.0
 10
39.14569607304912
 20
1.776334851090197
 30
0.0
 10
39.14534773731381
 20
1.777772804865961
 30
0.0
 10
39.14542429133204
 20
1.77906892294559
 30
0.0
 10
39.14571342628523
 20
1.779837941670919
 30
0.0
 10
39.14590059182069
 20
1.780187118161052
 30
0.0
 11
39.1464900189311
 21
1.774907106291323
 31
0.0
 11
39.14648971773153
 21
1.774907599774394
 31
0.0
 11
39.14571887085413
 21
1.776459029505645
 31
0.0
 11
39.14540794436289
 21
1.777836415410831
 31
0.0
 11
39.14548707963002
 21
1.779072020087994
 31
0.0
 11
39.14590059182069
 21
1.780187118161052
 31
0.0
  0
SPLINE
  5
16D
330
2
100
AcDbEntity
  8
GAIKEI
  6
Continuous
 62
     1
100
AcDbSpline
210
0.0
220
0.0
230
1.0
 70
     8
 71
     3
 72
    24
 73
    20
 74
    18
 42
0.0000000001
 43
0.0000000001
 44
0.000001
 12
0.7763403989906265
 22
0.6303138780758956
 32
0.0
 13
0.7636803984192571
 23
0.6455944927508327
 33
0.0
 40
0.0
 40
0.0
 40
0.0
 40
0.0
 40
0.1773959314708884
 40
0.354481689505558
 40
0.5312969872922505
 40
0.7078822487365557
 40
0.8842795981092773
 40
1.115062369227088
 40
1.345689816078973
 40
1.576255225736605
 40
1.825996539094067
 40
2.075879877313447
 40
2.326007099412219
 40
2.576472834072538
 40
2.734121019363011
 40
2.891957822213213
 40
3.050003090005589
 40
3.208276939979012
 40
3.366799997369962
 40
3.366799997369962
 40
3.366799997369962
 40
3.366799997369962
 10
40.36854656926936
 20
2.922649315877947
 30
0.0
 10
40.41445311200852
 20
2.959921021718045
 30
0.0
 10
40.5062470164396
 20
3.034324093952577
 30
0.0
 10
40.64404078047277
 20
3.145575876588452
 30
0.0
 10
40.78175590677065
 20
3.256494614563109
 30
0.0
 10
40.91937337504151
 20
3.367168680839469
 30
0.0
 10
41.07104278478476
 20
3.48907462155752
 30
0.0
 10
41.23672510948142
 20
3.622300759511304
 30
0.0
 10
41.41634446850207
 20
3.767008314143168
 30
0.0
 10
41.60065366276711
 20
3.915967303692418
 30
0.0
 10
41.78962137406879
 20
4.069372906949851
 30
0.0
 10
41.98321260358548
 20
4.227427561709475
 30
0.0
 10
42.17649357269033
 20
4.386242218179162
 30
0.0
 10
42.34555038581336
 20
4.526107756434889
 30
0.0
 10
42.49057447620635
 20
4.646760031958983
 30
0.0
 10
42.61171120895778
 20
4.747955244678635
 30
0.0
 10
42.73280848064155
 20
4.84952249894426
 30
0.0
 10
42.85390295402947
 20
4.951448623440548
 30
0.0
 10
42.93459924067753
 20
5.019560738766834
 30
0.0
 10
42.97495289121985
 20
5.053674609708707
 30
0.0
 11
40.36854656926936
 21
2.922649315877947
 31
0.0
 11
40.50636356628581
 21
3.034344383897803
 31
0.0
 11
40.64413353135591
 21
3.145604451115502
 31
0.0
 11
40.78182978056964
 21
3.256525108954633
 31
0.0
 11
40.91942789800117
 21
3.367200817665946
 31
0.0
 11
41.05691006223333
 21
3.477720857935025
 31
0.0
 11
41.23674370569659
 21
3.622360230548963
 31
0.0
 11
41.4163236675422
 21
3.767067026112783
 31
0.0
 11
41.59563238477898
 21
3.912011126840809
 31
0.0
 11
41.78951215867022
 21
4.069432082785851
 31
0.0
 11
41.98306750115136
 21
4.227476420764503
 31
0.0
 11
42.17631787080779
 21
4.386277940423212
 31
0.0
 11
42.36929990777094
 21
4.545937010094291
 31
0.0
 11
42.49049270947046
 21
4.646759901840994
 31
0.0
 11
42.61162532273579
 21
4.747949558914967
 31
0.0
 11
42.73272111862167
 21
4.849507991194172
 31
0.0
 11
42.853816714196
 21
4.951422015151422
 31
0.0
 11
42.97495289121985
 21
5.053674609708707
 31
0.0
  0
SPLINE
  5
16E
330
2
100
AcDbEntity
  8
GAIKEI
  6
Continuous
 62
     1
100
AcDbSpline
210
0.0
220
0.0
230
1.0
 70
     8
 71
     3
 72
    24
 73
    20
 74
    18
 42
0.0000000001
 43
0.0000000001
 44
0.000001
 12
-0.763673541079552
 22
0.6456026042814714
 32
0.0
 13
-0.7763366358761542
 23
0.6303185129730015
 33
0.0
 40
0.0
 40
0.0
 40
0.0
 40
0.0
 40
0.1681222979462012
 40
0.3359656667857203
 40
0.5035547199692778
 40
0.6709132512745523
 40
0.8380651924213889
 40
1.005035010179513
 40
1.267110524497988
 40
1.528908353362705
 40
1.79054478854399
 40
2.010629314999003
 40
2.230766503968597
 40
2.451037449810018
 40
2.67152427472332
 40
2.844969077275459
 40
3.018637932547799
 40
3.192569038560268
 40
3.366800025634332
 40
3.366800025634332
 40
3.366800025634332
 40
3.366800025634332
 10
42.97495289121985
 20
34.42174681085987
 30
0.0
 10
42.93215604101752
 20
34.45792687532382
 30
0.0
 10
42.84657377854057
 20
34.53015653698881
 30
0.0
 10
42.71814201319648
 20
34.63822807045293
 30
0.0
 10
42.58970080774247
 20
34.74589257572328
 30
0.0
 10
42.46120985545218
 20
34.85313839464104
 30
0.0
 10
42.33264587171916
 20
34.95997400031757
 30
0.0
 10
42.17951380640738
 20
35.0866436849105
 30
0.0
 10
42.00164750223765
 20
35.2329077170036
 30
0.0
 10
41.79885850804669
 20
35.39854360231357
 30
0.0
 10
41.60644965401729
 20
35.55475963219789
 30
0.0
 10
41.42450061413166
 20
35.70182584966581
 30
0.0
 10
41.25306613299279
 20
35.83996537181545
 30
0.0
 10
41.08139776297423
 20
35.97802813149525
 30
0.0
 10
40.92181605778745
 20
36.10628477954988
 30
0.0
 10
40.77438320588448
 20
36.22486074007259
 30
0.0
 10
40.63912409364195
 20
36.33381152789013
 30
0.0
 10
40.50379013265407
 20
36.44308703736049
 30
0.0
 10
40.41363386463487
 20
36.51616510245124
 30
0.0
 10
40.36854656517806
 20
36.55277210801336
 30
0.0
 11
42.97495289121985
 21
34.42174681085987
 31
0.0
 11
42.84647684237586
 21
34.53018582216652
 31
0.0
 11
42.71804366271476
 21
34.63824281999979
 31
0.0
 11
42.58960474162228
 21
34.74589752084341
 31
0.0
 11
42.46111896164132
 21
34.85313689209056
 31
0.0
 11
42.33255975101633
 21
34.95996526466502
 31
0.0
 11
42.20390219750675
 21
35.06638967139475
 31
0.0
 11
42.00148490469859
 21
35.23285533047465
 31
0.0
 11
41.79873639400603
 21
35.39847883524681
 31
0.0
 11
41.59563238447924
 21
35.56341029397038
 31
0.0
 11
41.42448007255473
 21
35.70177244618435
 31
0.0
 11
41.25307991543252
 21
35.83991139159059
 31
0.0
 11
41.0814469769158
 21
35.97797450758497
 31
0.0
 11
40.90960310744975
 21
36.11611980920589
 31
0.0
 11
40.77445549832776
 21
36.22483146055941
 31
0.0
 11
40.63921428338301
 21
36.33378413342348
 31
0.0
 11
40.50390287737235
 21
36.44306749521957
 31
0.0
 11
40.36854656517806
 21
36.55277210801336
 31
0.0
  0
SPLINE
  5
16F
330
2
100
AcDbEntity
  8
GAIKEI
  6
Continuous
 62
     1
100
AcDbSpline
210
0.0
220
0.0
230
1.0
 70
     8
 71
     3
 72
     9
 73
     5
 74
     3
 42
0.0000000001
 43
0.0000000001
 44
0.000001
 12
-0.9990717831929515
 22
0.0430763511413879
 32
0.0
 13
-0.999295462920273
 23
0.0375310243259837
 33
0.0
 40
0.0
 40
0.0
 40
0.0
 40
0.0
 40
0.3820310702061925
 40
0.5852208952986771
 40
0.5852208952986771
 40
0.5852208952986771
 40
0.5852208952986771
 10
40.9865425226489
 20
36.85924446432057
 30
0.0
 10
40.85931703513355
 20
36.86472996582961
 30
0.0
 10
40.66440901741467
 20
36.87277999507025
 30
0.0
 10
40.46947987065954
 20
36.88028912258787
 30
0.0
 10
40.40179764721739
 20
36.88283109667731
 30
0.0
 11
40.9865425226489
 21
36.85924446432057
 31
0.0
 11
40.60483684071243
 21
36.87500955256331
 31
0.0
 11
40.40179764721739
 21
36.88283109667731
 31
0.0
  0
SPLINE
  5
170
330
2
100
AcDbEntity
  8
GAIKEI
  6
Continuous
 62
     7
100
AcDbSpline
210
0.0
220
0.0
230
1.0
 70
     8
 71
     3
 72
    12
 73
     8
 74
     6
 42
0.0000000001
 43
0.0000000001
 44
0.000001
 12
-0.9999805350888751
 22
-0.0062393463894028
 32
0.0
 13
-0.9999865056737116
 23
-0.0051950428756892
 33
0.0
 40
0.0
 40
0.0
 40
0.0
 40
0.0
 40
0.0822251272315459
 40
0.2143529371258685
 40
0.3902500169262791
 40
0.5839592036668935
 40
0.7876350594105253
 40
0.7876350594105253
 40
0.7876350594105253
 40
0.7876350594105253
 10
40.93791525193779
 20
37.83445461771464
 30
0.0
 10
40.91050740969556
 20
37.8342836073644
 30
0.0
 10
40.83905718028868
 20
37.83391760738017
 30
0.0
 10
40.70897357911386
 20
37.83388160822551
 30
0.0
 10
40.54172885203451
 20
37.83383249210562
 30
0.0
 10
40.35063585192943
 20
37.83312674260472
 30
0.0
 10
40.21817544475081
 20
37.83255153548566
 30
0.0
 10
40.15028440899243
 20
37.83219883388455
 30
0.0
 11
40.93791525193779
 21
37.83445461771464
 31
0.0
 11
40.85569109349336
 21
37.8340547604754
 31
0.0
 11
40.72356339527522
 21
37.83388632575975
 31
0.0
 11
40.54766637699509
 21
37.83374037751321
 31
0.0
 11
40.35395818504463
 21
37.83311957744297
 31
0.0
 11
40.15028440899243
 21
37.83219883388455
 31
0.0
  0
SPLINE
  5
171
330
2
100
AcDbEntity
  8
GAIKEI
  6
Continuous
 62
     1
100
AcDbSpline
210
0.0
220
0.0
230
1.0
 70
     8
 71
     3
 72
    23
 73
    19
 74
    17
 42
0.0000000001
 43
0.0000000001
 44
0.000001
 12
0.3343172427704102
 22
-0.9424605992753177
 32
0.0
 13
0.3418030246288111
 23
0.9397716171254568
 33
0.0
 40
0.0
 40
0.0
 40
0.0
 40
0.0
 40
0.0110606287305111
 40
0.0213816636358984
 40
0.0308284440343225
 40
0.0395086579665473
 40
0.0486747493217483
 40
0.0567474334353731
 40
0.0639195722325976
 40
0.0703086053834799
 40
0.0760678104611677
 40
0.0819273845724734
 40
0.0884765884175895
 40
0.0960764009306272
 40
0.1045711874195131
 40
0.1145725698843008
 40
0.1260215743937907
 40
0.1391753226881902
 40
0.1391753226881902
 40
0.1391753226881902
 40
0.1391753226881902
 10
40.31751932239308
 20
36.88596755378768
 30
0.0
 10
40.31875190869325
 20
36.88249281819377
 30
0.0
 10
40.32139080574768
 20
36.87586429911957
 30
0.0
 10
40.32583883637573
 20
36.86659150713911
 30
0.0
 10
40.33059634003942
 20
36.85837618002191
 30
0.0
 10
40.33581378938237
 20
36.85090923094008
 30
0.0
 10
40.34149345295912
 20
36.84436837306461
 30
0.0
 10
40.3476583102672
 20
36.83900737392219
 30
0.0
 10
40.35390095836476
 20
36.83529783249404
 30
0.0
 10
40.36013120436615
 20
36.83337955203994
 30
0.0
 10
40.36622885601224
 20
36.83335865582134
 30
0.0
 10
40.37208075529671
 20
36.83525143006053
 30
0.0
 10
40.3776515824104
 20
36.83904714569361
 30
0.0
 10
40.38284646889045
 20
36.84458092346304
 30
0.0
 10
40.38778500402779
 20
36.85176760876217
 30
0.0
 10
40.39254441930077
 20
36.86055711256725
 30
0.0
 10
40.39726346862977
 20
36.87108803745686
 30
0.0
 10
40.40029898356664
 20
36.87871059024201
 30
0.0
 10
40.40179764721739
 20
36.88283109667731
 30
0.0
 11
40.31751932239308
 21
36.88596755378768
 31
0.0
 11
40.32160104954607
 21
36.87568687645239
 31
0.0
 11
40.32608827636789
 21
36.86639230030352
 31
0.0
 11
40.33084200767183
 21
36.85822869621859
 31
0.0
 11
40.33583870273924
 21
36.85113081546592
 31
0.0
 11
40.34189568697394
 21
36.84425104705554
 31
0.0
 11
40.34803954701544
 21
36.83901442282991
 31
0.0
 11
40.35425549496745
 21
36.83543635075682
 31
0.0
 11
40.36038856017046
 21
36.8336457398616
 31
0.0
 11
40.36614783399591
 21
36.83365850079645
 31
0.0
 11
40.37173795386917
 21
36.83541523728161
 31
0.0
 11
40.37721077658011
 21
36.83901263339897
 31
0.0
 11
40.38249731307428
 21
36.84447254713018
 31
0.0
 11
40.38738203496103
 21
36.8514224949131
 31
0.0
 11
40.3922095494263
 21
36.86018169723548
 31
0.0
 11
40.39696224110992
 21
36.87059765752747
 31
0.0
 11
40.40179764721739
 21
36.88283109667731
 31
0.0
  0
SPLINE
  5
172
330
2
100
AcDbEntity
  8
GAIKEI
  6
Continuous
 62
     1
100
AcDbSpline
210
0.0
220
0.0
230
1.0
 70
     8
 71
     3
 72
    18
 73
    14
 74
    12
 42
0.0000000001
 43
0.0000000001
 44
0.000001
 12
0.9998994732917083
 22
0.0141789742564268
 32
0.0
 13
0.9974225315167563
 23
0.0717516105931105
 33
0.0
 40
0.0
 40
0.0
 40
0.0
 40
0.0
 40
0.0246557873785945
 40
0.0480435918468772
 40
0.0698213471902205
 40
0.0993046363999563
 40
0.1250283545728647
 40
0.1471181734152186
 40
0.1653689307141082
 40
0.1798007874401328
 40
0.1903565079763488
 40
0.1966250082130421
 40
0.1996259748885314
 40
0.1996259748885314
 40
0.1996259748885314
 40
0.1996259748885314
 10
41.09636423277686
 20
36.55925966320751
 30
0.0
 10
41.10458200238134
 20
36.55937619446568
 30
0.0
 10
41.12059515929439
 20
36.55958719899428
 30
0.0
 10
41.14386754339901
 20
36.55984312034195
 30
0.0
 10
41.16874917461879
 20
36.56009904339974
 30
0.0
 10
41.19440921494893
 20
36.5603818120006
 30
0.0
 10
41.22017293080967
 20
36.56069298040828
 30
0.0
 10
41.24219247019706
 20
36.5609864542557
 30
0.0
 10
41.26044764476228
 20
36.56126793296713
 30
0.0
 10
41.27485869678923
 20
36.56151473945246
 30
0.0
 10
41.28527365789113
 20
36.5617678310167
 30
0.0
 10
41.29188153404365
 20
36.56192160561041
 30
0.0
 10
41.29496532616033
 20
36.56212134920605
 30
0.0
 10
41.29596307008648
 20
36.56219312393683
 30
0.0
 11
41.09636423277686
 21
36.55925966320751
 31
0.0
 11
41.12101784449339
 21
36.5595845733356
 31
0.0
 11
41.14440417372151
 21
36.55984715013602
 31
0.0
 11
41.16618072753789
 21
36.56007588870762
 31
0.0
 11
41.1956622115502
 21
36.56040217149371
 31
0.0
 11
41.22138403512439
 21
36.56071437364886
 31
0.0
 11
41.24347183581607
 21
36.56101293573602
 31
0.0
 11
41.2617204223356
 21
36.56129435620153
 31
0.0
 11
41.2761498729053
 21
36.56155777880849
 31
0.0
 11
41.28670278039794
 21
36.561801287349
 31
0.0
 11
41.2929679074208
 21
36.56200641333498
 31
0.0
 11
41.29596307008648
 21
36.56219312393683
 31
0.0
  0
SPLINE
  5
173
330
2
100
AcDbEntity
  8
GAIKEI
  6
Continuous
 62
     1
100
AcDbSpline
210
0.0
220
0.0
230
1.0
 70
     8
 71
     3
 72
    13
 73
     9
 74
     7
 42
0.0000000001
 43
0.0000000001
 44
0.000001
 12
0.7637990337596269
 22
0.6454541316219614
 32
0.0
 13
0.7678688356383296
 23
0.640607095851612
 33
0.0
 40
0.0
 40
0.0
 40
0.0
 40
0.0
 40
0.0372574737544062
 40
0.0738478101340961
 40
0.110432910852573
 40
0.1457620816897375
 40
0.1668062753165458
 40
0.1872171619431539
 40
0.1872171619431539
 40
0.1872171619431539
 40
0.1872171619431539
 10
42.97495289121985
 20
5.053674609708707
 30
0.0
 10
42.98443863203783
 20
5.061690606498231
 30
0.0
 10
43.00325407455327
 20
5.077562725537788
 30
0.0
 10
43.03142904416006
 20
5.101252797589822
 30
0.0
 10
43.0591427404068
 20
5.124492646690924
 30
0.0
 10
43.08290822474861
 20
5.144375903470361
 30
0.0
 10
43.10255061565084
 20
5.160785283980615
 30
0.0
 10
43.11315953033755
 20
5.169639549586293
 30
0.0
 10
43.11838382492033
 20
5.1739980025215
 30
0.0
 11
42.97495289121985
 21
5.053674609708707
 31
0.0
 11
43.00342991152314
 21
5.0776991809999
 31
0.0
 11
43.03143548347668
 21
5.101247915266299
 31
0.0
 11
43.05946868480998
 21
5.124755554928867
 31
0.0
 11
43.08656438379665
 21
5.147426498691743
 31
0.0
 11
43.10271400175042
 21
5.160918987157231
 31
0.0
 11
43.11838382492033
 21
5.1739980025215
 31
0.0
  0
SPLINE
  5
174
330
2
100
AcDbEntity
  8
GAIKEI
  6
Continuous
 62
     7
100
AcDbSpline
210
0.0
220
0.0
230
1.0
 70
     8
 71
     3
 72
    25
 73
    21
 74
    19
 42
0.0000000001
 43
0.0000000001
 44
0.000001
 12
-0.6451586320068095
 22
-0.764048649987095
 32
0.0
 13
-0.6425976094944907
 23
-0.7662038320655713
 33
0.0
 40
0.0
 40
0.0
 40
0.0
 40
0.0
 40
0.1346775211142815
 40
0.2689615854355115
 40
0.4028938603756683
 40
0.5365171031036788
 40
0.6698748802144531
 40
0.8030107075722039
 40
0.9596952600508295
 40
1.11619837675817
 40
1.272586262931826
 40
1.428923207316386
 40
1.605307533803209
 40
1.781795357924578
 40
1.958471045709827
 40
2.135417707816523
 40
2.274690598981896
 40
2.414220734252835
 40
2.554047619677736
 40
2.694210893736128
 40
2.694210893736128
 40
2.694210893736128
 40
2.694210893736128
 10
43.02656698501391
 20
4.9781175078204
 30
0.0
 10
42.99760419658585
 20
4.943817448423409
 30
0.0
 10
42.9397831211213
 20
4.875300742572605
 30
0.0
 10
42.85321860396897
 20
4.772623937155195
 30
0.0
 10
42.76694679408049
 20
4.670160041248863
 30
0.0
 10
42.68094574792667
 20
4.567871845084091
 30
0.0
 10
42.59518338060087
 20
4.465729862490675
 30
0.0
 10
42.50454751578354
 20
4.357642431219936
 30
0.0
 10
42.40902609057141
 20
4.243583184855296
 30
0.0
 10
42.30859109684368
 20
4.123529251163617
 30
0.0
 10
42.20827062304977
 20
4.003530596116938
 30
0.0
 10
42.10372849165833
 20
3.87842341815849
 30
0.0
 10
41.99489453166643
 20
3.74817134442604
 30
0.0
 10
41.88169708360251
 20
3.612730518416142
 30
0.0
 10
41.76834580548757
 20
3.477173972418803
 30
0.0
 10
41.66291092348228
 20
3.351168196881545
 30
0.0
 10
41.56538673077159
 20
3.234687836226108
 30
0.0
 10
41.47577716534167
 20
3.127718401677093
 30
0.0
 10
41.38595053593903
 20
3.020543637856036
 30
0.0
 10
41.32598595444838
 20
2.949026171810423
 30
0.0
 10
41.29596309283209
 20
2.913228292577628
 30
0.0
 11
43.02656698501391
 21
4.9781175078204
 31
0.0
 11
42.93970599846557
 21
4.875194207739411
 31
0.0
 11
42.85315332432918
 21
4.77252559263826
 31
0.0
 11
42.76689170087922
 21
4.670071764822296
 31
0.0
 11
42.68089936929283
 21
4.567795226445866
 31
0.0
 11
42.59514600164891
 21
4.465664637441477
 31
0.0
 11
42.50960020644931
 21
4.363649607223408
 31
0.0
 11
42.40899696224977
 21
4.243528669454974
 31
0.0
 11
42.30857221222197
 21
4.123494526723277
 31
0.0
 11
42.20826510793466
 21
4.003513042885629
 31
0.0
 11
42.10801480095677
 21
3.883550081799285
 31
0.0
 11
41.99491467441794
 21
3.748199461493641
 31
0.0
 11
41.88173241158665
 21
3.612782598715455
 31
0.0
 11
41.7683971474994
 21
3.477248779399474
 31
0.0
 11
41.65484529457574
 21
3.341542855792852
 31
0.0
 11
41.56543780689657
 21
3.234756905077006
 31
0.0
 11
41.47583705360523
 21
3.12779726970001
 31
0.0
 11
41.38601988804572
 21
3.020631815268984
 31
0.0
 11
41.29596309283209
 21
2.913228292577628
 31
0.0
  0
SPLINE
  5
175
330
2
100
AcDbEntity
  8
GAIKEI
  6
Continuous
 62
     1
100
AcDbSpline
210
0.0
220
0.0
230
1.0
 70
     8
 71
     3
 72
    18
 73
    14
 74
    12
 42
0.0000000001
 43
0.0000000001
 44
0.000001
 12
-0.9974326142388006
 22
0.0716113123239069
 32
0.0
 13
-0.9998995674987709
 23
0.0141723292288498
 33
0.0
 40
0.0
 40
0.0
 40
0.0
 40
0.0
 40
0.0030194903368492
 40
0.0093326477798688
 40
0.0197551294145397
 40
0.0339541950662335
 40
0.0519723480691575
 40
0.0737685187587457
 40
0.0995369569738442
 40
0.1291137252950859
 40
0.1510865399618099
 40
0.1747062822794232
 40
0.1996259723085328
 40
0.1996259723085328
 40
0.1996259723085328
 40
0.1996259723085328
 10
41.2959630701979
 20
2.913228296617205
 30
0.0
 10
41.29495915748444
 20
2.913300373172397
 30
0.0
 10
41.29185432232566
 20
2.913501088846317
 30
0.0
 10
41.2852697810049
 20
2.913653685678077
 30
0.0
 10
41.27496190311251
 20
2.913904284985555
 30
0.0
 10
41.26075038936642
 20
2.914148437190789
 30
0.0
 10
41.24274821003672
 20
2.914426926123759
 30
0.0
 10
41.22088918292584
 20
2.914719359647001
 30
0.0
 10
41.1951772900758
 20
2.915030784765889
 30
0.0
 10
41.16940617826361
 20
2.915315516722138
 30
0.0
 10
41.14435106364297
 20
2.915573173237753
 30
0.0
 10
41.12084838635976
 20
2.915830981739603
 30
0.0
 10
41.10466996148744
 20
2.916044034016181
 30
0.0
 10
41.09636423239334
 20
2.916161757366637
 30
0.0
 11
41.2959630701979
 21
2.913228296617205
 31
0.0
 11
41.29294939676305
 21
2.91341579068802
 31
0.0
 11
41.28663961891686
 21
2.91362184174693
 31
0.0
 11
41.27621991337934
 21
2.913862214389325
 31
0.0
 11
41.26202322634384
 21
2.914122003504303
 31
0.0
 11
41.24400723080867
 21
2.914400765313587
 31
0.0
 11
41.22221306602654
 21
2.914696434288316
 31
0.0
 11
41.19644653762605
 21
2.915010158762811
 31
0.0
 11
41.1668715881853
 21
2.915338194272862
 31
0.0
 11
41.14489998546247
 21
2.915568949447276
 31
0.0
 11
41.12128172768558
 21
2.915833655230187
 31
0.0
 11
41.09636423239334
 21
2.916161757366637
 31
0.0
  0
SPLINE
  5
176
330
2
100
AcDbEntity
  8
GAIKEI
  6
Continuous
 62
     1
100
AcDbSpline
210
0.0
220
0.0
230
1.0
 70
     8
 71
     3
 72
     9
 73
     5
 74
     3
 42
0.0000000001
 43
0.0000000001
 44
0.000001
 12
0.0052933080883875
 22
-0.9999859903466054
 32
0.0
 13
0.5270313734190337
 23
-0.8498458280370901
 33
0.0
 40
0.0
 40
0.0
 40
0.0
 40
0.0
 40
0.0139639987875722
 40
0.0279279975751703
 40
0.0279279975751703
 40
0.0279279975751703
 40
0.0279279975751703
 10
38.99098757724317
 20
2.037099586551562
 30
0.0
 10
38.99101221582575
 20
2.032444985499296
 30
0.0
 10
38.99227980531532
 20
2.023082988436676
 30
0.0
 10
38.99618221296203
 20
2.014479210971316
 30
0.0
 10
38.99863536811518
 20
2.010523462267201
 30
0.0
 11
38.99098757724317
 21
2.037099586551562
 31
0.0
 11
38.992937548854
 21
2.023272266789604
 31
0.0
 11
38.99863536811518
 21
2.010523462267201
 31
0.0
  0
SPLINE
  5
177
330
2
100
AcDbEntity
  8
GAIKEI
  6
Continuous
 62
     1
100
AcDbSpline
210
0.0
220
0.0
230
1.0
 70
     8
 71
     3
 72
     9
 73
     5
 74
     3
 42
0.0000000001
 43
0.0000000001
 44
0.000001
 12
0.0052933080883382
 22
0.9999859903466058
 32
0.0
 13
0.5270313734190872
 23
0.8498458280370568
 33
0.0
 40
0.0
 40
0.0
 40
0.0
 40
0.0
 40
0.0139639987875651
 40
0.0279279975751697
 40
0.0279279975751697
 40
0.0279279975751697
 40
0.0279279975751697
 10
38.99098757724317
 20
37.43832183401696
 30
0.0
 10
38.99101221582575
 20
37.44297643506923
 30
0.0
 10
38.99227980531538
 20
37.45233843213187
 30
0.0
 10
38.99618221296203
 20
37.46094220959721
 30
0.0
 10
38.99863536811518
 20
37.46489795830132
 30
0.0
 11
38.99098757724317
 21
37.43832183401696
 31
0.0
 11
38.992937548854
 21
37.45214915377892
 31
0.0
 11
38.99863536811518
 21
37.46489795830132
 31
0.0
  0
SPLINE
  5
178
330
2
100
AcDbEntity
  8
GAIKEI
  6
Continuous
 62
     1
100
AcDbSpline
210
0.0
220
0.0
230
1.0
 70
     8
 71
     3
 72
    59
 73
    55
 74
    53
 42
0.0000000001
 43
0.0000000001
 44
0.000001
 12
0.0089977794764152
 22
0.9999595191628978
 32
0.0
 13
-0.0199099484093854
 23
0.9998017773310547
 33
0.0
 40
0.0
 40
0.0
 40
0.0
 40
0.0
 40
0.0071046365436246
 40
0.0133021197047546
 40
0.0186828374795563
 40
0.023207550758405
 40
0.0286483835345599
 40
0.0332208135312284
 40
0.03834020931683
 40
0.0448916697000703
 40
0.0538566994810862
 40
0.0650468629299171
 40
0.0789337931676355
 40
0.0950521309527147
 40
0.111409154480846
 40
0.1293542498608177
 40
0.1492834698740562
 40
0.1706479900162211
 40
0.1891104049333325
 40
0.2084022034233933
 40
0.2288841586038661
 40
0.2501074508352288
 40
0.2691450956822694
 40
0.288643199428342
 40
0.3090214531403832
 40
0.3297475279782809
 40
0.3514651643548687
 40
0.3733585751871123
 40
0.396093410788665
 40
0.4187634841688394
 40
0.4405020959232127
 40
0.461955698965015
 40
0.4836621002266093
 40
0.5048792278715308
 40
0.5313551695999787
 40
0.5567647186620614
 40
0.5817988231016758
 40
0.6054398798716815
 40
0.625366577467506
 40
0.6439742128153788
 40
0.661548524561986
 40
0.6775243190967542
 40
0.6904031703393687
 40
0.7018285423541064
 40
0.7119382780791089
 40
0.7204241040763286
 40
0.7270822523453921
 40
0.7323924469401421
 40
0.7368318806871216
 40
0.7410607540037339
 40
0.7458848144140494
 40
0.7520052499216162
 40
0.7599420076097207
 40
0.7696500026631578
 40
0.7696500026631578
 40
0.7696500026631578
 40
0.7696500026631578
 10
43.38098757724321
 20
14.63097866065777
 30
0.0
 10
43.38100888589417
 20
14.63334677697178
 30
0.0
 10
43.38088447874873
 20
14.63778281901878
 30
0.0
 10
43.38037203076498
 20
14.643991935239
 30
0.0
 10
43.37944663557829
 20
14.64929506232097
 30
0.0
 10
43.37792979430125
 20
14.65418274961946
 30
0.0
 10
43.37547541659477
 20
14.65850890053468
 30
0.0
 10
43.37094860008369
 20
14.66128834867577
 30
0.0
 10
43.36530792318984
 20
14.66104286361823
 30
0.0
 10
43.35891390632105
 20
14.65835841736843
 30
0.0
 10
43.35151995625042
 20
14.65332645037442
 30
0.0
 10
43.34300902239618
 20
14.64579557224219
 30
0.0
 10
43.33355706882104
 20
14.63581498969328
 30
0.0
 10
43.32370035660281
 20
14.62390068957396
 30
0.0
 10
43.313674435437
 20
14.61040429129681
 30
0.0
 10
43.30355470198753
 20
14.59541831823911
 30
0.0
 10
43.29321506185687
 20
14.57858834576139
 30
0.0
 10
43.28352933389186
 20
14.56117562829424
 30
0.0
 10
43.27464645940739
 20
14.54358016021742
 30
0.0
 10
43.26655954941435
 20
14.52592733376659
 30
0.0
 10
43.25884453006401
 20
14.50710912232949
 30
0.0
 10
43.25198327372575
 20
14.48805194928374
 30
0.0
 10
43.24605871319213
 20
14.46902778151364
 30
0.0
 10
43.24102789099123
 20
14.45003839475069
 30
0.0
 10
43.23676512549266
 20
14.43028456335045
 30
0.0
 10
43.23334894525834
 20
14.40961550117116
 30
0.0
 10
43.23096907147916
 20
14.38829175502272
 30
0.0
 10
43.229706091276
 20
14.36620130449432
 30
0.0
 10
43.22970958217723
 20
14.34375600661477
 30
0.0
 10
43.23098433216756
 20
14.32139891252818
 30
0.0
 10
43.23346688067056
 20
14.299574869969
 30
0.0
 10
43.23703733784618
 20
14.27822892196229
 30
0.0
 10
43.24167344629145
 20
14.25726694908417
 30
0.0
 10
43.24777433668282
 20
14.23494404650245
 30
0.0
 10
43.25544388835232
 20
14.21180010436053
 30
0.0
 10
43.26483451929203
 20
14.18792933768105
 30
0.0
 10
43.27505345668567
 20
14.16543631778265
 30
0.0
 10
43.2855209581738
 20
14.14509567493233
 30
0.0
 10
43.29581171551725
 20
14.12709929378036
 30
0.0
 10
43.30575718446175
 20
14.11125368503656
 30
0.0
 10
43.3156142797805
 20
14.09692546835805
 30
0.0
 10
43.32496052995833
 20
14.08458229713059
 30
0.0
 10
43.33358363283491
 20
14.07428364039097
 30
0.0
 10
43.34142021502811
 20
14.06589675617515
 30
0.0
 10
43.34874798746016
 20
14.05906706071735
 30
0.0
 10
43.35542954166212
 20
14.05391715584234
 30
0.0
 10
43.36137383836489
 20
14.05051871274264
 30
0.0
 10
43.36662726179992
 20
14.0488037161507
 30
0.0
 10
43.37145275910785
 20
14.0489991956552
 30
0.0
 10
43.37539170231735
 20
14.05156146773781
 30
0.0
 10
43.37804265102585
 20
14.05599015768797
 30
0.0
 10
43.37982634303233
 20
14.06206097740946
 30
0.0
 10
43.38079364650894
 20
14.06994217067303
 30
0.0
 10
43.38105200580343
 20
14.07582765328975
 30
0.0
 10
43.38098757724321
 20
14.07906301019267
 30
0.0
 11
43.38098757724321
 21
14.63097866065777
 31
0.0
 11
43.38080681111733
 21
14.63808181857638
 31
0.0
 11
43.38024937901809
 21
14.64425417602354
 31
0.0
 11
43.37927586167495
 21
14.64954606065947
 31
0.0
 11
43.37787584963092
 21
14.65384869158191
 31
0.0
 11
43.3749427119041
 21
14.65843112846153
 31
0.0
 11
43.37100747697781
 21
14.6607594101672
 31
0.0
 11
43.36588824126841
 21
14.66080638564631
 31
0.0
 11
43.35975203005228
 21
14.65851083877902
 31
0.0
 11
43.35224213807641
 21
14.65361448378775
 31
0.0
 11
43.34378510622793
 21
14.64628651790883
 31
0.0
 11
43.3341764716493
 21
14.63626047773004
 31
0.0
 11
43.32386036665508
 21
14.62387584559013
 31
0.0
 11
43.31408494506348
 21
14.61076121690604
 31
0.0
 11
43.30402672960121
 21
14.59589989989865
 31
0.0
 11
43.29358458880034
 21
14.57892535133851
 31
0.0
 11
43.28319375256666
 21
14.5602579263857
 31
0.0
 11
43.27487310223154
 21
14.54377681652238
 31
0.0
 11
43.26683984292401
 21
14.52623716426103
 31
0.0
 11
43.25907348819419
 21
14.50728477656713
 31
0.0
 11
43.25189005555194
 21
14.4873141788413
 31
0.0
 11
43.24623274828645
 21
14.46913657753021
 31
0.0
 11
43.24124561981977
 21
14.45028710431154
 31
0.0
 11
43.23694988254572
 21
14.43036682734464
 31
0.0
 11
43.23357786939704
 21
14.40991696384657
 31
0.0
 11
43.23116875872386
 21
14.3883334374853
 31
0.0
 11
43.22992612281393
 21
14.36647540071942
 31
0.0
 11
43.22992411929351
 21
14.34374065008012
 31
0.0
 11
43.23121752299988
 21
14.32110758656864
 31
0.0
 11
43.23366617476819
 21
14.29950740025799
 31
0.0
 11
43.23720374479882
 21
14.27834753923139
 31
0.0
 11
43.24188221995439
 21
14.25715138362824
 31
0.0
 11
43.24747163058094
 21
14.23668378128389
 31
0.0
 11
43.25578684120182
 21
14.21154755470144
 31
0.0
 11
43.26508240433378
 21
14.18789939074429
 31
0.0
 11
43.27543338121683
 21
14.16510548288994
 31
0.0
 11
43.28625276321855
 21
14.14408549981266
 31
0.0
 11
43.29615025181579
 21
14.12679062670247
 31
0.0
 11
43.30605184788197
 21
14.11103618763712
 31
0.0
 11
43.31602898285126
 21
14.09656852578649
 31
0.0
 11
43.32569617834121
 21
14.08384958298057
 31
0.0
 11
43.33398704354244
 21
14.07399430076845
 31
0.0
 11
43.34181821092857
 21
14.06567490989568
 31
0.0
 11
43.34925608042761
 21
14.05882762402501
 31
0.0
 11
43.35603596328098
 21
14.05372438233712
 31
0.0
 11
43.36187408487546
 21
14.05052313106034
 31
0.0
 11
43.3669774593958
 21
14.04905533471219
 31
0.0
 11
43.37140339466635
 21
14.0494017669917
 31
0.0
 11
43.37498552588477
 21
14.05164932979875
 31
0.0
 11
43.37764478907127
 21
14.0556741752419
 31
0.0
 11
43.37951080205527
 21
14.06150316489584
 31
0.0
 11
43.3806278543359
 21
14.06936090858852
 31
0.0
 11
43.38098757724321
 21
14.07906301019267
 31
0.0
  0
SPLINE
  5
179
330
2
100
AcDbEntity
  8
GAIKEI
  6
Continuous
 62
     1
100
AcDbSpline
210
0.0
220
0.0
230
1.0
 70
     8
 71
     3
 72
    59
 73
    55
 74
    53
 42
0.0000000001
 43
0.0000000001
 44
0.000001
 12
0.0089977794764248
 22
0.9999595191628976
 32
0.0
 13
-0.0199099484093985
 23
0.9998017773310543
 33
0.0
 40
0.0
 40
0.0
 40
0.0
 40
0.0
 40
0.0071046365436246
 40
0.0133021197047476
 40
0.0186828374795563
 40
0.0232075507583981
 40
0.028648383534553
 40
0.0332208135312287
 40
0.0383402093168304
 40
0.0448916697000707
 40
0.0538566994810943
 40
0.0650468629299207
 40
0.078933793167639
 40
0.0950521309527183
 40
0.1114091544808438
 40
0.1293542498608214
 40
0.1492834698740539
 40
0.1706479900162312
 40
0.1891104049333426
 40
0.2084022034233905
 40
0.2288841586038698
 40
0.2501074508352326
 40
0.2691450956822663
 40
0.2886431994283458
 40
0.30902145314038
 40
0.3297475279782847
 40
0.3514651643548796
 40
0.3733585751871199
 40
0.3960934107886655
 40
0.418763484168847
 40
0.4405020959232062
 40
0.4619556989650225
 40
0.4836621002266029
 40
0.5048792278715381
 40
0.5313551695999792
 40
0.5567647186620553
 40
0.5817988231016309
 40
0.6054398798716872
 40
0.6253665774674562
 40
0.6439742128153771
 40
0.6615485245619785
 40
0.677524319096758
 40
0.690403170339367
 40
0.7018285423540995
 40
0.7119382780791068
 40
0.7204241040763222
 40
0.7270822523453927
 40
0.7323924469401544
 40
0.7368318806871417
 40
0.7410607540037237
 40
0.7458848144140453
 40
0.7520052499216119
 40
0.7599420076097165
 40
0.7696500026631536
 40
0.7696500026631536
 40
0.7696500026631536
 40
0.7696500026631536
 10
43.38098757724321
 20
7.163668535516819
 30
0.0
 10
43.38100888589417
 20
7.166036651830815
 30
0.0
 10
43.38088447874869
 20
7.170472693877819
 30
0.0
 10
43.38037203076507
 20
7.17668181009806
 30
0.0
 10
43.37944663557832
 20
7.181984937180004
 30
0.0
 10
43.37792979430122
 20
7.186872624478525
 30
0.0
 10
43.37547541659472
 20
7.191198775393672
 30
0.0
 10
43.37094860008386
 20
7.193978223534863
 30
0.0
 10
43.36530792318973
 20
7.193732738477251
 30
0.0
 10
43.35891390632116
 20
7.191048292227499
 30
0.0
 10
43.35151995625046
 20
7.186016325233453
 30
0.0
 10
43.34300902239621
 20
7.178485447101252
 30
0.0
 10
43.33355706882113
 20
7.16850486455236
 30
0.0
 10
43.32370035660289
 20
7.156590564433017
 30
0.0
 10
43.31367443543692
 20
7.143094166155847
 30
0.0
 10
43.30355470198753
 20
7.128108193098157
 30
0.0
 10
43.29321506185678
 20
7.111278220620448
 30
0.0
 10
43.28352933389178
 20
7.093865503153267
 30
0.0
 10
43.27464645940745
 20
7.076270035076468
 30
0.0
 10
43.26655954941432
 20
7.058617208625634
 30
0.0
 10
43.25884453006404
 20
7.039798997188547
 30
0.0
 10
43.25198327372572
 20
7.020741824142781
 30
0.0
 10
43.24605871319213
 20
7.001717656372704
 30
0.0
 10
43.24102789099129
 20
6.982728269609722
 30
0.0
 10
43.23676512549266
 20
6.962974438209499
 30
0.0
 10
43.23334894525831
 20
6.942305376030212
 30
0.0
 10
43.23096907147919
 20
6.920981629881772
 30
0.0
 10
43.22970609127605
 20
6.898891179353341
 30
0.0
 10
43.22970958217726
 20
6.876445881473827
 30
0.0
 10
43.23098433216759
 20
6.85408878738724
 30
0.0
 10
43.23346688067056
 20
6.832264744828052
 30
0.0
 10
43.23703733784618
 20
6.810918796821354
 30
0.0
 10
43.24167344629143
 20
6.789956823943199
 30
0.0
 10
43.24777433668285
 20
6.767633921361507
 30
0.0
 10
43.25544388835228
 20
6.744489979219601
 30
0.0
 10
43.26483451929209
 20
6.720619212540107
 30
0.0
 10
43.27505345668569
 20
6.69812619264173
 30
0.0
 10
43.28552095817371
 20
6.67778554979138
 30
0.0
 10
43.29581171551732
 20
6.659789168639434
 30
0.0
 10
43.30575718446175
 20
6.643943559895646
 30
0.0
 10
43.31561427978058
 20
6.629615343217075
 30
0.0
 10
43.32496052995819
 20
6.617272171989647
 30
0.0
 10
43.33358363283497
 20
6.606973515250025
 30
0.0
 10
43.34142021502811
 20
6.598586631034208
 30
0.0
 10
43.34874798746016
 20
6.591756935576384
 30
0.0
 10
43.35542954166212
 20
6.586607030701387
 30
0.0
 10
43.36137383836489
 20
6.583208587601703
 30
0.0
 10
43.36662726179994
 20
6.58149359100966
 30
0.0
 10
43.3714527591078
 20
6.581689070514322
 30
0.0
 10
43.37539170231744
 20
6.584251342596857
 30
0.0
 10
43.37804265102576
 20
6.588680032547003
 30
0.0
 10
43.37982634303239
 20
6.594750852268496
 30
0.0
 10
43.38079364650892
 20
6.602632045532089
 30
0.0
 10
43.38105200580343
 20
6.608517528148802
 30
0.0
 10
43.38098757724321
 20
6.611752885051714
 30
0.0
 11
43.38098757724321
 21
7.163668535516819
 31
0.0
 11
43.38080681111733
 21
7.170771693435426
 31
0.0
 11
43.38024937901809
 21
7.176944050882582
 31
0.0
 11
43.37927586167495
 21
7.182235935518519
 31
0.0
 11
43.37787584963092
 21
7.186538566440958
 31
0.0
 11
43.3749427119041
 21
7.191121003320574
 31
0.0
 11
43.37100747697781
 21
7.193449285026247
 31
0.0
 11
43.36588824126841
 21
7.193496260505355
 31
0.0
 11
43.35975203005228
 21
7.191200713638068
 31
0.0
 11
43.35224213807641
 21
7.186304358646793
 31
0.0
 11
43.34378510622793
 21
7.178976392767879
 31
0.0
 11
43.3341764716493
 21
7.168950352589092
 31
0.0
 11
43.32386036665508
 21
7.156565720449179
 31
0.0
 11
43.31408494506348
 21
7.143451091765086
 31
0.0
 11
43.30402672960121
 21
7.128589774757699
 31
0.0
 11
43.29358458880034
 21
7.111615226197557
 31
0.0
 11
43.28319375256666
 21
7.092947801244747
 31
0.0
 11
43.27487310223154
 21
7.076466691381426
 31
0.0
 11
43.26683984292401
 21
7.058927039120078
 31
0.0
 11
43.25907348819419
 21
7.039974651426177
 31
0.0
 11
43.25189005555194
 21
7.020004053700347
 31
0.0
 11
43.24623274828645
 21
7.001826452389252
 31
0.0
 11
43.24124561981977
 21
6.982976979170587
 31
0.0
 11
43.23694988254572
 21
6.963056702203687
 31
0.0
 11
43.23357786939704
 21
6.942606838705614
 31
0.0
 11
43.23116875872386
 21
6.921023312344345
 31
0.0
 11
43.22992612281399
 21
6.899165275578468
 31
0.0
 11
43.22992411929351
 21
6.876430524939166
 31
0.0
 11
43.23121752299988
 21
6.853797461427689
 31
0.0
 11
43.23366617476819
 21
6.832197275117039
 31
0.0
 11
43.23720374479882
 21
6.811037414090435
 31
0.0
 11
43.24188221995439
 21
6.789841258487285
 31
0.0
 11
43.24747163058094
 21
6.769373656142931
 31
0.0
 11
43.25578684120182
 21
6.744237429560484
 31
0.0
 11
43.26508240433378
 21
6.720589265603337
 31
0.0
 11
43.27543338121683
 21
6.697795357749043
 31
0.0
 11
43.28625276321855
 21
6.676775374671706
 31
0.0
 11
43.29615025181579
 21
6.659480501561574
 31
0.0
 11
43.30605184788197
 21
6.64372606249617
 31
0.0
 11
43.31602898285126
 21
6.629258400645539
 31
0.0
 11
43.32569617834121
 21
6.616539457839621
 31
0.0
 11
43.33398704354244
 21
6.606684175627492
 31
0.0
 11
43.34181821092857
 21
6.598364784754721
 31
0.0
 11
43.34925608042761
 21
6.591517498884059
 31
0.0
 11
43.35603596328098
 21
6.586414257196167
 31
0.0
 11
43.36187408487546
 21
6.58321300591939
 31
0.0
 11
43.3669774593958
 21
6.581745209571181
 31
0.0
 11
43.37140339466635
 21
6.582091641850809
 31
0.0
 11
43.37498552588477
 21
6.584339204657794
 31
0.0
 11
43.37764478907127
 21
6.588364050100949
 31
0.0
 11
43.37951080205527
 21
6.594193039754884
 31
0.0
 11
43.3806278543359
 21
6.602050783447566
 31
0.0
 11
43.38098757724321
 21
6.611752885051714
 31
0.0
  0
SPLINE
  5
17A
330
2
100
AcDbEntity
  8
GAIKEI
  6
Continuous
 62
     1
100
AcDbSpline
210
0.0
220
0.0
230
1.0
 70
     8
 71
     3
 72
    28
 73
    24
 74
    22
 42
0.0000000001
 43
0.0000000001
 44
0.000001
 12
0.9487589978366965
 22
-0.3160005759866704
 32
0.0
 13
0.0000054313803437
 23
-0.9999999999852501
 33
0.0
 40
0.0
 40
0.0
 40
0.0
 40
0.0
 40
0.0250363978119375
 40
0.0492743128618559
 40
0.0728614350637536
 40
0.0956093481586832
 40
0.1179746860340971
 40
0.1394496267202395
 40
0.1601754566906428
 40
0.1800039393190089
 40
0.1965316207031554
 40
0.2124004227282538
 40
0.2277014845916788
 40
0.2423732225697875
 40
0.2566537090712524
 40
0.2703439991034581
 40
0.2835481095936195
 40
0.2962417674944317
 40
0.3185295474440469
 40
0.3397575339669954
 40
0.3518752639972074
 40
0.3638915827049836
 40
0.3643443720623475
 40
0.3643443720623475
 40
0.3643443720623475
 40
0.3643443720623475
 10
43.11838382491976
 20
33.95949798001562
 30
0.0
 10
43.12630166081894
 20
33.95686080797255
 30
0.0
 10
43.14181307153683
 20
33.95145277652694
 30
0.0
 10
43.16452990798021
 20
33.94285333976349
 30
0.0
 10
43.18628291014386
 20
33.9338884623388
 30
0.0
 10
43.20718134102719
 20
33.92451587970919
 30
0.0
 10
43.22712487797594
 20
33.91476296066175
 30
0.0
 10
43.24611085361266
 20
33.90461672049961
 30
0.0
 10
43.26395791135218
 20
33.89416544105484
 30
0.0
 10
43.27996200764482
 20
33.88386255617009
 30
0.0
 10
43.29418401311866
 20
33.87381495481316
 30
0.0
 10
43.30676755325526
 20
33.86408835003151
 30
0.0
 10
43.31841393334428
 20
33.85418685549737
 30
0.0
 10
43.32916176550964
 20
33.84407364178789
 30
0.0
 10
43.33896774687443
 20
33.83377260717296
 30
0.0
 10
43.34782340778827
 20
33.82327541549236
 30
0.0
 10
43.35566318871054
 20
33.81264717868783
 30
0.0
 10
43.36426900505361
 20
33.79907212258526
 30
0.0
 10
43.37259263456593
 20
33.78220622692158
 30
0.0
 10
43.378088460386
 20
33.76439707890434
 30
0.0
 10
43.38051336723117
 20
33.74944878959693
 30
0.0
 10
43.3809823690508
 20
33.74124827765667
 30
0.0
 10
43.38098757642344
 20
33.73709196153097
 30
0.0
 10
43.38098757724321
 20
33.73694103174518
 30
0.0
 11
43.11838382491976
 21
33.95949798001562
 31
0.0
 11
43.14202506972679
 21
33.95125998233891
 31
0.0
 11
43.16468824533552
 21
33.94266599915551
 31
0.0
 11
43.18649211046647
 21
33.93366913926184
 31
0.0
 11
43.20724291890496
 21
33.9243486668853
 31
0.0
 11
43.22732837713902
 21
33.91451086266523
 31
0.0
 11
43.24626092271631
 21
33.90437520964446
 31
0.0
 11
43.26413726839269
 21
33.89388731517619
 31
0.0
 11
43.28079944501576
 21
33.88313835243542
 31
0.0
 11
43.29429078321953
 21
33.87359122075486
 31
0.0
 11
43.30683750761472
 21
33.86387534523505
 31
0.0
 11
43.31848549378844
 21
33.85395332260316
 31
0.0
 11
43.32915984643221
 21
33.84388765420329
 31
0.0
 11
43.33899403246533
 21
33.83353291515107
 31
0.0
 11
43.3478083173473
 21
33.82305761448771
 31
0.0
 11
43.35563254310232
 21
33.81242138036964
 31
0.0
 11
43.36241410564054
 21
33.80169110728906
 31
0.0
 11
43.372186040266
 21
33.78165982802006
 31
0.0
 11
43.37837512719596
 21
33.76135416450876
 31
0.0
 11
43.38030893027502
 21
33.74939177867731
 31
0.0
 11
43.38098667902579
 21
33.73739409200516
 31
0.0
 11
43.38098757724321
 21
33.73694103174518
 31
0.0
  0
SPLINE
  5
17B
330
2
100
AcDbEntity
  8
GAIKEI
  6
Continuous
 62
     1
100
AcDbSpline
210
0.0
220
0.0
230
1.0
 70
     8
 71
     3
 72
    59
 73
    55
 74
    53
 42
0.0000000001
 43
0.0000000001
 44
0.000001
 12
0.0089977794764132
 22
0.9999595191628978
 32
0.0
 13
-0.0199099484095603
 23
0.9998017773310511
 33
0.0
 40
0.0
 40
0.0
 40
0.0
 40
0.0
 40
0.0071046365435678
 40
0.0133021197046978
 40
0.0186828374794995
 40
0.0232075507583481
 40
0.028648383534503
 40
0.0332208135312005
 40
0.0383402093168016
 40
0.0448916697000419
 40
0.0538566994810577
 40
0.0650468629298887
 40
0.078933793167566
 40
0.095052130952689
 40
0.1114091544808202
 40
0.1293542498607449
 40
0.1492834698740802
 40
0.1706479900161457
 40
0.1891104049333079
 40
0.2084022034233687
 40
0.2288841586038415
 40
0.2501074508351508
 40
0.2691450956822456
 40
0.2886431994282632
 40
0.30902145314036
 40
0.3297475279782577
 40
0.3514651643548455
 40
0.3733585751870891
 40
0.3960934107885849
 40
0.4187634841688161
 40
0.4405020959231329
 40
0.4619556989649912
 40
0.4836621002265855
 40
0.5048792278714522
 40
0.5313551695999541
 40
0.5567647186619837
 40
0.5817988231016499
 40
0.6054398798716556
 40
0.6253665774674308
 40
0.6439742128153517
 40
0.661548524561959
 40
0.6775243190967271
 40
0.6904031703393416
 40
0.7018285423540794
 40
0.7119382780790817
 40
0.7204241040762673
 40
0.7270822523453582
 40
0.7323924469401239
 40
0.7368318806871078
 40
0.7410607540037201
 40
0.7458848144140044
 40
0.7520052499215884
 40
0.7599420076096849
 40
0.7696500026631242
 40
0.7696500026631242
 40
0.7696500026631242
 40
0.7696500026631242
 10
43.38098757724321
 20
25.70597866065782
 30
0.0
 10
43.38100888589417
 20
25.7083467769718
 30
0.0
 10
43.38088447874881
 20
25.7127828190188
 30
0.0
 10
43.38037203076493
 20
25.71899193523899
 30
0.0
 10
43.37944663557832
 20
25.72429506232095
 30
0.0
 10
43.37792979430125
 20
25.72918274961948
 30
0.0
 10
43.37547541659467
 20
25.73350890053462
 30
0.0
 10
43.37094860008384
 20
25.73628834867586
 30
0.0
 10
43.36530792318979
 20
25.73604286361817
 30
0.0
 10
43.35891390632113
 20
25.73335841736847
 30
0.0
 10
43.35151995625042
 20
25.7283264503744
 30
0.0
 10
43.34300902239627
 20
25.7207955722422
 30
0.0
 10
43.33355706882099
 20
25.71081498969333
 30
0.0
 10
43.32370035660292
 20
25.69890068957396
 30
0.0
 10
43.31367443543706
 20
25.68540429129681
 30
0.0
 10
43.30355470198742
 20
25.67041831823912
 30
0.0
 10
43.29321506185695
 20
25.65358834576138
 30
0.0
 10
43.28352933389175
 20
25.63617562829424
 30
0.0
 10
43.27464645940747
 20
25.61858016021743
 30
0.0
 10
43.26655954941421
 20
25.60092733376655
 30
0.0
 10
43.25884453006406
 20
25.5821091223295
 30
0.0
 10
43.25198327372575
 20
25.56305194928376
 30
0.0
 10
43.24605871319215
 20
25.54402778151368
 30
0.0
 10
43.24102789099123
 20
25.5250383947507
 30
0.0
 10
43.23676512549269
 20
25.50528456335047
 30
0.0
 10
43.23334894525828
 20
25.48461550117115
 30
0.0
 10
43.23096907147919
 20
25.46329175502271
 30
0.0
 10
43.22970609127597
 20
25.44120130449432
 30
0.0
 10
43.22970958217729
 20
25.41875600661479
 30
0.0
 10
43.23098433216751
 20
25.39639891252821
 30
0.0
 10
43.23346688067061
 20
25.37457486996903
 30
0.0
 10
43.23703733784618
 20
25.35322892196231
 30
0.0
 10
43.24167344629145
 20
25.33226694908417
 30
0.0
 10
43.24777433668285
 20
25.30994404650248
 30
0.0
 10
43.25544388835226
 20
25.28680010436054
 30
0.0
 10
43.26483451929215
 20
25.26292933768109
 30
0.0
 10
43.27505345668561
 20
25.24043631778264
 30
0.0
 10
43.28552095817378
 20
25.22009567493234
 30
0.0
 10
43.29581171551732
 20
25.20209929378039
 30
0.0
 10
43.30575718446172
 20
25.18625368503658
 30
0.0
 10
43.31561427978056
 20
25.17192546835803
 30
0.0
 10
43.32496052995836
 20
25.15958229713061
 30
0.0
 10
43.33358363283491
 20
25.14928364039096
 30
0.0
 10
43.34142021502813
 20
25.14089675617514
 30
0.0
 10
43.34874798746006
 20
25.13406706071731
 30
0.0
 10
43.35542954166226
 20
25.12891715584243
 30
0.0
 10
43.36137383836481
 20
25.12551871274264
 30
0.0
 10
43.36662726179997
 20
25.12380371615062
 30
0.0
 10
43.37145275910785
 20
25.1239991956552
 30
0.0
 10
43.37539170231735
 20
25.12656146773779
 30
0.0
 10
43.37804265102573
 20
25.13099015768798
 30
0.0
 10
43.37982634303244
 20
25.13706097740942
 30
0.0
 10
43.38079364650886
 20
25.14494217067306
 30
0.0
 10
43.38105200580343
 20
25.15082765328974
 30
0.0
 10
43.38098757724321
 20
25.15406301019266
 30
0.0
 11
43.38098757724321
 21
25.70597866065782
 31
0.0
 11
43.38080681111733
 21
25.71308181857637
 31
0.0
 11
43.38024937901809
 21
25.71925417602353
 31
0.0
 11
43.37927586167495
 21
25.72454606065946
 31
0.0
 11
43.37787584963092
 21
25.7288486915819
 31
0.0
 11
43.3749427119041
 21
25.73343112846152
 31
0.0
 11
43.37100747697781
 21
25.73575941016725
 31
0.0
 11
43.36588824126841
 21
25.7358063856463
 31
0.0
 11
43.35975203005228
 21
25.73351083877901
 31
0.0
 11
43.35224213807641
 21
25.72861448378774
 31
0.0
 11
43.34378510622793
 21
25.72128651790882
 31
0.0
 11
43.3341764716493
 21
25.7112604777301
 31
0.0
 11
43.32386036665508
 21
25.69887584559012
 31
0.0
 11
43.31408494506348
 21
25.68576121690603
 31
0.0
 11
43.30402672960121
 21
25.6708998998987
 31
0.0
 11
43.29358458880034
 21
25.65392535133844
 31
0.0
 11
43.28319375256666
 21
25.63525792638575
 31
0.0
 11
43.27487310223154
 21
25.61877681652237
 31
0.0
 11
43.26683984292401
 21
25.60123716426102
 31
0.0
 11
43.25907348819419
 21
25.58228477656712
 31
0.0
 11
43.25189005555194
 21
25.56231417884135
 31
0.0
 11
43.24623274828645
 21
25.5441365775302
 31
0.0
 11
43.24124561981977
 21
25.52528710431159
 31
0.0
 11
43.23694988254572
 21
25.50536682734463
 31
0.0
 11
43.23357786939704
 21
25.48491696384656
 31
0.0
 11
43.23116875872386
 21
25.46333343748529
 31
0.0
 11
43.22992612281393
 21
25.44147540071941
 31
0.0
 11
43.22992411929351
 21
25.41874065008017
 31
0.0
 11
43.23121752299988
 21
25.39610758656863
 31
0.0
 11
43.23366617476819
 21
25.37450740025804
 31
0.0
 11
43.23720374479882
 21
25.35334753923138
 31
0.0
 11
43.24188221995439
 21
25.33215138362823
 31
0.0
 11
43.24747163058094
 21
25.31168378128394
 31
0.0
 11
43.25578684120182
 21
25.28654755470143
 31
0.0
 11
43.26508240433378
 21
25.26289939074434
 31
0.0
 11
43.27543338121683
 21
25.24010548288993
 31
0.0
 11
43.28625276321855
 21
25.21908549981265
 31
0.0
 11
43.29615025181579
 21
25.20179062670252
 31
0.0
 11
43.30605184788197
 21
25.18603618763711
 31
0.0
 11
43.31602898285126
 21
25.17156852578648
 31
0.0
 11
43.32569617834121
 21
25.15884958298057
 31
0.0
 11
43.33398704354244
 21
25.14899430076844
 31
0.0
 11
43.34181821092857
 21
25.14067490989567
 31
0.0
 11
43.34925608042761
 21
25.133827624025
 31
0.0
 11
43.35603596328098
 21
25.12872438233717
 31
0.0
 11
43.36187408487546
 21
25.12552313106033
 31
0.0
 11
43.3669774593958
 21
25.12405533471213
 31
0.0
 11
43.37140339466635
 21
25.1244017669917
 31
0.0
 11
43.37498552588477
 21
25.12664932979874
 31
0.0
 11
43.37764478907121
 21
25.13067417524189
 31
0.0
 11
43.37951080205527
 21
25.13650316489583
 31
0.0
 11
43.38062785433584
 21
25.14436090858851
 31
0.0
 11
43.38098757724321
 21
25.15406301019266
 31
0.0
  0
SPLINE
  5
17C
330
2
100
AcDbEntity
  8
GAIKEI
  6
Continuous
 62
     1
100
AcDbSpline
210
0.0
220
0.0
230
1.0
 70
     8
 71
     3
 72
    59
 73
    55
 74
     0
 42
0.0000000001
 43
0.0000000001
 40
0.0349945438237978
 40
0.0349945438237978
 40
0.0349945438237978
 40
0.0349945438237978
 40
0.1421083323969185
 40
0.2660578875024012
 40
0.3736716343104173
 40
0.4641651363129852
 40
0.5729806802563652
 40
0.6644289759125779
 40
0.7668179451501672
 40
0.8978485888745707
 40
1.077150255517389
 40
1.300954130308442
 40
1.578693083064459
 40
1.901060028867446
 40
2.228200577322882
 40
2.587102481366617
 40
2.985686782952937
 40
3.412976968399689
 40
3.782224978463207
 40
4.16806053834409
 40
4.57769907473212
 40
5.00216417850695
 40
5.382916273834956
 40
5.772877394409236
 40
6.180441335270956
 40
6.594961553926577
 40
7.02931283558277
 40
7.467179523693534
 40
7.92187462311888
 40
8.375274510883524
 40
8.810045305201219
 40
9.239116053932869
 40
9.673242891533488
 40
10.09758443760665
 40
10.62710224024265
 40
11.1352924621226
 40
11.6359740092462
 40
12.10879480318595
 40
12.50732858316551
 40
12.87948121950628
 40
13.23096746971053
 40
13.55048345776405
 40
13.80806064780194
 40
14.03656835537501
 40
14.23876351157454
 40
14.40848075290273
 40
14.54164476715823
 40
14.64784989521401
 40
14.73663931130097
 40
14.82121640271464
 40
14.91769663157091
 40
15.0401044011609
 40
15.19883933843787
 40
15.39301392549999
 40
15.39301392549999
 40
15.39301392549999
 40
15.39301392549999
 10
43.38098757724316
 20
20.00772844534828
 30
0.0
 10
43.38097181641143
 20
20.00951378132385
 30
0.0
 10
43.38083574713664
 20
20.01336482880629
 30
0.0
 10
43.38037152302485
 20
20.01899268991065
 30
0.0
 10
43.37944601320765
 20
20.02429578306328
 30
0.0
 10
43.37792911585495
 20
20.02918340505698
 30
0.0
 10
43.3754746234257
 20
20.03350946899275
 30
0.0
 10
43.37094765489427
 20
20.03628868126231
 30
0.0
 10
43.36530696067211
 20
20.0360428795164
 30
0.0
 10
43.35891299611069
 20
20.03335819339225
 30
0.0
 10
43.35151910509523
 20
20.02832605350744
 30
0.0
 10
43.34300822553081
 20
20.02079506796389
 30
0.0
 10
43.33355631095265
 20
20.0108144235918
 30
0.0
 10
43.32369962081975
 20
19.99890009278937
 30
0.0
 10
43.31367370863029
 20
19.98540368267305
 30
0.0
 10
43.30355397407572
 20
19.9704177111098
 30
0.0
 10
43.29321432410097
 20
19.953587751116
 30
0.0
 10
43.28352857962989
 20
19.93617505449873
 30
0.0
 10
43.2746456848223
 20
19.91857961384278
 30
0.0
 10
43.2665587525596
 20
19.90092682084832
 30
0.0
 10
43.25884370828839
 20
19.88210865061603
 30
0.0
 10
43.25198242644922
 20
19.86305152413956
 30
0.0
 10
43.24605784156676
 20
19.84402740752921
 30
0.0
 10
43.24102699711585
 20
19.82503807644878
 30
0.0
 10
43.23676421141828
 20
19.80528430673672
 30
0.0
 10
43.23334801413205
 20
19.78461531244636
 30
0.0
 10
43.23096812792835
 20
19.76329163887038
 30
0.0
 10
43.22970514101529
 20
19.74120126514617
 30
0.0
 10
43.22970863187532
 20
19.71875604577144
 30
0.0
 10
43.23098338868527
 20
19.69639902925178
 30
0.0
 10
43.23346594999122
 20
19.67457506069593
 30
0.0
 10
43.23703642490426
 20
19.65322918214576
 30
0.0
 10
43.24167255503295
 20
19.63226727385063
 30
0.0
 10
43.24777347216104
 20
19.60994443428558
 30
0.0
 10
43.25544305419401
 20
19.58680055133555
 30
0.0
 10
43.2648337166529
 20
19.56292983890614
 30
0.0
 10
43.27505268227776
 20
19.54043686201407
 30
0.0
 10
43.28552020575824
 20
19.52009625040858
 30
0.0
 10
43.29581097788502
 20
19.50209988906198
 30
0.0
 10
43.3057564542878
 20
19.4862542896472
 30
0.0
 10
43.31561354868608
 20
19.47192607172997
 30
0.0
 10
43.32495978789085
 20
19.45958288679571
 30
0.0
 10
43.33358286917223
 20
19.44928420093964
 30
0.0
 10
43.34141941978066
 20
19.44089726820743
 30
0.0
 10
43.3487471498305
 20
19.43406749389908
 30
0.0
 10
43.35542865328159
 20
19.42891746752917
 30
0.0
 10
43.36137290405576
 20
19.42551884993929
 30
0.0
 10
43.36662629857516
 20
19.42380363204677
 30
0.0
 10
43.37145183060374
 20
19.4239988454932
 30
0.0
 10
43.37539090357217
 20
19.42656092377388
 30
0.0
 10
43.37804194531793
 20
19.43098952175683
 30
0.0
 10
43.37982576590536
 20
19.4370602835113
 30
0.0
 10
43.3807928111982
 20
19.4449417164999
 30
0.0
 10
43.38105201067674
 20
19.45082740857174
 30
0.0
 10
43.38098757724321
 20
19.45406301019267
 30
0.0
  0
SPLINE
  5
17D
330
2
100
AcDbEntity
  8
GAIKEI
  6
Continuous
 62
     1
100
AcDbSpline
210
0.0
220
0.0
230
1.0
 70
     8
 71
     3
 72
    19
 73
    15
 74
    13
 42
0.0000000001
 43
0.0000000001
 44
0.000001
 12
-0.0912154340821383
 22
0.995831182774072
 32
0.0
 13
-0.7628105112760477
 23
0.646622087379309
 33
0.0
 40
0.0
 40
0.0
 40
0.0
 40
0.0
 40
0.0467890381476132
 40
0.0987195309954746
 40
0.1429451523508886
 40
0.1873884241884096
 40
0.2319948084613284
 40
0.2767107229894731
 40
0.3214864445947492
 40
0.3716404223558689
 40
0.4222145537762471
 40
0.4731010924728824
 40
0.5241952257139959
 40
0.5754007836255317
 40
0.5754007836255317
 40
0.5754007836255317
 40
0.5754007836255317
 10
43.3779316870374
 20
33.80391000722182
 30
0.0
 10
43.37650905956244
 20
33.81944133495494
 30
0.0
 10
43.37246641061546
 20
33.8521238784965
 30
0.0
 10
43.363463932748
 20
33.89895485590043
 30
0.0
 10
43.35159843830342
 20
33.94432331009952
 30
0.0
 10
43.33778077088078
 20
33.98657309425508
 30
0.0
 10
43.32140330758079
 20
34.02807348298495
 30
0.0
 10
43.3025205240199
 20
34.06861836002533
 30
0.0
 10
43.28034317662383
 20
34.10957675632236
 30
0.0
 10
43.25448851557453
 20
34.15065816617602
 30
0.0
 10
43.22470647647333
 20
34.19153592882322
 30
0.0
 10
43.19203905006955
 20
34.23055742142013
 30
0.0
 10
43.1566701529305
 20
34.26743878203543
 30
0.0
 10
43.13140387085721
 20
34.2903865364663
 30
0.0
 10
43.11838382492033
 20
34.30142341804702
 30
0.0
 11
43.3779316870374
 21
33.80391000722182
 31
0.0
 11
43.37218933103014
 21
33.85034573325834
 31
0.0
 11
43.36237899613547
 21
33.90134114515002
 31
0.0
 11
43.35119226290209
 21
33.94412856471627
 31
0.0
 11
43.33738250694785
 21
33.9863718588523
 31
0.0
 11
43.3210081624984
 21
34.0278641569472
 31
0.0
 11
43.30212766377917
 21
34.06839858839016
 31
0.0
 11
43.28079944501576
 21
34.10776828257013
 31
0.0
 11
43.25409599185201
 21
34.15022234996036
 31
0.0
 11
43.22432240920323
 21
34.19110359620606
 31
0.0
 11
43.19165899112675
 21
34.23012332230439
 31
0.0
 11
43.15628603167988
 21
34.26699282925245
 31
0.0
 11
43.11838382492033
 21
34.30142341804702
 31
0.0
  0
SPLINE
  5
17E
330
2
100
AcDbEntity
  8
GAIKEI
  6
Continuous
 62
     1
100
AcDbSpline
210
0.0
220
0.0
230
1.0
 70
     8
 71
     3
 72
    16
 73
    12
 74
    10
 42
0.0000000001
 43
0.0000000001
 44
0.000001
 12
0.0063007628878109
 22
-0.9999801499965045
 32
0.0
 13
-0.4249637329286279
 23
-0.905210376484586
 33
0.0
 40
0.0
 40
0.0
 40
0.0
 40
0.0
 40
0.0456928155558235
 40
0.0729223277433817
 40
0.1001494218405929
 40
0.1275729237482571
 40
0.1553508338207632
 40
0.1831848896977218
 40
0.2113769263847817
 40
0.2397509725392922
 40
0.2997926694746515
 40
0.2997926694746515
 40
0.2997926694746515
 40
0.2997926694746515
 10
43.3669905102426
 20
5.682184383547053
 30
0.0
 10
43.36708647677477
 20
5.666953747362626
 30
0.0
 10
43.36631084860431
 20
5.642627908155517
 30
0.0
 10
43.36320592444255
 20
5.609380605345442
 30
0.0
 10
43.35943632422964
 20
5.582338826010676
 30
0.0
 10
43.35440719217965
 20
5.555317095324589
 30
0.0
 10
43.34809596473832
 20
5.528358305402406
 30
0.0
 10
43.34049339430388
 20
5.501465832085237
 30
0.0
 10
43.33154219974668
 20
5.474789326116749
 30
0.0
 10
43.31772607949645
 20
5.438424132494709
 30
0.0
 10
43.30413652104411
 20
5.412211513885964
 30
0.0
 10
43.29563133982378
 20
5.394094724856756
 30
0.0
 11
43.3669905102426
 21
5.682184383547053
 31
0.0
 11
43.36553224316548
 21
5.636514416702596
 31
0.0
 11
43.36300203536445
 21
5.609402723952484
 31
0.0
 11
43.3592431457215
 21
5.582436351431852
 31
0.0
 11
43.35422543289434
 21
5.555475806986635
 31
0.0
 11
43.34789700002448
 21
5.528428382057029
 31
0.0
 11
43.34031466886773
 21
5.501646991254915
 31
0.0
 11
43.33138779189039
 21
5.474905604663888
 31
0.0
 11
43.32115840275832
 21
5.448439664318129
 31
0.0
 11
43.29563133982378
 21
5.394094724856756
 31
0.0
  0
SPLINE
  5
17F
330
2
100
AcDbEntity
  8
GAIKEI
  6
Continuous
 62
     7
100
AcDbSpline
210
0.0
220
0.0
230
1.0
 70
     8
 71
     3
 72
    19
 73
    15
 74
    13
 42
0.0000000001
 43
0.0000000001
 44
0.000001
 12
0.6454515731427639
 22
-0.7638011958144158
 32
0.0
 13
0.1202067029641735
 23
-0.9927488849464818
 33
0.0
 40
0.0
 40
0.0
 40
0.0
 40
0.0
 40
0.0355153739049589
 40
0.0709953650762931
 40
0.1065946142794694
 40
0.14216633649175
 40
0.1784911525315489
 40
0.2148012359927105
 40
0.2512585163379541
 40
0.2877170051074889
 40
0.3352601626282626
 40
0.382880637567705
 40
0.4192250038097903
 40
0.4386283337596443
 40
0.4386283337596443
 40
0.4386283337596443
 40
0.4386283337596443
 10
43.20282725914529
 20
34.28793099466389
 30
0.0
 10
43.21046841046452
 20
34.2788887663111
 30
0.0
 10
43.22531837361265
 20
34.26044942385886
 30
0.0
 10
43.2462823626995
 20
34.23174593141195
 30
0.0
 10
43.26587835339075
 20
34.20206799917214
 30
0.0
 10
43.28419423252859
 20
34.1712556197389
 30
0.0
 10
43.30113146844559
 20
34.1393948726994
 30
0.0
 10
43.3166410899417
 20
34.10648876211953
 30
0.0
 10
43.33056406159073
 20
34.07283190156744
 30
0.0
 10
43.34410979548827
 20
34.03501707215549
 30
0.0
 10
43.35659697534128
 20
33.9929264119119
 30
0.0
 10
43.36640586059281
 20
33.95017161605323
 30
0.0
 10
43.37223865030909
 20
33.91619932312787
 30
0.0
 10
43.37471030597632
 20
33.89777979917557
 30
0.0
 10
43.37548777608293
 20
33.89135892111824
 30
0.0
 11
43.20282725914529
 21
34.28793099466389
 31
0.0
 11
43.22510468026087
 21
34.26027085977967
 31
0.0
 11
43.24603083449244
 21
34.23161910983476
 31
0.0
 11
43.26564657880362
 21
34.20191173149419
 31
0.0
 11
43.28382291080379
 21
34.1713344823961
 31
0.0
 11
43.30087389363234
 21
34.13926025175783
 31
0.0
 11
43.31635474661726
 21
34.10641568758911
 31
0.0
 11
43.33029107347653
 21
34.07272723212509
 31
0.0
 11
43.34258606370292
 21
34.03840443669901
 31
0.0
 11
43.356108785125
 21
33.99282496380966
 31
0.0
 11
43.36675738030135
 21
33.94641032771841
 31
0.0
 11
43.37290903960052
 21
33.91059034717455
 31
0.0
 11
43.37548777608293
 21
33.89135892111824
 31
0.0
  0
SPLINE
  5
180
330
2
100
AcDbEntity
  8
GAIKEI
  6
Continuous
 62
     1
100
AcDbSpline
210
0.0
220
0.0
230
1.0
 70
     8
 71
     3
 72
     9
 73
     5
 74
     3
 42
0.0000000001
 43
0.0000000001
 44
0.000001
 12
-0.0085731655573233
 22
-0.9999632497408725
 32
0.0
 13
-0.2441696530740563
 23
-0.9697325304008808
 33
0.0
 40
0.0
 40
0.0
 40
0.0
 40
0.0
 40
0.0009645689144569
 40
0.0010700851662007
 40
0.0010700851662007
 40
0.0010700851662007
 40
0.0010700851662007
 10
43.37706067558793
 20
15.14572629891768
 30
0.0
 10
43.37705791911827
 20
15.14540478776224
 30
0.0
 10
43.37701678828034
 20
15.14504647033995
 30
0.0
 10
43.37693387781221
 20
15.1446996038798
 30
0.0
 10
43.37692528985667
 20
15.14466549636586
 30
0.0
 11
43.37706067558793
 21
15.14572629891768
 31
0.0
 11
43.37694983767682
 21
15.14476807118223
 31
0.0
 11
43.37692528985667
 21
15.14466549636586
 31
0.0
  0
SPLINE
  5
181
330
2
100
AcDbEntity
  8
GAIKEI
  6
Continuous
 62
     1
100
AcDbSpline
210
0.0
220
0.0
230
1.0
 70
     8
 71
     3
 72
     9
 73
     5
 74
     3
 42
0.0000000001
 43
0.0000000001
 44
0.000001
 12
-0.0000018445944591
 22
0.9999999999982989
 32
0.0
 13
-0.0427938538119136
 23
0.9990839234398302
 33
0.0
 40
0.0
 40
0.0
 40
0.0
 40
0.0
 40
0.0139258080615728
 40
0.0321069066857096
 40
0.0321069066857096
 40
0.0321069066857096
 40
0.0321069066857096
 10
43.38098757724321
 20
15.0693093257438
 30
0.0
 10
43.38098756868072
 20
15.07395126176432
 30
0.0
 10
43.38088817173672
 20
15.08465372375177
 30
0.0
 10
43.38055976533749
 20
15.0953522574824
 30
0.0
 10
43.38030041891193
 20
15.10140707193102
 30
0.0
 11
43.38098757724321
 21
15.0693093257438
 31
0.0
 11
43.38085829290776
 21
15.08323447524879
 31
0.0
 11
43.38030041891193
 21
15.10140707193102
 31
0.0
  0
SPLINE
  5
182
330
2
100
AcDbEntity
  8
GAIKEI
  6
Continuous
 62
     1
100
AcDbSpline
210
0.0
220
0.0
230
1.0
 70
     8
 71
     3
 72
    15
 73
    11
 74
     9
 42
0.0000000001
 43
0.0000000001
 44
0.000001
 12
-0.9993069237086784
 22
0.0372246185728951
 32
0.0
 13
-0.9993043250040532
 23
0.0372943162987813
 33
0.0
 40
0.0
 40
0.0
 40
0.0
 40
0.0
 40
0.0135550260818612
 40
0.0286448009222158
 40
0.0452836984744065
 40
0.1309398183227203
 40
0.1506979104907946
 40
0.171985562236962
 40
0.1948202008235673
 40
0.2191826589616368
 40
0.2191826589616368
 40
0.2191826589616368
 40
0.2191826589616368
 10
41.20566647724319
 20
36.8548594686639
 30
0.0
 10
41.20115126677165
 20
36.85502766222246
 30
0.0
 10
41.19160917796398
 20
36.855373078496
 30
0.0
 10
41.17652263929272
 20
36.85585822266299
 30
0.0
 10
41.13741577609559
 20
36.85722601621426
 30
0.0
 10
41.09670806516652
 20
36.85611921224629
 30
0.0
 10
41.05449358393189
 20
36.85747709417429
 30
0.0
 10
41.03320799358662
 20
36.85805369593234
 30
0.0
 10
41.01038204428919
 20
36.85841674901435
 30
0.0
 10
40.99465770490598
 20
36.85894158957977
 30
0.0
 10
40.98654253497762
 20
36.85924444998631
 30
0.0
 11
41.20566647724319
 21
36.8548594686639
 31
0.0
 11
41.19212019984479
 21
36.85534694304477
 31
0.0
 11
41.17703879151685
 21
36.85584936327575
 31
0.0
 11
41.16040794023866
 21
36.85636673400336
 31
0.0
 11
41.07475345195644
 21
36.85689772229193
 31
0.0
 11
41.05500292460249
 21
36.8574436200422
 31
0.0
 11
41.03372261348328
 21
36.85800247142879
 31
0.0
 11
41.0108929599923
 21
36.85847391853542
 31
0.0
 11
40.98654253497762
 21
36.85924444998631
 31
0.0
  0
SPLINE
  5
183
330
2
100
AcDbEntity
  8
GAIKEI
  6
Continuous
 62
     7
100
AcDbSpline
210
0.0
220
0.0
230
1.0
 70
     8
 71
     3
 72
    31
 73
    27
 74
    25
 42
0.0000000001
 43
0.0000000001
 44
0.000001
 12
0.999992804131436
 22
-0.0037936374823846
 32
0.0
 13
0.9989808044861298
 23
0.045137038762472
 33
0.0
 40
0.0
 40
0.0
 40
0.0
 40
0.0
 40
0.0026515889139971
 40
0.0190927368870625
 40
0.0353660989886413
 40
0.0521905496061845
 40
0.0681247117096913
 40
0.0831708709086167
 40
0.0973305489381677
 40
0.11060498366266
 40
0.1229945225111862
 40
0.1344996903740392
 40
0.1451210522003011
 40
0.1548589278232497
 40
0.1637121493750056
 40
0.1716610059610677
 40
0.1787060528869275
 40
0.1848481303573379
 40
0.190087663371175
 40
0.1944245152608512
 40
0.1978575922584349
 40
0.2003834863694502
 40
0.2020573366526684
 40
0.2033054059350345
 40
0.2045049137450708
 40
0.20509282600629
 40
0.20509282600629
 40
0.20509282600629
 40
0.20509282600629
 10
40.9380594923598
 20
1.64083646152801
 30
0.0
 10
40.93894334897098
 20
1.640833108472314
 30
0.0
 10
40.94530753570245
 20
1.640805557159822
 30
0.0
 10
40.95709621529374
 20
1.640779049122059
 30
0.0
 10
40.97360915827841
 20
1.640742565908382
 30
0.0
 10
40.98995311242297
 20
1.64070711209996
 30
0.0
 10
41.00588800002336
 20
1.640673180768082
 30
0.0
 10
41.02093463360981
 20
1.640641704672567
 30
0.0
 10
41.03509469428246
 20
1.640612573290376
 30
0.0
 10
41.04836921757453
 20
1.640585677155044
 30
0.0
 10
41.06075890662717
 20
1.640560907666632
 30
0.0
 10
41.07226424030957
 20
1.640538154905158
 30
0.0
 10
41.08288568829985
 20
1.640517313684881
 30
0.0
 10
41.09262315599869
 20
1.640498263273258
 30
0.0
 10
41.10146979038233
 20
1.640480987017539
 30
0.0
 10
41.10941881692329
 20
1.640465467537659
 30
0.0
 10
41.11646413037937
 20
1.640451660602096
 30
0.0
 10
41.12260633766595
 20
1.640439581257062
 30
0.0
 10
41.12784581442901
 20
1.640429032414786
 30
0.0
 10
41.13218229343397
 20
1.640420440726984
 30
0.0
 10
41.13561422488553
 20
1.640412527608795
 30
0.0
 10
41.13815849677331
 20
1.640408384575479
 30
0.0
 10
41.13997441912206
 20
1.640400376528788
 30
0.0
 10
41.1413482466981
 20
1.64040483923857
 30
0.0
 10
41.14235994255176
 20
1.640427316590212
 30
0.0
 10
41.14295520393702
 20
1.640453073366721
 30
0.0
 10
41.14315097495825
 20
1.640461918906225
 30
0.0
 11
40.9380594923598
 21
1.64083646152801
 31
0.0
 11
40.94071104067268
 21
1.640826711052625
 31
0.0
 11
40.95715212258165
 21
1.640780031243536
 31
0.0
 11
40.97342544414857
 21
1.640744078625232
 31
0.0
 11
40.99024985447607
 21
1.640707582950767
 31
0.0
 11
41.00618398000688
 21
1.640673652623945
 31
0.0
 11
41.02123010597876
 21
1.640642175738491
 31
0.0
 11
41.03538975381906
 21
1.64061304187328
 31
0.0
 11
41.04866416112059
 21
1.640586140955974
 31
0.0
 11
41.06105367506302
 21
1.640561364384893
 31
0.0
 11
41.07255882029948
 21
1.640538602786534
 31
0.0
 11
41.08318016154998
 21
1.640517746273815
 31
0.0
 11
41.09291801843773
 21
1.640498692146195
 31
0.0
 11
41.10177122300416
 21
1.640481398838517
 31
0.0
 11
41.10972006431376
 21
1.640465868771116
 31
0.0
 11
41.11676509758234
 21
1.640452061869723
 31
0.0
 11
41.12290716291551
 21
1.640439937734925
 31
0.0
 11
41.12814668519365
 21
1.640429457017262
 31
0.0
 11
41.13248352758398
 21
1.640420581785065
 31
0.0
 11
41.1359165960335
 21
1.640413276659444
 31
0.0
 11
41.13844248192822
 21
1.64040751324984
 31
0.0
 11
41.14011632259502
 21
1.640403198016144
 31
0.0
 11
41.14136436710061
 21
1.640409914621898
 31
0.0
 11
41.14256352711345
 21
1.640438483370644
 31
0.0
 11
41.14315097495825
 21
1.640461918906225
 31
0.0
  0
SPLINE
  5
184
330
2
100
AcDbEntity
  8
GAIKEI
  6
Continuous
 62
     7
100
AcDbSpline
210
0.0
220
0.0
230
1.0
 70
     8
 71
     3
 72
    33
 73
    29
 74
    27
 42
0.0000000001
 43
0.0000000001
 44
0.000001
 12
-0.9989727477710509
 22
0.045314999842833
 32
0.0
 13
-0.9999928005234256
 23
-0.0037945884251499
 33
0.0
 40
0.0
 40
0.0
 40
0.0
 40
0.0
 40
0.0003193646769821
 40
0.0011748899394403
 40
0.0019753776501472
 40
0.0028201779244463
 40
0.0037318287471469
 40
0.0049417168605845
 40
0.0075302588399667
 40
0.0110310545682711
 40
0.0154384379156915
 40
0.0207475065557477
 40
0.0269566282603146
 40
0.034065384364909
 40
0.0420740035210246
 40
0.0509831623433055
 40
0.0607939595965728
 40
0.0715076027536322
 40
0.0831059906884473
 40
0.095590036124345
 40
0.1089601796620204
 40
0.1232171652372821
 40
0.1383615413946444
 40
0.1543938196920376
 40
0.1713154071310187
 40
0.1869950681571027
 40
0.2032650978171542
 40
0.205092653612687
 40
0.205092653612687
 40
0.205092653612687
 40
0.205092653612687
 10
41.14315119398088
 20
37.83495949171265
 30
0.0
 10
41.14304484844459
 20
37.83496431571608
 30
0.0
 10
41.14265365804806
 20
37.83498295483687
 30
0.0
 10
41.14199542950524
 20
37.83500221090891
 30
0.0
 10
41.14116194227196
 20
37.83501677120745
 30
0.0
 10
41.14030961554272
 20
37.83502059372836
 30
0.0
 10
41.13932084289112
 20
37.83501675065
 30
0.0
 10
41.13775081913485
 20
37.83501339570717
 30
0.0
 10
41.13531775076703
 20
37.83500768289449
 30
0.0
 10
41.13181885110117
 20
37.83500044944037
 30
0.0
 10
41.12741311112421
 20
37.83499143796175
 30
0.0
 10
41.12210459705545
 20
37.8349808727416
 30
0.0
 10
41.11589562697162
 20
37.83496863503641
 30
0.0
 10
41.10878680826499
 20
37.83495472079084
 30
0.0
 10
41.10077797883957
 20
37.83493908230598
 30
0.0
 10
41.0918684707529
 20
37.83492168237723
 30
0.0
 10
41.0820572897905
 20
37.8349024848833
 30
0.0
 10
41.07134970097416
 20
37.83488146487987
 30
0.0
 10
41.05975103151365
 20
37.83485850916685
 30
0.0
 10
41.04726686421142
 20
37.83483352468184
 30
0.0
 10
41.0338965002021
 20
37.83480640033453
 30
0.0
 10
41.01963936204993
 20
37.83477702824992
 30
0.0
 10
41.00449484853894
 20
37.83474529651733
 30
0.0
 10
40.98846213798862
 20
37.83471110865412
 30
0.0
 10
40.97225099956967
 20
37.83467585125564
 30
0.0
 10
40.95596061729935
 20
37.83463991902534
 30
0.0
 10
40.94470155325248
 20
37.83461428435177
 30
0.0
 10
40.93866908447549
 20
37.83458727220868
 30
0.0
 10
40.93805990359612
 20
37.83458496060132
 30
0.0
 11
41.14315119398088
 21
37.83495949171265
 31
0.0
 11
41.14283211507751
 21
37.8349730242067
 31
0.0
 11
41.14197701949303
 21
37.83500001307391
 31
0.0
 11
41.14117665606033
 21
37.83501382849534
 31
0.0
 11
41.14033187239385
 21
37.83501836039011
 31
0.0
 11
41.13942022706999
 21
37.83501636589176
 31
0.0
 11
41.13821034455492
 21
37.8350133509025
 31
0.0
 11
41.13562181063815
 21
37.83500750009102
 31
0.0
 11
41.13212102346574
 21
37.83500008578767
 31
0.0
 11
41.12771364968534
 21
37.83499108973535
 31
0.0
 11
41.122404591872
 21
37.83498048581282
 31
0.0
 11
41.11619548240605
 21
37.83496823950213
 31
0.0
 11
41.10908674006469
 21
37.83495431333762
 31
0.0
 11
41.10107813629229
 21
37.8349386683048
 31
0.0
 11
41.09216899456288
 21
37.83492126429121
 31
0.0
 11
41.08235821619041
 21
37.83490206397994
 31
0.0
 11
41.07164459380635
 21
37.83488101649414
 31
0.0
 11
41.06004622871694
 21
37.83485805248688
 31
0.0
 11
41.04756220843012
 21
37.83483306097003
 31
0.0
 11
41.03419209258385
 21
37.83480593238096
 31
0.0
 11
41.01993513749483
 21
37.83477655698323
 31
0.0
 11
41.00479079489178
 21
37.83474482583552
 31
0.0
 11
40.98875855352758
 21
37.83471063046079
 31
0.0
 11
40.97183700677698
 21
37.83467386079269
 31
0.0
 11
40.95615738487197
 21
37.83463917096304
 31
0.0
 11
40.93988742750923
 21
37.83459174787032
 31
0.0
 11
40.93805990359612
 21
37.83458496060132
 31
0.0
  0
SPLINE
  5
185
330
2
100
AcDbEntity
  8
GAIKEI
  6
Continuous
 62
     1
100
AcDbSpline
210
0.0
220
0.0
230
1.0
 70
     8
 71
     3
 72
     9
 73
     5
 74
     3
 42
0.0000000001
 43
0.0000000001
 44
0.000001
 12
-0.1197400498887226
 22
0.9928052782155454
 32
0.0
 13
-0.1402453033452655
 23
0.9901167885101203
 33
0.0
 40
0.0
 40
0.0
 40
0.0
 40
0.0
 40
0.0092459895577719
 40
0.0156881724027867
 40
0.0156881724027867
 40
0.0156881724027867
 40
0.0156881724027867
 10
43.37552923436539
 20
33.89099474906567
 30
0.0
 10
43.37516019594841
 20
33.89405457147743
 30
0.0
 10
43.37450237967945
 20
33.89924258490815
 30
0.0
 10
43.37379096769498
 20
33.90442342011919
 30
0.0
 10
43.37348980573255
 20
33.90654959124902
 30
0.0
 11
43.37552923436539
 21
33.89099474906567
 31
0.0
 11
43.37436619818379
 21
33.90016730771646
 31
0.0
 11
43.37348980573255
 21
33.90654959124902
 31
0.0
  0
SPLINE
  5
186
330
2
100
AcDbEntity
  8
GAIKEI
  6
Continuous
 62
     7
100
AcDbSpline
210
0.0
220
0.0
230
1.0
 70
     8
 71
     3
 72
    23
 73
    19
 74
    17
 42
0.0000000001
 43
0.0000000001
 44
0.000001
 12
0.0049688130497012
 22
0.9999876553722437
 32
0.0
 13
0.1822247323104926
 23
0.9832569079006614
 33
0.0
 40
0.0
 40
0.0
 40
0.0
 40
0.0
 40
0.0072074501703136
 40
0.016160804614415
 40
0.0250756285633327
 40
0.0338013202979102
 40
0.0421697133357867
 40
0.050022301499075
 40
0.0572230662354535
 40
0.0636517750001245
 40
0.0694283394929529
 40
0.0747395269944793
 40
0.0796635137653787
 40
0.0946187857611875
 40
0.0978764069160453
 40
0.0998931476227535
 40
0.1009987819249754
 40
0.1012579302451571
 40
0.1012579302451571
 40
0.1012579302451571
 40
0.1012579302451571
 10
43.37308907852201
 20
6.331872275772468
 30
0.0
 10
43.37310101601284
 20
6.334274729504812
 30
0.0
 10
43.37315288909803
 20
6.339661517844611
 30
0.0
 10
43.37333121730353
 20
6.348018375449171
 30
0.0
 10
43.37362408799345
 20
6.356878355667817
 30
0.0
 10
43.37401180354857
 20
6.365539517900479
 30
0.0
 10
43.37448034582422
 20
6.373842052576009
 30
0.0
 10
43.37501275133533
 20
6.381631328162796
 30
0.0
 10
43.37559025710445
 20
6.388768861220341
 30
0.0
 10
43.37619665546561
 20
6.395209335890598
 30
0.0
 10
43.37683605634945
 20
6.401013132709138
 30
0.0
 10
43.37745716837509
 20
6.406314294975707
 30
0.0
 10
43.37857744573966
 20
6.414636179225425
 30
0.0
 10
43.37935542895507
 20
6.422312479170187
 30
0.0
 10
43.3803636504532
 20
6.428980405271985
 30
0.0
 10
43.38069966919744
 20
6.431080332472319
 30
0.0
 10
43.38088849534091
 20
6.432191642408561
 30
0.0
 10
43.3809718361654
 20
6.432638873825581
 30
0.0
 10
43.38098757724316
 20
6.432723810284244
 30
0.0
 11
43.37308907852201
 21
6.331872275772468
 31
0.0
 11
43.37316081149402
 21
6.339079202959283
 31
0.0
 11
43.37334997712633
 21
6.348030557442029
 31
0.0
 11
43.37364469871909
 21
6.356940502880831
 31
0.0
 11
43.37403537019702
 21
6.365657439321012
 31
0.0
 11
43.37450806599355
 21
6.374012467658872
 31
0.0
 11
43.37504555691265
 21
6.381846638189927
 31
0.0
 11
43.37562859922718
 21
6.389023762567262
 31
0.0
 11
43.37623581052361
 21
6.395423737700696
 31
0.0
 11
43.37686091506293
 21
6.401166389422598
 31
0.0
 11
43.37748883225623
 21
6.406440335840045
 31
0.0
 11
43.37811908880712
 21
6.411323826768693
 31
0.0
 11
43.37994885817716
 21
6.426166726716644
 31
0.0
 11
43.3804321700502
 21
6.429388292343617
 31
0.0
 11
43.38075277167217
 21
6.431379383429316
 31
0.0
 11
43.38094085402781
 21
6.432468906351743
 31
0.0
 11
43.38098757724316
 21
6.432723810284244
 31
0.0
  0
SPLINE
  5
187
330
2
100
AcDbEntity
  8
GAIKEI
  6
Continuous
 62
     7
100
AcDbSpline
210
0.0
220
0.0
230
1.0
 70
     8
 71
     3
 72
    24
 73
    20
 74
    18
 42
0.0000000001
 43
0.0000000001
 44
0.000001
 12
-0.6450891826635058
 22
0.764107287238206
 32
0.0
 13
-0.6426010606713997
 23
0.7662009376292831
 33
0.0
 40
0.0
 40
0.0
 40
0.0
 40
0.0
 40
0.1279172834885418
 40
0.2554857142357851
 40
0.3827436792159488
 40
0.5097301885678475
 40
0.6364847985758504
 40
0.7630456544739852
 40
0.9616300444448327
 40
1.159970670116569
 40
1.358188676903859
 40
1.54739082842433
 40
1.736690393909553
 40
1.926182773689498
 40
2.115963864905431
 40
2.265343010524392
 40
2.415007555575902
 40
2.565005854690993
 40
2.695047218680627
 40
2.695047218680627
 40
2.695047218680627
 40
2.695047218680627
 10
43.02693823063032
 20
34.49690419363844
 30
0.0
 10
42.99943221201226
 20
34.52948503646421
 30
0.0
 10
42.94451303787872
 20
34.59457293852349
 30
0.0
 10
42.8622827484084
 20
34.69211856961874
 30
0.0
 10
42.78031027463163
 20
34.7894757223808
 30
0.0
 10
42.69857584149599
 20
34.88667863963851
 30
0.0
 10
42.61705111533934
 20
34.98375425798696
 30
0.0
 10
42.52024610558814
 20
35.09916300655546
 30
0.0
 10
42.40820200777159
 20
35.23293420199574
 30
0.0
 10
42.28091176405991
 20
35.38509274036257
 30
0.0
 10
42.15568864482088
 20
35.5349030791011
 30
0.0
 10
42.03241724615518
 20
35.68241695751253
 30
0.0
 10
41.91099907427548
 20
35.82768909453299
 30
0.0
 10
41.78942528964557
 20
35.97308267548039
 30
0.0
 10
41.67634261610172
 20
36.10823048809695
 30
0.0
 10
41.5717408732205
 20
36.23316422677401
 30
0.0
 10
41.47562022260456
 20
36.34790359256554
 30
0.0
 10
41.38361069580233
 20
36.45767807461701
 30
0.0
 10
41.32363448244714
 20
36.52920732157283
 30
0.0
 10
41.29577957630352
 20
36.56241992657931
 30
0.0
 11
43.02693823063032
 21
34.49690419363844
 31
0.0
 11
42.9444446821862
 21
34.59466741680939
 31
0.0
 11
42.86222495251848
 21
34.69220520731494
 31
0.0
 11
42.78026181135129
 21
34.78955320866737
 31
0.0
 11
42.69853537523289
 21
34.88674561360915
 31
0.0
 11
42.6170183582023
 21
34.98381109475309
 31
0.0
 11
42.535683083119
 21
35.08077616139383
 31
0.0
 11
42.40816423340982
 21
35.23300858384982
 31
0.0
 11
42.28089650641869
 21
35.38513332734078
 31
0.0
 11
42.15376533616256
 21
35.53721234912348
 31
0.0
 11
42.03243685891442
 21
35.68239104090253
 31
0.0
 11
41.91103575519401
 21
35.82763599471253
 31
0.0
 11
41.78947976814265
 21
35.97300278436313
 31
0.0
 11
41.66769273696371
 21
36.11855271172226
 31
0.0
 11
41.57179741327939
 21
36.23308749219223
 31
0.0
 11
41.47568751335052
 21
36.34781483468259
 31
0.0
 11
41.37933440841402
 21
36.46277382244728
 31
0.0
 11
41.29577957630352
 21
36.56241992657931
 31
0.0
  0
SPLINE
  5
188
330
2
100
AcDbEntity
  8
GAIKEI
  6
Continuous
 62
     1
100
AcDbSpline
210
0.0
220
0.0
230
1.0
 70
     8
 71
     3
 72
    25
 73
    21
 74
    19
 42
0.0000000001
 43
0.0000000001
 44
0.000001
 12
0.6426013748113089
 22
0.7662006741648142
 32
0.0
 13
0.6450872868150431
 23
0.7641088877834143
 33
0.0
 40
0.0
 40
0.0
 40
0.0
 40
0.0
 40
0.1326317859703268
 40
0.2853164647643686
 40
0.437657623649872
 40
0.5897066217165989
 40
0.7415140041421128
 40
0.9400270843770522
 40
1.138322514449763
 40
1.336512972729854
 40
1.487863052283618
 40
1.639279180542459
 40
1.790817643098574
 40
1.942535579609289
 40
2.094494994475092
 40
2.214104019007496
 40
2.333933796202126
 40
2.454016354398273
 40
2.574382521159546
 40
2.695062719916482
 40
2.695062719916482
 40
2.695062719916482
 40
2.695062719916482
 10
41.29576962479529
 20
2.912989626920648
 30
0.0
 10
41.32417941413137
 20
2.946863814862695
 30
0.0
 10
41.3852856660113
 20
3.019740971866916
 30
0.0
 10
41.47899759099255
 20
3.13154778676342
 30
0.0
 10
41.57683650438719
 20
3.248340734751536
 30
0.0
 10
41.67445451678818
 20
3.364937243775585
 30
0.0
 10
41.7819171862003
 20
3.493364072741314
 30
0.0
 10
41.89922868007289
 20
3.633650101486011
 30
0.0
 10
42.02642072776956
 20
3.785828148757474
 30
0.0
 10
42.14351752409311
 20
3.925954801687709
 30
0.0
 10
42.2506082439618
 20
4.054078779772233
 30
0.0
 10
42.34775804719757
 20
4.170244361638587
 30
0.0
 10
42.44502833272065
 20
4.286469021636747
 30
0.0
 10
42.54247751621349
 20
4.402780085951889
 30
0.0
 10
42.63316446226943
 20
4.510871758709228
 30
0.0
 10
42.71708390232965
 20
4.610766330131482
 30
0.0
 10
42.79422326808876
 20
4.702479220696517
 30
0.0
 10
42.87158120476107
 20
4.79433802622492
 30
0.0
 10
42.94917224812062
 20
4.886371099038498
 30
0.0
 10
43.00098847663417
 20
4.947779622780196
 30
0.0
 10
43.02693823063032
 20
4.97851722693008
 30
0.0
 11
41.29576962479529
 21
2.912989626920648
 31
0.0
 11
41.38098870869407
 21
3.014620813445787
 31
0.0
 11
41.4790667855525
 21
3.131639196352693
 31
0.0
 11
41.5768942740641
 21
3.248419379229744
 31
0.0
 11
41.67450163723481
 21
3.365002827275304
 31
0.0
 11
41.77192180399146
 21
3.481427877430292
 31
0.0
 11
41.89926970532281
 21
3.633710360235909
 31
0.0
 11
42.02644152455099
 21
3.785856359323361
 31
0.0
 11
42.15353330897755
 21
3.937932437897131
 31
0.0
 11
42.25060019869357
 21
4.054056766985468
 31
0.0
 11
42.34773802262099
 21
4.170207823638691
 31
0.0
 11
42.44499958287758
 21
4.286415042163866
 31
0.0
 11
42.54243811687667
 21
4.40270806451673
 31
0.0
 11
42.6401085811795
 21
4.519121746067071
 31
0.0
 11
42.71704487841293
 21
4.610702995972019
 31
0.0
 11
42.79417758428286
 21
4.702407529625304
 31
0.0
 11
42.87152792759559
 21
4.794259287109468
 31
0.0
 11
42.94911042853107
 21
4.886286292094894
 31
0.0
 11
43.02693823063032
 21
4.97851722693008
 31
0.0
  0
SPLINE
  5
189
330
2
100
AcDbEntity
  8
GAIKEI
  6
Continuous
 62
     7
100
AcDbSpline
210
0.0
220
0.0
230
1.0
 70
     8
 71
     3
 72
     9
 73
     5
 74
     3
 42
0.0000000001
 43
0.0000000001
 44
0.000001
 12
0.0384362357486041
 22
-0.9992610548707869
 32
0.0
 13
-0.0923148581174367
 23
-0.995729866465176
 33
0.0
 40
0.0
 40
0.0
 40
0.0
 40
0.0
 40
0.0028425387675167
 40
0.0039161070031314
 40
0.0039161070031314
 40
0.0039161070031314
 40
0.0039161070031314
 10
41.19098744332052
 20
1.694313609106302
 30
0.0
 10
41.19102386215058
 20
1.693366796343852
 30
0.0
 10
41.1910121190146
 20
1.692058818585039
 30
0.0
 10
41.19091504807025
 20
1.690756918539541
 30
0.0
 10
41.19088201263713
 20
1.690400590554247
 30
0.0
 11
41.19098744332052
 21
1.694313609106302
 31
0.0
 11
41.19096191892936
 21
1.691471034373478
 31
0.0
 11
41.19088201263713
 21
1.690400590554247
 31
0.0
  0
SPLINE
  5
18A
330
2
100
AcDbEntity
  8
GAIKEI
  6
Continuous
 62
     7
100
AcDbSpline
210
0.0
220
0.0
230
1.0
 70
     8
 71
     3
 72
    14
 73
    10
 74
     8
 42
0.0000000001
 43
0.0000000001
 44
0.000001
 12
0.1947808622282301
 22
0.9808467850330282
 32
0.0
 13
0.0153479363363905
 23
0.9998822134882757
 33
0.0
 40
0.0
 40
0.0
 40
0.0
 40
0.0
 40
0.0013591386716992
 40
0.0035651883618917
 40
0.0052671280297612
 40
0.006666679763429
 40
0.0078708380490388
 40
0.0090561891698571
 40
0.0104212077209439
 40
0.0104212077209439
 40
0.0104212077209439
 40
0.0104212077209439
 10
41.18992396923869
 20
1.680834211130957
 30
0.0
 10
41.1900122139728
 20
1.681278580063143
 30
0.0
 10
41.19022644413473
 20
1.682447653923901
 30
0.0
 10
41.19048536531366
 20
1.684184740268207
 30
0.0
 10
41.19067845117473
 20
1.685943670526981
 30
0.0
 10
41.19079334940494
 20
1.68737443240127
 30
0.0
 10
41.19086557921693
 20
1.688635481580433
 30
0.0
 10
41.19091249910119
 20
1.689886152105408
 30
0.0
 10
41.19093420820703
 20
1.690736038889582
 30
0.0
 10
41.19094119161298
 20
1.691190991479686
 30
0.0
 11
41.18992396923869
 21
1.680834211130957
 31
0.0
 11
41.19017088896407
 21
1.682170955065373
 31
0.0
 11
41.19049523189647
 21
1.684353044674139
 31
0.0
 11
41.19068139672697
 21
1.686044775038794
 31
0.0
 11
41.19079382706178
 21
1.687439811532783
 31
0.0
 11
41.19086295019821
 21
1.688642001708672
 31
0.0
 11
41.19090904474353
 21
1.689826540613012
 31
0.0
 11
41.19094119161298
 21
1.691190991479686
 31
0.0
  0
LINE
  5
18B
330
2
100
AcDbEntity
  8
GAIKEI
  6
Continuous
 62
     1
100
AcDbLine
 10
41.5775033772432
 20
36.22627241028425
 30
0.0
 11
42.78216822724317
 21
36.18420461028427
 31
0.0
  0
LINE
  5
18C
330
2
100
AcDbEntity
  8
GAIKEI
  6
Continuous
 62
     1
100
AcDbLine
 10
42.4374718272432
 20
35.94643211028426
 30
0.0
 11
41.79287547724316
 21
35.96894191028423
 31
0.0
  0
LINE
  5
18D
330
2
100
AcDbEntity
  8
GAIKEI
  6
Continuous
 62
     1
100
AcDbLine
 10
42.78216822724317
 20
36.18420461028427
 30
0.0
 11
43.01173572724315
 21
34.51492066028425
 31
0.0
  0
LINE
  5
18E
330
2
100
AcDbEntity
  8
GAIKEI
  6
Continuous
 62
     1
100
AcDbLine
 10
43.27556017724316
 20
34.18549221028428
 30
0.0
 11
43.02281552724321
 21
36.02330691028431
 31
0.0
  0
LINE
  5
18F
330
2
100
AcDbEntity
  8
GAIKEI
  6
Continuous
 62
     1
100
AcDbLine
 10
42.71143457724315
 20
34.88730441028429
 30
0.0
 11
42.60260662724317
 21
35.67863891028423
 31
0.0
  0
LINE
  5
190
330
2
100
AcDbEntity
  8
GAIKEI
  6
Continuous
 62
     1
100
AcDbLine
 10
41.24597882724316
 20
36.63989451028425
 30
0.0
 11
41.24525212724319
 21
36.6365033102843
 31
0.0
  0
LINE
  5
191
330
2
100
AcDbEntity
  8
GAIKEI
  6
Continuous
 62
     1
100
AcDbLine
 10
42.74955702724321
 20
36.31769916028429
 30
0.0
 11
41.24597882724316
 21
36.63989451028425
 31
0.0
  0
ARC
  5
192
330
2
100
AcDbEntity
  8
GAIKEI
  6
Continuous
 62
     1
100
AcDbCircle
 10
42.67629172724321
 20
35.9756763602843
 30
0.0
 40
0.34978195
100
AcDbArc
 50
7.826403999997735
 51
77.90929700000638
  0
ARC
  5
193
330
2
100
AcDbEntity
  8
GAIKEI
  6
Continuous
 62
     1
100
AcDbCircle
 10
41.23550237724316
 20
36.59100436028428
 30
0.0
 40
0.05
100
AcDbArc
 50
77.90524300000484
 51
81.20675999999384
  0
ELLIPSE
  5
194
330
2
100
AcDbEntity
  8
GAIKEI
  6
Continuous
 62
     1
100
AcDbEllipse
 10
42.43224407724318
 20
35.79672891028429
 30
0.0
 11
-0.1113231012696504
 21
0.100534407660774
 31
0.0
210
0.0
220
0.0
230
1.0
 40
0.997662000000159
 41
4.013930599304742
 42
5.410847361485449
  0
LINE
  5
195
330
2
100
AcDbEntity
  8
GAIKEI
  6
Continuous
 62
     1
100
AcDbLine
 10
41.29993877724319
 20
2.283945460284257
 30
0.0
 11
41.29993877724319
 21
2.297710710284263
 31
0.0
  0
LINE
  5
196
330
2
100
AcDbEntity
  8
GAIKEI
  6
Continuous
 62
     1
100
AcDbLine
 10
41.29993877724319
 20
2.297710710284263
 30
0.0
 11
41.26820967724319
 21
2.297710710284263
 31
0.0
  0
ARC
  5
197
330
2
100
AcDbEntity
  8
GAIKEI
  6
Continuous
 62
     1
100
AcDbCircle
 10
41.29993877724319
 20
2.232710710284266
 30
0.0
 40
0.065
100
AcDbArc
 50
16.60154999999879
 51
90.0
  0
ARC
  5
198
330
2
100
AcDbEntity
  8
GAIKEI
  6
Continuous
 62
     1
100
AcDbCircle
 10
41.29993877724319
 20
2.012710710284295
 30
0.0
 40
0.065
100
AcDbArc
 50
299.0713459999994
 51
343.3984500000012
  0
ARC
  5
199
330
2
100
AcDbEntity
  8
GAIKEI
  6
Continuous
 62
     1
100
AcDbCircle
 10
40.93098757724317
 20
2.122710710284252
 30
0.0
 40
0.45
100
AcDbArc
 50
343.3984500000012
 51
0.0
  0
ARC
  5
19A
330
2
100
AcDbEntity
  8
GAIKEI
  6
Continuous
 62
     1
100
AcDbCircle
 10
40.93098757724317
 20
2.122710710284252
 30
0.0
 40
0.45
100
AcDbArc
 50
0.0
 51
16.60154999999879
  0
LINE
  5
19B
330
2
100
AcDbEntity
  8
GAIKEI
  6
Continuous
 62
     1
100
AcDbLine
 10
41.25993877724318
 20
2.297710710284263
 30
0.0
 11
41.22848757724319
 21
2.297710710284263
 31
0.0
  0
LINE
  5
19C
330
2
100
AcDbEntity
  8
GAIKEI
  6
Continuous
 62
     1
100
AcDbLine
 10
41.22848757724319
 20
1.947710710284297
 30
0.0
 11
41.25993877724318
 21
1.947710710284297
 31
0.0
  0
ARC
  5
19D
330
2
100
AcDbEntity
  8
GAIKEI
  6
Continuous
 62
     1
100
AcDbCircle
 10
41.25993877724318
 20
2.232710710284266
 30
0.0
 40
0.065
100
AcDbArc
 50
16.60154999999879
 51
90.0
  0
ARC
  5
19E
330
2
100
AcDbEntity
  8
GAIKEI
  6
Continuous
 62
     1
100
AcDbCircle
 10
41.25993877724318
 20
2.012710710284295
 30
0.0
 40
0.065
100
AcDbArc
 50
270.0
 51
343.3984500000012
  0
ARC
  5
19F
330
2
100
AcDbEntity
  8
GAIKEI
  6
Continuous
 62
     1
100
AcDbCircle
 10
40.89098757724321
 20
2.122710710284252
 30
0.0
 40
0.45
100
AcDbArc
 50
343.3984500000012
 51
0.0
  0
ARC
  5
1A0
330
2
100
AcDbEntity
  8
GAIKEI
  6
Continuous
 62
     1
100
AcDbCircle
 10
40.89098757724321
 20
2.122710710284252
 30
0.0
 40
0.45
100
AcDbArc
 50
0.0
 51
16.60154999999879
  0
LINE
  5
1A1
330
2
100
AcDbEntity
  8
GAIKEI
  6
Continuous
 62
     1
100
AcDbLine
 10
41.25993877724318
 20
37.58521071028429
 30
0.0
 11
41.22848757724319
 21
37.58521071028429
 31
0.0
  0
LINE
  5
1A2
330
2
100
AcDbEntity
  8
GAIKEI
  6
Continuous
 62
     1
100
AcDbLine
 10
41.22848757724319
 20
37.23521071028426
 30
0.0
 11
41.25993877724318
 21
37.23521071028426
 31
0.0
  0
ARC
  5
1A3
330
2
100
AcDbEntity
  8
GAIKEI
  6
Continuous
 62
     1
100
AcDbCircle
 10
41.25993877724318
 20
37.52021071028423
 30
0.0
 40
0.065
100
AcDbArc
 50
16.60154999999879
 51
90.0
  0
ARC
  5
1A4
330
2
100
AcDbEntity
  8
GAIKEI
  6
Continuous
 62
     1
100
AcDbCircle
 10
41.25993877724318
 20
37.30021071028426
 30
0.0
 40
0.065
100
AcDbArc
 50
270.0
 51
343.3984500000012
  0
ARC
  5
1A5
330
2
100
AcDbEntity
  8
GAIKEI
  6
Continuous
 62
     1
100
AcDbCircle
 10
40.89098757724321
 20
37.41021071028427
 30
0.0
 40
0.45
100
AcDbArc
 50
343.3984500000012
 51
0.0
  0
ARC
  5
1A6
330
2
100
AcDbEntity
  8
GAIKEI
  6
Continuous
 62
     1
100
AcDbCircle
 10
40.89098757724321
 20
37.41021071028427
 30
0.0
 40
0.45
100
AcDbArc
 50
0.0
 51
16.60154999999879
  0
LINE
  5
1A7
330
2
100
AcDbEntity
  8
GAIKEI
  6
Continuous
 62
     1
100
AcDbLine
 10
41.3222292772432
 20
1.919139260284282
 30
0.0
 11
41.3222292772432
 21
1.994139260284271
 31
0.0
  0
LINE
  5
1A8
330
2
100
AcDbEntity
  8
GAIKEI
  6
Continuous
 62
     1
100
AcDbLine
 10
41.25993877724318
 20
1.872710710284252
 30
0.0
 11
41.25993877724318
 21
1.947710710284297
 31
0.0
  0
LINE
  5
1A9
330
2
100
AcDbEntity
  8
GAIKEI
  6
Continuous
 62
     1
100
AcDbLine
 10
41.22848757724319
 20
1.872710710284252
 30
0.0
 11
41.25993877724318
 21
1.872710710284252
 31
0.0
  0
ARC
  5
1AA
330
2
100
AcDbEntity
  8
GAIKEI
  6
Continuous
 62
     1
100
AcDbCircle
 10
41.25993877724318
 20
1.937710710284306
 30
0.0
 40
0.065
100
AcDbArc
 50
270.0
 51
343.3984500000012
  0
ARC
  5
1AB
330
2
100
AcDbEntity
  8
GAIKEI
  6
Continuous
 62
     1
100
AcDbCircle
 10
40.89098757724321
 20
2.047710710284263
 30
0.0
 40
0.45
100
AcDbArc
 50
343.3984500000012
 51
0.0
  0
ARC
  5
1AC
330
2
100
AcDbEntity
  8
GAIKEI
  6
Continuous
 62
     1
100
AcDbCircle
 10
40.89098757724321
 20
2.047710710284263
 30
0.0
 40
0.45
100
AcDbArc
 50
0.0
 51
4.780191999998843
  0
ARC
  5
1AD
330
2
100
AcDbEntity
  8
GAIKEI
  6
Continuous
 62
     1
100
AcDbCircle
 10
41.1889922272432
 20
2.531694760284267
 30
0.0
 40
0.05
100
AcDbArc
 50
16.25702800000238
 51
37.82319199999903
  0
ARC
  5
1AE
330
2
100
AcDbEntity
  8
GAIKEI
  6
Continuous
 62
     1
100
AcDbCircle
 10
41.22899222724316
 20
2.496694760284242
 30
0.0
 40
0.05
100
AcDbArc
 50
16.25702800000238
 51
80.92142900000544
  0
ARC
  5
1AF
330
2
100
AcDbEntity
  8
GAIKEI
  6
Continuous
 62
     1
100
AcDbCircle
 10
41.22899222724316
 20
2.328726660284303
 30
0.0
 40
0.05
100
AcDbArc
 50
320.9555469999996
 51
343.7429719999976
  0
ARC
  5
1B0
330
2
100
AcDbEntity
  8
GAIKEI
  6
Continuous
 62
     1
100
AcDbCircle
 10
40.94098757724316
 20
2.412710710284272
 30
0.0
 40
0.35
100
AcDbArc
 50
343.7429719999976
 51
0.0
  0
ARC
  5
1B1
330
2
100
AcDbEntity
  8
GAIKEI
  6
Continuous
 62
     1
100
AcDbCircle
 10
40.94098757724316
 20
2.412710710284272
 30
0.0
 40
0.35
100
AcDbArc
 50
0.0
 51
16.25702800000238
  0
LINE
  5
1B2
330
2
100
AcDbEntity
  8
GAIKEI
  6
Continuous
 62
     1
100
AcDbLine
 10
43.39098757724321
 20
7.060210710284252
 30
0.0
 11
43.43335002724319
 21
7.063916960284302
 31
0.0
  0
LINE
  5
1B3
330
2
100
AcDbEntity
  8
GAIKEI
  6
Continuous
 62
     1
100
AcDbLine
 10
43.43335002724319
 20
7.331504460284293
 30
0.0
 11
43.39098757724321
 21
7.335210710284286
 31
0.0
  0
LINE
  5
1B4
330
2
100
AcDbEntity
  8
GAIKEI
  6
Continuous
 62
     1
100
AcDbLine
 10
43.38098757724316
 20
7.062710710284306
 30
0.0
 11
43.39098757724321
 21
7.062710710284306
 31
0.0
  0
LINE
  5
1B5
330
2
100
AcDbEntity
  8
GAIKEI
  6
Continuous
 62
     1
100
AcDbLine
 10
43.39098757724321
 20
7.332710710284288
 30
0.0
 11
43.38098757724316
 21
7.332710710284288
 31
0.0
  0
ARC
  5
1B6
330
2
100
AcDbEntity
  8
GAIKEI
  6
Continuous
 62
     1
100
AcDbCircle
 10
43.42899222724315
 20
7.281694760284267
 30
0.0
 40
0.05
100
AcDbArc
 50
16.25702800000238
 51
84.99999900000409
  0
ARC
  5
1B7
330
2
100
AcDbEntity
  8
GAIKEI
  6
Continuous
 62
     1
100
AcDbCircle
 10
43.42899222724315
 20
7.113726660284271
 30
0.0
 40
0.05
100
AcDbArc
 50
275.0000009999959
 51
343.7429719999976
  0
ARC
  5
1B8
330
2
100
AcDbEntity
  8
GAIKEI
  6
Continuous
 62
     1
100
AcDbCircle
 10
43.14098757724321
 20
7.197710710284297
 30
0.0
 40
0.35
100
AcDbArc
 50
343.7429719999976
 51
0.0
  0
ARC
  5
1B9
330
2
100
AcDbEntity
  8
GAIKEI
  6
Continuous
 62
     1
100
AcDbCircle
 10
43.14098757724321
 20
7.197710710284297
 30
0.0
 40
0.35
100
AcDbArc
 50
0.0
 51
16.25702800000238
  0
LINE
  5
1BA
330
2
100
AcDbEntity
  8
GAIKEI
  6
Continuous
 62
     1
100
AcDbLine
 10
43.35598757724318
 20
5.047710710284263
 30
0.0
 11
43.35598757724318
 21
5.485787510284296
 31
0.0
  0
LINE
  5
1BB
330
2
100
AcDbEntity
  8
GAIKEI
  6
Continuous
 62
     1
100
AcDbLine
 10
43.33098757724314
 20
5.047710710284263
 30
0.0
 11
43.35598757724318
 21
5.047710710284263
 31
0.0
  0
LINE
  5
1BC
330
2
100
AcDbEntity
  8
GAIKEI
  6
Continuous
 62
     1
100
AcDbLine
 10
43.39098757724321
 20
5.160210710284275
 30
0.0
 11
43.43335002724319
 21
5.163916960284268
 31
0.0
  0
LINE
  5
1BD
330
2
100
AcDbEntity
  8
GAIKEI
  6
Continuous
 62
     1
100
AcDbLine
 10
43.43335002724319
 20
5.431504460284259
 30
0.0
 11
43.35598757724318
 21
5.438272826616071
 31
0.0
  0
LINE
  5
1BE
330
2
100
AcDbEntity
  8
GAIKEI
  6
Continuous
 62
     1
100
AcDbLine
 10
43.35598757724318
 20
5.162710710284272
 30
0.0
 11
43.39098757724321
 21
5.162710710284272
 31
0.0
  0
ARC
  5
1BF
330
2
100
AcDbEntity
  8
GAIKEI
  6
Continuous
 62
     1
100
AcDbCircle
 10
43.42899222724315
 20
5.38169476028429
 30
0.0
 40
0.05
100
AcDbArc
 50
16.25702800000238
 51
84.99999900000409
  0
ARC
  5
1C0
330
2
100
AcDbEntity
  8
GAIKEI
  6
Continuous
 62
     1
100
AcDbCircle
 10
43.42899222724315
 20
5.213726660284294
 30
0.0
 40
0.05
100
AcDbArc
 50
275.0000009999959
 51
343.7429719999976
  0
ARC
  5
1C1
330
2
100
AcDbEntity
  8
GAIKEI
  6
Continuous
 62
     1
100
AcDbCircle
 10
43.14098757724321
 20
5.297710710284263
 30
0.0
 40
0.35
100
AcDbArc
 50
343.7429719999976
 51
0.0
  0
ARC
  5
1C2
330
2
100
AcDbEntity
  8
GAIKEI
  6
Continuous
 62
     1
100
AcDbCircle
 10
43.14098757724321
 20
5.297710710284263
 30
0.0
 40
0.35
100
AcDbArc
 50
0.0
 51
16.25702800000238
  0
ARC
  5
1C3
330
2
100
AcDbEntity
  8
GAIKEI
  6
Continuous
 62
     1
100
AcDbCircle
 10
41.1889922272432
 20
1.963726660284294
 30
0.0
 40
0.05
100
AcDbArc
 50
322.176808000001
 51
341.3177600000029
  0
LINE
  5
1C4
330
2
100
AcDbEntity
  8
GAIKEI
  6
Continuous
 62
     1
100
AcDbLine
 10
42.93494342724318
 20
4.869481660284293
 30
0.0
 11
42.93494342724318
 21
4.644940510284243
 31
0.0
  0
LINE
  5
1C5
330
2
100
AcDbEntity
  8
GAIKEI
  6
Continuous
 62
     1
100
AcDbLine
 10
41.44245147724319
 20
36.69800476028428
 30
0.0
 11
41.2890096772432
 21
36.73061981028428
 31
0.0
  0
LINE
  5
1C6
330
2
100
AcDbEntity
  8
GAIKEI
  6
Continuous
 62
     1
100
AcDbLine
 10
41.77051322724321
 20
3.479744510284263
 30
0.0
 11
43.1664926272432
 21
3.987839460284305
 31
0.0
  0
LINE
  5
1C7
330
2
100
AcDbEntity
  8
GAIKEI
  6
Continuous
 62
     1
100
AcDbLine
 10
43.33098757724314
 20
4.308988960284239
 30
0.0
 11
43.33098757724314
 21
5.404789360284269
 31
0.0
  0
LINE
  5
1C8
330
2
100
AcDbEntity
  8
GAIKEI
  6
Continuous
 62
     7
100
AcDbLine
 10
43.38105457724316
 20
19.45332338542522
 30
0.0
 11
43.38105457724316
 21
15.07627313542525
 31
0.0
  0
LINE
  5
1C9
330
2
100
AcDbEntity
  8
GAIKEI
  6
Continuous
 62
     7
100
AcDbLine
 10
43.38105457724316
 20
15.07627313542525
 30
0.0
 11
43.38105457724316
 21
8.008340360284307
 31
0.0
  0
LINE
  5
1CA
330
2
100
AcDbEntity
  8
GAIKEI
  6
Continuous
 62
     1
100
AcDbLine
 10
43.38105457724316
 20
8.008340360284307
 30
0.0
 11
43.38098757724316
 21
8.00828411028425
 31
0.0
  0
LINE
  5
1CB
330
2
100
AcDbEntity
  8
GAIKEI
  6
Continuous
 62
     1
100
AcDbLine
 10
43.33098757724314
 20
4.222762610284291
 30
0.0
 11
43.33098757724314
 21
4.308988960284239
 31
0.0
  0
LINE
  5
1CC
330
2
100
AcDbEntity
  8
GAIKEI
  6
Continuous
 62
     1
100
AcDbLine
 10
41.48573907724318
 20
36.68880366028429
 30
0.0
 11
41.44201522724318
 21
36.69809746028426
 31
0.0
  0
LINE
  5
1CD
330
2
100
AcDbEntity
  8
GAIKEI
  6
Continuous
 62
     1
100
AcDbLine
 10
42.8372609772432
 20
36.40152886028426
 30
0.0
 11
42.84101247724317
 21
36.40047921028429
 31
0.0
  0
LINE
  5
1CE
330
2
100
AcDbEntity
  8
GAIKEI
  6
Continuous
 62
     1
100
AcDbLine
 10
42.8372609772432
 20
36.40152886028426
 30
0.0
 11
41.48573907724318
 21
36.68880366028429
 31
0.0
  0
LINE
  5
1CF
330
2
100
AcDbEntity
  8
GAIKEI
  6
Continuous
 62
     1
100
AcDbLine
 10
42.84164782724315
 20
36.40055511028425
 30
0.0
 11
42.84094232724316
 21
36.40050996028424
 31
0.0
  0
LINE
  5
1D0
330
2
100
AcDbEntity
  8
GAIKEI
  6
Continuous
 62
     1
100
AcDbLine
 10
43.1232662772432
 20
35.54844046028427
 30
0.0
 11
43.03285007724321
 21
36.19178521028425
 31
0.0
  0
LINE
  5
1D1
330
2
100
AcDbEntity
  8
GAIKEI
  6
Continuous
 62
     1
100
AcDbLine
 10
43.33093037724319
 20
34.07083391028425
 30
0.0
 11
43.1232662772432
 21
35.54844046028427
 31
0.0
  0
LINE
  5
1D2
330
2
100
AcDbEntity
  8
GAIKEI
  6
Continuous
 62
     1
100
AcDbLine
 10
43.38348757724316
 20
7.961715610284272
 30
0.0
 11
43.38348757724316
 21
7.995953710284254
 31
0.0
  0
LINE
  5
1D3
330
2
100
AcDbEntity
  8
GAIKEI
  6
Continuous
 62
     1
100
AcDbLine
 10
43.33098757724314
 20
4.497710710284252
 30
0.0
 11
43.33098757724314
 21
4.647710710284286
 31
0.0
  0
LINE
  5
1D4
330
2
100
AcDbEntity
  8
GAIKEI
  6
Continuous
 62
     1
100
AcDbLine
 10
43.33098757724314
 20
4.497710710284252
 30
0.0
 11
43.33098757724314
 21
4.447710710284297
 31
0.0
  0
LINE
  5
1D5
330
2
100
AcDbEntity
  8
GAIKEI
  6
Continuous
 62
     1
100
AcDbLine
 10
41.4032150772432
 20
2.821573860284274
 30
0.0
 11
41.43290357724317
 21
2.823129760284302
 31
0.0
  0
LINE
  5
1D6
330
2
100
AcDbEntity
  8
GAIKEI
  6
Continuous
 62
     1
100
AcDbLine
 10
41.43290357724317
 20
2.823129760284302
 30
0.0
 11
42.67358072724317
 21
2.888150910284309
 31
0.0
  0
LINE
  5
1D7
330
2
100
AcDbEntity
  8
GAIKEI
  6
Continuous
 62
     1
100
AcDbLine
 10
43.38348757724316
 20
31.6648680102843
 30
0.0
 11
43.38348757724316
 21
32.13390221028431
 31
0.0
  0
LINE
  5
1D8
330
2
100
AcDbEntity
  8
GAIKEI
  6
Continuous
 62
     1
100
AcDbLine
 10
41.3279035772432
 20
2.817626960284258
 30
0.0
 11
41.4032150772432
 21
2.821573860284274
 31
0.0
  0
LINE
  5
1D9
330
2
100
AcDbEntity
  8
GAIKEI
  6
Continuous
 62
     1
100
AcDbLine
 10
43.21848757724319
 20
3.462362910284298
 30
0.0
 11
43.21848757724319
 21
3.847710710284331
 31
0.0
  0
LINE
  5
1DA
330
2
100
AcDbEntity
  8
GAIKEI
  6
Continuous
 62
     1
100
AcDbLine
 10
43.38348757724316
 20
13.31798378542521
 30
0.0
 11
43.38348757724316
 21
13.31805023542523
 31
0.0
  0
LINE
  5
1DB
330
2
100
AcDbEntity
  8
GAIKEI
  6
Continuous
 62
     1
100
AcDbLine
 10
43.38348757724316
 20
12.68810593542525
 30
0.0
 11
43.38348757724316
 21
13.31798378542521
 31
0.0
  0
LINE
  5
1DC
330
2
100
AcDbEntity
  8
GAIKEI
  6
Continuous
 62
     1
100
AcDbLine
 10
43.38348757724316
 20
7.969977460284269
 30
0.0
 11
43.38348757724316
 21
8.127297810284289
 31
0.0
  0
LINE
  5
1DD
330
2
100
AcDbEntity
  8
GAIKEI
  6
Continuous
 62
     1
100
AcDbLine
 10
43.38348757724316
 20
8.127297810284289
 30
0.0
 11
43.38348757724316
 21
8.131906710284283
 31
0.0
  0
LINE
  5
1DE
330
2
100
AcDbEntity
  8
GAIKEI
  6
Continuous
 62
     1
100
AcDbLine
 10
43.38348757724316
 20
12.67763448542524
 30
0.0
 11
43.38348757724316
 21
12.68810593542525
 31
0.0
  0
LINE
  5
1DF
330
2
100
AcDbEntity
  8
GAIKEI
  6
Continuous
 62
     1
100
AcDbLine
 10
43.38348757724316
 20
8.131906710284283
 30
0.0
 11
43.38348757724316
 21
12.0709726854252
 31
0.0
  0
LINE
  5
1E0
330
2
100
AcDbEntity
  8
GAIKEI
  6
Continuous
 62
     1
100
AcDbLine
 10
43.38348757724316
 20
12.40906898542522
 30
0.0
 11
43.38348757724316
 21
12.67763448542524
 31
0.0
  0
LINE
  5
1E1
330
2
100
AcDbEntity
  8
GAIKEI
  6
Continuous
 62
     7
100
AcDbLine
 10
43.38098757724316
 20
25.70597868542524
 30
0.0
 11
43.38098757724316
 21
20.00772844534828
 31
0.0
  0
LINE
  5
1E2
330
2
100
AcDbEntity
  8
GAIKEI
  6
Continuous
 62
     1
100
AcDbLine
 10
43.38348757724316
 20
31.24349361028425
 30
0.0
 11
43.38348757724316
 21
31.70273906028427
 31
0.0
  0
LINE
  5
1E3
330
2
100
AcDbEntity
  8
GAIKEI
  6
Continuous
 62
     7
100
AcDbLine
 10
43.38348757724316
 20
26.09423793542521
 30
0.0
 11
43.38348757724316
 21
26.13735883542523
 31
0.0
  0
LINE
  5
1E4
330
2
100
AcDbEntity
  8
GAIKEI
  6
Continuous
 62
     1
100
AcDbLine
 10
43.38348757724316
 20
31.20037271028423
 30
0.0
 11
43.38348757724316
 21
31.24349361028425
 31
0.0
  0
LINE
  5
1E5
330
2
100
AcDbEntity
  8
GAIKEI
  6
Continuous
 62
     7
100
AcDbLine
 10
43.38348757724316
 20
26.26197663542524
 30
0.0
 11
43.38348757724316
 21
26.13735883542523
 31
0.0
  0
LINE
  5
1E6
330
2
100
AcDbEntity
  8
GAIKEI
  6
Continuous
 62
     1
100
AcDbLine
 10
43.38348757724316
 20
27.07092343542524
 30
0.0
 11
43.38348757724316
 21
26.26197663542524
 31
0.0
  0
LINE
  5
1E7
330
2
100
AcDbEntity
  8
GAIKEI
  6
Continuous
 62
     1
100
AcDbLine
 10
43.38348757724316
 20
7.969977460284269
 30
0.0
 11
43.38348757724316
 21
8.127297810284289
 31
0.0
  0
LINE
  5
1E8
330
2
100
AcDbEntity
  8
GAIKEI
  6
Continuous
 62
     1
100
AcDbLine
 10
43.38348757724316
 20
8.131906710284283
 30
0.0
 11
43.38348757724316
 21
12.0709726854252
 31
0.0
  0
LINE
  5
1E9
330
2
100
AcDbEntity
  8
GAIKEI
  6
Continuous
 62
     1
100
AcDbLine
 10
43.38348757724316
 20
12.40906898542522
 30
0.0
 11
43.38348757724316
 21
12.67763448542524
 31
0.0
  0
ARC
  5
1EA
330
2
100
AcDbEntity
  8
GAIKEI
  6
Continuous
 62
     1
100
AcDbCircle
 10
41.34098757724319
 20
36.9751567102843
 30
0.0
 40
0.25
100
AcDbArc
 50
243.256315999998
 51
257.999999999997
  0
ARC
  5
1EB
330
2
100
AcDbEntity
  8
GAIKEI
  6
Continuous
 62
     1
100
AcDbCircle
 10
43.08098757724315
 20
4.222762610284291
 30
0.0
 40
0.25
100
AcDbArc
 50
290.0000000000034
 51
0.0
  0
ARC
  5
1EC
330
2
100
AcDbEntity
  8
GAIKEI
  6
Continuous
 62
     1
100
AcDbCircle
 10
42.78528307724321
 20
36.15699196028425
 30
0.0
 40
0.25
100
AcDbArc
 50
8.000000000000873
 51
76.97098900000298
  0
ARC
  5
1ED
330
2
100
AcDbEntity
  8
GAIKEI
  6
Continuous
 62
     1
100
AcDbCircle
 10
43.23348757724318
 20
7.961715610284272
 30
0.0
 40
0.15
100
AcDbArc
 50
349.524713000003
 51
0.0
  0
ARC
  5
1EE
330
2
100
AcDbEntity
  8
GAIKEI
  6
Continuous
 62
     1
100
AcDbCircle
 10
43.23348757724318
 20
7.961700860284281
 30
0.0
 40
0.15
100
AcDbArc
 50
349.5246860000028
 51
0.0
  0
ARC
  5
1EF
330
2
100
AcDbEntity
  8
GAIKEI
  6
Continuous
 62
     1
100
AcDbCircle
 10
42.78528307724321
 20
36.15699196028425
 30
0.0
 40
0.25
100
AcDbArc
 50
8.000000000000873
 51
9.618225999999722
  0
ARC
  5
1F0
330
2
100
AcDbEntity
  8
GAIKEI
  6
Continuous
 62
     1
100
AcDbCircle
 10
41.34098757724319
 20
2.567969560284268
 30
0.0
 40
0.25
100
AcDbArc
 50
93.00000000000558
 51
101.6320760000017
  0
ARC
  5
1F1
330
2
100
AcDbEntity
  8
GAIKEI
  6
Continuous
 62
     1
100
AcDbCircle
 10
42.64348757724315
 20
3.462362910284298
 30
0.0
 40
0.5750000000000001
100
AcDbArc
 50
273.0000000000056
 51
0.0
  0
ARC
  5
1F2
330
2
100
AcDbEntity
  8
GAIKEI
  6
Continuous
 62
     1
100
AcDbCircle
 10
42.64527257724319
 20
3.459461660284262
 30
0.0
 40
0.57159935
100
AcDbArc
 50
298.2772529999985
 51
304.927101000001
  0
ELLIPSE
  5
1F3
330
2
100
AcDbEntity
  8
GAIKEI
  6
Continuous
 62
     1
100
AcDbEllipse
 10
43.0809875772432
 20
4.754851460284271
 30
0.0
 11
-0.0848044079948102
 21
0.767177052496921
 31
0.0
210
0.0
220
0.0
230
1.0
 40
0.0616449999999753
 41
3.15661004303882
 42
3.73389512968818
  0
ELLIPSE
  5
1F4
330
2
100
AcDbEntity
  8
GAIKEI
  6
Continuous
 62
     1
100
AcDbEllipse
 10
43.13348757724321
 20
8.008340360284307
 30
0.0
 11
-0.2210674003015576
 21
0.121767860627333
 31
0.0
210
0.0
220
0.0
230
1.0
 40
0.9249590000073469
 41
3.542915323544484
 42
3.678700396373161
  0
ELLIPSE
  5
1F5
330
2
100
AcDbEntity
  8
GAIKEI
  6
Continuous
 62
     1
100
AcDbEllipse
 10
43.13348757724321
 20
8.008340360284307
 30
0.0
 11
-0.2499505998823104
 21
0.0141361910263936
 31
0.0
210
0.0
220
0.0
230
1.0
 40
0.3515569999918309
 41
3.161472642457675
 42
3.30109898262038
  0
ELLIPSE
  5
1F6
330
2
100
AcDbEntity
  8
GAIKEI
  6
Continuous
 62
     1
100
AcDbEllipse
 10
43.23348757724318
 20
7.995953710284254
 30
0.0
 11
0.1500000000000057
 21
0.0000000000002912
 31
0.0
210
0.0
220
0.0
230
1.0
 40
0.75021000000489
 41
-0.1853190537477316
 42
-0.0000000000025875
  0
ELLIPSE
  5
1F7
330
2
100
AcDbEntity
  8
GAIKEI
  6
Continuous
 62
     1
100
AcDbEllipse
 10
42.6434875772432
 20
3.462362910284298
 30
0.0
 11
-0.0300931748396614
 21
0.5742119824838828
 31
0.0
210
0.0
220
0.0
230
1.0
 40
0.7162020000000488
 41
3.141592653589866
 42
4.415633639596251
  0
LINE
  5
1F8
330
2
100
AcDbEntity
  8
GAIKEI
  6
Continuous
 62
     1
100
AcDbLine
 10
43.36710877724317
 20
4.447710710284297
 30
0.0
 11
43.33098757724314
 21
4.447710710284297
 31
0.0
  0
LINE
  5
1F9
330
2
100
AcDbEntity
  8
GAIKEI
  6
Continuous
 62
     1
100
AcDbLine
 10
43.36841897724321
 20
4.447710710284297
 30
0.0
 11
43.36710877724317
 21
4.447710710284297
 31
0.0
  0
LINE
  5
1FA
330
2
100
AcDbEntity
  8
GAIKEI
  6
Continuous
 62
     1
100
AcDbLine
 10
43.41848757724318
 20
4.10221921028426
 30
0.0
 11
43.41848757724318
 21
4.397710710284286
 31
0.0
  0
LINE
  5
1FB
330
2
100
AcDbEntity
  8
GAIKEI
  6
Continuous
 62
     1
100
AcDbLine
 10
41.47127397724318
 20
2.97410391028427
 30
0.0
 11
43.28029097724317
 21
3.87861241028429
 31
0.0
  0
ARC
  5
1FC
330
2
100
AcDbEntity
  8
GAIKEI
  6
Continuous
 62
     1
100
AcDbCircle
 10
41.3594705772432
 20
3.197710710284297
 30
0.0
 40
0.25
100
AcDbArc
 50
262.4671324998643
 51
296.5650509999958
  0
ARC
  5
1FD
330
2
100
AcDbEntity
  8
GAIKEI
  6
Continuous
 62
     1
100
AcDbCircle
 10
43.16848757724318
 20
4.10221921028426
 30
0.0
 40
0.25
100
AcDbArc
 50
296.5650509999958
 51
0.0
  0
ELLIPSE
  5
1FE
330
2
100
AcDbEntity
  8
GAIKEI
  6
Continuous
 62
     1
100
AcDbEllipse
 10
43.36841897724321
 20
4.397710710284286
 30
0.0
 11
0.0500686172998996
 21
0.0000000000052936
 31
0.0
210
0.0
220
0.0
230
1.0
 40
0.9986299999999392
 41
-0.0000000001058715
 42
1.570796326689314
  0
LINE
  5
1FF
330
2
100
AcDbEntity
  8
GAIKEI
  6
Continuous
 62
     7
100
AcDbLine
 10
43.40710877724319
 20
6.547710710284263
 30
0.0
 11
43.38098757724316
 21
6.547710710284263
 31
0.0
  0
LINE
  5
200
330
2
100
AcDbEntity
  8
GAIKEI
  6
Continuous
 62
     7
100
AcDbLine
 10
43.40841897724317
 20
6.547710710284263
 30
0.0
 11
43.40710877724319
 21
6.547710710284263
 31
0.0
  0
LINE
  5
201
330
2
100
AcDbEntity
  8
GAIKEI
  6
Continuous
 62
     1
100
AcDbLine
 10
43.4584875772432
 20
6.202219210284283
 30
0.0
 11
43.4584875772432
 21
6.497710710284252
 31
0.0
  0
ARC
  5
202
330
2
100
AcDbEntity
  8
GAIKEI
  6
Continuous
 62
     1
100
AcDbCircle
 10
43.2084875772432
 20
6.202219210284283
 30
0.0
 40
0.25
100
AcDbArc
 50
311.1369879999968
 51
0.0
  0
ELLIPSE
  5
203
330
2
100
AcDbEntity
  8
GAIKEI
  6
Continuous
 62
     1
100
AcDbEllipse
 10
43.40841897724317
 20
6.497710710284252
 30
0.0
 11
0.0500686172998997
 21
0.0000000000078924
 31
0.0
210
0.0
220
0.0
230
1.0
 40
0.9986299999997967
 41
-0.0000000001578486
 42
1.57079632663748
  0
LINE
  5
204
330
2
100
AcDbEntity
  8
GAIKEI
  6
Continuous
 62
     1
100
AcDbLine
 10
41.39879687724317
 20
2.710061160284283
 30
0.0
 11
42.2762042772432
 21
2.756044160284261
 31
0.0
  0
LINE
  5
205
330
2
100
AcDbEntity
  8
GAIKEI
  6
Continuous
 62
     1
100
AcDbLine
 10
42.9137396772432
 20
2.836031960284287
 30
0.0
 11
42.91583287724319
 21
2.955950960284269
 31
0.0
  0
LINE
  5
206
330
2
100
AcDbEntity
  8
GAIKEI
  6
Continuous
 62
     1
100
AcDbLine
 10
42.2762042772432
 20
2.756044160284261
 30
0.0
 11
42.86636407724318
 21
2.786973110284293
 31
0.0
  0
LINE
  5
207
330
2
100
AcDbEntity
  8
GAIKEI
  6
Continuous
 62
     1
100
AcDbLine
 10
41.39879687724317
 20
2.710061160284283
 30
0.0
 11
42.40287337724317
 21
2.762682610284286
 31
0.0
  0
ARC
  5
208
330
2
100
AcDbEntity
  8
GAIKEI
  6
Continuous
 62
     1
100
AcDbCircle
 10
41.41188082724318
 20
2.460403810284276
 30
0.0
 40
0.25
100
AcDbArc
 50
93.00000000000558
 51
137.1867790000014
  0
ARC
  5
209
330
2
100
AcDbEntity
  8
GAIKEI
  6
Continuous
 62
     1
100
AcDbCircle
 10
42.86374727724319
 20
2.836904610284307
 30
0.0
 40
0.05
100
AcDbArc
 50
273.0000000000056
 51
358.9999999999982
  0
LINE
  5
20A
330
2
100
AcDbEntity
  8
GAIKEI
  6
Continuous
 62
     7
100
AcDbLine
 10
40.1455193772432
 20
1.643494660284261
 30
0.0
 11
40.1498129272432
 21
1.643469560284245
 31
0.0
  0
LINE
  5
20B
330
2
100
AcDbEntity
  8
GAIKEI
  6
Continuous
 62
     7
100
AcDbLine
 10
40.1455193772432
 20
1.643494660284261
 30
0.0
 11
40.14452627724319
 21
1.64359641028426
 31
0.0
  0
LINE
  5
20C
330
2
100
AcDbEntity
  8
GAIKEI
  6
Continuous
 62
     7
100
AcDbLine
 10
39.28002297724317
 20
1.732160810284256
 30
0.0
 11
39.20455912724321
 21
1.739887410284268
 31
0.0
  0
ARC
  5
20D
330
2
100
AcDbEntity
  8
GAIKEI
  6
Continuous
 62
     7
100
AcDbCircle
 10
43.63042887724316
 20
1186.465289510284
 30
0.0
 40
1184.8274414
100
AcDbArc
 50
269.8696709999958
 51
269.8794839999994
  0
ARC
  5
20E
330
2
100
AcDbEntity
  8
GAIKEI
  6
Continuous
 62
     7
100
AcDbCircle
 10
-797.6833576727569
 20
-8172.384102389717
 30
0.0
 40
8216.853679149998
100
AcDbArc
 50
84.14769000000196
 51
84.15359199999759
  0
ARC
  5
20F
330
2
100
AcDbEntity
  8
GAIKEI
  6
Continuous
 62
     7
100
AcDbCircle
 10
-792.4153445727569
 20
8160.446660210286
 30
0.0
 40
8165.171627100001
100
AcDbArc
 50
275.8472929999958
 51
275.8523220000004
  0
ELLIPSE
  5
210
330
2
100
AcDbEntity
  8
GAIKEI
  6
Continuous
 62
     7
100
AcDbEllipse
 10
41.1408828772432
 20
1.690400610284257
 30
0.0
 11
0.0353550241816267
 21
0.0353550241816267
 31
0.0
210
0.0
220
0.0
230
1.0
 40
0.9999998118927134
 41
3.874615684312717
 42
3.973502160353997
  0
LINE
  5
211
330
2
100
AcDbEntity
  8
GAIKEI
  6
Continuous
 62
     7
100
AcDbLine
 10
40.14443607724319
 20
1.643539960284272
 30
0.0
 11
40.14464017724316
 21
1.643521410284279
 31
0.0
  0
LINE
  5
212
330
2
100
AcDbEntity
  8
GAIKEI
  6
Continuous
 62
     7
100
AcDbLine
 10
40.14442407724317
 20
1.64354121028424
 30
0.0
 11
39.2045677772432
 21
1.73988641028427
 31
0.0
  0
LINE
  5
213
330
2
100
AcDbEntity
  8
GAIKEI
  6
Continuous
 62
     7
100
AcDbLine
 10
40.14345192724317
 20
1.643695610284282
 30
0.0
 11
40.14443607724319
 21
1.643539960284272
 31
0.0
  0
LINE
  5
214
330
2
100
AcDbEntity
  8
GAIKEI
  6
Continuous
 62
     1
100
AcDbLine
 10
40.10744552724304
 20
37.82802432918277
 30
0.0
 11
40.10744552724315
 21
1.84731231028428
 31
0.0
  0
LINE
  5
215
330
2
100
AcDbEntity
  8
GAIKEI
  6
Continuous
 62
     1
100
AcDbLine
 10
39.2048859272432
 20
1.975894960284279
 30
0.0
 11
39.2048859272432
 21
37.4995264602843
 31
0.0
  0
LINE
  5
216
330
2
100
AcDbEntity
  8
GAIKEI
  6
Continuous
 62
     1
100
AcDbLine
 10
39.1452379772432
 20
37.49954946028424
 30
0.0
 11
39.14528342724316
 21
37.49958416028426
 31
0.0
  0
LINE
  5
217
330
2
100
AcDbEntity
  8
GAIKEI
  6
Continuous
 62
     1
100
AcDbLine
 10
39.1452379772432
 20
1.97587196028428
 30
0.0
 11
39.14528342724316
 21
1.975837260284265
 31
0.0
  0
LINE
  5
218
330
2
100
AcDbEntity
  8
GAIKEI
  6
Continuous
 62
     1
100
AcDbLine
 10
39.14528342724316
 20
37.49958416028426
 30
0.0
 11
39.14528342724316
 21
1.975837260284265
 31
0.0
  0
LINE
  5
219
330
2
100
AcDbEntity
  8
GAIKEI
  6
Continuous
 62
     1
100
AcDbLine
 10
42.76122372724318
 20
34.07946531028426
 30
0.0
 11
42.76122372724318
 21
4.873466103947123
 31
0.0
  0
LINE
  5
21A
330
2
100
AcDbEntity
  8
GAIKEI
  6
Continuous
 62
     1
100
AcDbLine
 10
38.99863557724319
 20
2.010523160284265
 30
0.0
 11
39.14649002724321
 21
1.774907110284289
 31
0.0
  0
LINE
  5
21B
330
2
100
AcDbEntity
  8
GAIKEI
  6
Continuous
 62
     1
100
AcDbLine
 10
38.99863557724319
 20
37.46489826028426
 30
0.0
 11
39.14649002724321
 21
37.70051431028424
 31
0.0
  0
LINE
  5
21C
330
2
100
AcDbEntity
  8
GAIKEI
  6
Continuous
 62
     1
100
AcDbLine
 10
40.18202752724318
 20
1.841460710284252
 30
0.0
 11
40.10731457234181
 21
1.841460710284252
 31
0.0
  0
LINE
  5
21D
330
2
100
AcDbEntity
  8
GAIKEI
  6
Continuous
 62
     1
100
AcDbLine
 10
40.18202752724318
 20
36.86395236028426
 30
0.0
 11
40.18202752724318
 21
37.83211907797682
 31
0.0
  0
LINE
  5
21E
330
2
100
AcDbEntity
  8
GAIKEI
  6
Continuous
 62
     1
100
AcDbLine
 10
40.98654252724315
 20
1.841460710284252
 30
0.0
 11
40.18202752724318
 21
1.841460710284252
 31
0.0
  0
LINE
  5
21F
330
2
100
AcDbEntity
  8
GAIKEI
  6
Continuous
 62
     1
100
AcDbLine
 10
40.31751932724318
 20
36.88596756028426
 30
0.0
 11
40.22312657724319
 21
36.88940596028425
 31
0.0
  0
LINE
  5
220
330
2
100
AcDbEntity
  8
GAIKEI
  6
Continuous
 62
     1
100
AcDbLine
 10
40.16446430906734
 20
37.63396071028427
 30
0.0
 11
40.98654252724315
 21
37.63396071028427
 31
0.0
  0
LINE
  5
221
330
2
100
AcDbEntity
  8
GAIKEI
  6
Continuous
 62
     1
100
AcDbLine
 10
40.98654252724315
 20
36.85924446028423
 30
0.0
 11
40.98654252724315
 21
37.63396071028427
 31
0.0
  0
LINE
  5
222
330
2
100
AcDbEntity
  8
GAIKEI
  6
Continuous
 62
     1
100
AcDbLine
 10
43.11838382724317
 20
5.173998010284265
 30
0.0
 11
43.1222360772432
 21
5.174183010284252
 31
0.0
  0
LINE
  5
223
330
2
100
AcDbEntity
  8
GAIKEI
  6
Continuous
 62
     1
100
AcDbLine
 10
43.1222360772432
 20
5.174183010284252
 30
0.0
 11
43.11440542724318
 21
5.167237010284281
 31
0.0
  0
LINE
  5
224
330
2
100
AcDbEntity
  8
GAIKEI
  6
Continuous
 62
     7
100
AcDbLine
 10
39.14650302724317
 20
1.774886410284295
 30
0.0
 11
39.14649002724321
 21
1.774907110284289
 31
0.0
  0
LINE
  5
225
330
2
100
AcDbEntity
  8
GAIKEI
  6
Continuous
 62
     1
100
AcDbLine
 10
38.99098757724317
 20
2.037099510284292
 30
0.0
 11
38.99098757724317
 21
2.210474760284284
 31
0.0
  0
LINE
  5
226
330
2
100
AcDbEntity
  8
GAIKEI
  6
Continuous
 62
     1
100
AcDbLine
 10
38.99098757724317
 20
37.26494666028429
 30
0.0
 11
38.99098757724317
 21
37.43832191028423
 31
0.0
  0
LINE
  5
227
330
2
100
AcDbEntity
  8
GAIKEI
  6
Continuous
 62
     1
100
AcDbLine
 10
38.99098757724317
 20
37.26494666028429
 30
0.0
 11
38.99098757724317
 21
2.210474760284284
 31
0.0
  0
LINE
  5
228
330
2
100
AcDbEntity
  8
GAIKEI
  6
Continuous
 62
     7
100
AcDbLine
 10
43.38098757724316
 20
14.63097868542525
 30
0.0
 11
43.38098757724316
 21
15.06930933542526
 31
0.0
  0
LINE
  5
229
330
2
100
AcDbEntity
  8
GAIKEI
  6
Continuous
 62
     7
100
AcDbLine
 10
43.38098757724316
 20
7.163668560284293
 30
0.0
 11
43.38098757724316
 21
14.07906298542525
 31
0.0
  0
LINE
  5
22A
330
2
100
AcDbEntity
  8
GAIKEI
  6
Continuous
 62
     7
100
AcDbLine
 10
43.38098757724316
 20
6.432723810284244
 30
0.0
 11
43.38098757724316
 21
6.611752860284298
 31
0.0
  0
LINE
  5
22B
330
2
100
AcDbEntity
  8
GAIKEI
  6
Continuous
 62
     7
100
AcDbLine
 10
43.38098757724316
 20
25.70597868542524
 30
0.0
 11
43.38098757724316
 21
33.73694101028423
 31
0.0
  0
LINE
  5
22C
330
2
100
AcDbEntity
  8
GAIKEI
  6
Continuous
 62
     1
100
AcDbLine
 10
43.38098757724316
 20
20.00597868542525
 30
0.0
 11
43.38098757724316
 21
20.00645868542523
 31
0.0
  0
LINE
  5
22D
330
2
100
AcDbEntity
  8
GAIKEI
  6
Continuous
 62
     1
100
AcDbLine
 10
43.38098757724316
 20
19.45358298542521
 30
0.0
 11
43.38098757724316
 21
19.45406298542525
 31
0.0
  0
LINE
  5
22E
330
2
100
AcDbEntity
  8
GAIKEI
  6
Continuous
 62
     7
100
AcDbLine
 10
43.3441433772432
 20
6.606647710284278
 30
0.0
 11
43.34390662724319
 21
6.606654310284284
 31
0.0
  0
LINE
  5
22F
330
2
100
AcDbEntity
  8
GAIKEI
  6
Continuous
 62
     7
100
AcDbLine
 10
43.38098757724316
 20
33.73694101028423
 30
0.0
 11
43.38098757724316
 21
33.80016386028427
 31
0.0
  0
LINE
  5
230
330
2
100
AcDbEntity
  8
GAIKEI
  6
Continuous
 62
     1
100
AcDbLine
 10
43.36792362724316
 20
5.682184360284281
 30
0.0
 11
43.36699052724315
 21
5.682184360284281
 31
0.0
  0
LINE
  5
231
330
2
100
AcDbEntity
  8
GAIKEI
  6
Continuous
 62
     1
100
AcDbLine
 10
43.12260607724318
 20
5.174501810284311
 30
0.0
 11
43.12331697724317
 21
5.175131860284238
 31
0.0
  0
LINE
  5
232
330
2
100
AcDbEntity
  8
GAIKEI
  6
Continuous
 62
     1
100
AcDbLine
 10
43.12300887724319
 20
5.174866560284272
 30
0.0
 11
43.1222360772432
 21
5.174183010284252
 31
0.0
  0
LINE
  5
233
330
2
100
AcDbEntity
  8
GAIKEI
  6
Continuous
 62
     7
100
AcDbLine
 10
43.38098757724316
 20
7.163668560284293
 30
0.0
 11
43.38098757724316
 21
6.611752860284298
 31
0.0
  0
LINE
  5
234
330
2
100
AcDbEntity
  8
GAIKEI
  6
Continuous
 62
     7
100
AcDbLine
 10
43.38098757724316
 20
20.00772844534828
 30
0.0
 11
43.38098757724316
 21
19.45406298542525
 31
0.0
  0
LINE
  5
235
330
2
100
AcDbEntity
  8
GAIKEI
  6
Continuous
 62
     1
100
AcDbLine
 10
43.38098757724316
 20
14.63097868542525
 30
0.0
 11
43.38098757724316
 21
14.07906298542525
 31
0.0
  0
LINE
  5
236
330
2
100
AcDbEntity
  8
GAIKEI
  6
Continuous
 62
     1
100
AcDbLine
 10
41.19098757724316
 20
1.841460710284252
 30
0.0
 11
40.98654252724315
 21
1.841460710284252
 31
0.0
  0
LINE
  5
237
330
2
100
AcDbEntity
  8
GAIKEI
  6
Continuous
 62
     1
100
AcDbLine
 10
40.98654252724315
 20
37.63396071028427
 30
0.0
 11
41.19098757724316
 21
37.63396071028427
 31
0.0
  0
LINE
  5
238
330
2
100
AcDbEntity
  8
GAIKEI
  6
Continuous
 62
     7
100
AcDbLine
 10
41.19098757724316
 20
1.694612410284264
 30
0.0
 11
41.19098742724315
 21
1.694313610284268
 31
0.0
  0
LINE
  5
239
330
2
100
AcDbEntity
  8
GAIKEI
  6
Continuous
 62
     7
100
AcDbLine
 10
41.19098757724316
 20
1.841460710284252
 30
0.0
 11
41.19098757724316
 21
2.63305511028426
 31
0.0
  0
LINE
  5
23A
330
2
100
AcDbEntity
  8
GAIKEI
  6
Continuous
 62
     7
100
AcDbLine
 10
43.38098757724316
 20
14.98002083542525
 30
0.0
 11
43.38098757724316
 21
15.06930933542526
 31
0.0
  0
LINE
  5
23B
330
2
100
AcDbEntity
  8
GAIKEI
  6
Continuous
 62
     7
100
AcDbLine
 10
43.38098757724316
 20
15.06930933542526
 30
0.0
 11
43.38098757724316
 21
19.45332248542525
 31
0.0
  0
LINE
  5
23C
330
2
100
AcDbEntity
  8
GAIKEI
  6
Continuous
 62
     1
100
AcDbLine
 10
43.38098757724316
 20
19.45332248542525
 30
0.0
 11
43.38098757724316
 21
19.45358298542521
 31
0.0
  0
LINE
  5
23D
330
2
100
AcDbEntity
  8
GAIKEI
  6
Continuous
 62
     1
100
AcDbLine
 10
43.38098757724316
 20
20.00645868542523
 30
0.0
 11
43.38098757724316
 21
20.01062238542522
 31
0.0
  0
LINE
  5
23E
330
2
100
AcDbEntity
  8
GAIKEI
  6
Continuous
 62
     1
100
AcDbLine
 10
43.33299587724321
 20
5.409813910284299
 30
0.0
 11
43.33470727724318
 21
5.414417910284271
 31
0.0
  0
LINE
  5
23F
330
2
100
AcDbEntity
  8
GAIKEI
  6
Continuous
 62
     1
100
AcDbLine
 10
43.33470727724318
 20
5.414417910284271
 30
0.0
 11
43.33527522724319
 21
5.41597111028426
 31
0.0
  0
LINE
  5
240
330
2
100
AcDbEntity
  8
GAIKEI
  6
Continuous
 62
     7
100
AcDbLine
 10
43.37295297724319
 20
5.629265460284273
 30
0.0
 11
43.37295297724319
 21
6.331878810284308
 31
0.0
  0
LINE
  5
241
330
2
100
AcDbEntity
  8
GAIKEI
  6
Continuous
 62
     1
100
AcDbLine
 10
43.3347077272432
 20
5.414430910284295
 30
0.0
 11
43.33520152724315
 21
5.415781710284306
 31
0.0
  0
LINE
  5
242
330
2
100
AcDbEntity
  8
GAIKEI
  6
Continuous
 62
     7
100
AcDbLine
 10
41.19098757724316
 20
1.841460710284252
 30
0.0
 11
41.19098757724316
 21
1.694612410284264
 31
0.0
  0
ARC
  5
243
330
2
100
AcDbEntity
  8
GAIKEI
  6
Continuous
 62
     1
100
AcDbCircle
 10
-364.9120804727568
 20
3984.458972510284
 30
0.0
 40
3967.55777285
100
AcDbArc
 50
275.846055999997
 51
275.8599494945873
  0
ARC
  5
244
330
2
100
AcDbEntity
  8
GAIKEI
  6
Continuous
 62
     1
100
AcDbCircle
 10
-364.9120874727568
 20
-3944.983619489716
 30
0.0
 40
3967.557841600001
100
AcDbArc
 50
84.14087800000242
 51
84.153944000003
  0
ARC
  5
245
330
2
100
AcDbEntity
  8
GAIKEI
  6
Continuous
 62
     7
100
AcDbCircle
 10
42.41063652724318
 20
653.3621183602844
 30
0.0
 40
651.72281555
100
AcDbArc
 50
269.801282
 51
269.870526999997
  0
ARC
  5
246
330
2
100
AcDbEntity
  8
GAIKEI
  6
Continuous
 62
     1
100
AcDbCircle
 10
40.08535777724318
 20
109.1506560602843
 30
0.0
 40
72.59843639999999
100
AcDbArc
 50
270.2234979999951
 51
270.7979269999943
  0
ARC
  5
247
330
2
100
AcDbEntity
  8
GAIKEI
  6
Continuous
 62
     1
100
AcDbCircle
 10
61.93769947724319
 20
56.88054981028426
 30
0.0
 40
29.39359775
100
AcDbArc
 50
229.8244369999984
 51
230.1893720000009
  0
ARC
  5
248
330
2
100
AcDbEntity
  8
GAIKEI
  6
Continuous
 62
     7
100
AcDbCircle
 10
-41.55850527275686
 20
76.3648112102843
 30
0.0
 40
110.68285545
100
AcDbArc
 50
319.8368629999968
 51
319.9785399999969
  0
ARC
  5
249
330
2
100
AcDbEntity
  8
GAIKEI
  6
Continuous
 62
     1
100
AcDbCircle
 10
40.08535777724318
 20
-69.67523413971571
 30
0.0
 40
72.59843590000001
100
AcDbArc
 50
89.20207300000571
 51
89.98256801461675
  0
ARC
  5
24A
330
2
100
AcDbEntity
  8
GAIKEI
  6
Continuous
 62
     7
100
AcDbCircle
 10
39.21003627724321
 20
1.814759960284277
 30
0.0
 40
0.0750092
100
AcDbArc
 50
212.1124470000004
 51
261.0218240000019
  0
ARC
  5
24B
330
2
100
AcDbEntity
  8
GAIKEI
  6
Continuous
 62
     7
100
AcDbCircle
 10
39.21323582724318
 20
1.837367460284269
 30
0.0
 40
0.09784355
100
AcDbArc
 50
261.270591999999
 51
263.7463639999976
  0
ARC
  5
24C
330
2
100
AcDbEntity
  8
GAIKEI
  6
Continuous
 62
     1
100
AcDbCircle
 10
39.21003627724321
 20
37.66066146028425
 30
0.0
 40
0.07500915
100
AcDbArc
 50
98.93950799999487
 51
147.887556000001
  0
ARC
  5
24D
330
2
100
AcDbEntity
  8
GAIKEI
  6
Continuous
 62
     1
100
AcDbCircle
 10
39.21237897724319
 20
37.64427016028424
 30
0.0
 40
0.09156935
100
AcDbArc
 50
96.37846500000591
 51
98.78995799999522
  0
ARC
  5
24E
330
2
100
AcDbEntity
  8
GAIKEI
  6
Continuous
 62
     1
100
AcDbCircle
 10
72.51704927724318
 20
122.0752178602843
 30
0.0
 40
92.89058949999999
100
AcDbArc
 50
251.3169980000068
 51
251.549392999999
  0
ARC
  5
24F
330
2
100
AcDbEntity
  8
GAIKEI
  6
Continuous
 62
     1
100
AcDbCircle
 10
42.64545917724319
 20
33.73693201028425
 30
0.0
 40
0.7355284
100
AcDbArc
 50
0.0007010000002194
 51
5.224650999999901
  0
ARC
  5
250
330
2
100
AcDbEntity
  8
GAIKEI
  6
Continuous
 62
     1
100
AcDbCircle
 10
42.57950017724318
 20
5.789272760284291
 30
0.0
 40
0.8203027999999999
100
AcDbArc
 50
311.496236000004
 51
316.8672290000015
  0
ARC
  5
251
330
2
100
AcDbEntity
  8
GAIKEI
  6
Continuous
 62
     1
100
AcDbCircle
 10
42.62955562724317
 20
5.742036360284259
 30
0.0
 40
0.7514787
100
AcDbArc
 50
316.8862330000004
 51
332.4185359999961
  0
ARC
  5
252
330
2
100
AcDbEntity
  8
GAIKEI
  6
Continuous
 62
     1
100
AcDbCircle
 10
45.4754410772432
 20
2.51427311028425
 30
0.0
 40
3.55142435
100
AcDbArc
 50
131.4916919999999
 51
131.6839700000045
  0
ARC
  5
253
330
2
100
AcDbEntity
  8
GAIKEI
  6
Continuous
 62
     1
100
AcDbCircle
 10
42.63098757724316
 20
15.06930933542526
 30
0.0
 40
0.75
100
AcDbArc
 50
2.452836000003057
 51
5.883938000002939
  0
ARC
  5
254
330
2
100
AcDbEntity
  8
GAIKEI
  6
Continuous
 62
     1
100
AcDbCircle
 10
42.63139837724316
 20
33.80531091028428
 30
0.0
 40
0.7480767000000001
100
AcDbArc
 50
34.78967999999755
 51
40.00000300000237
  0
ARC
  5
255
330
2
100
AcDbEntity
  8
GAIKEI
  6
Continuous
 62
     7
100
AcDbCircle
 10
42.62232602724316
 20
33.80017381028427
 30
0.0
 40
0.7586615500000001
100
AcDbArc
 50
359.9992490000013
 51
6.903190000001132
  0
ARC
  5
256
330
2
100
AcDbEntity
  8
GAIKEI
  6
Continuous
 62
     7
100
AcDbCircle
 10
42.74999032724315
 20
5.629364710284278
 30
0.0
 40
0.6229566000000001
100
AcDbArc
 50
339.968429000001
 51
359.9901120000005
  0
ARC
  5
257
330
2
100
AcDbEntity
  8
GAIKEI
  6
Continuous
 62
     7
100
AcDbCircle
 10
42.62730797724316
 20
5.6737204602843
 30
0.0
 40
0.7534202500000001
100
AcDbArc
 50
319.8070549999955
 51
339.4956769999962
  0
ARC
  5
258
330
2
100
AcDbEntity
  8
GAIKEI
  6
Continuous
 62
     7
100
AcDbCircle
 10
-46.41574497275684
 20
-40.97390873971574
 30
0.0
 40
117.0292152
100
AcDbArc
 50
40.02245900000189
 51
40.15732699999626
  0
ARC
  5
259
330
2
100
AcDbEntity
  8
GAIKEI
  6
Continuous
 62
     1
100
AcDbCircle
 10
-46.74677727275684
 20
80.72792031028427
 30
0.0
 40
117.4618751
100
AcDbArc
 50
319.8429449999983
 51
319.9773099999975
  0
ELLIPSE
  5
25A
330
2
100
AcDbEntity
  8
GAIKEI
  6
Continuous
 62
     7
100
AcDbEllipse
 10
40.15055612724319
 20
1.693223910284302
 30
0.0
 11
0.0347438088505755
 21
0.0347438088505755
 31
0.0
210
0.0
220
0.0
230
1.0
 40
0.9996262438498131
 41
3.903110081489661
 42
3.921635253276855
  0
ELLIPSE
  5
25B
330
2
100
AcDbEntity
  8
GAIKEI
  6
Continuous
 62
     1
100
AcDbEllipse
 10
39.2121943272432
 20
37.66092371028424
 30
0.0
 11
-0.052891591344551
 21
0.052891591344551
 31
0.0
210
0.0
220
0.0
230
1.0
 40
0.9985021252113433
 41
-0.6841523578984687
 42
-0.667266823267458
  0
ELLIPSE
  5
25C
330
2
100
AcDbEntity
  8
GAIKEI
  6
Continuous
 62
     7
100
AcDbEllipse
 10
39.2121943272432
 20
1.814497710284285
 30
0.0
 11
0.0528915914006684
 21
0.0528915914006684
 31
0.0
210
0.0
220
0.0
230
1.0
 40
0.9985021258155997
 41
3.809312810420805
 42
3.825745011191881
  0
ELLIPSE
  5
25D
330
2
100
AcDbEntity
  8
GAIKEI
  6
Continuous
 62
     1
100
AcDbEllipse
 10
40.65779327724317
 20
36.88940591028427
 30
0.0
 11
0.0161869617639733
 21
0.4497087749520076
 31
0.0
210
0.0
220
0.0
230
1.0
 40
0.9658839999999806
 41
1.605548642406345
 42
2.450753644648623
  0
ELLIPSE
  5
25E
330
2
100
AcDbEntity
  8
GAIKEI
  6
Continuous
 62
     1
100
AcDbEllipse
 10
42.68308202724319
 20
34.07946531028426
 30
0.0
 11
0.2907057944480269
 21
0.3434969302255366
 31
0.0
210
0.0
220
0.0
230
1.0
 40
0.1333920000000015
 41
-1.458380742976126
 42
-0.0278998439660725
  0
ELLIPSE
  5
25F
330
2
100
AcDbEntity
  8
GAIKEI
  6
Continuous
 62
     1
100
AcDbEllipse
 10
40.36020172724318
 20
37.08771071028423
 30
0.0
 11
-0.0000000000000108
 21
0.2570486010155661
 31
0.0
210
0.0
220
0.0
230
1.0
 40
0.2679519999999809
 41
3.790000710869833
 42
8.756426638127511
  0
ELLIPSE
  5
260
330
2
100
AcDbEntity
  8
GAIKEI
  6
Continuous
 62
     1
100
AcDbEllipse
 10
41.42120912724317
 20
36.85924446028423
 30
0.0
 11
0.0193870350424885
 21
0.4495821870050824
 31
0.0
210
0.0
220
0.0
230
1.0
 40
0.9658659999999928
 41
1.612422652194193
 42
2.342160655069867
  0
ELLIPSE
  5
261
330
2
100
AcDbEntity
  8
GAIKEI
  6
Continuous
 62
     1
100
AcDbEllipse
 10
40.29337117724321
 20
36.88596756028426
 30
0.0
 11
0.0236739119823138
 21
0.008034045771143
 31
0.0
210
0.0
220
0.0
230
0.9999999999999998
 40
0.768047999981101
 41
-0.4160567989350552
 42
-0.0008255432148825
  0
ELLIPSE
  5
262
330
2
100
AcDbEntity
  8
GAIKEI
  6
Continuous
 62
     1
100
AcDbEllipse
 10
42.63098757724321
 20
15.06930933542526
 30
0.0
 11
0.7500000000000002
 21
0.0
 31
0.0
210
0.0
220
0.0
230
1.0
 40
0.9666670000000001
 41
0.0
 42
0.1041276120068568
  0
ELLIPSE
  5
263
330
2
100
AcDbEntity
  8
GAIKEI
  6
Continuous
 62
     1
100
AcDbEllipse
 10
43.0894861772432
 20
8.054263535425207
 30
0.0
 11
-0.0331278013229312
 21
0.0374506178788601
 31
0.0
210
0.0
220
0.0
230
1.0
 40
0.4749580000000001
 41
3.120750243315308
 42
3.142591199854433
  0
ELLIPSE
  5
264
330
2
100
AcDbEntity
  8
GAIKEI
  6
Continuous
 62
     7
100
AcDbEllipse
 10
41.64040362724318
 20
2.623664110284266
 30
0.0
 11
-0.1107399054551541
 21
0.4361612928033433
 31
0.0
210
0.0
220
0.0
230
1.0
 40
0.9999039999998128
 41
0.6231415498564515
 42
0.9699193915931996
  0
ELLIPSE
  5
265
330
2
100
AcDbEntity
  8
GAIKEI
  6
Continuous
 62
     7
100
AcDbEllipse
 10
41.64040362724318
 20
36.85175726028428
 30
0.0
 11
0.1107271695606408
 21
0.4361645262069404
 31
0.0
210
0.0
220
0.0
230
1.0
 40
0.9999039999999698
 41
2.171603098779832
 42
2.518422350654637
  0
ELLIPSE
  5
266
330
2
100
AcDbEntity
  8
GAIKEI
  6
Continuous
 62
     7
100
AcDbEllipse
 10
41.1408828772432
 20
1.690400610284257
 30
0.0
 11
0.0353550241822256
 21
0.0353550241822256
 31
0.0
210
0.0
220
0.0
230
1.0
 40
0.9999998118931008
 41
3.973502160345834
 42
4.816435925500172
  0
ELLIPSE
  5
267
330
2
100
AcDbEntity
  8
GAIKEI
  6
Continuous
 62
     1
100
AcDbEllipse
 10
42.85972342724323
 20
33.99677696028425
 30
0.0
 11
0.3445865199815878
 21
0.2894134244415523
 31
0.0
210
0.0
220
0.0
230
1.0
 40
0.6039990000613244
 41
-0.0002846291689877
 42
0.0084124181329617
  0
ELLIPSE
  5
268
330
2
100
AcDbEntity
  8
GAIKEI
  6
Continuous
 62
     1
100
AcDbEllipse
 10
42.68308202724319
 20
31.34893358542524
 30
0.0
 11
-0.343856198516359
 21
-0.2902807515869154
 31
0.0
210
0.0
220
0.0
230
1.0
 40
0.113014
 41
3.141768349447379
 42
3.152307569470352
  0
ELLIPSE
  5
269
330
2
100
AcDbEntity
  8
GAIKEI
  6
Continuous
 62
     1
100
AcDbEllipse
 10
42.68308202724319
 20
8.111108085425257
 30
0.0
 11
-0.3438561985162959
 21
0.2902807515869122
 31
0.0
210
0.0
220
0.0
230
1.0
 40
0.113014
 41
3.130877737714352
 42
3.14150348040864
  0
ELLIPSE
  5
26A
330
2
100
AcDbEntity
  8
GAIKEI
  6
Continuous
 62
     7
100
AcDbEllipse
 10
41.64040362724318
 20
36.85175726028428
 30
0.0
 11
0.3181900624921142
 21
0.3181900624921142
 31
0.0
210
0.0
220
0.0
230
1.0
 40
0.9999542077870351
 41
2.617093918051603
 42
2.708415030973279
  0
ELLIPSE
  5
26B
330
2
100
AcDbEntity
  8
GAIKEI
  6
Continuous
 62
     7
100
AcDbEllipse
 10
41.64040362724318
 20
2.623664110284266
 30
0.0
 11
-0.110739905774419
 21
0.4361612927222231
 31
0.0
210
0.0
220
0.0
230
0.9999999999999998
 40
0.999903999999907
 41
0.9699193908611597
 42
1.322176525119691
  0
ELLIPSE
  5
26C
330
2
100
AcDbEntity
  8
GAIKEI
  6
Continuous
 62
     7
100
AcDbEllipse
 10
41.1408828772432
 20
1.690400610284257
 30
0.0
 11
0.0353550241821352
 21
0.0353550241821352
 31
0.0
210
0.0
220
0.0
230
1.0
 40
0.9999998118951952
 41
4.816435925500389
 42
5.497787051848177
  0
LINE
  5
26D
330
2
100
AcDbEntity
  8
GAIKEI
  6
Continuous
 62
     7
100
AcDbLine
 10
39.16550397724319
 20
1.75058631028429
 30
0.0
 11
39.16820867724317
 21
1.752027360284273
 31
0.0
  0
LINE
  5
26E
330
2
100
AcDbEntity
  8
GAIKEI
  6
Continuous
 62
     7
100
AcDbLine
 10
39.16550397724319
 20
37.74483511028427
 30
0.0
 11
39.43078077724317
 21
37.75873766028428
 31
0.0
  0
LINE
  5
26F
330
2
100
AcDbEntity
  8
GAIKEI
  6
Continuous
 62
     7
100
AcDbLine
 10
41.12848757724316
 20
37.83771071028423
 30
0.0
 11
41.20566647724319
 21
37.83095841028427
 31
0.0
  0
LINE
  5
270
330
2
100
AcDbEntity
  8
GAIKEI
  6
Continuous
 62
     1
100
AcDbLine
 10
41.20566647724319
 20
37.63171951028426
 30
0.0
 11
41.19098757724316
 21
37.63300371028424
 31
0.0
  0
LINE
  5
271
330
2
100
AcDbEntity
  8
GAIKEI
  6
Continuous
 62
     1
100
AcDbLine
 10
41.20566647724319
 20
1.664463010284293
 30
0.0
 11
41.1821609772432
 21
1.662406510284256
 31
0.0
  0
LINE
  5
272
330
2
100
AcDbEntity
  8
GAIKEI
  6
Continuous
 62
     7
100
AcDbLine
 10
41.20566647724319
 20
36.73567978283086
 30
0.0
 11
41.20566647724319
 21
37.63171951028426
 31
0.0
  0
LINE
  5
273
330
2
100
AcDbEntity
  8
GAIKEI
  6
Continuous
 62
     1
100
AcDbLine
 10
41.22848757724319
 20
37.63171951028426
 30
0.0
 11
41.22848757724319
 21
36.6706470602843
 31
0.0
  0
LINE
  5
274
330
2
100
AcDbEntity
  8
GAIKEI
  6
Continuous
 62
     1
100
AcDbLine
 10
41.22848757724319
 20
2.799004688656793
 30
0.0
 11
41.22848757724319
 21
1.863701910284305
 31
0.0
  0
LINE
  5
275
330
2
100
AcDbEntity
  8
GAIKEI
  6
Continuous
 62
     1
100
AcDbLine
 10
41.22848757724319
 20
37.63171951028426
 30
0.0
 11
41.20566647724319
 21
37.63171951028426
 31
0.0
  0
LINE
  5
276
330
2
100
AcDbEntity
  8
GAIKEI
  6
Continuous
 62
     1
100
AcDbLine
 10
41.22848757724319
 20
1.863701910284305
 30
0.0
 11
41.22848757724319
 21
1.689367860284278
 31
0.0
  0
LINE
  5
277
330
2
100
AcDbEntity
  8
GAIKEI
  6
Continuous
 62
     1
100
AcDbLine
 10
41.22848757724319
 20
37.80605356028423
 30
0.0
 11
41.22848757724319
 21
37.63171951028426
 31
0.0
  0
LINE
  5
278
330
2
100
AcDbEntity
  8
GAIKEI
  6
Continuous
 62
     7
100
AcDbLine
 10
39.10754577724316
 20
1.783110860284239
 30
0.0
 11
38.95223197724317
 21
2.009939910284288
 31
0.0
  0
LINE
  5
279
330
2
100
AcDbEntity
  8
GAIKEI
  6
Continuous
 62
     7
100
AcDbLine
 10
38.95223197724317
 20
37.48548151028427
 30
0.0
 11
39.10754577724316
 21
37.71231056028427
 31
0.0
  0
LINE
  5
27A
330
2
100
AcDbEntity
  8
GAIKEI
  6
Continuous
 62
     7
100
AcDbLine
 10
38.94348757724316
 20
37.45723306028424
 30
0.0
 11
38.94348757724316
 21
37.2877424102843
 31
0.0
  0
LINE
  5
27B
330
2
100
AcDbEntity
  8
GAIKEI
  6
Continuous
 62
     7
100
AcDbLine
 10
38.94348757724316
 20
2.038188360284266
 30
0.0
 11
38.94348757724316
 21
37.2877424102843
 31
0.0
  0
ARC
  5
27C
330
2
100
AcDbEntity
  8
GAIKEI
  6
Continuous
 62
     1
100
AcDbCircle
 10
41.20348757724321
 20
1.689367860284278
 30
0.0
 40
0.025
100
AcDbArc
 50
274.9999999999998
 51
0.0
  0
ARC
  5
27D
330
2
100
AcDbEntity
  8
GAIKEI
  6
Continuous
 62
     1
100
AcDbCircle
 10
41.20348757724321
 20
37.80605356028423
 30
0.0
 40
0.025
100
AcDbArc
 50
0.0
 51
85.00000000000023
  0
ARC
  5
27E
330
2
100
AcDbEntity
  8
GAIKEI
  6
Continuous
 62
     7
100
AcDbCircle
 10
39.16942917724316
 20
1.825483560284283
 30
0.0
 40
0.075
100
AcDbArc
 50
214.4001230000029
 51
266.9999999999944
  0
ARC
  5
27F
330
2
100
AcDbEntity
  8
GAIKEI
  6
Continuous
 62
     7
100
AcDbCircle
 10
39.16942917724316
 20
37.66993786028428
 30
0.0
 40
0.075
100
AcDbArc
 50
93.00000000000558
 51
145.5998769999971
  0
ARC
  5
280
330
2
100
AcDbEntity
  8
GAIKEI
  6
Continuous
 62
     7
100
AcDbCircle
 10
38.99348757724317
 20
37.45723306028424
 30
0.0
 40
0.05
100
AcDbArc
 50
145.5998769999971
 51
180.0
  0
ARC
  5
281
330
2
100
AcDbEntity
  8
GAIKEI
  6
Continuous
 62
     7
100
AcDbCircle
 10
38.99348757724317
 20
2.038188360284266
 30
0.0
 40
0.05
100
AcDbArc
 50
180.0
 51
214.4001230000029
  0
ELLIPSE
  5
282
330
2
100
AcDbEntity
  8
GAIKEI
  6
Continuous
 62
     7
100
AcDbEllipse
 10
41.20348757724321
 20
37.63038511028424
 30
0.0
 11
0.0021771064512899
 21
0.2005734268692124
 31
0.0
210
0.0
220
0.0
230
1.0
 40
0.0107899999999471
 41
-1.564026235558141
 42
-0.0008261053339396
  0
LINE
  5
283
330
2
100
AcDbEntity
  8
GAIKEI
  6
Continuous
 62
     1
100
AcDbLine
 10
41.42544622724318
 20
37.24166166028425
 30
0.0
 11
41.22848757724319
 21
37.21398091028425
 31
0.0
  0
LINE
  5
284
330
2
100
AcDbEntity
  8
GAIKEI
  6
Continuous
 62
     1
100
AcDbLine
 10
41.3743194772432
 20
37.41436966028425
 30
0.0
 11
41.36848757724317
 21
37.34771071028428
 31
0.0
  0
LINE
  5
285
330
2
100
AcDbEntity
  8
GAIKEI
  6
Continuous
 62
     1
100
AcDbLine
 10
41.36848757724317
 20
37.34771071028428
 30
0.0
 11
41.3366261772432
 21
37.34771071028428
 31
0.0
  0
LINE
  5
286
330
2
100
AcDbEntity
  8
GAIKEI
  6
Continuous
 62
     1
100
AcDbLine
 10
41.36874157724321
 20
37.35061381028425
 30
0.0
 11
41.33698222724319
 21
37.35030451028428
 31
0.0
  0
LINE
  5
287
330
2
100
AcDbEntity
  8
GAIKEI
  6
Continuous
 62
     1
100
AcDbLine
 10
41.37868592724316
 20
37.46427821028425
 30
0.0
 11
41.41936017724316
 21
37.46356821028428
 31
0.0
  0
LINE
  5
288
330
2
100
AcDbEntity
  8
GAIKEI
  6
Continuous
 62
     1
100
AcDbLine
 10
41.3743194772432
 20
37.41436966028425
 30
0.0
 11
41.37868592724316
 21
37.46427821028425
 31
0.0
  0
LINE
  5
289
330
2
100
AcDbEntity
  8
GAIKEI
  6
Continuous
 62
     1
100
AcDbLine
 10
41.4684875772432
 20
37.41357586028426
 30
0.0
 11
41.4684875772432
 21
37.29117506028428
 31
0.0
  0
ARC
  5
28A
330
2
100
AcDbEntity
  8
GAIKEI
  6
Continuous
 62
     1
100
AcDbCircle
 10
41.41848757724318
 20
37.41357586028426
 30
0.0
 40
0.05
100
AcDbArc
 50
0.0
 51
88.99999999999822
  0
ARC
  5
28B
330
2
100
AcDbEntity
  8
GAIKEI
  6
Continuous
 62
     1
100
AcDbCircle
 10
41.41848757724318
 20
37.29117506028428
 30
0.0
 40
0.05
100
AcDbArc
 50
278.0000000000008
 51
0.0
  0
DIMENSION
  5
28C
330
2
100
AcDbEntity
  8
SUNPO
100
AcDbDimension
  2
*D5
 10
43.39348757724315
 20
45.85393439107396
 30
0.0
 11
49.97682091057648
 21
47.60393439107396
 31
0.0
 70
    33
  1
89
 71
     5
 42
4.449999999999988
  3
STANDARD
100
AcDbAlignedDimension
 13
38.94348757724316
 23
37.85395677049206
 33
0.0
 14
43.39348757724315
 24
37.85395677049206
 34
0.0
1001
ACAD
1000
DSTYLE
1002
{
1070
    40
1040
1.0
1070
   140
1040
2.5
1070
   147
1040
0.5
1070
   172
1070
     1
1070
   279
1070
     0
1070
   288
1070
     0
1002
}
  0
TEXT
  5
29B
330
2
100
AcDbEntity
  8
MOJI1
100
AcDbText
 10
-20.14918464540631
 20
-39.53667186965868
 30
0.0
 40
3.0
  1
ＤＶＩ－Ｄ入力、ＰＣ入力、ＬＡＮ、ＲＳ２３２Ｃ、音声入力
 41
0.8
100
AcDbText
  0
TEXT
  5
29C
330
2
100
AcDbEntity
  8
MOJI1
100
AcDbText
 10
-20.14918464540631
 20
-9.536671869658675
 30
0.0
 40
3.0
  1
ＡＣ１００Ｖ　５０Ｈｚ／６０Ｈｚ
100
AcDbText
  0
TEXT
  5
29D
330
2
100
AcDbEntity
  8
MOJI1
100
AcDbText
 10
-20.14918464540631
 20
-24.53667186965868
 30
0.0
 40
3.0
  1
１９２０×１０８０画素
100
AcDbText
  0
TEXT
  5
29E
330
2
100
AcDbEntity
  8
MOJI1
100
AcDbText
 10
-20.14918464540631
 20
-29.53667186965868
 30
0.0
 40
3.0
  1
５００００００：１
100
AcDbText
  0
TEXT
  5
29F
330
2
100
AcDbEntity
  8
MOJI1
100
AcDbText
 10
-20.14918464540631
 20
-19.53667186965867
 30
0.0
 40
3.0
  1
５０型（１２６８ｃｍ）１６：９
100
AcDbText
  0
TEXT
  5
2A0
330
2
100
AcDbEntity
  8
MOJI1
100
AcDbText
 10
-20.14918464540631
 20
-14.53667186965867
 30
0.0
 40
3.0
  1
４６０Ｗ
100
AcDbText
  0
TEXT
  5
2A1
330
2
100
AcDbEntity
  8
MOJI1
100
AcDbText
 10
-20.14918464540631
 20
-34.53667186965868
 30
0.0
 40
3.0
  1
ビデオ入力、ＲＧＢ／コンポーネントビデオ入力、ＨＤＭＩ入力
 41
0.7800000000000001
100
AcDbText
  0
TEXT
  5
2A2
330
2
100
AcDbEntity
  8
MOJI1
100
AcDbText
 10
-20.14918464540631
 20
-44.66252427333961
 30
0.0
 40
3.0
  1
本体：約３３．０ ｋｇ、金具：２ ｋｇ
100
AcDbText
  0
TEXT
  5
2A3
330
2
100
AcDbEntity
  8
MOJI1
100
AcDbText
 10
-59.14918464540628
 20
-44.53667186965867
 30
0.0
 40
3.0
  1
質　量
100
AcDbText
  0
LINE
  5
2A4
330
2
100
AcDbEntity
  8
WAKU
 62
     1
100
AcDbLine
 10
-61.64918464540628
 20
-40.53667186965867
 30
0.0
 11
63.35081535459346
 21
-40.53667186965867
 31
0.0
  0
TEXT
  5
2A6
330
2
100
AcDbEntity
  8
MOJI1
100
AcDbText
 10
-59.14918464540628
 20
-34.53667186965868
 30
0.0
 40
3.0
  1
入出力端子
100
AcDbText
  0
LINE
  5
2A7
330
2
100
AcDbEntity
  8
WAKU
 62
     1
100
AcDbLine
 10
-61.64918464540628
 20
-35.53667186965868
 30
0.0
 11
63.35081535459346
 21
-35.53667186965868
 31
0.0
  0
LINE
  5
2A8
330
2
100
AcDbEntity
  8
WAKU
 62
     4
100
AcDbLine
 10
63.35081535459346
 20
-5.536671869658675
 30
0.0
 11
63.35081535459346
 21
-45.53667186965867
 31
0.0
  0
TEXT
  5
2A9
330
2
100
AcDbEntity
  8
MOJI1
100
AcDbText
 10
-59.14918464540628
 20
-24.53667186965868
 30
0.0
 40
3.0
  1
画素数
100
AcDbText
  0
TEXT
  5
2AA
330
2
100
AcDbEntity
  8
MOJI1
100
AcDbText
 10
-59.14918464540628
 20
-9.536671869658675
 30
0.0
 40
3.0
  1
電  源
100
AcDbText
  0
TEXT
  5
2AB
330
2
100
AcDbEntity
  8
MOJI1
100
AcDbText
 10
-59.14918464540628
 20
-14.53667186965867
 30
0.0
 40
3.0
  1
消費電力
100
AcDbText
  0
TEXT
  5
2AC
330
2
100
AcDbEntity
  8
MOJI1
100
AcDbText
 10
-59.14918464540628
 20
-29.53667186965868
 30
0.0
 40
3.0
  1
コントラスト
100
AcDbText
  0
TEXT
  5
2AD
330
2
100
AcDbEntity
  8
MOJI1
100
AcDbText
 10
-59.14918464540628
 20
-19.53667186965867
 30
0.0
 40
3.0
  1
画面サイズ
100
AcDbText
  0
LINE
  5
2AE
330
2
100
AcDbEntity
  8
WAKU
 62
     4
100
AcDbLine
 10
-61.64918464540651
 20
-5.536671869658675
 30
0.0
 11
-61.64918464540628
 21
-45.53667186965867
 31
0.0
  0
LINE
  5
2AF
330
2
100
AcDbEntity
  8
WAKU
 62
     4
100
AcDbLine
 10
-21.64918464540651
 20
-5.536671869658675
 30
0.0
 11
-21.64918464540651
 21
-45.53667186965867
 31
0.0
  0
LINE
  5
2B0
330
2
100
AcDbEntity
  8
WAKU
 62
     4
100
AcDbLine
 10
63.35081535459346
 20
-45.53667186965867
 30
0.0
 11
-61.64918464540628
 21
-45.53667186965867
 31
0.0
  0
LINE
  5
2B1
330
2
100
AcDbEntity
  8
WAKU
 62
     1
100
AcDbLine
 10
-61.64918464540628
 20
-30.53667186965868
 30
0.0
 11
63.35081535459346
 21
-30.53667186965868
 31
0.0
  0
LINE
  5
2B2
330
2
100
AcDbEntity
  8
WAKU
 62
     1
100
AcDbLine
 10
-61.64918464540628
 20
-20.53667186965868
 30
0.0
 11
63.35081535459346
 21
-20.53667186965868
 31
0.0
  0
LINE
  5
2B3
330
2
100
AcDbEntity
  8
WAKU
 62
     1
100
AcDbLine
 10
-61.64918464540628
 20
-10.53667186965867
 30
0.0
 11
63.35081535459346
 21
-10.53667186965867
 31
0.0
  0
LINE
  5
2B4
330
2
100
AcDbEntity
  8
WAKU
 62
     4
100
AcDbLine
 10
-61.64918464540628
 20
-5.536671869658675
 30
0.0
 11
63.35081535459346
 21
-5.536671869658675
 31
0.0
  0
LINE
  5
2B5
330
2
100
AcDbEntity
  8
WAKU
 62
     1
100
AcDbLine
 10
-61.64918464540628
 20
-25.53667186965868
 30
0.0
 11
63.35081535459346
 21
-25.53667186965868
 31
0.0
  0
LINE
  5
2B6
330
2
100
AcDbEntity
  8
WAKU
 62
     1
100
AcDbLine
 10
-61.64918464540628
 20
-15.53667186965867
 30
0.0
 11
63.35081535459346
 21
-15.53667186965867
 31
0.0
  0
ENDSEC
  0
SECTION
  2
OBJECTS
  0
DICTIONARY
  5
7
330
0
100
AcDbDictionary
281
     1
  3
ACAD_COLOR
350
2D
  3
ACAD_GROUP
350
29
  3
ACAD_LAYOUT
350
B
  3
ACAD_MATERIAL
350
2C
  3
ACAD_MLINESTYLE
350
2A
  3
ACAD_PLOTSETTINGS
350
2B
  3
ACAD_PLOTSTYLENAME
350
6
  3
ACDBHEADERROUNDTRIPXREC
350
301
  3
AcDbVariableDictionary
350
2FC
  0
DICTIONARY
  5
11
330
10
100
AcDbDictionary
280
     1
281
     1
  3
ACAD_LAYERFILTERS
360
12
  3
ACAD_LAYERSTATES
360
13
  0
DICTIONARY
  5
2D
102
{ACAD_REACTORS
330
7
102
}
330
7
100
AcDbDictionary
281
     1
  0
DICTIONARY
  5
29
102
{ACAD_REACTORS
330
7
102
}
330
7
100
AcDbDictionary
281
     1
  0
DICTIONARY
  5
B
102
{ACAD_REACTORS
330
7
102
}
330
7
100
AcDbDictionary
281
     1
  3
Model
350
A
  3
レイアウト1
350
F
  0
DICTIONARY
  5
2C
102
{ACAD_REACTORS
330
7
102
}
330
7
100
AcDbDictionary
281
     1
  0
DICTIONARY
  5
2A
102
{ACAD_REACTORS
330
7
102
}
330
7
100
AcDbDictionary
281
     1
  3
Standard
350
2F
  0
DICTIONARY
  5
2B
102
{ACAD_REACTORS
330
7
102
}
330
7
100
AcDbDictionary
281
     1
  0
ACDBDICTIONARYWDFLT
  5
6
102
{ACAD_REACTORS
330
7
102
}
330
7
100
AcDbDictionary
281
     1
  3
Normal
350
5
100
AcDbDictionaryWithDefault
340
5
  0
DICTIONARY
  5
301
102
{ACAD_REACTORS
330
7
102
}
330
7
100
AcDbDictionary
281
     1
  3
COLORDICT
350
303
  3
MATERIALDICT
350
302
  0
DICTIONARY
  5
2FC
102
{ACAD_REACTORS
330
7
102
}
330
7
100
AcDbDictionary
281
     1
  3
DIMASSOC
350
2FE
  3
HIDETEXT
350
2FD
  3
PROJECTNAME
350
2FF
  0
DICTIONARY
  5
12
102
{ACAD_REACTORS
330
11
102
}
330
11
100
AcDbDictionary
281
     1
  0
DICTIONARY
  5
13
102
{ACAD_REACTORS
330
11
102
}
330
11
100
AcDbDictionary
281
     1
  0
LAYOUT
  5
A
102
{ACAD_XDICTIONARY
360
304
102
}
102
{ACAD_REACTORS
330
B
102
}
330
B
100
AcDbPlotSettings
  1

  2
10F06M_RICOH_SP-8100
  4
A4
  6

 40
5.873749732971191
 41
5.873747825622558
 42
5.873748779296875
 43
5.873748779296875
 44
209.9733276367187
 45
296.9259948730469
 46
5.429999999999999
 47
0.0
 48
0.0
 49
0.0
140
0.0
141
0.0
142
1.0
143
1.382388793903341
 70
 11956
 72
     1
 73
     0
 74
     1
  7
tmsacad.ctb
 75
     0
147
0.7233854935820042
148
0.0064050313486632
149
0.0060110292993159
100
AcDbLayout
  1
Model
 70
     1
 71
     0
 10
0.0
 20
0.0
 11
12.0
 21
9.0
 12
0.0
 22
0.0
 32
0.0
 14
0.0
 24
0.0
 34
0.0
 15
0.0
 25
0.0
 35
0.0
146
0.0
 13
0.0
 23
0.0
 33
0.0
 16
1.0
 26
0.0
 36
0.0
 17
0.0
 27
1.0
 37
0.0
 76
     0
330
2
  0
LAYOUT
  5
F
102
{ACAD_XDICTIONARY
360
306
102
}
102
{ACAD_REACTORS
330
B
102
}
330
B
100
AcDbPlotSettings
  1

  2
None
  4

  6

 40
0.0
 41
0.0
 42
0.0
 43
0.0
 44
0.0
 45
0.0
 46
0.0
 47
0.0
 48
0.0
 49
0.0
140
0.0
141
0.0
142
1.0
143
1.0
 70
   688
 72
     0
 73
     0
 74
     5
  7
tmsacad.ctb
 75
    16
147
1.0
148
0.0
149
0.0
100
AcDbLayout
  1
レイアウト1
 70
     1
 71
     1
 10
0.0
 20
0.0
 11
12.0
 21
9.0
 12
0.0
 22
0.0
 32
0.0
 14
0.0
 24
0.0
 34
0.0
 15
0.0
 25
0.0
 35
0.0
146
0.0
 13
0.0
 23
0.0
 33
0.0
 16
1.0
 26
0.0
 36
0.0
 17
0.0
 27
1.0
 37
0.0
 76
     0
330
C
  0
MLINESTYLE
  5
2F
102
{ACAD_REACTORS
330
2A
102
}
330
2A
100
AcDbMlineStyle
  2
STANDARD
 70
     0
  3

 62
   256
 51
90.0
 52
90.0
 71
     2
 49
0.5
 62
   256
  6
BYLAYER
 49
-0.5
 62
   256
  6
BYLAYER
  0
ACDBPLACEHOLDER
  5
5
102
{ACAD_REACTORS
330
6
102
}
330
6
  0
XRECORD
  5
303
102
{ACAD_REACTORS
330
301
102
}
330
301
100
AcDbXrecord
280
     1
340
2D
  0
XRECORD
  5
302
102
{ACAD_REACTORS
330
301
102
}
330
301
100
AcDbXrecord
280
     1
340
2C
  0
DICTIONARYVAR
  5
2FE
102
{ACAD_REACTORS
330
2FC
102
}
330
2FC
100
DictionaryVariables
280
     0
  1
1
  0
DICTIONARYVAR
  5
2FD
102
{ACAD_REACTORS
330
2FC
102
}
330
2FC
100
DictionaryVariables
280
     0
  1
1
  0
DICTIONARYVAR
  5
2FF
102
{ACAD_REACTORS
330
2FC
102
}
330
2FC
100
DictionaryVariables
280
     0
  1

  0
DICTIONARY
  5
304
330
A
100
AcDbDictionary
280
     1
281
     1
  3
ACAD_XREC_ROUNDTRIP
360
305
  0
DICTIONARY
  5
306
330
F
100
AcDbDictionary
280
     1
281
     1
  3
ACAD_XREC_ROUNDTRIP
360
307
  0
XRECORD
  5
305
102
{ACAD_REACTORS
330
304
102
}
330
304
100
AcDbXrecord
280
     1
102
SHADEPLOT
 70
     0
102
SHADEPLOTRESLEVEL
 70
     2
102
SHADEPLOTCUSTOMDPI
 70
   300
  0
XRECORD
  5
307
102
{ACAD_REACTORS
330
306
102
}
330
306
100
AcDbXrecord
280
     1
102
SHADEPLOT
 70
     0
102
SHADEPLOTRESLEVEL
 70
     2
102
SHADEPLOTCUSTOMDPI
 70
   300
  0
ENDSEC
  0
EOF
