  0
SECTION
  2
HEADER
  9
$ACADVER
  1
AC1015
  9
$ACADMAINTVER
 70
    20
  9
$DWGCODEPAGE
  3
ANSI_932
  9
$INSBASE
 10
0.4999999440410648
 20
246.5008351249344
 30
0.0
  9
$EXTMIN
 10
-63.52294831481174
 20
-51.12844785434242
 30
-0.0015258207003583
  9
$EXTMAX
 10
61.51062067773967
 20
61.89614909945078
 30
0.0000000349246037
  9
$LIMMIN
 10
0.0
 20
0.0
  9
$LIMMAX
 10
420.0
 20
297.0
  9
$ORTHOMODE
 70
     1
  9
$REGENMODE
 70
     0
  9
$FILLMODE
 70
     1
  9
$QTEXTMODE
 70
     0
  9
$MIRRTEXT
 70
     0
  9
$LTSCALE
 40
1.0
  9
$ATTMODE
 70
     1
  9
$TEXTSIZE
 40
2.5
  9
$TRACEWID
 40
1.0
  9
$TEXTSTYLE
  7
Standard
  9
$CLAYER
  8
GAIKEI
  9
$CELTYPE
  6
ByLayer
  9
$CECOLOR
 62
   256
  9
$CELTSCALE
 40
1.0
  9
$DISPSILH
 70
     0
  9
$DIMSCALE
 40
1.0
  9
$DIMASZ
 40
2.0
  9
$DIMEXO
 40
2.0
  9
$DIMDLI
 40
8.0
  9
$DIMRND
 40
0.0
  9
$DIMDLE
 40
0.0
  9
$DIMEXE
 40
2.0
  9
$DIMTP
 40
0.0
  9
$DIMTM
 40
0.0
  9
$DIMTXT
 40
2.5
  9
$DIMCEN
 40
0.0
  9
$DIMTSZ
 40
0.0
  9
$DIMTOL
 70
     0
  9
$DIMLIM
 70
     0
  9
$DIMTIH
 70
     0
  9
$DIMTOH
 70
     0
  9
$DIMSE1
 70
     0
  9
$DIMSE2
 70
     0
  9
$DIMTAD
 70
     3
  9
$DIMZIN
 70
     0
  9
$DIMBLK
  1

  9
$DIMASO
 70
     1
  9
$DIMSHO
 70
     1
  9
$DIMPOST
  1

  9
$DIMAPOST
  1

  9
$DIMALT
 70
     0
  9
$DIMALTD
 70
     2
  9
$DIMALTF
 40
25.4
  9
$DIMLFAC
 40
1.0
  9
$DIMTOFL
 70
     1
  9
$DIMTVP
 40
0.0
  9
$DIMTIX
 70
     0
  9
$DIMSOXD
 70
     0
  9
$DIMSAH
 70
     1
  9
$DIMBLK1
  1
OPEN30
  9
$DIMBLK2
  1
OPEN30
  9
$DIMSTYLE
  2
STANDARD
  9
$DIMCLRD
 70
     0
  9
$DIMCLRE
 70
     0
  9
$DIMCLRT
 70
     0
  9
$DIMTFAC
 40
1.0
  9
$DIMGAP
 40
0.5
  9
$DIMJUST
 70
     0
  9
$DIMSD1
 70
     0
  9
$DIMSD2
 70
     0
  9
$DIMTOLJ
 70
     1
  9
$DIMTZIN
 70
     0
  9
$DIMALTZ
 70
     0
  9
$DIMALTTZ
 70
     0
  9
$DIMUPT
 70
     0
  9
$DIMDEC
 70
     4
  9
$DIMTDEC
 70
     4
  9
$DIMALTU
 70
     2
  9
$DIMALTTD
 70
     2
  9
$DIMTXSTY
  7
Standard
  9
$DIMAUNIT
 70
     0
  9
$DIMADEC
 70
     0
  9
$DIMALTRND
 40
0.0
  9
$DIMAZIN
 70
     0
  9
$DIMDSEP
 70
    46
  9
$DIMATFIT
 70
     3
  9
$DIMFRAC
 70
     0
  9
$DIMLDRBLK
  1
OPEN30
  9
$DIMLUNIT
 70
     2
  9
$DIMLWD
 70
    -2
  9
$DIMLWE
 70
    -2
  9
$DIMTMOVE
 70
     0
  9
$LUNITS
 70
     2
  9
$LUPREC
 70
     4
  9
$SKETCHINC
 40
1.0
  9
$FILLETRAD
 40
0.0
  9
$AUNITS
 70
     0
  9
$AUPREC
 70
     0
  9
$MENU
  1
.
  9
$ELEVATION
 40
0.0
  9
$PELEVATION
 40
0.0
  9
$THICKNESS
 40
0.0
  9
$LIMCHECK
 70
     0
  9
$CHAMFERA
 40
0.0
  9
$CHAMFERB
 40
0.0
  9
$CHAMFERC
 40
0.0
  9
$CHAMFERD
 40
0.0
  9
$SKPOLY
 70
     0
  9
$TDCREATE
 40
2454349.434269746
  9
$TDUCREATE
 40
2454349.059269746
  9
$TDUPDATE
 40
2455756.336747234
  9
$TDUUPDATE
 40
2455755.961747234
  9
$TDINDWG
 40
0.5697297917
  9
$TDUSRTIMER
 40
0.5697297917
  9
$USRTIMER
 70
     1
  9
$ANGBASE
 50
0.0
  9
$ANGDIR
 70
     0
  9
$PDMODE
 70
     0
  9
$PDSIZE
 40
0.0
  9
$PLINEWID
 40
0.0
  9
$SPLFRAME
 70
     0
  9
$SPLINETYPE
 70
     6
  9
$SPLINESEGS
 70
     8
  9
$HANDSEED
  5
5A8
  9
$SURFTAB1
 70
     6
  9
$SURFTAB2
 70
     6
  9
$SURFTYPE
 70
     6
  9
$SURFU
 70
     6
  9
$SURFV
 70
     6
  9
$UCSBASE
  2

  9
$UCSNAME
  2

  9
$UCSORG
 10
0.0
 20
0.0
 30
0.0
  9
$UCSXDIR
 10
1.0
 20
0.0
 30
0.0
  9
$UCSYDIR
 10
0.0
 20
1.0
 30
0.0
  9
$UCSORTHOREF
  2

  9
$UCSORTHOVIEW
 70
     0
  9
$UCSORGTOP
 10
0.0
 20
0.0
 30
0.0
  9
$UCSORGBOTTOM
 10
0.0
 20
0.0
 30
0.0
  9
$UCSORGLEFT
 10
0.0
 20
0.0
 30
0.0
  9
$UCSORGRIGHT
 10
0.0
 20
0.0
 30
0.0
  9
$UCSORGFRONT
 10
0.0
 20
0.0
 30
0.0
  9
$UCSORGBACK
 10
0.0
 20
0.0
 30
0.0
  9
$PUCSBASE
  2

  9
$PUCSNAME
  2

  9
$PUCSORG
 10
0.0
 20
0.0
 30
0.0
  9
$PUCSXDIR
 10
1.0
 20
0.0
 30
0.0
  9
$PUCSYDIR
 10
0.0
 20
1.0
 30
0.0
  9
$PUCSORTHOREF
  2

  9
$PUCSORTHOVIEW
 70
     0
  9
$PUCSORGTOP
 10
0.0
 20
0.0
 30
0.0
  9
$PUCSORGBOTTOM
 10
0.0
 20
0.0
 30
0.0
  9
$PUCSORGLEFT
 10
0.0
 20
0.0
 30
0.0
  9
$PUCSORGRIGHT
 10
0.0
 20
0.0
 30
0.0
  9
$PUCSORGFRONT
 10
0.0
 20
0.0
 30
0.0
  9
$PUCSORGBACK
 10
0.0
 20
0.0
 30
0.0
  9
$USERI1
 70
     0
  9
$USERI2
 70
     0
  9
$USERI3
 70
     0
  9
$USERI4
 70
     0
  9
$USERI5
 70
     0
  9
$USERR1
 40
0.0
  9
$USERR2
 40
0.0
  9
$USERR3
 40
0.0
  9
$USERR4
 40
0.0
  9
$USERR5
 40
0.0
  9
$WORLDVIEW
 70
     1
  9
$SHADEDGE
 70
     3
  9
$SHADEDIF
 70
    70
  9
$TILEMODE
 70
     1
  9
$MAXACTVP
 70
    64
  9
$PINSBASE
 10
0.0
 20
0.0
 30
0.0
  9
$PLIMCHECK
 70
     0
  9
$PEXTMIN
 10
0.0
 20
0.0
 30
0.0
  9
$PEXTMAX
 10
0.0
 20
0.0
 30
0.0
  9
$PLIMMIN
 10
0.0
 20
0.0
  9
$PLIMMAX
 10
12.0
 20
9.0
  9
$UNITMODE
 70
     0
  9
$VISRETAIN
 70
     1
  9
$PLINEGEN
 70
     0
  9
$PSLTSCALE
 70
     1
  9
$TREEDEPTH
 70
  3020
  9
$CMLSTYLE
  2
Standard
  9
$CMLJUST
 70
     0
  9
$CMLSCALE
 40
20.0
  9
$PROXYGRAPHICS
 70
     1
  9
$MEASUREMENT
 70
     1
  9
$CELWEIGHT
370
    -1
  9
$ENDCAPS
280
     0
  9
$JOINSTYLE
280
     0
  9
$LWDISPLAY
290
     0
  9
$INSUNITS
 70
     4
  9
$HYPERLINKBASE
  1

  9
$STYLESHEET
  1

  9
$XEDIT
290
     1
  9
$CEPSNTYPE
380
     0
  9
$PSTYLEMODE
290
     1
  9
$FINGERPRINTGUID
  2
{FDEAD578-A652-11D2-9A35-0060089B3A3F}
  9
$VERSIONGUID
  2
{4B8EE1B3-B0DD-4204-B51A-51048F9BBCA8}
  9
$EXTNAMES
290
     1
  9
$PSVPSCALE
 40
0.0
  9
$OLESTARTUP
290
     0
  0
ENDSEC
  0
SECTION
  2
CLASSES
  0
CLASS
  1
ACDBDICTIONARYWDFLT
  2
AcDbDictionaryWithDefault
  3
ObjectDBX Classes
 90
        0
280
     0
281
     0
  0
CLASS
  1
ACDBPLACEHOLDER
  2
AcDbPlaceHolder
  3
ObjectDBX Classes
 90
        0
280
     0
281
     0
  0
CLASS
  1
LAYOUT
  2
AcDbLayout
  3
ObjectDBX Classes
 90
        0
280
     0
281
     0
  0
CLASS
  1
DICTIONARYVAR
  2
AcDbDictionaryVar
  3
ObjectDBX Classes
 90
        0
280
     0
281
     0
  0
CLASS
  1
SORTENTSTABLE
  2
AcDbSortentsTable
  3
ObjectDBX Classes
 90
    32768
280
     0
281
     0
  0
ENDSEC
  0
SECTION
  2
TABLES
  0
TABLE
  2
VPORT
  5
1C
330
0
100
AcDbSymbolTable
 70
     3
  0
VPORT
  5
5A0
330
1C
100
AcDbSymbolTableRecord
100
AcDbViewportTableRecord
  2
*Active
 70
     0
 10
0.0
 20
0.0
 11
1.0
 21
1.0
 12
-1.006163818536037
 22
5.383850622554177
 13
0.0
 23
0.0
 14
10.0
 24
10.0
 15
10.0
 25
10.0
 16
0.0
 26
0.0
 36
1.0
 17
0.0
 27
0.0
 37
0.0
 40
113.8786871070964
 41
2.184110970996216
 42
50.0
 43
0.0
 44
0.0
 50
0.0
 51
0.0
 71
     0
 72
  1000
 73
     1
 74
     2
 75
     0
 76
     0
 77
     0
 78
     0
281
     0
 65
     1
110
0.0
120
0.0
130
0.0
111
1.0
121
0.0
131
0.0
112
0.0
122
1.0
132
0.0
 79
     0
146
0.0
  0
ENDTAB
  0
TABLE
  2
LTYPE
  5
17
330
0
100
AcDbSymbolTable
 70
     7
  0
LTYPE
  5
18
330
17
100
AcDbSymbolTableRecord
100
AcDbLinetypeTableRecord
  2
ByBlock
 70
     0
  3

 72
    65
 73
     0
 40
0.0
  0
LTYPE
  5
19
330
17
100
AcDbSymbolTableRecord
100
AcDbLinetypeTableRecord
  2
ByLayer
 70
     0
  3

 72
    65
 73
     0
 40
0.0
  0
LTYPE
  5
8
330
17
100
AcDbSymbolTableRecord
100
AcDbLinetypeTableRecord
  2
Continuous
 70
     0
  3
Solid line
 72
    65
 73
     0
 40
0.0
  0
LTYPE
  5
526
330
17
100
AcDbSymbolTableRecord
100
AcDbLinetypeTableRecord
  2
CENTER
 70
     0
  3
Center ____ _ ____ _ ____ _ ____ _ ____ _ ____
 72
    65
 73
     4
 40
50.8
 49
31.75
 74
     0
 49
-6.349999999999999
 74
     0
 49
6.349999999999999
 74
     0
 49
-6.349999999999999
 74
     0
  0
LTYPE
  5
4B1
330
17
100
AcDbSymbolTableRecord
100
AcDbLinetypeTableRecord
  2
DASHED
 70
     0
  3
Dashed __ __ __ __ __ __ __ __ __ __ __ __ __ _
 72
    65
 73
     2
 40
19.05
 49
12.7
 74
     0
 49
-6.349999999999999
 74
     0
  0
LTYPE
  5
4FE
330
17
100
AcDbSymbolTableRecord
100
AcDbLinetypeTableRecord
  2
PHANTOM
 70
     0
  3
Phantom ______  __  __  ______  __  __  ______
 72
    65
 73
     6
 40
63.5
 49
31.75
 74
     0
 49
-6.349999999999999
 74
     0
 49
6.349999999999999
 74
     0
 49
-6.349999999999999
 74
     0
 49
6.349999999999999
 74
     0
 49
-6.349999999999999
 74
     0
  0
LTYPE
  5
3E
330
17
100
AcDbSymbolTableRecord
100
AcDbLinetypeTableRecord
  2
HIDDEN2
 70
     0
  3
Hidden (.5x) _ _ _ _ _ _ _ _ _ _ _ _ _ _ _ _ _
 72
    65
 73
     2
 40
1.399999999999999
 49
0.7
 74
     0
 49
-0.7
 74
     0
  0
LTYPE
  5
39
330
17
100
AcDbSymbolTableRecord
100
AcDbLinetypeTableRecord
  2
S50
 70
     0
  3
-------------- - ------------- 40,-1,1.5,-1
 72
    65
 73
     4
 40
43.5
 49
40.0
 74
     0
 49
-1.0
 74
     0
 49
1.5
 74
     0
 49
-1.0
 74
     0
  0
LTYPE
  5
3A
330
17
100
AcDbSymbolTableRecord
100
AcDbLinetypeTableRecord
  2
S130
 70
     0
  3
--- - --- - --- 3,-1,1,-1
 72
    65
 73
     4
 40
6.0
 49
3.0
 74
     0
 49
-1.0
 74
     0
 49
1.0
 74
     0
 49
-1.0
 74
     0
  0
ENDTAB
  0
TABLE
  2
LAYER
  5
10
102
{ACAD_XDICTIONARY
360
11
102
}
330
0
100
AcDbSymbolTable
 70
     9
  0
LAYER
  5
4
330
10
100
AcDbSymbolTableRecord
100
AcDbLayerTableRecord
  2
0
 70
     0
 62
     7
  6
Continuous
370
    -3
390
5
  0
LAYER
  5
2E3
330
10
100
AcDbSymbolTableRecord
100
AcDbLayerTableRecord
  2
WAKU
 70
     0
 62
     4
  6
Continuous
370
    -3
390
5
  0
LAYER
  5
33
330
10
100
AcDbSymbolTableRecord
100
AcDbLayerTableRecord
  2
MOJI1
 70
     0
 62
     2
  6
Continuous
370
    -3
390
5
  0
LAYER
  5
31
330
10
100
AcDbSymbolTableRecord
100
AcDbLayerTableRecord
  2
TOUROKU
 70
     0
 62
     1
  6
Continuous
370
    -3
390
5
  0
LAYER
  5
29B
330
10
100
AcDbSymbolTableRecord
100
AcDbLayerTableRecord
  2
DEFPOINTS
 70
     0
 62
     7
  6
Continuous
290
     0
370
    -3
390
5
  0
LAYER
  5
2E
330
10
100
AcDbSymbolTableRecord
100
AcDbLayerTableRecord
  2
GAIKEI
 70
     0
 62
     7
  6
Continuous
370
    -3
390
5
  0
LAYER
  5
291
330
10
100
AcDbSymbolTableRecord
100
AcDbLayerTableRecord
  2
SUNPO
 70
     0
 62
     3
  6
Continuous
370
    -3
390
5
  0
LAYER
  5
3D
330
10
100
AcDbSymbolTableRecord
100
AcDbLayerTableRecord
  2
S1
 70
     0
 62
     1
  6
Continuous
370
    -3
390
5
  0
LAYER
  5
38
330
10
100
AcDbSymbolTableRecord
100
AcDbLayerTableRecord
  2
KIJUN
 70
     0
 62
    14
  6
S50
370
    -3
390
5
  0
ENDTAB
  0
TABLE
  2
STYLE
  5
14
330
0
100
AcDbSymbolTable
 70
     1
  0
STYLE
  5
15
330
14
100
AcDbSymbolTableRecord
100
AcDbTextStyleTableRecord
  2
Standard
 70
     0
 40
0.0
 41
1.0
 50
0.0
 71
     0
 42
2.5
  3
MONOTXT.shx
  4
BIGFONT.shx
  0
ENDTAB
  0
TABLE
  2
VIEW
  5
1A
330
0
100
AcDbSymbolTable
 70
     0
  0
ENDTAB
  0
TABLE
  2
UCS
  5
1B
330
0
100
AcDbSymbolTable
 70
     0
  0
ENDTAB
  0
TABLE
  2
APPID
  5
1E
330
0
100
AcDbSymbolTable
 70
     1
  0
APPID
  5
1F
330
1E
100
AcDbSymbolTableRecord
100
AcDbRegAppTableRecord
  2
ACAD
 70
     0
  0
ENDTAB
  0
TABLE
  2
DIMSTYLE
  5
20
330
0
100
AcDbSymbolTable
 70
     1
100
AcDbDimStyleTable
 71
     1
340
21
  0
DIMSTYLE
105
21
102
{ACAD_REACTORS
330
367
330
337
330
2BA
330
2AC
330
29F
330
290
102
}
330
20
100
AcDbSymbolTableRecord
100
AcDbDimStyleTableRecord
  2
STANDARD
 70
     0
 40
0.0
 41
2.0
 42
2.0
 43
8.0
 44
2.0
 73
     0
 74
     0
 77
     3
140
3.0
141
0.0
173
     1
279
     2
288
     1
340
15
341
22
343
22
344
22
  0
ENDTAB
  0
TABLE
  2
BLOCK_RECORD
  5
1
330
0
100
AcDbSymbolTable
 70
    13
  0
BLOCK_RECORD
  5
2
330
1
100
AcDbSymbolTableRecord
100
AcDbBlockTableRecord
  2
*Model_Space
340
A
  0
BLOCK_RECORD
  5
C
330
1
100
AcDbSymbolTableRecord
100
AcDbBlockTableRecord
  2
*Paper_Space
340
F
  0
BLOCK_RECORD
  5
22
330
1
100
AcDbSymbolTableRecord
100
AcDbBlockTableRecord
  2
_OPEN30
340
0
102
{BLKREFS
331
2DF
331
2CD
331
297
331
298
331
2A5
331
2A6
331
2B3
331
2B4
331
2C1
331
2C2
331
33D
331
33E
331
36D
331
36E
331
556
331
557
331
562
331
563
331
56F
331
570
331
57C
331
57D
331
588
331
589
331
594
331
595
102
}
  0
BLOCK_RECORD
  5
368
330
1
100
AcDbSymbolTableRecord
100
AcDbBlockTableRecord
  2
*D1
340
0
  0
BLOCK_RECORD
  5
338
330
1
100
AcDbSymbolTableRecord
100
AcDbBlockTableRecord
  2
*D2
340
0
  0
BLOCK_RECORD
  5
2BB
330
1
100
AcDbSymbolTableRecord
100
AcDbBlockTableRecord
  2
*D3
340
0
  0
BLOCK_RECORD
  5
2AD
330
1
100
AcDbSymbolTableRecord
100
AcDbBlockTableRecord
  2
*D4
340
0
  0
BLOCK_RECORD
  5
2A0
330
1
100
AcDbSymbolTableRecord
100
AcDbBlockTableRecord
  2
*D5
340
0
  0
BLOCK_RECORD
  5
292
330
1
100
AcDbSymbolTableRecord
100
AcDbBlockTableRecord
  2
*D6
340
0
  0
BLOCK_RECORD
  5
552
330
1
100
AcDbSymbolTableRecord
100
AcDbBlockTableRecord
  2
*D7
340
0
  0
BLOCK_RECORD
  5
55E
330
1
100
AcDbSymbolTableRecord
100
AcDbBlockTableRecord
  2
*D8
340
0
  0
BLOCK_RECORD
  5
56A
330
1
100
AcDbSymbolTableRecord
100
AcDbBlockTableRecord
  2
*D9
340
0
  0
BLOCK_RECORD
  5
577
330
1
100
AcDbSymbolTableRecord
100
AcDbBlockTableRecord
  2
*D10
340
0
  0
BLOCK_RECORD
  5
584
330
1
100
AcDbSymbolTableRecord
100
AcDbBlockTableRecord
  2
*D11
340
0
  0
BLOCK_RECORD
  5
590
330
1
100
AcDbSymbolTableRecord
100
AcDbBlockTableRecord
  2
*D12
340
0
  0
ENDTAB
  0
ENDSEC
  0
SECTION
  2
BLOCKS
  0
BLOCK
  5
3
330
2
100
AcDbEntity
  8
0
100
AcDbBlockBegin
  2
*Model_Space
 70
     0
 10
0.0
 20
0.0
 30
0.0
  3
*Model_Space
  1

  0
ENDBLK
  5
9
330
2
100
AcDbEntity
  8
0
100
AcDbBlockEnd
  0
BLOCK
  5
D
330
C
100
AcDbEntity
 67
     1
  8
0
100
AcDbBlockBegin
  2
*Paper_Space
 70
     0
 10
0.0
 20
0.0
 30
0.0
  3
*Paper_Space
  1

  0
ENDBLK
  5
E
330
C
100
AcDbEntity
 67
     1
  8
0
100
AcDbBlockEnd
  0
BLOCK
  5
23
330
22
100
AcDbEntity
  8
0
100
AcDbBlockBegin
  2
_OPEN30
 70
     0
 10
0.0
 20
0.0
 30
0.0
  3
_OPEN30
  1

  0
LINE
  5
24
330
22
100
AcDbEntity
  8
0
  6
ByBlock
 62
     0
100
AcDbLine
 10
-1.0
 20
0.26794919
 30
0.0
 11
0.0
 21
0.0
 31
0.0
  0
LINE
  5
25
330
22
100
AcDbEntity
  8
0
  6
ByBlock
 62
     0
100
AcDbLine
 10
0.0
 20
0.0
 30
0.0
 11
-1.0
 21
-0.26794919
 31
0.0
  0
LINE
  5
26
330
22
100
AcDbEntity
  8
0
  6
ByBlock
 62
     0
100
AcDbLine
 10
0.0
 20
0.0
 30
0.0
 11
-1.0
 21
0.0
 31
0.0
  0
ENDBLK
  5
27
330
22
100
AcDbEntity
  8
0
100
AcDbBlockEnd
  0
BLOCK
  5
369
330
368
100
AcDbEntity
  8
0
100
AcDbBlockBegin
  2
*D1
 70
     1
 10
0.0
 20
0.0
 30
0.0
  3
*D1
  1

  0
LINE
  5
36A
330
368
100
AcDbEntity
  8
SUNPO
 62
     0
370
    -2
100
AcDbLine
 10
88.77747835283566
 20
183.7783281646192
 30
0.0
 11
96.77747835283566
 21
183.7783281646192
 31
0.0
  0
LINE
  5
36B
330
368
100
AcDbEntity
  8
SUNPO
 62
     0
370
    -2
100
AcDbLine
 10
88.77747835283562
 20
219.97063830028
 30
0.0
 11
96.77747835283566
 21
219.97063830028
 31
0.0
  0
LINE
  5
36C
330
368
100
AcDbEntity
  8
SUNPO
 62
     0
370
    -2
100
AcDbLine
 10
94.77747835283565
 20
185.7783281646192
 30
0.0
 11
94.77747835283565
 21
217.97063830028
 31
0.0
  0
INSERT
  5
36D
330
368
100
AcDbEntity
  8
SUNPO
 62
     0
370
    -2
100
AcDbBlockReference
  2
_OPEN30
 10
94.77747835283565
 20
183.7783281646192
 30
0.0
 41
2.0
 42
2.0
 43
2.0
 50
270.0
  0
INSERT
  5
36E
330
368
100
AcDbEntity
  8
SUNPO
 62
     0
370
    -2
100
AcDbBlockReference
  2
_OPEN30
 10
94.77747835283565
 20
219.97063830028
 30
0.0
 41
2.0
 42
2.0
 43
2.0
 50
90.0
  0
MTEXT
  5
36F
330
368
100
AcDbEntity
  8
SUNPO
 62
     0
100
AcDbMText
 10
93.02747835283563
 20
201.8744832324497
 30
0.0
 40
2.5
 41
0.0
 71
     5
 72
     1
  1
\A1;724
 11
0.0000000000000001
 21
1.0
 31
0.0
 73
     1
 44
1.0
1001
ACAD
1000
MTEXTBEGIN
1070
    73
1070
     1
1070
    44
1040
1.0
1070
    74
1070
     0
1000
MTEXTEND
  0
POINT
  5
370
330
368
100
AcDbEntity
  8
DEFPOINTS
 62
     0
100
AcDbPoint
 10
86.77747835283566
 20
183.7783281646192
 30
0.0
  0
POINT
  5
371
330
368
100
AcDbEntity
  8
DEFPOINTS
 62
     0
100
AcDbPoint
 10
86.77747835283563
 20
219.97063830028
 30
0.0
  0
POINT
  5
372
330
368
100
AcDbEntity
  8
DEFPOINTS
 62
     0
100
AcDbPoint
 10
94.77747835283565
 20
219.97063830028
 30
0.0
  0
ENDBLK
  5
373
330
368
100
AcDbEntity
  8
0
100
AcDbBlockEnd
  0
BLOCK
  5
339
330
338
100
AcDbEntity
  8
0
100
AcDbBlockBegin
  2
*D2
 70
     1
 10
0.0
 20
0.0
 30
0.0
  3
*D2
  1

  0
LINE
  5
33A
330
338
100
AcDbEntity
  8
SUNPO
 62
     0
370
    -2
100
AcDbLine
 10
26.71724356676342
 20
221.9703518559287
 30
0.0
 11
26.71724356676342
 21
229.9703518559287
 31
0.0
  0
LINE
  5
33B
330
338
100
AcDbEntity
  8
SUNPO
 62
     0
370
    -2
100
AcDbLine
 10
87.21724354256332
 20
221.9703518559287
 30
0.0
 11
87.21724354256332
 21
229.9703518559287
 31
0.0
  0
LINE
  5
33C
330
338
100
AcDbEntity
  8
SUNPO
 62
     0
370
    -2
100
AcDbLine
 10
28.71724356676342
 20
227.9703518559287
 30
0.0
 11
85.21724354256333
 21
227.9703518559287
 31
0.0
  0
INSERT
  5
33D
330
338
100
AcDbEntity
  8
SUNPO
 62
     0
370
    -2
100
AcDbBlockReference
  2
_OPEN30
 10
26.71724356676342
 20
227.9703518559287
 30
0.0
 41
2.0
 42
2.0
 43
2.0
 50
180.0
  0
INSERT
  5
33E
330
338
100
AcDbEntity
  8
SUNPO
 62
     0
370
    -2
100
AcDbBlockReference
  2
_OPEN30
 10
87.21724354256332
 20
227.9703518559287
 30
0.0
 41
2.0
 42
2.0
 43
2.0
  0
MTEXT
  5
33F
330
338
100
AcDbEntity
  8
SUNPO
 62
     0
100
AcDbMText
 10
56.96724355466336
 20
229.7203518559287
 30
0.0
 40
2.5
 41
0.0
 71
     5
 72
     1
  1
\A1;1210
 73
     1
 44
1.0
1001
ACAD
1000
MTEXTBEGIN
1070
    73
1070
     1
1070
    44
1040
1.0
1070
    74
1070
     0
1000
MTEXTEND
  0
POINT
  5
340
330
338
100
AcDbEntity
  8
DEFPOINTS
 62
     0
100
AcDbPoint
 10
26.71724356676342
 20
219.9703518559287
 30
0.0
  0
POINT
  5
341
330
338
100
AcDbEntity
  8
DEFPOINTS
 62
     0
100
AcDbPoint
 10
87.21724354256332
 20
219.9703518559287
 30
0.0
  0
POINT
  5
342
330
338
100
AcDbEntity
  8
DEFPOINTS
 62
     0
100
AcDbPoint
 10
87.21724354256332
 20
227.9703518559287
 30
0.0
  0
ENDBLK
  5
343
330
338
100
AcDbEntity
  8
0
100
AcDbBlockEnd
  0
BLOCK
  5
2BC
330
2BB
100
AcDbEntity
  8
0
100
AcDbBlockBegin
  2
*D3
 70
     1
 10
0.0
 20
0.0
 30
0.0
  3
*D3
  1

  0
LINE
  5
2BD
330
2BB
100
AcDbEntity
  8
SUNPO
 62
     0
370
    -2
100
AcDbLine
 10
24.5683324354502
 20
213.3244832324496
 30
0.0
 11
16.5683324354502
 21
213.3244832324496
 31
0.0
  0
LINE
  5
2BE
330
2BB
100
AcDbEntity
  8
SUNPO
 62
     0
370
    -2
100
AcDbLine
 10
24.5683324354502
 20
219.97063830028
 30
0.0
 11
16.5683324354502
 21
219.97063830028
 31
0.0
  0
LINE
  5
2BF
330
2BB
100
AcDbEntity
  8
SUNPO
 62
     0
370
    -2
100
AcDbLine
 10
18.5683324354502
 20
215.3244832324496
 30
0.0
 11
18.5683324354502
 21
217.97063830028
 31
0.0
  0
LINE
  5
2C0
330
2BB
100
AcDbEntity
  8
SUNPO
 62
     0
370
    -2
100
AcDbLine
 10
18.5683324354502
 20
219.97063830028
 30
0.0
 11
18.5683324354502
 21
229.6373049669467
 31
0.0
  0
INSERT
  5
2C1
330
2BB
100
AcDbEntity
  8
SUNPO
 62
     0
370
    -2
100
AcDbBlockReference
  2
_OPEN30
 10
18.5683324354502
 20
213.3244832324496
 30
0.0
 41
2.0
 42
2.0
 43
2.0
 50
270.0
  0
INSERT
  5
2C2
330
2BB
100
AcDbEntity
  8
SUNPO
 62
     0
370
    -2
100
AcDbBlockReference
  2
_OPEN30
 10
18.5683324354502
 20
219.97063830028
 30
0.0
 41
2.0
 42
2.0
 43
2.0
 50
90.0
  0
MTEXT
  5
2C3
330
2BB
100
AcDbEntity
  8
SUNPO
 62
     0
100
AcDbMText
 10
16.81833243545016
 20
225.8039716336134
 30
0.0
 40
2.5
 41
0.0
 71
     5
 72
     1
  1
\A1;133
 11
0.0000000000000001
 21
1.0
 31
0.0
 73
     1
 44
1.0
1001
ACAD
1000
MTEXTBEGIN
1070
    73
1070
     1
1070
    44
1040
1.0
1070
    74
1070
     0
1000
MTEXTEND
  0
POINT
  5
2C4
330
2BB
100
AcDbEntity
  8
DEFPOINTS
 62
     0
100
AcDbPoint
 10
26.5683324354502
 20
213.3244832324496
 30
0.0
  0
POINT
  5
2C5
330
2BB
100
AcDbEntity
  8
DEFPOINTS
 62
     0
100
AcDbPoint
 10
26.5683324354502
 20
219.97063830028
 30
0.0
  0
POINT
  5
2C6
330
2BB
100
AcDbEntity
  8
DEFPOINTS
 62
     0
100
AcDbPoint
 10
18.5683324354502
 20
219.97063830028
 30
0.0
  0
ENDBLK
  5
2C7
330
2BB
100
AcDbEntity
  8
0
100
AcDbBlockEnd
  0
BLOCK
  5
2AE
330
2AD
100
AcDbEntity
  8
0
100
AcDbBlockBegin
  2
*D4
 70
     1
 10
0.0
 20
0.0
 30
0.0
  3
*D4
  1

  0
LINE
  5
2AF
330
2AD
100
AcDbEntity
  8
SUNPO
 62
     0
370
    -2
100
AcDbLine
 10
24.5683324354502
 20
189.0744832324497
 30
0.0
 11
16.5683324354502
 21
189.0744832324497
 31
0.0
  0
LINE
  5
2B0
330
2AD
100
AcDbEntity
  8
SUNPO
 62
     0
370
    -2
100
AcDbLine
 10
24.5683324354502
 20
183.7783281646192
 30
0.0
 11
16.5683324354502
 21
183.7783281646192
 31
0.0
  0
LINE
  5
2B1
330
2AD
100
AcDbEntity
  8
SUNPO
 62
     0
370
    -2
100
AcDbLine
 10
18.5683324354502
 20
187.0744832324497
 30
0.0
 11
18.5683324354502
 21
185.7783281646192
 31
0.0
  0
LINE
  5
2B2
330
2AD
100
AcDbEntity
  8
SUNPO
 62
     0
370
    -2
100
AcDbLine
 10
18.5683324354502
 20
183.7783281646192
 30
0.0
 11
18.5683324354502
 21
174.1116614979526
 31
0.0
  0
INSERT
  5
2B3
330
2AD
100
AcDbEntity
  8
SUNPO
 62
     0
370
    -2
100
AcDbBlockReference
  2
_OPEN30
 10
18.5683324354502
 20
189.0744832324497
 30
0.0
 41
2.0
 42
2.0
 43
2.0
 50
90.0
  0
INSERT
  5
2B4
330
2AD
100
AcDbEntity
  8
SUNPO
 62
     0
370
    -2
100
AcDbBlockReference
  2
_OPEN30
 10
18.5683324354502
 20
183.7783281646192
 30
0.0
 41
2.0
 42
2.0
 43
2.0
 50
270.0
  0
MTEXT
  5
2B5
330
2AD
100
AcDbEntity
  8
SUNPO
 62
     0
100
AcDbMText
 10
16.81833243545017
 20
177.9449948312859
 30
0.0
 40
2.5
 41
0.0
 71
     5
 72
     1
  1
\A1;106
 11
0.0000000000000001
 21
1.0
 31
0.0
 73
     1
 44
1.0
1001
ACAD
1000
MTEXTBEGIN
1070
    73
1070
     1
1070
    44
1040
1.0
1070
    74
1070
     0
1000
MTEXTEND
  0
POINT
  5
2B6
330
2AD
100
AcDbEntity
  8
DEFPOINTS
 62
     0
100
AcDbPoint
 10
26.5683324354502
 20
189.0744832324497
 30
0.0
  0
POINT
  5
2B7
330
2AD
100
AcDbEntity
  8
DEFPOINTS
 62
     0
100
AcDbPoint
 10
26.5683324354502
 20
183.7783281646192
 30
0.0
  0
POINT
  5
2B8
330
2AD
100
AcDbEntity
  8
DEFPOINTS
 62
     0
100
AcDbPoint
 10
18.5683324354502
 20
183.7783281646192
 30
0.0
  0
ENDBLK
  5
2B9
330
2AD
100
AcDbEntity
  8
0
100
AcDbBlockEnd
  0
BLOCK
  5
2A1
330
2A0
100
AcDbEntity
  8
0
100
AcDbBlockBegin
  2
*D5
 70
     1
 10
0.0
 20
0.0
 30
0.0
  3
*D5
  1

  0
LINE
  5
2A2
330
2A0
100
AcDbEntity
  8
SUNPO
 62
     0
370
    -2
100
AcDbLine
 10
24.5683324354502
 20
213.3244832324496
 30
0.0
 11
16.5683324354502
 21
213.3244832324496
 31
0.0
  0
LINE
  5
2A3
330
2A0
100
AcDbEntity
  8
SUNPO
 62
     0
370
    -2
100
AcDbLine
 10
24.5683324354502
 20
189.0744832324497
 30
0.0
 11
16.5683324354502
 21
189.0744832324497
 31
0.0
  0
LINE
  5
2A4
330
2A0
100
AcDbEntity
  8
SUNPO
 62
     0
370
    -2
100
AcDbLine
 10
18.5683324354502
 20
211.3244832324496
 30
0.0
 11
18.5683324354502
 21
191.0744832324497
 31
0.0
  0
INSERT
  5
2A5
330
2A0
100
AcDbEntity
  8
SUNPO
 62
     0
370
    -2
100
AcDbBlockReference
  2
_OPEN30
 10
18.5683324354502
 20
213.3244832324496
 30
0.0
 41
2.0
 42
2.0
 43
2.0
 50
90.0
  0
INSERT
  5
2A6
330
2A0
100
AcDbEntity
  8
SUNPO
 62
     0
370
    -2
100
AcDbBlockReference
  2
_OPEN30
 10
18.5683324354502
 20
189.0744832324497
 30
0.0
 41
2.0
 42
2.0
 43
2.0
 50
270.0
  0
MTEXT
  5
2A7
330
2A0
100
AcDbEntity
  8
SUNPO
 62
     0
100
AcDbMText
 10
16.81833243545017
 20
201.1994832324496
 30
0.0
 40
2.5
 41
0.0
 71
     5
 72
     1
  1
\A1;485
 11
0.0000000000000001
 21
1.0
 31
0.0
 73
     1
 44
1.0
1001
ACAD
1000
MTEXTBEGIN
1070
    73
1070
     1
1070
    44
1040
1.0
1070
    74
1070
     0
1000
MTEXTEND
  0
POINT
  5
2A8
330
2A0
100
AcDbEntity
  8
DEFPOINTS
 62
     0
100
AcDbPoint
 10
26.5683324354502
 20
213.3244832324496
 30
0.0
  0
POINT
  5
2A9
330
2A0
100
AcDbEntity
  8
DEFPOINTS
 62
     0
100
AcDbPoint
 10
26.5683324354502
 20
189.0744832324497
 30
0.0
  0
POINT
  5
2AA
330
2A0
100
AcDbEntity
  8
DEFPOINTS
 62
     0
100
AcDbPoint
 10
18.5683324354502
 20
189.0744832324497
 30
0.0
  0
ENDBLK
  5
2AB
330
2A0
100
AcDbEntity
  8
0
100
AcDbBlockEnd
  0
BLOCK
  5
293
330
292
100
AcDbEntity
  8
0
100
AcDbBlockBegin
  2
*D6
 70
     1
 10
0.0
 20
0.0
 30
0.0
  3
*D6
  1

  0
LINE
  5
294
330
292
100
AcDbEntity
  8
SUNPO
 62
     0
370
    -2
100
AcDbLine
 10
43.21724355466336
 20
181.7091672539628
 30
0.0
 11
43.21724355466336
 21
173.7091672539628
 31
0.0
  0
LINE
  5
295
330
292
100
AcDbEntity
  8
SUNPO
 62
     0
370
    -2
100
AcDbLine
 10
70.71724355466336
 20
181.7091672539628
 30
0.0
 11
70.71724355466336
 21
173.7091672539628
 31
0.0
  0
LINE
  5
296
330
292
100
AcDbEntity
  8
SUNPO
 62
     0
370
    -2
100
AcDbLine
 10
45.21724355466337
 20
175.7091672539628
 30
0.0
 11
68.71724355466337
 21
175.7091672539628
 31
0.0
  0
INSERT
  5
297
330
292
100
AcDbEntity
  8
SUNPO
 62
     0
370
    -2
100
AcDbBlockReference
  2
_OPEN30
 10
43.21724355466336
 20
175.7091672539628
 30
0.0
 41
2.0
 42
2.0
 43
2.0
 50
180.0
  0
INSERT
  5
298
330
292
100
AcDbEntity
  8
SUNPO
 62
     0
370
    -2
100
AcDbBlockReference
  2
_OPEN30
 10
70.71724355466336
 20
175.7091672539628
 30
0.0
 41
2.0
 42
2.0
 43
2.0
  0
MTEXT
  5
299
330
292
100
AcDbEntity
  8
SUNPO
 62
     0
100
AcDbMText
 10
56.96724355466336
 20
177.4591672539628
 30
0.0
 40
2.5
 41
0.0
 71
     5
 72
     1
  1
\A1;550
 73
     1
 44
1.0
1001
ACAD
1000
MTEXTBEGIN
1070
    73
1070
     1
1070
    44
1040
1.0
1070
    74
1070
     0
1000
MTEXTEND
  0
POINT
  5
29A
330
292
100
AcDbEntity
  8
DEFPOINTS
 62
     0
100
AcDbPoint
 10
43.21724355466336
 20
183.7091672539628
 30
0.0
  0
POINT
  5
29C
330
292
100
AcDbEntity
  8
DEFPOINTS
 62
     0
100
AcDbPoint
 10
70.71724355466336
 20
183.7091672539628
 30
0.0
  0
POINT
  5
29D
330
292
100
AcDbEntity
  8
DEFPOINTS
 62
     0
100
AcDbPoint
 10
70.71724355466336
 20
175.7091672539628
 30
0.0
  0
ENDBLK
  5
29E
330
292
100
AcDbEntity
  8
0
100
AcDbBlockEnd
  0
BLOCK
  5
55C
330
552
100
AcDbEntity
  8
0
100
AcDbBlockBegin
  2
*D7
 70
     1
 10
0.0
 20
0.0
 30
0.0
  3
*D7
  1

  0
LINE
  5
553
330
552
100
AcDbEntity
  8
SUNPO
 62
     0
370
    -2
100
AcDbLine
 10
22.76946750074575
 20
1.161565983930614
 30
0.0
 11
30.76946750074574
 21
1.161565983930611
 31
0.0
  0
LINE
  5
554
330
552
100
AcDbEntity
  8
SUNPO
 62
     0
370
    -2
100
AcDbLine
 10
22.76946750074572
 20
37.35387611959144
 30
0.0
 11
30.76946750074575
 21
37.35387611959144
 31
0.0
  0
LINE
  5
555
330
552
100
AcDbEntity
  8
SUNPO
 62
     0
370
    -2
100
AcDbLine
 10
28.76946750074574
 20
3.161565983930612
 30
0.0
 11
28.76946750074575
 21
35.35387611959143
 31
0.0
  0
INSERT
  5
556
330
552
100
AcDbEntity
  8
SUNPO
 62
     0
370
    -2
100
AcDbBlockReference
  2
_OPEN30
 10
28.76946750074574
 20
1.161565983930612
 30
0.0
 41
2.0
 42
2.0
 43
2.0
 50
270.0
  0
INSERT
  5
557
330
552
100
AcDbEntity
  8
SUNPO
 62
     0
370
    -2
100
AcDbBlockReference
  2
_OPEN30
 10
28.76946750074575
 20
37.35387611959144
 30
0.0
 41
2.0
 42
2.0
 43
2.0
 50
90.0
  0
MTEXT
  5
558
330
552
100
AcDbEntity
  8
SUNPO
 62
     0
100
AcDbMText
 10
27.01946750074574
 20
19.25772105176103
 30
0.0
 40
2.5
 41
0.0
 71
     5
 72
     1
  1
\A1;724
 11
0.0000000000000001
 21
1.0
 31
0.0
 73
     1
 44
1.0
1001
ACAD
1000
MTEXTBEGIN
1070
    73
1070
     1
1070
    44
1040
1.0
1070
    74
1070
     0
1000
MTEXTEND
  0
POINT
  5
559
330
552
100
AcDbEntity
  8
DEFPOINTS
 62
     0
100
AcDbPoint
 10
20.76946750074575
 20
1.161565983930614
 30
0.0
  0
POINT
  5
55A
330
552
100
AcDbEntity
  8
DEFPOINTS
 62
     0
100
AcDbPoint
 10
20.76946750074572
 20
37.35387611959144
 30
0.0
  0
POINT
  5
55B
330
552
100
AcDbEntity
  8
DEFPOINTS
 62
     0
100
AcDbPoint
 10
28.76946750074575
 20
37.35387611959144
 30
0.0
  0
ENDBLK
  5
55D
330
552
100
AcDbEntity
  8
0
100
AcDbBlockEnd
  0
BLOCK
  5
568
330
55E
100
AcDbEntity
  8
0
100
AcDbBlockBegin
  2
*D8
 70
     1
 10
0.0
 20
0.0
 30
0.0
  3
*D8
  1

  0
LINE
  5
55F
330
55E
100
AcDbEntity
  8
SUNPO
 62
     0
370
    -2
100
AcDbLine
 10
-39.29076728532649
 20
39.3535896752401
 30
0.0
 11
-39.29076728532649
 21
47.35358967524009
 31
0.0
  0
LINE
  5
560
330
55E
100
AcDbEntity
  8
SUNPO
 62
     0
370
    -2
100
AcDbLine
 10
21.20923269047342
 20
39.3535896752401
 30
0.0
 11
21.20923269047342
 21
47.35358967524009
 31
0.0
  0
LINE
  5
561
330
55E
100
AcDbEntity
  8
SUNPO
 62
     0
370
    -2
100
AcDbLine
 10
-37.2907672853265
 20
45.3535896752401
 30
0.0
 11
19.20923269047341
 21
45.3535896752401
 31
0.0
  0
INSERT
  5
562
330
55E
100
AcDbEntity
  8
SUNPO
 62
     0
370
    -2
100
AcDbBlockReference
  2
_OPEN30
 10
-39.29076728532649
 20
45.3535896752401
 30
0.0
 41
2.0
 42
2.0
 43
2.0
 50
180.0
  0
INSERT
  5
563
330
55E
100
AcDbEntity
  8
SUNPO
 62
     0
370
    -2
100
AcDbBlockReference
  2
_OPEN30
 10
21.20923269047342
 20
45.3535896752401
 30
0.0
 41
2.0
 42
2.0
 43
2.0
  0
MTEXT
  5
564
330
55E
100
AcDbEntity
  8
SUNPO
 62
     0
100
AcDbMText
 10
-9.04076729742654
 20
47.1035896752401
 30
0.0
 40
2.5
 41
0.0
 71
     5
 72
     1
  1
\A1;1210
 73
     1
 44
1.0
1001
ACAD
1000
MTEXTBEGIN
1070
    73
1070
     1
1070
    44
1040
1.0
1070
    74
1070
     0
1000
MTEXTEND
  0
POINT
  5
565
330
55E
100
AcDbEntity
  8
DEFPOINTS
 62
     0
100
AcDbPoint
 10
-39.29076728532649
 20
37.3535896752401
 30
0.0
  0
POINT
  5
566
330
55E
100
AcDbEntity
  8
DEFPOINTS
 62
     0
100
AcDbPoint
 10
21.20923269047342
 20
37.3535896752401
 30
0.0
  0
POINT
  5
567
330
55E
100
AcDbEntity
  8
DEFPOINTS
 62
     0
100
AcDbPoint
 10
21.20923269047342
 20
45.3535896752401
 30
0.0
  0
ENDBLK
  5
569
330
55E
100
AcDbEntity
  8
0
100
AcDbBlockEnd
  0
BLOCK
  5
575
330
56A
100
AcDbEntity
  8
0
100
AcDbBlockBegin
  2
*D9
 70
     1
 10
0.0
 20
0.0
 30
0.0
  3
*D9
  1

  0
LINE
  5
56B
330
56A
100
AcDbEntity
  8
SUNPO
 62
     0
370
    -2
100
AcDbLine
 10
-41.43967841663971
 20
30.70772105176102
 30
0.0
 11
-49.43967841663971
 21
30.70772105176102
 31
0.0
  0
LINE
  5
56C
330
56A
100
AcDbEntity
  8
SUNPO
 62
     0
370
    -2
100
AcDbLine
 10
-41.43967841663971
 20
37.35387611959144
 30
0.0
 11
-49.43967841663971
 21
37.35387611959144
 31
0.0
  0
LINE
  5
56D
330
56A
100
AcDbEntity
  8
SUNPO
 62
     0
370
    -2
100
AcDbLine
 10
-47.43967841663971
 20
32.70772105176102
 30
0.0
 11
-47.43967841663971
 21
35.35387611959143
 31
0.0
  0
LINE
  5
56E
330
56A
100
AcDbEntity
  8
SUNPO
 62
     0
370
    -2
100
AcDbLine
 10
-47.43967841663971
 20
37.35387611959144
 30
0.0
 11
-47.43967841663971
 21
47.02054278625809
 31
0.0
  0
INSERT
  5
56F
330
56A
100
AcDbEntity
  8
SUNPO
 62
     0
370
    -2
100
AcDbBlockReference
  2
_OPEN30
 10
-47.43967841663971
 20
30.70772105176102
 30
0.0
 41
2.0
 42
2.0
 43
2.0
 50
270.0
  0
INSERT
  5
570
330
56A
100
AcDbEntity
  8
SUNPO
 62
     0
370
    -2
100
AcDbBlockReference
  2
_OPEN30
 10
-47.43967841663971
 20
37.35387611959144
 30
0.0
 41
2.0
 42
2.0
 43
2.0
 50
90.0
  0
MTEXT
  5
571
330
56A
100
AcDbEntity
  8
SUNPO
 62
     0
100
AcDbMText
 10
-49.18967841663971
 20
43.18720945292476
 30
0.0
 40
2.5
 41
0.0
 71
     5
 72
     1
  1
\A1;133
 11
0.0000000000000001
 21
1.0
 31
0.0
 73
     1
 44
1.0
1001
ACAD
1000
MTEXTBEGIN
1070
    73
1070
     1
1070
    44
1040
1.0
1070
    74
1070
     0
1000
MTEXTEND
  0
POINT
  5
572
330
56A
100
AcDbEntity
  8
DEFPOINTS
 62
     0
100
AcDbPoint
 10
-39.43967841663971
 20
30.70772105176101
 30
0.0
  0
POINT
  5
573
330
56A
100
AcDbEntity
  8
DEFPOINTS
 62
     0
100
AcDbPoint
 10
-39.43967841663971
 20
37.35387611959144
 30
0.0
  0
POINT
  5
574
330
56A
100
AcDbEntity
  8
DEFPOINTS
 62
     0
100
AcDbPoint
 10
-47.43967841663971
 20
37.35387611959144
 30
0.0
  0
ENDBLK
  5
576
330
56A
100
AcDbEntity
  8
0
100
AcDbBlockEnd
  0
BLOCK
  5
582
330
577
100
AcDbEntity
  8
0
100
AcDbBlockBegin
  2
*D10
 70
     1
 10
0.0
 20
0.0
 30
0.0
  3
*D10
  1

  0
LINE
  5
578
330
577
100
AcDbEntity
  8
SUNPO
 62
     0
370
    -2
100
AcDbLine
 10
-41.43967841663971
 20
6.457721051761069
 30
0.0
 11
-49.43967841663971
 21
6.457721051761072
 31
0.0
  0
LINE
  5
579
330
577
100
AcDbEntity
  8
SUNPO
 62
     0
370
    -2
100
AcDbLine
 10
-41.43967841663971
 20
1.161565983930615
 30
0.0
 11
-49.43967841663971
 21
1.161565983930617
 31
0.0
  0
LINE
  5
57A
330
577
100
AcDbEntity
  8
SUNPO
 62
     0
370
    -2
100
AcDbLine
 10
-47.43967841663971
 20
4.457721051761072
 30
0.0
 11
-47.43967841663971
 21
3.161565983930617
 31
0.0
  0
LINE
  5
57B
330
577
100
AcDbEntity
  8
SUNPO
 62
     0
370
    -2
100
AcDbLine
 10
-47.43967841663971
 20
1.161565983930616
 30
0.0
 11
-47.43967841663971
 21
-8.505100682736049
 31
0.0
  0
INSERT
  5
57C
330
577
100
AcDbEntity
  8
SUNPO
 62
     0
370
    -2
100
AcDbBlockReference
  2
_OPEN30
 10
-47.43967841663971
 20
6.457721051761072
 30
0.0
 41
2.0
 42
2.0
 43
2.0
 50
90.0
  0
INSERT
  5
57D
330
577
100
AcDbEntity
  8
SUNPO
 62
     0
370
    -2
100
AcDbBlockReference
  2
_OPEN30
 10
-47.43967841663971
 20
1.161565983930616
 30
0.0
 41
2.0
 42
2.0
 43
2.0
 50
270.0
  0
MTEXT
  5
57E
330
577
100
AcDbEntity
  8
SUNPO
 62
     0
100
AcDbMText
 10
-49.1896784166397
 20
-4.671767349402723
 30
0.0
 40
2.5
 41
0.0
 71
     5
 72
     1
  1
\A1;106
 11
0.0000000000000001
 21
1.0
 31
0.0
 73
     1
 44
1.0
1001
ACAD
1000
MTEXTBEGIN
1070
    73
1070
     1
1070
    44
1040
1.0
1070
    74
1070
     0
1000
MTEXTEND
  0
POINT
  5
57F
330
577
100
AcDbEntity
  8
DEFPOINTS
 62
     0
100
AcDbPoint
 10
-39.43967841663971
 20
6.457721051761069
 30
0.0
  0
POINT
  5
580
330
577
100
AcDbEntity
  8
DEFPOINTS
 62
     0
100
AcDbPoint
 10
-39.43967841663971
 20
1.161565983930614
 30
0.0
  0
POINT
  5
581
330
577
100
AcDbEntity
  8
DEFPOINTS
 62
     0
100
AcDbPoint
 10
-47.43967841663971
 20
1.161565983930616
 30
0.0
  0
ENDBLK
  5
583
330
577
100
AcDbEntity
  8
0
100
AcDbBlockEnd
  0
BLOCK
  5
58E
330
584
100
AcDbEntity
  8
0
100
AcDbBlockBegin
  2
*D11
 70
     1
 10
0.0
 20
0.0
 30
0.0
  3
*D11
  1

  0
LINE
  5
585
330
584
100
AcDbEntity
  8
SUNPO
 62
     0
370
    -2
100
AcDbLine
 10
-41.43967841663971
 20
30.70772105176099
 30
0.0
 11
-49.4396784166397
 21
30.70772105176099
 31
0.0
  0
LINE
  5
586
330
584
100
AcDbEntity
  8
SUNPO
 62
     0
370
    -2
100
AcDbLine
 10
-41.43967841663971
 20
6.457721051761069
 30
0.0
 11
-49.43967841663971
 21
6.457721051761072
 31
0.0
  0
LINE
  5
587
330
584
100
AcDbEntity
  8
SUNPO
 62
     0
370
    -2
100
AcDbLine
 10
-47.4396784166397
 20
28.70772105176099
 30
0.0
 11
-47.43967841663971
 21
8.457721051761073
 31
0.0
  0
INSERT
  5
588
330
584
100
AcDbEntity
  8
SUNPO
 62
     0
370
    -2
100
AcDbBlockReference
  2
_OPEN30
 10
-47.4396784166397
 20
30.70772105176099
 30
0.0
 41
2.0
 42
2.0
 43
2.0
 50
90.0
  0
INSERT
  5
589
330
584
100
AcDbEntity
  8
SUNPO
 62
     0
370
    -2
100
AcDbBlockReference
  2
_OPEN30
 10
-47.43967841663971
 20
6.457721051761072
 30
0.0
 41
2.0
 42
2.0
 43
2.0
 50
270.0
  0
MTEXT
  5
58A
330
584
100
AcDbEntity
  8
SUNPO
 62
     0
100
AcDbMText
 10
-49.1896784166397
 20
18.58272105176102
 30
0.0
 40
2.5
 41
0.0
 71
     5
 72
     1
  1
\A1;485
 11
0.0000000000000001
 21
1.0
 31
0.0
 73
     1
 44
1.0
1001
ACAD
1000
MTEXTBEGIN
1070
    73
1070
     1
1070
    44
1040
1.0
1070
    74
1070
     0
1000
MTEXTEND
  0
POINT
  5
58B
330
584
100
AcDbEntity
  8
DEFPOINTS
 62
     0
100
AcDbPoint
 10
-39.43967841663971
 20
30.70772105176099
 30
0.0
  0
POINT
  5
58C
330
584
100
AcDbEntity
  8
DEFPOINTS
 62
     0
100
AcDbPoint
 10
-39.43967841663971
 20
6.457721051761069
 30
0.0
  0
POINT
  5
58D
330
584
100
AcDbEntity
  8
DEFPOINTS
 62
     0
100
AcDbPoint
 10
-47.43967841663971
 20
6.457721051761072
 30
0.0
  0
ENDBLK
  5
58F
330
584
100
AcDbEntity
  8
0
100
AcDbBlockEnd
  0
BLOCK
  5
59A
330
590
100
AcDbEntity
  8
0
100
AcDbBlockBegin
  2
*D12
 70
     1
 10
0.0
 20
0.0
 30
0.0
  3
*D12
  1

  0
LINE
  5
591
330
590
100
AcDbEntity
  8
SUNPO
 62
     0
370
    -2
100
AcDbLine
 10
-22.79076729742654
 20
-0.9075949267258351
 30
0.0
 11
-22.79076729742654
 21
-8.907594926725806
 31
0.0
  0
LINE
  5
592
330
590
100
AcDbEntity
  8
SUNPO
 62
     0
370
    -2
100
AcDbLine
 10
4.709232702573459
 20
-0.9075949267258067
 30
0.0
 11
4.709232702573458
 21
-8.907594926725806
 31
0.0
  0
LINE
  5
593
330
590
100
AcDbEntity
  8
SUNPO
 62
     0
370
    -2
100
AcDbLine
 10
-20.79076729742654
 20
-6.907594926725806
 30
0.0
 11
2.709232702573458
 21
-6.907594926725806
 31
0.0
  0
INSERT
  5
594
330
590
100
AcDbEntity
  8
SUNPO
 62
     0
370
    -2
100
AcDbBlockReference
  2
_OPEN30
 10
-22.79076729742654
 20
-6.907594926725806
 30
0.0
 41
2.0
 42
2.0
 43
2.0
 50
180.0
  0
INSERT
  5
595
330
590
100
AcDbEntity
  8
SUNPO
 62
     0
370
    -2
100
AcDbBlockReference
  2
_OPEN30
 10
4.709232702573458
 20
-6.907594926725806
 30
0.0
 41
2.0
 42
2.0
 43
2.0
  0
MTEXT
  5
596
330
590
100
AcDbEntity
  8
SUNPO
 62
     0
100
AcDbMText
 10
-9.04076729742654
 20
-5.157594926725806
 30
0.0
 40
2.5
 41
0.0
 71
     5
 72
     1
  1
\A1;550
 73
     1
 44
1.0
1001
ACAD
1000
MTEXTBEGIN
1070
    73
1070
     1
1070
    44
1040
1.0
1070
    74
1070
     0
1000
MTEXTEND
  0
POINT
  5
597
330
590
100
AcDbEntity
  8
DEFPOINTS
 62
     0
100
AcDbPoint
 10
-22.79076729742654
 20
1.092405073274164
 30
0.0
  0
POINT
  5
598
330
590
100
AcDbEntity
  8
DEFPOINTS
 62
     0
100
AcDbPoint
 10
4.709232702573459
 20
1.092405073274193
 30
0.0
  0
POINT
  5
599
330
590
100
AcDbEntity
  8
DEFPOINTS
 62
     0
100
AcDbPoint
 10
4.709232702573458
 20
-6.907594926725806
 30
0.0
  0
ENDBLK
  5
59B
330
590
100
AcDbEntity
  8
0
100
AcDbBlockEnd
  0
ENDSEC
  0
SECTION
  2
ENTITIES
  0
TEXT
  5
30
330
2
100
AcDbEntity
  8
TOUROKU
100
AcDbText
 10
16.82527245821194
 20
51.88407294424587
 30
0.0
 40
2.0
  1
ＴＨ５０ＰＦ３０＋ＴＹＷＫ４２ＰＶ２０
 72
     2
 11
61.49193912487858
 21
51.88407294424587
 31
0.0
100
AcDbText
  0
TEXT
  5
32
330
2
100
AcDbEntity
  8
MOJI1
100
AcDbText
 10
-36.50801090804904
 20
57.88407294424636
 30
0.0
 40
4.0
  1
ハイビジョンプラズマディスプレイ壁掛け金具付
 41
0.93
100
AcDbText
  0
TEXT
  5
34
330
2
100
AcDbEntity
  8
MOJI1
100
AcDbText
 10
-22.00801090804896
 20
-45.11592705575378
 30
0.0
 40
3.0
  1
ＤＶＩ－Ｄ入力、ＰＣ入力、ＬＡＮ、ＲＳ２３２Ｃ、音声入力
 41
0.8
100
AcDbText
  0
TEXT
  5
35
330
2
100
AcDbEntity
  8
MOJI1
100
AcDbText
 10
-22.00801090804896
 20
-50.24177945943472
 30
0.0
 40
3.0
  1
本体：約３３．０ ｋｇ、金具：約４ ｋｇ
100
AcDbText
  0
TEXT
  5
36
330
2
100
AcDbEntity
  8
MOJI1
100
AcDbText
 10
-22.00801090804896
 20
-40.11592705575378
 30
0.0
 40
3.0
  1
ビデオ入力、ＲＧＢ／コンポーネントビデオ入力、ＨＤＭＩ入力
 41
0.7800000000000001
100
AcDbText
  0
LINE
  5
37
330
2
100
AcDbEntity
  8
KIJUN
  6
S130
100
AcDbLine
 10
-3.562992836361217
 20
19.25772105176102
 30
0.0
 11
-14.51854175849186
 21
19.25772105176102
 31
0.0
  0
LINE
  5
3B
330
2
100
AcDbEntity
  8
KIJUN
  6
S130
100
AcDbLine
 10
-9.04076729742654
 20
24.73549551282633
 30
0.0
 11
-9.04076729742654
 21
13.77994659069571
 31
0.0
  0
LINE
  5
3C
330
2
100
AcDbEntity
  8
S1
  6
HIDDEN2
 62
     3
100
AcDbLine
 10
-19.04076729742654
 20
10.20782065176104
 30
0.0
 11
-19.04076729742654
 21
28.92096805176101
 31
0.0
  0
LINE
  5
3F
330
2
100
AcDbEntity
  8
S1
  6
HIDDEN2
 62
     3
100
AcDbLine
 10
0.959232702573459
 20
10.20782065176104
 30
0.0
 11
0.959232702573459
 21
28.92096805176101
 31
0.0
  0
LINE
  5
40
330
2
100
AcDbEntity
  8
S1
  6
HIDDEN2
 62
     3
100
AcDbLine
 10
-20.26865574742656
 20
11.75772105176102
 30
0.0
 11
2.309830302573473
 21
11.75772105176102
 31
0.0
  0
LINE
  5
41
330
2
100
AcDbEntity
  8
S1
  6
HIDDEN2
 62
     3
100
AcDbLine
 10
-20.26865574742656
 20
26.75772105176103
 30
0.0
 11
2.309830302573473
 21
26.75772105176103
 31
0.0
  0
CIRCLE
  5
42
330
2
100
AcDbEntity
  8
S1
  6
HIDDEN2
 62
     3
100
AcDbCircle
 10
0.959232702573459
 20
11.75772105176102
 30
0.0
 40
0.2
  0
CIRCLE
  5
43
330
2
100
AcDbEntity
  8
S1
  6
HIDDEN2
 62
     3
100
AcDbCircle
 10
0.959232702573459
 20
11.75772105176102
 30
0.0
 40
0.425
  0
CIRCLE
  5
44
330
2
100
AcDbEntity
  8
S1
  6
HIDDEN2
 62
     3
100
AcDbCircle
 10
0.959232702573459
 20
11.75772105176102
 30
0.0
 40
0.6000000000000001
  0
CIRCLE
  5
45
330
2
100
AcDbEntity
  8
S1
  6
HIDDEN2
 62
     3
100
AcDbCircle
 10
0.959232702573459
 20
11.75772105176102
 30
0.0
 40
0.325
  0
CIRCLE
  5
46
330
2
100
AcDbEntity
  8
S1
  6
HIDDEN2
 62
     3
100
AcDbCircle
 10
0.959232702573459
 20
11.75772105176102
 30
0.0
 40
0.5
  0
CIRCLE
  5
47
330
2
100
AcDbEntity
  8
S1
  6
HIDDEN2
 62
     3
100
AcDbCircle
 10
0.959232702573459
 20
26.75772105176103
 30
0.0
 40
0.2
  0
CIRCLE
  5
48
330
2
100
AcDbEntity
  8
S1
  6
HIDDEN2
 62
     3
100
AcDbCircle
 10
0.959232702573459
 20
26.75772105176103
 30
0.0
 40
0.425
  0
CIRCLE
  5
49
330
2
100
AcDbEntity
  8
S1
  6
HIDDEN2
 62
     3
100
AcDbCircle
 10
0.959232702573459
 20
26.75772105176103
 30
0.0
 40
0.6000000000000001
  0
CIRCLE
  5
4A
330
2
100
AcDbEntity
  8
S1
  6
HIDDEN2
 62
     3
100
AcDbCircle
 10
0.959232702573459
 20
26.75772105176103
 30
0.0
 40
0.325
  0
CIRCLE
  5
4B
330
2
100
AcDbEntity
  8
S1
  6
HIDDEN2
 62
     3
100
AcDbCircle
 10
0.959232702573459
 20
26.75772105176103
 30
0.0
 40
0.5
  0
CIRCLE
  5
4C
330
2
100
AcDbEntity
  8
S1
  6
HIDDEN2
 62
     3
100
AcDbCircle
 10
-19.04076729742654
 20
26.75772105176103
 30
0.0
 40
0.2
  0
CIRCLE
  5
4D
330
2
100
AcDbEntity
  8
S1
  6
HIDDEN2
 62
     3
100
AcDbCircle
 10
-19.04076729742654
 20
26.75772105176103
 30
0.0
 40
0.425
  0
CIRCLE
  5
4E
330
2
100
AcDbEntity
  8
S1
  6
HIDDEN2
 62
     3
100
AcDbCircle
 10
-19.04076729742654
 20
26.75772105176103
 30
0.0
 40
0.6000000000000001
  0
CIRCLE
  5
4F
330
2
100
AcDbEntity
  8
S1
  6
HIDDEN2
 62
     3
100
AcDbCircle
 10
-19.04076729742654
 20
26.75772105176103
 30
0.0
 40
0.325
  0
CIRCLE
  5
50
330
2
100
AcDbEntity
  8
S1
  6
HIDDEN2
 62
     3
100
AcDbCircle
 10
-19.04076729742654
 20
26.75772105176103
 30
0.0
 40
0.5
  0
CIRCLE
  5
51
330
2
100
AcDbEntity
  8
S1
  6
HIDDEN2
 62
     3
100
AcDbCircle
 10
-19.04076729742654
 20
11.75772105176102
 30
0.0
 40
0.2
  0
CIRCLE
  5
52
330
2
100
AcDbEntity
  8
S1
  6
HIDDEN2
 62
     3
100
AcDbCircle
 10
-19.04076729742654
 20
11.75772105176102
 30
0.0
 40
0.425
  0
CIRCLE
  5
53
330
2
100
AcDbEntity
  8
S1
  6
HIDDEN2
 62
     3
100
AcDbCircle
 10
-19.04076729742654
 20
11.75772105176102
 30
0.0
 40
0.6000000000000001
  0
CIRCLE
  5
54
330
2
100
AcDbEntity
  8
S1
  6
HIDDEN2
 62
     3
100
AcDbCircle
 10
-19.04076729742654
 20
11.75772105176102
 30
0.0
 40
0.325
  0
CIRCLE
  5
55
330
2
100
AcDbEntity
  8
S1
  6
HIDDEN2
 62
     3
100
AcDbCircle
 10
-19.04076729742654
 20
11.75772105176102
 30
0.0
 40
0.5
  0
LINE
  5
56
330
2
100
AcDbEntity
  8
S1
  6
HIDDEN2
 62
     3
100
AcDbLine
 10
-20.79076729742654
 20
11.08272105176101
 30
0.0
 11
-20.44076729742652
 21
11.08272105176101
 31
0.0
  0
LINE
  5
57
330
2
100
AcDbEntity
  8
S1
  6
HIDDEN2
 62
     3
100
AcDbLine
 10
-20.79076729742654
 20
9.532721051761001
 30
0.0
 11
-20.44076729742652
 21
9.532721051761001
 31
0.0
  0
LINE
  5
58
330
2
100
AcDbEntity
  8
S1
  6
HIDDEN2
 62
     3
100
AcDbLine
 10
-20.19076729742652
 20
9.782721051761001
 30
0.0
 11
-20.19076729742652
 21
10.83272105176101
 31
0.0
  0
LINE
  5
59
330
2
100
AcDbEntity
  8
S1
  6
HIDDEN2
 62
     3
100
AcDbLine
 10
-19.84830824742651
 20
10.96542585176101
 30
0.0
 11
-19.92449684742654
 21
11.13511865176102
 31
0.0
  0
LINE
  5
5A
330
2
100
AcDbEntity
  8
S1
  6
HIDDEN2
 62
     3
100
AcDbLine
 10
-19.84830824742651
 20
9.650016251761002
 30
0.0
 11
-19.92449684742654
 21
9.480323451761023
 31
0.0
  0
ARC
  5
5B
330
2
100
AcDbEntity
  8
S1
  6
HIDDEN2
 62
     3
100
AcDbCircle
 10
-19.39217344742654
 20
11.17022105176102
 30
0.0
 40
0.5
100
AcDbArc
 50
204.1791069999861
 51
270.0
  0
ARC
  5
5C
330
2
100
AcDbEntity
  8
S1
  6
HIDDEN2
 62
     3
100
AcDbCircle
 10
-19.39217344742654
 20
9.445221051761024
 30
0.0
 40
0.5
100
AcDbArc
 50
90.0
 51
155.8208930000139
  0
ARC
  5
5D
330
2
100
AcDbEntity
  8
S1
  6
HIDDEN2
 62
     3
100
AcDbCircle
 10
-20.15256419742654
 20
11.032721051761
 30
0.0
 40
0.25
100
AcDbArc
 50
24.17910699998612
 51
90.0
  0
ARC
  5
5E
330
2
100
AcDbEntity
  8
S1
  6
HIDDEN2
 62
     3
100
AcDbCircle
 10
-20.15256419742654
 20
9.582721051761012
 30
0.0
 40
0.25
100
AcDbArc
 50
270.0
 51
335.8208930000139
  0
ARC
  5
5F
330
2
100
AcDbEntity
  8
S1
  6
HIDDEN2
 62
     3
100
AcDbCircle
 10
-20.44076729742652
 20
9.782721051761001
 30
0.0
 40
0.25
100
AcDbArc
 50
270.0
 51
0.0
  0
ARC
  5
60
330
2
100
AcDbEntity
  8
S1
  6
HIDDEN2
 62
     3
100
AcDbCircle
 10
-20.44076729742652
 20
10.83272105176101
 30
0.0
 40
0.25
100
AcDbArc
 50
0.0
 51
90.0
  0
LINE
  5
61
330
2
100
AcDbEntity
  8
S1
  6
HIDDEN2
 62
     3
100
AcDbLine
 10
-20.79076729742654
 20
9.332721051761012
 30
0.0
 11
-20.15256419742654
 21
9.332721051761012
 31
0.0
  0
LINE
  5
62
330
2
100
AcDbEntity
  8
S1
  6
HIDDEN2
 62
     3
100
AcDbLine
 10
-20.79076729742654
 20
11.282721051761
 30
0.0
 11
-20.15256419742654
 21
11.282721051761
 31
0.0
  0
ARC
  5
63
330
2
100
AcDbEntity
  8
S1
  6
HIDDEN2
 62
     3
100
AcDbCircle
 10
-18.41576729742654
 20
10.27022105176101
 30
0.0
 40
0.325
100
AcDbArc
 50
270.0
 51
0.0
  0
ARC
  5
64
330
2
100
AcDbEntity
  8
S1
  6
HIDDEN2
 62
     3
100
AcDbCircle
 10
-18.41576729742654
 20
10.345221051761
 30
0.0
 40
0.325
100
AcDbArc
 50
0.0
 51
90.0
  0
LINE
  5
65
330
2
100
AcDbEntity
  8
S1
  6
HIDDEN2
 62
     3
100
AcDbLine
 10
-18.41576729742654
 20
10.67022105176102
 30
0.0
 11
-19.39217344742654
 21
10.67022105176102
 31
0.0
  0
LINE
  5
66
330
2
100
AcDbEntity
  8
S1
  6
HIDDEN2
 62
     3
100
AcDbLine
 10
-18.41576729742654
 20
9.945221051761024
 30
0.0
 11
-19.39217344742654
 21
9.945221051761024
 31
0.0
  0
ARC
  5
67
330
2
100
AcDbEntity
  8
S1
  6
HIDDEN2
 62
     3
100
AcDbCircle
 10
-20.15256419742654
 20
24.58272105176102
 30
0.0
 40
0.25
100
AcDbArc
 50
270.0
 51
335.8208930000139
  0
ARC
  5
68
330
2
100
AcDbEntity
  8
S1
  6
HIDDEN2
 62
     3
100
AcDbCircle
 10
-20.15256419742654
 20
26.032721051761
 30
0.0
 40
0.25
100
AcDbArc
 50
24.17910699998612
 51
90.0
  0
ARC
  5
69
330
2
100
AcDbEntity
  8
S1
  6
HIDDEN2
 62
     3
100
AcDbCircle
 10
-19.39217344742654
 20
24.44522105176103
 30
0.0
 40
0.5
100
AcDbArc
 50
90.0
 51
155.8208930000139
  0
ARC
  5
6A
330
2
100
AcDbEntity
  8
S1
  6
HIDDEN2
 62
     3
100
AcDbCircle
 10
-19.39217344742654
 20
26.17022105176102
 30
0.0
 40
0.5
100
AcDbArc
 50
204.1791069999861
 51
270.0
  0
LINE
  5
6B
330
2
100
AcDbEntity
  8
S1
  6
HIDDEN2
 62
     3
100
AcDbLine
 10
-19.84830824742651
 20
24.650016251761
 30
0.0
 11
-19.92449684742654
 21
24.48032345176102
 31
0.0
  0
LINE
  5
6C
330
2
100
AcDbEntity
  8
S1
  6
HIDDEN2
 62
     3
100
AcDbLine
 10
-19.84830824742651
 20
25.96542585176101
 30
0.0
 11
-19.92449684742654
 21
26.13511865176102
 31
0.0
  0
ARC
  5
6D
330
2
100
AcDbEntity
  8
S1
  6
HIDDEN2
 62
     3
100
AcDbCircle
 10
-18.11576729742658
 20
28.365080451761
 30
0.0
 40
0.05
100
AcDbArc
 50
294.179106999997
 51
0.0
  0
ARC
  5
6E
330
2
100
AcDbEntity
  8
S1
  6
HIDDEN2
 62
     3
100
AcDbCircle
 10
-19.96576729742655
 20
28.365080451761
 30
0.0
 40
0.05
100
AcDbArc
 50
180.0
 51
245.820893000003
  0
ARC
  5
6F
330
2
100
AcDbEntity
  8
S1
  6
HIDDEN2
 62
     3
100
AcDbCircle
 10
-19.90326729742655
 20
27.73412720176103
 30
0.0
 40
0.5
100
AcDbArc
 50
0.0
 51
65.82089300000298
  0
ARC
  5
70
330
2
100
AcDbEntity
  8
S1
  6
HIDDEN2
 62
     3
100
AcDbCircle
 10
-18.17826729742658
 20
27.73412720176103
 30
0.0
 40
0.5
100
AcDbArc
 50
114.179106999997
 51
180.0
  0
LINE
  5
71
330
2
100
AcDbEntity
  8
S1
  6
HIDDEN2
 62
     3
100
AcDbLine
 10
-19.69847209742657
 20
28.19026200176103
 30
0.0
 11
-19.98624679742657
 21
28.31946695176103
 31
0.0
  0
LINE
  5
72
330
2
100
AcDbEntity
  8
S1
  6
HIDDEN2
 62
     3
100
AcDbLine
 10
-18.09528779742656
 20
28.31946695176103
 30
0.0
 11
-18.38306249742656
 21
28.19026200176103
 31
0.0
  0
LINE
  5
73
330
2
100
AcDbEntity
  8
S1
  6
HIDDEN2
 62
     3
100
AcDbLine
 10
-19.43658994742655
 20
28.05772105176101
 30
0.0
 11
-18.63324854742653
 21
28.05772105176101
 31
0.0
  0
LINE
  5
74
330
2
100
AcDbEntity
  8
S1
  6
HIDDEN2
 62
     3
100
AcDbLine
 10
-19.43658994742655
 20
28.05772105176101
 30
0.0
 11
-18.63324854742653
 21
28.05772105176101
 31
0.0
  0
LINE
  5
75
330
2
100
AcDbEntity
  8
S1
  6
HIDDEN2
 62
     3
100
AcDbLine
 10
-19.43658994742655
 20
28.05772105176101
 30
0.0
 11
-18.63324854742653
 21
28.05772105176101
 31
0.0
  0
LINE
  5
76
330
2
100
AcDbEntity
  8
S1
  6
HIDDEN2
 62
     3
100
AcDbLine
 10
-19.43658994742655
 20
28.05772105176101
 30
0.0
 11
-18.63324854742653
 21
28.05772105176101
 31
0.0
  0
LINE
  5
77
330
2
100
AcDbEntity
  8
S1
  6
HIDDEN2
 62
     3
100
AcDbLine
 10
-18.09076729742655
 20
25.27022105176101
 30
0.0
 11
-18.09076729742655
 21
25.345221051761
 31
0.0
  0
ARC
  5
78
330
2
100
AcDbEntity
  8
S1
  6
HIDDEN2
 62
     3
100
AcDbCircle
 10
-18.41576729742654
 20
25.345221051761
 30
0.0
 40
0.325
100
AcDbArc
 50
0.0
 51
90.0
  0
ARC
  5
79
330
2
100
AcDbEntity
  8
S1
  6
HIDDEN2
 62
     3
100
AcDbCircle
 10
-18.41576729742654
 20
25.27022105176101
 30
0.0
 40
0.325
100
AcDbArc
 50
270.0
 51
0.0
  0
LINE
  5
7A
330
2
100
AcDbEntity
  8
S1
  6
HIDDEN2
 62
     3
100
AcDbLine
 10
-18.41576729742654
 20
25.67022105176102
 30
0.0
 11
-19.39217344742654
 21
25.67022105176102
 31
0.0
  0
LINE
  5
7B
330
2
100
AcDbEntity
  8
S1
  6
HIDDEN2
 62
     3
100
AcDbLine
 10
-18.41576729742654
 20
24.94522105176102
 30
0.0
 11
-19.39217344742654
 21
24.94522105176102
 31
0.0
  0
ARC
  5
7C
330
2
100
AcDbEntity
  8
S1
  6
HIDDEN2
 62
     3
100
AcDbCircle
 10
-20.44076729742652
 20
24.782721051761
 30
0.0
 40
0.25
100
AcDbArc
 50
270.0
 51
0.0
  0
LINE
  5
7D
330
2
100
AcDbEntity
  8
S1
  6
HIDDEN2
 62
     3
100
AcDbLine
 10
-20.19076729742652
 20
24.782721051761
 30
0.0
 11
-20.19076729742652
 21
25.83272105176102
 31
0.0
  0
ARC
  5
7E
330
2
100
AcDbEntity
  8
S1
  6
HIDDEN2
 62
     3
100
AcDbCircle
 10
-20.44076729742652
 20
25.83272105176102
 30
0.0
 40
0.25
100
AcDbArc
 50
0.0
 51
90.0
  0
LINE
  5
7F
330
2
100
AcDbEntity
  8
S1
  6
HIDDEN2
 62
     3
100
AcDbLine
 10
-20.79076729742654
 20
24.33272105176101
 30
0.0
 11
-20.15256419742654
 21
24.33272105176101
 31
0.0
  0
LINE
  5
80
330
2
100
AcDbEntity
  8
S1
  6
HIDDEN2
 62
     3
100
AcDbLine
 10
-20.79076729742654
 20
26.282721051761
 30
0.0
 11
-20.15256419742654
 21
26.282721051761
 31
0.0
  0
LINE
  5
81
330
2
100
AcDbEntity
  8
S1
  6
HIDDEN2
 62
     3
100
AcDbLine
 10
-20.79076729742654
 20
26.08272105176101
 30
0.0
 11
-20.44076729742652
 21
26.08272105176101
 31
0.0
  0
LINE
  5
82
330
2
100
AcDbEntity
  8
S1
  6
HIDDEN2
 62
     3
100
AcDbLine
 10
-20.79076729742654
 20
24.532721051761
 30
0.0
 11
-20.44076729742652
 21
24.532721051761
 31
0.0
  0
ARC
  5
83
330
2
100
AcDbEntity
  8
S1
  6
HIDDEN2
 62
     3
100
AcDbCircle
 10
-19.69076729742652
 20
13.66272105176102
 30
0.0
 40
0.1
100
AcDbArc
 50
0.0
 51
180.0
  0
ARC
  5
84
330
2
100
AcDbEntity
  8
S1
  6
HIDDEN2
 62
     3
100
AcDbCircle
 10
-18.39076729742656
 20
13.66272105176102
 30
0.0
 40
0.1
100
AcDbArc
 50
0.0
 51
180.0
  0
ARC
  5
85
330
2
100
AcDbEntity
  8
S1
  6
HIDDEN2
 62
     3
100
AcDbCircle
 10
-19.04076729742654
 20
13.58272105176101
 30
0.0
 40
0.55
100
AcDbArc
 50
180.0
 51
0.0
  0
ARC
  5
86
330
2
100
AcDbEntity
  8
S1
  6
HIDDEN2
 62
     3
100
AcDbCircle
 10
-19.07826729742656
 20
11.75772105176102
 30
0.0
 40
0.325
100
AcDbArc
 50
180.0
 51
270.0
  0
ARC
  5
87
330
2
100
AcDbEntity
  8
S1
  6
HIDDEN2
 62
     3
100
AcDbCircle
 10
-19.00326729742651
 20
11.75772105176102
 30
0.0
 40
0.325
100
AcDbArc
 50
270.0
 51
0.0
  0
LINE
  5
88
330
2
100
AcDbEntity
  8
S1
  6
HIDDEN2
 62
     3
100
AcDbLine
 10
-19.07826729742656
 20
11.43272105176101
 30
0.0
 11
-19.00326729742651
 21
11.43272105176101
 31
0.0
  0
ARC
  5
89
330
2
100
AcDbEntity
  8
S1
  6
HIDDEN2
 62
     3
100
AcDbCircle
 10
-19.07826729742656
 20
26.75772105176103
 30
0.0
 40
0.325
100
AcDbArc
 50
180.0
 51
270.0
  0
ARC
  5
8A
330
2
100
AcDbEntity
  8
S1
  6
HIDDEN2
 62
     3
100
AcDbCircle
 10
-19.00326729742651
 20
26.75772105176103
 30
0.0
 40
0.325
100
AcDbArc
 50
270.0
 51
0.0
  0
LINE
  5
8B
330
2
100
AcDbEntity
  8
S1
  6
HIDDEN2
 62
     3
100
AcDbLine
 10
-19.07826729742656
 20
26.43272105176101
 30
0.0
 11
-19.00326729742651
 21
26.43272105176101
 31
0.0
  0
ARC
  5
8C
330
2
100
AcDbEntity
  8
S1
  6
HIDDEN2
 62
     3
100
AcDbCircle
 10
-19.65326729742655
 20
12.01789420176101
 30
0.0
 40
0.25
100
AcDbArc
 50
0.0
 51
55.28850599999186
  0
ARC
  5
8D
330
2
100
AcDbEntity
  8
S1
  6
HIDDEN2
 62
     3
100
AcDbCircle
 10
-18.42826729742658
 20
12.01789420176101
 30
0.0
 40
0.25
100
AcDbArc
 50
124.7114940000081
 51
180.0
  0
LINE
  5
8E
330
2
100
AcDbEntity
  8
S1
  6
HIDDEN2
 62
     3
100
AcDbLine
 10
-18.49076729742658
 20
13.58272105176101
 30
0.0
 11
-19.59076729742655
 21
13.58272105176101
 31
0.0
  0
LINE
  5
8F
330
2
100
AcDbEntity
  8
S1
  6
HIDDEN2
 62
     3
100
AcDbLine
 10
-18.29076729742654
 20
12.75772105176102
 30
0.0
 11
-18.29076729742654
 21
13.66272105176102
 31
0.0
  0
LINE
  5
90
330
2
100
AcDbEntity
  8
S1
  6
HIDDEN2
 62
     3
100
AcDbLine
 10
-18.49076729742658
 20
13.66272105176102
 30
0.0
 11
-19.59076729742655
 21
13.66272105176102
 31
0.0
  0
ARC
  5
91
330
2
100
AcDbEntity
  8
S1
  6
HIDDEN2
 62
     3
100
AcDbCircle
 10
-18.94076729742652
 20
12.75772105176102
 30
0.0
 40
0.65
100
AcDbArc
 50
304.7114940000081
 51
0.0
  0
LINE
  5
92
330
2
100
AcDbEntity
  8
S1
  6
HIDDEN2
 62
     3
100
AcDbLine
 10
-19.79076729742654
 20
12.75772105176102
 30
0.0
 11
-19.79076729742654
 21
13.66354970176101
 31
0.0
  0
ARC
  5
93
330
2
100
AcDbEntity
  8
S1
  6
HIDDEN2
 62
     3
100
AcDbCircle
 10
-19.14076729742656
 20
12.75772105176102
 30
0.0
 40
0.65
100
AcDbArc
 50
180.0
 51
235.2885059999918
  0
LINE
  5
94
330
2
100
AcDbEntity
  8
S1
  6
HIDDEN2
 62
     3
100
AcDbLine
 10
-20.68576729742652
 20
28.45772105176101
 30
0.0
 11
-17.39576729742656
 21
28.45772105176101
 31
0.0
  0
LINE
  5
95
330
2
100
AcDbEntity
  8
S1
  6
HIDDEN2
 62
     3
100
AcDbLine
 10
-20.68576729742652
 20
8.707721051761012
 30
0.0
 11
-17.39576729742656
 21
8.707721051761012
 31
0.0
  0
LINE
  5
96
330
2
100
AcDbEntity
  8
S1
  6
HIDDEN2
 62
     3
100
AcDbLine
 10
-20.01563244742657
 20
28.377721051761
 30
0.0
 11
-19.81576729742652
 21
28.377721051761
 31
0.0
  0
LINE
  5
97
330
2
100
AcDbEntity
  8
S1
  6
HIDDEN2
 62
     3
100
AcDbLine
 10
-19.40326729742655
 20
11.75772105176102
 30
0.0
 11
-19.40326729742655
 21
12.01789420176101
 31
0.0
  0
LINE
  5
98
330
2
100
AcDbEntity
  8
S1
  6
HIDDEN2
 62
     3
100
AcDbLine
 10
-18.67826729742658
 20
11.75772105176102
 30
0.0
 11
-18.67826729742658
 21
12.01789420176101
 31
0.0
  0
LINE
  5
99
330
2
100
AcDbEntity
  8
S1
  6
HIDDEN2
 62
     3
100
AcDbLine
 10
-19.40326729742655
 20
26.75742055176101
 30
0.0
 11
-19.40326729742655
 21
27.73412720176103
 31
0.0
  0
LINE
  5
9A
330
2
100
AcDbEntity
  8
S1
  6
HIDDEN2
 62
     3
100
AcDbLine
 10
-18.67826729742658
 20
26.75772105176103
 30
0.0
 11
-18.67826729742658
 21
27.73412720176103
 31
0.0
  0
LINE
  5
9B
330
2
100
AcDbEntity
  8
S1
  6
HIDDEN2
 62
     3
100
AcDbLine
 10
-20.60576729742654
 20
8.787721051761025
 30
0.0
 11
-17.47576729742654
 21
8.787721051761025
 31
0.0
  0
LINE
  5
9C
330
2
100
AcDbEntity
  8
S1
  6
HIDDEN2
 62
     3
100
AcDbLine
 10
-17.47576729742654
 20
28.377721051761
 30
0.0
 11
-18.06590214742651
 21
28.377721051761
 31
0.0
  0
LINE
  5
9D
330
2
100
AcDbEntity
  8
S1
  6
HIDDEN2
 62
     3
100
AcDbLine
 10
-20.01563244742657
 20
28.377721051761
 30
0.0
 11
-20.60576729742654
 21
28.377721051761
 31
0.0
  0
LINE
  5
9E
330
2
100
AcDbEntity
  8
S1
  6
HIDDEN2
 62
     3
100
AcDbLine
 10
-20.68576729742652
 20
8.787721051761025
 30
0.0
 11
-20.60576729742654
 21
8.787721051761025
 31
0.0
  0
LINE
  5
9F
330
2
100
AcDbEntity
  8
S1
  6
HIDDEN2
 62
     3
100
AcDbLine
 10
-20.71076729742656
 20
8.707721051761012
 30
0.0
 11
-20.79076729742654
 21
8.707721051761012
 31
0.0
  0
LINE
  5
A0
330
2
100
AcDbEntity
  8
S1
  6
HIDDEN2
 62
     3
100
AcDbLine
 10
-20.71076729742656
 20
8.707721051761012
 30
0.0
 11
-20.71076729742656
 21
8.867721051761009
 31
0.0
  0
LINE
  5
A1
330
2
100
AcDbEntity
  8
S1
  6
HIDDEN2
 62
     3
100
AcDbLine
 10
-20.79076729742654
 20
8.867721051761009
 30
0.0
 11
-20.68576729742652
 21
8.867721051761009
 31
0.0
  0
LINE
  5
A2
330
2
100
AcDbEntity
  8
S1
  6
HIDDEN2
 62
     3
100
AcDbLine
 10
-20.68576729742652
 20
8.707721051761012
 30
0.0
 11
-20.68576729742652
 21
8.787721051761025
 31
0.0
  0
LINE
  5
A3
330
2
100
AcDbEntity
  8
S1
  6
HIDDEN2
 62
     3
100
AcDbLine
 10
-20.60576729742654
 20
8.787721051761025
 30
0.0
 11
-20.60576729742654
 21
8.707721051761012
 31
0.0
  0
LINE
  5
A4
330
2
100
AcDbEntity
  8
S1
  6
HIDDEN2
 62
     3
100
AcDbLine
 10
-17.47576729742654
 20
8.787721051761025
 30
0.0
 11
-17.39576729742656
 21
8.787721051761025
 31
0.0
  0
LINE
  5
A5
330
2
100
AcDbEntity
  8
S1
  6
HIDDEN2
 62
     3
100
AcDbLine
 10
-17.39576729742656
 20
8.707721051761012
 30
0.0
 11
-17.39576729742656
 21
8.787721051761025
 31
0.0
  0
LINE
  5
A6
330
2
100
AcDbEntity
  8
S1
  6
HIDDEN2
 62
     3
100
AcDbLine
 10
-17.37076729742658
 20
8.707721051761012
 30
0.0
 11
-17.29076729742654
 21
8.707721051761012
 31
0.0
  0
LINE
  5
A7
330
2
100
AcDbEntity
  8
S1
  6
HIDDEN2
 62
     3
100
AcDbLine
 10
-17.29076729742654
 20
8.867721051761009
 30
0.0
 11
-17.39576729742656
 21
8.867721051761009
 31
0.0
  0
LINE
  5
A8
330
2
100
AcDbEntity
  8
S1
  6
HIDDEN2
 62
     3
100
AcDbLine
 10
-17.37076729742658
 20
8.707721051761012
 30
0.0
 11
-17.37076729742658
 21
8.867721051761009
 31
0.0
  0
LINE
  5
A9
330
2
100
AcDbEntity
  8
S1
  6
HIDDEN2
 62
     3
100
AcDbLine
 10
-17.47576729742654
 20
8.787721051761025
 30
0.0
 11
-17.47576729742654
 21
8.707721051761012
 31
0.0
  0
LINE
  5
AA
330
2
100
AcDbEntity
  8
S1
  6
HIDDEN2
 62
     3
100
AcDbLine
 10
-20.79076729742654
 20
28.532721051761
 30
0.0
 11
-20.79076729742654
 21
8.632721051761024
 31
0.0
  0
LINE
  5
AB
330
2
100
AcDbEntity
  8
S1
  6
HIDDEN2
 62
     3
100
AcDbLine
 10
-21.36576729742658
 20
29.33272105176101
 30
0.0
 11
-21.36576729742658
 21
7.832721051761012
 31
0.0
  0
LINE
  5
AC
330
2
100
AcDbEntity
  8
S1
  6
HIDDEN2
 62
     3
100
AcDbLine
 10
-20.61576729742659
 20
29.33272105176101
 30
0.0
 11
-20.61576729742659
 21
28.68272105176101
 31
0.0
  0
LINE
  5
AD
330
2
100
AcDbEntity
  8
S1
  6
HIDDEN2
 62
     3
100
AcDbLine
 10
-21.36576729742658
 20
29.33272105176101
 30
0.0
 11
-20.61576729742659
 21
29.33272105176101
 31
0.0
  0
LINE
  5
AE
330
2
100
AcDbEntity
  8
S1
  6
HIDDEN2
 62
     3
100
AcDbLine
 10
-21.36576729742658
 20
29.252721051761
 30
0.0
 11
-20.61576729742659
 21
29.252721051761
 31
0.0
  0
LINE
  5
AF
330
2
100
AcDbEntity
  8
S1
  6
HIDDEN2
 62
     3
100
AcDbLine
 10
-21.26576729742656
 20
29.05272105176099
 30
0.0
 11
-20.71576729742655
 21
29.05272105176099
 31
0.0
  0
ARC
  5
B0
330
2
100
AcDbEntity
  8
S1
  6
HIDDEN2
 62
     3
100
AcDbCircle
 10
-20.71576729742655
 20
29.152721051761
 30
0.0
 40
0.1
100
AcDbArc
 50
270.0
 51
0.0
  0
ARC
  5
B1
330
2
100
AcDbEntity
  8
S1
  6
HIDDEN2
 62
     3
100
AcDbCircle
 10
-21.26576729742656
 20
29.152721051761
 30
0.0
 40
0.1
100
AcDbArc
 50
180.0
 51
270.0
  0
ARC
  5
B2
330
2
100
AcDbEntity
  8
S1
  6
HIDDEN2
 62
     3
100
AcDbCircle
 10
-20.69076729742652
 20
28.68272105176101
 30
0.0
 40
0.075
100
AcDbArc
 50
270.0
 51
0.0
  0
LINE
  5
B3
330
2
100
AcDbEntity
  8
S1
  6
HIDDEN2
 62
     3
100
AcDbLine
 10
-17.29076729742654
 20
28.532721051761
 30
0.0
 11
-17.29076729742654
 21
8.632721051761024
 31
0.0
  0
LINE
  5
B4
330
2
100
AcDbEntity
  8
S1
  6
HIDDEN2
 62
     3
100
AcDbLine
 10
-16.71576729742655
 20
29.33272105176101
 30
0.0
 11
-16.71576729742655
 21
7.832721051761012
 31
0.0
  0
ARC
  5
B5
330
2
100
AcDbEntity
  8
S1
  6
HIDDEN2
 62
     3
100
AcDbCircle
 10
-17.39076729742656
 20
28.68272105176101
 30
0.0
 40
0.075
100
AcDbArc
 50
180.0
 51
270.0
  0
ARC
  5
B6
330
2
100
AcDbEntity
  8
S1
  6
HIDDEN2
 62
     3
100
AcDbCircle
 10
-17.36576729742658
 20
29.152721051761
 30
0.0
 40
0.1
100
AcDbArc
 50
180.0
 51
270.0
  0
LINE
  5
B7
330
2
100
AcDbEntity
  8
S1
  6
HIDDEN2
 62
     3
100
AcDbLine
 10
-16.81576729742651
 20
29.05272105176099
 30
0.0
 11
-17.36576729742658
 21
29.05272105176099
 31
0.0
  0
LINE
  5
B8
330
2
100
AcDbEntity
  8
S1
  6
HIDDEN2
 62
     3
100
AcDbLine
 10
-16.71576729742655
 20
29.252721051761
 30
0.0
 11
-17.46576729742655
 21
29.252721051761
 31
0.0
  0
LINE
  5
B9
330
2
100
AcDbEntity
  8
S1
  6
HIDDEN2
 62
     3
100
AcDbLine
 10
-16.71576729742655
 20
29.33272105176101
 30
0.0
 11
-17.46576729742655
 21
29.33272105176101
 31
0.0
  0
LINE
  5
BA
330
2
100
AcDbEntity
  8
S1
  6
HIDDEN2
 62
     3
100
AcDbLine
 10
-17.46576729742655
 20
29.33272105176101
 30
0.0
 11
-17.46576729742655
 21
28.68272105176101
 31
0.0
  0
LINE
  5
BB
330
2
100
AcDbEntity
  8
S1
  6
HIDDEN2
 62
     3
100
AcDbLine
 10
-20.71076729742656
 20
8.867721051761009
 30
0.0
 11
-20.71076729742656
 21
9.332721051761012
 31
0.0
  0
LINE
  5
BC
330
2
100
AcDbEntity
  8
S1
  6
HIDDEN2
 62
     3
100
AcDbLine
 10
-20.71076729742656
 20
28.45772105176101
 30
0.0
 11
-20.79076729742654
 21
28.45772105176101
 31
0.0
  0
LINE
  5
BD
330
2
100
AcDbEntity
  8
S1
  6
HIDDEN2
 62
     3
100
AcDbLine
 10
-20.79076729742654
 20
28.29772105176102
 30
0.0
 11
-20.68576729742652
 21
28.29772105176102
 31
0.0
  0
LINE
  5
BE
330
2
100
AcDbEntity
  8
S1
  6
HIDDEN2
 62
     3
100
AcDbLine
 10
-20.71076729742656
 20
28.45772105176101
 30
0.0
 11
-20.71076729742656
 21
28.29772105176102
 31
0.0
  0
LINE
  5
BF
330
2
100
AcDbEntity
  8
S1
  6
HIDDEN2
 62
     3
100
AcDbLine
 10
-20.60576729742654
 20
28.377721051761
 30
0.0
 11
-20.60576729742654
 21
28.45772105176101
 31
0.0
  0
LINE
  5
C0
330
2
100
AcDbEntity
  8
S1
  6
HIDDEN2
 62
     3
100
AcDbLine
 10
-20.60576729742654
 20
28.377721051761
 30
0.0
 11
-20.68576729742652
 21
28.377721051761
 31
0.0
  0
LINE
  5
C1
330
2
100
AcDbEntity
  8
S1
  6
HIDDEN2
 62
     3
100
AcDbLine
 10
-20.68576729742652
 20
28.45772105176101
 30
0.0
 11
-20.68576729742652
 21
28.377721051761
 31
0.0
  0
LINE
  5
C2
330
2
100
AcDbEntity
  8
S1
  6
HIDDEN2
 62
     3
100
AcDbLine
 10
-20.16576729742654
 20
28.377721051761
 30
0.0
 11
-20.16576729742654
 21
28.27772105176101
 31
0.0
  0
LINE
  5
C3
330
2
100
AcDbEntity
  8
S1
  6
HIDDEN2
 62
     3
100
AcDbLine
 10
-20.56576729742652
 20
28.377721051761
 30
0.0
 11
-20.56576729742652
 21
28.27772105176101
 31
0.0
  0
LINE
  5
C4
330
2
100
AcDbEntity
  8
S1
  6
HIDDEN2
 62
     3
100
AcDbLine
 10
-20.26576729742656
 20
28.377721051761
 30
0.0
 11
-20.26576729742656
 21
28.27772105176101
 31
0.0
  0
LINE
  5
C5
330
2
100
AcDbEntity
  8
S1
  6
HIDDEN2
 62
     3
100
AcDbLine
 10
-20.46576729742655
 20
28.377721051761
 30
0.0
 11
-20.46576729742655
 21
28.27772105176101
 31
0.0
  0
LINE
  5
C6
330
2
100
AcDbEntity
  8
S1
  6
HIDDEN2
 62
     3
100
AcDbLine
 10
-20.56576729742652
 20
28.27772105176101
 30
0.0
 11
-20.16576729742654
 21
28.27772105176101
 31
0.0
  0
ARC
  5
C7
330
2
100
AcDbEntity
  8
S1
  6
HIDDEN2
 62
     3
100
AcDbCircle
 10
-20.54576729742654
 20
28.377721051761
 30
0.0
 40
0.08
100
AcDbArc
 50
0.0
 51
90.0
  0
ARC
  5
C8
330
2
100
AcDbEntity
  8
S1
  6
HIDDEN2
 62
     3
100
AcDbCircle
 10
-20.18576729742652
 20
28.377721051761
 30
0.0
 40
0.08
100
AcDbArc
 50
90.0
 51
180.0
  0
LINE
  5
C9
330
2
100
AcDbEntity
  8
S1
  6
HIDDEN2
 62
     3
100
AcDbLine
 10
-17.29076729742654
 20
28.29772105176102
 30
0.0
 11
-17.39576729742656
 21
28.29772105176102
 31
0.0
  0
LINE
  5
CA
330
2
100
AcDbEntity
  8
S1
  6
HIDDEN2
 62
     3
100
AcDbLine
 10
-17.37076729742658
 20
28.45772105176101
 30
0.0
 11
-17.29076729742654
 21
28.45772105176101
 31
0.0
  0
LINE
  5
CB
330
2
100
AcDbEntity
  8
S1
  6
HIDDEN2
 62
     3
100
AcDbLine
 10
-17.37076729742658
 20
8.867721051761009
 30
0.0
 11
-17.37076729742658
 21
28.29772105176102
 31
0.0
  0
ARC
  5
CC
330
2
100
AcDbEntity
  8
S1
  6
HIDDEN2
 62
     3
100
AcDbCircle
 10
-17.89576729742656
 20
28.377721051761
 30
0.0
 40
0.08
100
AcDbArc
 50
0.0
 51
90.0
  0
ARC
  5
CD
330
2
100
AcDbEntity
  8
S1
  6
HIDDEN2
 62
     3
100
AcDbCircle
 10
-17.53576729742654
 20
28.377721051761
 30
0.0
 40
0.08
100
AcDbArc
 50
90.0
 51
180.0
  0
LINE
  5
CE
330
2
100
AcDbEntity
  8
S1
  6
HIDDEN2
 62
     3
100
AcDbLine
 10
-17.51576729742656
 20
28.27772105176101
 30
0.0
 11
-17.91576729742654
 21
28.27772105176101
 31
0.0
  0
LINE
  5
CF
330
2
100
AcDbEntity
  8
S1
  6
HIDDEN2
 62
     3
100
AcDbLine
 10
-17.61576729742658
 20
28.377721051761
 30
0.0
 11
-17.61576729742658
 21
28.27772105176101
 31
0.0
  0
LINE
  5
D0
330
2
100
AcDbEntity
  8
S1
  6
HIDDEN2
 62
     3
100
AcDbLine
 10
-17.81576729742652
 20
28.377721051761
 30
0.0
 11
-17.81576729742652
 21
28.27772105176101
 31
0.0
  0
LINE
  5
D1
330
2
100
AcDbEntity
  8
S1
  6
HIDDEN2
 62
     3
100
AcDbLine
 10
-17.51576729742656
 20
28.377721051761
 30
0.0
 11
-17.51576729742656
 21
28.27772105176101
 31
0.0
  0
LINE
  5
D2
330
2
100
AcDbEntity
  8
S1
  6
HIDDEN2
 62
     3
100
AcDbLine
 10
-17.91576729742654
 20
28.377721051761
 30
0.0
 11
-17.91576729742654
 21
28.27772105176101
 31
0.0
  0
LINE
  5
D3
330
2
100
AcDbEntity
  8
S1
  6
HIDDEN2
 62
     3
100
AcDbLine
 10
-17.39576729742656
 20
28.45772105176101
 30
0.0
 11
-17.39576729742656
 21
28.377721051761
 31
0.0
  0
LINE
  5
D4
330
2
100
AcDbEntity
  8
S1
  6
HIDDEN2
 62
     3
100
AcDbLine
 10
-17.47576729742654
 20
28.377721051761
 30
0.0
 11
-17.39576729742656
 21
28.377721051761
 31
0.0
  0
LINE
  5
D5
330
2
100
AcDbEntity
  8
S1
  6
HIDDEN2
 62
     3
100
AcDbLine
 10
-17.47576729742654
 20
28.377721051761
 30
0.0
 11
-17.47576729742654
 21
28.45772105176101
 31
0.0
  0
LINE
  5
D6
330
2
100
AcDbEntity
  8
S1
  6
HIDDEN2
 62
     3
100
AcDbLine
 10
-17.37076729742658
 20
28.45772105176101
 30
0.0
 11
-17.37076729742658
 21
28.29772105176102
 31
0.0
  0
ARC
  5
D7
330
2
100
AcDbEntity
  8
S1
  6
HIDDEN2
 62
     3
100
AcDbCircle
 10
-20.69076729742652
 20
8.482721051761018
 30
0.0
 40
0.075
100
AcDbArc
 50
0.0
 51
90.0
  0
ARC
  5
D8
330
2
100
AcDbEntity
  8
S1
  6
HIDDEN2
 62
     3
100
AcDbCircle
 10
-21.26576729742656
 20
8.012721051761019
 30
0.0
 40
0.1
100
AcDbArc
 50
90.0
 51
180.0
  0
ARC
  5
D9
330
2
100
AcDbEntity
  8
S1
  6
HIDDEN2
 62
     3
100
AcDbCircle
 10
-20.71576729742655
 20
8.012721051761019
 30
0.0
 40
0.1
100
AcDbArc
 50
0.0
 51
90.0
  0
LINE
  5
DA
330
2
100
AcDbEntity
  8
S1
  6
HIDDEN2
 62
     3
100
AcDbLine
 10
-21.26576729742656
 20
8.112721051761042
 30
0.0
 11
-20.71576729742655
 21
8.112721051761042
 31
0.0
  0
LINE
  5
DB
330
2
100
AcDbEntity
  8
S1
  6
HIDDEN2
 62
     3
100
AcDbLine
 10
-21.36576729742658
 20
7.912721051761025
 30
0.0
 11
-20.61576729742659
 21
7.912721051761025
 31
0.0
  0
LINE
  5
DC
330
2
100
AcDbEntity
  8
S1
  6
HIDDEN2
 62
     3
100
AcDbLine
 10
-21.36576729742658
 20
7.832721051761012
 30
0.0
 11
-20.61576729742659
 21
7.832721051761012
 31
0.0
  0
LINE
  5
DD
330
2
100
AcDbEntity
  8
S1
  6
HIDDEN2
 62
     3
100
AcDbLine
 10
-20.61576729742659
 20
7.832721051761012
 30
0.0
 11
-20.61576729742659
 21
8.482721051761018
 31
0.0
  0
LINE
  5
DE
330
2
100
AcDbEntity
  8
S1
  6
HIDDEN2
 62
     3
100
AcDbLine
 10
-17.46576729742655
 20
7.832721051761012
 30
0.0
 11
-17.46576729742655
 21
8.482721051761018
 31
0.0
  0
LINE
  5
DF
330
2
100
AcDbEntity
  8
S1
  6
HIDDEN2
 62
     3
100
AcDbLine
 10
-16.71576729742655
 20
7.832721051761012
 30
0.0
 11
-17.46576729742655
 21
7.832721051761012
 31
0.0
  0
LINE
  5
E0
330
2
100
AcDbEntity
  8
S1
  6
HIDDEN2
 62
     3
100
AcDbLine
 10
-16.71576729742655
 20
7.912721051761025
 30
0.0
 11
-17.46576729742655
 21
7.912721051761025
 31
0.0
  0
LINE
  5
E1
330
2
100
AcDbEntity
  8
S1
  6
HIDDEN2
 62
     3
100
AcDbLine
 10
-16.81576729742651
 20
8.112721051761042
 30
0.0
 11
-17.36576729742658
 21
8.112721051761042
 31
0.0
  0
ARC
  5
E2
330
2
100
AcDbEntity
  8
S1
  6
HIDDEN2
 62
     3
100
AcDbCircle
 10
-17.36576729742658
 20
8.012721051761019
 30
0.0
 40
0.1
100
AcDbArc
 50
90.0
 51
180.0
  0
ARC
  5
E3
330
2
100
AcDbEntity
  8
S1
  6
HIDDEN2
 62
     3
100
AcDbCircle
 10
-16.81576729742651
 20
8.012721051761019
 30
0.0
 40
0.1
100
AcDbArc
 50
0.0
 51
90.0
  0
ARC
  5
E4
330
2
100
AcDbEntity
  8
S1
  6
HIDDEN2
 62
     3
100
AcDbCircle
 10
-17.39076729742656
 20
8.482721051761018
 30
0.0
 40
0.075
100
AcDbArc
 50
90.0
 51
180.0
  0
LINE
  5
E5
330
2
100
AcDbEntity
  8
S1
  6
HIDDEN2
 62
     3
100
AcDbLine
 10
-20.56576729742652
 20
8.887721051761019
 30
0.0
 11
-20.16576729742654
 21
8.887721051761019
 31
0.0
  0
LINE
  5
E6
330
2
100
AcDbEntity
  8
S1
  6
HIDDEN2
 62
     3
100
AcDbLine
 10
-20.16576729742654
 20
8.787721051761025
 30
0.0
 11
-20.16576729742654
 21
8.887721051761019
 31
0.0
  0
LINE
  5
E7
330
2
100
AcDbEntity
  8
S1
  6
HIDDEN2
 62
     3
100
AcDbLine
 10
-20.26576729742656
 20
8.787721051761025
 30
0.0
 11
-20.26576729742656
 21
8.887721051761019
 31
0.0
  0
LINE
  5
E8
330
2
100
AcDbEntity
  8
S1
  6
HIDDEN2
 62
     3
100
AcDbLine
 10
-20.46576729742655
 20
8.787721051761025
 30
0.0
 11
-20.46576729742655
 21
8.887721051761019
 31
0.0
  0
ARC
  5
E9
330
2
100
AcDbEntity
  8
S1
  6
HIDDEN2
 62
     3
100
AcDbCircle
 10
-20.54576729742654
 20
8.787721051761025
 30
0.0
 40
0.08
100
AcDbArc
 50
270.0
 51
0.0
  0
ARC
  5
EA
330
2
100
AcDbEntity
  8
S1
  6
HIDDEN2
 62
     3
100
AcDbCircle
 10
-20.18576729742652
 20
8.787721051761025
 30
0.0
 40
0.08
100
AcDbArc
 50
180.0
 51
270.0
  0
LINE
  5
EB
330
2
100
AcDbEntity
  8
S1
  6
HIDDEN2
 62
     3
100
AcDbLine
 10
-17.51576729742656
 20
8.887721051761019
 30
0.0
 11
-17.91576729742654
 21
8.887721051761019
 31
0.0
  0
LINE
  5
EC
330
2
100
AcDbEntity
  8
S1
  6
HIDDEN2
 62
     3
100
AcDbLine
 10
-17.61576729742658
 20
8.787721051761025
 30
0.0
 11
-17.61576729742658
 21
8.887721051761019
 31
0.0
  0
LINE
  5
ED
330
2
100
AcDbEntity
  8
S1
  6
HIDDEN2
 62
     3
100
AcDbLine
 10
-17.81576729742652
 20
8.787721051761025
 30
0.0
 11
-17.81576729742652
 21
8.887721051761019
 31
0.0
  0
LINE
  5
EE
330
2
100
AcDbEntity
  8
S1
  6
HIDDEN2
 62
     3
100
AcDbLine
 10
-17.91576729742654
 20
8.787721051761025
 30
0.0
 11
-17.91576729742654
 21
8.887721051761019
 31
0.0
  0
ARC
  5
EF
330
2
100
AcDbEntity
  8
S1
  6
HIDDEN2
 62
     3
100
AcDbCircle
 10
-17.89576729742656
 20
8.787721051761025
 30
0.0
 40
0.08
100
AcDbArc
 50
270.0
 51
0.0
  0
ARC
  5
F0
330
2
100
AcDbEntity
  8
S1
  6
HIDDEN2
 62
     3
100
AcDbCircle
 10
-17.53576729742654
 20
8.787721051761025
 30
0.0
 40
0.08
100
AcDbArc
 50
180.0
 51
270.0
  0
LINE
  5
F1
330
2
100
AcDbEntity
  8
S1
  6
HIDDEN2
 62
     3
100
AcDbLine
 10
-20.56576729742652
 20
8.787721051761025
 30
0.0
 11
-20.56576729742652
 21
8.887721051761019
 31
0.0
  0
LINE
  5
F2
330
2
100
AcDbEntity
  8
S1
  6
HIDDEN2
 62
     3
100
AcDbLine
 10
-17.51576729742656
 20
8.787721051761025
 30
0.0
 11
-17.51576729742656
 21
8.887721051761019
 31
0.0
  0
LINE
  5
F3
330
2
100
AcDbEntity
  8
S1
  6
HIDDEN2
 62
     3
100
AcDbLine
 10
-20.71076729742656
 20
26.282721051761
 30
0.0
 11
-20.71076729742656
 21
28.29772105176102
 31
0.0
  0
LINE
  5
F4
330
2
100
AcDbEntity
  8
S1
  6
HIDDEN2
 62
     3
100
AcDbLine
 10
-20.71076729742656
 20
24.33272105176101
 30
0.0
 11
-20.71076729742656
 21
24.532721051761
 31
0.0
  0
LINE
  5
F5
330
2
100
AcDbEntity
  8
S1
  6
HIDDEN2
 62
     3
100
AcDbLine
 10
-20.71076729742656
 20
11.282721051761
 30
0.0
 11
-20.71076729742656
 21
24.33272105176101
 31
0.0
  0
LINE
  5
F6
330
2
100
AcDbEntity
  8
S1
  6
HIDDEN2
 62
     3
100
AcDbLine
 10
-17.39076729742656
 20
28.60772105176102
 30
0.0
 11
-17.36576729742658
 21
28.60772105176102
 31
0.0
  0
ARC
  5
F7
330
2
100
AcDbEntity
  8
S1
  6
HIDDEN2
 62
     3
100
AcDbCircle
 10
-17.36576729742658
 20
28.532721051761
 30
0.0
 40
0.075
100
AcDbArc
 50
0.0
 51
90.0
  0
LINE
  5
F8
330
2
100
AcDbEntity
  8
S1
  6
HIDDEN2
 62
     3
100
AcDbLine
 10
-20.69076729742652
 20
28.60772105176102
 30
0.0
 11
-20.71576729742655
 21
28.60772105176102
 31
0.0
  0
ARC
  5
F9
330
2
100
AcDbEntity
  8
S1
  6
HIDDEN2
 62
     3
100
AcDbCircle
 10
-20.71576729742655
 20
28.532721051761
 30
0.0
 40
0.075
100
AcDbArc
 50
90.0
 51
180.0
  0
LINE
  5
FA
330
2
100
AcDbEntity
  8
S1
  6
HIDDEN2
 62
     3
100
AcDbLine
 10
-20.69076729742652
 20
8.557721051761006
 30
0.0
 11
-20.71576729742655
 21
8.557721051761006
 31
0.0
  0
ARC
  5
FB
330
2
100
AcDbEntity
  8
S1
  6
HIDDEN2
 62
     3
100
AcDbCircle
 10
-20.71576729742655
 20
8.632721051761024
 30
0.0
 40
0.075
100
AcDbArc
 50
180.0
 51
270.0
  0
LINE
  5
FC
330
2
100
AcDbEntity
  8
S1
  6
HIDDEN2
 62
     3
100
AcDbLine
 10
-17.39076729742656
 20
8.557721051761006
 30
0.0
 11
-17.36576729742658
 21
8.557721051761006
 31
0.0
  0
ARC
  5
FD
330
2
100
AcDbEntity
  8
S1
  6
HIDDEN2
 62
     3
100
AcDbCircle
 10
-17.36576729742658
 20
8.632721051761024
 30
0.0
 40
0.075
100
AcDbArc
 50
270.0
 51
0.0
  0
ARC
  5
FE
330
2
100
AcDbEntity
  8
S1
  6
HIDDEN2
 62
     3
100
AcDbCircle
 10
-16.81576729742651
 20
29.152721051761
 30
0.0
 40
0.1
100
AcDbArc
 50
270.0
 51
0.0
  0
LINE
  5
FF
330
2
100
AcDbEntity
  8
S1
  6
HIDDEN2
 62
     3
100
AcDbLine
 10
-19.59076729742655
 20
13.58272105176101
 30
0.0
 11
-19.59076729742655
 21
13.66272105176102
 31
0.0
  0
LINE
  5
100
330
2
100
AcDbEntity
  8
S1
  6
HIDDEN2
 62
     3
100
AcDbLine
 10
-18.49076729742658
 20
13.58272105176101
 30
0.0
 11
-18.49076729742658
 21
13.66272105176102
 31
0.0
  0
LINE
  5
101
330
2
100
AcDbEntity
  8
S1
  6
HIDDEN2
 62
     3
100
AcDbLine
 10
-20.71076729742656
 20
9.532721051761001
 30
0.0
 11
-20.71076729742656
 21
9.332721051761012
 31
0.0
  0
LINE
  5
102
330
2
100
AcDbEntity
  8
S1
  6
HIDDEN2
 62
     3
100
AcDbLine
 10
-20.71076729742656
 20
11.08272105176101
 30
0.0
 11
-20.71076729742656
 21
11.282721051761
 31
0.0
  0
LINE
  5
103
330
2
100
AcDbEntity
  8
S1
  6
HIDDEN2
 62
     3
100
AcDbLine
 10
-20.71076729742656
 20
9.532721051761001
 30
0.0
 11
-20.71076729742656
 21
11.08272105176101
 31
0.0
  0
LINE
  5
104
330
2
100
AcDbEntity
  8
S1
  6
HIDDEN2
 62
     3
100
AcDbLine
 10
-20.71076729742656
 20
26.282721051761
 30
0.0
 11
-20.71076729742656
 21
26.08272105176101
 31
0.0
  0
LINE
  5
105
330
2
100
AcDbEntity
  8
S1
  6
HIDDEN2
 62
     3
100
AcDbLine
 10
-20.71076729742656
 20
26.08272105176101
 30
0.0
 11
-20.71076729742656
 21
24.532721051761
 31
0.0
  0
ARC
  5
106
330
2
100
AcDbEntity
  8
S1
  6
HIDDEN2
 62
     3
100
AcDbCircle
 10
-20.68576729742652
 20
28.377721051761
 30
0.0
 40
0.08
100
AcDbArc
 50
270.0
 51
0.0
  0
ARC
  5
107
330
2
100
AcDbEntity
  8
S1
  6
HIDDEN2
 62
     3
100
AcDbCircle
 10
-17.39576729742656
 20
28.377721051761
 30
0.0
 40
0.08
100
AcDbArc
 50
180.0
 51
270.0
  0
ARC
  5
108
330
2
100
AcDbEntity
  8
S1
  6
HIDDEN2
 62
     3
100
AcDbCircle
 10
-17.39576729742656
 20
8.787721051761025
 30
0.0
 40
0.08
100
AcDbArc
 50
90.0
 51
180.0
  0
ARC
  5
109
330
2
100
AcDbEntity
  8
S1
  6
HIDDEN2
 62
     3
100
AcDbCircle
 10
-20.68576729742652
 20
8.787721051761025
 30
0.0
 40
0.08
100
AcDbArc
 50
0.0
 51
90.0
  0
ARC
  5
10A
330
2
100
AcDbEntity
  8
S1
  6
HIDDEN2
 62
     3
100
AcDbCircle
 10
-20.71076729742656
 20
12.35272105176099
 30
0.0
 40
0.08
100
AcDbArc
 50
90.0
 51
180.0
  0
ARC
  5
10B
330
2
100
AcDbEntity
  8
S1
  6
HIDDEN2
 62
     3
100
AcDbCircle
 10
-20.71076729742656
 20
12.76272105176102
 30
0.0
 40
0.08
100
AcDbArc
 50
180.0
 51
270.0
  0
LINE
  5
10C
330
2
100
AcDbEntity
  8
S1
  6
HIDDEN2
 62
     3
100
AcDbLine
 10
-20.71076729742656
 20
12.33272105176101
 30
0.0
 11
-20.61076729742659
 21
12.33272105176101
 31
0.0
  0
LINE
  5
10D
330
2
100
AcDbEntity
  8
S1
  6
HIDDEN2
 62
     3
100
AcDbLine
 10
-20.61076729742659
 20
12.407721051761
 30
0.0
 11
-20.76886204742657
 21
12.407721051761
 31
0.0
  0
LINE
  5
10E
330
2
100
AcDbEntity
  8
S1
  6
HIDDEN2
 62
     3
100
AcDbLine
 10
-20.71076729742656
 20
12.43272105176101
 30
0.0
 11
-20.61076729742659
 21
12.43272105176101
 31
0.0
  0
LINE
  5
10F
330
2
100
AcDbEntity
  8
S1
  6
HIDDEN2
 62
     3
100
AcDbLine
 10
-20.61076729742659
 20
12.33272105176101
 30
0.0
 11
-20.61076729742659
 21
12.782721051761
 31
0.0
  0
LINE
  5
110
330
2
100
AcDbEntity
  8
S1
  6
HIDDEN2
 62
     3
100
AcDbLine
 10
-20.61076729742659
 20
12.70772105176101
 30
0.0
 11
-20.76886204742657
 21
12.70772105176101
 31
0.0
  0
LINE
  5
111
330
2
100
AcDbEntity
  8
S1
  6
HIDDEN2
 62
     3
100
AcDbLine
 10
-20.71076729742656
 20
12.68272105176101
 30
0.0
 11
-20.61076729742659
 21
12.68272105176101
 31
0.0
  0
LINE
  5
112
330
2
100
AcDbEntity
  8
S1
  6
HIDDEN2
 62
     3
100
AcDbLine
 10
-20.71076729742656
 20
12.782721051761
 30
0.0
 11
-20.61076729742659
 21
12.782721051761
 31
0.0
  0
LINE
  5
113
330
2
100
AcDbEntity
  8
S1
  6
HIDDEN2
 62
     3
100
AcDbLine
 10
-19.04076729742654
 20
8.887721051761019
 30
0.0
 11
-19.04076729742654
 21
8.729626301761015
 31
0.0
  0
LINE
  5
114
330
2
100
AcDbEntity
  8
S1
  6
HIDDEN2
 62
     3
100
AcDbLine
 10
-19.29076729742654
 20
8.887721051761019
 30
0.0
 11
-19.29076729742654
 21
8.729626301761015
 31
0.0
  0
ARC
  5
115
330
2
100
AcDbEntity
  8
S1
  6
HIDDEN2
 62
     3
100
AcDbCircle
 10
-18.98576729742659
 20
8.787721051761025
 30
0.0
 40
0.08
100
AcDbArc
 50
180.0
 51
270.0
  0
ARC
  5
116
330
2
100
AcDbEntity
  8
S1
  6
HIDDEN2
 62
     3
100
AcDbCircle
 10
-19.34576729742655
 20
8.787721051761025
 30
0.0
 40
0.08
100
AcDbArc
 50
270.0
 51
0.0
  0
LINE
  5
117
330
2
100
AcDbEntity
  8
S1
  6
HIDDEN2
 62
     3
100
AcDbLine
 10
-18.96576729742655
 20
8.887721051761019
 30
0.0
 11
-19.36576729742658
 21
8.887721051761019
 31
0.0
  0
LINE
  5
118
330
2
100
AcDbEntity
  8
S1
  6
HIDDEN2
 62
     3
100
AcDbLine
 10
-19.36576729742658
 20
8.787721051761025
 30
0.0
 11
-19.36576729742658
 21
8.887721051761019
 31
0.0
  0
LINE
  5
119
330
2
100
AcDbEntity
  8
S1
  6
HIDDEN2
 62
     3
100
AcDbLine
 10
-19.26576729742656
 20
8.787721051761025
 30
0.0
 11
-19.26576729742656
 21
8.887721051761019
 31
0.0
  0
LINE
  5
11A
330
2
100
AcDbEntity
  8
S1
  6
HIDDEN2
 62
     3
100
AcDbLine
 10
-19.06576729742652
 20
8.787721051761025
 30
0.0
 11
-19.06576729742652
 21
8.887721051761019
 31
0.0
  0
LINE
  5
11B
330
2
100
AcDbEntity
  8
S1
  6
HIDDEN2
 62
     3
100
AcDbLine
 10
-18.96576729742655
 20
8.787721051761025
 30
0.0
 11
-18.96576729742655
 21
8.887721051761019
 31
0.0
  0
LINE
  5
11C
330
2
100
AcDbEntity
  8
S1
  6
HIDDEN2
 62
     3
100
AcDbLine
 10
-18.26576729742656
 20
28.45772105176101
 30
0.0
 11
-18.26576729742656
 21
28.377721051761
 31
0.0
  0
LINE
  5
11D
330
2
100
AcDbEntity
  8
S1
  6
HIDDEN2
 62
     3
100
AcDbLine
 10
-19.81576729742652
 20
28.377721051761
 30
0.0
 11
-19.81576729742652
 21
28.45772105176101
 31
0.0
  0
LINE
  5
11E
330
2
100
AcDbEntity
  8
S1
  6
HIDDEN2
 62
     3
100
AcDbLine
 10
-18.26576729742656
 20
28.30772105176101
 30
0.0
 11
-18.26576729742656
 21
28.377721051761
 31
0.0
  0
LINE
  5
11F
330
2
100
AcDbEntity
  8
S1
  6
HIDDEN2
 62
     3
100
AcDbLine
 10
-19.81576729742652
 20
28.30772105176101
 30
0.0
 11
-19.81576729742652
 21
28.377721051761
 31
0.0
  0
LINE
  5
120
330
2
100
AcDbEntity
  8
S1
  6
HIDDEN2
 62
     3
100
AcDbLine
 10
-18.26576729742656
 20
28.377721051761
 30
0.0
 11
-18.06590214742651
 21
28.377721051761
 31
0.0
  0
LINE
  5
121
330
2
100
AcDbEntity
  8
S1
  6
HIDDEN2
 62
     3
100
AcDbLine
 10
-19.81576729742652
 20
28.377721051761
 30
0.0
 11
-18.26576729742656
 21
28.377721051761
 31
0.0
  0
LINE
  5
122
330
2
100
AcDbEntity
  8
S1
  6
HIDDEN2
 62
     3
100
AcDbLine
 10
-18.06576729742651
 20
28.45772105176101
 30
0.0
 11
-18.06576729742651
 21
28.365080451761
 31
0.0
  0
LINE
  5
123
330
2
100
AcDbEntity
  8
S1
  6
HIDDEN2
 62
     3
100
AcDbLine
 10
-20.01576729742656
 20
28.45772105176101
 30
0.0
 11
-20.01576729742656
 21
28.365080451761
 31
0.0
  0
LINE
  5
124
330
2
100
AcDbEntity
  8
S1
  6
HIDDEN2
 62
     3
100
AcDbLine
 10
-19.48551334742659
 20
28.05772105176101
 30
0.0
 11
-18.59602124742655
 21
28.05772105176101
 31
0.0
  0
ARC
  5
125
330
2
100
AcDbEntity
  8
S1
  6
HIDDEN2
 62
     3
100
AcDbCircle
 10
-18.51576729742656
 20
28.30772105176101
 30
0.0
 40
0.25
100
AcDbArc
 50
270.0
 51
343.3349089999957
  0
ARC
  5
126
330
2
100
AcDbEntity
  8
S1
  6
HIDDEN2
 62
     3
100
AcDbCircle
 10
-19.56576729742652
 20
28.30772105176101
 30
0.0
 40
0.25
100
AcDbArc
 50
196.6650910000043
 51
270.0
  0
ARC
  5
127
330
2
100
AcDbEntity
  8
S1
  6
HIDDEN2
 62
     3
100
AcDbCircle
 10
-18.51576729742656
 20
28.30772105176101
 30
0.0
 40
0.25
100
AcDbArc
 50
343.3349089999957
 51
0.0
  0
LINE
  5
128
330
2
100
AcDbEntity
  8
S1
  6
HIDDEN2
 62
     3
100
AcDbLine
 10
-18.51576729742656
 20
28.05772105176101
 30
0.0
 11
-18.59602124742655
 21
28.05772105176101
 31
0.0
  0
LINE
  5
129
330
2
100
AcDbEntity
  8
S1
  6
HIDDEN2
 62
     3
100
AcDbLine
 10
-19.48551334742659
 20
28.05772105176101
 30
0.0
 11
-19.56576729742652
 21
28.05772105176101
 31
0.0
  0
ARC
  5
12A
330
2
100
AcDbEntity
  8
S1
  6
HIDDEN2
 62
     3
100
AcDbCircle
 10
-19.56576729742652
 20
28.30772105176101
 30
0.0
 40
0.25
100
AcDbArc
 50
180.0
 51
196.6650910000043
  0
LINE
  5
12B
330
2
100
AcDbEntity
  8
S1
  6
HIDDEN2
 62
     3
100
AcDbLine
 10
-15.09076729742655
 20
8.707721051761012
 30
0.0
 11
-15.09076729742655
 21
8.607721051761018
 31
0.0
  0
LINE
  5
12C
330
2
100
AcDbEntity
  8
S1
  6
HIDDEN2
 62
     3
100
AcDbLine
 10
-3.615767297426586
 20
8.707721051761012
 30
0.0
 11
-3.615767297426586
 21
8.607721051761018
 31
0.0
  0
LINE
  5
12D
330
2
100
AcDbEntity
  8
S1
  6
HIDDEN2
 62
     3
100
AcDbLine
 10
4.209232702573459
 20
8.707721051761012
 30
0.0
 11
4.209232702573459
 21
8.607721051761018
 31
0.0
  0
LINE
  5
12E
330
2
100
AcDbEntity
  8
S1
  6
HIDDEN2
 62
     3
100
AcDbLine
 10
-0.0157672974265637
 20
8.707721051761012
 30
0.0
 11
-0.0157672974265637
 21
8.607721051761018
 31
0.0
  0
ARC
  5
12F
330
2
100
AcDbEntity
  8
S1
  6
HIDDEN2
 62
     3
100
AcDbCircle
 10
-9.04076729742654
 20
7.332721051761012
 30
0.0
 40
0.175
100
AcDbArc
 50
180.0
 51
0.0
  0
ARC
  5
130
330
2
100
AcDbEntity
  8
S1
  6
HIDDEN2
 62
     3
100
AcDbCircle
 10
-6.29076729742654
 20
7.332721051761012
 30
0.0
 40
0.175
100
AcDbArc
 50
270.0
 51
90.0
  0
LINE
  5
131
330
2
100
AcDbEntity
  8
S1
  6
HIDDEN2
 62
     3
100
AcDbLine
 10
-8.29076729742654
 20
7.507721051761024
 30
0.0
 11
-6.29076729742654
 21
7.507721051761024
 31
0.0
  0
LINE
  5
132
330
2
100
AcDbEntity
  8
S1
  6
HIDDEN2
 62
     3
100
AcDbLine
 10
-8.29076729742654
 20
7.157721051761001
 30
0.0
 11
-6.29076729742654
 21
7.157721051761001
 31
0.0
  0
ARC
  5
133
330
2
100
AcDbEntity
  8
S1
  6
HIDDEN2
 62
     3
100
AcDbCircle
 10
-8.29076729742654
 20
7.332721051761012
 30
0.0
 40
0.175
100
AcDbArc
 50
90.0
 51
270.0
  0
LINE
  5
134
330
2
100
AcDbEntity
  8
S1
  6
HIDDEN2
 62
     3
100
AcDbLine
 10
-8.865767297426586
 20
7.512002151760981
 30
0.0
 11
-8.865767297426586
 21
7.332721051761012
 31
0.0
  0
ARC
  5
135
330
2
100
AcDbEntity
  8
S1
  6
HIDDEN2
 62
     3
100
AcDbCircle
 10
-11.79076729742654
 20
7.332721051761012
 30
0.0
 40
0.175
100
AcDbArc
 50
90.0
 51
270.0
  0
LINE
  5
136
330
2
100
AcDbEntity
  8
S1
  6
HIDDEN2
 62
     3
100
AcDbLine
 10
-9.79076729742654
 20
7.507721051761024
 30
0.0
 11
-11.79076729742654
 21
7.507721051761024
 31
0.0
  0
LINE
  5
137
330
2
100
AcDbEntity
  8
S1
  6
HIDDEN2
 62
     3
100
AcDbLine
 10
-9.79076729742654
 20
7.157721051761001
 30
0.0
 11
-11.79076729742654
 21
7.157721051761001
 31
0.0
  0
ARC
  5
138
330
2
100
AcDbEntity
  8
S1
  6
HIDDEN2
 62
     3
100
AcDbCircle
 10
-9.79076729742654
 20
7.332721051761012
 30
0.0
 40
0.175
100
AcDbArc
 50
270.0
 51
90.0
  0
LINE
  5
139
330
2
100
AcDbEntity
  8
S1
  6
HIDDEN2
 62
     3
100
AcDbLine
 10
-9.215767297426552
 20
7.512002151760981
 30
0.0
 11
-9.215767297426552
 21
7.332721051761012
 31
0.0
  0
LINE
  5
13A
330
2
100
AcDbEntity
  8
S1
  6
HIDDEN2
 62
     3
100
AcDbLine
 10
-9.04076729742654
 20
6.457721051761012
 30
0.0
 11
4.709232702573459
 21
6.457721051761012
 31
0.0
  0
LINE
  5
13B
330
2
100
AcDbEntity
  8
S1
  6
HIDDEN2
 62
     3
100
AcDbLine
 10
-9.04076729742654
 20
8.707721051761012
 30
0.0
 11
4.709232702573459
 21
8.707721051761012
 31
0.0
  0
ARC
  5
13C
330
2
100
AcDbEntity
  8
S1
  6
HIDDEN2
 62
     3
100
AcDbCircle
 10
-9.04076729742654
 20
7.842721051761003
 30
0.0
 40
0.35
100
AcDbArc
 50
304.2288660000114
 51
235.7711339999886
  0
LINE
  5
13D
330
2
100
AcDbEntity
  8
S1
  6
HIDDEN2
 62
     3
100
AcDbLine
 10
-9.04076729742654
 20
8.607721051761018
 30
0.0
 11
4.709232702573459
 21
8.607721051761018
 31
0.0
  0
ARC
  5
13E
330
2
100
AcDbEntity
  8
S1
  6
HIDDEN2
 62
     3
100
AcDbCircle
 10
-9.265767297426563
 20
7.512002151760981
 30
0.0
 40
0.05
100
AcDbArc
 50
0.0
 51
55.77113399998858
  0
ARC
  5
13F
330
2
100
AcDbEntity
  8
S1
  6
HIDDEN2
 62
     3
100
AcDbCircle
 10
-8.815767297426518
 20
7.512002151760981
 30
0.0
 40
0.05
100
AcDbArc
 50
124.2288660000114
 51
180.0
  0
LINE
  5
140
330
2
100
AcDbEntity
  8
S1
  6
HIDDEN2
 62
     3
100
AcDbLine
 10
3.959232702573459
 20
7.507721051761024
 30
0.0
 11
1.959232702573459
 21
7.507721051761024
 31
0.0
  0
LINE
  5
141
330
2
100
AcDbEntity
  8
S1
  6
HIDDEN2
 62
     3
100
AcDbLine
 10
3.959232702573459
 20
7.157721051761001
 30
0.0
 11
1.959232702573459
 21
7.157721051761001
 31
0.0
  0
ARC
  5
142
330
2
100
AcDbEntity
  8
S1
  6
HIDDEN2
 62
     3
100
AcDbCircle
 10
3.959232702573459
 20
7.332721051761012
 30
0.0
 40
0.175
100
AcDbArc
 50
270.0
 51
90.0
  0
ARC
  5
143
330
2
100
AcDbEntity
  8
S1
  6
HIDDEN2
 62
     3
100
AcDbCircle
 10
1.959232702573459
 20
7.332721051761012
 30
0.0
 40
0.175
100
AcDbArc
 50
90.0
 51
270.0
  0
LINE
  5
144
330
2
100
AcDbEntity
  8
S1
  6
HIDDEN2
 62
     3
100
AcDbLine
 10
-9.04076729742654
 20
6.557721051761006
 30
0.0
 11
4.709232702573459
 21
6.557721051761006
 31
0.0
  0
LINE
  5
145
330
2
100
AcDbEntity
  8
S1
  6
HIDDEN2
 62
     3
100
AcDbLine
 10
-8.690767297426518
 20
7.857721051761018
 30
0.0
 11
-1.390767297426563
 21
7.857721051761018
 31
0.0
  0
LINE
  5
146
330
2
100
AcDbEntity
  8
S1
  6
HIDDEN2
 62
     3
100
AcDbLine
 10
-8.71019959742658
 20
7.957721051761012
 30
0.0
 11
-1.390767297426563
 21
7.957721051761012
 31
0.0
  0
LINE
  5
147
330
2
100
AcDbEntity
  8
S1
  6
HIDDEN2
 62
     3
100
AcDbLine
 10
2.509232702573413
 20
7.857721051761018
 30
0.0
 11
-0.5907672974265524
 21
7.857721051761018
 31
0.0
  0
LINE
  5
148
330
2
100
AcDbEntity
  8
S1
  6
HIDDEN2
 62
     3
100
AcDbLine
 10
2.509232702573413
 20
7.957721051761012
 30
0.0
 11
-0.5907672974265524
 21
7.957721051761012
 31
0.0
  0
LINE
  5
149
330
2
100
AcDbEntity
  8
S1
  6
HIDDEN2
 62
     3
100
AcDbLine
 10
2.509232702573413
 20
7.757721051761024
 30
0.0
 11
2.509232702573413
 21
8.157721051761001
 31
0.0
  0
LINE
  5
14A
330
2
100
AcDbEntity
  8
S1
  6
HIDDEN2
 62
     3
100
AcDbLine
 10
3.309232702573481
 20
7.757721051761024
 30
0.0
 11
3.309232702573481
 21
8.157721051761001
 31
0.0
  0
LINE
  5
14B
330
2
100
AcDbEntity
  8
S1
  6
HIDDEN2
 62
     3
100
AcDbLine
 10
4.709232702573459
 20
7.957721051761012
 30
0.0
 11
3.309232702573481
 21
7.957721051761012
 31
0.0
  0
LINE
  5
14C
330
2
100
AcDbEntity
  8
S1
  6
HIDDEN2
 62
     3
100
AcDbLine
 10
4.709232702573459
 20
7.857721051761018
 30
0.0
 11
3.309232702573481
 21
7.857721051761018
 31
0.0
  0
LINE
  5
14D
330
2
100
AcDbEntity
  8
S1
  6
HIDDEN2
 62
     3
100
AcDbLine
 10
3.309232702573481
 20
8.157721051761001
 30
0.0
 11
2.509232702573413
 21
8.157721051761001
 31
0.0
  0
LINE
  5
14E
330
2
100
AcDbEntity
  8
S1
  6
HIDDEN2
 62
     3
100
AcDbLine
 10
3.309232702573481
 20
7.757721051761024
 30
0.0
 11
2.509232702573413
 21
7.757721051761024
 31
0.0
  0
LINE
  5
14F
330
2
100
AcDbEntity
  8
S1
  6
HIDDEN2
 62
     3
100
AcDbLine
 10
-0.5157672974265637
 20
8.607721051761018
 30
0.0
 11
-0.5157672974265637
 21
8.707721051761012
 31
0.0
  0
LINE
  5
150
330
2
100
AcDbEntity
  8
S1
  6
HIDDEN2
 62
     3
100
AcDbLine
 10
-0.2157672974265523
 20
8.607721051761018
 30
0.0
 11
-0.2157672974265523
 21
8.707721051761012
 31
0.0
  0
LINE
  5
151
330
2
100
AcDbEntity
  8
S1
  6
HIDDEN2
 62
     3
100
AcDbLine
 10
2.134232702573413
 20
8.607721051761018
 30
0.0
 11
2.134232702573413
 21
8.707721051761012
 31
0.0
  0
LINE
  5
152
330
2
100
AcDbEntity
  8
S1
  6
HIDDEN2
 62
     3
100
AcDbLine
 10
2.434232702573481
 20
8.607721051761018
 30
0.0
 11
2.434232702573481
 21
8.707721051761012
 31
0.0
  0
LINE
  5
153
330
2
100
AcDbEntity
  8
S1
  6
HIDDEN2
 62
     3
100
AcDbLine
 10
-1.390767297426563
 20
7.757721051761024
 30
0.0
 11
-1.390767297426563
 21
8.157721051761001
 31
0.0
  0
LINE
  5
154
330
2
100
AcDbEntity
  8
S1
  6
HIDDEN2
 62
     3
100
AcDbLine
 10
-0.5907672974265524
 20
7.757721051761024
 30
0.0
 11
-0.5907672974265524
 21
8.157721051761001
 31
0.0
  0
LINE
  5
155
330
2
100
AcDbEntity
  8
S1
  6
HIDDEN2
 62
     3
100
AcDbLine
 10
-1.390767297426563
 20
8.157721051761001
 30
0.0
 11
-0.5907672974265524
 21
8.157721051761001
 31
0.0
  0
LINE
  5
156
330
2
100
AcDbEntity
  8
S1
  6
HIDDEN2
 62
     3
100
AcDbLine
 10
-1.390767297426563
 20
7.757721051761024
 30
0.0
 11
-0.5907672974265524
 21
7.757721051761024
 31
0.0
  0
LINE
  5
157
330
2
100
AcDbEntity
  8
S1
  6
HIDDEN2
 62
     3
100
AcDbLine
 10
4.709232702573459
 20
8.707721051761012
 30
0.0
 11
4.709232702573459
 21
6.457721051761012
 31
0.0
  0
LINE
  5
158
330
2
100
AcDbEntity
  8
S1
  6
HIDDEN2
 62
     3
100
AcDbLine
 10
-9.04076729742654
 20
6.457721051761012
 30
0.0
 11
-22.79076729742654
 21
6.457721051761012
 31
0.0
  0
LINE
  5
159
330
2
100
AcDbEntity
  8
S1
  6
HIDDEN2
 62
     3
100
AcDbLine
 10
-9.04076729742654
 20
8.707721051761012
 30
0.0
 11
-22.79076729742654
 21
8.707721051761012
 31
0.0
  0
LINE
  5
15A
330
2
100
AcDbEntity
  8
S1
  6
HIDDEN2
 62
     3
100
AcDbLine
 10
-9.04076729742654
 20
8.607721051761018
 30
0.0
 11
-22.79076729742654
 21
8.607721051761018
 31
0.0
  0
LINE
  5
15B
330
2
100
AcDbEntity
  8
S1
  6
HIDDEN2
 62
     3
100
AcDbLine
 10
-9.04076729742654
 20
6.557721051761006
 30
0.0
 11
-22.79076729742654
 21
6.557721051761006
 31
0.0
  0
LINE
  5
15C
330
2
100
AcDbEntity
  8
S1
  6
HIDDEN2
 62
     3
100
AcDbLine
 10
-9.390767297426563
 20
7.857721051761018
 30
0.0
 11
-16.69076729742652
 21
7.857721051761018
 31
0.0
  0
LINE
  5
15D
330
2
100
AcDbEntity
  8
S1
  6
HIDDEN2
 62
     3
100
AcDbLine
 10
-9.371334997426558
 20
7.957721051761012
 30
0.0
 11
-16.69076729742652
 21
7.957721051761012
 31
0.0
  0
LINE
  5
15E
330
2
100
AcDbEntity
  8
S1
  6
HIDDEN2
 62
     3
100
AcDbLine
 10
-22.79076729742654
 20
8.707721051761012
 30
0.0
 11
-22.79076729742654
 21
6.457721051761012
 31
0.0
  0
LINE
  5
15F
330
2
100
AcDbEntity
  8
S1
  6
HIDDEN2
 62
     3
100
AcDbLine
 10
-17.49076729742658
 20
7.957721051761012
 30
0.0
 11
-20.59076729742655
 21
7.957721051761012
 31
0.0
  0
LINE
  5
160
330
2
100
AcDbEntity
  8
S1
  6
HIDDEN2
 62
     3
100
AcDbLine
 10
-17.49076729742658
 20
7.857721051761018
 30
0.0
 11
-20.59076729742655
 21
7.857721051761018
 31
0.0
  0
LINE
  5
161
330
2
100
AcDbEntity
  8
S1
  6
HIDDEN2
 62
     3
100
AcDbLine
 10
-16.69076729742652
 20
7.757721051761024
 30
0.0
 11
-17.49076729742658
 21
7.757721051761024
 31
0.0
  0
LINE
  5
162
330
2
100
AcDbEntity
  8
S1
  6
HIDDEN2
 62
     3
100
AcDbLine
 10
-16.69076729742652
 20
8.157721051761001
 30
0.0
 11
-17.49076729742658
 21
8.157721051761001
 31
0.0
  0
LINE
  5
163
330
2
100
AcDbEntity
  8
S1
  6
HIDDEN2
 62
     3
100
AcDbLine
 10
-17.49076729742658
 20
7.757721051761024
 30
0.0
 11
-17.49076729742658
 21
8.157721051761001
 31
0.0
  0
LINE
  5
164
330
2
100
AcDbEntity
  8
S1
  6
HIDDEN2
 62
     3
100
AcDbLine
 10
-16.69076729742652
 20
7.757721051761024
 30
0.0
 11
-16.69076729742652
 21
8.157721051761001
 31
0.0
  0
LINE
  5
165
330
2
100
AcDbEntity
  8
S1
  6
HIDDEN2
 62
     3
100
AcDbLine
 10
-20.51576729742656
 20
8.607721051761018
 30
0.0
 11
-20.51576729742656
 21
8.707721051761012
 31
0.0
  0
LINE
  5
166
330
2
100
AcDbEntity
  8
S1
  6
HIDDEN2
 62
     3
100
AcDbLine
 10
-20.21576729742655
 20
8.607721051761018
 30
0.0
 11
-20.21576729742655
 21
8.707721051761012
 31
0.0
  0
LINE
  5
167
330
2
100
AcDbEntity
  8
S1
  6
HIDDEN2
 62
     3
100
AcDbLine
 10
-17.86576729742658
 20
8.607721051761018
 30
0.0
 11
-17.86576729742658
 21
8.707721051761012
 31
0.0
  0
LINE
  5
168
330
2
100
AcDbEntity
  8
S1
  6
HIDDEN2
 62
     3
100
AcDbLine
 10
-17.56576729742652
 20
8.607721051761018
 30
0.0
 11
-17.56576729742652
 21
8.707721051761012
 31
0.0
  0
LINE
  5
169
330
2
100
AcDbEntity
  8
S1
  6
HIDDEN2
 62
     3
100
AcDbLine
 10
-21.39076729742656
 20
7.757721051761024
 30
0.0
 11
-20.59076729742655
 21
7.757721051761024
 31
0.0
  0
LINE
  5
16A
330
2
100
AcDbEntity
  8
S1
  6
HIDDEN2
 62
     3
100
AcDbLine
 10
-21.39076729742656
 20
8.157721051761001
 30
0.0
 11
-20.59076729742655
 21
8.157721051761001
 31
0.0
  0
LINE
  5
16B
330
2
100
AcDbEntity
  8
S1
  6
HIDDEN2
 62
     3
100
AcDbLine
 10
-22.79076729742654
 20
7.857721051761018
 30
0.0
 11
-21.39076729742656
 21
7.857721051761018
 31
0.0
  0
LINE
  5
16C
330
2
100
AcDbEntity
  8
S1
  6
HIDDEN2
 62
     3
100
AcDbLine
 10
-22.79076729742654
 20
7.957721051761012
 30
0.0
 11
-21.39076729742656
 21
7.957721051761012
 31
0.0
  0
LINE
  5
16D
330
2
100
AcDbEntity
  8
S1
  6
HIDDEN2
 62
     3
100
AcDbLine
 10
-21.39076729742656
 20
7.757721051761024
 30
0.0
 11
-21.39076729742656
 21
8.157721051761001
 31
0.0
  0
LINE
  5
16E
330
2
100
AcDbEntity
  8
S1
  6
HIDDEN2
 62
     3
100
AcDbLine
 10
-20.59076729742655
 20
7.757721051761024
 30
0.0
 11
-20.59076729742655
 21
8.157721051761001
 31
0.0
  0
ARC
  5
16F
330
2
100
AcDbEntity
  8
S1
  6
HIDDEN2
 62
     3
100
AcDbCircle
 10
-20.04076729742654
 20
7.332721051761012
 30
0.0
 40
0.175
100
AcDbArc
 50
270.0
 51
90.0
  0
ARC
  5
170
330
2
100
AcDbEntity
  8
S1
  6
HIDDEN2
 62
     3
100
AcDbCircle
 10
-22.04076729742654
 20
7.332721051761012
 30
0.0
 40
0.175
100
AcDbArc
 50
90.0
 51
270.0
  0
LINE
  5
171
330
2
100
AcDbEntity
  8
S1
  6
HIDDEN2
 62
     3
100
AcDbLine
 10
-22.04076729742654
 20
7.157721051761001
 30
0.0
 11
-20.04076729742654
 21
7.157721051761001
 31
0.0
  0
LINE
  5
172
330
2
100
AcDbEntity
  8
S1
  6
HIDDEN2
 62
     3
100
AcDbLine
 10
-22.04076729742654
 20
7.507721051761024
 30
0.0
 11
-20.04076729742654
 21
7.507721051761024
 31
0.0
  0
LINE
  5
173
330
2
100
AcDbEntity
  8
S1
  6
HIDDEN2
 62
     3
100
AcDbLine
 10
-18.06576729742651
 20
8.707721051761012
 30
0.0
 11
-18.06576729742651
 21
8.607721051761018
 31
0.0
  0
LINE
  5
174
330
2
100
AcDbEntity
  8
S1
  6
HIDDEN2
 62
     3
100
AcDbLine
 10
-22.29076729742654
 20
8.707721051761012
 30
0.0
 11
-22.29076729742654
 21
8.607721051761018
 31
0.0
  0
LINE
  5
175
330
2
100
AcDbEntity
  8
S1
  6
HIDDEN2
 62
     3
100
AcDbLine
 10
1.934232702573481
 20
8.707721051761012
 30
0.0
 11
1.934232702573481
 21
8.607721051761018
 31
0.0
  0
LINE
  5
176
330
2
100
AcDbEntity
  8
S1
  6
HIDDEN2
 62
     3
100
AcDbLine
 10
-20.01576729742656
 20
8.707721051761012
 30
0.0
 11
-20.01576729742656
 21
8.607721051761018
 31
0.0
  0
HATCH
  5
177
330
2
100
AcDbEntity
  8
S1
  6
HIDDEN2
 62
     3
100
AcDbHatch
 10
0.0
 20
0.0
 30
0.0
210
0.0
220
0.0
230
1.0
  2
ANSI31
 70
     0
 71
     0
 91
        1
 92
        1
 93
        4
 72
     1
 10
-0.0157672974265637
 20
8.607721051761103
 11
1.934232702573439
 21
8.607721051761103
 72
     1
 10
1.934232702573481
 20
8.607721051761103
 11
1.934232702573481
 21
8.707721051761097
 72
     1
 10
1.934232702573481
 20
8.707721051761097
 11
-0.0157672974265211
 21
8.707721051761097
 72
     1
 10
-0.0157672974265637
 20
8.707721051761097
 11
-0.0157672974265637
 21
8.607721051761103
 97
        0
 75
     0
 76
     1
 52
0.0
 41
0.01574805
 77
     0
 78
     1
 53
45.0
 43
-9.04076729742654
 44
19.25772105176102
 45
-0.0353553390593274
 46
0.0353553390593274
 79
     0
 98
        1
 10
-9.04076729742654
 20
19.25772105176102
  0
ARC
  5
178
330
2
100
AcDbEntity
  8
S1
  6
HIDDEN2
 62
     3
100
AcDbCircle
 10
1.884232702573413
 20
28.365080451761
 30
0.0
 40
0.05
100
AcDbArc
 50
294.179106999997
 51
0.0
  0
ARC
  5
179
330
2
100
AcDbEntity
  8
S1
  6
HIDDEN2
 62
     3
100
AcDbCircle
 10
0.0342327025734477
 20
28.365080451761
 30
0.0
 40
0.05
100
AcDbArc
 50
180.0
 51
245.820893000003
  0
ARC
  5
17A
330
2
100
AcDbEntity
  8
S1
  6
HIDDEN2
 62
     3
100
AcDbCircle
 10
0.0967327025734477
 20
27.73412720176103
 30
0.0
 40
0.5
100
AcDbArc
 50
0.0
 51
65.82089300000298
  0
ARC
  5
17B
330
2
100
AcDbEntity
  8
S1
  6
HIDDEN2
 62
     3
100
AcDbCircle
 10
1.821732702573413
 20
27.73412720176103
 30
0.0
 40
0.5
100
AcDbArc
 50
114.179106999997
 51
180.0
  0
LINE
  5
17C
330
2
100
AcDbEntity
  8
S1
  6
HIDDEN2
 62
     3
100
AcDbLine
 10
0.013753202573426
 20
28.31946695176103
 30
0.0
 11
0.3015279025734259
 21
28.19026200176103
 31
0.0
  0
LINE
  5
17D
330
2
100
AcDbEntity
  8
S1
  6
HIDDEN2
 62
     3
100
AcDbLine
 10
1.904712202573435
 20
28.31946695176103
 30
0.0
 11
1.616937502573435
 21
28.19026200176103
 31
0.0
  0
ARC
  5
17E
330
2
100
AcDbEntity
  8
S1
  6
HIDDEN2
 62
     3
100
AcDbCircle
 10
1.074059552573444
 20
24.69522105176102
 30
0.0
 40
0.25
100
AcDbArc
 50
90.0
 51
145.2885059999824
  0
ARC
  5
17F
330
2
100
AcDbEntity
  8
S1
  6
HIDDEN2
 62
     3
100
AcDbCircle
 10
1.074059552573444
 20
25.92022105176102
 30
0.0
 40
0.25
100
AcDbArc
 50
214.7114940000176
 51
270.0
  0
LINE
  5
180
330
2
100
AcDbEntity
  8
S1
  6
HIDDEN2
 62
     3
100
AcDbLine
 10
-0.2407672974265864
 20
25.85772105176102
 30
0.0
 11
-0.2407672974265864
 21
24.75772105176103
 31
0.0
  0
LINE
  5
181
330
2
100
AcDbEntity
  8
S1
  6
HIDDEN2
 62
     3
100
AcDbLine
 10
-0.3207672974265137
 20
25.85772105176102
 30
0.0
 11
-0.3207672974265137
 21
24.75772105176103
 31
0.0
  0
LINE
  5
182
330
2
100
AcDbEntity
  8
S1
  6
HIDDEN2
 62
     3
100
AcDbLine
 10
-0.2407672974265864
 20
25.85772105176102
 30
0.0
 11
-0.3207672974265137
 21
25.85772105176102
 31
0.0
  0
LINE
  5
183
330
2
100
AcDbEntity
  8
S1
  6
HIDDEN2
 62
     3
100
AcDbLine
 10
-0.2407672974265864
 20
24.75772105176103
 30
0.0
 11
-0.3207672974265137
 21
24.75772105176103
 31
0.0
  0
LINE
  5
184
330
2
100
AcDbEntity
  8
S1
  6
HIDDEN2
 62
     3
100
AcDbLine
 10
0.334232702573459
 20
24.55772105176101
 30
0.0
 11
-0.3207672974265137
 21
24.55772105176101
 31
0.0
  0
LINE
  5
185
330
2
100
AcDbEntity
  8
S1
  6
HIDDEN2
 62
     3
100
AcDbLine
 10
0.334232702573459
 20
26.05772105176101
 30
0.0
 11
-0.3207672974265137
 21
26.05772105176101
 31
0.0
  0
ARC
  5
186
330
2
100
AcDbEntity
  8
S1
  6
HIDDEN2
 62
     3
100
AcDbCircle
 10
-0.2407672974265864
 20
25.30772105176101
 30
0.0
 40
0.55
100
AcDbArc
 50
270.0
 51
90.0
  0
ARC
  5
187
330
2
100
AcDbEntity
  8
S1
  6
HIDDEN2
 62
     3
100
AcDbCircle
 10
-0.3207672974265137
 20
25.95772105176101
 30
0.0
 40
0.1
100
AcDbArc
 50
90.0
 51
270.0
  0
ARC
  5
188
330
2
100
AcDbEntity
  8
S1
  6
HIDDEN2
 62
     3
100
AcDbCircle
 10
-0.3207672974265137
 20
24.657721051761
 30
0.0
 40
0.1
100
AcDbArc
 50
90.0
 51
270.0
  0
ARC
  5
189
330
2
100
AcDbEntity
  8
S1
  6
HIDDEN2
 62
     3
100
AcDbCircle
 10
0.334232702573459
 20
25.20772105176102
 30
0.0
 40
0.65
100
AcDbArc
 50
270.0
 51
325.2885059999824
  0
ARC
  5
18A
330
2
100
AcDbEntity
  8
S1
  6
HIDDEN2
 62
     3
100
AcDbCircle
 10
0.334232702573459
 20
25.407721051761
 30
0.0
 40
0.65
100
AcDbArc
 50
34.7114940000176
 51
90.0
  0
LINE
  5
18B
330
2
100
AcDbEntity
  8
S1
  6
HIDDEN2
 62
     3
100
AcDbLine
 10
1.909232702573447
 20
25.27022105176101
 30
0.0
 11
1.909232702573447
 21
25.345221051761
 31
0.0
  0
ARC
  5
18C
330
2
100
AcDbEntity
  8
S1
  6
HIDDEN2
 62
     3
100
AcDbCircle
 10
1.584232702573459
 20
25.345221051761
 30
0.0
 40
0.325
100
AcDbArc
 50
0.0
 51
90.0
  0
ARC
  5
18D
330
2
100
AcDbEntity
  8
S1
  6
HIDDEN2
 62
     3
100
AcDbCircle
 10
1.584232702573459
 20
25.27022105176101
 30
0.0
 40
0.325
100
AcDbArc
 50
270.0
 51
0.0
  0
LINE
  5
18E
330
2
100
AcDbEntity
  8
S1
  6
HIDDEN2
 62
     3
100
AcDbLine
 10
1.584232702573459
 20
25.67022105176102
 30
0.0
 11
1.074059552573444
 21
25.67022105176102
 31
0.0
  0
LINE
  5
18F
330
2
100
AcDbEntity
  8
S1
  6
HIDDEN2
 62
     3
100
AcDbLine
 10
1.584232702573459
 20
24.94522105176102
 30
0.0
 11
1.074059552573444
 21
24.94522105176102
 31
0.0
  0
ARC
  5
190
330
2
100
AcDbEntity
  8
S1
  6
HIDDEN2
 62
     3
100
AcDbCircle
 10
-0.3207672974265137
 20
9.657721051761001
 30
0.0
 40
0.1
100
AcDbArc
 50
90.0
 51
270.0
  0
ARC
  5
191
330
2
100
AcDbEntity
  8
S1
  6
HIDDEN2
 62
     3
100
AcDbCircle
 10
-0.3207672974265137
 20
10.95772105176101
 30
0.0
 40
0.1
100
AcDbArc
 50
90.0
 51
270.0
  0
ARC
  5
192
330
2
100
AcDbEntity
  8
S1
  6
HIDDEN2
 62
     3
100
AcDbCircle
 10
-0.2407672974265864
 20
10.307721051761
 30
0.0
 40
0.55
100
AcDbArc
 50
270.0
 51
90.0
  0
ARC
  5
193
330
2
100
AcDbEntity
  8
S1
  6
HIDDEN2
 62
     3
100
AcDbCircle
 10
0.3092327025734818
 20
13.66272105176102
 30
0.0
 40
0.1
100
AcDbArc
 50
0.0
 51
180.0
  0
ARC
  5
194
330
2
100
AcDbEntity
  8
S1
  6
HIDDEN2
 62
     3
100
AcDbCircle
 10
1.609232702573436
 20
13.66272105176102
 30
0.0
 40
0.1
100
AcDbArc
 50
0.0
 51
180.0
  0
ARC
  5
195
330
2
100
AcDbEntity
  8
S1
  6
HIDDEN2
 62
     3
100
AcDbCircle
 10
0.959232702573459
 20
13.58272105176101
 30
0.0
 40
0.55
100
AcDbArc
 50
180.0
 51
0.0
  0
ARC
  5
196
330
2
100
AcDbEntity
  8
S1
  6
HIDDEN2
 62
     3
100
AcDbCircle
 10
0.4342327025734818
 20
28.30772105176101
 30
0.0
 40
0.25
100
AcDbArc
 50
180.0
 51
196.6650910000043
  0
LINE
  5
197
330
2
100
AcDbEntity
  8
S1
  6
HIDDEN2
 62
     3
100
AcDbLine
 10
0.4342327025734818
 20
28.05772105176101
 30
0.0
 11
0.5144866525734671
 21
28.05772105176101
 31
0.0
  0
ARC
  5
198
330
2
100
AcDbEntity
  8
S1
  6
HIDDEN2
 62
     3
100
AcDbCircle
 10
1.484232702573436
 20
28.30772105176101
 30
0.0
 40
0.25
100
AcDbArc
 50
343.3349089999957
 51
0.0
  0
LINE
  5
199
330
2
100
AcDbEntity
  8
S1
  6
HIDDEN2
 62
     3
100
AcDbLine
 10
1.403978752573451
 20
28.05772105176101
 30
0.0
 11
1.484232702573436
 21
28.05772105176101
 31
0.0
  0
ARC
  5
19A
330
2
100
AcDbEntity
  8
S1
  6
HIDDEN2
 62
     3
100
AcDbCircle
 10
0.4342327025734818
 20
28.30772105176101
 30
0.0
 40
0.25
100
AcDbArc
 50
196.6650910000043
 51
270.0
  0
ARC
  5
19B
330
2
100
AcDbEntity
  8
S1
  6
HIDDEN2
 62
     3
100
AcDbCircle
 10
1.484232702573436
 20
28.30772105176101
 30
0.0
 40
0.25
100
AcDbArc
 50
270.0
 51
343.3349089999957
  0
LINE
  5
19C
330
2
100
AcDbEntity
  8
S1
  6
HIDDEN2
 62
     3
100
AcDbLine
 10
0.5144866525734671
 20
28.05772105176101
 30
0.0
 11
1.403978752573451
 21
28.05772105176101
 31
0.0
  0
LINE
  5
19D
330
2
100
AcDbEntity
  8
S1
  6
HIDDEN2
 62
     3
100
AcDbLine
 10
-0.0157672974265637
 20
28.45772105176101
 30
0.0
 11
-0.0157672974265637
 21
28.365080451761
 31
0.0
  0
LINE
  5
19E
330
2
100
AcDbEntity
  8
S1
  6
HIDDEN2
 62
     3
100
AcDbLine
 10
1.934232702573481
 20
28.45772105176101
 30
0.0
 11
1.934232702573481
 21
28.365080451761
 31
0.0
  0
LINE
  5
19F
330
2
100
AcDbEntity
  8
S1
  6
HIDDEN2
 62
     3
100
AcDbLine
 10
0.1842327025734818
 20
28.377721051761
 30
0.0
 11
-0.0156324474265688
 21
28.377721051761
 31
0.0
  0
LINE
  5
1A0
330
2
100
AcDbEntity
  8
S1
  6
HIDDEN2
 62
     3
100
AcDbLine
 10
1.734232702573436
 20
28.377721051761
 30
0.0
 11
0.1842327025734818
 21
28.377721051761
 31
0.0
  0
LINE
  5
1A1
330
2
100
AcDbEntity
  8
S1
  6
HIDDEN2
 62
     3
100
AcDbLine
 10
0.1842327025734818
 20
28.30772105176101
 30
0.0
 11
0.1842327025734818
 21
28.377721051761
 31
0.0
  0
LINE
  5
1A2
330
2
100
AcDbEntity
  8
S1
  6
HIDDEN2
 62
     3
100
AcDbLine
 10
1.734232702573436
 20
28.30772105176101
 30
0.0
 11
1.734232702573436
 21
28.377721051761
 31
0.0
  0
LINE
  5
1A3
330
2
100
AcDbEntity
  8
S1
  6
HIDDEN2
 62
     3
100
AcDbLine
 10
0.1842327025734818
 20
28.377721051761
 30
0.0
 11
0.1842327025734818
 21
28.45772105176101
 31
0.0
  0
LINE
  5
1A4
330
2
100
AcDbEntity
  8
S1
  6
HIDDEN2
 62
     3
100
AcDbLine
 10
1.734232702573436
 20
28.45772105176101
 30
0.0
 11
1.734232702573436
 21
28.377721051761
 31
0.0
  0
ARC
  5
1A5
330
2
100
AcDbEntity
  8
S1
  6
HIDDEN2
 62
     3
100
AcDbCircle
 10
0.6542327025734523
 20
8.787721051761025
 30
0.0
 40
0.08
100
AcDbArc
 50
270.0
 51
0.0
  0
ARC
  5
1A6
330
2
100
AcDbEntity
  8
S1
  6
HIDDEN2
 62
     3
100
AcDbCircle
 10
1.014232702573465
 20
8.787721051761025
 30
0.0
 40
0.08
100
AcDbArc
 50
180.0
 51
270.0
  0
LINE
  5
1A7
330
2
100
AcDbEntity
  8
S1
  6
HIDDEN2
 62
     3
100
AcDbLine
 10
1.034232702573447
 20
8.887721051761019
 30
0.0
 11
0.6342327025734136
 21
8.887721051761019
 31
0.0
  0
LINE
  5
1A8
330
2
100
AcDbEntity
  8
S1
  6
HIDDEN2
 62
     3
100
AcDbLine
 10
1.034232702573447
 20
8.787721051761025
 30
0.0
 11
1.034232702573447
 21
8.887721051761019
 31
0.0
  0
LINE
  5
1A9
330
2
100
AcDbEntity
  8
S1
  6
HIDDEN2
 62
     3
100
AcDbLine
 10
0.9342327025734817
 20
8.787721051761025
 30
0.0
 11
0.9342327025734817
 21
8.887721051761019
 31
0.0
  0
LINE
  5
1AA
330
2
100
AcDbEntity
  8
S1
  6
HIDDEN2
 62
     3
100
AcDbLine
 10
0.7342327025734364
 20
8.787721051761025
 30
0.0
 11
0.7342327025734364
 21
8.887721051761019
 31
0.0
  0
LINE
  5
1AB
330
2
100
AcDbEntity
  8
S1
  6
HIDDEN2
 62
     3
100
AcDbLine
 10
0.6342327025734136
 20
8.787721051761025
 30
0.0
 11
0.6342327025734136
 21
8.887721051761019
 31
0.0
  0
LINE
  5
1AC
330
2
100
AcDbEntity
  8
S1
  6
HIDDEN2
 62
     3
100
AcDbLine
 10
0.7092327025734591
 20
8.887721051761019
 30
0.0
 11
0.7092327025734591
 21
8.729626301761015
 31
0.0
  0
LINE
  5
1AD
330
2
100
AcDbEntity
  8
S1
  6
HIDDEN2
 62
     3
100
AcDbLine
 10
0.959232702573459
 20
8.887721051761019
 30
0.0
 11
0.959232702573459
 21
8.729626301761015
 31
0.0
  0
ARC
  5
1AE
330
2
100
AcDbEntity
  8
S1
  6
HIDDEN2
 62
     3
100
AcDbCircle
 10
2.629232702573418
 20
12.76272105176102
 30
0.0
 40
0.08
100
AcDbArc
 50
270.0
 51
0.0
  0
ARC
  5
1AF
330
2
100
AcDbEntity
  8
S1
  6
HIDDEN2
 62
     3
100
AcDbCircle
 10
2.629232702573418
 20
12.35272105176099
 30
0.0
 40
0.08
100
AcDbArc
 50
0.0
 51
90.0
  0
LINE
  5
1B0
330
2
100
AcDbEntity
  8
S1
  6
HIDDEN2
 62
     3
100
AcDbLine
 10
2.529232702573452
 20
12.33272105176101
 30
0.0
 11
2.529232702573452
 21
12.782721051761
 31
0.0
  0
LINE
  5
1B1
330
2
100
AcDbEntity
  8
S1
  6
HIDDEN2
 62
     3
100
AcDbLine
 10
2.529232702573452
 20
12.70772105176101
 30
0.0
 11
2.687327452573427
 21
12.70772105176101
 31
0.0
  0
LINE
  5
1B2
330
2
100
AcDbEntity
  8
S1
  6
HIDDEN2
 62
     3
100
AcDbLine
 10
2.529232702573452
 20
12.407721051761
 30
0.0
 11
2.687327452573427
 21
12.407721051761
 31
0.0
  0
LINE
  5
1B3
330
2
100
AcDbEntity
  8
S1
  6
HIDDEN2
 62
     3
100
AcDbLine
 10
2.629232702573418
 20
12.43272105176101
 30
0.0
 11
2.529232702573452
 21
12.43272105176101
 31
0.0
  0
LINE
  5
1B4
330
2
100
AcDbEntity
  8
S1
  6
HIDDEN2
 62
     3
100
AcDbLine
 10
2.629232702573418
 20
12.68272105176101
 30
0.0
 11
2.529232702573452
 21
12.68272105176101
 31
0.0
  0
LINE
  5
1B5
330
2
100
AcDbEntity
  8
S1
  6
HIDDEN2
 62
     3
100
AcDbLine
 10
2.629232702573418
 20
12.33272105176101
 30
0.0
 11
2.529232702573452
 21
12.33272105176101
 31
0.0
  0
LINE
  5
1B6
330
2
100
AcDbEntity
  8
S1
  6
HIDDEN2
 62
     3
100
AcDbLine
 10
2.629232702573418
 20
12.782721051761
 30
0.0
 11
2.529232702573452
 21
12.782721051761
 31
0.0
  0
LINE
  5
1B7
330
2
100
AcDbEntity
  8
S1
  6
HIDDEN2
 62
     3
100
AcDbLine
 10
2.159232702573447
 20
28.27772105176101
 30
0.0
 11
2.159232702573447
 21
28.43581580176101
 31
0.0
  0
LINE
  5
1B8
330
2
100
AcDbEntity
  8
S1
  6
HIDDEN2
 62
     3
100
AcDbLine
 10
2.409232702573447
 20
28.27772105176101
 30
0.0
 11
2.409232702573447
 21
28.43581580176101
 31
0.0
  0
ARC
  5
1B9
330
2
100
AcDbEntity
  8
S1
  6
HIDDEN2
 62
     3
100
AcDbCircle
 10
2.60423270257344
 20
28.377721051761
 30
0.0
 40
0.08
100
AcDbArc
 50
180.0
 51
270.0
  0
ARC
  5
1BA
330
2
100
AcDbEntity
  8
S1
  6
HIDDEN2
 62
     3
100
AcDbCircle
 10
-0.6857672974265228
 20
28.377721051761
 30
0.0
 40
0.08
100
AcDbArc
 50
270.0
 51
0.0
  0
ARC
  5
1BB
330
2
100
AcDbEntity
  8
S1
  6
HIDDEN2
 62
     3
100
AcDbCircle
 10
-0.6857672974265228
 20
8.787721051761025
 30
0.0
 40
0.08
100
AcDbArc
 50
0.0
 51
90.0
  0
ARC
  5
1BC
330
2
100
AcDbEntity
  8
S1
  6
HIDDEN2
 62
     3
100
AcDbCircle
 10
2.60423270257344
 20
8.787721051761025
 30
0.0
 40
0.08
100
AcDbArc
 50
90.0
 51
180.0
  0
ARC
  5
1BD
330
2
100
AcDbEntity
  8
S1
  6
HIDDEN2
 62
     3
100
AcDbCircle
 10
0.334232702573459
 20
10.20772105176101
 30
0.0
 40
0.65
100
AcDbArc
 50
270.0
 51
325.2885059999824
  0
ARC
  5
1BE
330
2
100
AcDbEntity
  8
S1
  6
HIDDEN2
 62
     3
100
AcDbCircle
 10
1.074059552573444
 20
9.695221051761024
 30
0.0
 40
0.25
100
AcDbArc
 50
90.0
 51
145.2885059999824
  0
ARC
  5
1BF
330
2
100
AcDbEntity
  8
S1
  6
HIDDEN2
 62
     3
100
AcDbCircle
 10
1.074059552573444
 20
10.92022105176102
 30
0.0
 40
0.25
100
AcDbArc
 50
214.7114940000176
 51
270.0
  0
ARC
  5
1C0
330
2
100
AcDbEntity
  8
S1
  6
HIDDEN2
 62
     3
100
AcDbCircle
 10
0.334232702573459
 20
10.407721051761
 30
0.0
 40
0.65
100
AcDbArc
 50
34.7114940000176
 51
90.0
  0
LINE
  5
1C1
330
2
100
AcDbEntity
  8
S1
  6
HIDDEN2
 62
     3
100
AcDbLine
 10
0.334232702573459
 20
11.057721051761
 30
0.0
 11
-0.3207672974265137
 21
11.057721051761
 31
0.0
  0
LINE
  5
1C2
330
2
100
AcDbEntity
  8
S1
  6
HIDDEN2
 62
     3
100
AcDbLine
 10
0.334232702573459
 20
9.557721051761006
 30
0.0
 11
-0.3207672974265137
 21
9.557721051761006
 31
0.0
  0
LINE
  5
1C3
330
2
100
AcDbEntity
  8
S1
  6
HIDDEN2
 62
     3
100
AcDbLine
 10
-0.2407672974265864
 20
9.757721051761024
 30
0.0
 11
-0.3207672974265137
 21
9.757721051761024
 31
0.0
  0
LINE
  5
1C4
330
2
100
AcDbEntity
  8
S1
  6
HIDDEN2
 62
     3
100
AcDbLine
 10
-0.2407672974265864
 20
10.85772105176102
 30
0.0
 11
-0.3207672974265137
 21
10.85772105176102
 31
0.0
  0
LINE
  5
1C5
330
2
100
AcDbEntity
  8
S1
  6
HIDDEN2
 62
     3
100
AcDbLine
 10
-0.3207672974265137
 20
10.85772105176102
 30
0.0
 11
-0.3207672974265137
 21
9.757721051761024
 31
0.0
  0
LINE
  5
1C6
330
2
100
AcDbEntity
  8
S1
  6
HIDDEN2
 62
     3
100
AcDbLine
 10
-0.2407672974265864
 20
10.85772105176102
 30
0.0
 11
-0.2407672974265864
 21
9.757721051761024
 31
0.0
  0
LINE
  5
1C7
330
2
100
AcDbEntity
  8
S1
  6
HIDDEN2
 62
     3
100
AcDbLine
 10
0.4092327025734477
 20
13.58272105176101
 30
0.0
 11
0.4092327025734477
 21
13.66272105176102
 31
0.0
  0
LINE
  5
1C8
330
2
100
AcDbEntity
  8
S1
  6
HIDDEN2
 62
     3
100
AcDbLine
 10
1.509232702573413
 20
13.58272105176101
 30
0.0
 11
1.509232702573413
 21
13.66272105176102
 31
0.0
  0
ARC
  5
1C9
330
2
100
AcDbEntity
  8
S1
  6
HIDDEN2
 62
     3
100
AcDbCircle
 10
1.584232702573459
 20
10.27022105176101
 30
0.0
 40
0.325
100
AcDbArc
 50
270.0
 51
0.0
  0
ARC
  5
1CA
330
2
100
AcDbEntity
  8
S1
  6
HIDDEN2
 62
     3
100
AcDbCircle
 10
1.584232702573459
 20
10.345221051761
 30
0.0
 40
0.325
100
AcDbArc
 50
0.0
 51
90.0
  0
LINE
  5
1CB
330
2
100
AcDbEntity
  8
S1
  6
HIDDEN2
 62
     3
100
AcDbLine
 10
1.909232702573447
 20
10.27022105176101
 30
0.0
 11
1.909232702573447
 21
10.345221051761
 31
0.0
  0
LINE
  5
1CC
330
2
100
AcDbEntity
  8
S1
  6
HIDDEN2
 62
     3
100
AcDbLine
 10
1.584232702573459
 20
10.67022105176102
 30
0.0
 11
1.074059552573444
 21
10.67022105176102
 31
0.0
  0
LINE
  5
1CD
330
2
100
AcDbEntity
  8
S1
  6
HIDDEN2
 62
     3
100
AcDbLine
 10
1.584232702573459
 20
9.945221051761024
 30
0.0
 11
1.074059552573444
 21
9.945221051761024
 31
0.0
  0
LINE
  5
1CE
330
2
100
AcDbEntity
  8
S1
  6
HIDDEN2
 62
     3
100
AcDbLine
 10
1.321732702573413
 20
11.75772105176102
 30
0.0
 11
1.321732702573413
 21
12.01789420176101
 31
0.0
  0
LINE
  5
1CF
330
2
100
AcDbEntity
  8
S1
  6
HIDDEN2
 62
     3
100
AcDbLine
 10
0.5967327025734477
 20
11.75772105176102
 30
0.0
 11
0.5967327025734477
 21
12.01789420176101
 31
0.0
  0
ARC
  5
1D0
330
2
100
AcDbEntity
  8
S1
  6
HIDDEN2
 62
     3
100
AcDbCircle
 10
0.9217327025734363
 20
11.75772105176102
 30
0.0
 40
0.325
100
AcDbArc
 50
180.0
 51
270.0
  0
ARC
  5
1D1
330
2
100
AcDbEntity
  8
S1
  6
HIDDEN2
 62
     3
100
AcDbCircle
 10
0.9967327025734817
 20
11.75772105176102
 30
0.0
 40
0.325
100
AcDbArc
 50
270.0
 51
0.0
  0
LINE
  5
1D2
330
2
100
AcDbEntity
  8
S1
  6
HIDDEN2
 62
     3
100
AcDbLine
 10
0.9967327025734817
 20
11.43272105176101
 30
0.0
 11
0.9217327025734363
 21
11.43272105176101
 31
0.0
  0
ARC
  5
1D3
330
2
100
AcDbEntity
  8
S1
  6
HIDDEN2
 62
     3
100
AcDbCircle
 10
0.9217327025734363
 20
26.75772105176103
 30
0.0
 40
0.325
100
AcDbArc
 50
180.0
 51
270.0
  0
LINE
  5
1D4
330
2
100
AcDbEntity
  8
S1
  6
HIDDEN2
 62
     3
100
AcDbLine
 10
0.9967327025734817
 20
26.43272105176101
 30
0.0
 11
0.9217327025734363
 21
26.43272105176101
 31
0.0
  0
LINE
  5
1D5
330
2
100
AcDbEntity
  8
S1
  6
HIDDEN2
 62
     3
100
AcDbLine
 10
0.5967327025734477
 20
26.75772105176103
 30
0.0
 11
0.5967327025734477
 21
27.73412720176103
 31
0.0
  0
ARC
  5
1D6
330
2
100
AcDbEntity
  8
S1
  6
HIDDEN2
 62
     3
100
AcDbCircle
 10
0.9967327025734817
 20
26.75772105176103
 30
0.0
 40
0.325
100
AcDbArc
 50
270.0
 51
0.0
  0
LINE
  5
1D7
330
2
100
AcDbEntity
  8
S1
  6
HIDDEN2
 62
     3
100
AcDbLine
 10
1.321732702573413
 20
26.75772105176103
 30
0.0
 11
1.321732702573413
 21
27.73412720176103
 31
0.0
  0
ARC
  5
1D8
330
2
100
AcDbEntity
  8
S1
  6
HIDDEN2
 62
     3
100
AcDbCircle
 10
2.634232702573413
 20
8.632721051761024
 30
0.0
 40
0.075
100
AcDbArc
 50
270.0
 51
0.0
  0
LINE
  5
1D9
330
2
100
AcDbEntity
  8
S1
  6
HIDDEN2
 62
     3
100
AcDbLine
 10
2.609232702573436
 20
8.557721051761006
 30
0.0
 11
2.634232702573413
 21
8.557721051761006
 31
0.0
  0
ARC
  5
1DA
330
2
100
AcDbEntity
  8
S1
  6
HIDDEN2
 62
     3
100
AcDbCircle
 10
-0.7157672974265524
 20
8.632721051761024
 30
0.0
 40
0.075
100
AcDbArc
 50
180.0
 51
270.0
  0
LINE
  5
1DB
330
2
100
AcDbEntity
  8
S1
  6
HIDDEN2
 62
     3
100
AcDbLine
 10
-0.6907672974265183
 20
8.557721051761006
 30
0.0
 11
-0.7157672974265524
 21
8.557721051761006
 31
0.0
  0
ARC
  5
1DC
330
2
100
AcDbEntity
  8
S1
  6
HIDDEN2
 62
     3
100
AcDbCircle
 10
-0.7157672974265524
 20
28.532721051761
 30
0.0
 40
0.075
100
AcDbArc
 50
90.0
 51
180.0
  0
LINE
  5
1DD
330
2
100
AcDbEntity
  8
S1
  6
HIDDEN2
 62
     3
100
AcDbLine
 10
-0.6907672974265183
 20
28.60772105176102
 30
0.0
 11
-0.7157672974265524
 21
28.60772105176102
 31
0.0
  0
ARC
  5
1DE
330
2
100
AcDbEntity
  8
S1
  6
HIDDEN2
 62
     3
100
AcDbCircle
 10
2.634232702573413
 20
28.532721051761
 30
0.0
 40
0.075
100
AcDbArc
 50
0.0
 51
90.0
  0
LINE
  5
1DF
330
2
100
AcDbEntity
  8
S1
  6
HIDDEN2
 62
     3
100
AcDbLine
 10
2.609232702573436
 20
28.60772105176102
 30
0.0
 11
2.634232702573413
 21
28.60772105176102
 31
0.0
  0
LINE
  5
1E0
330
2
100
AcDbEntity
  8
S1
  6
HIDDEN2
 62
     3
100
AcDbLine
 10
2.484232702573436
 20
8.787721051761025
 30
0.0
 11
2.484232702573436
 21
8.887721051761019
 31
0.0
  0
LINE
  5
1E1
330
2
100
AcDbEntity
  8
S1
  6
HIDDEN2
 62
     3
100
AcDbLine
 10
-0.5657672974265183
 20
8.787721051761025
 30
0.0
 11
-0.5657672974265183
 21
8.887721051761019
 31
0.0
  0
ARC
  5
1E2
330
2
100
AcDbEntity
  8
S1
  6
HIDDEN2
 62
     3
100
AcDbCircle
 10
2.464232702573454
 20
8.787721051761025
 30
0.0
 40
0.08
100
AcDbArc
 50
180.0
 51
270.0
  0
ARC
  5
1E3
330
2
100
AcDbEntity
  8
S1
  6
HIDDEN2
 62
     3
100
AcDbCircle
 10
2.10423270257344
 20
8.787721051761025
 30
0.0
 40
0.08
100
AcDbArc
 50
270.0
 51
0.0
  0
LINE
  5
1E4
330
2
100
AcDbEntity
  8
S1
  6
HIDDEN2
 62
     3
100
AcDbLine
 10
2.484232702573436
 20
8.887721051761019
 30
0.0
 11
2.084232702573459
 21
8.887721051761019
 31
0.0
  0
LINE
  5
1E5
330
2
100
AcDbEntity
  8
S1
  6
HIDDEN2
 62
     3
100
AcDbLine
 10
2.384232702573413
 20
8.787721051761025
 30
0.0
 11
2.384232702573413
 21
8.887721051761019
 31
0.0
  0
LINE
  5
1E6
330
2
100
AcDbEntity
  8
S1
  6
HIDDEN2
 62
     3
100
AcDbLine
 10
2.184232702573481
 20
8.787721051761025
 30
0.0
 11
2.184232702573481
 21
8.887721051761019
 31
0.0
  0
LINE
  5
1E7
330
2
100
AcDbEntity
  8
S1
  6
HIDDEN2
 62
     3
100
AcDbLine
 10
2.084232702573459
 20
8.787721051761025
 30
0.0
 11
2.084232702573459
 21
8.887721051761019
 31
0.0
  0
ARC
  5
1E8
330
2
100
AcDbEntity
  8
S1
  6
HIDDEN2
 62
     3
100
AcDbCircle
 10
-0.1857672974265227
 20
8.787721051761025
 30
0.0
 40
0.08
100
AcDbArc
 50
180.0
 51
270.0
  0
ARC
  5
1E9
330
2
100
AcDbEntity
  8
S1
  6
HIDDEN2
 62
     3
100
AcDbCircle
 10
-0.5457672974265364
 20
8.787721051761025
 30
0.0
 40
0.08
100
AcDbArc
 50
270.0
 51
0.0
  0
LINE
  5
1EA
330
2
100
AcDbEntity
  8
S1
  6
HIDDEN2
 62
     3
100
AcDbLine
 10
-0.1657672974265409
 20
8.787721051761025
 30
0.0
 11
-0.1657672974265409
 21
8.887721051761019
 31
0.0
  0
LINE
  5
1EB
330
2
100
AcDbEntity
  8
S1
  6
HIDDEN2
 62
     3
100
AcDbLine
 10
-0.2657672974265637
 20
8.787721051761025
 30
0.0
 11
-0.2657672974265637
 21
8.887721051761019
 31
0.0
  0
LINE
  5
1EC
330
2
100
AcDbEntity
  8
S1
  6
HIDDEN2
 62
     3
100
AcDbLine
 10
-0.4657672974265524
 20
8.787721051761025
 30
0.0
 11
-0.4657672974265524
 21
8.887721051761019
 31
0.0
  0
LINE
  5
1ED
330
2
100
AcDbEntity
  8
S1
  6
HIDDEN2
 62
     3
100
AcDbLine
 10
-0.5657672974265183
 20
8.887721051761019
 30
0.0
 11
-0.1657672974265409
 21
8.887721051761019
 31
0.0
  0
LINE
  5
1EE
330
2
100
AcDbEntity
  8
S1
  6
HIDDEN2
 62
     3
100
AcDbLine
 10
2.534232702573447
 20
7.832721051761012
 30
0.0
 11
2.534232702573447
 21
8.482721051761018
 31
0.0
  0
LINE
  5
1EF
330
2
100
AcDbEntity
  8
S1
  6
HIDDEN2
 62
     3
100
AcDbLine
 10
3.284232702573447
 20
7.832721051761012
 30
0.0
 11
2.534232702573447
 21
7.832721051761012
 31
0.0
  0
LINE
  5
1F0
330
2
100
AcDbEntity
  8
S1
  6
HIDDEN2
 62
     3
100
AcDbLine
 10
3.284232702573447
 20
7.912721051761025
 30
0.0
 11
2.534232702573447
 21
7.912721051761025
 31
0.0
  0
LINE
  5
1F1
330
2
100
AcDbEntity
  8
S1
  6
HIDDEN2
 62
     3
100
AcDbLine
 10
3.184232702573481
 20
8.112721051761042
 30
0.0
 11
2.634232702573413
 21
8.112721051761042
 31
0.0
  0
ARC
  5
1F2
330
2
100
AcDbEntity
  8
S1
  6
HIDDEN2
 62
     3
100
AcDbCircle
 10
2.634232702573413
 20
8.012721051761019
 30
0.0
 40
0.1
100
AcDbArc
 50
90.0
 51
180.0
  0
ARC
  5
1F3
330
2
100
AcDbEntity
  8
S1
  6
HIDDEN2
 62
     3
100
AcDbCircle
 10
3.184232702573481
 20
8.012721051761019
 30
0.0
 40
0.1
100
AcDbArc
 50
0.0
 51
90.0
  0
ARC
  5
1F4
330
2
100
AcDbEntity
  8
S1
  6
HIDDEN2
 62
     3
100
AcDbCircle
 10
2.609232702573436
 20
8.482721051761018
 30
0.0
 40
0.075
100
AcDbArc
 50
90.0
 51
180.0
  0
ARC
  5
1F5
330
2
100
AcDbEntity
  8
S1
  6
HIDDEN2
 62
     3
100
AcDbCircle
 10
-0.6907672974265183
 20
8.482721051761018
 30
0.0
 40
0.075
100
AcDbArc
 50
0.0
 51
90.0
  0
ARC
  5
1F6
330
2
100
AcDbEntity
  8
S1
  6
HIDDEN2
 62
     3
100
AcDbCircle
 10
-1.265767297426563
 20
8.012721051761019
 30
0.0
 40
0.1
100
AcDbArc
 50
90.0
 51
180.0
  0
ARC
  5
1F7
330
2
100
AcDbEntity
  8
S1
  6
HIDDEN2
 62
     3
100
AcDbCircle
 10
-0.7157672974265524
 20
8.012721051761019
 30
0.0
 40
0.1
100
AcDbArc
 50
0.0
 51
90.0
  0
LINE
  5
1F8
330
2
100
AcDbEntity
  8
S1
  6
HIDDEN2
 62
     3
100
AcDbLine
 10
-1.265767297426563
 20
8.112721051761042
 30
0.0
 11
-0.7157672974265524
 21
8.112721051761042
 31
0.0
  0
LINE
  5
1F9
330
2
100
AcDbEntity
  8
S1
  6
HIDDEN2
 62
     3
100
AcDbLine
 10
-1.365767297426586
 20
7.912721051761025
 30
0.0
 11
-0.6157672974265865
 21
7.912721051761025
 31
0.0
  0
LINE
  5
1FA
330
2
100
AcDbEntity
  8
S1
  6
HIDDEN2
 62
     3
100
AcDbLine
 10
-1.365767297426586
 20
7.832721051761012
 30
0.0
 11
-0.6157672974265865
 21
7.832721051761012
 31
0.0
  0
LINE
  5
1FB
330
2
100
AcDbEntity
  8
S1
  6
HIDDEN2
 62
     3
100
AcDbLine
 10
-0.6157672974265865
 20
7.832721051761012
 30
0.0
 11
-0.6157672974265865
 21
8.482721051761018
 31
0.0
  0
LINE
  5
1FC
330
2
100
AcDbEntity
  8
S1
  6
HIDDEN2
 62
     3
100
AcDbLine
 10
-0.7107672974265569
 20
28.45772105176101
 30
0.0
 11
-0.7107672974265569
 21
28.29772105176102
 31
0.0
  0
LINE
  5
1FD
330
2
100
AcDbEntity
  8
S1
  6
HIDDEN2
 62
     3
100
AcDbLine
 10
-0.790767297426541
 20
28.29772105176102
 30
0.0
 11
-0.6857672974265228
 21
28.29772105176102
 31
0.0
  0
LINE
  5
1FE
330
2
100
AcDbEntity
  8
S1
  6
HIDDEN2
 62
     3
100
AcDbLine
 10
-0.7107672974265569
 20
28.45772105176101
 30
0.0
 11
-0.790767297426541
 21
28.45772105176101
 31
0.0
  0
LINE
  5
1FF
330
2
100
AcDbEntity
  8
S1
  6
HIDDEN2
 62
     3
100
AcDbLine
 10
-0.6057672974265387
 20
28.377721051761
 30
0.0
 11
-0.6057672974265387
 21
28.45772105176101
 31
0.0
  0
LINE
  5
200
330
2
100
AcDbEntity
  8
S1
  6
HIDDEN2
 62
     3
100
AcDbLine
 10
-0.6057672974265387
 20
28.377721051761
 30
0.0
 11
-0.6857672974265228
 21
28.377721051761
 31
0.0
  0
LINE
  5
201
330
2
100
AcDbEntity
  8
S1
  6
HIDDEN2
 62
     3
100
AcDbLine
 10
-0.6857672974265228
 20
28.45772105176101
 30
0.0
 11
-0.6857672974265228
 21
28.377721051761
 31
0.0
  0
LINE
  5
202
330
2
100
AcDbEntity
  8
S1
  6
HIDDEN2
 62
     3
100
AcDbLine
 10
-0.1657672974265409
 20
28.377721051761
 30
0.0
 11
-0.1657672974265409
 21
28.27772105176101
 31
0.0
  0
LINE
  5
203
330
2
100
AcDbEntity
  8
S1
  6
HIDDEN2
 62
     3
100
AcDbLine
 10
-0.5657672974265183
 20
28.377721051761
 30
0.0
 11
-0.5657672974265183
 21
28.27772105176101
 31
0.0
  0
LINE
  5
204
330
2
100
AcDbEntity
  8
S1
  6
HIDDEN2
 62
     3
100
AcDbLine
 10
-0.2657672974265637
 20
28.377721051761
 30
0.0
 11
-0.2657672974265637
 21
28.27772105176101
 31
0.0
  0
LINE
  5
205
330
2
100
AcDbEntity
  8
S1
  6
HIDDEN2
 62
     3
100
AcDbLine
 10
-0.4657672974265524
 20
28.377721051761
 30
0.0
 11
-0.4657672974265524
 21
28.27772105176101
 31
0.0
  0
LINE
  5
206
330
2
100
AcDbEntity
  8
S1
  6
HIDDEN2
 62
     3
100
AcDbLine
 10
-0.5657672974265183
 20
28.27772105176101
 30
0.0
 11
-0.1657672974265409
 21
28.27772105176101
 31
0.0
  0
ARC
  5
207
330
2
100
AcDbEntity
  8
S1
  6
HIDDEN2
 62
     3
100
AcDbCircle
 10
-0.5457672974265364
 20
28.377721051761
 30
0.0
 40
0.08
100
AcDbArc
 50
0.0
 51
90.0
  0
ARC
  5
208
330
2
100
AcDbEntity
  8
S1
  6
HIDDEN2
 62
     3
100
AcDbCircle
 10
-0.1857672974265227
 20
28.377721051761
 30
0.0
 40
0.08
100
AcDbArc
 50
90.0
 51
180.0
  0
LINE
  5
209
330
2
100
AcDbEntity
  8
S1
  6
HIDDEN2
 62
     3
100
AcDbLine
 10
-0.7107672974265569
 20
8.867721051761009
 30
0.0
 11
-0.7107672974265569
 21
28.29772105176102
 31
0.0
  0
LINE
  5
20A
330
2
100
AcDbEntity
  8
S1
  6
HIDDEN2
 62
     3
100
AcDbLine
 10
-0.6157672974265865
 20
29.33272105176101
 30
0.0
 11
-0.6157672974265865
 21
28.68272105176101
 31
0.0
  0
LINE
  5
20B
330
2
100
AcDbEntity
  8
S1
  6
HIDDEN2
 62
     3
100
AcDbLine
 10
-1.365767297426586
 20
29.33272105176101
 30
0.0
 11
-0.6157672974265865
 21
29.33272105176101
 31
0.0
  0
LINE
  5
20C
330
2
100
AcDbEntity
  8
S1
  6
HIDDEN2
 62
     3
100
AcDbLine
 10
-1.365767297426586
 20
29.252721051761
 30
0.0
 11
-0.6157672974265865
 21
29.252721051761
 31
0.0
  0
LINE
  5
20D
330
2
100
AcDbEntity
  8
S1
  6
HIDDEN2
 62
     3
100
AcDbLine
 10
-1.265767297426563
 20
29.05272105176099
 30
0.0
 11
-0.7157672974265524
 21
29.05272105176099
 31
0.0
  0
ARC
  5
20E
330
2
100
AcDbEntity
  8
S1
  6
HIDDEN2
 62
     3
100
AcDbCircle
 10
-0.7157672974265524
 20
29.152721051761
 30
0.0
 40
0.1
100
AcDbArc
 50
270.0
 51
0.0
  0
ARC
  5
20F
330
2
100
AcDbEntity
  8
S1
  6
HIDDEN2
 62
     3
100
AcDbCircle
 10
-1.265767297426563
 20
29.152721051761
 30
0.0
 40
0.1
100
AcDbArc
 50
180.0
 51
270.0
  0
ARC
  5
210
330
2
100
AcDbEntity
  8
S1
  6
HIDDEN2
 62
     3
100
AcDbCircle
 10
-0.6907672974265183
 20
28.68272105176101
 30
0.0
 40
0.075
100
AcDbArc
 50
270.0
 51
0.0
  0
LINE
  5
211
330
2
100
AcDbEntity
  8
S1
  6
HIDDEN2
 62
     3
100
AcDbLine
 10
-1.365767297426586
 20
29.33272105176101
 30
0.0
 11
-1.365767297426586
 21
7.832721051761012
 31
0.0
  0
LINE
  5
212
330
2
100
AcDbEntity
  8
S1
  6
HIDDEN2
 62
     3
100
AcDbLine
 10
-0.790767297426541
 20
28.532721051761
 30
0.0
 11
-0.790767297426541
 21
8.632721051761024
 31
0.0
  0
ARC
  5
213
330
2
100
AcDbEntity
  8
S1
  6
HIDDEN2
 62
     3
100
AcDbCircle
 10
2.10423270257344
 20
28.377721051761
 30
0.0
 40
0.08
100
AcDbArc
 50
0.0
 51
90.0
  0
ARC
  5
214
330
2
100
AcDbEntity
  8
S1
  6
HIDDEN2
 62
     3
100
AcDbCircle
 10
2.464232702573454
 20
28.377721051761
 30
0.0
 40
0.08
100
AcDbArc
 50
90.0
 51
180.0
  0
LINE
  5
215
330
2
100
AcDbEntity
  8
S1
  6
HIDDEN2
 62
     3
100
AcDbLine
 10
2.484232702573436
 20
28.27772105176101
 30
0.0
 11
2.084232702573459
 21
28.27772105176101
 31
0.0
  0
LINE
  5
216
330
2
100
AcDbEntity
  8
S1
  6
HIDDEN2
 62
     3
100
AcDbLine
 10
2.384232702573413
 20
28.377721051761
 30
0.0
 11
2.384232702573413
 21
28.27772105176101
 31
0.0
  0
LINE
  5
217
330
2
100
AcDbEntity
  8
S1
  6
HIDDEN2
 62
     3
100
AcDbLine
 10
2.184232702573481
 20
28.377721051761
 30
0.0
 11
2.184232702573481
 21
28.27772105176101
 31
0.0
  0
LINE
  5
218
330
2
100
AcDbEntity
  8
S1
  6
HIDDEN2
 62
     3
100
AcDbLine
 10
2.484232702573436
 20
28.377721051761
 30
0.0
 11
2.484232702573436
 21
28.27772105176101
 31
0.0
  0
LINE
  5
219
330
2
100
AcDbEntity
  8
S1
  6
HIDDEN2
 62
     3
100
AcDbLine
 10
2.084232702573459
 20
28.377721051761
 30
0.0
 11
2.084232702573459
 21
28.27772105176101
 31
0.0
  0
LINE
  5
21A
330
2
100
AcDbEntity
  8
S1
  6
HIDDEN2
 62
     3
100
AcDbLine
 10
-0.6057672974265387
 20
8.787721051761025
 30
0.0
 11
-0.6057672974265387
 21
8.707721051761012
 31
0.0
  0
LINE
  5
21B
330
2
100
AcDbEntity
  8
S1
  6
HIDDEN2
 62
     3
100
AcDbLine
 10
-0.7107672974265569
 20
8.707721051761012
 30
0.0
 11
-0.7107672974265569
 21
8.867721051761009
 31
0.0
  0
LINE
  5
21C
330
2
100
AcDbEntity
  8
S1
  6
HIDDEN2
 62
     3
100
AcDbLine
 10
-0.790767297426541
 20
8.867721051761009
 30
0.0
 11
-0.6857672974265228
 21
8.867721051761009
 31
0.0
  0
LINE
  5
21D
330
2
100
AcDbEntity
  8
S1
  6
HIDDEN2
 62
     3
100
AcDbLine
 10
-0.7107672974265569
 20
8.707721051761012
 30
0.0
 11
-0.790767297426541
 21
8.707721051761012
 31
0.0
  0
LINE
  5
21E
330
2
100
AcDbEntity
  8
S1
  6
HIDDEN2
 62
     3
100
AcDbLine
 10
-0.6857672974265228
 20
8.707721051761012
 30
0.0
 11
-0.6857672974265228
 21
8.787721051761025
 31
0.0
  0
LINE
  5
21F
330
2
100
AcDbEntity
  8
S1
  6
HIDDEN2
 62
     3
100
AcDbLine
 10
-0.6057672974265387
 20
8.787721051761025
 30
0.0
 11
-0.6857672974265228
 21
8.787721051761025
 31
0.0
  0
ARC
  5
220
330
2
100
AcDbEntity
  8
S1
  6
HIDDEN2
 62
     3
100
AcDbCircle
 10
2.609232702573436
 20
28.68272105176101
 30
0.0
 40
0.075
100
AcDbArc
 50
180.0
 51
270.0
  0
LINE
  5
221
330
2
100
AcDbEntity
  8
S1
  6
HIDDEN2
 62
     3
100
AcDbLine
 10
3.284232702573447
 20
29.33272105176101
 30
0.0
 11
3.284232702573447
 21
7.832721051761012
 31
0.0
  0
LINE
  5
222
330
2
100
AcDbEntity
  8
S1
  6
HIDDEN2
 62
     3
100
AcDbLine
 10
1.93409785257343
 20
28.377721051761
 30
0.0
 11
2.524232702573456
 21
28.377721051761
 31
0.0
  0
LINE
  5
223
330
2
100
AcDbEntity
  8
S1
  6
HIDDEN2
 62
     3
100
AcDbLine
 10
-0.0156324474265688
 20
28.377721051761
 30
0.0
 11
-0.6057672974265387
 21
28.377721051761
 31
0.0
  0
LINE
  5
224
330
2
100
AcDbEntity
  8
S1
  6
HIDDEN2
 62
     3
100
AcDbLine
 10
2.524232702573456
 20
8.787721051761025
 30
0.0
 11
-0.6057672974265387
 21
8.787721051761025
 31
0.0
  0
LINE
  5
225
330
2
100
AcDbEntity
  8
S1
  6
HIDDEN2
 62
     3
100
AcDbLine
 10
2.629232702573418
 20
8.867721051761009
 30
0.0
 11
2.629232702573418
 21
28.29772105176102
 31
0.0
  0
ARC
  5
226
330
2
100
AcDbEntity
  8
S1
  6
HIDDEN2
 62
     3
100
AcDbCircle
 10
3.184232702573481
 20
29.152721051761
 30
0.0
 40
0.1
100
AcDbArc
 50
270.0
 51
0.0
  0
ARC
  5
227
330
2
100
AcDbEntity
  8
S1
  6
HIDDEN2
 62
     3
100
AcDbCircle
 10
2.634232702573413
 20
29.152721051761
 30
0.0
 40
0.1
100
AcDbArc
 50
180.0
 51
270.0
  0
LINE
  5
228
330
2
100
AcDbEntity
  8
S1
  6
HIDDEN2
 62
     3
100
AcDbLine
 10
3.184232702573481
 20
29.05272105176099
 30
0.0
 11
2.634232702573413
 21
29.05272105176099
 31
0.0
  0
LINE
  5
229
330
2
100
AcDbEntity
  8
S1
  6
HIDDEN2
 62
     3
100
AcDbLine
 10
3.284232702573447
 20
29.252721051761
 30
0.0
 11
2.534232702573447
 21
29.252721051761
 31
0.0
  0
LINE
  5
22A
330
2
100
AcDbEntity
  8
S1
  6
HIDDEN2
 62
     3
100
AcDbLine
 10
3.284232702573447
 20
29.33272105176101
 30
0.0
 11
2.534232702573447
 21
29.33272105176101
 31
0.0
  0
LINE
  5
22B
330
2
100
AcDbEntity
  8
S1
  6
HIDDEN2
 62
     3
100
AcDbLine
 10
2.534232702573447
 20
29.33272105176101
 30
0.0
 11
2.534232702573447
 21
28.68272105176101
 31
0.0
  0
LINE
  5
22C
330
2
100
AcDbEntity
  8
S1
  6
HIDDEN2
 62
     3
100
AcDbLine
 10
2.60423270257344
 20
8.707721051761012
 30
0.0
 11
2.60423270257344
 21
8.787721051761025
 31
0.0
  0
LINE
  5
22D
330
2
100
AcDbEntity
  8
S1
  6
HIDDEN2
 62
     3
100
AcDbLine
 10
2.60423270257344
 20
28.45772105176101
 30
0.0
 11
2.60423270257344
 21
28.377721051761
 31
0.0
  0
LINE
  5
22E
330
2
100
AcDbEntity
  8
S1
  6
HIDDEN2
 62
     3
100
AcDbLine
 10
2.524232702573456
 20
8.787721051761025
 30
0.0
 11
2.60423270257344
 21
8.787721051761025
 31
0.0
  0
LINE
  5
22F
330
2
100
AcDbEntity
  8
S1
  6
HIDDEN2
 62
     3
100
AcDbLine
 10
2.524232702573456
 20
8.787721051761025
 30
0.0
 11
2.524232702573456
 21
8.707721051761012
 31
0.0
  0
LINE
  5
230
330
2
100
AcDbEntity
  8
S1
  6
HIDDEN2
 62
     3
100
AcDbLine
 10
2.629232702573418
 20
8.707721051761012
 30
0.0
 11
2.709232702573459
 21
8.707721051761012
 31
0.0
  0
LINE
  5
231
330
2
100
AcDbEntity
  8
S1
  6
HIDDEN2
 62
     3
100
AcDbLine
 10
2.709232702573459
 20
8.867721051761009
 30
0.0
 11
2.60423270257344
 21
8.867721051761009
 31
0.0
  0
LINE
  5
232
330
2
100
AcDbEntity
  8
S1
  6
HIDDEN2
 62
     3
100
AcDbLine
 10
2.629232702573418
 20
8.707721051761012
 30
0.0
 11
2.629232702573418
 21
8.867721051761009
 31
0.0
  0
LINE
  5
233
330
2
100
AcDbEntity
  8
S1
  6
HIDDEN2
 62
     3
100
AcDbLine
 10
2.524232702573456
 20
28.377721051761
 30
0.0
 11
2.60423270257344
 21
28.377721051761
 31
0.0
  0
LINE
  5
234
330
2
100
AcDbEntity
  8
S1
  6
HIDDEN2
 62
     3
100
AcDbLine
 10
2.524232702573456
 20
28.377721051761
 30
0.0
 11
2.524232702573456
 21
28.45772105176101
 31
0.0
  0
LINE
  5
235
330
2
100
AcDbEntity
  8
S1
  6
HIDDEN2
 62
     3
100
AcDbLine
 10
2.629232702573418
 20
28.45772105176101
 30
0.0
 11
2.709232702573459
 21
28.45772105176101
 31
0.0
  0
LINE
  5
236
330
2
100
AcDbEntity
  8
S1
  6
HIDDEN2
 62
     3
100
AcDbLine
 10
2.709232702573459
 20
28.29772105176102
 30
0.0
 11
2.60423270257344
 21
28.29772105176102
 31
0.0
  0
LINE
  5
237
330
2
100
AcDbEntity
  8
S1
  6
HIDDEN2
 62
     3
100
AcDbLine
 10
2.629232702573418
 20
28.45772105176101
 30
0.0
 11
2.629232702573418
 21
28.29772105176102
 31
0.0
  0
LINE
  5
238
330
2
100
AcDbEntity
  8
S1
  6
HIDDEN2
 62
     3
100
AcDbLine
 10
1.93409785257343
 20
28.377721051761
 30
0.0
 11
1.734232702573436
 21
28.377721051761
 31
0.0
  0
LINE
  5
239
330
2
100
AcDbEntity
  8
S1
  6
HIDDEN2
 62
     3
100
AcDbLine
 10
2.60423270257344
 20
8.707721051761012
 30
0.0
 11
-0.6857672974265228
 21
8.707721051761012
 31
0.0
  0
LINE
  5
23A
330
2
100
AcDbEntity
  8
S1
  6
HIDDEN2
 62
     3
100
AcDbLine
 10
2.60423270257344
 20
28.45772105176101
 30
0.0
 11
-0.6857672974265228
 21
28.45772105176101
 31
0.0
  0
LINE
  5
23B
330
2
100
AcDbEntity
  8
S1
  6
HIDDEN2
 62
     3
100
AcDbLine
 10
2.709232702573459
 20
28.532721051761
 30
0.0
 11
2.709232702573459
 21
8.632721051761024
 31
0.0
  0
LINE
  5
23C
330
2
100
AcDbEntity
  8
S1
  6
HIDDEN2
 62
     3
100
AcDbLine
 10
0.209232702573459
 20
12.75772105176102
 30
0.0
 11
0.209232702573459
 21
13.66272105176102
 31
0.0
  0
ARC
  5
23D
330
2
100
AcDbEntity
  8
S1
  6
HIDDEN2
 62
     3
100
AcDbCircle
 10
1.059232702573481
 20
12.75772105176102
 30
0.0
 40
0.65
100
AcDbArc
 50
304.7114940000081
 51
0.0
  0
LINE
  5
23E
330
2
100
AcDbEntity
  8
S1
  6
HIDDEN2
 62
     3
100
AcDbLine
 10
1.509232702573413
 20
13.66272105176102
 30
0.0
 11
0.4092327025734477
 21
13.66272105176102
 31
0.0
  0
LINE
  5
23F
330
2
100
AcDbEntity
  8
S1
  6
HIDDEN2
 62
     3
100
AcDbLine
 10
1.709232702573459
 20
12.75772105176102
 30
0.0
 11
1.709232702573459
 21
13.66272105176102
 31
0.0
  0
LINE
  5
240
330
2
100
AcDbEntity
  8
S1
  6
HIDDEN2
 62
     3
100
AcDbLine
 10
1.509232702573413
 20
13.58272105176101
 30
0.0
 11
0.4092327025734477
 21
13.58272105176101
 31
0.0
  0
ARC
  5
241
330
2
100
AcDbEntity
  8
S1
  6
HIDDEN2
 62
     3
100
AcDbCircle
 10
0.3467327025734477
 20
12.01789420176101
 30
0.0
 40
0.25
100
AcDbArc
 50
0.0
 51
55.28850599999186
  0
ARC
  5
242
330
2
100
AcDbEntity
  8
S1
  6
HIDDEN2
 62
     3
100
AcDbCircle
 10
1.571732702573413
 20
12.01789420176101
 30
0.0
 40
0.25
100
AcDbArc
 50
124.7114940000081
 51
180.0
  0
ARC
  5
243
330
2
100
AcDbEntity
  8
S1
  6
HIDDEN2
 62
     3
100
AcDbCircle
 10
0.8592327025734363
 20
12.75772105176102
 30
0.0
 40
0.65
100
AcDbArc
 50
180.0
 51
235.2885059999918
  0
LINE
  5
244
330
2
100
AcDbEntity
  8
S1
  6
HIDDEN2
 62
     3
100
AcDbLine
 10
-2.990767297426586
 20
28.45772105176101
 30
0.0
 11
-2.990767297426586
 21
28.55772105176101
 31
0.0
  0
LINE
  5
245
330
2
100
AcDbEntity
  8
S1
  6
HIDDEN2
 62
     3
100
AcDbLine
 10
-14.46576729742655
 20
28.45772105176101
 30
0.0
 11
-14.46576729742655
 21
28.55772105176101
 31
0.0
  0
LINE
  5
246
330
2
100
AcDbEntity
  8
S1
  6
HIDDEN2
 62
     3
100
AcDbLine
 10
-22.29076729742654
 20
28.45772105176101
 30
0.0
 11
-22.29076729742654
 21
28.55772105176101
 31
0.0
  0
LINE
  5
247
330
2
100
AcDbEntity
  8
S1
  6
HIDDEN2
 62
     3
100
AcDbLine
 10
-18.06576729742651
 20
28.45772105176101
 30
0.0
 11
-18.06576729742651
 21
28.55772105176101
 31
0.0
  0
ARC
  5
248
330
2
100
AcDbEntity
  8
S1
  6
HIDDEN2
 62
     3
100
AcDbCircle
 10
-9.04076729742654
 20
29.83272105176101
 30
0.0
 40
0.175
100
AcDbArc
 50
0.0
 51
180.0
  0
ARC
  5
249
330
2
100
AcDbEntity
  8
S1
  6
HIDDEN2
 62
     3
100
AcDbCircle
 10
-11.79076729742654
 20
29.83272105176101
 30
0.0
 40
0.175
100
AcDbArc
 50
90.0
 51
270.0
  0
LINE
  5
24A
330
2
100
AcDbEntity
  8
S1
  6
HIDDEN2
 62
     3
100
AcDbLine
 10
-9.79076729742654
 20
29.657721051761
 30
0.0
 11
-11.79076729742654
 21
29.657721051761
 31
0.0
  0
LINE
  5
24B
330
2
100
AcDbEntity
  8
S1
  6
HIDDEN2
 62
     3
100
AcDbLine
 10
-9.79076729742654
 20
30.00772105176102
 30
0.0
 11
-11.79076729742654
 21
30.00772105176102
 31
0.0
  0
ARC
  5
24C
330
2
100
AcDbEntity
  8
S1
  6
HIDDEN2
 62
     3
100
AcDbCircle
 10
-9.79076729742654
 20
29.83272105176101
 30
0.0
 40
0.175
100
AcDbArc
 50
270.0
 51
90.0
  0
LINE
  5
24D
330
2
100
AcDbEntity
  8
S1
  6
HIDDEN2
 62
     3
100
AcDbLine
 10
-9.215767297426552
 20
29.65343995176104
 30
0.0
 11
-9.215767297426552
 21
29.83272105176101
 31
0.0
  0
ARC
  5
24E
330
2
100
AcDbEntity
  8
S1
  6
HIDDEN2
 62
     3
100
AcDbCircle
 10
-6.29076729742654
 20
29.83272105176101
 30
0.0
 40
0.175
100
AcDbArc
 50
270.0
 51
90.0
  0
LINE
  5
24F
330
2
100
AcDbEntity
  8
S1
  6
HIDDEN2
 62
     3
100
AcDbLine
 10
-8.29076729742654
 20
29.657721051761
 30
0.0
 11
-6.29076729742654
 21
29.657721051761
 31
0.0
  0
LINE
  5
250
330
2
100
AcDbEntity
  8
S1
  6
HIDDEN2
 62
     3
100
AcDbLine
 10
-8.29076729742654
 20
30.00772105176102
 30
0.0
 11
-6.29076729742654
 21
30.00772105176102
 31
0.0
  0
ARC
  5
251
330
2
100
AcDbEntity
  8
S1
  6
HIDDEN2
 62
     3
100
AcDbCircle
 10
-8.29076729742654
 20
29.83272105176101
 30
0.0
 40
0.175
100
AcDbArc
 50
90.0
 51
270.0
  0
LINE
  5
252
330
2
100
AcDbEntity
  8
S1
  6
HIDDEN2
 62
     3
100
AcDbLine
 10
-8.865767297426586
 20
29.65343995176104
 30
0.0
 11
-8.865767297426586
 21
29.83272105176101
 31
0.0
  0
LINE
  5
253
330
2
100
AcDbEntity
  8
S1
  6
HIDDEN2
 62
     3
100
AcDbLine
 10
-9.04076729742654
 20
30.70772105176101
 30
0.0
 11
-22.79076729742654
 21
30.70772105176101
 31
0.0
  0
LINE
  5
254
330
2
100
AcDbEntity
  8
S1
  6
HIDDEN2
 62
     3
100
AcDbLine
 10
-9.04076729742654
 20
28.45772105176101
 30
0.0
 11
-22.79076729742654
 21
28.45772105176101
 31
0.0
  0
ARC
  5
255
330
2
100
AcDbEntity
  8
S1
  6
HIDDEN2
 62
     3
100
AcDbCircle
 10
-9.04076729742654
 20
29.32272105176102
 30
0.0
 40
0.35
100
AcDbArc
 50
124.2288660000114
 51
55.77113399998858
  0
LINE
  5
256
330
2
100
AcDbEntity
  8
S1
  6
HIDDEN2
 62
     3
100
AcDbLine
 10
-9.04076729742654
 20
28.55772105176101
 30
0.0
 11
-22.79076729742654
 21
28.55772105176101
 31
0.0
  0
ARC
  5
257
330
2
100
AcDbEntity
  8
S1
  6
HIDDEN2
 62
     3
100
AcDbCircle
 10
-8.815767297426518
 20
29.65343995176104
 30
0.0
 40
0.05
100
AcDbArc
 50
180.0
 51
235.7711339999886
  0
ARC
  5
258
330
2
100
AcDbEntity
  8
S1
  6
HIDDEN2
 62
     3
100
AcDbCircle
 10
-9.265767297426563
 20
29.65343995176104
 30
0.0
 40
0.05
100
AcDbArc
 50
304.2288660000114
 51
0.0
  0
LINE
  5
259
330
2
100
AcDbEntity
  8
S1
  6
HIDDEN2
 62
     3
100
AcDbLine
 10
-22.04076729742654
 20
29.657721051761
 30
0.0
 11
-20.04076729742654
 21
29.657721051761
 31
0.0
  0
LINE
  5
25A
330
2
100
AcDbEntity
  8
S1
  6
HIDDEN2
 62
     3
100
AcDbLine
 10
-22.04076729742654
 20
30.00772105176102
 30
0.0
 11
-20.04076729742654
 21
30.00772105176102
 31
0.0
  0
ARC
  5
25B
330
2
100
AcDbEntity
  8
S1
  6
HIDDEN2
 62
     3
100
AcDbCircle
 10
-22.04076729742654
 20
29.83272105176101
 30
0.0
 40
0.175
100
AcDbArc
 50
90.0
 51
270.0
  0
ARC
  5
25C
330
2
100
AcDbEntity
  8
S1
  6
HIDDEN2
 62
     3
100
AcDbCircle
 10
-20.04076729742654
 20
29.83272105176101
 30
0.0
 40
0.175
100
AcDbArc
 50
270.0
 51
90.0
  0
LINE
  5
25D
330
2
100
AcDbEntity
  8
S1
  6
HIDDEN2
 62
     3
100
AcDbLine
 10
-9.04076729742654
 20
30.60772105176102
 30
0.0
 11
-22.79076729742654
 21
30.60772105176102
 31
0.0
  0
LINE
  5
25E
330
2
100
AcDbEntity
  8
S1
  6
HIDDEN2
 62
     3
100
AcDbLine
 10
-9.390767297426563
 20
29.30772105176101
 30
0.0
 11
-16.69076729742652
 21
29.30772105176101
 31
0.0
  0
LINE
  5
25F
330
2
100
AcDbEntity
  8
S1
  6
HIDDEN2
 62
     3
100
AcDbLine
 10
-9.371334997426558
 20
29.20772105176101
 30
0.0
 11
-16.69076729742652
 21
29.20772105176101
 31
0.0
  0
LINE
  5
260
330
2
100
AcDbEntity
  8
S1
  6
HIDDEN2
 62
     3
100
AcDbLine
 10
-20.59076729742655
 20
29.30772105176101
 30
0.0
 11
-17.49076729742658
 21
29.30772105176101
 31
0.0
  0
LINE
  5
261
330
2
100
AcDbEntity
  8
S1
  6
HIDDEN2
 62
     3
100
AcDbLine
 10
-20.59076729742655
 20
29.20772105176101
 30
0.0
 11
-17.49076729742658
 21
29.20772105176101
 31
0.0
  0
LINE
  5
262
330
2
100
AcDbEntity
  8
S1
  6
HIDDEN2
 62
     3
100
AcDbLine
 10
-20.59076729742655
 20
29.407721051761
 30
0.0
 11
-20.59076729742655
 21
29.00772105176102
 31
0.0
  0
LINE
  5
263
330
2
100
AcDbEntity
  8
S1
  6
HIDDEN2
 62
     3
100
AcDbLine
 10
-21.39076729742656
 20
29.407721051761
 30
0.0
 11
-21.39076729742656
 21
29.00772105176102
 31
0.0
  0
LINE
  5
264
330
2
100
AcDbEntity
  8
S1
  6
HIDDEN2
 62
     3
100
AcDbLine
 10
-22.79076729742654
 20
29.20772105176101
 30
0.0
 11
-21.39076729742656
 21
29.20772105176101
 31
0.0
  0
LINE
  5
265
330
2
100
AcDbEntity
  8
S1
  6
HIDDEN2
 62
     3
100
AcDbLine
 10
-22.79076729742654
 20
29.30772105176101
 30
0.0
 11
-21.39076729742656
 21
29.30772105176101
 31
0.0
  0
LINE
  5
266
330
2
100
AcDbEntity
  8
S1
  6
HIDDEN2
 62
     3
100
AcDbLine
 10
-21.39076729742656
 20
29.00772105176102
 30
0.0
 11
-20.59076729742655
 21
29.00772105176102
 31
0.0
  0
LINE
  5
267
330
2
100
AcDbEntity
  8
S1
  6
HIDDEN2
 62
     3
100
AcDbLine
 10
-21.39076729742656
 20
29.407721051761
 30
0.0
 11
-20.59076729742655
 21
29.407721051761
 31
0.0
  0
LINE
  5
268
330
2
100
AcDbEntity
  8
S1
  6
HIDDEN2
 62
     3
100
AcDbLine
 10
-17.56576729742652
 20
28.55772105176101
 30
0.0
 11
-17.56576729742652
 21
28.45772105176101
 31
0.0
  0
LINE
  5
269
330
2
100
AcDbEntity
  8
S1
  6
HIDDEN2
 62
     3
100
AcDbLine
 10
-17.86576729742658
 20
28.55772105176101
 30
0.0
 11
-17.86576729742658
 21
28.45772105176101
 31
0.0
  0
LINE
  5
26A
330
2
100
AcDbEntity
  8
S1
  6
HIDDEN2
 62
     3
100
AcDbLine
 10
-20.21576729742655
 20
28.55772105176101
 30
0.0
 11
-20.21576729742655
 21
28.45772105176101
 31
0.0
  0
LINE
  5
26B
330
2
100
AcDbEntity
  8
S1
  6
HIDDEN2
 62
     3
100
AcDbLine
 10
-20.51576729742656
 20
28.55772105176101
 30
0.0
 11
-20.51576729742656
 21
28.45772105176101
 31
0.0
  0
LINE
  5
26C
330
2
100
AcDbEntity
  8
S1
  6
HIDDEN2
 62
     3
100
AcDbLine
 10
-16.69076729742652
 20
29.407721051761
 30
0.0
 11
-16.69076729742652
 21
29.00772105176102
 31
0.0
  0
LINE
  5
26D
330
2
100
AcDbEntity
  8
S1
  6
HIDDEN2
 62
     3
100
AcDbLine
 10
-17.49076729742658
 20
29.407721051761
 30
0.0
 11
-17.49076729742658
 21
29.00772105176102
 31
0.0
  0
LINE
  5
26E
330
2
100
AcDbEntity
  8
S1
  6
HIDDEN2
 62
     3
100
AcDbLine
 10
-16.69076729742652
 20
29.00772105176102
 30
0.0
 11
-17.49076729742658
 21
29.00772105176102
 31
0.0
  0
LINE
  5
26F
330
2
100
AcDbEntity
  8
S1
  6
HIDDEN2
 62
     3
100
AcDbLine
 10
-16.69076729742652
 20
29.407721051761
 30
0.0
 11
-17.49076729742658
 21
29.407721051761
 31
0.0
  0
LINE
  5
270
330
2
100
AcDbEntity
  8
S1
  6
HIDDEN2
 62
     3
100
AcDbLine
 10
-22.79076729742654
 20
28.45772105176101
 30
0.0
 11
-22.79076729742654
 21
30.70772105176101
 31
0.0
  0
LINE
  5
271
330
2
100
AcDbEntity
  8
S1
  6
HIDDEN2
 62
     3
100
AcDbLine
 10
-9.04076729742654
 20
30.70772105176101
 30
0.0
 11
4.709232702573459
 21
30.70772105176101
 31
0.0
  0
LINE
  5
272
330
2
100
AcDbEntity
  8
S1
  6
HIDDEN2
 62
     3
100
AcDbLine
 10
-9.04076729742654
 20
28.45772105176101
 30
0.0
 11
4.709232702573459
 21
28.45772105176101
 31
0.0
  0
LINE
  5
273
330
2
100
AcDbEntity
  8
S1
  6
HIDDEN2
 62
     3
100
AcDbLine
 10
-9.04076729742654
 20
28.55772105176101
 30
0.0
 11
4.709232702573459
 21
28.55772105176101
 31
0.0
  0
LINE
  5
274
330
2
100
AcDbEntity
  8
S1
  6
HIDDEN2
 62
     3
100
AcDbLine
 10
-9.04076729742654
 20
30.60772105176102
 30
0.0
 11
4.709232702573459
 21
30.60772105176102
 31
0.0
  0
LINE
  5
275
330
2
100
AcDbEntity
  8
S1
  6
HIDDEN2
 62
     3
100
AcDbLine
 10
-8.690767297426518
 20
29.30772105176101
 30
0.0
 11
-1.390767297426563
 21
29.30772105176101
 31
0.0
  0
LINE
  5
276
330
2
100
AcDbEntity
  8
S1
  6
HIDDEN2
 62
     3
100
AcDbLine
 10
-8.71019959742658
 20
29.20772105176101
 30
0.0
 11
-1.390767297426563
 21
29.20772105176101
 31
0.0
  0
LINE
  5
277
330
2
100
AcDbEntity
  8
S1
  6
HIDDEN2
 62
     3
100
AcDbLine
 10
4.709232702573459
 20
28.45772105176101
 30
0.0
 11
4.709232702573459
 21
30.70772105176101
 31
0.0
  0
LINE
  5
278
330
2
100
AcDbEntity
  8
S1
  6
HIDDEN2
 62
     3
100
AcDbLine
 10
-0.5907672974265524
 20
29.20772105176101
 30
0.0
 11
2.509232702573413
 21
29.20772105176101
 31
0.0
  0
LINE
  5
279
330
2
100
AcDbEntity
  8
S1
  6
HIDDEN2
 62
     3
100
AcDbLine
 10
-0.5907672974265524
 20
29.30772105176101
 30
0.0
 11
2.509232702573413
 21
29.30772105176101
 31
0.0
  0
LINE
  5
27A
330
2
100
AcDbEntity
  8
S1
  6
HIDDEN2
 62
     3
100
AcDbLine
 10
-1.390767297426563
 20
29.407721051761
 30
0.0
 11
-0.5907672974265524
 21
29.407721051761
 31
0.0
  0
LINE
  5
27B
330
2
100
AcDbEntity
  8
S1
  6
HIDDEN2
 62
     3
100
AcDbLine
 10
-1.390767297426563
 20
29.00772105176102
 30
0.0
 11
-0.5907672974265524
 21
29.00772105176102
 31
0.0
  0
LINE
  5
27C
330
2
100
AcDbEntity
  8
S1
  6
HIDDEN2
 62
     3
100
AcDbLine
 10
-0.5907672974265524
 20
29.407721051761
 30
0.0
 11
-0.5907672974265524
 21
29.00772105176102
 31
0.0
  0
LINE
  5
27D
330
2
100
AcDbEntity
  8
S1
  6
HIDDEN2
 62
     3
100
AcDbLine
 10
-1.390767297426563
 20
29.407721051761
 30
0.0
 11
-1.390767297426563
 21
29.00772105176102
 31
0.0
  0
LINE
  5
27E
330
2
100
AcDbEntity
  8
S1
  6
HIDDEN2
 62
     3
100
AcDbLine
 10
2.434232702573481
 20
28.55772105176101
 30
0.0
 11
2.434232702573481
 21
28.45772105176101
 31
0.0
  0
LINE
  5
27F
330
2
100
AcDbEntity
  8
S1
  6
HIDDEN2
 62
     3
100
AcDbLine
 10
2.134232702573413
 20
28.55772105176101
 30
0.0
 11
2.134232702573413
 21
28.45772105176101
 31
0.0
  0
LINE
  5
280
330
2
100
AcDbEntity
  8
S1
  6
HIDDEN2
 62
     3
100
AcDbLine
 10
-0.2157672974265523
 20
28.55772105176101
 30
0.0
 11
-0.2157672974265523
 21
28.45772105176101
 31
0.0
  0
LINE
  5
281
330
2
100
AcDbEntity
  8
S1
  6
HIDDEN2
 62
     3
100
AcDbLine
 10
-0.5157672974265637
 20
28.55772105176101
 30
0.0
 11
-0.5157672974265637
 21
28.45772105176101
 31
0.0
  0
LINE
  5
282
330
2
100
AcDbEntity
  8
S1
  6
HIDDEN2
 62
     3
100
AcDbLine
 10
3.309232702573481
 20
29.407721051761
 30
0.0
 11
2.509232702573413
 21
29.407721051761
 31
0.0
  0
LINE
  5
283
330
2
100
AcDbEntity
  8
S1
  6
HIDDEN2
 62
     3
100
AcDbLine
 10
3.309232702573481
 20
29.00772105176102
 30
0.0
 11
2.509232702573413
 21
29.00772105176102
 31
0.0
  0
LINE
  5
284
330
2
100
AcDbEntity
  8
S1
  6
HIDDEN2
 62
     3
100
AcDbLine
 10
4.709232702573459
 20
29.30772105176101
 30
0.0
 11
3.309232702573481
 21
29.30772105176101
 31
0.0
  0
LINE
  5
285
330
2
100
AcDbEntity
  8
S1
  6
HIDDEN2
 62
     3
100
AcDbLine
 10
4.709232702573459
 20
29.20772105176101
 30
0.0
 11
3.309232702573481
 21
29.20772105176101
 31
0.0
  0
LINE
  5
286
330
2
100
AcDbEntity
  8
S1
  6
HIDDEN2
 62
     3
100
AcDbLine
 10
3.309232702573481
 20
29.407721051761
 30
0.0
 11
3.309232702573481
 21
29.00772105176102
 31
0.0
  0
LINE
  5
287
330
2
100
AcDbEntity
  8
S1
  6
HIDDEN2
 62
     3
100
AcDbLine
 10
2.509232702573413
 20
29.407721051761
 30
0.0
 11
2.509232702573413
 21
29.00772105176102
 31
0.0
  0
ARC
  5
288
330
2
100
AcDbEntity
  8
S1
  6
HIDDEN2
 62
     3
100
AcDbCircle
 10
1.959232702573459
 20
29.83272105176101
 30
0.0
 40
0.175
100
AcDbArc
 50
90.0
 51
270.0
  0
ARC
  5
289
330
2
100
AcDbEntity
  8
S1
  6
HIDDEN2
 62
     3
100
AcDbCircle
 10
3.959232702573459
 20
29.83272105176101
 30
0.0
 40
0.175
100
AcDbArc
 50
270.0
 51
90.0
  0
LINE
  5
28A
330
2
100
AcDbEntity
  8
S1
  6
HIDDEN2
 62
     3
100
AcDbLine
 10
3.959232702573459
 20
30.00772105176102
 30
0.0
 11
1.959232702573459
 21
30.00772105176102
 31
0.0
  0
LINE
  5
28B
330
2
100
AcDbEntity
  8
S1
  6
HIDDEN2
 62
     3
100
AcDbLine
 10
3.959232702573459
 20
29.657721051761
 30
0.0
 11
1.959232702573459
 21
29.657721051761
 31
0.0
  0
LINE
  5
28C
330
2
100
AcDbEntity
  8
S1
  6
HIDDEN2
 62
     3
100
AcDbLine
 10
-0.0157672974265637
 20
28.45772105176101
 30
0.0
 11
-0.0157672974265637
 21
28.55772105176101
 31
0.0
  0
LINE
  5
28D
330
2
100
AcDbEntity
  8
S1
  6
HIDDEN2
 62
     3
100
AcDbLine
 10
4.209232702573459
 20
28.45772105176101
 30
0.0
 11
4.209232702573459
 21
28.55772105176101
 31
0.0
  0
LINE
  5
28E
330
2
100
AcDbEntity
  8
S1
  6
HIDDEN2
 62
     3
100
AcDbLine
 10
-20.01576729742656
 20
28.45772105176101
 30
0.0
 11
-20.01576729742656
 21
28.55772105176101
 31
0.0
  0
LINE
  5
28F
330
2
100
AcDbEntity
  8
S1
  6
HIDDEN2
 62
     3
100
AcDbLine
 10
1.934232702573481
 20
28.45772105176101
 30
0.0
 11
1.934232702573481
 21
28.55772105176101
 31
0.0
  0
DIMENSION
  5
290
330
2
100
AcDbEntity
  8
SUNPO
100
AcDbDimension
  2
*D12
 10
4.709232702573458
 20
-6.907594926725806
 30
0.0
 11
-9.04076729742654
 21
-5.157594926725806
 31
0.0
 70
    33
  1
550
 71
     5
 42
27.5
  3
STANDARD
100
AcDbAlignedDimension
 13
-22.79076729742654
 23
1.092405073274164
 33
0.0
 14
4.709232702573459
 24
1.092405073274193
 34
0.0
1001
ACAD
1000
DSTYLE
1002
{
1070
    40
1040
1.0
1070
   140
1040
2.5
1070
   147
1040
0.5
1070
   172
1070
     1
1070
   279
1070
     0
1070
   288
1070
     0
1002
}
  0
DIMENSION
  5
29F
330
2
100
AcDbEntity
  8
SUNPO
100
AcDbDimension
  2
*D11
 10
-47.43967841663971
 20
6.457721051761072
 30
0.0
 11
-49.1896784166397
 21
18.58272105176102
 31
0.0
 70
    33
  1
485
 71
     5
 42
24.24999999999992
  3
STANDARD
100
AcDbAlignedDimension
 13
-39.43967841663971
 23
30.70772105176099
 33
0.0
 14
-39.43967841663971
 24
6.457721051761069
 34
0.0
1001
ACAD
1000
DSTYLE
1002
{
1070
    40
1040
1.0
1070
   140
1040
2.5
1070
   147
1040
0.5
1070
   172
1070
     1
1070
   279
1070
     0
1070
   288
1070
     0
1002
}
  0
DIMENSION
  5
2AC
330
2
100
AcDbEntity
  8
SUNPO
100
AcDbDimension
  2
*D10
 10
-47.43967841663971
 20
1.161565983930616
 30
0.0
 11
-49.1896784166397
 21
-4.671767349402723
 31
0.0
 70
    33
  1
106
 71
     5
 42
5.296155067830454
  3
STANDARD
100
AcDbAlignedDimension
 13
-39.43967841663971
 23
6.457721051761069
 33
0.0
 14
-39.43967841663971
 24
1.161565983930614
 34
0.0
1001
ACAD
1000
DSTYLE
1002
{
1070
    40
1040
1.0
1070
   140
1040
2.5
1070
   147
1040
0.5
1070
   172
1070
     1
1070
   279
1070
     0
1070
   288
1070
     0
1002
}
  0
DIMENSION
  5
2BA
330
2
100
AcDbEntity
  8
SUNPO
100
AcDbDimension
  2
*D9
 10
-47.43967841663971
 20
37.35387611959144
 30
0.0
 11
-49.18967841663971
 21
43.18720945292476
 31
0.0
 70
    33
  1
133
 71
     5
 42
6.64615506783042
  3
STANDARD
100
AcDbAlignedDimension
 13
-39.43967841663971
 23
30.70772105176101
 33
0.0
 14
-39.43967841663971
 24
37.35387611959144
 34
0.0
1001
ACAD
1000
DSTYLE
1002
{
1070
    40
1040
1.0
1070
   140
1040
2.5
1070
   147
1040
0.5
1070
   172
1070
     1
1070
   279
1070
     0
1070
   288
1070
     0
1002
}
  0
LINE
  5
2C8
330
2
100
AcDbEntity
  8
SUNPO
100
AcDbLine
 10
45.3476899532104
 20
39.36012217979916
 30
0.0
 11
45.3476899532104
 21
47.35358967524009
 31
0.0
  0
LINE
  5
2C9
330
2
100
AcDbEntity
  8
SUNPO
100
AcDbLine
 10
40.89768995321041
 20
39.36012217979916
 30
0.0
 11
40.89768995321041
 21
47.35358967524009
 31
0.0
  0
LINE
  5
2CA
330
2
100
AcDbEntity
  8
SUNPO
100
AcDbLine
 10
47.3476899532104
 20
45.3535896752401
 30
0.0
 11
49.3476899532104
 21
45.3535896752401
 31
0.0
  0
LINE
  5
2CB
330
2
100
AcDbEntity
  8
SUNPO
100
AcDbLine
 10
38.89768995321042
 20
45.3535896752401
 30
0.0
 11
31.73102328654373
 21
45.3535896752401
 31
0.0
  0
LINE
  5
2CC
330
2
100
AcDbEntity
  8
SUNPO
100
AcDbLine
 10
45.3476899532104
 20
45.3535896752401
 30
0.0
 11
40.89768995321041
 21
45.3535896752401
 31
0.0
  0
INSERT
  5
2CD
330
2
100
AcDbEntity
  8
SUNPO
100
AcDbBlockReference
  2
_OPEN30
 10
40.89768995321041
 20
45.3535896752401
 30
0.0
 41
2.0
 42
2.0
 43
2.0
  0
MTEXT
  5
2CE
330
2
100
AcDbEntity
  8
SUNPO
100
AcDbMText
 10
34.3143566198771
 20
47.1035896752401
 30
0.0
 40
2.5
 41
0.0
 71
     5
 72
     1
  1
\A1;89
 73
     1
 44
1.0
1001
ACAD
1000
MTEXTBEGIN
1070
    73
1070
     1
1070
    44
1040
1.0
1070
    74
1070
     0
1000
MTEXTEND
  0
LINE
  5
2CF
330
2
100
AcDbEntity
  8
SUNPO
100
AcDbLine
 10
45.21105036818288
 20
45.15264534515918
 30
0.0
 11
45.48432953823804
 21
45.15264534515918
 31
0.0
  0
LINE
  5
2D0
330
2
100
AcDbEntity
  8
SUNPO
100
AcDbLine
 10
45.16132910457962
 20
45.19764534515459
 30
0.0
 11
45.53405080184119
 21
45.19764534515459
 31
0.0
  0
LINE
  5
2D1
330
2
100
AcDbEntity
  8
SUNPO
100
AcDbLine
 10
45.13149477377974
 20
45.24264534515012
 30
0.0
 11
45.56388513264117
 21
45.24264534515012
 31
0.0
  0
LINE
  5
2D2
330
2
100
AcDbEntity
  8
SUNPO
100
AcDbLine
 10
45.11380890370752
 20
45.28764534514564
 30
0.0
 11
45.5815710027134
 21
45.28764534514564
 31
0.0
  0
LINE
  5
2D3
330
2
100
AcDbEntity
  8
SUNPO
100
AcDbLine
 10
45.11470859248821
 20
45.4226453451321
 30
0.0
 11
45.5806713139326
 21
45.4226453451321
 31
0.0
  0
LINE
  5
2D4
330
2
100
AcDbEntity
  8
SUNPO
100
AcDbLine
 10
45.13311990834238
 20
45.46764534512769
 30
0.0
 11
45.56225999807854
 21
45.46764534512769
 31
0.0
  0
LINE
  5
2D5
330
2
100
AcDbEntity
  8
SUNPO
100
AcDbLine
 10
45.16397742270088
 20
45.5126453451231
 30
0.0
 11
45.53140248372004
 21
45.5126453451231
 31
0.0
  0
LINE
  5
2D6
330
2
100
AcDbEntity
  8
SUNPO
100
AcDbLine
 10
45.2157419195813
 20
45.55764534511857
 30
0.0
 11
45.47963798683961
 21
45.55764534511857
 31
0.0
  0
LINE
  5
2D7
330
2
100
AcDbEntity
  8
SUNPO
100
AcDbLine
 10
45.10588357460555
 20
45.37764534513664
 30
0.0
 11
45.58949633181531
 21
45.37764534513664
 31
0.0
  0
LINE
  5
2D8
330
2
100
AcDbEntity
  8
SUNPO
100
AcDbLine
 10
45.10559423861614
 20
45.33264534514112
 30
0.0
 11
45.58978566780466
 21
45.33264534514112
 31
0.0
  0
CIRCLE
  5
2D9
330
2
100
AcDbEntity
  8
SUNPO
100
AcDbCircle
 10
45.3476899532104
 20
45.3535896752401
 30
0.0
 40
0.2429999999756999
  0
LINE
  5
2DA
330
2
100
AcDbEntity
  8
SUNPO
100
AcDbLine
 10
45.3476899532104
 20
39.36012217979916
 30
0.0
 11
45.3476899532104
 21
47.35358967524009
 31
0.0
  0
LINE
  5
2DB
330
2
100
AcDbEntity
  8
SUNPO
100
AcDbLine
 10
46.32268995311266
 20
39.36012217979916
 30
0.0
 11
46.32268995311266
 21
47.35358967524009
 31
0.0
  0
LINE
  5
2DC
330
2
100
AcDbEntity
  8
SUNPO
100
AcDbLine
 10
43.34768995321041
 20
45.3535896752401
 30
0.0
 11
41.3476899532104
 21
45.3535896752401
 31
0.0
  0
LINE
  5
2DD
330
2
100
AcDbEntity
  8
SUNPO
100
AcDbLine
 10
48.32268995311266
 20
45.3535896752401
 30
0.0
 11
60.48935661977934
 21
45.3535896752401
 31
0.0
  0
LINE
  5
2DE
330
2
100
AcDbEntity
  8
SUNPO
100
AcDbLine
 10
45.3476899532104
 20
45.3535896752401
 30
0.0
 11
46.32268995311266
 21
45.3535896752401
 31
0.0
  0
INSERT
  5
2DF
330
2
100
AcDbEntity
  8
SUNPO
100
AcDbBlockReference
  2
_OPEN30
 10
46.32268995311266
 20
45.3535896752401
 30
0.0
 41
2.0
 42
2.0
 43
2.0
 50
180.0
  0
MTEXT
  5
2E0
330
2
100
AcDbEntity
  8
SUNPO
100
AcDbMText
 10
55.40602328644597
 20
47.1035896752401
 30
0.0
 40
2.5
 41
0.0
 71
     5
 72
     1
  1
20
 73
     1
 44
1.0
1001
ACAD
1000
MTEXTBEGIN
1070
    73
1070
     1
1070
    44
1040
1.0
1070
    74
1070
     0
1000
MTEXTEND
  0
TEXT
  5
2E1
330
2
100
AcDbEntity
  8
MOJI1
100
AcDbText
 10
-61.00801090804896
 20
-50.11592705575378
 30
0.0
 40
3.0
  1
質　量
100
AcDbText
  0
LINE
  5
2E2
330
2
100
AcDbEntity
  8
WAKU
 62
     1
100
AcDbLine
 10
-63.50801090804896
 20
-46.11592705575378
 30
0.0
 11
61.49198909195082
 21
-46.11592705575378
 31
0.0
  0
TEXT
  5
2E4
330
2
100
AcDbEntity
  8
MOJI1
100
AcDbText
 10
-61.00801090804896
 20
-40.11592705575378
 30
0.0
 40
3.0
  1
入出力端子
100
AcDbText
  0
LINE
  5
2E5
330
2
100
AcDbEntity
  8
WAKU
 62
     1
100
AcDbLine
 10
-63.50801090804896
 20
-41.11592705575378
 30
0.0
 11
61.49198909195082
 21
-41.11592705575378
 31
0.0
  0
LINE
  5
2E6
330
2
100
AcDbEntity
  8
WAKU
 62
     4
100
AcDbLine
 10
61.49198909195082
 20
-11.11592705575378
 30
0.0
 11
61.49198909195082
 21
-51.11592705575379
 31
0.0
  0
TEXT
  5
2E7
330
2
100
AcDbEntity
  8
MOJI1
100
AcDbText
 10
-61.00801090804896
 20
-30.11592705575379
 30
0.0
 40
3.0
  1
画素数
100
AcDbText
  0
TEXT
  5
2E8
330
2
100
AcDbEntity
  8
MOJI1
100
AcDbText
 10
-61.00801090804896
 20
-15.11592705575379
 30
0.0
 40
3.0
  1
電  源
100
AcDbText
  0
TEXT
  5
2E9
330
2
100
AcDbEntity
  8
MOJI1
100
AcDbText
 10
-61.00801090804896
 20
-20.11592705575379
 30
0.0
 40
3.0
  1
消費電力
100
AcDbText
  0
TEXT
  5
2EA
330
2
100
AcDbEntity
  8
MOJI1
100
AcDbText
 10
-61.00801090804896
 20
-35.11592705575379
 30
0.0
 40
3.0
  1
コントラスト
100
AcDbText
  0
TEXT
  5
2EB
330
2
100
AcDbEntity
  8
MOJI1
100
AcDbText
 10
-61.00801090804896
 20
-25.11592705575379
 30
0.0
 40
3.0
  1
画面サイズ
100
AcDbText
  0
LINE
  5
2EC
330
2
100
AcDbEntity
  8
WAKU
 62
     4
100
AcDbLine
 10
-63.50801090804918
 20
-11.11592705575378
 30
0.0
 11
-63.50801090804896
 21
-51.11592705575379
 31
0.0
  0
LINE
  5
2ED
330
2
100
AcDbEntity
  8
WAKU
 62
     4
100
AcDbLine
 10
-23.50801090804919
 20
-11.11592705575378
 30
0.0
 11
-23.50801090804919
 21
-51.11592705575379
 31
0.0
  0
TEXT
  5
2EE
330
2
100
AcDbEntity
  8
MOJI1
100
AcDbText
 10
-22.00801090804896
 20
-15.11592705575379
 30
0.0
 40
3.0
  1
ＡＣ１００Ｖ　５０Ｈｚ／６０Ｈｚ
100
AcDbText
  0
TEXT
  5
2EF
330
2
100
AcDbEntity
  8
MOJI1
100
AcDbText
 10
-22.00801090804896
 20
-30.11592705575379
 30
0.0
 40
3.0
  1
１９２０×１０８０画素
100
AcDbText
  0
LINE
  5
2F0
330
2
100
AcDbEntity
  8
WAKU
 62
     4
100
AcDbLine
 10
61.49198909195082
 20
-51.11592705575379
 30
0.0
 11
-63.50801090804896
 21
-51.11592705575379
 31
0.0
  0
LINE
  5
2F1
330
2
100
AcDbEntity
  8
WAKU
 62
     1
100
AcDbLine
 10
-63.50801090804896
 20
-36.11592705575379
 30
0.0
 11
61.49198909195082
 21
-36.11592705575379
 31
0.0
  0
LINE
  5
2F2
330
2
100
AcDbEntity
  8
WAKU
 62
     1
100
AcDbLine
 10
-63.50801090804896
 20
-26.11592705575379
 30
0.0
 11
61.49198909195082
 21
-26.11592705575379
 31
0.0
  0
LINE
  5
2F3
330
2
100
AcDbEntity
  8
WAKU
 62
     1
100
AcDbLine
 10
-63.50801090804896
 20
-16.11592705575378
 30
0.0
 11
61.49198909195082
 21
-16.11592705575378
 31
0.0
  0
LINE
  5
2F4
330
2
100
AcDbEntity
  8
WAKU
 62
     4
100
AcDbLine
 10
-63.50801090804896
 20
-11.11592705575378
 30
0.0
 11
61.49198909195082
 21
-11.11592705575378
 31
0.0
  0
LINE
  5
2F5
330
2
100
AcDbEntity
  8
WAKU
 62
     1
100
AcDbLine
 10
-63.50801090804896
 20
-31.11592705575379
 30
0.0
 11
61.49198909195082
 21
-31.11592705575379
 31
0.0
  0
LINE
  5
2F6
330
2
100
AcDbEntity
  8
WAKU
 62
     1
100
AcDbLine
 10
-63.50801090804896
 20
-21.11592705575379
 30
0.0
 11
61.49198909195082
 21
-21.11592705575379
 31
0.0
  0
TEXT
  5
2F7
330
2
100
AcDbEntity
  8
MOJI1
100
AcDbText
 10
-22.00801090804896
 20
-35.11592705575379
 30
0.0
 40
3.0
  1
５００００００：１
100
AcDbText
  0
TEXT
  5
2F8
330
2
100
AcDbEntity
  8
MOJI1
100
AcDbText
 10
-22.00801090804896
 20
-25.11592705575379
 30
0.0
 40
3.0
  1
５０型（１２６８ｃｍ）１６：９
100
AcDbText
  0
TEXT
  5
2F9
330
2
100
AcDbEntity
  8
MOJI1
100
AcDbText
 10
-22.00801090804896
 20
-20.11592705575379
 30
0.0
 40
3.0
  1
４６０Ｗ
100
AcDbText
  0
ELLIPSE
  5
2FA
330
2
100
AcDbEntity
  8
GAIKEI
  6
Continuous
100
AcDbEllipse
 10
-39.09049283540665
 20
1.361840433850403
 30
0.0
 11
-0.1418092486302894
 21
-0.1418092486302897
 31
0.0
210
0.0
220
0.0
230
1.0
 40
0.9972649999999999
 41
5.499156671652512
 42
7.067213942706579
  0
ELLIPSE
  5
2FB
330
2
100
AcDbEntity
  8
GAIKEI
  6
Continuous
100
AcDbEllipse
 10
-39.09049283540665
 20
37.16129151953058
 30
0.0
 11
-0.1418092486302778
 21
0.1418092486303013
 31
0.0
210
0.0
220
0.0
230
1.0
 40
0.9972649999999999
 41
5.499156671652713
 42
7.067213942706739
  0
ELLIPSE
  5
2FC
330
2
100
AcDbEntity
  8
GAIKEI
  6
Continuous
 62
     1
100
AcDbEllipse
 10
-36.61251628639784
 20
3.802316982874259
 30
0.0
 11
-0.0717687987905345
 21
-0.071768798790594
 31
0.0
210
0.0
220
0.0
230
1.0
 40
0.985257
 41
5.505213485254125
 42
7.061157129104256
  0
ELLIPSE
  5
2FD
330
2
100
AcDbEntity
  8
GAIKEI
  6
Continuous
 62
     1
100
AcDbEllipse
 10
-36.61251628639784
 20
34.72081497050684
 30
0.0
 11
-0.0717687987905402
 21
0.0717687987905878
 31
0.0
210
0.0
220
0.0
230
1.0
 40
0.9852570000000001
 41
5.505213485255321
 42
7.061157129105444
  0
ELLIPSE
  5
2FE
330
2
100
AcDbEntity
  8
GAIKEI
  6
Continuous
 62
     1
100
AcDbEllipse
 10
-36.62492698639287
 20
3.793948682877527
 30
0.0
 11
-0.0866320186582643
 21
-0.127229069338253
 31
0.0
210
0.0
220
0.0
230
1.0
 40
0.973581
 41
6.10967819105908
 42
6.868592923299293
  0
ELLIPSE
  5
2FF
330
2
100
AcDbEntity
  8
GAIKEI
  6
Continuous
 62
     1
100
AcDbEllipse
 10
-36.62088458639451
 20
34.73322567050187
 30
0.0
 11
-0.1272290693382015
 21
0.0866320186583368
 31
0.0
210
0.0
220
0.0
230
1.0
 40
0.9735809999999998
 41
6.109678191058712
 42
6.868592923300215
  0
ELLIPSE
  5
300
330
2
100
AcDbEntity
  8
GAIKEI
  6
Continuous
 62
     1
100
AcDbEllipse
 10
-36.62088458639451
 20
3.789906282879115
 30
0.0
 11
-0.1272290693381955
 21
-0.0866320186583462
 31
0.0
210
0.0
220
0.0
230
1.0
 40
0.9735809999999997
 41
5.697777691058886
 42
6.456692423302397
  0
ELLIPSE
  5
301
330
2
100
AcDbEntity
  8
GAIKEI
  6
Continuous
 62
     1
100
AcDbEllipse
 10
-36.62492698639292
 20
34.72918327050346
 30
0.0
 11
-0.0866320186582728
 21
0.1272290693382462
 31
0.0
210
0.0
220
0.0
230
1.0
 40
0.9735809999999998
 41
5.69777769105948
 42
6.456692423303279
  0
ELLIPSE
  5
302
330
2
100
AcDbEntity
  8
GAIKEI
  6
Continuous
 62
     1
100
AcDbEllipse
 10
-37.25093228614245
 20
3.165922183128742
 30
0.0
 11
-0.0740370952919559
 21
0.0126634681883972
 31
0.0
210
0.0
220
0.0
230
1.0
 40
0.9955149999999999
 41
0.9759762355291181
 42
1.740947781372067
  0
ELLIPSE
  5
303
330
2
100
AcDbEntity
  8
GAIKEI
  6
Continuous
 62
     1
100
AcDbEllipse
 10
-37.24891108614324
 20
35.35923097025139
 30
0.0
 11
-0.012663468188404
 21
-0.0740370952919547
 31
0.0
210
0.0
220
0.0
230
1.0
 40
0.9955149999999997
 41
4.117568889119865
 42
4.882540434962009
  0
ELLIPSE
  5
304
330
2
100
AcDbEntity
  8
GAIKEI
  6
Continuous
 62
     1
100
AcDbEllipse
 10
-37.24891108614324
 20
3.163900983129593
 30
0.0
 11
-0.0126634681884195
 21
0.0740370952919524
 31
0.0
210
0.0
220
0.0
230
1.0
 40
0.9955149999999999
 41
1.400644872217396
 42
2.165616418062327
  0
ELLIPSE
  5
305
330
2
100
AcDbEntity
  8
GAIKEI
  6
Continuous
 62
     1
100
AcDbEllipse
 10
-37.25093228614245
 20
35.35720977025224
 30
0.0
 11
-0.0740370952919559
 21
-0.0126634681883976
 31
0.0
210
0.0
220
0.0
230
1.0
 40
0.9955150000000001
 41
4.54223752580752
 42
5.307209071653165
  0
ELLIPSE
  5
306
330
2
100
AcDbEntity
  8
GAIKEI
  6
Continuous
 62
     1
100
AcDbEllipse
 10
-38.36928683569508
 20
2.083046433561918
 30
0.0
 11
-0.5021965241687356
 21
-0.502196524168813
 31
0.0
210
0.0
220
0.0
230
1.0
 40
0.49281
 41
5.872221302136444
 42
6.694149312222707
  0
ELLIPSE
  5
307
330
2
100
AcDbEntity
  8
GAIKEI
  6
Continuous
 62
     1
100
AcDbEllipse
 10
-38.36928683569514
 20
36.44008551981918
 30
0.0
 11
-0.5021965241687404
 21
0.5021965241687347
 31
0.0
210
0.0
220
0.0
230
1.0
 40
0.49281
 41
5.87222130213647
 42
6.694149312222702
  0
ELLIPSE
  5
308
330
2
100
AcDbEntity
  8
GAIKEI
  6
Continuous
 62
     1
100
AcDbEllipse
 10
-36.67567178637259
 20
1.686661483720428
 30
0.0
 11
-0.0178124651901381
 21
-0.0178124651901247
 31
0.0
210
0.0
220
0.0
230
1.0
 40
0.9924329999999999
 41
5.501585242054793
 42
7.064785372306292
  0
ELLIPSE
  5
309
330
2
100
AcDbEntity
  8
GAIKEI
  6
Continuous
 62
     1
100
AcDbEllipse
 10
-36.67567178637259
 20
1.98647048360047
 30
0.0
 11
-0.0178124651901339
 21
0.0178124651901291
 31
0.0
210
0.0
220
0.0
230
1.0
 40
0.9924329999999999
 41
5.501585242053079
 42
7.064785372305734
  0
ELLIPSE
  5
30A
330
2
100
AcDbEntity
  8
GAIKEI
  6
Continuous
 62
     1
100
AcDbEllipse
 10
-36.37586278649249
 20
1.986470483600584
 30
0.0
 11
-0.0178124651901247
 21
-0.017812465190138
 31
0.0
210
0.0
220
0.0
230
1.0
 40
0.9924329999999999
 41
2.359992588465041
 42
3.923192718713587
  0
ELLIPSE
  5
30B
330
2
100
AcDbEntity
  8
GAIKEI
  6
Continuous
 62
     1
100
AcDbEllipse
 10
-36.37586278649249
 20
1.686661483720428
 30
0.0
 11
-0.0178124651901289
 21
0.0178124651901336
 31
0.0
210
0.0
220
0.0
230
1.0
 40
0.9924329999999997
 41
2.359992588465599
 42
3.923192718713108
  0
ELLIPSE
  5
30C
330
2
100
AcDbEntity
  8
GAIKEI
  6
Continuous
 62
     1
100
AcDbEllipse
 10
-37.25692338614007
 20
3.157909883131907
 30
0.0
 11
-0.1595354047091879
 21
-0.1595354047089651
 31
0.0
210
0.0
220
0.0
230
1.0
 40
0.9972649999999999
 41
5.499156671653361
 42
7.067213942707414
  0
ELLIPSE
  5
30D
330
2
100
AcDbEntity
  8
GAIKEI
  6
Continuous
 62
     1
100
AcDbEllipse
 10
-37.25692338614007
 20
35.36522207024896
 30
0.0
 11
-0.159535404709199
 21
0.1595354047089534
 31
0.0
210
0.0
220
0.0
230
1.0
 40
0.9972649999999998
 41
5.499156671651721
 42
7.067213942705842
  0
LINE
  5
30E
330
2
100
AcDbEntity
  8
GAIKEI
  6
Continuous
100
AcDbLine
 10
-39.09104138540644
 20
1.161565983930614
 30
0.0
 11
21.00950679055339
 21
1.161565983930614
 31
0.0
  0
LINE
  5
30F
330
2
100
AcDbEntity
  8
GAIKEI
  6
Continuous
100
AcDbLine
 10
-39.29076728532655
 20
37.16184006953043
 30
0.0
 11
-39.29076728532655
 21
1.361291883850668
 31
0.0
  0
LINE
  5
310
330
2
100
AcDbEntity
  8
GAIKEI
  6
Continuous
100
AcDbLine
 10
-39.09104138540644
 20
37.3615659694506
 30
0.0
 11
21.00950679055339
 21
37.3615659694506
 31
0.0
  0
LINE
  5
311
330
2
100
AcDbEntity
  8
GAIKEI
  6
Continuous
 62
     1
100
AcDbLine
 10
-39.09104138540644
 20
1.161565983930614
 30
0.0
 11
-38.95564123546061
 21
1.296966133876395
 31
0.0
  0
LINE
  5
312
330
2
100
AcDbEntity
  8
GAIKEI
  6
Continuous
 62
     1
100
AcDbLine
 10
-39.15536713538072
 20
1.496692033796449
 30
0.0
 11
-39.29076728532655
 21
1.361291883850668
 31
0.0
  0
LINE
  5
313
330
2
100
AcDbEntity
  8
GAIKEI
  6
Continuous
 62
     1
100
AcDbLine
 10
-39.29076728532655
 20
37.16184006953043
 30
0.0
 11
-39.15536713538072
 21
37.02643991958476
 31
0.0
  0
LINE
  5
314
330
2
100
AcDbEntity
  8
GAIKEI
  6
Continuous
 62
     1
100
AcDbLine
 10
-38.95564123546058
 20
37.2261658195047
 30
0.0
 11
-39.09104138540644
 21
37.3615659694506
 31
0.0
  0
LINE
  5
315
330
2
100
AcDbEntity
  8
GAIKEI
  6
Continuous
 62
     1
100
AcDbLine
 10
-36.61401268639722
 20
3.701565982914559
 30
0.0
 11
18.53247809154416
 21
3.701565982914559
 31
0.0
  0
LINE
  5
316
330
2
100
AcDbEntity
  8
GAIKEI
  6
Continuous
 62
     1
100
AcDbLine
 10
-36.71326728635754
 20
34.72231137050633
 30
0.0
 11
-36.71326728635754
 21
3.800820582874877
 31
0.0
  0
LINE
  5
317
330
2
100
AcDbEntity
  8
GAIKEI
  6
Continuous
 62
     1
100
AcDbLine
 10
-36.61401268639722
 20
34.82156597046654
 30
0.0
 11
18.53247809154416
 21
34.82156597046654
 31
0.0
  0
LINE
  5
318
330
2
100
AcDbEntity
  8
GAIKEI
  6
Continuous
 62
     1
100
AcDbLine
 10
-36.62869178639139
 20
3.64130193293866
 30
0.0
 11
18.54715719153833
 21
3.64130193293866
 31
0.0
  0
LINE
  5
319
330
2
100
AcDbEntity
  8
GAIKEI
  6
Continuous
 62
     1
100
AcDbLine
 10
-36.77353133633344
 20
34.73699047050039
 30
0.0
 11
-36.77353133633344
 21
3.786141482880708
 31
0.0
  0
LINE
  5
31A
330
2
100
AcDbEntity
  8
GAIKEI
  6
Continuous
 62
     1
100
AcDbLine
 10
-36.73164253635017
 20
3.683190732921872
 30
0.0
 11
-37.30286113612166
 21
3.11197213315043
 31
0.0
  0
LINE
  5
31B
330
2
100
AcDbEntity
  8
GAIKEI
  6
Continuous
 62
     1
100
AcDbLine
 10
18.54715719153833
 20
34.88183002044244
 30
0.0
 11
-36.62869178639139
 21
34.88183002044244
 31
0.0
  0
LINE
  5
31C
330
2
100
AcDbEntity
  8
GAIKEI
  6
Continuous
 62
     1
100
AcDbLine
 10
-37.30286113612166
 20
35.41115982023078
 30
0.0
 11
-36.73164253635017
 21
34.83994122045923
 31
0.0
  0
LINE
  5
31D
330
2
100
AcDbEntity
  8
GAIKEI
  6
Continuous
 62
     1
100
AcDbLine
 10
19.16928549128946
 20
3.091137183158735
 30
0.0
 11
-37.25082008614251
 21
3.091137183158735
 31
0.0
  0
LINE
  5
31E
330
2
100
AcDbEntity
  8
GAIKEI
  6
Continuous
 62
     1
100
AcDbLine
 10
-37.32369608611336
 20
3.164013183129583
 30
0.0
 11
-37.32369608611336
 21
35.35911877025152
 31
0.0
  0
LINE
  5
31F
330
2
100
AcDbEntity
  8
GAIKEI
  6
Continuous
 62
     1
100
AcDbLine
 10
-37.25082008614251
 20
35.43199477022236
 30
0.0
 11
19.16928549128946
 21
35.43199477022236
 31
0.0
  0
LINE
  5
320
330
2
100
AcDbEntity
  8
GAIKEI
  6
Continuous
 62
     1
100
AcDbLine
 10
20.87609344060675
 20
1.296966133876395
 30
0.0
 11
-38.95762803545981
 21
1.296966133876395
 31
0.0
  0
LINE
  5
321
330
2
100
AcDbEntity
  8
GAIKEI
  6
Continuous
 62
     1
100
AcDbLine
 10
-39.15536713538072
 20
1.494705233797304
 30
0.0
 11
-39.15536713538072
 21
37.02842671958379
 31
0.0
  0
LINE
  5
322
330
2
100
AcDbEntity
  8
GAIKEI
  6
Continuous
 62
     1
100
AcDbLine
 10
-38.95762803545981
 20
37.2261658195047
 30
0.0
 11
20.87609344060675
 21
37.2261658195047
 31
0.0
  0
LINE
  5
323
330
2
100
AcDbEntity
  8
GAIKEI
  6
Continuous
 62
     1
100
AcDbLine
 10
-38.92853808547144
 20
1.721534283706574
 30
0.0
 11
-39.15536713538072
 21
1.494705233797304
 31
0.0
  0
LINE
  5
324
330
2
100
AcDbEntity
  8
GAIKEI
  6
Continuous
 62
     1
100
AcDbLine
 10
-38.95762803545981
 20
1.296966133876395
 30
0.0
 11
-38.73079898555054
 21
1.523795183785665
 31
0.0
  0
LINE
  5
325
330
2
100
AcDbEntity
  8
GAIKEI
  6
Continuous
 62
     1
100
AcDbLine
 10
-38.73079898555054
 20
36.99933676959543
 30
0.0
 11
-38.95762803545981
 21
37.2261658195047
 31
0.0
  0
LINE
  5
326
330
2
100
AcDbEntity
  8
GAIKEI
  6
Continuous
 62
     1
100
AcDbLine
 10
-39.15536713538072
 20
37.02842671958379
 30
0.0
 11
-38.92853808547144
 21
36.80159766967452
 31
0.0
  0
LINE
  5
327
330
2
100
AcDbEntity
  8
GAIKEI
  6
Continuous
 62
     1
100
AcDbLine
 10
-38.73079898555054
 20
1.523795183785665
 30
0.0
 11
20.64926439069743
 21
1.523795183785665
 31
0.0
  0
LINE
  5
328
330
2
100
AcDbEntity
  8
GAIKEI
  6
Continuous
 62
     1
100
AcDbLine
 10
-38.92853808547144
 20
36.80159766967452
 30
0.0
 11
-38.92853808547144
 21
1.721534283706574
 31
0.0
  0
LINE
  5
329
330
2
100
AcDbEntity
  8
GAIKEI
  6
Continuous
 62
     1
100
AcDbLine
 10
-38.29701728572408
 20
1.780315983683095
 30
0.0
 11
-38.18451728576903
 21
1.780315983683095
 31
0.0
  0
LINE
  5
32A
330
2
100
AcDbEntity
  8
GAIKEI
  6
Continuous
 62
     1
100
AcDbLine
 10
-38.29701728572408
 20
1.780315983683095
 30
0.0
 11
-38.29701728572408
 21
1.89281598363803
 31
0.0
  0
LINE
  5
32B
330
2
100
AcDbEntity
  8
GAIKEI
  6
Continuous
 62
     1
100
AcDbLine
 10
-38.29701728572408
 20
1.89281598363803
 30
0.0
 11
-38.18451728576903
 21
1.89281598363803
 31
0.0
  0
LINE
  5
32C
330
2
100
AcDbEntity
  8
GAIKEI
  6
Continuous
 62
     1
100
AcDbLine
 10
-38.18451728576903
 20
1.780315983683095
 30
0.0
 11
-38.18451728576903
 21
1.89281598363803
 31
0.0
  0
LINE
  5
32D
330
2
100
AcDbEntity
  8
GAIKEI
  6
Continuous
 62
     1
100
AcDbLine
 10
-36.67586243637251
 20
1.661565983730525
 30
0.0
 11
-36.37567213649257
 21
1.661565983730525
 31
0.0
  0
LINE
  5
32E
330
2
100
AcDbEntity
  8
GAIKEI
  6
Continuous
 62
     1
100
AcDbLine
 10
-36.70076728636255
 20
1.686470833720619
 30
0.0
 11
-36.70076728636255
 21
1.986661133600506
 31
0.0
  0
LINE
  5
32F
330
2
100
AcDbEntity
  8
GAIKEI
  6
Continuous
 62
     1
100
AcDbLine
 10
-36.67586243637251
 20
2.0115659835906
 30
0.0
 11
-36.37567213649257
 21
2.0115659835906
 31
0.0
  0
LINE
  5
330
330
2
100
AcDbEntity
  8
GAIKEI
  6
Continuous
 62
     1
100
AcDbLine
 10
-36.35076728650253
 20
1.686470833720619
 30
0.0
 11
-36.35076728650253
 21
1.986661133600506
 31
0.0
  0
LINE
  5
331
330
2
100
AcDbEntity
  8
GAIKEI
  6
Continuous
 62
     1
100
AcDbLine
 10
19.17600594128677
 20
35.59053087015903
 30
0.0
 11
-37.25754053613983
 21
35.59053087015903
 31
0.0
  0
LINE
  5
332
330
2
100
AcDbEntity
  8
GAIKEI
  6
Continuous
 62
     1
100
AcDbLine
 10
-37.25754053613983
 20
2.932601083222181
 30
0.0
 11
19.17600594128677
 21
2.932601083222181
 31
0.0
  0
LINE
  5
333
330
2
100
AcDbEntity
  8
GAIKEI
  6
Continuous
 62
     1
100
AcDbLine
 10
-37.48223218604997
 20
35.36583922024889
 30
0.0
 11
-37.48223218604997
 21
3.157292733132322
 31
0.0
  0
LINE
  5
334
330
2
100
AcDbEntity
  8
GAIKEI
  6
Continuous
 62
     1
100
AcDbLine
 10
20.64926439069743
 20
36.99933676959543
 30
0.0
 11
-38.73079898555054
 21
36.99933676959543
 31
0.0
  0
SPLINE
  5
335
330
2
100
AcDbEntity
  8
GAIKEI
  6
Continuous
 62
     1
100
AcDbSpline
210
0.0
220
0.0
230
1.0
 70
     8
 71
     3
 72
    19
 73
    15
 74
    13
 42
0.0000000001
 43
0.0000000001
 44
0.000001
 12
0.075227569746649
 22
-0.9971663917070275
 32
0.0
 13
0.9971651028676605
 23
-0.0752446517895329
 33
0.0
 40
0.0
 40
0.0
 40
0.0
 40
0.0
 40
0.0307154355815327
 40
0.0474030577359908
 40
0.0651725077224553
 40
0.0907715901219451
 40
0.1187843457348308
 40
0.1493748434379435
 40
0.1799684720829767
 40
0.2079831862935112
 40
0.2335829246325604
 40
0.2513519490565929
 40
0.2680383244278274
 40
0.2987487387220349
 40
0.2987487387220349
 40
0.2987487387220349
 40
0.2987487387220349
 10
-39.15536711761561
 20
1.494705222698399
 30
0.0
 10
-39.15459690175811
 20
1.484495756008897
 30
0.0
 10
-39.15187523189745
 20
1.468785131461743
 30
0.0
 10
-39.14474456203152
 20
1.448233807930449
 30
0.0
 10
-39.1364281452174
 20
1.429992974986362
 30
0.0
 10
-39.12428959875263
 20
1.409465058235696
 30
0.0
 10
-39.10745207918861
 20
1.3869475234398
 30
0.0
 10
-39.08734824254759
 20
1.364983524411911
 30
0.0
 10
-39.06538238857259
 20
1.344880768503827
 30
0.0
 10
-39.04286269301684
 20
1.328042983061209
 30
0.0
 10
-39.02233395944026
 20
1.315904414994946
 30
0.0
 10
-39.00409345025757
 20
1.307588132403282
 30
0.0
 10
-38.98354434088459
 20
1.30045789632004
 30
0.0
 10
-38.96783583103498
 20
1.297736416451414
 30
0.0
 10
-38.95762804655871
 20
1.296966151641441
 30
0.0
 11
-39.15536711761561
 21
1.494705222698399
 31
0.0
 11
-39.15003395695507
 21
1.464456228113277
 31
0.0
 11
-39.14462705911356
 21
1.448669009564838
 31
0.0
 11
-39.1372815530913
 21
1.432489001579966
 31
0.0
 11
-39.12433354465108
 21
1.410406089653434
 31
0.0
 11
-39.10762632862381
 21
1.387921076217281
 31
0.0
 11
-39.08702904628589
 21
1.365304222971218
 31
0.0
 11
-39.06440859494953
 21
1.344706241638078
 31
0.0
 11
-39.04192133857063
 21
1.327998760275391
 31
0.0
 11
-39.01983763345405
 21
1.315050807700373
 31
0.0
 11
-39.00365801151705
 21
1.307705480629266
 31
0.0
 11
-38.9878720283871
 21
1.302298823129632
 31
0.0
 11
-38.95762804655871
 21
1.296966151641441
 31
0.0
  0
SPLINE
  5
336
330
2
100
AcDbEntity
  8
GAIKEI
  6
Continuous
 62
     1
100
AcDbSpline
210
0.0
220
0.0
230
1.0
 70
     8
 71
     3
 72
    19
 73
    15
 74
    13
 42
0.0000000001
 43
0.0000000001
 44
0.000001
 12
-0.9971663916962876
 22
-0.0752275698890099
 32
0.0
 13
-0.0752446516939761
 23
-0.9971651028748709
 33
0.0
 40
0.0
 40
0.0
 40
0.0
 40
0.0
 40
0.030715435588262
 40
0.0474030577445487
 40
0.0651725077316046
 40
0.0907715901301653
 40
0.1187843457395228
 40
0.1493748434368532
 40
0.1799684720857738
 40
0.2079831862985551
 40
0.233582924638303
 40
0.2513519490619589
 40
0.2680383244319317
 40
0.2987487387216457
 40
0.2987487387216457
 40
0.2987487387216457
 40
0.2987487387216457
 10
-38.95762804655871
 20
37.22616580173954
 30
0.0
 10
-38.96783751325035
 20
37.22539558588042
 30
0.0
 10
-38.98354813779982
 20
37.2226739160173
 30
0.0
 10
-39.00409946133388
 20
37.21554324614994
 30
0.0
 10
-39.02234029427818
 20
37.20722682933504
 30
0.0
 10
-39.04286821102763
 20
37.1950882828709
 30
0.0
 10
-39.06538574582095
 20
37.17825076330911
 30
0.0
 10
-39.08734974484746
 20
37.1581469266693
 30
0.0
 10
-39.10745250075566
 20
37.13618107269411
 30
0.0
 10
-39.12429028619958
 20
37.11366137713663
 30
0.0
 10
-39.13642885426638
 20
37.09313264355933
 30
0.0
 10
-39.14474513685762
 20
37.0748921343768
 30
0.0
 10
-39.15187537293959
 20
37.05434302500549
 30
0.0
 10
-39.1545968528068
 20
37.03863451515756
 30
0.0
 10
-39.15536711761567
 20
37.0284267306827
 30
0.0
 11
-38.95762804655871
 21
37.22616580173954
 31
0.0
 11
-38.98787704114986
 21
37.22083264107451
 31
0.0
 11
-39.00366425969983
 21
37.2154257432318
 31
0.0
 11
-39.01984426768505
 21
37.20808023720886
 31
0.0
 11
-39.04192717961067
 21
37.19513222876893
 31
0.0
 11
-39.06441219304404
 21
37.17842501274382
 31
0.0
 11
-39.08702904628589
 21
37.15782773040988
 31
0.0
 11
-39.1076270276217
 21
37.13520727907067
 31
0.0
 11
-39.1243345089857
 21
37.11272002268996
 31
0.0
 11
-39.13728246156106
 21
37.09063631757274
 31
0.0
 11
-39.14462778863171
 21
37.07445669563597
 31
0.0
 11
-39.15003444613044
 21
37.05867071250705
 31
0.0
 11
-39.15536711761567
 21
37.0284267306827
 31
0.0
  0
DIMENSION
  5
337
330
2
100
AcDbEntity
  8
SUNPO
100
AcDbDimension
  2
*D8
 10
21.20923269047342
 20
45.3535896752401
 30
0.0
 11
-9.04076729742654
 21
47.1035896752401
 31
0.0
 70
    33
  1
1210
 71
     5
 42
60.49999997579991
  3
STANDARD
100
AcDbAlignedDimension
 13
-39.29076728532649
 23
37.3535896752401
 33
0.0
 14
21.20923269047342
 24
37.3535896752401
 34
0.0
1001
ACAD
1000
DSTYLE
1002
{
1070
   287
1070
     3
1070
   287
1070
     3
1070
   287
1070
     3
1070
   287
1070
     3
1070
   287
1070
     3
1070
   287
1070
     3
1070
   287
1070
     3
1070
   287
1070
     3
1070
   287
1070
     3
1070
   287
1070
     3
1070
   287
1070
     3
1070
   287
1070
     3
1070
   287
1070
     3
1070
   287
1070
     3
1070
   287
1070
     3
1070
   287
1070
     3
1070
   287
1070
     3
1070
   287
1070
     3
1070
   287
1070
     3
1070
   287
1070
     3
1070
   287
1070
     3
1070
   287
1070
     3
1070
   287
1070
     3
1070
   287
1070
     3
1070
   287
1070
     3
1070
   287
1070
     3
1070
   287
1070
     3
1070
   287
1070
     3
1070
   287
1070
     3
1070
   287
1070
     3
1070
   287
1070
     3
1070
   287
1070
     3
1070
   287
1070
     3
1070
   287
1070
     3
1070
    40
1040
1.0
1070
   140
1040
2.5
1070
   147
1040
0.5
1070
   172
1070
     1
1070
   279
1070
     0
1002
}
  0
ELLIPSE
  5
344
330
2
100
AcDbEntity
  8
GAIKEI
  6
Continuous
100
AcDbEllipse
 10
21.00895824055354
 20
1.361840433850403
 30
0.0
 11
-0.1418092486302895
 21
0.1418092486302897
 31
0.0
210
0.0
220
0.0
230
1.0
 40
0.9972649999999998
 41
2.35756401806288
 42
3.925621289116826
  0
ELLIPSE
  5
345
330
2
100
AcDbEntity
  8
GAIKEI
  6
Continuous
100
AcDbEllipse
 10
21.00895824055354
 20
37.16129151953058
 30
0.0
 11
-0.1418092486302781
 21
-0.1418092486303011
 31
0.0
210
0.0
220
0.0
230
1.0
 40
0.9972649999999998
 41
2.357564018062679
 42
3.925621289116665
  0
ELLIPSE
  5
346
330
2
100
AcDbEntity
  8
GAIKEI
  6
Continuous
 62
     1
100
AcDbEllipse
 10
18.53098169154472
 20
3.802316982874259
 30
0.0
 11
-0.0717687987905345
 21
0.071768798790594
 31
0.0
210
0.0
220
0.0
230
1.0
 40
0.985257
 41
2.363620831665123
 42
3.919564475515255
  0
ELLIPSE
  5
347
330
2
100
AcDbEntity
  8
GAIKEI
  6
Continuous
 62
     1
100
AcDbEllipse
 10
18.53098169154472
 20
34.72081497050684
 30
0.0
 11
-0.0717687987905403
 21
-0.0717687987905877
 31
0.0
210
0.0
220
0.0
230
1.0
 40
0.9852569999999998
 41
2.363620831663935
 42
3.919564475514135
  0
ELLIPSE
  5
348
330
2
100
AcDbEntity
  8
GAIKEI
  6
Continuous
 62
     1
100
AcDbEllipse
 10
18.54339239153975
 20
3.793948682877527
 30
0.0
 11
-0.0866320186582643
 21
0.1272290693382531
 31
0.0
210
0.0
220
0.0
230
1.0
 40
0.9735809999999998
 41
2.556185037470086
 42
3.315099769710523
  0
ELLIPSE
  5
349
330
2
100
AcDbEntity
  8
GAIKEI
  6
Continuous
 62
     1
100
AcDbEllipse
 10
18.5393499915414
 20
3.789906282879115
 30
0.0
 11
-0.1272290693381955
 21
0.0866320186583462
 31
0.0
210
0.0
220
0.0
230
1.0
 40
0.973581
 41
2.968085537466982
 42
3.727000269710492
  0
ELLIPSE
  5
34A
330
2
100
AcDbEntity
  8
GAIKEI
  6
Continuous
 62
     1
100
AcDbEllipse
 10
18.5393499915414
 20
34.73322567050187
 30
0.0
 11
-0.1272290693382016
 21
-0.0866320186583367
 31
0.0
210
0.0
220
0.0
230
0.9999999999999998
 40
0.9735809999999998
 41
2.556185037469163
 42
3.315099769710879
  0
ELLIPSE
  5
34B
330
2
100
AcDbEntity
  8
GAIKEI
  6
Continuous
 62
     1
100
AcDbEllipse
 10
18.54339239153975
 20
34.72918327050346
 30
0.0
 11
-0.0866320186582728
 21
-0.1272290693382461
 31
0.0
210
0.0
220
0.0
230
1.0
 40
0.9735809999999998
 41
2.9680855374661
 42
3.7270002697099
  0
ELLIPSE
  5
34C
330
2
100
AcDbEntity
  8
GAIKEI
  6
Continuous
 62
     1
100
AcDbEllipse
 10
19.16939769128939
 20
3.165922183128742
 30
0.0
 11
-0.074037095291956
 21
-0.0126634681883971
 31
0.0
210
0.0
220
0.0
230
1.0
 40
0.9955149999999999
 41
1.400644872217725
 42
2.165616418060674
  0
ELLIPSE
  5
34D
330
2
100
AcDbEntity
  8
GAIKEI
  6
Continuous
 62
     1
100
AcDbEllipse
 10
19.16737649129018
 20
35.3592309702515
 30
0.0
 11
-0.0126634681884039
 21
0.0740370952919547
 31
0.0
210
0.0
220
0.0
230
1.0
 40
0.9955149999999999
 41
4.542237525807408
 42
5.30720907164956
  0
ELLIPSE
  5
34E
330
2
100
AcDbEntity
  8
GAIKEI
  6
Continuous
 62
     1
100
AcDbEllipse
 10
19.16737649129018
 20
3.163900983129593
 30
0.0
 11
-0.0126634681884195
 21
-0.0740370952919523
 31
0.0
210
0.0
220
0.0
230
1.0
 40
0.9955149999999999
 41
0.975976235527481
 42
1.740947781372396
  0
ELLIPSE
  5
34F
330
2
100
AcDbEntity
  8
GAIKEI
  6
Continuous
 62
     1
100
AcDbEllipse
 10
19.16939769128933
 20
35.35720977025224
 30
0.0
 11
-0.0740370952919559
 21
0.0126634681883976
 31
0.0
210
0.0
220
0.0
230
1.0
 40
0.9955149999999999
 41
4.117568889116213
 42
4.882540434961859
  0
ELLIPSE
  5
350
330
2
100
AcDbEntity
  8
GAIKEI
  6
Continuous
 62
     1
100
AcDbEllipse
 10
20.28775224084203
 20
2.083046433561918
 30
0.0
 11
-0.5021965241687355
 21
0.502196524168813
 31
0.0
210
0.0
220
0.0
230
1.0
 40
0.49281
 41
2.730628648546692
 42
3.552556658632933
  0
ELLIPSE
  5
351
330
2
100
AcDbEntity
  8
GAIKEI
  6
Continuous
 62
     1
100
AcDbEllipse
 10
20.28775224084203
 20
36.44008551981918
 30
0.0
 11
-0.5021965241687404
 21
-0.5021965241687347
 31
0.0
210
0.0
220
0.0
230
1.0
 40
0.49281
 41
2.730628648546677
 42
3.552556658632908
  0
ELLIPSE
  5
352
330
2
100
AcDbEntity
  8
GAIKEI
  6
Continuous
 62
     1
100
AcDbEllipse
 10
19.17538879128696
 20
35.36522207024896
 30
0.0
 11
-0.1595354047091992
 21
-0.1595354047089534
 31
0.0
210
0.0
220
0.0
230
1.0
 40
0.9972649999999998
 41
2.357564018063572
 42
3.925621289117657
  0
ELLIPSE
  5
353
330
2
100
AcDbEntity
  8
GAIKEI
  6
Continuous
 62
     1
100
AcDbEllipse
 10
19.17538879128696
 20
3.15790988313202
 30
0.0
 11
-0.159535404709188
 21
0.1595354047089651
 31
0.0
210
0.0
220
0.0
230
1.0
 40
0.9972649999999998
 41
2.357564018062
 42
3.925621289115982
  0
LINE
  5
354
330
2
100
AcDbEntity
  8
GAIKEI
  6
Continuous
100
AcDbLine
 10
21.20923269047344
 20
37.16184006953043
 30
0.0
 11
21.20923269047344
 21
1.361291883850668
 31
0.0
  0
LINE
  5
355
330
2
100
AcDbEntity
  8
GAIKEI
  6
Continuous
 62
     1
100
AcDbLine
 10
21.07383254052763
 20
1.496692033796563
 30
0.0
 11
21.20923269047344
 21
1.361291883850668
 31
0.0
  0
LINE
  5
356
330
2
100
AcDbEntity
  8
GAIKEI
  6
Continuous
 62
     1
100
AcDbLine
 10
21.00950679055339
 20
1.161565983930614
 30
0.0
 11
20.87410664060749
 21
1.296966133876395
 31
0.0
  0
LINE
  5
357
330
2
100
AcDbEntity
  8
GAIKEI
  6
Continuous
 62
     1
100
AcDbLine
 10
20.87410664060749
 20
37.2261658195047
 30
0.0
 11
21.00950679055339
 21
37.3615659694506
 31
0.0
  0
LINE
  5
358
330
2
100
AcDbEntity
  8
GAIKEI
  6
Continuous
 62
     1
100
AcDbLine
 10
21.20923269047344
 20
37.16184006953043
 30
0.0
 11
21.07383254052763
 21
37.02643991958465
 31
0.0
  0
LINE
  5
359
330
2
100
AcDbEntity
  8
GAIKEI
  6
Continuous
 62
     1
100
AcDbLine
 10
18.63173269150448
 20
34.72231137050633
 30
0.0
 11
18.63173269150448
 21
3.800820582874877
 31
0.0
  0
LINE
  5
35A
330
2
100
AcDbEntity
  8
GAIKEI
  6
Continuous
 62
     1
100
AcDbLine
 10
18.69199674148038
 20
34.73699047050039
 30
0.0
 11
18.69199674148038
 21
3.786141482880708
 31
0.0
  0
LINE
  5
35B
330
2
100
AcDbEntity
  8
GAIKEI
  6
Continuous
 62
     1
100
AcDbLine
 10
18.65010794149711
 20
3.683190732921872
 30
0.0
 11
19.22132654126861
 21
3.11197213315043
 31
0.0
  0
LINE
  5
35C
330
2
100
AcDbEntity
  8
GAIKEI
  6
Continuous
 62
     1
100
AcDbLine
 10
19.22132654126861
 20
35.41115982023078
 30
0.0
 11
18.65010794149711
 21
34.83994122045923
 31
0.0
  0
LINE
  5
35D
330
2
100
AcDbEntity
  8
GAIKEI
  6
Continuous
 62
     1
100
AcDbLine
 10
19.2421614912603
 20
3.164013183129583
 30
0.0
 11
19.2421614912603
 21
35.35911877025152
 31
0.0
  0
LINE
  5
35E
330
2
100
AcDbEntity
  8
GAIKEI
  6
Continuous
 62
     1
100
AcDbLine
 10
21.07383254052766
 20
1.494705233797304
 30
0.0
 11
21.07383254052766
 21
37.02842671958379
 31
0.0
  0
LINE
  5
35F
330
2
100
AcDbEntity
  8
GAIKEI
  6
Continuous
 62
     1
100
AcDbLine
 10
20.87609344060675
 20
1.296966133876395
 30
0.0
 11
20.64926439069743
 21
1.523795183785665
 31
0.0
  0
LINE
  5
360
330
2
100
AcDbEntity
  8
GAIKEI
  6
Continuous
 62
     1
100
AcDbLine
 10
20.84700349061839
 20
1.721534283706574
 30
0.0
 11
21.07383254052766
 21
1.494705233797304
 31
0.0
  0
LINE
  5
361
330
2
100
AcDbEntity
  8
GAIKEI
  6
Continuous
 62
     1
100
AcDbLine
 10
21.07383254052766
 20
37.02842671958379
 30
0.0
 11
20.84700349061839
 21
36.80159766967452
 31
0.0
  0
LINE
  5
362
330
2
100
AcDbEntity
  8
GAIKEI
  6
Continuous
 62
     1
100
AcDbLine
 10
20.64926439069743
 20
36.99933676959543
 30
0.0
 11
20.87609344060675
 21
37.2261658195047
 31
0.0
  0
LINE
  5
363
330
2
100
AcDbEntity
  8
GAIKEI
  6
Continuous
 62
     1
100
AcDbLine
 10
20.84700349061839
 20
36.80159766967452
 30
0.0
 11
20.84700349061839
 21
1.721534283706574
 31
0.0
  0
LINE
  5
364
330
2
100
AcDbEntity
  8
GAIKEI
  6
Continuous
 62
     1
100
AcDbLine
 10
19.40069759119686
 20
35.36583922024889
 30
0.0
 11
19.40069759119686
 21
3.157292733132322
 31
0.0
  0
SPLINE
  5
365
330
2
100
AcDbEntity
  8
GAIKEI
  6
Continuous
 62
     1
100
AcDbSpline
210
0.0
220
0.0
230
1.0
 70
     8
 71
     3
 72
    19
 73
    15
 74
    13
 42
0.0000000001
 43
0.0000000001
 44
0.000001
 12
-0.0752275697466489
 22
-0.9971663917070275
 32
0.0
 13
-0.9971651028676605
 23
-0.0752446517895329
 33
0.0
 40
0.0
 40
0.0
 40
0.0
 40
0.0
 40
0.030715435581542
 40
0.0474030577359828
 40
0.0651725077224488
 40
0.0907715901219655
 40
0.118784345734847
 40
0.1493748434380533
 40
0.179968472082968
 40
0.2079831862935395
 40
0.2335829246325459
 40
0.251351949056575
 40
0.2680383244278028
 40
0.2987487387220733
 40
0.2987487387220733
 40
0.2987487387220733
 40
0.2987487387220733
 10
21.0738325227625
 20
1.494705222698399
 30
0.0
 10
21.073062306905
 20
1.484495756008868
 30
0.0
 10
21.07034063704424
 20
1.468785131461856
 30
0.0
 10
21.06320996717844
 20
1.448233807930421
 30
0.0
 10
21.05489355036429
 20
1.429992974986362
 30
0.0
 10
21.04275500389944
 20
1.409465058235696
 30
0.0
 10
21.02591748433541
 20
1.386947523439744
 30
0.0
 10
21.0058136476945
 20
1.364983524411883
 30
0.0
 10
20.98384779371942
 20
1.344880768503799
 30
0.0
 10
20.96132809816369
 20
1.328042983061294
 30
0.0
 10
20.94079936458715
 20
1.315904414994975
 30
0.0
 10
20.92255885540445
 20
1.307588132403225
 30
0.0
 10
20.90200974603147
 20
1.300457896320097
 30
0.0
 10
20.88630123618182
 20
1.297736416451414
 30
0.0
 10
20.87609345170554
 20
1.296966151641441
 30
0.0
 11
21.0738325227625
 21
1.494705222698399
 31
0.0
 11
21.0684993621019
 21
1.464456228113277
 31
0.0
 11
21.06309246426045
 21
1.448669009564838
 31
0.0
 11
21.05574695823819
 21
1.432489001579966
 31
0.0
 11
21.04279894979791
 21
1.410406089653434
 31
0.0
 11
21.02609173377064
 21
1.387921076217281
 31
0.0
 11
21.00549445143272
 21
1.365304222971104
 31
0.0
 11
20.98287400009642
 21
1.344706241638078
 31
0.0
 11
20.96038674371746
 21
1.327998760275391
 31
0.0
 11
20.93830303860094
 21
1.315050807700373
 31
0.0
 11
20.92212341666394
 21
1.307705480629266
 31
0.0
 11
20.90633743353399
 21
1.302298823129632
 31
0.0
 11
20.87609345170554
 21
1.296966151641441
 31
0.0
  0
SPLINE
  5
366
330
2
100
AcDbEntity
  8
GAIKEI
  6
Continuous
 62
     1
100
AcDbSpline
210
0.0
220
0.0
230
1.0
 70
     8
 71
     3
 72
    19
 73
    15
 74
    13
 42
0.0000000001
 43
0.0000000001
 44
0.000001
 12
0.9971663916962711
 22
-0.075227569889229
 32
0.0
 13
0.075244651693976
 23
-0.9971651028748709
 33
0.0
 40
0.0
 40
0.0
 40
0.0
 40
0.0
 40
0.030715435588374
 40
0.0474030577445464
 40
0.0651725077316638
 40
0.0907715901302183
 40
0.1187843457395302
 40
0.1493748434368632
 40
0.1799684720857404
 40
0.2079831862986427
 40
0.2335829246383331
 40
0.2513519490620154
 40
0.2680383244320077
 40
0.2987487387217205
 40
0.2987487387217205
 40
0.2987487387217205
 40
0.2987487387217205
 10
20.87609345170554
 20
37.22616580173954
 30
0.0
 10
20.88630291839722
 20
37.22539558588042
 30
0.0
 10
20.90201354294672
 20
37.22267391601736
 30
0.0
 10
20.92256486648074
 20
37.21554324614991
 30
0.0
 10
20.94080569942509
 20
37.2072268293351
 30
0.0
 10
20.96133361617448
 20
37.19508828287087
 30
0.0
 10
20.98385115096781
 20
37.17825076330905
 30
0.0
 10
21.00581514999424
 20
37.15814692666928
 30
0.0
 10
21.02591790590262
 20
37.13618107269429
 30
0.0
 10
21.04275569134654
 20
37.11366137713668
 30
0.0
 10
21.05489425941318
 20
37.09313264355933
 30
0.0
 10
21.06321054200453
 20
37.07489213437674
 30
0.0
 10
21.07034077808657
 20
37.05434302500549
 30
0.0
 10
21.07306225795375
 20
37.03863451515756
 30
0.0
 10
21.07383252276262
 20
37.0284267306827
 30
0.0
 11
20.87609345170554
 21
37.22616580173954
 31
0.0
 11
20.90634244629681
 21
37.22083264107451
 31
0.0
 11
20.92212966484666
 21
37.2154257432318
 31
0.0
 11
20.93830967283194
 21
37.20808023720886
 31
0.0
 11
20.96039258475756
 21
37.19513222876893
 31
0.0
 11
20.98287759819087
 21
37.17842501274382
 31
0.0
 11
21.00549445143272
 21
37.15782773040988
 31
0.0
 11
21.02609243276859
 21
37.13520727907078
 31
0.0
 11
21.04279991413264
 21
37.11272002268996
 31
0.0
 11
21.05574786670789
 21
37.09063631757274
 31
0.0
 11
21.0630931937786
 21
37.07445669563597
 31
0.0
 11
21.06849985127738
 21
37.05867071250705
 31
0.0
 11
21.07383252276262
 21
37.0284267306827
 31
0.0
  0
DIMENSION
  5
367
330
2
100
AcDbEntity
  8
SUNPO
100
AcDbDimension
  2
*D7
 10
28.76946750074575
 20
37.35387611959144
 30
0.0
 11
27.01946750074574
 21
19.25772105176103
 31
0.0
 70
    33
  1
724
 71
     5
 42
36.19231013566082
  3
STANDARD
100
AcDbAlignedDimension
 13
20.76946750074575
 23
1.161565983930614
 33
0.0
 14
20.76946750074572
 24
37.35387611959144
 34
0.0
1001
ACAD
1000
DSTYLE
1002
{
1070
   287
1070
     3
1070
   287
1070
     3
1070
   287
1070
     3
1070
   287
1070
     3
1070
   287
1070
     3
1070
   287
1070
     3
1070
   287
1070
     3
1070
   287
1070
     3
1070
   287
1070
     3
1070
   287
1070
     3
1070
   287
1070
     3
1070
   287
1070
     3
1070
   287
1070
     3
1070
   287
1070
     3
1070
   287
1070
     3
1070
   287
1070
     3
1070
   287
1070
     3
1070
   287
1070
     3
1070
   287
1070
     3
1070
   287
1070
     3
1070
   287
1070
     3
1070
   287
1070
     3
1070
   287
1070
     3
1070
   287
1070
     3
1070
   287
1070
     3
1070
   287
1070
     3
1070
   287
1070
     3
1070
   287
1070
     3
1070
   287
1070
     3
1070
   287
1070
     3
1070
   287
1070
     3
1070
   287
1070
     3
1070
   287
1070
     3
1070
   287
1070
     3
1070
    40
1040
1.0
1070
   140
1040
2.5
1070
   147
1040
0.5
1070
   172
1070
     1
1070
   279
1070
     0
1002
}
  0
LINE
  5
374
330
2
100
AcDbEntity
  8
GAIKEI
  6
Continuous
 62
     1
100
AcDbLine
 10
43.19513995321043
 20
2.469255833789617
 30
0.0
 11
43.32612295321033
 21
2.469255833789617
 31
0.0
  0
LINE
  5
375
330
2
100
AcDbEntity
  8
GAIKEI
  6
Continuous
 62
     1
100
AcDbLine
 10
45.33376115321042
 20
3.969255833789617
 30
0.0
 11
45.29763995321039
 21
3.969255833789617
 31
0.0
  0
LINE
  5
376
330
2
100
AcDbEntity
  8
GAIKEI
  6
Continuous
 62
     1
100
AcDbLine
 10
45.33507135321033
 20
3.969255833789617
 30
0.0
 11
45.33376115321042
 21
3.969255833789617
 31
0.0
  0
LINE
  5
377
330
2
100
AcDbEntity
  8
GAIKEI
  6
Continuous
 62
     1
100
AcDbLine
 10
43.43792635321037
 20
2.495649033789646
 30
0.0
 11
45.24694335321036
 21
3.400157533789666
 31
0.0
  0
LINE
  5
378
330
2
100
AcDbEntity
  8
GAIKEI
  6
Continuous
 62
     1
100
AcDbLine
 10
45.38513995321037
 20
3.623764333789637
 30
0.0
 11
45.38513995321037
 21
3.919255833789662
 31
0.0
  0
ARC
  5
379
330
2
100
AcDbEntity
  8
GAIKEI
  6
Continuous
 62
     1
100
AcDbCircle
 10
45.13513995321036
 20
3.623764333789637
 30
0.0
 40
0.25
100
AcDbArc
 50
296.5650509999867
 51
0.0
  0
ARC
  5
37A
330
2
100
AcDbEntity
  8
GAIKEI
  6
Continuous
 62
     1
100
AcDbCircle
 10
43.32612295321033
 20
2.719255833789617
 30
0.0
 40
0.25
100
AcDbArc
 50
270.0
 51
296.5650509999867
  0
ELLIPSE
  5
37B
330
2
100
AcDbEntity
  8
GAIKEI
  6
Continuous
 62
     1
100
AcDbEllipse
 10
45.33507135321033
 20
3.919255833789662
 30
0.0
 11
-0.0500686172998712
 21
0.0000000000068056
 31
0.0
210
0.0
220
0.0
230
1.0
 40
0.9986300000009318
 41
3.141592653725905
 42
4.712388980520429
  0
LINE
  5
37C
330
2
100
AcDbEntity
  8
GAIKEI
  6
Continuous
 62
     1
100
AcDbLine
 10
45.37376115321038
 20
6.06925583378964
 30
0.0
 11
45.29763995321039
 21
6.06925583378964
 31
0.0
  0
LINE
  5
37D
330
2
100
AcDbEntity
  8
GAIKEI
  6
Continuous
 62
     1
100
AcDbLine
 10
45.37507135321042
 20
6.06925583378964
 30
0.0
 11
45.37376115321038
 21
6.06925583378964
 31
0.0
  0
LINE
  5
37E
330
2
100
AcDbEntity
  8
GAIKEI
  6
Continuous
 62
     1
100
AcDbLine
 10
45.42513995321033
 20
5.723764333789659
 30
0.0
 11
45.42513995321033
 21
6.019255833789571
 31
0.0
  0
ARC
  5
37F
330
2
100
AcDbEntity
  8
GAIKEI
  6
Continuous
 62
     1
100
AcDbCircle
 10
45.17513995321033
 20
5.723764333789659
 30
0.0
 40
0.25
100
AcDbArc
 50
299.3405819999875
 51
0.0
  0
ELLIPSE
  5
380
330
2
100
AcDbEntity
  8
GAIKEI
  6
Continuous
 62
     1
100
AcDbEllipse
 10
45.37507135321042
 20
6.019255833789571
 30
0.0
 11
0.0500686172998712
 21
0.0000000000139555
 31
0.0
210
0.0
220
0.0
230
1.0
 40
0.9986299999997962
 41
-0.0000000002791107
 42
1.57079632651655
  0
LINE
  5
381
330
2
100
AcDbEntity
  8
GAIKEI
  6
Continuous
 62
     1
100
AcDbLine
 10
43.36544925321041
 20
2.231606283789602
 30
0.0
 11
44.24285665321039
 21
2.277589283789581
 31
0.0
  0
LINE
  5
382
330
2
100
AcDbEntity
  8
GAIKEI
  6
Continuous
 62
     1
100
AcDbLine
 10
44.88039205321038
 20
2.357577083789607
 30
0.0
 11
44.88248525321037
 21
2.477496083789588
 31
0.0
  0
LINE
  5
383
330
2
100
AcDbEntity
  8
GAIKEI
  6
Continuous
 62
     1
100
AcDbLine
 10
44.24285665321039
 20
2.277589283789581
 30
0.0
 11
44.83301645321037
 21
2.308518233789669
 31
0.0
  0
LINE
  5
384
330
2
100
AcDbEntity
  8
GAIKEI
  6
Continuous
 62
     1
100
AcDbLine
 10
43.36544925321041
 20
2.231606283789602
 30
0.0
 11
44.36952575321041
 21
2.284227733789663
 31
0.0
  0
ARC
  5
385
330
2
100
AcDbEntity
  8
GAIKEI
  6
Continuous
 62
     1
100
AcDbCircle
 10
43.37853320321037
 20
1.981948933789595
 30
0.0
 40
0.25
100
AcDbArc
 50
93.00000000000558
 51
137.186778999995
  0
ARC
  5
386
330
2
100
AcDbEntity
  8
GAIKEI
  6
Continuous
 62
     1
100
AcDbCircle
 10
44.83039965321043
 20
2.358449733789626
 30
0.0
 40
0.05
100
AcDbArc
 50
273.0000000000056
 51
359.0000000000243
  0
LINE
  5
387
330
2
100
AcDbEntity
  8
GAIKEI
  6
Continuous
 62
     1
100
AcDbLine
 10
44.40412420321038
 20
35.46028736945053
 30
0.0
 11
43.41688890321037
 21
35.49476236945057
 31
0.0
  0
LINE
  5
388
330
2
100
AcDbEntity
  8
GAIKEI
  6
Continuous
 62
     1
100
AcDbLine
 10
43.25849745321036
 20
35.40028451945059
 30
0.0
 11
43.25849745321036
 21
30.41298776945055
 31
0.0
  0
LINE
  5
389
330
2
100
AcDbEntity
  8
GAIKEI
  6
Continuous
 62
     1
100
AcDbLine
 10
44.7057329532104
 20
35.78266431945056
 30
0.0
 11
43.20215475321041
 21
36.10485961945054
 31
0.0
  0
LINE
  5
38A
330
2
100
AcDbEntity
  8
GAIKEI
  6
Continuous
 62
     1
100
AcDbLine
 10
45.24235125321038
 20
33.33134561945056
 30
0.0
 11
44.93993410321039
 21
35.53035006945052
 31
0.0
  0
LINE
  5
38B
330
2
100
AcDbEntity
  8
GAIKEI
  6
Continuous
 62
     1
100
AcDbLine
 10
45.25586345321042
 20
32.67935756945056
 30
0.0
 11
45.25586345321042
 21
33.13391471945048
 31
0.0
  0
LINE
  5
38C
330
2
100
AcDbEntity
  8
GAIKEI
  6
Continuous
 62
     1
100
AcDbLine
 10
44.93993410321039
 20
30.28292226945055
 30
0.0
 11
45.24235125321038
 21
32.48192671945052
 31
0.0
  0
LINE
  5
38D
330
2
100
AcDbEntity
  8
GAIKEI
  6
Continuous
 62
     1
100
AcDbLine
 10
43.20215475321041
 20
29.7084126694505
 30
0.0
 11
44.7057329532104
 21
30.03060801945051
 31
0.0
  0
LINE
  5
38E
330
2
100
AcDbEntity
  8
GAIKEI
  6
Continuous
 62
     1
100
AcDbLine
 10
43.41688890321037
 20
30.31850991945058
 30
0.0
 11
44.40412420321038
 21
30.35298496945055
 31
0.0
  0
LINE
  5
38F
330
2
100
AcDbEntity
  8
GAIKEI
  6
Continuous
 62
     1
100
AcDbLine
 10
44.5472941532104
 20
30.4822798194505
 30
0.0
 11
44.55267070321034
 21
30.52137491945055
 31
0.0
  0
LINE
  5
390
330
2
100
AcDbEntity
  8
GAIKEI
  6
Continuous
 62
     1
100
AcDbLine
 10
44.56925900321041
 20
30.62077811945054
 30
0.0
 11
44.73474705321044
 21
31.82411266945056
 31
0.0
  0
LINE
  5
391
330
2
100
AcDbEntity
  8
GAIKEI
  6
Continuous
 62
     1
100
AcDbLine
 10
44.74564450321039
 20
31.92457016945051
 30
0.0
 11
44.83048190321037
 21
32.54145916945052
 31
0.0
  0
LINE
  5
392
330
2
100
AcDbEntity
  8
GAIKEI
  6
Continuous
 62
     1
100
AcDbLine
 10
44.83972370321035
 20
32.67649421945058
 30
0.0
 11
44.83972370321035
 21
33.13677806945057
 31
0.0
  0
LINE
  5
393
330
2
100
AcDbEntity
  8
GAIKEI
  6
Continuous
 62
     1
100
AcDbLine
 10
44.67808695321039
 20
34.40115966945055
 30
0.0
 11
44.56925900321041
 21
35.1924941694505
 31
0.0
  0
LINE
  5
394
330
2
100
AcDbEntity
  8
GAIKEI
  6
Continuous
 62
     1
100
AcDbLine
 10
44.55267070321034
 20
35.2918973694506
 30
0.0
 11
44.5472941532104
 21
35.33099251945046
 31
0.0
  0
LINE
  5
395
330
2
100
AcDbEntity
  8
GAIKEI
  6
Continuous
 62
     1
100
AcDbLine
 10
44.83048190321037
 20
33.27181316945055
 30
0.0
 11
44.67808695321039
 21
34.40115966945055
 31
0.0
  0
LINE
  5
396
330
2
100
AcDbEntity
  8
GAIKEI
  6
Continuous
 62
     1
100
AcDbLine
 10
43.27240470321036
 20
30.4921514194505
 30
0.0
 11
43.27240470321036
 21
30.50156596945058
 31
0.0
  0
LINE
  5
397
330
2
100
AcDbEntity
  8
GAIKEI
  6
Continuous
 62
     1
100
AcDbLine
 10
44.40412420321038
 20
30.35298496945055
 30
0.0
 11
44.40282035321039
 21
30.35442871945057
 31
0.0
  0
LINE
  5
398
330
2
100
AcDbEntity
  8
GAIKEI
  6
Continuous
 62
     1
100
AcDbLine
 10
43.32239710321036
 20
30.4921514194505
 30
0.0
 11
43.27240470321036
 21
30.4921514194505
 31
0.0
  0
LINE
  5
399
330
2
100
AcDbEntity
  8
GAIKEI
  6
Continuous
 62
     1
100
AcDbLine
 10
43.32239710321036
 20
30.62275781945053
 30
0.0
 11
43.32239710321036
 21
30.4921514194505
 31
0.0
  0
ARC
  5
39A
330
2
100
AcDbEntity
  8
GAIKEI
  6
Continuous
 62
     1
100
AcDbCircle
 10
44.6429441032104
 20
30.32374071945052
 30
0.0
 40
0.34978195
100
AcDbArc
 50
317.305700138415
 51
349.609110091751
  0
ELLIPSE
  5
39B
330
2
100
AcDbEntity
  8
GAIKEI
  6
Continuous
 62
     1
100
AcDbEllipse
 10
44.64258520321041
 20
35.48919851945053
 30
0.0
 11
0.2200773139137207
 21
0.2042784547079607
 31
0.0
210
0.0
220
0.0
230
1.0
 40
0.9990919999997052
 41
-0.6110907881875775
 42
0.6110907880307086
  0
ELLIPSE
  5
39C
330
2
100
AcDbEntity
  8
GAIKEI
  6
Continuous
 62
     1
100
AcDbEllipse
 10
43.80497960321039
 20
33.13379376945048
 30
0.0
 11
1.447501845805857
 21
0.0990673047384905
 31
0.0
210
0.0
220
0.0
230
1.0
 40
0.9993880000055288
 41
-0.0682919404817914
 42
0.0682919404888547
  0
ELLIPSE
  5
39D
330
2
100
AcDbEntity
  8
GAIKEI
  6
Continuous
 62
     1
100
AcDbEllipse
 10
43.80497960321039
 20
32.67947851945044
 30
0.0
 11
-1.447501845782709
 21
0.0990673050774751
 31
0.0
210
0.0
220
0.0
230
1.0
 40
0.9993879999934986
 41
3.073300713334443
 42
3.209884594306729
  0
ELLIPSE
  5
39E
330
2
100
AcDbEntity
  8
GAIKEI
  6
Continuous
 62
     1
100
AcDbEllipse
 10
44.64258520321041
 20
30.32407381945055
 30
0.0
 11
-0.2200773139313426
 21
0.2042784546889193
 31
0.0
210
0.0
220
0.0
230
1.0
 40
0.9990920000004408
 41
2.530501865473186
 42
3.75268344169062
  0
ELLIPSE
  5
39F
330
2
100
AcDbEntity
  8
GAIKEI
  6
Continuous
 62
     1
100
AcDbEllipse
 10
44.39889645321037
 20
35.31058416945055
 30
0.0
 11
-0.1113231012655573
 21
0.1005344076653982
 31
0.0
210
0.0
220
0.0
230
1.0
 40
0.9976619999996227
 41
4.013930599346159
 42
5.410847361526342
  0
ELLIPSE
  5
3A0
330
2
100
AcDbEntity
  8
GAIKEI
  6
Continuous
 62
     1
100
AcDbEllipse
 10
43.84858390321037
 20
32.67649421945046
 30
0.0
 11
0.0677683607176556
 21
0.9901836694785888
 31
0.0
210
0.0
220
0.0
230
1.0
 40
0.998622999991616
 41
4.644149142570644
 42
4.78062881804572
  0
ELLIPSE
  5
3A1
330
2
100
AcDbEntity
  8
GAIKEI
  6
Continuous
 62
     1
100
AcDbEllipse
 10
44.39889645321037
 20
30.50268811945048
 30
0.0
 11
0.1113231012737732
 21
0.1005344076561978
 31
0.0
210
0.0
220
0.0
230
1.0
 40
0.9976620000000806
 41
4.013930599325021
 42
5.410847361505642
  0
ELLIPSE
  5
3A2
330
2
100
AcDbEntity
  8
GAIKEI
  6
Continuous
 62
     1
100
AcDbEllipse
 10
43.84858390321037
 20
33.13677806945046
 30
0.0
 11
-0.0677683608693831
 21
0.9901836694613271
 31
0.0
210
0.0
220
0.0
230
1.0
 40
0.9986229999985823
 41
4.644149142569689
 42
4.780628818045713
  0
ELLIPSE
  5
3A3
330
2
100
AcDbEntity
  8
GAIKEI
  6
Continuous
 62
     1
100
AcDbEllipse
 10
43.41166115321041
 20
30.46821311945044
 30
0.0
 11
-0.1424851626777184
 21
0.0468826024949143
 31
0.0
210
0.0
220
0.0
230
1.0
 40
0.9984440000005646
 41
0.318339618181823
 42
1.923075432051857
  0
ELLIPSE
  5
3A4
330
2
100
AcDbEntity
  8
GAIKEI
  6
Continuous
 62
     1
100
AcDbEllipse
 10
43.41166115321041
 20
35.34505921945052
 30
0.0
 11
0.1424851626795885
 21
0.0468826024892312
 31
0.0
210
0.0
220
0.0
230
1.0
 40
0.9984440000001793
 41
1.218517221577885
 42
2.82325303544779
  0
LINE
  5
3A5
330
2
100
AcDbEntity
  8
GAIKEI
  6
Continuous
 62
     1
100
AcDbLine
 10
43.26659115321038
 20
1.81925583378964
 30
0.0
 11
43.23486205321038
 21
1.81925583378964
 31
0.0
  0
ARC
  5
3A6
330
2
100
AcDbEntity
  8
GAIKEI
  6
Continuous
 62
     1
100
AcDbCircle
 10
43.26659115321038
 20
1.754255833789585
 30
0.0
 40
0.065
100
AcDbArc
 50
16.60155000001893
 51
90.0
  0
ARC
  5
3A7
330
2
100
AcDbEntity
  8
GAIKEI
  6
Continuous
 62
     1
100
AcDbCircle
 10
43.26659115321038
 20
1.534255833789671
 30
0.0
 40
0.065
100
AcDbArc
 50
299.0713460000123
 51
343.3984499999811
  0
ARC
  5
3A8
330
2
100
AcDbEntity
  8
GAIKEI
  6
Continuous
 62
     1
100
AcDbCircle
 10
42.89763995321041
 20
1.644255833789571
 30
0.0
 40
0.45
100
AcDbArc
 50
343.3984499999811
 51
0.0
  0
ARC
  5
3A9
330
2
100
AcDbEntity
  8
GAIKEI
  6
Continuous
 62
     1
100
AcDbCircle
 10
42.89763995321041
 20
1.644255833789571
 30
0.0
 40
0.45
100
AcDbArc
 50
0.0
 51
16.60155000001893
  0
LINE
  5
3AA
330
2
100
AcDbEntity
  8
GAIKEI
  6
Continuous
 62
     1
100
AcDbLine
 10
43.22659115321042
 20
1.81925583378964
 30
0.0
 11
43.19513995321043
 21
1.81925583378964
 31
0.0
  0
LINE
  5
3AB
330
2
100
AcDbEntity
  8
GAIKEI
  6
Continuous
 62
     1
100
AcDbLine
 10
43.22659115321042
 20
18.83449163302251
 30
0.0
 11
43.19513995321043
 21
18.83449163302251
 31
0.0
  0
LINE
  5
3AC
330
2
100
AcDbEntity
  8
GAIKEI
  6
Continuous
 62
     1
100
AcDbLine
 10
43.19513995321043
 20
18.48449163302248
 30
0.0
 11
43.22659115321042
 21
18.48449163302248
 31
0.0
  0
ARC
  5
3AD
330
2
100
AcDbEntity
  8
GAIKEI
  6
Continuous
 62
     1
100
AcDbCircle
 10
43.22659115321042
 20
18.76949163302245
 30
0.0
 40
0.065
100
AcDbArc
 50
16.60155000001893
 51
90.0
  0
ARC
  5
3AE
330
2
100
AcDbEntity
  8
GAIKEI
  6
Continuous
 62
     1
100
AcDbCircle
 10
43.22659115321042
 20
18.54949163302254
 30
0.0
 40
0.065
100
AcDbArc
 50
270.0
 51
343.3984499999811
  0
ARC
  5
3AF
330
2
100
AcDbEntity
  8
GAIKEI
  6
Continuous
 62
     1
100
AcDbCircle
 10
42.8576399532104
 20
18.65949163302244
 30
0.0
 40
0.45
100
AcDbArc
 50
343.3984499999811
 51
0.0
  0
ARC
  5
3B0
330
2
100
AcDbEntity
  8
GAIKEI
  6
Continuous
 62
     1
100
AcDbCircle
 10
42.8576399532104
 20
18.65949163302244
 30
0.0
 40
0.45
100
AcDbArc
 50
0.0
 51
16.60155000001893
  0
LINE
  5
3B1
330
2
100
AcDbEntity
  8
GAIKEI
  6
Continuous
 62
     1
100
AcDbLine
 10
43.22659115321042
 20
37.09906596945055
 30
0.0
 11
43.19513995321043
 21
37.09906596945055
 31
0.0
  0
LINE
  5
3B2
330
2
100
AcDbEntity
  8
GAIKEI
  6
Continuous
 62
     1
100
AcDbLine
 10
43.19513995321043
 20
36.74906596945053
 30
0.0
 11
43.22659115321042
 21
36.74906596945053
 31
0.0
  0
ARC
  5
3B3
330
2
100
AcDbEntity
  8
GAIKEI
  6
Continuous
 62
     1
100
AcDbCircle
 10
43.22659115321042
 20
37.0340659694505
 30
0.0
 40
0.065
100
AcDbArc
 50
16.60155000001893
 51
90.0
  0
ARC
  5
3B4
330
2
100
AcDbEntity
  8
GAIKEI
  6
Continuous
 62
     1
100
AcDbCircle
 10
43.22659115321042
 20
36.81406596945047
 30
0.0
 40
0.065
100
AcDbArc
 50
270.0
 51
343.3984499999811
  0
ARC
  5
3B5
330
2
100
AcDbEntity
  8
GAIKEI
  6
Continuous
 62
     1
100
AcDbCircle
 10
42.8576399532104
 20
36.92406596945048
 30
0.0
 40
0.45
100
AcDbArc
 50
343.3984499999811
 51
0.0
  0
ARC
  5
3B6
330
2
100
AcDbEntity
  8
GAIKEI
  6
Continuous
 62
     1
100
AcDbCircle
 10
42.8576399532104
 20
36.92406596945048
 30
0.0
 40
0.45
100
AcDbArc
 50
0.0
 51
16.60155000001893
  0
LINE
  5
3B7
330
2
100
AcDbEntity
  8
GAIKEI
  6
Continuous
 62
     1
100
AcDbLine
 10
43.19513995321043
 20
1.394255833789571
 30
0.0
 11
43.22659115321042
 21
1.394255833789571
 31
0.0
  0
ARC
  5
3B8
330
2
100
AcDbEntity
  8
GAIKEI
  6
Continuous
 62
     1
100
AcDbCircle
 10
43.22659115321042
 20
1.459255833789626
 30
0.0
 40
0.065
100
AcDbArc
 50
270.0
 51
343.3984499999811
  0
ARC
  5
3B9
330
2
100
AcDbEntity
  8
GAIKEI
  6
Continuous
 62
     1
100
AcDbCircle
 10
42.8576399532104
 20
1.56925583378964
 30
0.0
 40
0.45
100
AcDbArc
 50
343.3984499999811
 51
348.2276048164396
  0
ARC
  5
3BA
330
2
100
AcDbEntity
  8
GAIKEI
  6
Continuous
 62
     1
100
AcDbCircle
 10
43.15564460321039
 20
2.053239883789643
 30
0.0
 40
0.05
100
AcDbArc
 50
16.25702800000541
 51
37.82319200001218
  0
ARC
  5
3BB
330
2
100
AcDbEntity
  8
GAIKEI
  6
Continuous
 62
     1
100
AcDbCircle
 10
43.19564460321035
 20
2.018239883789561
 30
0.0
 40
0.05
100
AcDbArc
 50
16.25702800000541
 51
80.92142899999222
  0
ARC
  5
3BC
330
2
100
AcDbEntity
  8
GAIKEI
  6
Continuous
 62
     1
100
AcDbCircle
 10
43.19564460321035
 20
1.850271783789622
 30
0.0
 40
0.05
100
AcDbArc
 50
320.9555470000154
 51
343.7429719999946
  0
ARC
  5
3BD
330
2
100
AcDbEntity
  8
GAIKEI
  6
Continuous
 62
     1
100
AcDbCircle
 10
42.9076399532104
 20
1.934255833789649
 30
0.0
 40
0.35
100
AcDbArc
 50
343.7429719999946
 51
0.0
  0
ARC
  5
3BE
330
2
100
AcDbEntity
  8
GAIKEI
  6
Continuous
 62
     1
100
AcDbCircle
 10
42.9076399532104
 20
1.934255833789649
 30
0.0
 40
0.35
100
AcDbArc
 50
0.0
 51
16.25702800000541
  0
LINE
  5
3BF
330
2
100
AcDbEntity
  8
GAIKEI
  6
Continuous
 62
     1
100
AcDbLine
 10
43.33763995321035
 20
30.78238851945051
 30
0.0
 11
43.33763995321035
 21
30.77023316945056
 31
0.0
  0
LINE
  5
3C0
330
2
100
AcDbEntity
  8
GAIKEI
  6
Continuous
 62
     1
100
AcDbLine
 10
43.34677975321037
 20
30.92906736945057
 30
0.0
 11
43.3067797532104
 21
30.92906736945057
 31
0.0
  0
LINE
  5
3C1
330
2
100
AcDbEntity
  8
GAIKEI
  6
Continuous
 62
     1
100
AcDbLine
 10
43.36735245321037
 20
30.57406671945049
 30
0.0
 11
43.32735245321035
 21
30.57406671945049
 31
0.0
  0
LINE
  5
3C2
330
2
100
AcDbEntity
  8
GAIKEI
  6
Continuous
 62
     1
100
AcDbLine
 10
43.33763995321035
 20
30.75156596945058
 30
0.0
 11
43.37763995321037
 21
30.75156596945058
 31
0.0
  0
LINE
  5
3C3
330
2
100
AcDbEntity
  8
GAIKEI
  6
Continuous
 62
     1
100
AcDbLine
 10
43.29763995321039
 20
30.77023316945056
 30
0.0
 11
43.33763995321035
 21
30.77023316945056
 31
0.0
  0
LINE
  5
3C4
330
2
100
AcDbEntity
  8
GAIKEI
  6
Continuous
 62
     1
100
AcDbLine
 10
43.37763995321037
 20
30.57656596945051
 30
0.0
 11
43.37763995321037
 21
30.75156596945058
 31
0.0
  0
LINE
  5
3C5
330
2
100
AcDbEntity
  8
GAIKEI
  6
Continuous
 62
     1
100
AcDbLine
 10
43.37763995321037
 20
30.75156596945058
 30
0.0
 11
43.37763995321037
 21
30.92656596945054
 31
0.0
  0
LINE
  5
3C6
330
2
100
AcDbEntity
  8
GAIKEI
  6
Continuous
 62
     1
100
AcDbLine
 10
43.42659115321035
 20
30.92656596945054
 30
0.0
 11
43.37763995321037
 21
30.92656596945054
 31
0.0
  0
LINE
  5
3C7
330
2
100
AcDbEntity
  8
GAIKEI
  6
Continuous
 62
     1
100
AcDbLine
 10
43.37763995321037
 20
30.57656596945051
 30
0.0
 11
43.42659115321035
 21
30.57656596945051
 31
0.0
  0
LINE
  5
3C8
330
2
100
AcDbEntity
  8
GAIKEI
  6
Continuous
 62
     1
100
AcDbLine
 10
43.37763995321037
 20
30.8465659694505
 30
0.0
 11
43.3436303032104
 21
30.8465659694505
 31
0.0
  0
LINE
  5
3C9
330
2
100
AcDbEntity
  8
GAIKEI
  6
Continuous
 62
     1
100
AcDbLine
 10
43.29763995321039
 20
30.65656596945056
 30
0.0
 11
43.33049765321042
 21
30.65656596945056
 31
0.0
  0
ARC
  5
3CA
330
2
100
AcDbEntity
  8
GAIKEI
  6
Continuous
 62
     1
100
AcDbCircle
 10
43.42659115321035
 20
30.86156596945048
 30
0.0
 40
0.065
100
AcDbArc
 50
16.60155000001893
 51
90.0
  0
ARC
  5
3CB
330
2
100
AcDbEntity
  8
GAIKEI
  6
Continuous
 62
     1
100
AcDbCircle
 10
43.42659115321035
 20
30.64156596945057
 30
0.0
 40
0.065
100
AcDbArc
 50
270.0
 51
343.3984499999811
  0
ARC
  5
3CC
330
2
100
AcDbEntity
  8
GAIKEI
  6
Continuous
 62
     1
100
AcDbCircle
 10
43.05763995321038
 20
30.75156596945058
 30
0.0
 40
0.45
100
AcDbArc
 50
343.3984499999811
 51
0.0
  0
ARC
  5
3CD
330
2
100
AcDbEntity
  8
GAIKEI
  6
Continuous
 62
     1
100
AcDbCircle
 10
43.05763995321038
 20
30.75156596945058
 30
0.0
 40
0.45
100
AcDbArc
 50
0.0
 51
16.60155000001893
  0
LINE
  5
3CE
330
2
100
AcDbEntity
  8
GAIKEI
  6
Continuous
 62
     1
100
AcDbLine
 10
43.29763995321039
 20
30.50156596945058
 30
0.0
 11
43.29763995321039
 21
30.75156596945058
 31
0.0
  0
LINE
  5
3CF
330
2
100
AcDbEntity
  8
GAIKEI
  6
Continuous
 62
     1
100
AcDbLine
 10
43.29763995321039
 20
31.00156596945058
 30
0.0
 11
43.25849745321036
 21
31.00156596945058
 31
0.0
  0
LINE
  5
3D0
330
2
100
AcDbEntity
  8
GAIKEI
  6
Continuous
 62
     1
100
AcDbLine
 10
43.25849745321036
 20
30.50156596945058
 30
0.0
 11
43.29763995321039
 21
30.50156596945058
 31
0.0
  0
LINE
  5
3D1
330
2
100
AcDbEntity
  8
GAIKEI
  6
Continuous
 62
     1
100
AcDbLine
 10
43.29763995321039
 20
30.75156596945058
 30
0.0
 11
43.29763995321039
 21
31.00156596945058
 31
0.0
  0
LINE
  5
3D2
330
2
100
AcDbEntity
  8
GAIKEI
  6
Continuous
 62
     1
100
AcDbLine
 10
43.33763995321035
 20
34.40238851945051
 30
0.0
 11
43.33763995321035
 21
34.39023316945057
 31
0.0
  0
LINE
  5
3D3
330
2
100
AcDbEntity
  8
GAIKEI
  6
Continuous
 62
     1
100
AcDbLine
 10
43.34677975321037
 20
34.54906736945057
 30
0.0
 11
43.3067797532104
 21
34.54906736945057
 31
0.0
  0
LINE
  5
3D4
330
2
100
AcDbEntity
  8
GAIKEI
  6
Continuous
 62
     1
100
AcDbLine
 10
43.36735245321037
 20
34.19406671945049
 30
0.0
 11
43.32735245321035
 21
34.19406671945049
 31
0.0
  0
LINE
  5
3D5
330
2
100
AcDbEntity
  8
GAIKEI
  6
Continuous
 62
     1
100
AcDbLine
 10
43.33763995321035
 20
34.37156596945047
 30
0.0
 11
43.37763995321037
 21
34.37156596945047
 31
0.0
  0
LINE
  5
3D6
330
2
100
AcDbEntity
  8
GAIKEI
  6
Continuous
 62
     1
100
AcDbLine
 10
43.29763995321039
 20
34.39023316945057
 30
0.0
 11
43.33763995321035
 21
34.39023316945057
 31
0.0
  0
LINE
  5
3D7
330
2
100
AcDbEntity
  8
GAIKEI
  6
Continuous
 62
     1
100
AcDbLine
 10
43.37763995321037
 20
34.19656596945052
 30
0.0
 11
43.37763995321037
 21
34.37156596945047
 31
0.0
  0
LINE
  5
3D8
330
2
100
AcDbEntity
  8
GAIKEI
  6
Continuous
 62
     1
100
AcDbLine
 10
43.37763995321037
 20
34.37156596945047
 30
0.0
 11
43.37763995321037
 21
34.54656596945054
 31
0.0
  0
LINE
  5
3D9
330
2
100
AcDbEntity
  8
GAIKEI
  6
Continuous
 62
     1
100
AcDbLine
 10
43.42659115321035
 20
34.54656596945054
 30
0.0
 11
43.37763995321037
 21
34.54656596945054
 31
0.0
  0
LINE
  5
3DA
330
2
100
AcDbEntity
  8
GAIKEI
  6
Continuous
 62
     1
100
AcDbLine
 10
43.37763995321037
 20
34.19656596945052
 30
0.0
 11
43.42659115321035
 21
34.19656596945052
 31
0.0
  0
LINE
  5
3DB
330
2
100
AcDbEntity
  8
GAIKEI
  6
Continuous
 62
     1
100
AcDbLine
 10
43.37763995321037
 20
34.4665659694505
 30
0.0
 11
43.3436303032104
 21
34.4665659694505
 31
0.0
  0
LINE
  5
3DC
330
2
100
AcDbEntity
  8
GAIKEI
  6
Continuous
 62
     1
100
AcDbLine
 10
43.3001975032104
 20
34.4665659694505
 30
0.0
 11
43.29763995321039
 21
34.4665659694505
 31
0.0
  0
LINE
  5
3DD
330
2
100
AcDbEntity
  8
GAIKEI
  6
Continuous
 62
     1
100
AcDbLine
 10
43.29763995321039
 20
34.27656596945056
 30
0.0
 11
43.33049765321042
 21
34.27656596945056
 31
0.0
  0
ARC
  5
3DE
330
2
100
AcDbEntity
  8
GAIKEI
  6
Continuous
 62
     1
100
AcDbCircle
 10
43.42659115321035
 20
34.48156596945049
 30
0.0
 40
0.065
100
AcDbArc
 50
16.60155000001893
 51
90.0
  0
ARC
  5
3DF
330
2
100
AcDbEntity
  8
GAIKEI
  6
Continuous
 62
     1
100
AcDbCircle
 10
43.42659115321035
 20
34.26156596945058
 30
0.0
 40
0.065
100
AcDbArc
 50
270.0
 51
343.3984499999811
  0
ARC
  5
3E0
330
2
100
AcDbEntity
  8
GAIKEI
  6
Continuous
 62
     1
100
AcDbCircle
 10
43.05763995321038
 20
34.37156596945047
 30
0.0
 40
0.45
100
AcDbArc
 50
343.3984499999811
 51
0.0
  0
ARC
  5
3E1
330
2
100
AcDbEntity
  8
GAIKEI
  6
Continuous
 62
     1
100
AcDbCircle
 10
43.05763995321038
 20
34.37156596945047
 30
0.0
 40
0.45
100
AcDbArc
 50
0.0
 51
16.60155000001893
  0
LINE
  5
3E2
330
2
100
AcDbEntity
  8
GAIKEI
  6
Continuous
 62
     1
100
AcDbLine
 10
43.29763995321039
 20
34.12156596945048
 30
0.0
 11
43.29763995321039
 21
34.37156596945047
 31
0.0
  0
LINE
  5
3E3
330
2
100
AcDbEntity
  8
GAIKEI
  6
Continuous
 62
     1
100
AcDbLine
 10
43.29763995321039
 20
34.62156596945047
 30
0.0
 11
43.26431650321038
 21
34.62156596945047
 31
0.0
  0
LINE
  5
3E4
330
2
100
AcDbEntity
  8
GAIKEI
  6
Continuous
 62
     1
100
AcDbLine
 10
43.26431650321038
 20
34.12156596945048
 30
0.0
 11
43.29763995321039
 21
34.12156596945048
 31
0.0
  0
LINE
  5
3E5
330
2
100
AcDbEntity
  8
GAIKEI
  6
Continuous
 62
     1
100
AcDbLine
 10
43.29763995321039
 20
34.37156596945047
 30
0.0
 11
43.29763995321039
 21
34.62156596945047
 31
0.0
  0
LINE
  5
3E6
330
2
100
AcDbEntity
  8
GAIKEI
  6
Continuous
 62
     1
100
AcDbLine
 10
45.32263995321037
 20
6.469255833789617
 30
0.0
 11
45.32263995321037
 21
6.969255833789617
 31
0.0
  0
LINE
  5
3E7
330
2
100
AcDbEntity
  8
GAIKEI
  6
Continuous
 62
     1
100
AcDbLine
 10
45.29763995321039
 20
6.469255833789617
 30
0.0
 11
45.32263995321037
 21
6.469255833789617
 31
0.0
  0
LINE
  5
3E8
330
2
100
AcDbEntity
  8
GAIKEI
  6
Continuous
 62
     1
100
AcDbLine
 10
45.32263995321037
 20
6.969255833789617
 30
0.0
 11
45.29763995321039
 21
6.969255833789617
 31
0.0
  0
LINE
  5
3E9
330
2
100
AcDbEntity
  8
GAIKEI
  6
Continuous
 62
     1
100
AcDbLine
 10
45.3576399532104
 20
6.581755833789571
 30
0.0
 11
45.40000240321037
 21
6.585462083789622
 31
0.0
  0
LINE
  5
3EA
330
2
100
AcDbEntity
  8
GAIKEI
  6
Continuous
 62
     1
100
AcDbLine
 10
45.40000240321037
 20
6.853049583789612
 30
0.0
 11
45.3576399532104
 21
6.856755833789662
 31
0.0
  0
LINE
  5
3EB
330
2
100
AcDbEntity
  8
GAIKEI
  6
Continuous
 62
     1
100
AcDbLine
 10
45.32263995321037
 20
6.584255833789626
 30
0.0
 11
45.3576399532104
 21
6.584255833789626
 31
0.0
  0
LINE
  5
3EC
330
2
100
AcDbEntity
  8
GAIKEI
  6
Continuous
 62
     1
100
AcDbLine
 10
45.3576399532104
 20
6.854255833789608
 30
0.0
 11
45.32263995321037
 21
6.854255833789608
 31
0.0
  0
ARC
  5
3ED
330
2
100
AcDbEntity
  8
GAIKEI
  6
Continuous
 62
     1
100
AcDbCircle
 10
45.3956446032104
 20
6.803239883789643
 30
0.0
 40
0.05
100
AcDbArc
 50
16.25702800000541
 51
84.9999989999781
  0
ARC
  5
3EE
330
2
100
AcDbEntity
  8
GAIKEI
  6
Continuous
 62
     1
100
AcDbCircle
 10
45.3956446032104
 20
6.63527178378959
 30
0.0
 40
0.05
100
AcDbArc
 50
275.0000010000219
 51
343.7429719999946
  0
ARC
  5
3EF
330
2
100
AcDbEntity
  8
GAIKEI
  6
Continuous
 62
     1
100
AcDbCircle
 10
45.10763995321039
 20
6.719255833789617
 30
0.0
 40
0.35
100
AcDbArc
 50
343.7429719999946
 51
0.0
  0
ARC
  5
3F0
330
2
100
AcDbEntity
  8
GAIKEI
  6
Continuous
 62
     1
100
AcDbCircle
 10
45.10763995321039
 20
6.719255833789617
 30
0.0
 40
0.35
100
AcDbArc
 50
0.0
 51
16.25702800000541
  0
LINE
  5
3F1
330
2
100
AcDbEntity
  8
GAIKEI
  6
Continuous
 62
     1
100
AcDbLine
 10
45.32263995321037
 20
4.56925583378964
 30
0.0
 11
45.32263995321037
 21
5.06925583378964
 31
0.0
  0
LINE
  5
3F2
330
2
100
AcDbEntity
  8
GAIKEI
  6
Continuous
 62
     1
100
AcDbLine
 10
45.29763995321039
 20
4.56925583378964
 30
0.0
 11
45.32263995321037
 21
4.56925583378964
 31
0.0
  0
LINE
  5
3F3
330
2
100
AcDbEntity
  8
GAIKEI
  6
Continuous
 62
     1
100
AcDbLine
 10
45.32263995321037
 20
5.06925583378964
 30
0.0
 11
45.29763995321039
 21
5.06925583378964
 31
0.0
  0
LINE
  5
3F4
330
2
100
AcDbEntity
  8
GAIKEI
  6
Continuous
 62
     1
100
AcDbLine
 10
45.3576399532104
 20
4.681755833789594
 30
0.0
 11
45.40000240321037
 21
4.685462083789644
 31
0.0
  0
LINE
  5
3F5
330
2
100
AcDbEntity
  8
GAIKEI
  6
Continuous
 62
     1
100
AcDbLine
 10
45.40000240321037
 20
4.953049583789635
 30
0.0
 11
45.3576399532104
 21
4.956755833789571
 31
0.0
  0
LINE
  5
3F6
330
2
100
AcDbEntity
  8
GAIKEI
  6
Continuous
 62
     1
100
AcDbLine
 10
45.32263995321037
 20
4.684255833789649
 30
0.0
 11
45.3576399532104
 21
4.684255833789649
 31
0.0
  0
LINE
  5
3F7
330
2
100
AcDbEntity
  8
GAIKEI
  6
Continuous
 62
     1
100
AcDbLine
 10
45.3576399532104
 20
4.95425583378963
 30
0.0
 11
45.32263995321037
 21
4.95425583378963
 31
0.0
  0
ARC
  5
3F8
330
2
100
AcDbEntity
  8
GAIKEI
  6
Continuous
 62
     1
100
AcDbCircle
 10
45.3956446032104
 20
4.903239883789552
 30
0.0
 40
0.05
100
AcDbArc
 50
16.25702800000541
 51
84.9999989999781
  0
ARC
  5
3F9
330
2
100
AcDbEntity
  8
GAIKEI
  6
Continuous
 62
     1
100
AcDbCircle
 10
45.3956446032104
 20
4.735271783789613
 30
0.0
 40
0.05
100
AcDbArc
 50
275.0000010000219
 51
343.7429719999946
  0
ARC
  5
3FA
330
2
100
AcDbEntity
  8
GAIKEI
  6
Continuous
 62
     1
100
AcDbCircle
 10
45.10763995321039
 20
4.81925583378964
 30
0.0
 40
0.35
100
AcDbArc
 50
343.7429719999946
 51
0.0
  0
ARC
  5
3FB
330
2
100
AcDbEntity
  8
GAIKEI
  6
Continuous
 62
     1
100
AcDbCircle
 10
45.10763995321039
 20
4.81925583378964
 30
0.0
 40
0.35
100
AcDbArc
 50
0.0
 51
16.25702800000541
  0
LINE
  5
3FC
330
2
100
AcDbEntity
  8
GAIKEI
  6
Continuous
 62
     1
100
AcDbLine
 10
43.33066205321038
 20
9.502592983789583
 30
0.0
 11
43.33066205321038
 21
10.2359186837896
 31
0.0
  0
LINE
  5
3FD
330
2
100
AcDbEntity
  8
GAIKEI
  6
Continuous
 62
     1
100
AcDbLine
 10
43.33066205321038
 20
28.62990311945046
 30
0.0
 11
43.33066205321038
 21
29.36322881945049
 31
0.0
  0
LINE
  5
3FE
330
2
100
AcDbEntity
  8
GAIKEI
  6
Continuous
 62
     1
100
AcDbLine
 10
44.82141335321037
 20
29.68783391945058
 30
0.0
 11
44.82141335321037
 21
6.960165683789597
 31
0.0
  0
LINE
  5
3FF
330
2
100
AcDbEntity
  8
GAIKEI
  6
Continuous
 62
     1
100
AcDbLine
 10
44.83865420321038
 20
6.424848633789594
 30
0.0
 11
44.90159580321036
 21
6.349837783789581
 31
0.0
  0
LINE
  5
400
330
2
100
AcDbEntity
  8
GAIKEI
  6
Continuous
 62
     1
100
AcDbLine
 10
44.90159580321036
 20
6.349837783789581
 30
0.0
 11
44.90159580321036
 21
4.166485633789676
 31
0.0
  0
LINE
  5
401
330
2
100
AcDbEntity
  8
GAIKEI
  6
Continuous
 62
     1
100
AcDbLine
 10
44.90159580321036
 20
4.166485633789676
 30
0.0
 11
43.19513995321043
 21
3.545386462836432
 31
0.0
  0
LINE
  5
402
330
2
100
AcDbEntity
  8
GAIKEI
  6
Continuous
 62
     7
100
AcDbLine
 10
43.40910385321038
 20
36.21186001945048
 30
0.0
 11
43.25566205321038
 21
36.24447506945049
 31
0.0
  0
LINE
  5
403
330
2
100
AcDbEntity
  8
GAIKEI
  6
Continuous
 62
     7
100
AcDbLine
 10
43.19513995321043
 20
2.80400839866391
 30
0.0
 11
45.13314500321039
 21
3.509384583789625
 31
0.0
  0
LINE
  5
404
330
2
100
AcDbEntity
  8
GAIKEI
  6
Continuous
 62
     7
100
AcDbLine
 10
45.29763995321039
 20
3.744307733789611
 30
0.0
 11
45.29763995321039
 21
6.628614483789675
 31
0.0
  0
LINE
  5
405
330
2
100
AcDbEntity
  8
GAIKEI
  6
Continuous
 62
     1
100
AcDbLine
 10
45.1301377032104
 20
30.50798466945051
 30
0.0
 11
44.98682840321035
 21
30.26037441945053
 31
0.0
  0
LINE
  5
406
330
2
100
AcDbEntity
  8
GAIKEI
  6
Continuous
 62
     7
100
AcDbLine
 10
45.3477069532104
 20
7.529885483789627
 30
0.0
 11
45.29520695321039
 21
7.485832733789635
 31
0.0
  0
LINE
  5
407
330
2
100
AcDbEntity
  8
GAIKEI
  6
Continuous
 62
     7
100
AcDbLine
 10
45.29520695321039
 20
7.485832733789635
 30
0.0
 11
45.29520695321039
 21
6.628614483789675
 31
0.0
  0
LINE
  5
408
330
2
100
AcDbEntity
  8
GAIKEI
  6
Continuous
 62
     1
100
AcDbLine
 10
45.29763995321039
 20
6.440354183789651
 30
0.0
 11
45.29763995321039
 21
6.440830333789591
 31
0.0
  0
LINE
  5
409
330
2
100
AcDbEntity
  8
GAIKEI
  6
Continuous
 62
     7
100
AcDbLine
 10
43.45239145321037
 20
36.20265891945056
 30
0.0
 11
43.40866760321037
 21
36.21195271945058
 31
0.0
  0
LINE
  5
40A
330
2
100
AcDbEntity
  8
GAIKEI
  6
Continuous
 62
     1
100
AcDbLine
 10
45.23096695321036
 20
32.03215316945048
 30
0.0
 11
45.23096695321036
 21
31.09545191945054
 31
0.0
  0
LINE
  5
40B
330
2
100
AcDbEntity
  8
GAIKEI
  6
Continuous
 62
     7
100
AcDbLine
 10
44.80391335321033
 20
35.91538411945058
 30
0.0
 11
44.80766485321035
 21
35.91433446945055
 31
0.0
  0
LINE
  5
40C
330
2
100
AcDbEntity
  8
GAIKEI
  6
Continuous
 62
     7
100
AcDbLine
 10
44.80391335321033
 20
35.91538411945058
 30
0.0
 11
43.45239145321037
 21
36.20265891945056
 31
0.0
  0
LINE
  5
40D
330
2
100
AcDbEntity
  8
GAIKEI
  6
Continuous
 62
     1
100
AcDbLine
 10
45.29520695321039
 20
6.628614483789675
 30
0.0
 11
45.29763995321039
 21
6.628614483789675
 31
0.0
  0
LINE
  5
40E
330
2
100
AcDbEntity
  8
GAIKEI
  6
Continuous
 62
     7
100
AcDbLine
 10
44.80830020321039
 20
35.91441036945051
 30
0.0
 11
44.80759470321041
 21
35.91436521945051
 31
0.0
  0
LINE
  5
40F
330
2
100
AcDbEntity
  8
GAIKEI
  6
Continuous
 62
     7
100
AcDbLine
 10
45.08991865321038
 20
35.06229571945053
 30
0.0
 11
44.99950245321033
 21
35.70564046945051
 31
0.0
  0
LINE
  5
410
330
2
100
AcDbEntity
  8
GAIKEI
  6
Continuous
 62
     7
100
AcDbLine
 10
45.34764515321038
 20
33.22847661945051
 30
0.0
 11
45.08991865321038
 21
35.06229571945053
 31
0.0
  0
LINE
  5
411
330
2
100
AcDbEntity
  8
GAIKEI
  6
Continuous
 62
     1
100
AcDbLine
 10
45.35013995321039
 20
33.2077550194505
 30
0.0
 11
45.35013995321039
 21
33.21072511945059
 31
0.0
  0
LINE
  5
412
330
2
100
AcDbEntity
  8
GAIKEI
  6
Continuous
 62
     1
100
AcDbLine
 10
45.35013995321039
 20
33.21072511945059
 30
0.0
 11
45.34764515321038
 21
33.22847661945051
 31
0.0
  0
LINE
  5
413
330
2
100
AcDbEntity
  8
GAIKEI
  6
Continuous
 62
     7
100
AcDbLine
 10
45.35013995321039
 20
7.517498833789574
 30
0.0
 11
45.35013995321039
 21
33.2077550194505
 31
0.0
  0
LINE
  5
414
330
2
100
AcDbEntity
  8
GAIKEI
  6
Continuous
 62
     7
100
AcDbLine
 10
45.35013995321039
 20
7.483260733789649
 30
0.0
 11
45.35013995321039
 21
7.517498833789574
 31
0.0
  0
LINE
  5
415
330
2
100
AcDbEntity
  8
GAIKEI
  6
Continuous
 62
     1
100
AcDbLine
 10
45.29763995321039
 20
4.019255833789571
 30
0.0
 11
45.29763995321039
 21
4.169255833789662
 31
0.0
  0
LINE
  5
416
330
2
100
AcDbEntity
  8
GAIKEI
  6
Continuous
 62
     1
100
AcDbLine
 10
45.29763995321039
 20
4.019255833789571
 30
0.0
 11
45.29763995321039
 21
3.969255833789617
 31
0.0
  0
LINE
  5
417
330
2
100
AcDbEntity
  8
GAIKEI
  6
Continuous
 62
     1
100
AcDbLine
 10
43.36986745321033
 20
2.343118983789651
 30
0.0
 11
43.39955595321035
 21
2.344674883789622
 31
0.0
  0
LINE
  5
418
330
2
100
AcDbEntity
  8
GAIKEI
  6
Continuous
 62
     1
100
AcDbLine
 10
43.39955595321035
 20
2.344674883789622
 30
0.0
 11
44.64023310321036
 21
2.409696033789629
 31
0.0
  0
LINE
  5
419
330
2
100
AcDbEntity
  8
GAIKEI
  6
Continuous
 62
     1
100
AcDbLine
 10
45.35013995321039
 20
31.17872326945056
 30
0.0
 11
45.35013995321039
 21
31.64775746945057
 31
0.0
  0
LINE
  5
41A
330
2
100
AcDbEntity
  8
GAIKEI
  6
Continuous
 62
     1
100
AcDbLine
 10
45.35013995321039
 20
33.21072086945051
 30
0.0
 11
45.35013995321039
 21
33.21072511945059
 31
0.0
  0
LINE
  5
41B
330
2
100
AcDbEntity
  8
GAIKEI
  6
Continuous
 62
     1
100
AcDbLine
 10
45.35013995321039
 20
31.64775746945057
 30
0.0
 11
45.35013995321039
 21
33.21072086945051
 31
0.0
  0
LINE
  5
41C
330
2
100
AcDbEntity
  8
GAIKEI
  6
Continuous
 62
     1
100
AcDbLine
 10
43.29455595321033
 20
2.339172083789577
 30
0.0
 11
43.36986745321033
 21
2.343118983789651
 31
0.0
  0
LINE
  5
41D
330
2
100
AcDbEntity
  8
GAIKEI
  6
Continuous
 62
     1
100
AcDbLine
 10
45.18513995321043
 20
2.983908033789617
 30
0.0
 11
45.18513995321043
 21
3.369255833789594
 31
0.0
  0
LINE
  5
41E
330
2
100
AcDbEntity
  8
GAIKEI
  6
Continuous
 62
     1
100
AcDbLine
 10
45.35013995321039
 20
33.21072086945051
 30
0.0
 11
45.35013995321039
 21
33.21072511945059
 31
0.0
  0
LINE
  5
41F
330
2
100
AcDbEntity
  8
GAIKEI
  6
Continuous
 62
     1
100
AcDbLine
 10
45.35013995321039
 20
31.64775746945057
 30
0.0
 11
45.35013995321039
 21
33.21072086945051
 31
0.0
  0
LINE
  5
420
330
2
100
AcDbEntity
  8
GAIKEI
  6
Continuous
 62
     1
100
AcDbLine
 10
45.35013995321039
 20
7.648842933789552
 30
0.0
 11
45.35013995321039
 21
7.653451833789659
 31
0.0
  0
LINE
  5
421
330
2
100
AcDbEntity
  8
GAIKEI
  6
Continuous
 62
     1
100
AcDbLine
 10
45.35013995321039
 20
7.491522583789588
 30
0.0
 11
45.35013995321039
 21
7.648842933789552
 31
0.0
  0
LINE
  5
422
330
2
100
AcDbEntity
  8
GAIKEI
  6
Continuous
 62
     1
100
AcDbLine
 10
45.35013995321039
 20
7.653451833789659
 30
0.0
 11
45.35013995321039
 21
8.750207683789682
 31
0.0
  0
LINE
  5
423
330
2
100
AcDbEntity
  8
GAIKEI
  6
Continuous
 62
     1
100
AcDbLine
 10
45.35013995321039
 20
30.75734886945057
 30
0.0
 11
45.35013995321039
 21
31.21659431945059
 31
0.0
  0
LINE
  5
424
330
2
100
AcDbEntity
  8
GAIKEI
  6
Continuous
 62
     1
100
AcDbLine
 10
45.35013995321039
 20
30.71422796945049
 30
0.0
 11
45.35013995321039
 21
30.75734886945057
 31
0.0
  0
LINE
  5
425
330
2
100
AcDbEntity
  8
GAIKEI
  6
Continuous
 62
     1
100
AcDbLine
 10
45.35013995321039
 20
7.491522583789588
 30
0.0
 11
45.35013995321039
 21
7.648842933789552
 31
0.0
  0
LINE
  5
426
330
2
100
AcDbEntity
  8
GAIKEI
  6
Continuous
 62
     1
100
AcDbLine
 10
45.35013995321039
 20
7.653451833789659
 30
0.0
 11
45.35013995321039
 21
8.750207683789682
 31
0.0
  0
ARC
  5
427
330
2
100
AcDbEntity
  8
GAIKEI
  6
Continuous
 62
     7
100
AcDbCircle
 10
43.30763995321038
 20
36.48901196945056
 30
0.0
 40
0.25
100
AcDbArc
 50
243.2563160000017
 51
257.9999999999826
  0
ARC
  5
428
330
2
100
AcDbEntity
  8
GAIKEI
  6
Continuous
 62
     7
100
AcDbCircle
 10
45.04763995321039
 20
3.744307733789611
 30
0.0
 40
0.25
100
AcDbArc
 50
289.9999999999963
 51
0.0
  0
ARC
  5
429
330
2
100
AcDbEntity
  8
GAIKEI
  6
Continuous
 62
     7
100
AcDbCircle
 10
44.75193545321039
 20
35.67084721945051
 30
0.0
 40
0.25
100
AcDbArc
 50
7.999999999984337
 51
76.97098900001989
  0
ARC
  5
42A
330
2
100
AcDbEntity
  8
GAIKEI
  6
Continuous
 62
     1
100
AcDbCircle
 10
45.20013995321036
 20
7.483260733789649
 30
0.0
 40
0.15
100
AcDbArc
 50
317.5189609999847
 51
0.0
  0
ARC
  5
42B
330
2
100
AcDbEntity
  8
GAIKEI
  6
Continuous
 62
     1
100
AcDbCircle
 10
45.3476399532104
 20
7.348191683789679
 30
0.0
 40
0.05
100
AcDbArc
 50
137.5189609999847
 51
180.0
  0
ARC
  5
42C
330
2
100
AcDbEntity
  8
GAIKEI
  6
Continuous
 62
     1
100
AcDbCircle
 10
45.3476399532104
 20
7.348176533789597
 30
0.0
 40
0.05
100
AcDbArc
 50
137.5188869999824
 51
180.0
  0
ARC
  5
42D
330
2
100
AcDbEntity
  8
GAIKEI
  6
Continuous
 62
     1
100
AcDbCircle
 10
45.20013995321036
 20
7.483245983789657
 30
0.0
 40
0.15
100
AcDbArc
 50
317.5188869999824
 51
0.0
  0
ARC
  5
42E
330
2
100
AcDbEntity
  8
GAIKEI
  6
Continuous
 62
     1
100
AcDbCircle
 10
43.30763995321038
 20
2.089514683789644
 30
0.0
 40
0.25
100
AcDbArc
 50
101.6320759999917
 51
116.7436839999982
  0
ARC
  5
42F
330
2
100
AcDbEntity
  8
GAIKEI
  6
Continuous
 62
     1
100
AcDbCircle
 10
44.75193545321039
 20
35.67084721945051
 30
0.0
 40
0.25
100
AcDbArc
 50
7.999999999984337
 51
9.618225999996282
  0
ARC
  5
430
330
2
100
AcDbEntity
  8
GAIKEI
  6
Continuous
 62
     1
100
AcDbCircle
 10
43.30763995321038
 20
2.089514683789644
 30
0.0
 40
0.25
100
AcDbArc
 50
93.00000000000558
 51
101.6320759999917
  0
ARC
  5
431
330
2
100
AcDbEntity
  8
GAIKEI
  6
Continuous
 62
     1
100
AcDbCircle
 10
44.61013995321039
 20
2.983908033789617
 30
0.0
 40
0.5750000000000001
100
AcDbArc
 50
273.0000000000056
 51
0.0
  0
ELLIPSE
  5
432
330
2
100
AcDbEntity
  8
GAIKEI
  6
Continuous
 62
     1
100
AcDbEllipse
 10
44.61013995321039
 20
2.983908033789617
 30
0.0
 11
-0.5749999999999888
 21
0.0000000000000021
 31
0.0
210
0.0
220
0.0
230
1.0
 40
0.3583520000000866
 41
2.345160897092421
 42
3.141592653589802
  0
LINE
  5
433
330
2
100
AcDbEntity
  8
GAIKEI
  6
Continuous
 62
     1
100
AcDbLine
 10
43.0951399532104
 20
37.16184006945051
 30
0.0
 11
41.11970635321037
 21
37.05896446945056
 31
0.0
  0
LINE
  5
434
330
2
100
AcDbEntity
  8
GAIKEI
  6
Continuous
 62
     1
100
AcDbLine
 10
43.0951399532104
 20
37.16184006945051
 30
0.0
 11
43.0951399532104
 21
1.368981733789638
 31
0.0
  0
LINE
  5
435
330
2
100
AcDbEntity
  8
GAIKEI
  6
Continuous
 62
     1
100
AcDbLine
 10
41.11970635321037
 20
1.471857333789586
 30
0.0
 11
43.0951399532104
 21
1.368981733789638
 31
0.0
  0
LINE
  5
436
330
2
100
AcDbEntity
  8
GAIKEI
  6
Continuous
 62
     1
100
AcDbLine
 10
41.11970635321037
 20
37.05896446945056
 30
0.0
 11
41.11970635321037
 21
1.27213143378961
 31
0.0
  0
LINE
  5
437
330
2
100
AcDbEntity
  8
GAIKEI
  6
Continuous
 62
     7
100
AcDbLine
 10
41.11970635321037
 20
37.25869036945054
 30
0.0
 11
43.0951399532104
 21
37.36156596945048
 31
0.0
  0
LINE
  5
438
330
2
100
AcDbEntity
  8
GAIKEI
  6
Continuous
 62
     1
100
AcDbLine
 10
43.0951399532104
 20
37.36156596945048
 30
0.0
 11
43.0951399532104
 21
37.16184006945051
 31
0.0
  0
LINE
  5
439
330
2
100
AcDbEntity
  8
GAIKEI
  6
Continuous
 62
     7
100
AcDbLine
 10
43.0951399532104
 20
1.169255833789662
 30
0.0
 11
41.11970635321037
 21
1.27213143378961
 31
0.0
  0
LINE
  5
43A
330
2
100
AcDbEntity
  8
GAIKEI
  6
Continuous
 62
     1
100
AcDbLine
 10
43.0951399532104
 20
1.368981733789638
 30
0.0
 11
43.0951399532104
 21
1.169255833789662
 31
0.0
  0
LINE
  5
43B
330
2
100
AcDbEntity
  8
GAIKEI
  6
Continuous
 62
     7
100
AcDbLine
 10
43.0951399532104
 20
37.35156596945049
 30
0.0
 11
43.17231885321038
 21
37.34481366945047
 31
0.0
  0
LINE
  5
43C
330
2
100
AcDbEntity
  8
GAIKEI
  6
Continuous
 62
     1
100
AcDbLine
 10
43.17231885321038
 20
37.14557476945052
 30
0.0
 11
43.0951399532104
 21
37.1523270194505
 31
0.0
  0
LINE
  5
43D
330
2
100
AcDbEntity
  8
GAIKEI
  6
Continuous
 62
     7
100
AcDbLine
 10
43.17231885321038
 20
1.18600813378967
 30
0.0
 11
43.0951399532104
 21
1.179255833789653
 31
0.0
  0
LINE
  5
43E
330
2
100
AcDbEntity
  8
GAIKEI
  6
Continuous
 62
     7
100
AcDbLine
 10
43.19513995321043
 20
37.14557476945052
 30
0.0
 11
43.19513995321043
 21
1.210912983789654
 31
0.0
  0
LINE
  5
43F
330
2
100
AcDbEntity
  8
GAIKEI
  6
Continuous
 62
     1
100
AcDbLine
 10
43.19513995321043
 20
37.14557476945052
 30
0.0
 11
43.17231885321038
 21
37.14557476945052
 31
0.0
  0
LINE
  5
440
330
2
100
AcDbEntity
  8
GAIKEI
  6
Continuous
 62
     7
100
AcDbLine
 10
43.19513995321043
 20
37.31990881945049
 30
0.0
 11
43.19513995321043
 21
37.14557476945052
 31
0.0
  0
LINE
  5
441
330
2
100
AcDbEntity
  8
GAIKEI
  6
Continuous
 62
     1
100
AcDbLine
 10
41.0617481532104
 20
1.304655983789558
 30
0.0
 11
41.0617481532104
 21
37.02842671945055
 31
0.0
  0
LINE
  5
442
330
2
100
AcDbEntity
  8
GAIKEI
  6
Continuous
 62
     7
100
AcDbLine
 10
41.0617481532104
 20
1.304655983789558
 30
0.0
 11
40.90643435321036
 21
1.531485033789664
 31
0.0
  0
LINE
  5
443
330
2
100
AcDbEntity
  8
GAIKEI
  6
Continuous
 62
     7
100
AcDbLine
 10
40.90643435321036
 20
36.99933676945048
 30
0.0
 11
41.0617481532104
 21
37.22616581945047
 31
0.0
  0
LINE
  5
444
330
2
100
AcDbEntity
  8
GAIKEI
  6
Continuous
 62
     1
100
AcDbLine
 10
41.0617481532104
 20
37.02842671945055
 30
0.0
 11
40.90643435321036
 21
36.80159766945056
 31
0.0
  0
LINE
  5
445
330
2
100
AcDbEntity
  8
GAIKEI
  6
Continuous
 62
     7
100
AcDbLine
 10
40.8976899532104
 20
1.559733483789642
 30
0.0
 11
40.8976899532104
 21
36.80159766945056
 31
0.0
  0
LINE
  5
446
330
2
100
AcDbEntity
  8
GAIKEI
  6
Continuous
 62
     7
100
AcDbLine
 10
40.8976899532104
 20
36.80159766945056
 30
0.0
 11
40.90643435321036
 21
36.80159766945056
 31
0.0
  0
LINE
  5
447
330
2
100
AcDbEntity
  8
GAIKEI
  6
Continuous
 62
     7
100
AcDbLine
 10
40.8976899532104
 20
36.9710883194505
 30
0.0
 11
40.8976899532104
 21
36.80159766945056
 31
0.0
  0
ARC
  5
448
330
2
100
AcDbEntity
  8
GAIKEI
  6
Continuous
 62
     7
100
AcDbCircle
 10
43.1701399532104
 20
1.210912983789654
 30
0.0
 40
0.025
100
AcDbArc
 50
275.0000000000229
 51
0.0
  0
ARC
  5
449
330
2
100
AcDbEntity
  8
GAIKEI
  6
Continuous
 62
     7
100
AcDbCircle
 10
43.1701399532104
 20
37.31990881945049
 30
0.0
 40
0.025
100
AcDbArc
 50
0.0
 51
84.99999999997717
  0
ARC
  5
44A
330
2
100
AcDbEntity
  8
GAIKEI
  6
Continuous
 62
     7
100
AcDbCircle
 10
41.1236315532104
 20
1.347028683789659
 30
0.0
 40
0.075
100
AcDbArc
 50
214.4001229999904
 51
266.9999999999944
  0
ARC
  5
44B
330
2
100
AcDbEntity
  8
GAIKEI
  6
Continuous
 62
     7
100
AcDbCircle
 10
41.1236315532104
 20
37.18379311945049
 30
0.0
 40
0.075
100
AcDbArc
 50
93.00000000000558
 51
145.5998770000096
  0
ARC
  5
44C
330
2
100
AcDbEntity
  8
GAIKEI
  6
Continuous
 62
     7
100
AcDbCircle
 10
40.94768995321041
 20
36.9710883194505
 30
0.0
 40
0.05
100
AcDbArc
 50
145.5998770000096
 51
180.0
  0
ARC
  5
44D
330
2
100
AcDbEntity
  8
GAIKEI
  6
Continuous
 62
     7
100
AcDbCircle
 10
40.94768995321041
 20
1.559733483789642
 30
0.0
 40
0.05
100
AcDbArc
 50
180.0
 51
214.4001229999904
  0
LINE
  5
44E
330
2
100
AcDbEntity
  8
GAIKEI
  6
Continuous
 62
     1
100
AcDbLine
 10
43.39209860321036
 20
36.75551691945046
 30
0.0
 11
43.19513995321043
 21
36.72783616945051
 31
0.0
  0
LINE
  5
44F
330
2
100
AcDbEntity
  8
GAIKEI
  6
Continuous
 62
     1
100
AcDbLine
 10
43.34097185321039
 20
36.92822491945051
 30
0.0
 11
43.33513995321041
 21
36.86156596945048
 31
0.0
  0
LINE
  5
450
330
2
100
AcDbEntity
  8
GAIKEI
  6
Continuous
 62
     1
100
AcDbLine
 10
43.33513995321041
 20
36.86156596945048
 30
0.0
 11
43.30327855321039
 21
36.86156596945048
 31
0.0
  0
LINE
  5
451
330
2
100
AcDbEntity
  8
GAIKEI
  6
Continuous
 62
     1
100
AcDbLine
 10
43.30763645321039
 20
36.92584691945049
 30
0.0
 11
43.3409164032104
 21
36.92759101945049
 31
0.0
  0
LINE
  5
452
330
2
100
AcDbEntity
  8
GAIKEI
  6
Continuous
 62
     1
100
AcDbLine
 10
43.34533830321041
 20
36.97813346945057
 30
0.0
 11
43.3860125532104
 21
36.97742346945054
 31
0.0
  0
LINE
  5
453
330
2
100
AcDbEntity
  8
GAIKEI
  6
Continuous
 62
     1
100
AcDbLine
 10
43.34097185321039
 20
36.92822491945051
 30
0.0
 11
43.34533830321041
 21
36.97813346945057
 31
0.0
  0
LINE
  5
454
330
2
100
AcDbEntity
  8
GAIKEI
  6
Continuous
 62
     1
100
AcDbLine
 10
43.43513995321043
 20
36.92743111945052
 30
0.0
 11
43.43513995321043
 21
36.80503031945048
 31
0.0
  0
ARC
  5
455
330
2
100
AcDbEntity
  8
GAIKEI
  6
Continuous
 62
     1
100
AcDbCircle
 10
43.38513995321036
 20
36.80503031945048
 30
0.0
 40
0.05
100
AcDbArc
 50
277.9999999999842
 51
0.0
  0
ARC
  5
456
330
2
100
AcDbEntity
  8
GAIKEI
  6
Continuous
 62
     1
100
AcDbCircle
 10
43.38513995321036
 20
36.92743111945052
 30
0.0
 40
0.05
100
AcDbArc
 50
0.0
 51
89.00000000002432
  0
SPLINE
  5
457
330
2
100
AcDbEntity
  8
GAIKEI
  6
Continuous
 62
     1
100
AcDbSpline
210
0.0
220
0.0
230
1.0
 70
     8
 71
     3
 72
    23
 73
    19
 74
    17
 42
0.0000000001
 43
0.0000000001
 44
0.000001
 12
-0.0195855615079534
 22
0.9998081844936148
 32
0.0
 13
-0.1708806009777295
 23
0.9852917437030972
 33
0.0
 40
0.0
 40
0.0
 40
0.0
 40
0.0
 40
0.0246422057409199
 40
0.056169339313358
 40
0.0946352834720208
 40
0.123838348924552
 40
0.15607741030755
 40
0.1637317308166681
 40
0.1715387786614241
 40
0.1794984554017315
 40
0.1876106488051588
 40
0.1958752329952762
 40
0.2042920686457141
 40
0.2128610032233555
 40
0.2387981685051789
 40
0.2711882160498585
 40
0.3100387699381648
 40
0.3553446180978695
 40
0.3553446180978695
 40
0.3553446180978695
 40
0.3553446180978695
 10
43.25849747481257
 20
35.40028452368839
 30
0.0
 10
43.25833659766717
 20
35.40849701668296
 30
0.0
 10
43.25761792573861
 20
35.4272145016119
 30
0.0
 10
43.25467682540261
 20
35.4586332921572
 30
0.0
 10
43.25068731473045
 20
35.49145871007582
 30
0.0
 10
43.24605940329717
 20
35.52443945511465
 30
0.0
 10
43.24261241487067
 20
35.54721249030354
 30
0.0
 10
43.24015950314501
 20
35.56292229008554
 30
0.0
 10
43.23894265803916
 20
35.57063389390629
 30
0.0
 10
43.23769054107176
 20
35.57849443445039
 30
0.0
 10
43.23640397284353
 20
35.58650391495775
 30
0.0
 10
43.23508378568358
 20
35.5946623286869
 30
0.0
 10
43.23373106116555
 20
35.60296970057951
 30
0.0
 10
43.23141876450672
 20
35.61708926151772
 30
0.0
 10
43.22779299387234
 20
35.63909124580505
 30
0.0
 10
43.22242537069681
 20
35.67103609490511
 30
0.0
 10
43.21585349024386
 20
35.70932504452211
 30
0.0
 10
43.21108572024184
 20
35.73696904352804
 30
0.0
 10
43.20850509005473
 20
35.75184886957246
 30
0.0
 11
43.25849747481257
 21
35.40028452368839
 31
0.0
 11
43.25750735947216
 21
35.42490695212555
 31
0.0
 11
43.25476167404159
 21
35.45631422922296
 31
0.0
 11
43.25018032392384
 21
35.49450635498081
 31
0.0
 11
43.24614955464645
 21
35.52342989807724
 31
0.0
 11
43.2413449308909
 21
35.55530892125003
 31
0.0
 11
43.24016434159048
 21
35.56287164591279
 31
0.0
 11
43.23894772939652
 21
35.57058331396971
 31
0.0
 11
43.23769584465359
 21
35.57844392542077
 31
0.0
 11
43.2364094979678
 21
35.58645348026587
 31
0.0
 11
43.23508956074298
 21
35.59461197850513
 31
0.0
 11
43.23373696563467
 21
35.60291942013842
 31
0.0
 11
43.23235270691694
 21
35.61137580516586
 31
0.0
 11
43.22812980210213
 21
35.63696688805274
 31
0.0
 11
43.22276423262124
 21
35.66890942641615
 31
0.0
 11
43.21621173977692
 21
35.70720342025609
 31
0.0
 11
43.20850509005473
 21
35.75184886957246
 31
0.0
  0
SPLINE
  5
458
330
2
100
AcDbEntity
  8
GAIKEI
  6
Continuous
 62
     1
100
AcDbSpline
210
0.0
220
0.0
230
1.0
 70
     8
 71
     3
 72
    13
 73
     9
 74
     7
 42
0.0000000001
 43
0.0000000001
 44
0.000001
 12
0.1686465211669663
 22
0.9856765954907725
 32
0.0
 13
0.1366868105490227
 23
0.9906143123445854
 33
0.0
 40
0.0
 40
0.0
 40
0.0
 40
0.0
 40
0.0148768856753241
 40
0.0303404718420846
 40
0.0467491639371592
 40
0.0635503078503692
 40
0.0820032027515629
 40
0.100784933155334
 40
0.100784933155334
 40
0.100784933155334
 40
0.100784933155334
 10
44.55267069359891
 20
30.52137492091666
 30
0.0
 10
44.55350700527056
 20
30.52626285359131
 30
0.0
 10
44.55523169527549
 20
30.53622829768924
 30
0.0
 10
44.55800801035887
 20
30.5515620935769
 30
0.0
 10
44.560857071607
 20
30.56753448652449
 30
0.0
 10
44.56377183183461
 20
30.58450715163451
 30
0.0
 10
44.56661976977176
 20
30.60229303531028
 30
0.0
 10
44.56840326013159
 20
30.61457630391956
 30
0.0
 10
44.56925899840675
 20
30.62077812090243
 30
0.0
 11
44.55267069359891
 21
30.52137492091666
 31
0.0
 11
44.55521782342933
 21
30.53603192425001
 31
0.0
 11
44.55794645786446
 21
30.55125302834134
 31
0.0
 11
44.56081792795536
 21
30.56740852053909
 31
0.0
 11
44.56364987870588
 21
30.58396927450079
 31
0.0
 11
44.56655946691038
 21
30.60219134443654
 31
0.0
 11
44.56925899840675
 21
30.62077812090243
 31
0.0
  0
SPLINE
  5
459
330
2
100
AcDbEntity
  8
GAIKEI
  6
Continuous
 62
     1
100
AcDbSpline
210
0.0
220
0.0
230
1.0
 70
     8
 71
     3
 72
    13
 73
     9
 74
     7
 42
0.0000000001
 43
0.0000000001
 44
0.000001
 12
0.1358537149050929
 22
0.9907289074951259
 32
0.0
 13
0.1028701000007821
 23
0.9946947986824044
 33
0.0
 40
0.0
 40
0.0
 40
0.0
 40
0.0
 40
0.0167629848690894
 40
0.0334123275051457
 40
0.0503098774188273
 40
0.0668410117252876
 40
0.0842373612998062
 40
0.1010541529109475
 40
0.1010541529109475
 40
0.1010541529109475
 40
0.1010541529109475
 10
44.73474704728428
 20
31.82411264774013
 30
0.0
 10
44.73550615187341
 20
31.82964850563536
 30
0.0
 10
44.73694919530394
 20
31.84069242608553
 30
0.0
 10
44.73891173249474
 20
31.85734756886148
 30
0.0
 10
44.74067171957443
 20
31.8739474859056
 30
0.0
 10
44.74233078898167
 20
31.89080780277462
 30
0.0
 10
44.74391411889555
 20
31.90764835122994
 30
0.0
 10
44.74506785321135
 20
31.91899432325298
 30
0.0
 10
44.74564450155625
 20
31.92457018163501
 30
0.0
 11
44.73474704728428
 21
31.82411264774013
 31
0.0
 11
44.73691994763899
 21
31.8407342688553
 31
0.0
 11
44.73887111898378
 21
31.85726888958155
 31
0.0
 11
44.74066422384683
 21
31.87407103602098
 31
0.0
 11
44.74229194073458
 21
31.89052184556138
 31
0.0
 11
44.74395495161414
 21
31.90783918341825
 31
0.0
 11
44.74564450155625
 21
31.92457018163501
 31
0.0
  0
SPLINE
  5
45A
330
2
100
AcDbEntity
  8
GAIKEI
  6
Continuous
 62
     1
100
AcDbSpline
210
0.0
220
0.0
230
1.0
 70
     8
 71
     3
 72
    13
 73
     9
 74
     7
 42
0.0000000001
 43
0.0000000001
 44
0.000001
 12
-0.1367026333584174
 22
0.9906121289550588
 32
0.0
 13
-0.1693098136655528
 23
0.9855628782561444
 33
0.0
 40
0.0
 40
0.0
 40
0.0
 40
0.0
 40
0.0167469922486217
 40
0.033377344270269
 40
0.0502571168681159
 40
0.0667711030725145
 40
0.0840636332563762
 40
0.1007849533910366
 40
0.1007849533910366
 40
0.1007849533910366
 40
0.1007849533910366
 10
44.56925899840675
 20
35.19249419313169
 30
0.0
 10
44.568495879093
 20
35.19802411768004
 30
0.0
 10
44.56690430775964
 20
35.20903584386571
 30
0.0
 10
44.5642947244108
 20
35.22558413577116
 30
0.0
 10
44.56150704441824
 20
35.24202444195288
 30
0.0
 10
44.55855895313814
 20
35.2586607390659
 30
0.0
 10
44.55555509868422
 20
35.27523337015336
 30
0.0
 10
44.55361438813099
 20
35.28640408898409
 30
0.0
 10
44.55267069359891
 20
35.29189739311747
 30
0.0
 11
44.56925899840675
 21
35.19249419313169
 31
0.0
 11
44.56686409255385
 21
35.20906912449075
 31
0.0
 11
44.56427727312465
 21
35.22549706253645
 31
0.0
 11
44.56146684526018
 21
35.24214123232074
 31
0.0
 11
44.55859483662121
 21
35.2584035669403
 31
0.0
 11
44.55554161046362
 21
35.27542508237437
 31
0.0
 11
44.55267069359891
 21
35.29189739311747
 31
0.0
  0
SPLINE
  5
45B
330
2
100
AcDbEntity
  8
GAIKEI
  6
Continuous
 62
     1
100
AcDbSpline
210
0.0
220
0.0
230
1.0
 70
     8
 71
     3
 72
    11
 73
     7
 74
     5
 42
0.0000000001
 43
0.0000000001
 44
0.000001
 12
0.0263247353920106
 22
0.9996534441027755
 32
0.0
 13
0.1800564184768131
 23
0.9836562845655503
 33
0.0
 40
0.0
 40
0.0
 40
0.0
 40
0.0
 40
0.0222209517494547
 40
0.0388462874323282
 40
0.0498820484480651
 40
0.0553514638909737
 40
0.0553514638909737
 40
0.0553514638909737
 40
0.0553514638909737
 10
43.25849747481257
 20
30.41298779034574
 30
0.0
 10
43.25869246170422
 20
30.42039220732827
 30
0.0
 10
43.25911651844039
 20
30.43333725165755
 30
0.0
 10
43.25994079314625
 20
30.44993672146808
 30
0.0
 10
43.26048036842793
 20
30.46098221226348
 30
0.0
 10
43.26135573558473
 20
30.466419766522
 30
0.0
 10
43.26168400336999
 20
30.46821310814645
 30
0.0
 11
43.25849747481257
 21
30.41298779034574
 31
0.0
 11
43.25924987726788
 21
30.43519589514281
 31
0.0
 11
43.26003176617914
 21
30.45180281637525
 31
0.0
 11
43.26084314154653
 21
30.46280855404317
 31
0.0
 11
43.26168400336999
 21
30.46821310814645
 31
0.0
  0
SPLINE
  5
45C
330
2
100
AcDbEntity
  8
GAIKEI
  6
Continuous
 62
     1
100
AcDbSpline
210
0.0
220
0.0
230
1.0
 70
     8
 71
     3
 72
    16
 73
    12
 74
    10
 42
0.0000000001
 43
0.0000000001
 44
0.000001
 12
-0.0430768721966507
 22
0.9990717607268027
 32
0.0
 13
-0.9995301167089067
 23
0.0306520112207888
 33
0.0
 40
0.0
 40
0.0
 40
0.0
 40
0.0
 40
0.0160287203942783
 40
0.032720496009847
 40
0.0473482253724105
 40
0.0596792524286389
 40
0.0695126747968553
 40
0.076703010901108
 40
0.0811430012141032
 40
0.0828762629778461
 40
0.0829034368634654
 40
0.0829034368634654
 40
0.0829034368634654
 40
0.0829034368634654
 10
43.35336648119542
 20
30.84665595191931
 30
0.0
 10
43.35313632548213
 20
30.85199389922147
 30
0.0
 10
43.35264068049689
 20
30.86288787282607
 30
0.0
 10
43.35186252776899
 20
30.87865872286989
 30
0.0
 10
43.35104051890726
 20
30.89316343799169
 30
0.0
 10
43.3502395466066
 20
30.90546588818305
 30
0.0
 10
43.34940977722268
 20
30.91504596859986
 30
0.0
 10
43.34869798113003
 20
30.92256276303823
 30
0.0
 10
43.34785535139434
 20
30.92622060084603
 30
0.0
 10
43.34737853761597
 20
30.92905462538974
 30
0.0
 10
43.34678851018504
 20
30.92906706867737
 30
0.0
 10
43.34677945647936
 20
30.92906734632212
 30
0.0
 11
43.35336648119542
 21
30.84665595191931
 31
0.0
 11
43.35263995321056
 21
30.86266748350752
 31
0.0
 11
43.35180661987718
 21
30.87933844061925
 31
0.0
 11
43.35097328654391
 21
30.89394240883863
 31
0.0
 11
43.35013995321051
 21
30.90624523807085
 31
0.0
 11
43.34930661987718
 21
30.91604327373332
 31
0.0
 11
43.34847328654385
 21
30.92318512964292
 31
0.0
 11
43.34763995321057
 21
30.92754613261801
 31
0.0
 11
43.34680661987718
 21
30.92906615683401
 31
0.0
 11
43.34677945647936
 21
30.92906734632212
 31
0.0
  0
SPLINE
  5
45D
330
2
100
AcDbEntity
  8
GAIKEI
  6
Continuous
 62
     1
100
AcDbSpline
210
0.0
220
0.0
230
1.0
 70
     8
 71
     3
 72
    20
 73
    16
 74
    14
 42
0.0000000001
 43
0.0000000001
 44
0.000001
 12
-0.0366600883891987
 22
-0.9993277930285419
 32
0.0
 13
-0.8962567756003743
 23
-0.4435355591048144
 33
0.0
 40
0.0
 40
0.0
 40
0.0
 40
0.0
 40
0.0225441489661379
 40
0.0447243509194737
 40
0.0661807098233039
 40
0.0865702989487998
 40
0.105560024997201
 40
0.1228469656545089
 40
0.1381506161008582
 40
0.1512251988682196
 40
0.1618642916135566
 40
0.1698958897130195
 40
0.1752100305703667
 40
0.1777642420885789
 40
0.1780980751421449
 40
0.1780980751421449
 40
0.1780980751421449
 40
0.1780980751421449
 10
43.37763995321054
 20
30.75156596945047
 30
0.0
 10
43.37736446304596
 20
30.74405630457312
 30
0.0
 10
43.37681383112058
 20
30.72915836481508
 30
0.0
 10
43.37598793223151
 20
30.70711356763525
 30
0.0
 10
43.3751617209987
 20
30.68578758962158
 30
0.0
 10
43.37433697808196
 20
30.66552550738476
 30
0.0
 10
43.37351208016364
 20
30.64665568376705
 30
0.0
 10
43.3726927939282
 20
30.62947865912332
 30
0.0
 10
43.37186526029873
 20
30.61428871652498
 30
0.0
 10
43.37107578263661
 20
30.60127921192088
 30
0.0
 10
43.37020265741836
 20
30.59080700250556
 30
0.0
 10
43.36958179839173
 20
30.58265536539039
 30
0.0
 10
43.3684989855078
 20
30.57779845284358
 30
0.0
 10
43.36831291051706
 20
30.57459430458087
 30
0.0
 10
43.36745200864686
 20
30.5741160859898
 30
0.0
 10
43.36735227526813
 20
30.57406673037977
 30
0.0
 11
43.37763995321054
 21
30.75156596945047
 31
0.0
 11
43.37680661987715
 21
30.72903776383967
 31
0.0
 11
43.37597328654388
 21
30.70687322342886
 31
0.0
 11
43.37513995321055
 21
30.68543305481981
 31
0.0
 11
43.37430661987721
 21
30.66506050403828
 31
0.0
 11
43.37347328654383
 21
30.64608907396954
 31
0.0
 11
43.37263995321054
 21
30.62882223414377
 31
0.0
 11
43.37180661987722
 21
30.61354129418024
 31
0.0
 11
43.37097328654389
 21
30.60049330274845
 31
0.0
 11
43.3701399532105
 21
30.58988690864331
 31
0.0
 11
43.36930661987722
 21
30.5818986820307
 31
0.0
 11
43.36847328654388
 21
30.57665034216976
 31
0.0
 11
43.36763995321056
 21
30.57423621770912
 31
0.0
 11
43.36735227526813
 21
30.57406673037977
 31
0.0
  0
SPLINE
  5
45E
330
2
100
AcDbEntity
  8
GAIKEI
  6
Continuous
 62
     1
100
AcDbSpline
210
0.0
220
0.0
230
1.0
 70
     8
 71
     3
 72
    18
 73
    14
 74
    12
 42
0.0000000001
 43
0.0000000001
 44
0.000001
 12
-0.5844656576229886
 22
-0.8114184463390806
 32
0.0
 13
-0.0371796361214176
 23
-0.9993085983107917
 33
0.0
 40
0.0
 40
0.0
 40
0.0
 40
0.0
 40
0.0015785755413335
 40
0.0058611200296906
 40
0.0128957152542895
 40
0.0225825394406305
 40
0.0347746564143068
 40
0.0492779510757618
 40
0.0658578569835887
 40
0.084251227785336
 40
0.1041564934095597
 40
0.1252572874194945
 40
0.1472100295646767
 40
0.1472100295646767
 40
0.1472100295646767
 40
0.1472100295646767
 10
43.34677945647936
 20
30.92906734632212
 30
0.0
 10
43.34647191541541
 20
30.92864038455104
 30
0.0
 10
43.34542250312213
 20
30.926958058862
 30
0.0
 10
43.34511032583864
 20
30.92254225158263
 30
0.0
 10
43.34411062981664
 20
30.91567848554916
 30
0.0
 10
43.34340699577398
 20
30.90603180188262
 30
0.0
 10
43.34255889826913
 20
30.89394695747643
 30
0.0
 10
43.34175412663035
 20
30.87953940845563
 30
0.0
 10
43.34092866819662
 20
30.86306938539087
 30
0.0
 10
43.34010684930944
 20
30.84479445649041
 30
0.0
 10
43.33928140279875
 20
30.82501198827273
 30
0.0
 10
43.33845645933841
 20
30.80404188416105
 30
0.0
 10
43.33791201819886
 20
30.78970104231383
 30
0.0
 10
43.33763995321058
 20
30.78238852098642
 30
0.0
 11
43.34677945647936
 21
30.92906734632212
 31
0.0
 11
43.34597328654385
 21
30.92771005524813
 31
0.0
 11
43.34513995321052
 21
30.92350954685154
 31
0.0
 11
43.34430661987724
 21
30.91652451561268
 31
0.0
 11
43.34347328654385
 21
30.90687361733174
 31
0.0
 11
43.34263995321052
 21
30.89471002142366
 31
0.0
 11
43.34180661987718
 21
30.88023069294982
 31
0.0
 11
43.34097328654391
 21
30.86367174640921
 31
0.0
 11
43.34013995321052
 21
30.84529726562724
 31
0.0
 11
43.33930661987719
 21
30.8254094535188
 31
0.0
 11
43.33847328654385
 21
30.80432512332621
 31
0.0
 11
43.33763995321058
 21
30.78238852098642
 31
0.0
  0
SPLINE
  5
45F
330
2
100
AcDbEntity
  8
GAIKEI
  6
Continuous
 62
     1
100
AcDbSpline
210
0.0
220
0.0
230
1.0
 70
     8
 71
     3
 72
    18
 73
    14
 74
    12
 42
0.0000000001
 43
0.0000000001
 44
0.000001
 12
-0.5846562919338174
 22
-0.8112810982034519
 32
0.0
 13
-0.0371796361214128
 23
-0.9993085983107919
 33
0.0
 40
0.0
 40
0.0
 40
0.0
 40
0.0
 40
0.0015787525645141
 40
0.0058612971317786
 40
0.0128958923591835
 40
0.0225827165462128
 40
0.0347748335201427
 40
0.0492781281816702
 40
0.0658580340895569
 40
0.0842514048913158
 40
0.1041566705155508
 40
0.1252574645254105
 40
0.1472102067833213
 40
0.1472102067833213
 40
0.1472102067833213
 40
0.1472102067833213
 10
43.3067797962702
 20
30.92906735040711
 30
0.0
 10
43.30647212039679
 20
30.92864041303568
 30
0.0
 10
43.30542232458914
 20
30.92695821444846
 30
0.0
 10
43.30511043886692
 20
30.92254219315805
 30
0.0
 10
43.30411057877003
 20
30.91567851214762
 30
0.0
 10
43.30340701564966
 20
30.90603179171427
 30
0.0
 10
43.30255889129595
 20
30.89394696122537
 30
0.0
 10
43.3017541290034
 20
30.87953940735912
 30
0.0
 10
43.30092866750156
 20
30.86306938588447
 30
0.0
 10
43.30010684957764
 20
30.84479445648486
 30
0.0
 10
43.29928140277023
 20
30.82501198841863
 30
0.0
 10
43.29845645941604
 20
30.80404188422352
 30
0.0
 10
43.29791201820017
 20
30.78970104235137
 30
0.0
 10
43.29763995321051
 20
30.78238852098642
 30
0.0
 11
43.3067797962702
 21
30.92906735040711
 31
0.0
 11
43.30597328654389
 21
30.92771005524813
 31
0.0
 11
43.30513995321055
 21
30.92350954685154
 31
0.0
 11
43.30430661987716
 21
30.91652451561268
 31
0.0
 11
43.30347328654389
 21
30.90687361733174
 31
0.0
 11
43.30263995321056
 21
30.89471002142366
 31
0.0
 11
43.30180661987722
 21
30.88023069294982
 31
0.0
 11
43.30097328654384
 21
30.86367174640921
 31
0.0
 11
43.30013995321055
 21
30.84529726562724
 31
0.0
 11
43.29930661987723
 21
30.8254094535188
 31
0.0
 11
43.29847328654389
 21
30.80432512332621
 31
0.0
 11
43.29763995321051
 21
30.78238852098642
 31
0.0
  0
SPLINE
  5
460
330
2
100
AcDbEntity
  8
GAIKEI
  6
Continuous
 62
     1
100
AcDbSpline
210
0.0
220
0.0
230
1.0
 70
     8
 71
     3
 72
    16
 73
    12
 74
    10
 42
0.0000000001
 43
0.0000000001
 44
0.000001
 12
-0.7246933390218108
 22
0.6890715234120614
 32
0.0
 13
-0.043558922455188
 23
0.9990508597036205
 33
0.0
 40
0.0
 40
0.0
 40
0.0
 40
0.0
 40
0.0008245869742816
 40
0.0042427686756445
 40
0.0104169723952511
 40
0.0192855983072439
 40
0.0307089239071591
 40
0.0445088940072562
 40
0.0604644486191581
 40
0.0783168924071085
 40
0.0828709020179566
 40
0.0828709020179566
 40
0.0828709020179566
 40
0.0828709020179566
 10
43.32735253534932
 20
30.57406672933135
 30
0.0
 10
43.32715334445341
 20
30.57425612913221
 30
0.0
 10
43.32617262563887
 20
30.5753130284042
 30
0.0
 10
43.32596206384343
 20
30.57902453021422
 30
0.0
 10
43.32490176764238
 20
30.58494354200883
 30
0.0
 10
43.32424395438798
 20
30.5938175039189
 30
0.0
 10
43.32338154516835
 20
30.60511898191516
 30
0.0
 10
43.322584497733
 20
30.61883332570253
 30
0.0
 10
43.32175855178812
 20
30.63467747083382
 30
0.0
 10
43.32116570445694
 20
30.64745212837039
 30
0.0
 10
43.32083865950579
 20
30.6549137144512
 30
0.0
 10
43.32077253692196
 20
30.65643027685681
 30
0.0
 11
43.32735253534932
 21
30.57406672933135
 31
0.0
 11
43.3268066198772
 21
30.57468486085182
 31
0.0
 11
43.32597328654387
 21
30.5779996523037
 31
0.0
 11
43.32513995321053
 21
30.58411732195671
 31
0.0
 11
43.32430661987726
 21
30.59294669236354
 31
0.0
 11
43.32347328654387
 21
30.60433957219166
 31
0.0
 11
43.32263995321054
 21
30.6181143524565
 31
0.0
 11
43.3218066198772
 21
30.63404812647755
 31
0.0
 11
43.32097328654382
 21
30.65188110669877
 31
0.0
 11
43.32077253692196
 21
30.65643027685681
 31
0.0
  0
SPLINE
  5
461
330
2
100
AcDbEntity
  8
GAIKEI
  6
Continuous
 62
     1
100
AcDbSpline
210
0.0
220
0.0
230
1.0
 70
     8
 71
     3
 72
    20
 73
    16
 74
    14
 42
0.0000000001
 43
0.0000000001
 44
0.000001
 12
-0.0366600883891941
 22
-0.9993277930285421
 32
0.0
 13
-0.8960473228605128
 23
-0.4439585512122816
 33
0.0
 40
0.0
 40
0.0
 40
0.0
 40
0.0
 40
0.0225441487658523
 40
0.0447243507194046
 40
0.0661807096233909
 40
0.0865702987490919
 40
0.1055600247977212
 40
0.1228469654553875
 40
0.1381506159022363
 40
0.1512251986703218
 40
0.1618642914167718
 40
0.1698958895183468
 40
0.1752100303814307
 40
0.177764241802365
 40
0.1780978513807454
 40
0.1780978513807454
 40
0.1780978513807454
 40
0.1780978513807454
 10
43.33763995321058
 20
30.75156596945047
 30
0.0
 10
43.33736446304844
 20
30.74405630463983
 30
0.0
 10
43.3368138313132
 20
30.72915836493712
 30
0.0
 10
43.33598793234219
 20
30.70711356784637
 30
0.0
 10
43.33516172116936
 20
30.68578758976272
 30
0.0
 10
43.33433697810727
 20
30.66552550776402
 30
0.0
 10
43.33351208066372
 20
30.64665568334869
 30
0.0
 10
43.3326927928985
 20
30.62947866128326
 30
0.0
 10
43.33186526401824
 20
30.61428871068375
 30
0.0
 10
43.33107577238689
 20
30.60127922962016
 30
0.0
 10
43.33020268539776
 20
30.59080695579104
 30
0.0
 10
43.32958173270452
 20
30.58265547651018
 30
0.0
 10
43.32849910921419
 20
30.57779824488179
 30
0.0
 10
43.32831277954608
 20
30.5745946216671
 30
0.0
 10
43.32745217867251
 20
30.57411609893973
 30
0.0
 10
43.32735253534932
 20
30.57406672933135
 30
0.0
 11
43.33763995321058
 21
30.75156596945047
 31
0.0
 11
43.33680661987719
 21
30.72903776383967
 31
0.0
 11
43.33597328654386
 21
30.70687322342886
 31
0.0
 11
43.33513995321053
 21
30.68543305481981
 31
0.0
 11
43.33430661987725
 21
30.66506050403828
 31
0.0
 11
43.33347328654386
 21
30.64608907396954
 31
0.0
 11
43.33263995321053
 21
30.62882223414377
 31
0.0
 11
43.3318066198772
 21
30.61354129418024
 31
0.0
 11
43.33097328654392
 21
30.60049330274845
 31
0.0
 11
43.33013995321053
 21
30.58988690864331
 31
0.0
 11
43.32930661987719
 21
30.5818986820307
 31
0.0
 11
43.32847328654387
 21
30.57665034216976
 31
0.0
 11
43.32763995321059
 21
30.57423621770912
 31
0.0
 11
43.32735253534932
 21
30.57406672933135
 31
0.0
  0
SPLINE
  5
462
330
2
100
AcDbEntity
  8
GAIKEI
  6
Continuous
 62
     1
100
AcDbSpline
210
0.0
220
0.0
230
1.0
 70
     8
 71
     3
 72
    20
 73
    16
 74
    14
 42
0.0000000001
 43
0.0000000001
 44
0.000001
 12
-0.03666008838921
 22
-0.9993277930285415
 32
0.0
 13
-0.89604732285992
 23
-0.443958551213478
 33
0.0
 40
0.0
 40
0.0
 40
0.0
 40
0.0
 40
0.0225441487658523
 40
0.0447243507194046
 40
0.0661807096233909
 40
0.0865702987490919
 40
0.1055600247977212
 40
0.1228469654553875
 40
0.1381506159022363
 40
0.1512251986703218
 40
0.1618642914167718
 40
0.1698958895183468
 40
0.1752100303814307
 40
0.177764241802365
 40
0.1780978513807454
 40
0.1780978513807454
 40
0.1780978513807454
 40
0.1780978513807454
 10
43.33763995321058
 20
34.37156596945047
 30
0.0
 10
43.33736446304844
 20
34.36405630463983
 30
0.0
 10
43.3368138313132
 20
34.34915836493715
 30
0.0
 10
43.33598793234219
 20
34.32711356784643
 30
0.0
 10
43.33516172116936
 20
34.30578758976276
 30
0.0
 10
43.33433697810727
 20
34.28552550776402
 30
0.0
 10
43.33351208066372
 20
34.26665568334869
 30
0.0
 10
43.3326927928985
 20
34.24947866128321
 30
0.0
 10
43.33186526401824
 20
34.23428871068373
 30
0.0
 10
43.33107577238689
 20
34.22127922962019
 30
0.0
 10
43.33020268539776
 20
34.21080695579102
 30
0.0
 10
43.32958173270452
 20
34.20265547651019
 30
0.0
 10
43.32849910921419
 20
34.19779824488185
 30
0.0
 10
43.32831277954608
 20
34.19459462166708
 30
0.0
 10
43.32745217867251
 20
34.19411609893973
 30
0.0
 10
43.32735253534932
 20
34.19406672933135
 30
0.0
 11
43.33763995321058
 21
34.37156596945047
 31
0.0
 11
43.33680661987719
 21
34.34903776383968
 31
0.0
 11
43.33597328654386
 21
34.32687322342886
 31
0.0
 11
43.33513995321053
 21
34.30543305481982
 31
0.0
 11
43.33430661987725
 21
34.28506050403829
 31
0.0
 11
43.33347328654386
 21
34.26608907396954
 31
0.0
 11
43.33263995321053
 21
34.24882223414377
 31
0.0
 11
43.3318066198772
 21
34.23354129418024
 31
0.0
 11
43.33097328654392
 21
34.22049330274845
 31
0.0
 11
43.33013995321053
 21
34.20988690864331
 31
0.0
 11
43.32930661987719
 21
34.2018986820307
 31
0.0
 11
43.32847328654387
 21
34.19665034216976
 31
0.0
 11
43.32763995321059
 21
34.19423621770912
 31
0.0
 11
43.32735253534932
 21
34.19406672933135
 31
0.0
  0
SPLINE
  5
463
330
2
100
AcDbEntity
  8
GAIKEI
  6
Continuous
 62
     1
100
AcDbSpline
210
0.0
220
0.0
230
1.0
 70
     8
 71
     3
 72
    16
 73
    12
 74
    10
 42
0.0000000001
 43
0.0000000001
 44
0.000001
 12
-0.0430768721965857
 22
0.9990717607268052
 32
0.0
 13
-0.9995301167088943
 23
0.0306520112211923
 33
0.0
 40
0.0
 40
0.0
 40
0.0
 40
0.0
 40
0.0160287203942783
 40
0.032720496009847
 40
0.0473482253724105
 40
0.0596792524286389
 40
0.0695126747968553
 40
0.076703010901108
 40
0.0811430012141032
 40
0.0828762629778461
 40
0.0829034368634654
 40
0.0829034368634654
 40
0.0829034368634654
 40
0.0829034368634654
 10
43.35336648119542
 20
34.46665595191931
 30
0.0
 10
43.35313632548213
 20
34.47199389922147
 30
0.0
 10
43.35264068049689
 20
34.48288787282604
 30
0.0
 10
43.35186252776899
 20
34.49865872286995
 30
0.0
 10
43.35104051890726
 20
34.51316343799169
 30
0.0
 10
43.3502395466066
 20
34.52546588818302
 30
0.0
 10
43.34940977722268
 20
34.53504596859992
 30
0.0
 10
43.34869798113003
 20
34.54256276303801
 30
0.0
 10
43.34785535139434
 20
34.54622060084631
 30
0.0
 10
43.34737853761597
 20
34.54905462538952
 30
0.0
 10
43.34678851018504
 20
34.54906706867737
 30
0.0
 10
43.34677945647936
 20
34.54906734632212
 30
0.0
 11
43.35336648119542
 21
34.46665595191931
 31
0.0
 11
43.35263995321056
 21
34.48266748350753
 31
0.0
 11
43.35180661987718
 21
34.49933844061926
 31
0.0
 11
43.35097328654391
 21
34.51394240883863
 31
0.0
 11
43.35013995321051
 21
34.52624523807086
 31
0.0
 11
43.34930661987718
 21
34.53604327373333
 31
0.0
 11
43.34847328654385
 21
34.54318512964292
 31
0.0
 11
43.34763995321057
 21
34.54754613261801
 31
0.0
 11
43.34680661987718
 21
34.54906615683402
 31
0.0
 11
43.34677945647936
 21
34.54906734632212
 31
0.0
  0
SPLINE
  5
464
330
2
100
AcDbEntity
  8
GAIKEI
  6
Continuous
 62
     1
100
AcDbSpline
210
0.0
220
0.0
230
1.0
 70
     8
 71
     3
 72
    20
 73
    16
 74
    14
 42
0.0000000001
 43
0.0000000001
 44
0.000001
 12
-0.0366600883891987
 22
-0.9993277930285419
 32
0.0
 13
-0.8962567755996664
 23
-0.4435355591062449
 33
0.0
 40
0.0
 40
0.0
 40
0.0
 40
0.0
 40
0.0225441489661379
 40
0.0447243509194737
 40
0.0661807098233039
 40
0.0865702989487998
 40
0.105560024997201
 40
0.1228469656545089
 40
0.1381506161008582
 40
0.1512251988682196
 40
0.1618642916135566
 40
0.1698958897130195
 40
0.1752100305703667
 40
0.1777642420885789
 40
0.1780980751421449
 40
0.1780980751421449
 40
0.1780980751421449
 40
0.1780980751421449
 10
43.37763995321054
 20
34.37156596945047
 30
0.0
 10
43.37736446304596
 20
34.36405630457313
 30
0.0
 10
43.37681383112058
 20
34.34915836481511
 30
0.0
 10
43.37598793223151
 20
34.32711356763523
 30
0.0
 10
43.3751617209987
 20
34.30578758962167
 30
0.0
 10
43.37433697808196
 20
34.28552550738473
 30
0.0
 10
43.37351208016364
 20
34.26665568376705
 30
0.0
 10
43.3726927939282
 20
34.2494786591233
 30
0.0
 10
43.37186526029873
 20
34.23428871652504
 30
0.0
 10
43.37107578263661
 20
34.22127921192089
 30
0.0
 10
43.37020265741836
 20
34.21080700250556
 30
0.0
 10
43.36958179839173
 20
34.20265536539043
 30
0.0
 10
43.3684989855078
 20
34.19779845284353
 30
0.0
 10
43.36831291051706
 20
34.19459430458093
 30
0.0
 10
43.36745200864686
 20
34.19411608598981
 30
0.0
 10
43.36735227526813
 20
34.19406673037978
 30
0.0
 11
43.37763995321054
 21
34.37156596945047
 31
0.0
 11
43.37680661987715
 21
34.34903776383968
 31
0.0
 11
43.37597328654388
 21
34.32687322342886
 31
0.0
 11
43.37513995321055
 21
34.30543305481982
 31
0.0
 11
43.37430661987721
 21
34.28506050403829
 31
0.0
 11
43.37347328654383
 21
34.26608907396954
 31
0.0
 11
43.37263995321054
 21
34.24882223414377
 31
0.0
 11
43.37180661987722
 21
34.23354129418024
 31
0.0
 11
43.37097328654389
 21
34.22049330274845
 31
0.0
 11
43.3701399532105
 21
34.20988690864331
 31
0.0
 11
43.36930661987722
 21
34.2018986820307
 31
0.0
 11
43.36847328654388
 21
34.19665034216976
 31
0.0
 11
43.36763995321056
 21
34.19423621770912
 31
0.0
 11
43.36735227526813
 21
34.19406673037978
 31
0.0
  0
SPLINE
  5
465
330
2
100
AcDbEntity
  8
GAIKEI
  6
Continuous
 62
     1
100
AcDbSpline
210
0.0
220
0.0
230
1.0
 70
     8
 71
     3
 72
    18
 73
    14
 74
    12
 42
0.0000000001
 43
0.0000000001
 44
0.000001
 12
-0.5844656576224157
 22
-0.8114184463394934
 32
0.0
 13
-0.0371796361214128
 23
-0.9993085983107919
 33
0.0
 40
0.0
 40
0.0
 40
0.0
 40
0.0
 40
0.0015785755413335
 40
0.0058611200296906
 40
0.0128957152542895
 40
0.0225825394405173
 40
0.034774656414307
 40
0.049277951075762
 40
0.0658578569835888
 40
0.0842512277853361
 40
0.1041564934094463
 40
0.1252572874194946
 40
0.1472100295646769
 40
0.1472100295646769
 40
0.1472100295646769
 40
0.1472100295646769
 10
43.34677945647936
 20
34.54906734632212
 30
0.0
 10
43.34647191541541
 20
34.54864038455105
 30
0.0
 10
43.34542250312212
 20
34.546958058862
 30
0.0
 10
43.34511032583868
 20
34.54254225158272
 30
0.0
 10
43.34411062981661
 20
34.53567848554911
 30
0.0
 10
43.34340699577396
 20
34.52603180188268
 30
0.0
 10
43.34255889826919
 20
34.51394695747655
 30
0.0
 10
43.34175412663038
 20
34.49953940845563
 30
0.0
 10
43.34092866819659
 20
34.4830693853909
 30
0.0
 10
43.34010684930944
 20
34.46479445649038
 30
0.0
 10
43.33928140279875
 20
34.44501198827282
 30
0.0
 10
43.33845645933844
 20
34.42404188416117
 30
0.0
 10
43.33791201819886
 20
34.40970104231383
 30
0.0
 10
43.33763995321058
 20
34.40238852098642
 30
0.0
 11
43.34677945647936
 21
34.54906734632212
 31
0.0
 11
43.34597328654385
 21
34.54771005524813
 31
0.0
 11
43.34513995321052
 21
34.54350954685154
 31
0.0
 11
43.34430661987724
 21
34.53652451561268
 31
0.0
 11
43.34347328654385
 21
34.52687361733186
 31
0.0
 11
43.34263995321052
 21
34.51471002142367
 31
0.0
 11
43.34180661987718
 21
34.50023069294983
 31
0.0
 11
43.34097328654391
 21
34.48367174640921
 31
0.0
 11
43.34013995321052
 21
34.46529726562725
 31
0.0
 11
43.33930661987719
 21
34.44540945351892
 31
0.0
 11
43.33847328654385
 21
34.42432512332621
 31
0.0
 11
43.33763995321058
 21
34.40238852098642
 31
0.0
  0
SPLINE
  5
466
330
2
100
AcDbEntity
  8
GAIKEI
  6
Continuous
 62
     1
100
AcDbSpline
210
0.0
220
0.0
230
1.0
 70
     8
 71
     3
 72
    18
 73
    14
 74
    12
 42
0.0000000001
 43
0.0000000001
 44
0.000001
 12
-0.5846562919338174
 22
-0.8112810982034519
 32
0.0
 13
-0.0371796361213846
 23
-0.9993085983107928
 33
0.0
 40
0.0
 40
0.0
 40
0.0
 40
0.0
 40
0.0015787525645141
 40
0.0058612971317786
 40
0.0128958923591835
 40
0.0225827165460995
 40
0.0347748335201429
 40
0.0492781281816704
 40
0.065858034089557
 40
0.0842514048913159
 40
0.1041566705154397
 40
0.1252574645254108
 40
0.1472102067833216
 40
0.1472102067833216
 40
0.1472102067833216
 40
0.1472102067833216
 10
43.3067797962702
 20
34.54906735040712
 30
0.0
 10
43.30647212039679
 20
34.54864041303569
 30
0.0
 10
43.30542232458914
 20
34.54695821444849
 30
0.0
 10
43.30511043886693
 20
34.54254219315806
 30
0.0
 10
43.30411057877003
 20
34.53567851214763
 30
0.0
 10
43.30340701564973
 20
34.52603179171445
 30
0.0
 10
43.30255889129588
 20
34.51394696122529
 30
0.0
 10
43.30175412900341
 20
34.49953940735921
 30
0.0
 10
43.30092866750155
 20
34.48306938588445
 30
0.0
 10
43.3001068495777
 20
34.46479445648504
 30
0.0
 10
43.29928140277009
 20
34.44501198841857
 30
0.0
 10
43.2984564594161
 20
34.42404188422358
 30
0.0
 10
43.29791201820017
 20
34.40970104235137
 30
0.0
 10
43.29763995321051
 20
34.40238852098642
 30
0.0
 11
43.3067797962702
 21
34.54906735040712
 31
0.0
 11
43.30597328654389
 21
34.54771005524813
 31
0.0
 11
43.30513995321055
 21
34.54350954685154
 31
0.0
 11
43.30430661987716
 21
34.53652451561268
 31
0.0
 11
43.30347328654389
 21
34.52687361733186
 31
0.0
 11
43.30263995321056
 21
34.51471002142367
 31
0.0
 11
43.30180661987722
 21
34.50023069294983
 31
0.0
 11
43.30097328654384
 21
34.48367174640921
 31
0.0
 11
43.30013995321055
 21
34.46529726562725
 31
0.0
 11
43.29930661987717
 21
34.44540945351892
 31
0.0
 11
43.29847328654389
 21
34.42432512332621
 31
0.0
 11
43.29763995321051
 21
34.40238852098642
 31
0.0
  0
SPLINE
  5
467
330
2
100
AcDbEntity
  8
GAIKEI
  6
Continuous
 62
     1
100
AcDbSpline
210
0.0
220
0.0
230
1.0
 70
     8
 71
     3
 72
    16
 73
    12
 74
    10
 42
0.0000000001
 43
0.0000000001
 44
0.000001
 12
-0.7246933390181188
 22
0.6890715234159442
 32
0.0
 13
-0.0435589224551712
 23
0.999050859703621
 33
0.0
 40
0.0
 40
0.0
 40
0.0
 40
0.0
 40
0.0008245869742816
 40
0.0042427686756445
 40
0.0104169723952511
 40
0.0192855983072546
 40
0.0307089239071615
 40
0.0445088940072586
 40
0.0604644486191605
 40
0.0783168924071109
 40
0.082870902017959
 40
0.082870902017959
 40
0.082870902017959
 40
0.082870902017959
 10
43.32735253534932
 20
34.19406672933135
 30
0.0
 10
43.32715334445341
 20
34.19425612913221
 30
0.0
 10
43.32617262563887
 20
34.19531302840417
 30
0.0
 10
43.32596206384343
 20
34.19902453021433
 30
0.0
 10
43.32490176764243
 20
34.20494354200875
 30
0.0
 10
43.32424395438775
 20
34.21381750391887
 30
0.0
 10
43.32338154516844
 20
34.22511898191516
 30
0.0
 10
43.32258449773294
 20
34.23883332570256
 30
0.0
 10
43.3217585517881
 20
34.25467747083377
 30
0.0
 10
43.32116570445694
 20
34.26745212837043
 30
0.0
 10
43.32083865950579
 20
34.2749137144512
 30
0.0
 10
43.32077253692196
 20
34.27643027685681
 30
0.0
 11
43.32735253534932
 21
34.19406672933135
 31
0.0
 11
43.3268066198772
 21
34.19468486085182
 31
0.0
 11
43.32597328654387
 21
34.19799965230371
 31
0.0
 11
43.32513995321053
 21
34.20411732195672
 31
0.0
 11
43.32430661987714
 21
34.21294669236355
 31
0.0
 11
43.32347328654387
 21
34.22433957219167
 31
0.0
 11
43.32263995321054
 21
34.23811435245651
 31
0.0
 11
43.3218066198772
 21
34.25404812647756
 31
0.0
 11
43.32097328654382
 21
34.27188110669877
 31
0.0
 11
43.32077253692196
 21
34.27643027685681
 31
0.0
  0
SPLINE
  5
468
330
2
100
AcDbEntity
  8
GAIKEI
  6
Continuous
 62
     1
100
AcDbSpline
210
0.0
220
0.0
230
1.0
 70
     8
 71
     3
 72
    11
 73
     7
 74
     5
 42
0.0000000001
 43
0.0000000001
 44
0.000001
 12
-0.5697183474044964
 22
0.8218400115780987
 32
0.0
 13
-0.725838196782078
 23
0.6878654752872409
 33
0.0
 40
0.0
 40
0.0
 40
0.0
 40
0.0
 40
0.0271269143005231
 40
0.0541651219876576
 40
0.0813877632111977
 40
0.09275576614124
 40
0.09275576614124
 40
0.09275576614124
 40
0.09275576614124
 10
43.2556620305061
 20
29.53484236070872
 30
0.0
 10
43.25051046357761
 20
29.542273688563
 30
0.0
 10
43.23975895939637
 20
29.55679664462218
 30
0.0
 10
43.22224903533262
 20
29.57753938536854
 30
0.0
 10
43.20716879142248
 20
29.59340583546183
 30
0.0
 10
43.19793704312377
 20
29.60236524388455
 30
0.0
 10
43.19518659954119
 20
29.60497179613074
 30
0.0
 11
43.2556620305061
 21
29.53484236070872
 31
0.0
 11
43.23951574721045
 21
29.55664110550813
 31
0.0
 11
43.22209171927866
 21
29.57731681549515
 31
0.0
 11
43.20334338987438
 21
29.59705453604332
 31
0.0
 11
43.19518659954119
 21
29.60497179613074
 31
0.0
  0
SPLINE
  5
469
330
2
100
AcDbEntity
  8
GAIKEI
  6
Continuous
 62
     1
100
AcDbSpline
210
0.0
220
0.0
230
1.0
 70
     8
 71
     3
 72
    11
 73
     7
 74
     5
 42
0.0000000001
 43
0.0000000001
 44
0.000001
 12
0.7261327727615202
 22
0.6875545042552385
 32
0.0
 13
0.5694961259181754
 23
0.8219940161364862
 33
0.0
 40
0.0
 40
0.0
 40
0.0
 40
0.0
 40
0.0216057200346824
 40
0.0445668898279335
 40
0.0685149071729348
 40
0.0928153822368551
 40
0.0928153822368551
 40
0.0928153822368551
 40
0.0928153822368551
 10
43.19514514115835
 20
9.260810701467249
 30
0.0
 10
43.20037468162378
 20
9.265762404843087
 30
0.0
 10
43.21092922853992
 20
9.27622515295161
 30
0.0
 10
43.22638032505804
 20
9.29305545535908
 30
0.0
 10
43.24151572071357
 20
9.311355475912222
 30
0.0
 10
43.2510490217038
 20
9.324321160834188
 30
0.0
 10
43.2556620305061
 20
9.330979442531457
 30
0.0
 11
43.19514514115835
 21
9.260810701467249
 31
0.0
 11
43.21048884944414
 21
9.276021318364342
 31
0.0
 11
43.2260117157476
 21
9.292939584388506
 31
0.0
 11
43.2412634888623
 21
9.311403571476972
 31
0.0
 11
43.2556620305061
 21
9.330979442531457
 31
0.0
  0
SPLINE
  5
46A
330
2
100
AcDbEntity
  8
GAIKEI
  6
Continuous
 62
     1
100
AcDbSpline
210
0.0
220
0.0
230
1.0
 70
     8
 71
     3
 72
    11
 73
     7
 74
     5
 42
0.0000000001
 43
0.0000000001
 44
0.000001
 12
0.7261327727614697
 22
0.6875545042552915
 32
0.0
 13
0.5694961259186093
 23
0.8219940161361854
 33
0.0
 40
0.0
 40
0.0
 40
0.0
 40
0.0
 40
0.0216057200346824
 40
0.0445668898279335
 40
0.0685149071729348
 40
0.0928153822368551
 40
0.0928153822368551
 40
0.0928153822368551
 40
0.0928153822368551
 10
43.19514514115835
 20
28.38812083712813
 30
0.0
 10
43.20037468162378
 20
28.39307254050396
 30
0.0
 10
43.21092922853992
 20
28.40353528861252
 30
0.0
 10
43.22638032505804
 20
28.42036559101993
 30
0.0
 10
43.24151572071357
 20
28.43866561157307
 30
0.0
 10
43.2510490217038
 20
28.45163129649506
 30
0.0
 10
43.2556620305061
 20
28.45828957819234
 30
0.0
 11
43.19514514115835
 21
28.38812083712813
 31
0.0
 11
43.21048884944414
 21
28.40333145402522
 31
0.0
 11
43.2260117157476
 21
28.42024972004939
 31
0.0
 11
43.2412634888623
 21
28.43871370713785
 31
0.0
 11
43.2556620305061
 21
28.45828957819234
 31
0.0
  0
SPLINE
  5
46B
330
2
100
AcDbEntity
  8
GAIKEI
  6
Continuous
 62
     1
100
AcDbSpline
210
0.0
220
0.0
230
1.0
 70
     8
 71
     3
 72
    11
 73
     7
 74
     5
 42
0.0000000001
 43
0.0000000001
 44
0.000001
 12
-0.5697183474043875
 22
0.8218400115781744
 32
0.0
 13
-0.7258381967822672
 23
0.6878654752870411
 33
0.0
 40
0.0
 40
0.0
 40
0.0
 40
0.0
 40
0.0271269143005231
 40
0.0541651219876576
 40
0.0813877632111977
 40
0.09275576614124
 40
0.09275576614124
 40
0.09275576614124
 40
0.09275576614124
 10
43.2556620305061
 20
10.40753222504784
 30
0.0
 10
43.25051046357761
 20
10.41496355290212
 30
0.0
 10
43.23975895939637
 20
10.4294865089613
 30
0.0
 10
43.22224903533262
 20
10.45022924970772
 30
0.0
 10
43.20716879142248
 20
10.46609569980094
 30
0.0
 10
43.19793704312377
 20
10.47505510822367
 30
0.0
 10
43.19518659954119
 20
10.47766166046986
 30
0.0
 11
43.2556620305061
 21
10.40753222504784
 31
0.0
 11
43.23951574721045
 21
10.42933096984725
 31
0.0
 11
43.22209171927866
 21
10.45000667983427
 31
0.0
 11
43.20334338987438
 21
10.46974440038244
 31
0.0
 11
43.19518659954119
 21
10.47766166046986
 31
0.0
  0
SPLINE
  5
46C
330
2
100
AcDbEntity
  8
GAIKEI
  6
Continuous
 62
     1
100
AcDbSpline
210
0.0
220
0.0
230
1.0
 70
     8
 71
     3
 72
    13
 73
     9
 74
     7
 42
0.0000000001
 43
0.0000000001
 44
0.000001
 12
-0.3556040416314752
 22
0.9346367024546811
 32
0.0
 13
-0.4792288571630963
 23
0.8776899808372844
 33
0.0
 40
0.0
 40
0.0
 40
0.0
 40
0.0
 40
0.0009841552556542
 40
0.0341752847052571
 40
0.0724502295558696
 40
0.110709870812993
 40
0.1490911211198894
 40
0.1874325864602258
 40
0.1874325864602258
 40
0.1874325864602258
 40
0.1874325864602258
 10
43.33066203050591
 20
10.23591866291636
 30
0.0
 10
43.33054537397709
 20
10.23622527212399
 30
0.0
 10
43.32649404517307
 20
10.2468722887603
 30
0.0
 10
43.3178416583028
 20
10.26941930786083
 30
0.0
 10
43.30435863110736
 20
10.3034206895706
 30
0.0
 10
43.28947533872955
 20
10.33871972194023
 30
0.0
 10
43.27356089314972
 20
10.37359831438965
 30
0.0
 10
43.26178680937843
 20
10.3963149183879
 30
0.0
 10
43.2556620305061
 20
10.40753222504784
 30
0.0
 11
43.33066203050591
 21
10.23591866291636
 31
0.0
 11
43.33031197223547
 21
10.23683843811832
 31
0.0
 11
43.31839503330323
 21
10.26781581676076
 31
0.0
 11
43.30422945207536
 21
10.3033727312351
 31
0.0
 11
43.28932158023692
 21
10.33860819506529
 31
0.0
 11
43.27326731552446
 21
10.37347124368787
 31
0.0
 11
43.2556620305061
 21
10.40753222504784
 31
0.0
  0
SPLINE
  5
46D
330
2
100
AcDbEntity
  8
GAIKEI
  6
Continuous
 62
     1
100
AcDbSpline
210
0.0
220
0.0
230
1.0
 70
     8
 71
     3
 72
    13
 73
     9
 74
     7
 42
0.0000000001
 43
0.0000000001
 44
0.000001
 12
-0.355604041378737
 22
0.9346367025508412
 32
0.0
 13
-0.479228857163119
 23
0.8776899808372721
 33
0.0
 40
0.0
 40
0.0
 40
0.0
 40
0.0
 40
0.0009841552556062
 40
0.0341752847051327
 40
0.0724502295558032
 40
0.1107098708129845
 40
0.1490911211199224
 40
0.1874325864602336
 40
0.1874325864602336
 40
0.1874325864602336
 40
0.1874325864602336
 10
43.33066203050591
 20
29.36322879857724
 30
0.0
 10
43.33054537397717
 20
29.36353540778487
 30
0.0
 10
43.32649404517652
 20
29.37418242442232
 30
0.0
 10
43.31784165830121
 20
29.39672944352106
 30
0.0
 10
43.30435863110792
 20
29.43073082523156
 30
0.0
 10
43.28947533872955
 20
29.46602985760114
 30
0.0
 10
43.27356089314974
 20
29.50090845005053
 30
0.0
 10
43.26178680937843
 20
29.52362505404878
 30
0.0
 10
43.2556620305061
 20
29.53484236070872
 30
0.0
 11
43.33066203050591
 21
29.36322879857724
 31
0.0
 11
43.3303119722357
 21
29.36414857377921
 31
0.0
 11
43.31839503330323
 21
29.39512595242164
 31
0.0
 11
43.30422945207536
 21
29.43068286689598
 31
0.0
 11
43.28932158023692
 21
29.46591833072617
 31
0.0
 11
43.27326731552446
 21
29.50078137934875
 31
0.0
 11
43.2556620305061
 21
29.53484236070872
 31
0.0
  0
SPLINE
  5
46E
330
2
100
AcDbEntity
  8
GAIKEI
  6
Continuous
 62
     1
100
AcDbSpline
210
0.0
220
0.0
230
1.0
 70
     8
 71
     3
 72
    12
 73
     8
 74
     6
 42
0.0000000001
 43
0.0000000001
 44
0.000001
 12
0.4769591228668367
 22
0.8789254775657024
 32
0.0
 13
0.3555935532617211
 23
0.9346406929289479
 33
0.0
 40
0.0
 40
0.0
 40
0.0
 40
0.0
 40
0.0463485371772527
 40
0.0928814443548106
 40
0.1396449289866037
 40
0.1864441356849522
 40
0.1874282895021245
 40
0.1874282895021245
 40
0.1874282895021245
 40
0.1874282895021245
 10
43.2556620305061
 20
9.330979442531457
 30
0.0
 10
43.26303081638551
 20
9.344558412589123
 30
0.0
 10
43.27715049172709
 20
9.372133279010114
 30
0.0
 10
43.29597462630448
 20
9.414722551453678
 30
0.0
 10
43.31356466332509
 20
9.457984674079
 30
0.0
 10
43.3248806915398
 20
9.487399972834765
 30
0.0
 10
43.33054537758832
 20
9.502286394594392
 30
0.0
 10
43.33066203050591
 20
9.502593004662941
 30
0.0
 11
43.2556620305061
 21
9.330979442531457
 31
0.0
 11
43.27672521430358
 21
9.372265682088055
 31
0.0
 11
43.29572992550774
 21
9.414741378842251
 31
0.0
 11
43.31342306557226
 21
9.458028734368014
 31
0.0
 11
43.33031197219688
 21
9.501673229477461
 31
0.0
 11
43.33066203050591
 21
9.502593004662941
 31
0.0
  0
SPLINE
  5
46F
330
2
100
AcDbEntity
  8
GAIKEI
  6
Continuous
 62
     1
100
AcDbSpline
210
0.0
220
0.0
230
1.0
 70
     8
 71
     3
 72
    12
 73
     8
 74
     6
 42
0.0000000001
 43
0.0000000001
 44
0.000001
 12
0.4769591228667053
 22
0.8789254775657735
 32
0.0
 13
0.3555935529301539
 23
0.9346406930550958
 33
0.0
 40
0.0
 40
0.0
 40
0.0
 40
0.0
 40
0.0463485371772527
 40
0.09288144435473
 40
0.139644928986831
 40
0.1864441356849683
 40
0.1874282895021357
 40
0.1874282895021357
 40
0.1874282895021357
 40
0.1874282895021357
 10
43.2556620305061
 20
28.45828957819234
 30
0.0
 10
43.26303081638551
 20
28.47186854825
 30
0.0
 10
43.27715049172691
 20
28.49944341467111
 30
0.0
 10
43.29597462630516
 20
28.54203268711427
 30
0.0
 10
43.31356466332327
 20
28.58529480974099
 30
0.0
 10
43.32488069154503
 20
28.61471010849292
 30
0.0
 10
43.33054537758842
 20
28.62959653025524
 30
0.0
 10
43.33066203050591
 20
28.62990314032382
 30
0.0
 11
43.2556620305061
 21
28.45828957819234
 31
0.0
 11
43.27672521430358
 21
28.49957581774893
 31
0.0
 11
43.29572992550774
 21
28.54205151450313
 31
0.0
 11
43.31342306557226
 21
28.58533887002901
 31
0.0
 11
43.33031197219717
 21
28.62898336513822
 31
0.0
 11
43.33066203050591
 21
28.62990314032382
 31
0.0
  0
SPLINE
  5
470
330
2
100
AcDbEntity
  8
GAIKEI
  6
Continuous
 62
     1
100
AcDbSpline
210
0.0
220
0.0
230
1.0
 70
     8
 71
     3
 72
    30
 73
    26
 74
    24
 42
0.0000000001
 43
0.0000000001
 44
0.000001
 12
-0.0200236380412519
 22
-0.9997995068610471
 32
0.0
 13
0.6382126117635996
 23
-0.7698601575519316
 33
0.0
 40
0.0
 40
0.0
 40
0.0
 40
0.0
 40
0.016606923821622
 40
0.0373010785549166
 40
0.062161223043328
 40
0.0912321347745232
 40
0.1271247647504396
 40
0.1661149835442321
 40
0.1996843709300213
 40
0.2075830122509619
 40
0.2151115874076531
 40
0.2222706400800026
 40
0.2290608027015173
 40
0.2354828166742121
 40
0.2415375586176954
 40
0.2695382121071211
 40
0.2966935088714128
 40
0.3230613834755171
 40
0.3487051081642308
 40
0.37369345664966
 40
0.3981007431757767
 40
0.4408164956220404
 40
0.4807239607646424
 40
0.5184525715331308
 40
0.5547443344004151
 40
0.5547443344004151
 40
0.5547443344004151
 40
0.5547443344004151
 10
44.82141337233147
 20
6.960165704608726
 30
0.0
 10
44.82130252865428
 20
6.95463117319295
 30
0.0
 10
44.82067410629048
 20
6.942199011782122
 30
0.0
 10
44.81780774030636
 20
6.921659557574741
 30
0.0
 10
44.81332003729585
 20
6.897189956008105
 30
0.0
 10
44.80686243433715
 20
6.86794673145394
 30
0.0
 10
44.79847312986232
 20
6.834325545710328
 30
0.0
 10
44.79039057568885
 20
6.799087699556196
 30
0.0
 10
44.78486892932392
 20
6.772840079780223
 30
0.0
 10
44.78180729138663
 20
6.75679723028702
 30
0.0
 10
44.78045570075386
 20
6.749390702082251
 30
0.0
 10
44.77923292403389
 20
6.742336521296039
 30
0.0
 10
44.77813973652334
 20
6.735634581031632
 30
0.0
 10
44.77717338964199
 20
6.729285199524213
 30
0.0
 10
44.77532333601948
 20
6.715919983113906
 30
0.0
 10
44.77308931571562
 20
6.695631412198338
 30
0.0
 10
44.77129457561036
 20
6.668507230628847
 30
0.0
 10
44.77081412417397
 20
6.642111716280453
 30
0.0
 10
44.77163943581344
 20
6.616447314839888
 30
0.0
 10
44.77376944977424
 20
6.591511432525976
 30
0.0
 10
44.77810620993646
 20
6.561103007067259
 30
0.0
 10
44.78590746820644
 20
6.526211491766247
 30
0.0
 10
44.79922187404217
 20
6.488260871764992
 30
0.0
 10
44.81647465048496
 20
6.454285270278887
 30
0.0
 10
44.83093358195162
 20
6.434161848008983
 30
0.0
 10
44.83865420220664
 20
6.424848653916029
 30
0.0
 11
44.82141337233147
 21
6.960165704608726
 31
0.0
 11
44.82052562607694
 21
6.943582723016362
 31
0.0
 11
44.81786703749557
 21
6.923060086336732
 31
0.0
 11
44.81343760658742
 21
6.898597794570065
 31
0.0
 11
44.80723733335255
 21
6.870195847716246
 31
0.0
 11
44.79882847934871
 21
6.835302194436422
 31
0.0
 11
44.79010932782185
 21
6.79729945847842
 31
0.0
 11
44.78327327452612
 21
6.764433540234705
 31
0.0
 11
44.78179406053053
 21
6.756674655957596
 31
0.0
 11
44.78044401597142
 21
6.749268127090459
 31
0.0
 11
44.7792231408487
 21
6.742213953633523
 31
0.0
 11
44.77813143516257
 21
6.735512135586674
 31
0.0
 11
44.77716889891289
 21
6.729162672949911
 31
0.0
 11
44.77633553209969
 21
6.723165565723348
 31
0.0
 11
44.77326358628537
 21
6.695333974273722
 31
0.0
 11
44.77149622787502
 21
6.668236287965925
 31
0.0
 11
44.77103345686876
 21
6.641872506799842
 31
0.0
 11
44.77187527326648
 21
6.616242630775587
 31
0.0
 11
44.7740216770683
 21
6.591346659893162
 31
0.0
 11
44.77747266827409
 21
6.56718459415245
 31
0.0
 11
44.78694507455853
 21
6.525532370302499
 31
0.0
 11
44.8002994656421
 21
6.487925638979874
 31
0.0
 11
44.8175358415248
 21
6.454364400184346
 31
0.0
 11
44.83865420220664
 21
6.424848653916029
 31
0.0
  0
SPLINE
  5
471
330
2
100
AcDbEntity
  8
GAIKEI
  6
Continuous
 62
     1
100
AcDbSpline
210
0.0
220
0.0
230
1.0
 70
     8
 71
     3
 72
    27
 73
    23
 74
    21
 42
0.0000000001
 43
0.0000000001
 44
0.000001
 12
-0.3587289631765114
 22
-0.9334417662491352
 32
0.0
 13
-0.3043867708718783
 23
-0.952548525650106
 33
0.0
 40
0.0
 40
0.0
 40
0.0
 40
0.0
 40
0.000052765316051
 40
0.0137452944832241
 40
0.0277848726959967
 40
0.0420904151999906
 40
0.0621802894338646
 40
0.0825042457509836
 40
0.1029273041856878
 40
0.120440706794733
 40
0.1390172120262889
 40
0.1586623151565132
 40
0.1727209773580527
 40
0.1881397105005395
 40
0.2049363464391857
 40
0.2220007426194276
 40
0.2384281114962712
 40
0.2550330349711858
 40
0.2718074234064913
 40
0.3201416250121446
 40
0.3656184092027507
 40
0.4082186707019203
 40
0.4082186707019203
 40
0.4082186707019203
 40
0.4082186707019203
 10
44.90013569955229
 20
30.08683980133665
 30
0.0
 10
44.90012939006992
 20
30.0868233835534
 30
0.0
 10
44.89848611624856
 20
30.08254644313846
 30
0.0
 10
44.89520520844607
 20
30.07388520822625
 30
0.0
 10
44.89039744111001
 20
30.06072284773174
 30
0.0
 10
44.88506927781716
 20
30.04548177508059
 30
0.0
 10
44.87944022042379
 20
30.02812927410417
 30
0.0
 10
44.87383005325681
 20
30.00863753227207
 30
0.0
 10
44.86915610288394
 20
29.98978243224394
 30
0.0
 10
44.86536039768921
 20
29.97132718876134
 30
0.0
 10
44.86221488653103
 20
29.95301418081235
 30
0.0
 10
44.8597643038131
 20
29.9357581659427
 30
0.0
 10
44.85782610482388
 20
29.91949849227476
 30
0.0
 10
44.85620801450934
 20
29.90415858763487
 30
0.0
 10
44.85464000330766
 20
29.88780680938712
 30
0.0
 10
44.85316206686208
 20
29.87110924208958
 30
0.0
 10
44.85162057635159
 20
29.85448162519919
 30
0.0
 10
44.85002508829521
 20
29.83795610806073
 30
0.0
 10
44.84744546017803
 20
29.81084144062112
 30
0.0
 10
44.84272948419794
 20
29.77425573361847
 30
0.0
 10
44.83370168471572
 20
29.7296484163509
 30
0.0
 10
44.82573569101015
 20
29.70136019027345
 30
0.0
 10
44.82141337233147
 20
29.687833918179
 30
0.0
 11
44.90013569955229
 21
30.08683980133665
 31
0.0
 11
44.90011677193834
 21
30.08679054727455
 31
0.0
 11
44.89527031854371
 21
30.07398422513964
 31
0.0
 11
44.89045720649918
 21
30.06079544626997
 31
0.0
 11
44.88574706054928
 21
30.04728755003956
 31
0.0
 11
44.87956972165593
 21
30.02817095914989
 31
0.0
 11
44.87395976327187
 21
30.0086365751371
 31
0.0
 11
44.8690652750412
 21
29.98880866826246
 31
0.0
 11
44.8655219861744
 21
29.97165743566157
 31
0.0
 11
44.86236054124245
 21
29.95335191297514
 31
0.0
 11
44.85958638655191
 21
29.93390366504016
 31
0.0
 11
44.85790887227895
 21
29.91994544415823
 31
0.0
 11
44.85627844137107
 21
29.90461316138434
 31
0.0
 11
44.85466777192008
 21
29.88789394015444
 31
0.0
 11
44.85313034757965
 21
29.87089896211754
 31
0.0
 11
44.85161473392949
 21
29.85454168729544
 31
0.0
 11
44.85003337648012
 21
29.83801227844415
 31
0.0
 11
44.84839295327825
 21
29.8213183778619
 31
0.0
 11
44.84202181663007
 21
29.77340674621556
 31
0.0
 11
44.83294256214494
 21
29.72884495242809
 31
0.0
 11
44.82141337233147
 21
29.687833918179
 31
0.0
  0
SPLINE
  5
472
330
2
100
AcDbEntity
  8
GAIKEI
  6
Continuous
 62
     1
100
AcDbSpline
210
0.0
220
0.0
230
1.0
 70
     8
 71
     3
 72
    23
 73
    19
 74
    17
 42
0.0000000001
 43
0.0000000001
 44
0.000001
 12
0.1037512493360999
 22
-0.9946032768200588
 32
0.0
 13
-0.9066396789115103
 23
-0.4219057864301387
 33
0.0
 40
0.0
 40
0.0
 40
0.0
 40
0.0
 40
0.06070261108013
 40
0.1185986751946899
 40
0.1736064872697767
 40
0.2256490779792203
 40
0.2746574152566821
 40
0.3205734925395332
 40
0.3633544662869462
 40
0.4029783719659
 40
0.4389238356325391
 40
0.472113962282652
 40
0.5025974616641785
 40
0.5304770080022387
 40
0.5559339520156263
 40
0.5792613998137482
 40
0.6009024388063949
 40
0.6214788907307601
 40
0.6214788907307601
 40
0.6214788907307601
 40
0.6214788907307601
 10
45.23096693761433
 20
31.09545194172509
 30
0.0
 10
45.23306626152684
 20
31.07532693642781
 30
0.0
 10
45.23667426198578
 20
31.0359545229029
 30
0.0
 10
45.24061637242835
 20
30.97821472435268
 30
0.0
 10
45.24292770143299
 20
30.92327426375357
 30
0.0
 10
45.24364195989133
 20
30.87125194884539
 30
0.0
 10
45.24276892977499
 20
30.8222616245042
 30
0.0
 10
45.24031788155646
 20
30.77641424735882
 30
0.0
 10
45.23629078746391
 20
30.73381692022798
 30
0.0
 10
45.23071170023456
 20
30.69474534318556
 30
0.0
 10
45.22357572530268
 20
30.65917936634082
 30
0.0
 10
45.21494347018448
 20
30.62708667683955
 30
0.0
 10
45.20477594489721
 20
30.59827476162539
 30
0.0
 10
45.19307870941844
 20
30.5728500251519
 30
0.0
 10
45.17984665852899
 20
30.55091037400667
 30
0.0
 10
45.16503379929406
 20
30.53259168153414
 30
0.0
 10
45.1486359891341
 20
30.51796440611065
 30
0.0
 10
45.13635618040588
 20
30.51087844618405
 30
0.0
 10
45.13013770448393
 20
30.50798467147368
 30
0.0
 11
45.23096693761433
 21
31.09545194172509
 31
0.0
 11
45.23651932539931
 21
31.03500463838614
 31
0.0
 11
45.24042322003859
 21
30.97724035379386
 31
0.0
 11
45.24270194946237
 21
30.92227977023507
 31
0.0
 11
45.24337337942123
 21
30.87024152103552
 31
0.0
 11
45.24244993787888
 21
30.82124189595609
 31
0.0
 11
45.23993865409297
 21
30.77539455807678
 31
0.0
 11
45.23584121197226
 21
30.73281027274575
 31
0.0
 11
45.23015401726965
 21
30.69359664911715
 31
0.0
 11
45.22300124917913
 21
30.65837005744757
 31
0.0
 11
45.21428630655774
 21
30.6263445582139
 31
0.0
 11
45.20403265797577
 21
30.59763733770697
 31
0.0
 11
45.19225870388877
 21
30.57236599256047
 31
0.0
 11
45.17897754389517
 21
30.55064816245331
 31
0.0
 11
45.16419675362508
 21
30.53260114757225
 31
0.0
 11
45.14791817260752
 21
30.51834151164693
 31
0.0
 11
45.13013770448393
 21
30.50798467147368
 31
0.0
  0
SPLINE
  5
473
330
2
100
AcDbEntity
  8
GAIKEI
  6
Continuous
 62
     1
100
AcDbSpline
210
0.0
220
0.0
230
1.0
 70
     8
 71
     3
 72
    13
 73
     9
 74
     7
 42
0.0000000001
 43
0.0000000001
 44
0.000001
 12
-0.9958439311814659
 22
-0.091076147969947
 32
0.0
 13
-0.9929680145434634
 23
-0.1183829468023682
 33
0.0
 40
0.0
 40
0.0
 40
0.0
 40
0.0
 40
0.279084967055747
 40
0.4824077539591936
 40
0.6857426128006065
 40
0.8891214813044726
 40
1.092568902581011
 40
1.132064281388675
 40
1.132064281388675
 40
1.132064281388675
 40
1.132064281388675
 10
45.01221558582787
 20
2.836608277402575
 30
0.0
 10
44.91957389558573
 20
2.82813561615066
 30
0.0
 10
44.75947859905741
 20
2.813060828880253
 30
0.0
 10
44.53199932102029
 20
2.790641367671298
 30
0.0
 10
44.32972586312172
 20
2.769780435321337
 30
0.0
 10
44.12751965430504
 20
2.747886994632466
 30
0.0
 10
43.97970770368476
 20
2.730985338161985
 30
0.0
 10
43.8992901835505
 20
2.72144930574467
 30
0.0
 10
43.88621763425774
 20
2.719890779301891
 30
0.0
 11
45.01221558582787
 21
2.836608277402575
 31
0.0
 11
44.73435839469314
 21
2.810459092465322
 31
0.0
 11
44.53201881544046
 21
2.790488030914872
 31
0.0
 11
44.32975870447498
 21
2.769609641232051
 31
0.0
 11
44.12756491514469
 21
2.747686409781891
 31
0.0
 11
43.92543839788189
 21
2.7245408793448
 31
0.0
 11
43.88621763425774
 21
2.719890779301891
 31
0.0
  0
SPLINE
  5
474
330
2
100
AcDbEntity
  8
GAIKEI
  6
Continuous
 62
     1
100
AcDbSpline
210
0.0
220
0.0
230
1.0
 70
     8
 71
     3
 72
    15
 73
    11
 74
     9
 42
0.0000000001
 43
0.0000000001
 44
0.000001
 12
0.1151974769613444
 22
0.9933426102316062
 32
0.0
 13
-0.8415501913672637
 23
0.5401789290686209
 33
0.0
 40
0.0
 40
0.0
 40
0.0
 40
0.0
 40
0.0394084963478186
 40
0.0771399072617108
 40
0.1117967484186215
 40
0.1420880407746224
 40
0.1668916500996185
 40
0.1853241616436613
 40
0.196879107761351
 40
0.2022733320264348
 40
0.2022733320264348
 40
0.2022733320264348
 40
0.2022733320264348
 10
41.11970636248307
 20
37.05896445174054
 30
0.0
 10
41.12121961559977
 20
37.07201316461635
 30
0.0
 10
41.12383086984483
 20
37.09759985803035
 30
0.0
 10
41.12658373811919
 20
37.13475827119396
 30
0.0
 10
41.12829373809373
 20
37.16897517289792
 30
0.0
 10
41.12879525602894
 20
37.19880806986012
 30
0.0
 10
41.12869987691996
 20
37.2235503815283
 30
0.0
 10
41.12658903965746
 20
37.24123252015516
 30
0.0
 10
41.12578407604185
 20
37.25391181816349
 30
0.0
 10
41.12121953263719
 20
37.25771907659589
 30
0.0
 10
41.11970636248301
 20
37.25869035869144
 30
0.0
 11
41.11970636248307
 21
37.05896445174054
 31
0.0
 11
41.12370103111769
 21
37.09816934383119
 31
0.0
 11
41.126501856163
 21
37.13579665209662
 31
0.0
 11
41.12816096150814
 21
37.17041374867088
 31
0.0
 11
41.1287104300234
 21
37.20070004248331
 31
0.0
 11
41.12816107682633
 21
37.22549754159721
 31
0.0
 11
41.12650203713909
 21
37.2438551826954
 31
0.0
 11
41.12370118439836
 21
37.25506523110463
 31
0.0
 11
41.11970636248301
 21
37.25869035869144
 31
0.0
  0
SPLINE
  5
475
330
2
100
AcDbEntity
  8
GAIKEI
  6
Continuous
 62
     1
100
AcDbSpline
210
0.0
220
0.0
230
1.0
 70
     8
 71
     3
 72
    11
 73
     7
 74
     5
 42
0.0000000001
 43
0.0000000001
 44
0.000001
 12
-0.9272724310398604
 22
-0.3743872842838379
 32
0.0
 13
-0.8850743362206914
 23
-0.465449695846396
 33
0.0
 40
0.0
 40
0.0
 40
0.0
 40
0.0
 40
0.0143995265551268
 40
0.0364303848129772
 40
0.054352588973912
 40
0.0655662738736491
 40
0.0655662738736491
 40
0.0655662738736491
 40
0.0655662738736491
 10
41.11970636248307
 20
37.05896445174054
 30
0.0
 10
41.11525560115154
 20
37.0571674518599
 30
0.0
 10
41.10411786484513
 20
37.05230312855781
 30
0.0
 10
41.08817408068683
 20
37.04365172099989
 30
0.0
 10
41.07361795270018
 20
37.03475875107779
 30
0.0
 10
41.06505645269694
 20
37.03016653262475
 30
0.0
 10
41.06174813779055
 20
37.02842673054945
 30
0.0
 11
41.11970636248307
 21
37.05896445174054
 31
0.0
 11
41.10652090827969
 21
37.05317694506656
 31
0.0
 11
41.08707583468119
 21
37.04282079192367
 31
0.0
 11
41.07160654209283
 21
37.03377030897676
 31
0.0
 11
41.06174813779055
 21
37.02842673054945
 31
0.0
  0
SPLINE
  5
476
330
2
100
AcDbEntity
  8
GAIKEI
  6
Continuous
 62
     1
100
AcDbSpline
210
0.0
220
0.0
230
1.0
 70
     8
 71
     3
 72
    19
 73
    15
 74
    13
 42
0.0000000001
 43
0.0000000001
 44
0.000001
 12
-0.4537847692220346
 22
-0.891111319208832
 32
0.0
 13
0.0558661521317871
 23
-0.9984382670180407
 33
0.0
 40
0.0
 40
0.0
 40
0.0
 40
0.0
 40
0.0058433329848989
 40
0.0115431011623589
 40
0.0191493870676808
 40
0.0323458963040312
 40
0.0491681393602182
 40
0.0697806678864571
 40
0.0924149932146331
 40
0.1149878612986715
 40
0.1372182372400615
 40
0.153517971264874
 40
0.1694067174933785
 40
0.1997454480061722
 40
0.1997454480061722
 40
0.1997454480061722
 40
0.1997454480061722
 10
41.06174813779055
 20
37.22616580168543
 30
0.0
 10
41.06086426595386
 20
37.22443011496384
 30
0.0
 10
41.05927107403317
 20
37.22091677492301
 30
0.0
 10
41.05732480106361
 20
37.21483054856918
 30
0.0
 10
41.05503215136498
 20
37.20629661024736
 30
0.0
 10
41.05265872342696
 20
37.193966186111
 30
0.0
 10
41.0507255303896
 20
37.1771848420525
 30
0.0
 10
41.05000150180564
 20
37.15715235842643
 30
0.0
 10
41.05087287848621
 20
37.13521385820451
 30
0.0
 10
41.05291664060334
 20
37.11282270991936
 30
0.0
 10
41.05532801828416
 20
37.09259754653513
 30
0.0
 10
41.05755353117396
 20
37.07459521470992
 30
0.0
 10
41.05999652079709
 20
37.0538956254598
 30
0.0
 10
41.06118316841244
 20
37.0385238470549
 30
0.0
 10
41.06174813779055
 20
37.02842673054934
 30
0.0
 11
41.06174813779055
 21
37.22616580168543
 31
0.0
 11
41.05935967190354
 21
37.22083264101869
 31
0.0
 11
41.05755634262417
 21
37.21542574317371
 31
0.0
 11
41.05558172417395
 21
37.20808023714793
 31
0.0
 11
41.05303270448885
 21
37.19513222870276
 31
0.0
 11
41.05106856512984
 21
37.1784250126706
 31
0.0
 11
41.05027512500103
 21
37.15782773032837
 31
0.0
 11
41.05106786847963
 21
37.13520727897154
 31
0.0
 11
41.05303193765954
 21
37.1127200225765
 31
0.0
 11
41.05558121122496
 21
37.09063631744837
 31
0.0
 11
41.05755608191921
 21
37.07445669550614
 31
0.0
 11
41.05935962202724
 21
37.05867071237392
 31
0.0
 11
41.06174813779055
 21
37.02842673054934
 31
0.0
  0
LINE
  5
477
330
2
100
AcDbEntity
  8
S1
  6
Continuous
 62
     3
100
AcDbLine
 10
46.13859845321042
 20
8.492721051761009
 30
0.0
 11
46.13495220321041
 21
8.423146301761022
 31
0.0
  0
LINE
  5
478
330
2
100
AcDbEntity
  8
S1
  6
Continuous
 62
     3
100
AcDbLine
 10
45.68859845321043
 20
8.492721051761009
 30
0.0
 11
45.69224470321043
 21
8.423146301761022
 31
0.0
  0
LINE
  5
479
330
2
100
AcDbEntity
  8
S1
  6
Continuous
 62
     3
100
AcDbLine
 10
46.13859845321042
 20
8.492721051761009
 30
0.0
 11
45.68859845321043
 21
8.492721051761009
 31
0.0
  0
ARC
  5
47A
330
2
100
AcDbEntity
  8
S1
  6
Continuous
 62
     3
100
AcDbCircle
 10
46.05506170321044
 20
8.427333051761024
 30
0.0
 40
0.08
100
AcDbArc
 50
285.7859900000006
 51
356.9999999999944
  0
ARC
  5
47B
330
2
100
AcDbEntity
  8
S1
  6
Continuous
 62
     3
100
AcDbCircle
 10
45.77213495321044
 20
8.427333051761024
 30
0.0
 40
0.08
100
AcDbArc
 50
183.0000000000056
 51
254.2140099999993
  0
ARC
  5
47C
330
2
100
AcDbEntity
  8
S1
  6
Continuous
 62
     3
100
AcDbCircle
 10
45.91359845321043
 20
8.927721051761011
 30
0.0
 40
0.6000000000000001
100
AcDbArc
 50
254.2140099999993
 51
285.7859900000006
  0
LINE
  5
47D
330
2
100
AcDbEntity
  8
S1
  6
Continuous
 62
     3
100
AcDbLine
 10
46.02609845321043
 20
8.737721051761013
 30
0.0
 11
46.03859845321042
 21
8.762721051761019
 31
0.0
  0
LINE
  5
47E
330
2
100
AcDbEntity
  8
S1
  6
Continuous
 62
     3
100
AcDbLine
 10
46.03859845321042
 20
8.762721051761019
 30
0.0
 11
46.03859845321042
 21
8.992721051761009
 31
0.0
  0
LINE
  5
47F
330
2
100
AcDbEntity
  8
S1
  6
Continuous
 62
     3
100
AcDbLine
 10
45.80109845321041
 20
8.737721051761013
 30
0.0
 11
45.78859845321042
 21
8.762721051761019
 31
0.0
  0
LINE
  5
480
330
2
100
AcDbEntity
  8
S1
  6
Continuous
 62
     3
100
AcDbLine
 10
45.78859845321042
 20
8.762721051761019
 30
0.0
 11
45.78859845321042
 21
8.992721051761009
 31
0.0
  0
LINE
  5
481
330
2
100
AcDbEntity
  8
S1
  6
Continuous
 62
     3
100
AcDbLine
 10
46.03859845321042
 20
8.762721051761019
 30
0.0
 11
45.78859845321042
 21
8.762721051761019
 31
0.0
  0
LINE
  5
482
330
2
100
AcDbEntity
  8
S1
  6
Continuous
 62
     3
100
AcDbLine
 10
46.03859845321042
 20
8.992721051761009
 30
0.0
 11
45.78859845321042
 21
8.992721051761009
 31
0.0
  0
LINE
  5
483
330
2
100
AcDbEntity
  8
S1
  6
Continuous
 62
     3
100
AcDbLine
 10
46.01359845321042
 20
8.762721051761019
 30
0.0
 11
46.01359845321042
 21
8.992721051761009
 31
0.0
  0
LINE
  5
484
330
2
100
AcDbEntity
  8
S1
  6
Continuous
 62
     3
100
AcDbLine
 10
45.81359845321043
 20
8.762721051761019
 30
0.0
 11
45.81359845321043
 21
8.992721051761009
 31
0.0
  0
LINE
  5
485
330
2
100
AcDbEntity
  8
S1
  6
Continuous
 62
     3
100
AcDbLine
 10
45.80109845321041
 20
8.737721051761013
 30
0.0
 11
45.80109845321041
 21
8.607721051761018
 31
0.0
  0
LINE
  5
486
330
2
100
AcDbEntity
  8
S1
  6
Continuous
 62
     3
100
AcDbLine
 10
45.81359845321043
 20
8.762721051761019
 30
0.0
 11
45.80109845321041
 21
8.737721051761013
 31
0.0
  0
LINE
  5
487
330
2
100
AcDbEntity
  8
S1
  6
Continuous
 62
     3
100
AcDbLine
 10
46.01359845321042
 20
8.762721051761019
 30
0.0
 11
46.02609845321043
 21
8.737721051761013
 31
0.0
  0
LINE
  5
488
330
2
100
AcDbEntity
  8
S1
  6
Continuous
 62
     3
100
AcDbLine
 10
46.02609845321043
 20
8.737721051761013
 30
0.0
 11
46.02609845321043
 21
8.607721051761018
 31
0.0
  0
LINE
  5
489
330
2
100
AcDbEntity
  8
S1
  6
Continuous
 62
     3
100
AcDbLine
 10
46.16359845321042
 20
8.557721051761006
 30
0.0
 11
46.16359845321042
 21
8.607721051761018
 31
0.0
  0
LINE
  5
48A
330
2
100
AcDbEntity
  8
S1
  6
Continuous
 62
     3
100
AcDbLine
 10
46.16359845321042
 20
8.607721051761018
 30
0.0
 11
45.66359845321042
 21
8.607721051761018
 31
0.0
  0
LINE
  5
48B
330
2
100
AcDbEntity
  8
S1
  6
Continuous
 62
     3
100
AcDbLine
 10
45.66359845321042
 20
8.607721051761018
 30
0.0
 11
45.66359845321042
 21
8.557721051761006
 31
0.0
  0
LINE
  5
48C
330
2
100
AcDbEntity
  8
S1
  6
Continuous
 62
     3
100
AcDbLine
 10
45.66359845321042
 20
8.557721051761006
 30
0.0
 11
46.16359845321042
 21
8.557721051761006
 31
0.0
  0
LINE
  5
48D
330
2
100
AcDbEntity
  8
S1
  6
Continuous
 62
     3
100
AcDbLine
 10
46.14359845321044
 20
8.492721051761009
 30
0.0
 11
46.14359845321044
 21
8.557721051761006
 31
0.0
  0
LINE
  5
48E
330
2
100
AcDbEntity
  8
S1
  6
Continuous
 62
     3
100
AcDbLine
 10
46.14359845321044
 20
8.557721051761006
 30
0.0
 11
45.6835984532104
 21
8.557721051761006
 31
0.0
  0
LINE
  5
48F
330
2
100
AcDbEntity
  8
S1
  6
Continuous
 62
     3
100
AcDbLine
 10
45.6835984532104
 20
8.557721051761006
 30
0.0
 11
45.6835984532104
 21
8.492721051761009
 31
0.0
  0
LINE
  5
490
330
2
100
AcDbEntity
  8
S1
  6
Continuous
 62
     3
100
AcDbLine
 10
45.95112620321041
 20
8.492721051761009
 30
0.0
 11
45.91359845321043
 21
8.557721051761006
 31
0.0
  0
LINE
  5
491
330
2
100
AcDbEntity
  8
S1
  6
Continuous
 62
     3
100
AcDbLine
 10
45.91359845321043
 20
8.492721051761009
 30
0.0
 11
45.87607070321044
 21
8.557721051761006
 31
0.0
  0
LINE
  5
492
330
2
100
AcDbEntity
  8
S1
  6
Continuous
 62
     3
100
AcDbLine
 10
45.6835984532104
 20
8.492721051761009
 30
0.0
 11
46.14359845321044
 21
8.492721051761009
 31
0.0
  0
LINE
  5
493
330
2
100
AcDbEntity
  8
S1
  6
Continuous
 62
     3
100
AcDbLine
 10
45.68859845321043
 20
28.67272105176102
 30
0.0
 11
45.69224470321043
 21
28.742295801761
 31
0.0
  0
LINE
  5
494
330
2
100
AcDbEntity
  8
S1
  6
Continuous
 62
     3
100
AcDbLine
 10
46.13859845321042
 20
28.67272105176102
 30
0.0
 11
46.13495220321041
 21
28.742295801761
 31
0.0
  0
LINE
  5
495
330
2
100
AcDbEntity
  8
S1
  6
Continuous
 62
     3
100
AcDbLine
 10
45.68859845321043
 20
28.67272105176102
 30
0.0
 11
46.13859845321042
 21
28.67272105176102
 31
0.0
  0
ARC
  5
496
330
2
100
AcDbEntity
  8
S1
  6
Continuous
 62
     3
100
AcDbCircle
 10
45.7721352032104
 20
28.738109051761
 30
0.0
 40
0.08
100
AcDbArc
 50
105.7859900000006
 51
176.9999999999944
  0
ARC
  5
497
330
2
100
AcDbEntity
  8
S1
  6
Continuous
 62
     3
100
AcDbCircle
 10
46.05506195321041
 20
28.738109051761
 30
0.0
 40
0.08
100
AcDbArc
 50
3.000000000005599
 51
74.21400999999938
  0
ARC
  5
498
330
2
100
AcDbEntity
  8
S1
  6
Continuous
 62
     3
100
AcDbCircle
 10
45.91359845321043
 20
28.23772105176102
 30
0.0
 40
0.6000000000000001
100
AcDbArc
 50
74.21400999999938
 51
105.7859900000006
  0
LINE
  5
499
330
2
100
AcDbEntity
  8
S1
  6
Continuous
 62
     3
100
AcDbLine
 10
45.80109845321041
 20
28.42772105176101
 30
0.0
 11
45.78859845321042
 21
28.40272105176101
 31
0.0
  0
LINE
  5
49A
330
2
100
AcDbEntity
  8
S1
  6
Continuous
 62
     3
100
AcDbLine
 10
45.78859845321042
 20
28.40272105176101
 30
0.0
 11
45.78859845321042
 21
28.17272105176101
 31
0.0
  0
LINE
  5
49B
330
2
100
AcDbEntity
  8
S1
  6
Continuous
 62
     3
100
AcDbLine
 10
46.02609845321043
 20
28.42772105176101
 30
0.0
 11
46.03859845321042
 21
28.40272105176101
 31
0.0
  0
LINE
  5
49C
330
2
100
AcDbEntity
  8
S1
  6
Continuous
 62
     3
100
AcDbLine
 10
46.03859845321042
 20
28.40272105176101
 30
0.0
 11
46.03859845321042
 21
28.17272105176101
 31
0.0
  0
LINE
  5
49D
330
2
100
AcDbEntity
  8
S1
  6
Continuous
 62
     3
100
AcDbLine
 10
45.78859845321042
 20
28.40272105176101
 30
0.0
 11
46.03859845321042
 21
28.40272105176101
 31
0.0
  0
LINE
  5
49E
330
2
100
AcDbEntity
  8
S1
  6
Continuous
 62
     3
100
AcDbLine
 10
45.78859845321042
 20
28.17272105176101
 30
0.0
 11
46.03859845321042
 21
28.17272105176101
 31
0.0
  0
LINE
  5
49F
330
2
100
AcDbEntity
  8
S1
  6
Continuous
 62
     3
100
AcDbLine
 10
45.81359845321043
 20
28.40272105176101
 30
0.0
 11
45.81359845321043
 21
28.17272105176101
 31
0.0
  0
LINE
  5
4A0
330
2
100
AcDbEntity
  8
S1
  6
Continuous
 62
     3
100
AcDbLine
 10
46.01359845321042
 20
28.40272105176101
 30
0.0
 11
46.01359845321042
 21
28.17272105176101
 31
0.0
  0
LINE
  5
4A1
330
2
100
AcDbEntity
  8
S1
  6
Continuous
 62
     3
100
AcDbLine
 10
46.02609845321043
 20
28.42772105176101
 30
0.0
 11
46.02609845321043
 21
28.55772105176101
 31
0.0
  0
LINE
  5
4A2
330
2
100
AcDbEntity
  8
S1
  6
Continuous
 62
     3
100
AcDbLine
 10
46.01359845321042
 20
28.40272105176101
 30
0.0
 11
46.02609845321043
 21
28.42772105176101
 31
0.0
  0
LINE
  5
4A3
330
2
100
AcDbEntity
  8
S1
  6
Continuous
 62
     3
100
AcDbLine
 10
45.81359845321043
 20
28.40272105176101
 30
0.0
 11
45.80109845321041
 21
28.42772105176101
 31
0.0
  0
LINE
  5
4A4
330
2
100
AcDbEntity
  8
S1
  6
Continuous
 62
     3
100
AcDbLine
 10
45.80109845321041
 20
28.42772105176101
 30
0.0
 11
45.80109845321041
 21
28.55772105176101
 31
0.0
  0
LINE
  5
4A5
330
2
100
AcDbEntity
  8
S1
  6
Continuous
 62
     3
100
AcDbLine
 10
45.66359845321042
 20
28.60772105176102
 30
0.0
 11
45.66359845321042
 21
28.55772105176101
 31
0.0
  0
LINE
  5
4A6
330
2
100
AcDbEntity
  8
S1
  6
Continuous
 62
     3
100
AcDbLine
 10
45.66359845321042
 20
28.55772105176101
 30
0.0
 11
46.16359845321042
 21
28.55772105176101
 31
0.0
  0
LINE
  5
4A7
330
2
100
AcDbEntity
  8
S1
  6
Continuous
 62
     3
100
AcDbLine
 10
46.16359845321042
 20
28.55772105176101
 30
0.0
 11
46.16359845321042
 21
28.60772105176102
 31
0.0
  0
LINE
  5
4A8
330
2
100
AcDbEntity
  8
S1
  6
Continuous
 62
     3
100
AcDbLine
 10
46.16359845321042
 20
28.60772105176102
 30
0.0
 11
45.66359845321042
 21
28.60772105176102
 31
0.0
  0
LINE
  5
4A9
330
2
100
AcDbEntity
  8
S1
  6
Continuous
 62
     3
100
AcDbLine
 10
45.6835984532104
 20
28.67272105176102
 30
0.0
 11
45.6835984532104
 21
28.60772105176102
 31
0.0
  0
LINE
  5
4AA
330
2
100
AcDbEntity
  8
S1
  6
Continuous
 62
     3
100
AcDbLine
 10
45.6835984532104
 20
28.60772105176102
 30
0.0
 11
46.14359845321044
 21
28.60772105176102
 31
0.0
  0
LINE
  5
4AB
330
2
100
AcDbEntity
  8
S1
  6
Continuous
 62
     3
100
AcDbLine
 10
46.14359845321044
 20
28.60772105176102
 30
0.0
 11
46.14359845321044
 21
28.67272105176102
 31
0.0
  0
LINE
  5
4AC
330
2
100
AcDbEntity
  8
S1
  6
Continuous
 62
     3
100
AcDbLine
 10
45.87607070321044
 20
28.67272105176102
 30
0.0
 11
45.91359845321043
 21
28.60772105176102
 31
0.0
  0
LINE
  5
4AD
330
2
100
AcDbEntity
  8
S1
  6
Continuous
 62
     3
100
AcDbLine
 10
45.91359845321043
 20
28.67272105176102
 30
0.0
 11
45.95112620321041
 21
28.60772105176102
 31
0.0
  0
LINE
  5
4AE
330
2
100
AcDbEntity
  8
S1
  6
Continuous
 62
     3
100
AcDbLine
 10
46.14359845321044
 20
28.67272105176102
 30
0.0
 11
45.6835984532104
 21
28.67272105176102
 31
0.0
  0
POINT
  5
4AF
330
2
100
AcDbEntity
  8
S1
  6
Continuous
 62
     3
100
AcDbPoint
 10
45.41359845321042
 20
28.37772105176103
 30
0.0
  0
LINE
  5
4B0
330
2
100
AcDbEntity
  8
S1
  6
DASHED
 62
     3
100
AcDbLine
 10
46.16359845321042
 20
30.60772105176102
 30
0.0
 11
46.16359845321042
 21
30.70772105176101
 31
0.0
  0
LINE
  5
4B2
330
2
100
AcDbEntity
  8
S1
  6
DASHED
 62
     3
100
AcDbLine
 10
46.21359845321044
 20
28.95772105176101
 30
0.0
 11
46.3135984532104
 21
28.95772105176101
 31
0.0
  0
ARC
  5
4B3
330
2
100
AcDbEntity
  8
S1
  6
Continuous
 62
     3
100
AcDbCircle
 10
46.19859845321039
 20
28.57272105176102
 30
0.0
 40
0.115
100
AcDbArc
 50
270.0
 51
0.0
  0
ARC
  5
4B4
330
2
100
AcDbEntity
  8
S1
  6
Continuous
 62
     3
100
AcDbCircle
 10
46.29859845321042
 20
30.59272105176101
 30
0.0
 40
0.115
100
AcDbArc
 50
0.0
 51
90.0
  0
LINE
  5
4B5
330
2
100
AcDbEntity
  8
S1
  6
DASHED
 62
     3
100
AcDbLine
 10
46.3135984532104
 20
29.407721051761
 30
0.0
 11
46.41359845321042
 21
29.407721051761
 31
0.0
  0
LINE
  5
4B6
330
2
100
AcDbEntity
  8
S1
  6
DASHED
 62
     3
100
AcDbLine
 10
46.0635984532104
 20
28.55772105176101
 30
0.0
 11
46.0635984532104
 21
28.45772105176101
 31
0.0
  0
LINE
  5
4B7
330
2
100
AcDbEntity
  8
S1
  6
DASHED
 62
     3
100
AcDbLine
 10
45.76359845321039
 20
28.55772105176101
 30
0.0
 11
45.76359845321039
 21
28.45772105176101
 31
0.0
  0
LINE
  5
4B8
330
2
100
AcDbEntity
  8
S1
  6
DASHED
 62
     3
100
AcDbLine
 10
46.21359845321044
 20
29.00772105176102
 30
0.0
 11
46.3135984532104
 21
29.00772105176102
 31
0.0
  0
LINE
  5
4B9
330
2
100
AcDbEntity
  8
S1
  6
Continuous
 62
     3
100
AcDbLine
 10
45.51359845321039
 20
28.55772105176101
 30
0.0
 11
45.51359845321039
 21
28.45772105176101
 31
0.0
  0
LINE
  5
4BA
330
2
100
AcDbEntity
  8
S1
  6
Continuous
 62
     3
100
AcDbLine
 10
46.19859845321039
 20
28.45772105176101
 30
0.0
 11
45.51359845321039
 21
28.45772105176101
 31
0.0
  0
LINE
  5
4BB
330
2
100
AcDbEntity
  8
S1
  6
DASHED
 62
     3
100
AcDbLine
 10
46.3135984532104
 20
29.657721051761
 30
0.0
 11
46.41359845321042
 21
29.657721051761
 31
0.0
  0
LINE
  5
4BC
330
2
100
AcDbEntity
  8
S1
  6
DASHED
 62
     3
100
AcDbLine
 10
46.3135984532104
 20
30.00772105176102
 30
0.0
 11
46.41359845321042
 21
30.00772105176102
 31
0.0
  0
LINE
  5
4BD
330
2
100
AcDbEntity
  8
S1
  6
Continuous
 62
     3
100
AcDbLine
 10
46.29859845321042
 20
30.70772105176101
 30
0.0
 11
46.01359845321039
 21
30.70772105176101
 31
0.0
  0
LINE
  5
4BE
330
2
100
AcDbEntity
  8
S1
  6
Continuous
 62
     3
100
AcDbLine
 10
46.3135984532104
 20
29.20772105176101
 30
0.0
 11
46.3135984532104
 21
28.57272105176102
 31
0.0
  0
LINE
  5
4BF
330
2
100
AcDbEntity
  8
S1
  6
Continuous
 62
     3
100
AcDbLine
 10
46.41359845321042
 20
30.59272105176101
 30
0.0
 11
46.41359845321042
 21
29.30772100176099
 31
0.0
  0
LINE
  5
4C0
330
2
100
AcDbEntity
  8
S1
  6
Continuous
 62
     3
100
AcDbLine
 10
46.3135984532104
 20
30.60772105176102
 30
0.0
 11
46.01359845321039
 21
30.60772105176102
 31
0.0
  0
LINE
  5
4C1
330
2
100
AcDbEntity
  8
S1
  6
Continuous
 62
     3
100
AcDbLine
 10
46.3135984532104
 20
30.60772105176102
 30
0.0
 11
46.3135984532104
 21
29.30772105176101
 31
0.0
  0
ARC
  5
4C2
330
2
100
AcDbEntity
  8
S1
  6
Continuous
 62
     3
100
AcDbCircle
 10
46.3135984532104
 20
29.20772105176101
 30
0.0
 40
0.1
100
AcDbArc
 50
90.0
 51
180.0
  0
LINE
  5
4C3
330
2
100
AcDbEntity
  8
S1
  6
Continuous
 62
     3
100
AcDbLine
 10
46.21359845321044
 20
29.20772105176101
 30
0.0
 11
46.21359845321044
 21
28.55772105176101
 31
0.0
  0
LINE
  5
4C4
330
2
100
AcDbEntity
  8
S1
  6
Continuous
 62
     3
100
AcDbLine
 10
46.21359845321044
 20
28.55772105176101
 30
0.0
 11
45.51359845321039
 21
28.55772105176101
 31
0.0
  0
ARC
  5
4C5
330
2
100
AcDbEntity
  8
S1
  6
Continuous
 62
     3
100
AcDbCircle
 10
46.3135984532104
 20
29.30772100176099
 30
0.0
 40
0.1
100
AcDbArc
 50
270.0
 51
0.0
  0
LINE
  5
4C6
330
2
100
AcDbEntity
  8
S1
  6
Continuous
 62
     3
100
AcDbLine
 10
46.01359845321039
 20
30.70772105176101
 30
0.0
 11
46.01359845321039
 21
30.60772105176102
 31
0.0
  0
ARC
  5
4C7
330
2
100
AcDbEntity
  8
S1
  6
DASHED
 62
     3
100
AcDbCircle
 10
45.73359845321042
 20
8.787721051761025
 30
0.0
 40
0.08
100
AcDbArc
 50
270.0
 51
0.0
  0
ARC
  5
4C8
330
2
100
AcDbEntity
  8
S1
  6
DASHED
 62
     3
100
AcDbCircle
 10
46.09359845321043
 20
8.787721051761025
 30
0.0
 40
0.08
100
AcDbArc
 50
180.0
 51
270.0
  0
LINE
  5
4C9
330
2
100
AcDbEntity
  8
S1
  6
DASHED
 62
     3
100
AcDbLine
 10
46.11359845321041
 20
8.887721051761019
 30
0.0
 11
45.71359845321043
 21
8.887721051761019
 31
0.0
  0
LINE
  5
4CA
330
2
100
AcDbEntity
  8
S1
  6
DASHED
 62
     3
100
AcDbLine
 10
45.71359845321043
 20
8.787721051761025
 30
0.0
 11
45.71359845321043
 21
8.887721051761019
 31
0.0
  0
LINE
  5
4CB
330
2
100
AcDbEntity
  8
S1
  6
DASHED
 62
     3
100
AcDbLine
 10
46.11359845321041
 20
8.787721051761025
 30
0.0
 11
46.11359845321041
 21
8.887721051761019
 31
0.0
  0
LINE
  5
4CC
330
2
100
AcDbEntity
  8
S1
  6
DASHED
 62
     3
100
AcDbLine
 10
45.8135984532104
 20
8.787721051761025
 30
0.0
 11
45.8135984532104
 21
8.887721051761019
 31
0.0
  0
LINE
  5
4CD
330
2
100
AcDbEntity
  8
S1
  6
DASHED
 62
     3
100
AcDbLine
 10
46.01359845321039
 20
8.787721051761025
 30
0.0
 11
46.01359845321039
 21
8.887721051761019
 31
0.0
  0
ARC
  5
4CE
330
2
100
AcDbEntity
  8
S1
  6
DASHED
 62
     3
100
AcDbCircle
 10
45.73359845321042
 20
28.377721051761
 30
0.0
 40
0.08
100
AcDbArc
 50
0.0
 51
90.0
  0
ARC
  5
4CF
330
2
100
AcDbEntity
  8
S1
  6
DASHED
 62
     3
100
AcDbCircle
 10
46.09359845321043
 20
28.377721051761
 30
0.0
 40
0.08
100
AcDbArc
 50
90.0
 51
180.0
  0
LINE
  5
4D0
330
2
100
AcDbEntity
  8
S1
  6
DASHED
 62
     3
100
AcDbLine
 10
46.11359845321041
 20
28.27772105176101
 30
0.0
 11
45.71359845321043
 21
28.27772105176101
 31
0.0
  0
LINE
  5
4D1
330
2
100
AcDbEntity
  8
S1
  6
DASHED
 62
     3
100
AcDbLine
 10
45.71359845321043
 20
28.377721051761
 30
0.0
 11
45.71359845321043
 21
28.27772105176101
 31
0.0
  0
LINE
  5
4D2
330
2
100
AcDbEntity
  8
S1
  6
DASHED
 62
     3
100
AcDbLine
 10
46.11359845321041
 20
28.377721051761
 30
0.0
 11
46.11359845321041
 21
28.27772105176101
 31
0.0
  0
LINE
  5
4D3
330
2
100
AcDbEntity
  8
S1
  6
DASHED
 62
     3
100
AcDbLine
 10
45.8135984532104
 20
28.377721051761
 30
0.0
 11
45.8135984532104
 21
28.27772105176101
 31
0.0
  0
LINE
  5
4D4
330
2
100
AcDbEntity
  8
S1
  6
DASHED
 62
     3
100
AcDbLine
 10
46.01359845321039
 20
28.377721051761
 30
0.0
 11
46.01359845321039
 21
28.27772105176101
 31
0.0
  0
LINE
  5
4D5
330
2
100
AcDbEntity
  8
S1
  6
Continuous
 62
     3
100
AcDbLine
 10
46.14359845321039
 20
8.112721051761042
 30
0.0
 11
46.14359845321039
 21
7.912721051761025
 31
0.0
  0
LINE
  5
4D6
330
2
100
AcDbEntity
  8
S1
  6
Continuous
 62
     3
100
AcDbLine
 10
46.14359845321039
 20
8.112721051761042
 30
0.0
 11
46.0635984532104
 21
8.112721051761042
 31
0.0
  0
LINE
  5
4D7
330
2
100
AcDbEntity
  8
S1
  6
Continuous
 62
     3
100
AcDbLine
 10
46.14359845321039
 20
29.05272105176099
 30
0.0
 11
46.14359845321039
 21
29.252721051761
 31
0.0
  0
LINE
  5
4D8
330
2
100
AcDbEntity
  8
S1
  6
Continuous
 62
     3
100
AcDbLine
 10
46.14359845321039
 20
29.05272105176099
 30
0.0
 11
46.0635984532104
 21
29.05272105176099
 31
0.0
  0
LINE
  5
4D9
330
2
100
AcDbEntity
  8
S1
  6
DASHED
 62
     3
100
AcDbLine
 10
45.49359845321041
 20
8.867721051761009
 30
0.0
 11
45.49359845321041
 21
9.382721051761024
 31
0.0
  0
LINE
  5
4DA
330
2
100
AcDbEntity
  8
S1
  6
DASHED
 62
     3
100
AcDbLine
 10
45.57359845321039
 20
8.787721051761025
 30
0.0
 11
46.33359845321044
 21
8.787721051761025
 31
0.0
  0
LINE
  5
4DB
330
2
100
AcDbEntity
  8
S1
  6
DASHED
 62
     3
100
AcDbLine
 10
45.49359845321041
 20
28.29772105176102
 30
0.0
 11
45.49359845321041
 21
26.33272105176101
 31
0.0
  0
LINE
  5
4DC
330
2
100
AcDbEntity
  8
S1
  6
DASHED
 62
     3
100
AcDbLine
 10
45.57359845321039
 20
28.377721051761
 30
0.0
 11
46.33359845321044
 21
28.377721051761
 31
0.0
  0
LINE
  5
4DD
330
2
100
AcDbEntity
  8
S1
  6
Continuous
 62
     3
100
AcDbLine
 10
45.49359845321041
 20
8.707721051761012
 30
0.0
 11
46.33359845321044
 21
8.707721051761012
 31
0.0
  0
LINE
  5
4DE
330
2
100
AcDbEntity
  8
S1
  6
Continuous
 62
     3
100
AcDbLine
 10
45.49359845321041
 20
8.787721051761025
 30
0.0
 11
45.49359845321041
 21
8.867721051761009
 31
0.0
  0
LINE
  5
4DF
330
2
100
AcDbEntity
  8
S1
  6
Continuous
 62
     3
100
AcDbLine
 10
45.49359845321041
 20
8.787721051761025
 30
0.0
 11
45.57359845321039
 21
8.787721051761025
 31
0.0
  0
LINE
  5
4E0
330
2
100
AcDbEntity
  8
S1
  6
Continuous
 62
     3
100
AcDbLine
 10
46.33359845321044
 20
7.912721051761025
 30
0.0
 11
46.33359845321044
 21
8.707721051761012
 31
0.0
  0
LINE
  5
4E1
330
2
100
AcDbEntity
  8
S1
  6
Continuous
 62
     3
100
AcDbLine
 10
46.33359845321044
 20
7.832721051761012
 30
0.0
 11
46.14359845321039
 21
7.832721051761012
 31
0.0
  0
LINE
  5
4E2
330
2
100
AcDbEntity
  8
S1
  6
Continuous
 62
     3
100
AcDbLine
 10
46.33359845321044
 20
7.912721051761025
 30
0.0
 11
46.14359845321039
 21
7.912721051761025
 31
0.0
  0
LINE
  5
4E3
330
2
100
AcDbEntity
  8
S1
  6
Continuous
 62
     3
100
AcDbLine
 10
46.0635984532104
 20
8.112721051761042
 30
0.0
 11
46.0635984532104
 21
7.912721051761025
 31
0.0
  0
LINE
  5
4E4
330
2
100
AcDbEntity
  8
S1
  6
Continuous
 62
     3
100
AcDbLine
 10
46.0635984532104
 20
29.05272105176099
 30
0.0
 11
46.0635984532104
 21
29.252721051761
 31
0.0
  0
LINE
  5
4E5
330
2
100
AcDbEntity
  8
S1
  6
Continuous
 62
     3
100
AcDbLine
 10
46.33359845321044
 20
29.252721051761
 30
0.0
 11
46.14359845321039
 21
29.252721051761
 31
0.0
  0
LINE
  5
4E6
330
2
100
AcDbEntity
  8
S1
  6
Continuous
 62
     3
100
AcDbLine
 10
46.33359845321044
 20
29.33272105176101
 30
0.0
 11
46.14359845321039
 21
29.33272105176101
 31
0.0
  0
LINE
  5
4E7
330
2
100
AcDbEntity
  8
S1
  6
Continuous
 62
     3
100
AcDbLine
 10
46.33359845321044
 20
29.252721051761
 30
0.0
 11
46.33359845321044
 21
28.45772105176101
 31
0.0
  0
LINE
  5
4E8
330
2
100
AcDbEntity
  8
S1
  6
Continuous
 62
     3
100
AcDbLine
 10
46.41359845321042
 20
29.252721051761
 30
0.0
 11
46.41359845321042
 21
7.912721051761025
 31
0.0
  0
LINE
  5
4E9
330
2
100
AcDbEntity
  8
S1
  6
Continuous
 62
     3
100
AcDbLine
 10
45.49359845321041
 20
28.377721051761
 30
0.0
 11
45.57359845321039
 21
28.377721051761
 31
0.0
  0
LINE
  5
4EA
330
2
100
AcDbEntity
  8
S1
  6
Continuous
 62
     3
100
AcDbLine
 10
45.49359845321041
 20
28.377721051761
 30
0.0
 11
45.49359845321041
 21
28.29772105176102
 31
0.0
  0
LINE
  5
4EB
330
2
100
AcDbEntity
  8
S1
  6
Continuous
 62
     3
100
AcDbLine
 10
45.49359845321041
 20
28.45772105176101
 30
0.0
 11
46.33359845321044
 21
28.45772105176101
 31
0.0
  0
LINE
  5
4EC
330
2
100
AcDbEntity
  8
S1
  6
Continuous
 62
     3
100
AcDbLine
 10
45.41359845321042
 20
28.377721051761
 30
0.0
 11
45.41359845321042
 21
8.787721051761025
 31
0.0
  0
ARC
  5
4ED
330
2
100
AcDbEntity
  8
S1
  6
Continuous
 62
     3
100
AcDbCircle
 10
46.33359845321044
 20
7.912721051761025
 30
0.0
 40
0.08
100
AcDbArc
 50
270.0
 51
0.0
  0
ARC
  5
4EE
330
2
100
AcDbEntity
  8
S1
  6
Continuous
 62
     3
100
AcDbCircle
 10
46.14359845321039
 20
7.912721051761025
 30
0.0
 40
0.08
100
AcDbArc
 50
180.0
 51
270.0
  0
ARC
  5
4EF
330
2
100
AcDbEntity
  8
S1
  6
Continuous
 62
     3
100
AcDbCircle
 10
46.33359845321044
 20
29.252721051761
 30
0.0
 40
0.08
100
AcDbArc
 50
0.0
 51
90.0
  0
ARC
  5
4F0
330
2
100
AcDbEntity
  8
S1
  6
Continuous
 62
     3
100
AcDbCircle
 10
46.14359845321039
 20
29.252721051761
 30
0.0
 40
0.08
100
AcDbArc
 50
90.0
 51
180.0
  0
LINE
  5
4F1
330
2
100
AcDbEntity
  8
S1
  6
DASHED
 62
     3
100
AcDbLine
 10
46.0635984532104
 20
28.45772105176101
 30
0.0
 11
46.0635984532104
 21
28.377721051761
 31
0.0
  0
LINE
  5
4F2
330
2
100
AcDbEntity
  8
S1
  6
DASHED
 62
     3
100
AcDbLine
 10
46.0635984532104
 20
8.707721051761012
 30
0.0
 11
46.0635984532104
 21
8.787721051761025
 31
0.0
  0
ARC
  5
4F3
330
2
100
AcDbEntity
  8
S1
  6
Continuous
 62
     3
100
AcDbCircle
 10
45.49359845321041
 20
8.787721051761025
 30
0.0
 40
0.08
100
AcDbArc
 50
180.0
 51
270.0
  0
ARC
  5
4F4
330
2
100
AcDbEntity
  8
S1
  6
Continuous
 62
     3
100
AcDbCircle
 10
45.49359845321041
 20
28.377721051761
 30
0.0
 40
0.08
100
AcDbArc
 50
90.0
 51
180.0
  0
LINE
  5
4F5
330
2
100
AcDbEntity
  8
S1
  6
DASHED
 62
     3
100
AcDbLine
 10
45.49359845321041
 20
13.71272105176103
 30
0.0
 11
45.41359845321042
 21
13.71272105176103
 31
0.0
  0
LINE
  5
4F6
330
2
100
AcDbEntity
  8
S1
  6
DASHED
 62
     3
100
AcDbLine
 10
46.0635984532104
 20
13.032721051761
 30
0.0
 11
46.14359845321039
 21
13.032721051761
 31
0.0
  0
ARC
  5
4F7
330
2
100
AcDbEntity
  8
S1
  6
DASHED
 62
     3
100
AcDbCircle
 10
46.0635984532104
 20
13.532721051761
 30
0.0
 40
0.08
100
AcDbArc
 50
0.0
 51
90.0
  0
LINE
  5
4F8
330
2
100
AcDbEntity
  8
S1
  6
DASHED
 62
     3
100
AcDbLine
 10
46.14359845321039
 20
13.532721051761
 30
0.0
 11
46.14359845321039
 21
13.032721051761
 31
0.0
  0
LINE
  5
4F9
330
2
100
AcDbEntity
  8
S1
  6
DASHED
 62
     3
100
AcDbLine
 10
45.49359845321041
 20
13.61272105176104
 30
0.0
 11
46.0635984532104
 21
13.61272105176104
 31
0.0
  0
ARC
  5
4FA
330
2
100
AcDbEntity
  8
S1
  6
DASHED
 62
     3
100
AcDbCircle
 10
45.49359845321041
 20
13.61272105176104
 30
0.0
 40
0.08
100
AcDbArc
 50
180.0
 51
270.0
  0
LINE
  5
4FB
330
2
100
AcDbEntity
  8
S1
  6
DASHED
 62
     3
100
AcDbLine
 10
45.49359845321041
 20
13.532721051761
 30
0.0
 11
46.0635984532104
 21
13.532721051761
 31
0.0
  0
LINE
  5
4FC
330
2
100
AcDbEntity
  8
S1
  6
DASHED
 62
     3
100
AcDbLine
 10
46.0635984532104
 20
13.532721051761
 30
0.0
 11
46.0635984532104
 21
13.032721051761
 31
0.0
  0
LINE
  5
4FD
330
2
100
AcDbEntity
  8
S1
  6
PHANTOM
 62
     3
100
AcDbLine
 10
46.14359845321039
 20
26.13272105176103
 30
0.0
 11
46.14359845321039
 21
24.58272105176102
 31
0.0
  0
LINE
  5
4FF
330
2
100
AcDbEntity
  8
S1
  6
PHANTOM
 62
     3
100
AcDbLine
 10
46.0635984532104
 20
26.13272105176103
 30
0.0
 11
46.0635984532104
 21
24.58272105176102
 31
0.0
  0
LINE
  5
500
330
2
100
AcDbEntity
  8
S1
  6
PHANTOM
 62
     3
100
AcDbLine
 10
45.41359845321042
 20
25.720221051761
 30
0.0
 11
45.49359845321041
 21
25.720221051761
 31
0.0
  0
LINE
  5
501
330
2
100
AcDbEntity
  8
S1
  6
PHANTOM
 62
     3
100
AcDbLine
 10
45.49359845321041
 20
24.38272105176102
 30
0.0
 11
45.49359845321041
 21
26.33272105176101
 31
0.0
  0
LINE
  5
502
330
2
100
AcDbEntity
  8
S1
  6
PHANTOM
 62
     3
100
AcDbLine
 10
46.04359845321042
 20
26.33272105176101
 30
0.0
 11
45.41359845321042
 21
26.33272105176101
 31
0.0
  0
LINE
  5
503
330
2
100
AcDbEntity
  8
S1
  6
PHANTOM
 62
     3
100
AcDbLine
 10
46.14359845321039
 20
26.23272105176102
 30
0.0
 11
46.14359845321039
 21
26.13272105176103
 31
0.0
  0
LINE
  5
504
330
2
100
AcDbEntity
  8
S1
  6
PHANTOM
 62
     3
100
AcDbLine
 10
46.0635984532104
 20
26.13272105176103
 30
0.0
 11
46.14359845321039
 21
26.13272105176103
 31
0.0
  0
ARC
  5
505
330
2
100
AcDbEntity
  8
S1
  6
PHANTOM
 62
     3
100
AcDbCircle
 10
46.04359845321042
 20
26.23272105176102
 30
0.0
 40
0.1
100
AcDbArc
 50
0.0
 51
90.0
  0
LINE
  5
506
330
2
100
AcDbEntity
  8
S1
  6
PHANTOM
 62
     3
100
AcDbLine
 10
46.04359845321042
 20
24.38272105176102
 30
0.0
 11
45.41359845321042
 21
24.38272105176102
 31
0.0
  0
LINE
  5
507
330
2
100
AcDbEntity
  8
S1
  6
PHANTOM
 62
     3
100
AcDbLine
 10
46.0635984532104
 20
24.58272105176102
 30
0.0
 11
46.14359845321039
 21
24.58272105176102
 31
0.0
  0
LINE
  5
508
330
2
100
AcDbEntity
  8
S1
  6
PHANTOM
 62
     3
100
AcDbLine
 10
46.14359845321039
 20
24.58272105176102
 30
0.0
 11
46.14359845321039
 21
24.48272105176102
 31
0.0
  0
ARC
  5
509
330
2
100
AcDbEntity
  8
S1
  6
PHANTOM
 62
     3
100
AcDbCircle
 10
46.04359845321042
 20
24.48272105176102
 30
0.0
 40
0.1
100
AcDbArc
 50
270.0
 51
0.0
  0
LINE
  5
50A
330
2
100
AcDbEntity
  8
S1
  6
PHANTOM
 62
     3
100
AcDbLine
 10
45.41359845321042
 20
24.99522105176101
 30
0.0
 11
45.49359845321041
 21
24.99522105176101
 31
0.0
  0
LINE
  5
50B
330
2
100
AcDbEntity
  8
S1
  6
DASHED
 62
     3
100
AcDbLine
 10
45.49359845321041
 20
24.38272105176102
 30
0.0
 11
45.49359845321041
 21
18.83272105176101
 31
0.0
  0
LINE
  5
50C
330
2
100
AcDbEntity
  8
S1
  6
PHANTOM
 62
     3
100
AcDbLine
 10
46.04359845321042
 20
11.33272105176101
 30
0.0
 11
45.41359845321042
 21
11.33272105176101
 31
0.0
  0
LINE
  5
50D
330
2
100
AcDbEntity
  8
S1
  6
PHANTOM
 62
     3
100
AcDbLine
 10
45.49359845321041
 20
9.382721051761024
 30
0.0
 11
45.49359845321041
 21
11.33272105176101
 31
0.0
  0
LINE
  5
50E
330
2
100
AcDbEntity
  8
S1
  6
PHANTOM
 62
     3
100
AcDbLine
 10
46.14359845321039
 20
11.13272105176102
 30
0.0
 11
46.14359845321039
 21
9.582721051761012
 31
0.0
  0
LINE
  5
50F
330
2
100
AcDbEntity
  8
S1
  6
PHANTOM
 62
     3
100
AcDbLine
 10
46.0635984532104
 20
11.13272105176102
 30
0.0
 11
46.0635984532104
 21
9.582721051761012
 31
0.0
  0
ARC
  5
510
330
2
100
AcDbEntity
  8
S1
  6
PHANTOM
 62
     3
100
AcDbCircle
 10
46.04359845321042
 20
11.23272105176102
 30
0.0
 40
0.1
100
AcDbArc
 50
0.0
 51
90.0
  0
LINE
  5
511
330
2
100
AcDbEntity
  8
S1
  6
PHANTOM
 62
     3
100
AcDbLine
 10
46.0635984532104
 20
11.13272105176102
 30
0.0
 11
46.14359845321039
 21
11.13272105176102
 31
0.0
  0
LINE
  5
512
330
2
100
AcDbEntity
  8
S1
  6
PHANTOM
 62
     3
100
AcDbLine
 10
46.14359845321039
 20
11.23272105176102
 30
0.0
 11
46.14359845321039
 21
11.13272105176102
 31
0.0
  0
LINE
  5
513
330
2
100
AcDbEntity
  8
S1
  6
PHANTOM
 62
     3
100
AcDbLine
 10
46.04359845321042
 20
9.382721051761024
 30
0.0
 11
45.41359845321042
 21
9.382721051761024
 31
0.0
  0
ARC
  5
514
330
2
100
AcDbEntity
  8
S1
  6
PHANTOM
 62
     3
100
AcDbCircle
 10
46.04359845321042
 20
9.482721051761018
 30
0.0
 40
0.1
100
AcDbArc
 50
270.0
 51
0.0
  0
LINE
  5
515
330
2
100
AcDbEntity
  8
S1
  6
PHANTOM
 62
     3
100
AcDbLine
 10
46.14359845321039
 20
9.582721051761012
 30
0.0
 11
46.14359845321039
 21
9.482721051761018
 31
0.0
  0
LINE
  5
516
330
2
100
AcDbEntity
  8
S1
  6
PHANTOM
 62
     3
100
AcDbLine
 10
46.0635984532104
 20
9.582721051761012
 30
0.0
 11
46.14359845321039
 21
9.582721051761012
 31
0.0
  0
LINE
  5
517
330
2
100
AcDbEntity
  8
S1
  6
PHANTOM
 62
     3
100
AcDbLine
 10
45.41359845321042
 20
9.995221051761006
 30
0.0
 11
45.49359845321041
 21
9.995221051761006
 31
0.0
  0
LINE
  5
518
330
2
100
AcDbEntity
  8
S1
  6
PHANTOM
 62
     3
100
AcDbLine
 10
45.41359845321042
 20
10.720221051761
 30
0.0
 11
45.49359845321041
 21
10.720221051761
 31
0.0
  0
LINE
  5
519
330
2
100
AcDbEntity
  8
S1
  6
DASHED
 62
     3
100
AcDbLine
 10
45.49359845321041
 20
11.33272105176101
 30
0.0
 11
45.49359845321041
 21
18.83272105176101
 31
0.0
  0
LINE
  5
51A
330
2
100
AcDbEntity
  8
S1
  6
Continuous
 62
     3
100
AcDbLine
 10
46.33359845321044
 20
28.45772105176101
 30
0.0
 11
46.33359845321044
 21
8.707721051761012
 31
0.0
  0
LINE
  5
51B
330
2
100
AcDbEntity
  8
S1
  6
DASHED
 62
     3
100
AcDbLine
 10
46.33359845321044
 20
28.60772105176102
 30
0.0
 11
46.41359845321042
 21
28.60772105176102
 31
0.0
  0
LINE
  5
51C
330
2
100
AcDbEntity
  8
S1
  6
DASHED
 62
     3
100
AcDbLine
 10
46.33359845321044
 20
28.45772105176101
 30
0.0
 11
46.41359845321042
 21
28.45772105176101
 31
0.0
  0
LINE
  5
51D
330
2
100
AcDbEntity
  8
S1
  6
DASHED
 62
     3
100
AcDbLine
 10
46.33359845321044
 20
8.557721051761006
 30
0.0
 11
46.41359845321042
 21
8.557721051761006
 31
0.0
  0
LINE
  5
51E
330
2
100
AcDbEntity
  8
S1
  6
DASHED
 62
     3
100
AcDbLine
 10
46.33359845321044
 20
8.707721051761012
 30
0.0
 11
46.41359845321042
 21
8.707721051761012
 31
0.0
  0
LINE
  5
51F
330
2
100
AcDbEntity
  8
S1
  6
Continuous
 62
     3
100
AcDbLine
 10
45.49359845321041
 20
28.29772105176102
 30
0.0
 11
45.41359845321042
 21
28.29772105176102
 31
0.0
  0
ARC
  5
520
330
2
100
AcDbEntity
  8
S1
  6
Continuous
 62
     3
100
AcDbCircle
 10
45.49359845321041
 20
28.377721051761
 30
0.0
 40
0.08
100
AcDbArc
 50
270.0
 51
0.0
  0
ARC
  5
521
330
2
100
AcDbEntity
  8
S1
  6
Continuous
 62
     3
100
AcDbCircle
 10
45.65359845321043
 20
28.377721051761
 30
0.0
 40
0.08
100
AcDbArc
 50
90.0
 51
180.0
  0
LINE
  5
522
330
2
100
AcDbEntity
  8
S1
  6
Continuous
 62
     3
100
AcDbLine
 10
45.49359845321041
 20
8.867721051761009
 30
0.0
 11
45.41359845321042
 21
8.867721051761009
 31
0.0
  0
ARC
  5
523
330
2
100
AcDbEntity
  8
S1
  6
Continuous
 62
     3
100
AcDbCircle
 10
45.49359845321041
 20
8.787721051761025
 30
0.0
 40
0.08
100
AcDbArc
 50
0.0
 51
90.0
  0
ARC
  5
524
330
2
100
AcDbEntity
  8
S1
  6
Continuous
 62
     3
100
AcDbCircle
 10
45.65359845321043
 20
8.787721051761025
 30
0.0
 40
0.08
100
AcDbArc
 50
180.0
 51
270.0
  0
LINE
  5
525
330
2
100
AcDbEntity
  8
S1
  6
CENTER
 62
     3
100
AcDbLine
 10
46.07798295321041
 20
26.95772105176101
 30
0.0
 11
45.0532977032104
 21
26.95772105176101
 31
0.0
  0
LINE
  5
527
330
2
100
AcDbEntity
  8
S1
  6
Continuous
 62
     3
100
AcDbLine
 10
45.41359845321042
 20
11.95772105176101
 30
0.0
 11
45.41359845321042
 21
12.45772105176101
 31
0.0
  0
LINE
  5
528
330
2
100
AcDbEntity
  8
S1
  6
DASHED
 62
     3
100
AcDbLine
 10
46.16359845321042
 20
6.557721051761006
 30
0.0
 11
46.16359845321042
 21
6.457721051761012
 31
0.0
  0
LINE
  5
529
330
2
100
AcDbEntity
  8
S1
  6
DASHED
 62
     3
100
AcDbLine
 10
46.21359845321044
 20
8.207721051761012
 30
0.0
 11
46.3135984532104
 21
8.207721051761012
 31
0.0
  0
ARC
  5
52A
330
2
100
AcDbEntity
  8
S1
  6
Continuous
 62
     3
100
AcDbCircle
 10
46.19859845321039
 20
8.592721051761003
 30
0.0
 40
0.115
100
AcDbArc
 50
0.0
 51
90.0
  0
ARC
  5
52B
330
2
100
AcDbEntity
  8
S1
  6
Continuous
 62
     3
100
AcDbCircle
 10
46.29859845321042
 20
6.572721051761021
 30
0.0
 40
0.115
100
AcDbArc
 50
270.0
 51
0.0
  0
LINE
  5
52C
330
2
100
AcDbEntity
  8
S1
  6
DASHED
 62
     3
100
AcDbLine
 10
46.3135984532104
 20
7.757721051761024
 30
0.0
 11
46.41359845321042
 21
7.757721051761024
 31
0.0
  0
LINE
  5
52D
330
2
100
AcDbEntity
  8
S1
  6
DASHED
 62
     3
100
AcDbLine
 10
46.0635984532104
 20
8.607721051761018
 30
0.0
 11
46.0635984532104
 21
8.707721051761012
 31
0.0
  0
LINE
  5
52E
330
2
100
AcDbEntity
  8
S1
  6
DASHED
 62
     3
100
AcDbLine
 10
45.76359845321039
 20
8.607721051761018
 30
0.0
 11
45.76359845321039
 21
8.707721051761012
 31
0.0
  0
LINE
  5
52F
330
2
100
AcDbEntity
  8
S1
  6
DASHED
 62
     3
100
AcDbLine
 10
46.21359845321044
 20
8.157721051761001
 30
0.0
 11
46.3135984532104
 21
8.157721051761001
 31
0.0
  0
LINE
  5
530
330
2
100
AcDbEntity
  8
S1
  6
Continuous
 62
     3
100
AcDbLine
 10
45.51359845321039
 20
8.607721051761018
 30
0.0
 11
45.51359845321039
 21
8.707721051761012
 31
0.0
  0
LINE
  5
531
330
2
100
AcDbEntity
  8
S1
  6
Continuous
 62
     3
100
AcDbLine
 10
46.19859845321039
 20
8.707721051761012
 30
0.0
 11
45.51359845321039
 21
8.707721051761012
 31
0.0
  0
LINE
  5
532
330
2
100
AcDbEntity
  8
S1
  6
DASHED
 62
     3
100
AcDbLine
 10
46.3135984532104
 20
7.507721051761024
 30
0.0
 11
46.41359845321042
 21
7.507721051761024
 31
0.0
  0
LINE
  5
533
330
2
100
AcDbEntity
  8
S1
  6
DASHED
 62
     3
100
AcDbLine
 10
46.3135984532104
 20
7.157721051761001
 30
0.0
 11
46.41359845321042
 21
7.157721051761001
 31
0.0
  0
LINE
  5
534
330
2
100
AcDbEntity
  8
S1
  6
Continuous
 62
     3
100
AcDbLine
 10
46.29859845321042
 20
6.457721051761012
 30
0.0
 11
46.01359845321039
 21
6.457721051761012
 31
0.0
  0
LINE
  5
535
330
2
100
AcDbEntity
  8
S1
  6
Continuous
 62
     3
100
AcDbLine
 10
46.3135984532104
 20
7.957721051761012
 30
0.0
 11
46.3135984532104
 21
8.592721051761003
 31
0.0
  0
LINE
  5
536
330
2
100
AcDbEntity
  8
S1
  6
Continuous
 62
     3
100
AcDbLine
 10
46.41359845321042
 20
6.572721051761021
 30
0.0
 11
46.41359845321042
 21
7.857721101761029
 31
0.0
  0
LINE
  5
537
330
2
100
AcDbEntity
  8
S1
  6
Continuous
 62
     3
100
AcDbLine
 10
46.3135984532104
 20
6.557721051761006
 30
0.0
 11
46.01359845321039
 21
6.557721051761006
 31
0.0
  0
LINE
  5
538
330
2
100
AcDbEntity
  8
S1
  6
Continuous
 62
     3
100
AcDbLine
 10
46.3135984532104
 20
6.557721051761006
 30
0.0
 11
46.3135984532104
 21
7.857721051761018
 31
0.0
  0
ARC
  5
539
330
2
100
AcDbEntity
  8
S1
  6
Continuous
 62
     3
100
AcDbCircle
 10
46.3135984532104
 20
7.957721051761012
 30
0.0
 40
0.1
100
AcDbArc
 50
180.0
 51
270.0
  0
LINE
  5
53A
330
2
100
AcDbEntity
  8
S1
  6
Continuous
 62
     3
100
AcDbLine
 10
46.21359845321044
 20
7.957721051761012
 30
0.0
 11
46.21359845321044
 21
8.607721051761018
 31
0.0
  0
LINE
  5
53B
330
2
100
AcDbEntity
  8
S1
  6
Continuous
 62
     3
100
AcDbLine
 10
46.21359845321044
 20
8.607721051761018
 30
0.0
 11
45.51359845321039
 21
8.607721051761018
 31
0.0
  0
ARC
  5
53C
330
2
100
AcDbEntity
  8
S1
  6
Continuous
 62
     3
100
AcDbCircle
 10
46.3135984532104
 20
7.857721101761029
 30
0.0
 40
0.1
100
AcDbArc
 50
0.0
 51
90.0
  0
LINE
  5
53D
330
2
100
AcDbEntity
  8
S1
  6
Continuous
 62
     3
100
AcDbLine
 10
46.01359845321039
 20
6.457721051761012
 30
0.0
 11
46.01359845321039
 21
6.557721051761006
 31
0.0
  0
LINE
  5
53E
330
2
100
AcDbEntity
  8
S1
  6
CENTER
 62
     3
100
AcDbLine
 10
46.19400650321042
 20
11.95772105176101
 30
0.0
 11
44.75055185321039
 21
11.95772105176101
 31
0.0
  0
ENDSEC
  0
SECTION
  2
OBJECTS
  0
DICTIONARY
  5
7
330
0
100
AcDbDictionary
281
     1
  3
ACAD_COLOR
350
2D
  3
ACAD_GROUP
350
29
  3
ACAD_LAYOUT
350
B
  3
ACAD_MATERIAL
350
2C
  3
ACAD_MLINESTYLE
350
2A
  3
ACAD_PLOTSETTINGS
350
2B
  3
ACAD_PLOTSTYLENAME
350
6
  3
ACDBHEADERROUNDTRIPXREC
350
5A1
  3
AcDbVariableDictionary
350
59C
  0
DICTIONARY
  5
11
330
10
100
AcDbDictionary
280
     1
281
     1
  3
ACAD_LAYERFILTERS
360
12
  3
ACAD_LAYERSTATES
360
13
  0
DICTIONARY
  5
2D
102
{ACAD_REACTORS
330
7
102
}
330
7
100
AcDbDictionary
281
     1
  0
DICTIONARY
  5
29
102
{ACAD_REACTORS
330
7
102
}
330
7
100
AcDbDictionary
281
     1
  0
DICTIONARY
  5
B
102
{ACAD_REACTORS
330
7
102
}
330
7
100
AcDbDictionary
281
     1
  3
Model
350
A
  3
レイアウト1
350
F
  0
DICTIONARY
  5
2C
102
{ACAD_REACTORS
330
7
102
}
330
7
100
AcDbDictionary
281
     1
  0
DICTIONARY
  5
2A
102
{ACAD_REACTORS
330
7
102
}
330
7
100
AcDbDictionary
281
     1
  3
Standard
350
2F
  0
DICTIONARY
  5
2B
102
{ACAD_REACTORS
330
7
102
}
330
7
100
AcDbDictionary
281
     1
  0
ACDBDICTIONARYWDFLT
  5
6
102
{ACAD_REACTORS
330
7
102
}
330
7
100
AcDbDictionary
281
     1
  3
Normal
350
5
100
AcDbDictionaryWithDefault
340
5
  0
DICTIONARY
  5
5A1
102
{ACAD_REACTORS
330
7
102
}
330
7
100
AcDbDictionary
281
     1
  3
COLORDICT
350
5A3
  3
MATERIALDICT
350
5A2
  0
DICTIONARY
  5
59C
102
{ACAD_REACTORS
330
7
102
}
330
7
100
AcDbDictionary
281
     1
  3
DIMASSOC
350
59E
  3
HIDETEXT
350
59D
  3
PROJECTNAME
350
59F
  0
DICTIONARY
  5
12
102
{ACAD_REACTORS
330
11
102
}
330
11
100
AcDbDictionary
281
     1
  0
DICTIONARY
  5
13
102
{ACAD_REACTORS
330
11
102
}
330
11
100
AcDbDictionary
281
     1
  0
LAYOUT
  5
A
102
{ACAD_XDICTIONARY
360
5A4
102
}
102
{ACAD_REACTORS
330
B
102
}
330
B
100
AcDbPlotSettings
  1

  2
10F06M_RICOH_SP-8100
  4
A4
  6

 40
5.873749732971191
 41
5.873747825622558
 42
5.873748779296875
 43
5.873748779296875
 44
209.9733276367187
 45
296.9259948730469
 46
5.429999999999999
 47
0.0
 48
0.0
 49
0.0
140
0.0
141
0.0
142
1.0
143
1.382388793903341
 70
 11956
 72
     1
 73
     0
 74
     1
  7
tmsacad.ctb
 75
     0
147
0.7233854935820042
148
0.0064050313486632
149
0.0060110292993159
100
AcDbLayout
  1
Model
 70
     1
 71
     0
 10
0.0
 20
0.0
 11
12.0
 21
9.0
 12
0.0
 22
0.0
 32
0.0
 14
0.0
 24
0.0
 34
0.0
 15
0.0
 25
0.0
 35
0.0
146
0.0
 13
0.0
 23
0.0
 33
0.0
 16
1.0
 26
0.0
 36
0.0
 17
0.0
 27
1.0
 37
0.0
 76
     0
330
2
  0
LAYOUT
  5
F
102
{ACAD_XDICTIONARY
360
5A6
102
}
102
{ACAD_REACTORS
330
B
102
}
330
B
100
AcDbPlotSettings
  1

  2
None
  4

  6

 40
0.0
 41
0.0
 42
0.0
 43
0.0
 44
0.0
 45
0.0
 46
0.0
 47
0.0
 48
0.0
 49
0.0
140
0.0
141
0.0
142
1.0
143
1.0
 70
   688
 72
     0
 73
     0
 74
     5
  7
tmsacad.ctb
 75
    16
147
1.0
148
0.0
149
0.0
100
AcDbLayout
  1
レイアウト1
 70
     1
 71
     1
 10
0.0
 20
0.0
 11
12.0
 21
9.0
 12
0.0
 22
0.0
 32
0.0
 14
0.0
 24
0.0
 34
0.0
 15
0.0
 25
0.0
 35
0.0
146
0.0
 13
0.0
 23
0.0
 33
0.0
 16
1.0
 26
0.0
 36
0.0
 17
0.0
 27
1.0
 37
0.0
 76
     0
330
C
  0
MLINESTYLE
  5
2F
102
{ACAD_REACTORS
330
2A
102
}
330
2A
100
AcDbMlineStyle
  2
STANDARD
 70
     0
  3

 62
   256
 51
90.0
 52
90.0
 71
     2
 49
0.5
 62
   256
  6
BYLAYER
 49
-0.5
 62
   256
  6
BYLAYER
  0
ACDBPLACEHOLDER
  5
5
102
{ACAD_REACTORS
330
6
102
}
330
6
  0
XRECORD
  5
5A3
102
{ACAD_REACTORS
330
5A1
102
}
330
5A1
100
AcDbXrecord
280
     1
340
2D
  0
XRECORD
  5
5A2
102
{ACAD_REACTORS
330
5A1
102
}
330
5A1
100
AcDbXrecord
280
     1
340
2C
  0
DICTIONARYVAR
  5
59E
102
{ACAD_REACTORS
330
59C
102
}
330
59C
100
DictionaryVariables
280
     0
  1
1
  0
DICTIONARYVAR
  5
59D
102
{ACAD_REACTORS
330
59C
102
}
330
59C
100
DictionaryVariables
280
     0
  1
1
  0
DICTIONARYVAR
  5
59F
102
{ACAD_REACTORS
330
59C
102
}
330
59C
100
DictionaryVariables
280
     0
  1

  0
DICTIONARY
  5
5A4
330
A
100
AcDbDictionary
280
     1
281
     1
  3
ACAD_XREC_ROUNDTRIP
360
5A5
  0
DICTIONARY
  5
5A6
330
F
100
AcDbDictionary
280
     1
281
     1
  3
ACAD_XREC_ROUNDTRIP
360
5A7
  0
XRECORD
  5
5A5
102
{ACAD_REACTORS
330
5A4
102
}
330
5A4
100
AcDbXrecord
280
     1
102
SHADEPLOT
 70
     0
102
SHADEPLOTRESLEVEL
 70
     2
102
SHADEPLOTCUSTOMDPI
 70
   300
  0
XRECORD
  5
5A7
102
{ACAD_REACTORS
330
5A6
102
}
330
5A6
100
AcDbXrecord
280
     1
102
SHADEPLOT
 70
     0
102
SHADEPLOTRESLEVEL
 70
     2
102
SHADEPLOTCUSTOMDPI
 70
   300
  0
ENDSEC
  0
EOF
