  0
SECTION
  2
HEADER
  9
$ACADVER
  1
AC1015
  9
$ACADMAINTVER
 70
    20
  9
$DWGCODEPAGE
  3
ANSI_932
  9
$INSBASE
 10
0.4999999440410648
 20
372.5008351249344
 30
0.0
  9
$EXTMIN
 10
-62.36938386034376
 20
-48.70390256343398
 30
-0.0015258207003583
  9
$EXTMAX
 10
62.66418513220765
 20
64.32069439035922
 30
0.0000000349246037
  9
$LIMMIN
 10
0.0
 20
0.0
  9
$LIMMAX
 10
420.0
 20
297.0
  9
$ORTHOMODE
 70
     0
  9
$REGENMODE
 70
     0
  9
$FILLMODE
 70
     1
  9
$QTEXTMODE
 70
     0
  9
$MIRRTEXT
 70
     0
  9
$LTSCALE
 40
1.0
  9
$ATTMODE
 70
     1
  9
$TEXTSIZE
 40
2.5
  9
$TRACEWID
 40
1.0
  9
$TEXTSTYLE
  7
Standard
  9
$CLAYER
  8
GAIKEI
  9
$CELTYPE
  6
ByLayer
  9
$CECOLOR
 62
   256
  9
$CELTSCALE
 40
1.0
  9
$DISPSILH
 70
     0
  9
$DIMSCALE
 40
1.0
  9
$DIMASZ
 40
2.0
  9
$DIMEXO
 40
2.0
  9
$DIMDLI
 40
8.0
  9
$DIMRND
 40
0.0
  9
$DIMDLE
 40
0.0
  9
$DIMEXE
 40
2.0
  9
$DIMTP
 40
0.0
  9
$DIMTM
 40
0.0
  9
$DIMTXT
 40
2.5
  9
$DIMCEN
 40
0.0
  9
$DIMTSZ
 40
0.0
  9
$DIMTOL
 70
     0
  9
$DIMLIM
 70
     0
  9
$DIMTIH
 70
     0
  9
$DIMTOH
 70
     0
  9
$DIMSE1
 70
     0
  9
$DIMSE2
 70
     0
  9
$DIMTAD
 70
     3
  9
$DIMZIN
 70
     0
  9
$DIMBLK
  1

  9
$DIMASO
 70
     1
  9
$DIMSHO
 70
     1
  9
$DIMPOST
  1

  9
$DIMAPOST
  1

  9
$DIMALT
 70
     0
  9
$DIMALTD
 70
     2
  9
$DIMALTF
 40
25.4
  9
$DIMLFAC
 40
1.0
  9
$DIMTOFL
 70
     1
  9
$DIMTVP
 40
0.0
  9
$DIMTIX
 70
     0
  9
$DIMSOXD
 70
     0
  9
$DIMSAH
 70
     1
  9
$DIMBLK1
  1
OPEN30
  9
$DIMBLK2
  1
OPEN30
  9
$DIMSTYLE
  2
STANDARD
  9
$DIMCLRD
 70
     0
  9
$DIMCLRE
 70
     0
  9
$DIMCLRT
 70
     0
  9
$DIMTFAC
 40
1.0
  9
$DIMGAP
 40
0.5
  9
$DIMJUST
 70
     0
  9
$DIMSD1
 70
     0
  9
$DIMSD2
 70
     0
  9
$DIMTOLJ
 70
     1
  9
$DIMTZIN
 70
     0
  9
$DIMALTZ
 70
     0
  9
$DIMALTTZ
 70
     0
  9
$DIMUPT
 70
     0
  9
$DIMDEC
 70
     4
  9
$DIMTDEC
 70
     4
  9
$DIMALTU
 70
     2
  9
$DIMALTTD
 70
     2
  9
$DIMTXSTY
  7
Standard
  9
$DIMAUNIT
 70
     0
  9
$DIMADEC
 70
     0
  9
$DIMALTRND
 40
0.0
  9
$DIMAZIN
 70
     0
  9
$DIMDSEP
 70
    46
  9
$DIMATFIT
 70
     3
  9
$DIMFRAC
 70
     0
  9
$DIMLDRBLK
  1
OPEN30
  9
$DIMLUNIT
 70
     2
  9
$DIMLWD
 70
    -2
  9
$DIMLWE
 70
    -2
  9
$DIMTMOVE
 70
     0
  9
$LUNITS
 70
     2
  9
$LUPREC
 70
     4
  9
$SKETCHINC
 40
1.0
  9
$FILLETRAD
 40
0.0
  9
$AUNITS
 70
     0
  9
$AUPREC
 70
     0
  9
$MENU
  1
.
  9
$ELEVATION
 40
0.0
  9
$PELEVATION
 40
0.0
  9
$THICKNESS
 40
0.0
  9
$LIMCHECK
 70
     0
  9
$CHAMFERA
 40
0.0
  9
$CHAMFERB
 40
0.0
  9
$CHAMFERC
 40
0.0
  9
$CHAMFERD
 40
0.0
  9
$SKPOLY
 70
     0
  9
$TDCREATE
 40
2454349.434269746
  9
$TDUCREATE
 40
2454349.059269746
  9
$TDUPDATE
 40
2455756.338299537
  9
$TDUUPDATE
 40
2455755.963299537
  9
$TDINDWG
 40
0.2815477546
  9
$TDUSRTIMER
 40
0.2815477546
  9
$USRTIMER
 70
     1
  9
$ANGBASE
 50
0.0
  9
$ANGDIR
 70
     0
  9
$PDMODE
 70
     0
  9
$PDSIZE
 40
0.0
  9
$PLINEWID
 40
0.0
  9
$SPLFRAME
 70
     0
  9
$SPLINETYPE
 70
     6
  9
$SPLINESEGS
 70
     8
  9
$HANDSEED
  5
222
  9
$SURFTAB1
 70
     6
  9
$SURFTAB2
 70
     6
  9
$SURFTYPE
 70
     6
  9
$SURFU
 70
     6
  9
$SURFV
 70
     6
  9
$UCSBASE
  2

  9
$UCSNAME
  2

  9
$UCSORG
 10
0.0
 20
0.0
 30
0.0
  9
$UCSXDIR
 10
1.0
 20
0.0
 30
0.0
  9
$UCSYDIR
 10
0.0
 20
1.0
 30
0.0
  9
$UCSORTHOREF
  2

  9
$UCSORTHOVIEW
 70
     0
  9
$UCSORGTOP
 10
0.0
 20
0.0
 30
0.0
  9
$UCSORGBOTTOM
 10
0.0
 20
0.0
 30
0.0
  9
$UCSORGLEFT
 10
0.0
 20
0.0
 30
0.0
  9
$UCSORGRIGHT
 10
0.0
 20
0.0
 30
0.0
  9
$UCSORGFRONT
 10
0.0
 20
0.0
 30
0.0
  9
$UCSORGBACK
 10
0.0
 20
0.0
 30
0.0
  9
$PUCSBASE
  2

  9
$PUCSNAME
  2

  9
$PUCSORG
 10
0.0
 20
0.0
 30
0.0
  9
$PUCSXDIR
 10
1.0
 20
0.0
 30
0.0
  9
$PUCSYDIR
 10
0.0
 20
1.0
 30
0.0
  9
$PUCSORTHOREF
  2

  9
$PUCSORTHOVIEW
 70
     0
  9
$PUCSORGTOP
 10
0.0
 20
0.0
 30
0.0
  9
$PUCSORGBOTTOM
 10
0.0
 20
0.0
 30
0.0
  9
$PUCSORGLEFT
 10
0.0
 20
0.0
 30
0.0
  9
$PUCSORGRIGHT
 10
0.0
 20
0.0
 30
0.0
  9
$PUCSORGFRONT
 10
0.0
 20
0.0
 30
0.0
  9
$PUCSORGBACK
 10
0.0
 20
0.0
 30
0.0
  9
$USERI1
 70
     0
  9
$USERI2
 70
     0
  9
$USERI3
 70
     0
  9
$USERI4
 70
     0
  9
$USERI5
 70
     0
  9
$USERR1
 40
0.0
  9
$USERR2
 40
0.0
  9
$USERR3
 40
0.0
  9
$USERR4
 40
0.0
  9
$USERR5
 40
0.0
  9
$WORLDVIEW
 70
     1
  9
$SHADEDGE
 70
     3
  9
$SHADEDIF
 70
    70
  9
$TILEMODE
 70
     1
  9
$MAXACTVP
 70
    64
  9
$PINSBASE
 10
0.0
 20
0.0
 30
0.0
  9
$PLIMCHECK
 70
     0
  9
$PEXTMIN
 10
0.0
 20
0.0
 30
0.0
  9
$PEXTMAX
 10
0.0
 20
0.0
 30
0.0
  9
$PLIMMIN
 10
0.0
 20
0.0
  9
$PLIMMAX
 10
12.0
 20
9.0
  9
$UNITMODE
 70
     0
  9
$VISRETAIN
 70
     1
  9
$PLINEGEN
 70
     0
  9
$PSLTSCALE
 70
     1
  9
$TREEDEPTH
 70
  3020
  9
$CMLSTYLE
  2
Standard
  9
$CMLJUST
 70
     0
  9
$CMLSCALE
 40
20.0
  9
$PROXYGRAPHICS
 70
     1
  9
$MEASUREMENT
 70
     1
  9
$CELWEIGHT
370
    -1
  9
$ENDCAPS
280
     0
  9
$JOINSTYLE
280
     0
  9
$LWDISPLAY
290
     0
  9
$INSUNITS
 70
     4
  9
$HYPERLINKBASE
  1

  9
$STYLESHEET
  1

  9
$XEDIT
290
     1
  9
$CEPSNTYPE
380
     0
  9
$PSTYLEMODE
290
     1
  9
$FINGERPRINTGUID
  2
{FDEAD578-A652-11D2-9A35-0060089B3A3F}
  9
$VERSIONGUID
  2
{2C9F3F58-4FA6-405C-BB36-01EFE8796699}
  9
$EXTNAMES
290
     1
  9
$PSVPSCALE
 40
0.0
  9
$OLESTARTUP
290
     0
  0
ENDSEC
  0
SECTION
  2
CLASSES
  0
CLASS
  1
ACDBDICTIONARYWDFLT
  2
AcDbDictionaryWithDefault
  3
ObjectDBX Classes
 90
        0
280
     0
281
     0
  0
CLASS
  1
ACDBPLACEHOLDER
  2
AcDbPlaceHolder
  3
ObjectDBX Classes
 90
        0
280
     0
281
     0
  0
CLASS
  1
LAYOUT
  2
AcDbLayout
  3
ObjectDBX Classes
 90
        0
280
     0
281
     0
  0
CLASS
  1
DICTIONARYVAR
  2
AcDbDictionaryVar
  3
ObjectDBX Classes
 90
        0
280
     0
281
     0
  0
ENDSEC
  0
SECTION
  2
TABLES
  0
TABLE
  2
VPORT
  5
1B
330
0
100
AcDbSymbolTable
 70
     3
  0
VPORT
  5
21A
330
1B
100
AcDbSymbolTableRecord
100
AcDbViewportTableRecord
  2
*Active
 70
     0
 10
0.0
 20
0.0
 11
1.0
 21
1.0
 12
0.1474006359319446
 22
7.808395913462618
 13
0.0
 23
0.0
 14
10.0
 24
10.0
 15
10.0
 25
10.0
 16
0.0
 26
0.0
 36
1.0
 17
0.0
 27
0.0
 37
0.0
 40
113.8786871070964
 41
2.184110970996216
 42
50.0
 43
0.0
 44
0.0
 50
0.0
 51
0.0
 71
     0
 72
  1000
 73
     1
 74
     2
 75
     0
 76
     0
 77
     0
 78
     0
281
     0
 65
     1
110
0.0
120
0.0
130
0.0
111
1.0
121
0.0
131
0.0
112
0.0
122
1.0
132
0.0
 79
     0
146
0.0
  0
ENDTAB
  0
TABLE
  2
LTYPE
  5
16
330
0
100
AcDbSymbolTable
 70
     1
  0
LTYPE
  5
17
330
16
100
AcDbSymbolTableRecord
100
AcDbLinetypeTableRecord
  2
ByBlock
 70
     0
  3

 72
    65
 73
     0
 40
0.0
  0
LTYPE
  5
18
330
16
100
AcDbSymbolTableRecord
100
AcDbLinetypeTableRecord
  2
ByLayer
 70
     0
  3

 72
    65
 73
     0
 40
0.0
  0
LTYPE
  5
8
330
16
100
AcDbSymbolTableRecord
100
AcDbLinetypeTableRecord
  2
Continuous
 70
     0
  3
Solid line
 72
    65
 73
     0
 40
0.0
  0
ENDTAB
  0
TABLE
  2
LAYER
  5
10
102
{ACAD_XDICTIONARY
360
11
102
}
330
0
100
AcDbSymbolTable
 70
     7
  0
LAYER
  5
4
330
10
100
AcDbSymbolTableRecord
100
AcDbLayerTableRecord
  2
0
 70
     0
 62
     7
  6
Continuous
370
    -3
390
5
  0
LAYER
  5
1C7
330
10
100
AcDbSymbolTableRecord
100
AcDbLayerTableRecord
  2
WAKU
 70
     0
 62
     4
  6
Continuous
370
    -3
390
5
  0
LAYER
  5
30
330
10
100
AcDbSymbolTableRecord
100
AcDbLayerTableRecord
  2
MOJI1
 70
     0
 62
     2
  6
Continuous
370
    -3
390
5
  0
LAYER
  5
32
330
10
100
AcDbSymbolTableRecord
100
AcDbLayerTableRecord
  2
TOUROKU
 70
     0
 62
     1
  6
Continuous
370
    -3
390
5
  0
LAYER
  5
143
330
10
100
AcDbSymbolTableRecord
100
AcDbLayerTableRecord
  2
DEFPOINTS
 70
     0
 62
     7
  6
Continuous
290
     0
370
    -3
390
5
  0
LAYER
  5
2D
330
10
100
AcDbSymbolTableRecord
100
AcDbLayerTableRecord
  2
GAIKEI
 70
     0
 62
     7
  6
Continuous
370
    -3
390
5
  0
LAYER
  5
137
330
10
100
AcDbSymbolTableRecord
100
AcDbLayerTableRecord
  2
SUNPO
 70
     0
 62
     3
  6
Continuous
370
    -3
390
5
  0
ENDTAB
  0
TABLE
  2
STYLE
  5
13
330
0
100
AcDbSymbolTable
 70
     1
  0
STYLE
  5
14
330
13
100
AcDbSymbolTableRecord
100
AcDbTextStyleTableRecord
  2
Standard
 70
     0
 40
0.0
 41
1.0
 50
0.0
 71
     0
 42
2.5
  3
MONOTXT.shx
  4
BIGFONT.shx
  0
ENDTAB
  0
TABLE
  2
VIEW
  5
19
330
0
100
AcDbSymbolTable
 70
     0
  0
ENDTAB
  0
TABLE
  2
UCS
  5
1A
330
0
100
AcDbSymbolTable
 70
     0
  0
ENDTAB
  0
TABLE
  2
APPID
  5
1D
330
0
100
AcDbSymbolTable
 70
     1
  0
APPID
  5
1E
330
1D
100
AcDbSymbolTableRecord
100
AcDbRegAppTableRecord
  2
ACAD
 70
     0
  0
ENDTAB
  0
TABLE
  2
DIMSTYLE
  5
1F
330
0
100
AcDbSymbolTable
 70
     1
100
AcDbDimStyleTable
 71
     1
340
20
  0
DIMSTYLE
105
20
102
{ACAD_REACTORS
330
154
330
147
330
136
102
}
330
1F
100
AcDbSymbolTableRecord
100
AcDbDimStyleTableRecord
  2
STANDARD
 70
     0
 40
0.0
 41
2.0
 42
2.0
 43
8.0
 44
2.0
 73
     0
 74
     0
 77
     3
140
3.0
141
0.0
173
     1
279
     2
288
     1
340
14
341
21
343
21
344
21
  0
ENDTAB
  0
TABLE
  2
BLOCK_RECORD
  5
1
330
0
100
AcDbSymbolTable
 70
     7
  0
BLOCK_RECORD
  5
2
330
1
100
AcDbSymbolTableRecord
100
AcDbBlockTableRecord
  2
*Model_Space
340
A
  0
BLOCK_RECORD
  5
C
330
1
100
AcDbSymbolTableRecord
100
AcDbBlockTableRecord
  2
*Paper_Space
340
F
  0
BLOCK_RECORD
  5
21
330
1
100
AcDbSymbolTableRecord
100
AcDbBlockTableRecord
  2
_OPEN30
340
0
102
{BLKREFS
331
13F
331
140
331
14D
331
14E
331
15A
331
15B
331
1F4
331
1F5
331
200
331
201
331
20E
331
20F
102
}
  0
BLOCK_RECORD
  5
155
330
1
100
AcDbSymbolTableRecord
100
AcDbBlockTableRecord
  2
*D1
340
0
  0
BLOCK_RECORD
  5
148
330
1
100
AcDbSymbolTableRecord
100
AcDbBlockTableRecord
  2
*D2
340
0
  0
BLOCK_RECORD
  5
138
330
1
100
AcDbSymbolTableRecord
100
AcDbBlockTableRecord
  2
*D3
340
0
  0
BLOCK_RECORD
  5
1F0
330
1
100
AcDbSymbolTableRecord
100
AcDbBlockTableRecord
  2
*D4
340
0
  0
BLOCK_RECORD
  5
1FC
330
1
100
AcDbSymbolTableRecord
100
AcDbBlockTableRecord
  2
*D5
340
0
  0
BLOCK_RECORD
  5
208
330
1
100
AcDbSymbolTableRecord
100
AcDbBlockTableRecord
  2
*D6
340
0
  0
ENDTAB
  0
ENDSEC
  0
SECTION
  2
BLOCKS
  0
BLOCK
  5
3
330
2
100
AcDbEntity
  8
0
100
AcDbBlockBegin
  2
*Model_Space
 70
     0
 10
0.0
 20
0.0
 30
0.0
  3
*Model_Space
  1

  0
ENDBLK
  5
9
330
2
100
AcDbEntity
  8
0
100
AcDbBlockEnd
  0
BLOCK
  5
D
330
C
100
AcDbEntity
 67
     1
  8
0
100
AcDbBlockBegin
  2
*Paper_Space
 70
     0
 10
0.0
 20
0.0
 30
0.0
  3
*Paper_Space
  1

  0
ENDBLK
  5
E
330
C
100
AcDbEntity
 67
     1
  8
0
100
AcDbBlockEnd
  0
BLOCK
  5
22
330
21
100
AcDbEntity
  8
0
100
AcDbBlockBegin
  2
_OPEN30
 70
     0
 10
0.0
 20
0.0
 30
0.0
  3
_OPEN30
  1

  0
LINE
  5
23
330
21
100
AcDbEntity
  8
0
  6
ByBlock
 62
     0
100
AcDbLine
 10
-1.0
 20
0.26794919
 30
0.0
 11
0.0
 21
0.0
 31
0.0
  0
LINE
  5
24
330
21
100
AcDbEntity
  8
0
  6
ByBlock
 62
     0
100
AcDbLine
 10
0.0
 20
0.0
 30
0.0
 11
-1.0
 21
-0.26794919
 31
0.0
  0
LINE
  5
25
330
21
100
AcDbEntity
  8
0
  6
ByBlock
 62
     0
100
AcDbLine
 10
0.0
 20
0.0
 30
0.0
 11
-1.0
 21
0.0
 31
0.0
  0
ENDBLK
  5
26
330
21
100
AcDbEntity
  8
0
100
AcDbBlockEnd
  0
BLOCK
  5
156
330
155
100
AcDbEntity
  8
0
100
AcDbBlockBegin
  2
*D1
 70
     1
 10
0.0
 20
0.0
 30
0.0
  3
*D1
  1

  0
LINE
  5
157
330
155
100
AcDbEntity
  8
SUNPO
 62
     0
370
    -2
100
AcDbLine
 10
18.57507388723229
 20
345.8581264214168
 30
0.0
 11
18.57507388723229
 21
353.8581264214168
 31
0.0
  0
LINE
  5
158
330
155
100
AcDbEntity
  8
SUNPO
 62
     0
370
    -2
100
AcDbLine
 10
79.0750738630322
 20
345.8581264214168
 30
0.0
 11
79.0750738630322
 21
353.8581264214168
 31
0.0
  0
LINE
  5
159
330
155
100
AcDbEntity
  8
SUNPO
 62
     0
370
    -2
100
AcDbLine
 10
20.57507388723229
 20
351.8581264214168
 30
0.0
 11
77.0750738630322
 21
351.8581264214168
 31
0.0
  0
INSERT
  5
15A
330
155
100
AcDbEntity
  8
SUNPO
 62
     0
370
    -2
100
AcDbBlockReference
  2
_OPEN30
 10
18.57507388723229
 20
351.8581264214168
 30
0.0
 41
2.0
 42
2.0
 43
2.0
 50
180.0
  0
INSERT
  5
15B
330
155
100
AcDbEntity
  8
SUNPO
 62
     0
370
    -2
100
AcDbBlockReference
  2
_OPEN30
 10
79.0750738630322
 20
351.8581264214168
 30
0.0
 41
2.0
 42
2.0
 43
2.0
  0
MTEXT
  5
15C
330
155
100
AcDbEntity
  8
SUNPO
 62
     0
100
AcDbMText
 10
48.82507387513225
 20
353.6081264214169
 30
0.0
 40
2.5
 41
0.0
 71
     5
 72
     1
  1
\A1;1210
 73
     1
 44
1.0
1001
ACAD
1000
MTEXTBEGIN
1070
    73
1070
     1
1070
    44
1040
1.0
1070
    74
1070
     0
1000
MTEXTEND
  0
POINT
  5
15D
330
155
100
AcDbEntity
  8
DEFPOINTS
 62
     0
100
AcDbPoint
 10
18.57507388723229
 20
343.8581264214168
 30
0.0
  0
POINT
  5
15E
330
155
100
AcDbEntity
  8
DEFPOINTS
 62
     0
100
AcDbPoint
 10
79.0750738630322
 20
343.8581264214168
 30
0.0
  0
POINT
  5
15F
330
155
100
AcDbEntity
  8
DEFPOINTS
 62
     0
100
AcDbPoint
 10
79.0750738630322
 20
351.8581264214168
 30
0.0
  0
ENDBLK
  5
160
330
155
100
AcDbEntity
  8
0
100
AcDbBlockEnd
  0
BLOCK
  5
149
330
148
100
AcDbEntity
  8
0
100
AcDbBlockBegin
  2
*D2
 70
     1
 10
0.0
 20
0.0
 30
0.0
  3
*D2
  1

  0
LINE
  5
14A
330
148
100
AcDbEntity
  8
SUNPO
 62
     0
370
    -2
100
AcDbLine
 10
80.63530867330454
 20
307.6661027301073
 30
0.0
 11
88.63530867330453
 21
307.6661027301073
 31
0.0
  0
LINE
  5
14B
330
148
100
AcDbEntity
  8
SUNPO
 62
     0
370
    -2
100
AcDbLine
 10
80.63530867330451
 20
343.8584128657682
 30
0.0
 11
88.63530867330453
 21
343.8584128657682
 31
0.0
  0
LINE
  5
14C
330
148
100
AcDbEntity
  8
SUNPO
 62
     0
370
    -2
100
AcDbLine
 10
86.63530867330454
 20
309.6661027301073
 30
0.0
 11
86.63530867330454
 21
341.8584128657682
 31
0.0
  0
INSERT
  5
14D
330
148
100
AcDbEntity
  8
SUNPO
 62
     0
370
    -2
100
AcDbBlockReference
  2
_OPEN30
 10
86.63530867330454
 20
307.6661027301073
 30
0.0
 41
2.0
 42
2.0
 43
2.0
 50
270.0
  0
INSERT
  5
14E
330
148
100
AcDbEntity
  8
SUNPO
 62
     0
370
    -2
100
AcDbBlockReference
  2
_OPEN30
 10
86.63530867330454
 20
343.8584128657682
 30
0.0
 41
2.0
 42
2.0
 43
2.0
 50
90.0
  0
MTEXT
  5
14F
330
148
100
AcDbEntity
  8
SUNPO
 62
     0
100
AcDbMText
 10
84.88530867330448
 20
325.7622577979378
 30
0.0
 40
2.5
 41
0.0
 71
     5
 72
     1
  1
\A1;724
 11
0.0000000000000001
 21
1.0
 31
0.0
 73
     1
 44
1.0
1001
ACAD
1000
MTEXTBEGIN
1070
    73
1070
     1
1070
    44
1040
1.0
1070
    74
1070
     0
1000
MTEXTEND
  0
POINT
  5
150
330
148
100
AcDbEntity
  8
DEFPOINTS
 62
     0
100
AcDbPoint
 10
78.63530867330453
 20
307.6661027301073
 30
0.0
  0
POINT
  5
151
330
148
100
AcDbEntity
  8
DEFPOINTS
 62
     0
100
AcDbPoint
 10
78.6353086733045
 20
343.8584128657682
 30
0.0
  0
POINT
  5
152
330
148
100
AcDbEntity
  8
DEFPOINTS
 62
     0
100
AcDbPoint
 10
86.63530867330454
 20
343.8584128657682
 30
0.0
  0
ENDBLK
  5
153
330
148
100
AcDbEntity
  8
0
100
AcDbBlockEnd
  0
BLOCK
  5
139
330
138
100
AcDbEntity
  8
0
100
AcDbBlockBegin
  2
*D3
 70
     1
 10
0.0
 20
0.0
 30
0.0
  3
*D3
  1

  0
LINE
  5
13A
330
138
100
AcDbEntity
  8
SUNPO
 62
     0
370
    -2
100
AcDbLine
 10
98.7635311257692
 20
345.8646589259759
 30
0.0
 11
98.7635311257692
 21
353.8581264214168
 31
0.0
  0
LINE
  5
13B
330
138
100
AcDbEntity
  8
SUNPO
 62
     0
370
    -2
100
AcDbLine
 10
103.2135311257692
 20
345.8646589259759
 30
0.0
 11
103.2135311257692
 21
353.8581264214168
 31
0.0
  0
LINE
  5
13C
330
138
100
AcDbEntity
  8
SUNPO
 62
     0
370
    -2
100
AcDbLine
 10
96.76353112576919
 20
351.8581264214168
 30
0.0
 11
94.76353112576919
 21
351.8581264214168
 31
0.0
  0
LINE
  5
13D
330
138
100
AcDbEntity
  8
SUNPO
 62
     0
370
    -2
100
AcDbLine
 10
105.2135311257692
 20
351.8581264214168
 30
0.0
 11
112.3801977924358
 21
351.8581264214168
 31
0.0
  0
LINE
  5
13E
330
138
100
AcDbEntity
  8
SUNPO
 62
     0
370
    -2
100
AcDbLine
 10
98.7635311257692
 20
351.8581264214168
 30
0.0
 11
103.2135311257692
 21
351.8581264214168
 31
0.0
  0
INSERT
  5
13F
330
138
100
AcDbEntity
  8
SUNPO
 62
     0
370
    -2
100
AcDbBlockReference
  2
_OPEN30
 10
98.7635311257692
 20
351.8581264214168
 30
0.0
 41
2.0
 42
2.0
 43
2.0
  0
INSERT
  5
140
330
138
100
AcDbEntity
  8
SUNPO
 62
     0
370
    -2
100
AcDbBlockReference
  2
_OPEN30
 10
103.2135311257692
 20
351.8581264214168
 30
0.0
 41
2.0
 42
2.0
 43
2.0
 50
180.0
  0
MTEXT
  5
141
330
138
100
AcDbEntity
  8
SUNPO
 62
     0
100
AcDbMText
 10
109.7968644591025
 20
353.6081264214169
 30
0.0
 40
2.5
 41
0.0
 71
     5
 72
     1
  1
\A1;89
 73
     1
 44
1.0
1001
ACAD
1000
MTEXTBEGIN
1070
    73
1070
     1
1070
    44
1040
1.0
1070
    74
1070
     0
1000
MTEXTEND
  0
POINT
  5
142
330
138
100
AcDbEntity
  8
DEFPOINTS
 62
     0
100
AcDbPoint
 10
98.7635311257692
 20
343.8646589259759
 30
0.0
  0
POINT
  5
144
330
138
100
AcDbEntity
  8
DEFPOINTS
 62
     0
100
AcDbPoint
 10
103.2135311257692
 20
343.8646589259759
 30
0.0
  0
POINT
  5
145
330
138
100
AcDbEntity
  8
DEFPOINTS
 62
     0
100
AcDbPoint
 10
103.2135311257692
 20
351.8581264214168
 30
0.0
  0
ENDBLK
  5
146
330
138
100
AcDbEntity
  8
0
100
AcDbBlockEnd
  0
BLOCK
  5
1FA
330
1F0
100
AcDbEntity
  8
0
100
AcDbBlockBegin
  2
*D4
 70
     1
 10
0.0
 20
0.0
 30
0.0
  3
*D4
  1

  0
LINE
  5
1F1
330
1F0
100
AcDbEntity
  8
SUNPO
 62
     0
370
    -2
100
AcDbLine
 10
-46.28476062702293
 20
39.67119577126266
 30
0.0
 11
-46.28476062702293
 21
47.67119577126265
 31
0.0
  0
LINE
  5
1F2
330
1F0
100
AcDbEntity
  8
SUNPO
 62
     0
370
    -2
100
AcDbLine
 10
14.21523934877697
 20
39.67119577126266
 30
0.0
 11
14.21523934877697
 21
47.67119577126265
 31
0.0
  0
LINE
  5
1F3
330
1F0
100
AcDbEntity
  8
SUNPO
 62
     0
370
    -2
100
AcDbLine
 10
-44.28476062702293
 20
45.67119577126265
 30
0.0
 11
12.21523934877697
 21
45.67119577126265
 31
0.0
  0
INSERT
  5
1F4
330
1F0
100
AcDbEntity
  8
SUNPO
 62
     0
370
    -2
100
AcDbBlockReference
  2
_OPEN30
 10
-46.28476062702293
 20
45.67119577126265
 30
0.0
 41
2.0
 42
2.0
 43
2.0
 50
180.0
  0
INSERT
  5
1F5
330
1F0
100
AcDbEntity
  8
SUNPO
 62
     0
370
    -2
100
AcDbBlockReference
  2
_OPEN30
 10
14.21523934877697
 20
45.67119577126265
 30
0.0
 41
2.0
 42
2.0
 43
2.0
  0
MTEXT
  5
1F6
330
1F0
100
AcDbEntity
  8
SUNPO
 62
     0
100
AcDbMText
 10
-16.03476063912298
 20
47.42119577126266
 30
0.0
 40
2.5
 41
0.0
 71
     5
 72
     1
  1
\A1;1210
 73
     1
 44
1.0
1001
ACAD
1000
MTEXTBEGIN
1070
    73
1070
     1
1070
    44
1040
1.0
1070
    74
1070
     0
1000
MTEXTEND
  0
POINT
  5
1F7
330
1F0
100
AcDbEntity
  8
DEFPOINTS
 62
     0
100
AcDbPoint
 10
-46.28476062702293
 20
37.67119577126266
 30
0.0
  0
POINT
  5
1F8
330
1F0
100
AcDbEntity
  8
DEFPOINTS
 62
     0
100
AcDbPoint
 10
14.21523934877697
 20
37.67119577126266
 30
0.0
  0
POINT
  5
1F9
330
1F0
100
AcDbEntity
  8
DEFPOINTS
 62
     0
100
AcDbPoint
 10
14.21523934877697
 20
45.67119577126265
 30
0.0
  0
ENDBLK
  5
1FB
330
1F0
100
AcDbEntity
  8
0
100
AcDbBlockEnd
  0
BLOCK
  5
206
330
1FC
100
AcDbEntity
  8
0
100
AcDbBlockBegin
  2
*D5
 70
     1
 10
0.0
 20
0.0
 30
0.0
  3
*D5
  1

  0
LINE
  5
1FD
330
1FC
100
AcDbEntity
  8
SUNPO
 62
     0
370
    -2
100
AcDbLine
 10
15.77547415904931
 20
1.479172079953172
 30
0.0
 11
23.7754741590493
 21
1.47917207995317
 31
0.0
  0
LINE
  5
1FE
330
1FC
100
AcDbEntity
  8
SUNPO
 62
     0
370
    -2
100
AcDbLine
 10
15.77547415904928
 20
37.67148221561399
 30
0.0
 11
23.77547415904931
 21
37.67148221561399
 31
0.0
  0
LINE
  5
1FF
330
1FC
100
AcDbEntity
  8
SUNPO
 62
     0
370
    -2
100
AcDbLine
 10
21.7754741590493
 20
3.47917207995317
 30
0.0
 11
21.77547415904931
 21
35.67148221561398
 31
0.0
  0
INSERT
  5
200
330
1FC
100
AcDbEntity
  8
SUNPO
 62
     0
370
    -2
100
AcDbBlockReference
  2
_OPEN30
 10
21.7754741590493
 20
1.47917207995317
 30
0.0
 41
2.0
 42
2.0
 43
2.0
 50
270.0
  0
INSERT
  5
201
330
1FC
100
AcDbEntity
  8
SUNPO
 62
     0
370
    -2
100
AcDbBlockReference
  2
_OPEN30
 10
21.77547415904931
 20
37.67148221561399
 30
0.0
 41
2.0
 42
2.0
 43
2.0
 50
90.0
  0
MTEXT
  5
202
330
1FC
100
AcDbEntity
  8
SUNPO
 62
     0
100
AcDbMText
 10
20.0254741590493
 20
19.57532714778358
 30
0.0
 40
2.5
 41
0.0
 71
     5
 72
     1
  1
\A1;724
 11
0.0000000000000001
 21
1.0
 31
0.0
 73
     1
 44
1.0
1001
ACAD
1000
MTEXTBEGIN
1070
    73
1070
     1
1070
    44
1040
1.0
1070
    74
1070
     0
1000
MTEXTEND
  0
POINT
  5
203
330
1FC
100
AcDbEntity
  8
DEFPOINTS
 62
     0
100
AcDbPoint
 10
13.77547415904931
 20
1.479172079953173
 30
0.0
  0
POINT
  5
204
330
1FC
100
AcDbEntity
  8
DEFPOINTS
 62
     0
100
AcDbPoint
 10
13.77547415904928
 20
37.67148221561399
 30
0.0
  0
POINT
  5
205
330
1FC
100
AcDbEntity
  8
DEFPOINTS
 62
     0
100
AcDbPoint
 10
21.77547415904931
 20
37.67148221561399
 30
0.0
  0
ENDBLK
  5
207
330
1FC
100
AcDbEntity
  8
0
100
AcDbBlockEnd
  0
BLOCK
  5
214
330
208
100
AcDbEntity
  8
0
100
AcDbBlockBegin
  2
*D6
 70
     1
 10
0.0
 20
0.0
 30
0.0
  3
*D6
  1

  0
LINE
  5
209
330
208
100
AcDbEntity
  8
SUNPO
 62
     0
370
    -2
100
AcDbLine
 10
33.90369661151396
 20
39.67772827582178
 30
0.0
 11
33.90369661151396
 21
47.67119577126265
 31
0.0
  0
LINE
  5
20A
330
208
100
AcDbEntity
  8
SUNPO
 62
     0
370
    -2
100
AcDbLine
 10
38.35369661151395
 20
39.67772827582178
 30
0.0
 11
38.35369661151395
 21
47.67119577126265
 31
0.0
  0
LINE
  5
20B
330
208
100
AcDbEntity
  8
SUNPO
 62
     0
370
    -2
100
AcDbLine
 10
31.90369661151397
 20
45.67119577126265
 30
0.0
 11
29.90369661151397
 21
45.67119577126265
 31
0.0
  0
LINE
  5
20C
330
208
100
AcDbEntity
  8
SUNPO
 62
     0
370
    -2
100
AcDbLine
 10
40.35369661151395
 20
45.67119577126265
 30
0.0
 11
47.52036327818061
 21
45.67119577126265
 31
0.0
  0
LINE
  5
20D
330
208
100
AcDbEntity
  8
SUNPO
 62
     0
370
    -2
100
AcDbLine
 10
33.90369661151396
 20
45.67119577126265
 30
0.0
 11
38.35369661151395
 21
45.67119577126265
 31
0.0
  0
INSERT
  5
20E
330
208
100
AcDbEntity
  8
SUNPO
 62
     0
370
    -2
100
AcDbBlockReference
  2
_OPEN30
 10
33.90369661151396
 20
45.67119577126265
 30
0.0
 41
2.0
 42
2.0
 43
2.0
  0
INSERT
  5
20F
330
208
100
AcDbEntity
  8
SUNPO
 62
     0
370
    -2
100
AcDbBlockReference
  2
_OPEN30
 10
38.35369661151395
 20
45.67119577126265
 30
0.0
 41
2.0
 42
2.0
 43
2.0
 50
180.0
  0
MTEXT
  5
210
330
208
100
AcDbEntity
  8
SUNPO
 62
     0
100
AcDbMText
 10
44.93702994484729
 20
47.42119577126266
 30
0.0
 40
2.5
 41
0.0
 71
     5
 72
     1
  1
\A1;89
 73
     1
 44
1.0
1001
ACAD
1000
MTEXTBEGIN
1070
    73
1070
     1
1070
    44
1040
1.0
1070
    74
1070
     0
1000
MTEXTEND
  0
POINT
  5
211
330
208
100
AcDbEntity
  8
DEFPOINTS
 62
     0
100
AcDbPoint
 10
33.90369661151396
 20
37.67772827582178
 30
0.0
  0
POINT
  5
212
330
208
100
AcDbEntity
  8
DEFPOINTS
 62
     0
100
AcDbPoint
 10
38.35369661151395
 20
37.67772827582178
 30
0.0
  0
POINT
  5
213
330
208
100
AcDbEntity
  8
DEFPOINTS
 62
     0
100
AcDbPoint
 10
38.35369661151395
 20
45.67119577126265
 30
0.0
  0
ENDBLK
  5
215
330
208
100
AcDbEntity
  8
0
100
AcDbBlockEnd
  0
ENDSEC
  0
SECTION
  2
ENTITIES
  0
TEXT
  5
2F
330
2
100
AcDbEntity
  8
MOJI1
100
AcDbText
 10
-35.35983457021436
 20
60.31390447478066
 30
0.0
 40
4.0
  1
ハイビジョンプラズマディスプレイ
100
AcDbText
  0
TEXT
  5
31
330
2
100
AcDbEntity
  8
TOUROKU
100
AcDbText
 10
44.37344879604652
 20
54.3139044747802
 30
0.0
 40
2.0
  1
ＴＨ５０ＰＦ３０
 72
     2
 11
62.64011546271319
 21
54.3139044747802
 31
0.0
100
AcDbText
  0
SPLINE
  5
33
330
2
100
AcDbEntity
  8
GAIKEI
  6
Continuous
 62
     1
100
AcDbSpline
210
0.0
220
0.0
230
1.0
 70
     8
 71
     3
 72
    19
 73
    15
 74
    13
 42
0.0000000001
 43
0.0000000001
 44
0.000001
 12
-0.4537847692220346
 22
-0.891111319208832
 32
0.0
 13
0.0558661521317871
 23
-0.9984382670180407
 33
0.0
 40
0.0
 40
0.0
 40
0.0
 40
0.0
 40
0.0058433329848989
 40
0.0115431011623589
 40
0.0191493870676808
 40
0.0323458963040312
 40
0.0491681393602464
 40
0.069780667886457
 40
0.0924149932146329
 40
0.114987861298643
 40
0.137218237240033
 40
0.1535179712648737
 40
0.1694067174933783
 40
0.1997454480061719
 40
0.1997454480061719
 40
0.1997454480061719
 40
0.1997454480061719
 10
34.06775479609411
 20
37.54377189770798
 30
0.0
 10
34.06687092425743
 20
37.5420362109864
 30
0.0
 10
34.06527773233675
 20
37.53852287094566
 30
0.0
 10
34.06333145936718
 20
37.53243664459172
 30
0.0
 10
34.06103880966858
 20
37.52390270626989
 30
0.0
 10
34.05866538173047
 20
37.51157228213356
 30
0.0
 10
34.05673218869321
 20
37.49479093807503
 30
0.0
 10
34.0560081601092
 20
37.47475845444905
 30
0.0
 10
34.05687953678977
 20
37.45281995422698
 30
0.0
 10
34.05892329890694
 20
37.43042880594203
 30
0.0
 10
34.06133467658771
 20
37.41020364255758
 30
0.0
 10
34.06356018947753
 20
37.39220131073262
 30
0.0
 10
34.06600317910068
 20
37.37150172148239
 30
0.0
 10
34.06718982671601
 20
37.35612994307746
 30
0.0
 10
34.06775479609411
 20
37.3460328265719
 30
0.0
 11
34.06775479609411
 21
37.54377189770798
 31
0.0
 11
34.0653663302071
 21
37.53843873704125
 31
0.0
 11
34.06356300092773
 21
37.53303183919627
 31
0.0
 11
34.06158838247751
 21
37.52568633317049
 31
0.0
 11
34.05903936279242
 21
37.51273832472532
 31
0.0
 11
34.0570752234334
 21
37.49603110869316
 31
0.0
 11
34.0562817833046
 21
37.47543382635092
 31
0.0
 11
34.0570745267832
 21
37.4528133749941
 31
0.0
 11
34.0590385959631
 21
37.43032611859906
 31
0.0
 11
34.06158786952853
 21
37.40824241347093
 31
0.0
 11
34.06356274022278
 21
37.3920627915287
 31
0.0
 11
34.06536628033081
 21
37.37627680839648
 31
0.0
 11
34.06775479609411
 21
37.3460328265719
 31
0.0
  0
SPLINE
  5
34
330
2
100
AcDbEntity
  8
GAIKEI
  6
Continuous
 62
     1
100
AcDbSpline
210
0.0
220
0.0
230
1.0
 70
     8
 71
     3
 72
    11
 73
     7
 74
     5
 42
0.0000000001
 43
0.0000000001
 44
0.000001
 12
-0.9272724310398604
 22
-0.3743872842838379
 32
0.0
 13
-0.8850743362206914
 23
-0.465449695846396
 33
0.0
 40
0.0
 40
0.0
 40
0.0
 40
0.0
 40
0.0143995265551268
 40
0.0364303848129772
 40
0.054352588973912
 40
0.0655662738736491
 40
0.0655662738736491
 40
0.0655662738736491
 40
0.0655662738736491
 10
34.12571302078664
 20
37.3765705477631
 30
0.0
 10
34.12126225945511
 20
37.37477354788246
 30
0.0
 10
34.1101245231487
 20
37.3699092245804
 30
0.0
 10
34.0941807389904
 20
37.36125781702242
 30
0.0
 10
34.07962461100374
 20
37.35236484710038
 30
0.0
 10
34.07106311100051
 20
37.34777262864731
 30
0.0
 10
34.06775479609411
 20
37.34603282657201
 30
0.0
 11
34.12571302078664
 21
37.3765705477631
 31
0.0
 11
34.11252756658325
 21
37.37078304108911
 31
0.0
 11
34.09308249298476
 21
37.36042688794623
 31
0.0
 11
34.0776132003964
 21
37.35137640499932
 31
0.0
 11
34.06775479609411
 21
37.34603282657201
 31
0.0
  0
SPLINE
  5
35
330
2
100
AcDbEntity
  8
GAIKEI
  6
Continuous
 62
     1
100
AcDbSpline
210
0.0
220
0.0
230
1.0
 70
     8
 71
     3
 72
    15
 73
    11
 74
     9
 42
0.0000000001
 43
0.0000000001
 44
0.000001
 12
0.1151974769613444
 22
0.9933426102316062
 32
0.0
 13
-0.8415501913672637
 23
0.5401789290686209
 33
0.0
 40
0.0
 40
0.0
 40
0.0
 40
0.0
 40
0.0394084963478186
 40
0.0771399072617108
 40
0.1117967484185931
 40
0.1420880407746224
 40
0.1668916500996185
 40
0.1853241616436331
 40
0.1968791077613228
 40
0.2022733320264256
 40
0.2022733320264256
 40
0.2022733320264256
 40
0.2022733320264256
 10
34.12571302078664
 20
37.3765705477631
 30
0.0
 10
34.12722627390333
 20
37.38961926063894
 30
0.0
 10
34.12983752814844
 20
37.41520595405291
 30
0.0
 10
34.13259039642273
 20
37.45236436721649
 30
0.0
 10
34.13430039639732
 20
37.48658126892053
 30
0.0
 10
34.13480191433254
 20
37.51641416588268
 30
0.0
 10
34.13470653522349
 20
37.54115647755071
 30
0.0
 10
34.13259569796102
 20
37.55883861617775
 30
0.0
 10
34.13179073434541
 20
37.57151791418607
 30
0.0
 10
34.12722619094078
 20
37.57532517261842
 30
0.0
 10
34.12571302078658
 20
37.576296454714
 30
0.0
 11
34.12571302078664
 21
37.3765705477631
 31
0.0
 11
34.12970768942126
 21
37.41577543985375
 31
0.0
 11
34.13250851446657
 21
37.45340274811918
 31
0.0
 11
34.13416761981171
 21
37.48801984469344
 31
0.0
 11
34.13471708832697
 21
37.51830613850586
 31
0.0
 11
34.13416773512989
 21
37.54310363761977
 31
0.0
 11
34.13250869544266
 21
37.56146127871796
 31
0.0
 11
34.12970784270192
 21
37.57267132712718
 31
0.0
 11
34.12571302078658
 21
37.576296454714
 31
0.0
  0
SPLINE
  5
36
330
2
100
AcDbEntity
  8
GAIKEI
  6
Continuous
 62
     1
100
AcDbSpline
210
0.0
220
0.0
230
1.0
 70
     8
 71
     3
 72
    13
 73
     9
 74
     7
 42
0.0000000001
 43
0.0000000001
 44
0.000001
 12
-0.9958439311814659
 22
-0.091076147969947
 32
0.0
 13
-0.9929680145434634
 23
-0.1183829468023682
 33
0.0
 40
0.0
 40
0.0
 40
0.0
 40
0.0
 40
0.2790849670557496
 40
0.4824077539591935
 40
0.6857426128006063
 40
0.8891214813044722
 40
1.092568902581013
 40
1.132064281388675
 40
1.132064281388675
 40
1.132064281388675
 40
1.132064281388675
 10
38.01822224413144
 20
3.154214373425133
 30
0.0
 10
37.92558055388929
 20
3.145741712173219
 30
0.0
 10
37.765485257361
 20
3.130666924902698
 30
0.0
 10
37.53800597932388
 20
3.108247463693942
 30
0.0
 10
37.33573252142527
 20
3.087386531343838
 30
0.0
 10
37.13352631260861
 20
3.065493090655081
 30
0.0
 10
36.98571436198837
 20
3.048591434184686
 30
0.0
 10
36.90529684185407
 20
3.0390554017672
 30
0.0
 10
36.89222429256131
 20
3.03749687532445
 30
0.0
 11
38.01822224413144
 21
3.154214373425133
 31
0.0
 11
37.74036505299671
 21
3.12806518848788
 31
0.0
 11
37.53802547374403
 21
3.10809412693743
 31
0.0
 11
37.33576536277855
 21
3.087215737254609
 31
0.0
 11
37.13357157344825
 21
3.06529250580445
 31
0.0
 11
36.93144505618545
 21
3.042146975367359
 31
0.0
 11
36.89222429256131
 21
3.03749687532445
 31
0.0
  0
SPLINE
  5
37
330
2
100
AcDbEntity
  8
GAIKEI
  6
Continuous
 62
     1
100
AcDbSpline
210
0.0
220
0.0
230
1.0
 70
     8
 71
     3
 72
    23
 73
    19
 74
    17
 42
0.0000000001
 43
0.0000000001
 44
0.000001
 12
0.1037512493360999
 22
-0.9946032768200588
 32
0.0
 13
-0.9066396789115103
 23
-0.4219057864301387
 33
0.0
 40
0.0
 40
0.0
 40
0.0
 40
0.0
 40
0.06070261108013
 40
0.1185986751946615
 40
0.1736064872697767
 40
0.2256490779792204
 40
0.2746574152566538
 40
0.3205734925395617
 40
0.3633544662869463
 40
0.4029783719658721
 40
0.438923835632511
 40
0.4721139622826788
 40
0.5025974616641518
 40
0.5304770080022378
 40
0.5559339520156497
 40
0.5792613998137277
 40
0.6009024388063931
 40
0.6214788907307584
 40
0.6214788907307584
 40
0.6214788907307584
 40
0.6214788907307584
 10
38.2369735959179
 20
31.41305803774765
 30
0.0
 10
38.2390729198304
 20
31.39293303245035
 30
0.0
 10
38.24268092028936
 20
31.35356061892549
 30
0.0
 10
38.24662303073195
 20
31.2958208203753
 30
0.0
 10
38.24893435973653
 20
31.24088035977616
 30
0.0
 10
38.2496486181949
 20
31.18885804486797
 30
0.0
 10
38.24877558807856
 20
31.13986772052675
 30
0.0
 10
38.24632453986005
 20
31.09402034338143
 30
0.0
 10
38.24229744576746
 20
31.05142301625051
 30
0.0
 10
38.23671835853811
 20
31.01235143920815
 30
0.0
 10
38.22958238360626
 20
30.97678546236341
 30
0.0
 10
38.22095012848805
 20
30.94469277286214
 30
0.0
 10
38.21078260320076
 20
30.91588085764783
 30
0.0
 10
38.19908536772198
 20
30.89045612117451
 30
0.0
 10
38.18585331683262
 20
30.86851647002925
 30
0.0
 10
38.1710404575976
 20
30.85019777755673
 30
0.0
 10
38.15464264743767
 20
30.83557050213324
 30
0.0
 10
38.14236283870945
 20
30.82848454220658
 30
0.0
 10
38.13614436278749
 20
30.82559076749624
 30
0.0
 11
38.2369735959179
 21
31.41305803774765
 31
0.0
 11
38.24252598370288
 21
31.3526107344087
 31
0.0
 11
38.24642987834216
 21
31.29484644981642
 31
0.0
 11
38.24870860776594
 21
31.23988586625762
 31
0.0
 11
38.24938003772479
 21
31.18784761705808
 31
0.0
 11
38.24845659618245
 21
31.13884799197865
 31
0.0
 11
38.24594531239654
 21
31.09300065409934
 31
0.0
 11
38.24184787027582
 21
31.05041636876831
 31
0.0
 11
38.23616067557322
 21
31.01120274513971
 31
0.0
 11
38.2290079074827
 21
30.97597615347013
 31
0.0
 11
38.2202929648613
 21
30.94395065423646
 31
0.0
 11
38.21003931627934
 21
30.91524343372953
 31
0.0
 11
38.19826536219233
 21
30.88997208858302
 31
0.0
 11
38.18498420219873
 21
30.86825425847588
 31
0.0
 11
38.17020341192864
 21
30.85020724359481
 31
0.0
 11
38.15392483091108
 21
30.83594760766948
 31
0.0
 11
38.13614436278749
 21
30.82559076749624
 31
0.0
  0
SPLINE
  5
38
330
2
100
AcDbEntity
  8
GAIKEI
  6
Continuous
 62
     1
100
AcDbSpline
210
0.0
220
0.0
230
1.0
 70
     8
 71
     3
 72
    27
 73
    23
 74
    21
 42
0.0000000001
 43
0.0000000001
 44
0.000001
 12
-0.3587289631765114
 22
-0.9334417662491352
 32
0.0
 13
-0.3043867708718783
 23
-0.952548525650106
 33
0.0
 40
0.0
 40
0.0
 40
0.0
 40
0.0
 40
0.000052765316051
 40
0.0137452944831976
 40
0.0277848726959968
 40
0.0420904151999908
 40
0.0621802894338917
 40
0.0825042457509834
 40
0.1029273041857152
 40
0.1204407067947604
 40
0.1390172120262883
 40
0.1586623151565408
 40
0.1727209773580802
 40
0.1881397105005388
 40
0.2049363464391849
 40
0.2220007426194551
 40
0.2384281114962988
 40
0.2550330349711568
 40
0.2718074234064906
 40
0.3201416250121721
 40
0.3656184092027225
 40
0.4082186707019194
 40
0.4082186707019194
 40
0.4082186707019194
 40
0.4082186707019194
 10
37.90614235785586
 20
30.40444589735921
 30
0.0
 10
37.90613604837349
 20
30.40442947957592
 30
0.0
 10
37.904492774551
 20
30.40015253916119
 30
0.0
 10
37.90121186675015
 20
30.39149130424869
 30
0.0
 10
37.89640409941345
 20
30.37832894375436
 30
0.0
 10
37.89107593612076
 20
30.36308787110306
 30
0.0
 10
37.88544687872738
 20
30.34573537012682
 30
0.0
 10
37.87983671156033
 20
30.32624362829444
 30
0.0
 10
37.87516276118754
 20
30.30738852826659
 30
0.0
 10
37.87136705599275
 20
30.2889332847837
 30
0.0
 10
37.86822154483467
 20
30.27062027683508
 30
0.0
 10
37.86577096211662
 20
30.25336426196509
 30
0.0
 10
37.86383276312751
 20
30.23710458829737
 30
0.0
 10
37.86221467281283
 20
30.22176468365734
 30
0.0
 10
37.86064666161127
 20
30.20541290540973
 30
0.0
 10
37.85916872516562
 20
30.18871533811205
 30
0.0
 10
37.85762723465521
 20
30.17208772122194
 30
0.0
 10
37.85603174659878
 20
30.15556220408309
 30
0.0
 10
37.85345211848163
 20
30.12844753664388
 30
0.0
 10
37.84873614250151
 20
30.09186182964095
 30
0.0
 10
37.8397083430193
 20
30.04725451237352
 30
0.0
 10
37.83174234931371
 20
30.01896628629601
 30
0.0
 10
37.82742003063504
 20
30.00544001420156
 30
0.0
 11
37.90614235785586
 21
30.40444589735921
 31
0.0
 11
37.90612343024191
 21
30.4043966432971
 31
0.0
 11
37.90127697684727
 21
30.3915903211622
 31
0.0
 11
37.89646386480274
 21
30.37840154229253
 31
0.0
 11
37.89175371885284
 21
30.36489364606211
 31
0.0
 11
37.8855763799595
 21
30.34577705517245
 31
0.0
 11
37.87996642157543
 21
30.32624267115966
 31
0.0
 11
37.87507193334477
 21
30.30641476428503
 31
0.0
 11
37.87152864447796
 21
30.28926353168413
 31
0.0
 11
37.86836719954602
 21
30.2709580089977
 31
0.0
 11
37.86559304485547
 21
30.25150976106272
 31
0.0
 11
37.86391553058252
 21
30.23755154018079
 31
0.0
 11
37.86228509967464
 21
30.22221925740689
 31
0.0
 11
37.86067443022364
 21
30.205500036177
 31
0.0
 11
37.85913700588321
 21
30.1885050581401
 31
0.0
 11
37.85762139223306
 21
30.172147783318
 31
0.0
 11
37.85604003478369
 21
30.15561837446671
 31
0.0
 11
37.85439961158181
 21
30.13892447388446
 31
0.0
 11
37.84802847493364
 21
30.09101284223812
 31
0.0
 11
37.83894922044851
 21
30.04645104845065
 31
0.0
 11
37.82742003063504
 21
30.00544001420156
 31
0.0
  0
SPLINE
  5
39
330
2
100
AcDbEntity
  8
GAIKEI
  6
Continuous
 62
     1
100
AcDbSpline
210
0.0
220
0.0
230
1.0
 70
     8
 71
     3
 72
    30
 73
    26
 74
    24
 42
0.0000000001
 43
0.0000000001
 44
0.000001
 12
-0.0200236380412519
 22
-0.9997995068610471
 32
0.0
 13
0.6382126117635996
 23
-0.7698601575519316
 33
0.0
 40
0.0
 40
0.0
 40
0.0
 40
0.0
 40
0.0166069238215936
 40
0.0373010785548882
 40
0.0621612230433276
 40
0.0912321347745228
 40
0.1271247647504669
 40
0.1661149835442039
 40
0.1996843709300488
 40
0.2075830122509336
 40
0.2151115874076527
 40
0.2222706400799742
 40
0.2290608027015169
 40
0.2354828166742118
 40
0.241537558617695
 40
0.2695382121070925
 40
0.2966935088714126
 40
0.3230613834754884
 40
0.3487051081642305
 40
0.3736934566496598
 40
0.3981007431757765
 40
0.4408164956220402
 40
0.480723960764669
 40
0.5184525715331068
 40
0.5547443344004142
 40
0.5547443344004142
 40
0.5547443344004142
 40
0.5547443344004142
 10
37.82742003063504
 20
7.277771800631285
 30
0.0
 10
37.82730918695785
 20
7.272237269215509
 30
0.0
 10
37.82668076459402
 20
7.259805107804709
 30
0.0
 10
37.82381439860993
 20
7.239265653597385
 30
0.0
 10
37.81932669559946
 20
7.214796052030692
 30
0.0
 10
37.81286909264068
 20
7.185552827476385
 30
0.0
 10
37.80447978816591
 20
7.151931641732971
 30
0.0
 10
37.79639723399242
 20
7.116693795578726
 30
0.0
 10
37.79087558762745
 20
7.090446175802753
 30
0.0
 10
37.78781394969018
 20
7.07440332630955
 30
0.0
 10
37.78646235905745
 20
7.066996798104867
 30
0.0
 10
37.7852395823374
 20
7.05994261731854
 30
0.0
 10
37.78414639482694
 20
7.053240677054191
 30
0.0
 10
37.78318004794556
 20
7.046891295546856
 30
0.0
 10
37.78132999432306
 20
7.033526079136322
 30
0.0
 10
37.77909597401919
 20
7.013237508220981
 30
0.0
 10
37.77730123391396
 20
6.986113326651434
 30
0.0
 10
37.77682078247752
 20
6.959717812302983
 30
0.0
 10
37.77764609411702
 20
6.934053410862475
 30
0.0
 10
37.77977610807781
 20
6.909117528548563
 30
0.0
 10
37.78411286824003
 20
6.878709103089818
 30
0.0
 10
37.79191412651004
 20
6.843817587788862
 30
0.0
 10
37.80522853234572
 20
6.805866967787551
 30
0.0
 10
37.82248130878853
 20
6.771891366301474
 30
0.0
 10
37.83694024025519
 20
6.751767944031541
 30
0.0
 10
37.84466086051021
 20
6.742454749938588
 30
0.0
 11
37.82742003063504
 21
7.277771800631285
 31
0.0
 11
37.8265322843805
 21
7.26118881903892
 31
0.0
 11
37.82387369579914
 21
7.240666182359291
 31
0.0
 11
37.81944426489099
 21
7.216203890592623
 31
0.0
 11
37.81324399165612
 21
7.187801943738804
 31
0.0
 11
37.80483513765228
 21
7.152908290458981
 31
0.0
 11
37.79611598612542
 21
7.114905554500978
 31
0.0
 11
37.78927993282969
 21
7.082039636257263
 31
0.0
 11
37.78780071883409
 21
7.074280751980154
 31
0.0
 11
37.78645067427499
 21
7.066874223113018
 31
0.0
 11
37.78522979915226
 21
7.059820049656082
 31
0.0
 11
37.78413809346614
 21
7.053118231609232
 31
0.0
 11
37.78317555721645
 21
7.046768768972469
 31
0.0
 11
37.78234219040326
 21
7.040771661745907
 31
0.0
 11
37.77927024458893
 21
7.012940070296281
 31
0.0
 11
37.77750288617858
 21
6.985842383988483
 31
0.0
 11
37.77704011517233
 21
6.9594786028224
 31
0.0
 11
37.77788193157005
 21
6.933848726798146
 31
0.0
 11
37.78002833537187
 21
6.90895275591572
 31
0.0
 11
37.78347932657766
 21
6.884790690175009
 31
0.0
 11
37.7929517328621
 21
6.843138466325058
 31
0.0
 11
37.80630612394566
 21
6.805531735002432
 31
0.0
 11
37.82354249982836
 21
6.771970496206904
 31
0.0
 11
37.84466086051021
 21
6.742454749938588
 31
0.0
  0
SPLINE
  5
3A
330
2
100
AcDbEntity
  8
GAIKEI
  6
Continuous
 62
     1
100
AcDbSpline
210
0.0
220
0.0
230
1.0
 70
     8
 71
     3
 72
    12
 73
     8
 74
     6
 42
0.0000000001
 43
0.0000000001
 44
0.000001
 12
0.4769591228667053
 22
0.8789254775657735
 32
0.0
 13
0.3555935529301539
 23
0.9346406930550958
 33
0.0
 40
0.0
 40
0.0
 40
0.0
 40
0.0
 40
0.0463485371772527
 40
0.09288144435473
 40
0.139644928986831
 40
0.1864441356850213
 40
0.1874282895021355
 40
0.1874282895021355
 40
0.1874282895021355
 40
0.1874282895021355
 10
36.26166868880967
 20
28.7758956742149
 30
0.0
 10
36.26903747468907
 20
28.78947464427256
 30
0.0
 10
36.28315715003044
 20
28.81704951069361
 30
0.0
 10
36.3019812846087
 20
28.85963878313692
 30
0.0
 10
36.31957132162698
 20
28.90290090576343
 30
0.0
 10
36.33088734984808
 20
28.93231620451548
 30
0.0
 10
36.336552035892
 20
28.94720262627783
 30
0.0
 10
36.33666868880948
 20
28.94750923634638
 30
0.0
 11
36.26166868880967
 21
28.7758956742149
 31
0.0
 11
36.28273187260715
 21
28.81718191377149
 31
0.0
 11
36.30173658381131
 21
28.85965761052569
 31
0.0
 11
36.31942972387583
 21
28.90294496605156
 31
0.0
 11
36.33631863050073
 21
28.94658946116079
 31
0.0
 11
36.33666868880948
 21
28.94750923634638
 31
0.0
  0
SPLINE
  5
3B
330
2
100
AcDbEntity
  8
GAIKEI
  6
Continuous
 62
     1
100
AcDbSpline
210
0.0
220
0.0
230
1.0
 70
     8
 71
     3
 72
    12
 73
     8
 74
     6
 42
0.0000000001
 43
0.0000000001
 44
0.000001
 12
0.4769591228668367
 22
0.8789254775657024
 32
0.0
 13
0.3555935532617211
 23
0.9346406929289479
 33
0.0
 40
0.0
 40
0.0
 40
0.0
 40
0.0
 40
0.0463485371772527
 40
0.0928814443548106
 40
0.13964492898663
 40
0.186444135684952
 40
0.1874282895021243
 40
0.1874282895021243
 40
0.1874282895021243
 40
0.1874282895021243
 10
36.26166868880967
 20
9.648585538554016
 30
0.0
 10
36.26903747468907
 20
9.662164508611681
 30
0.0
 10
36.28315715003066
 20
9.689739375032729
 30
0.0
 10
36.30198128460805
 20
9.732328647476265
 30
0.0
 10
36.31957132162873
 20
9.775590770101587
 30
0.0
 10
36.33088734984314
 20
9.805006068857153
 30
0.0
 10
36.33655203589189
 20
9.81989249061695
 30
0.0
 10
36.33666868880948
 20
9.820199100685499
 30
0.0
 11
36.26166868880967
 21
9.648585538554016
 31
0.0
 11
36.28273187260715
 21
9.689871778110614
 31
0.0
 11
36.30173658381131
 21
9.732347474864809
 31
0.0
 11
36.31942972387583
 21
9.775634830390572
 31
0.0
 11
36.33631863050045
 21
9.819279325500019
 31
0.0
 11
36.33666868880948
 21
9.820199100685499
 31
0.0
  0
SPLINE
  5
3C
330
2
100
AcDbEntity
  8
GAIKEI
  6
Continuous
 62
     1
100
AcDbSpline
210
0.0
220
0.0
230
1.0
 70
     8
 71
     3
 72
    13
 73
     9
 74
     7
 42
0.0000000001
 43
0.0000000001
 44
0.000001
 12
-0.355604041378737
 22
0.9346367025508412
 32
0.0
 13
-0.479228857163119
 23
0.8776899808372721
 33
0.0
 40
0.0
 40
0.0
 40
0.0
 40
0.0
 40
0.0009841552555797
 40
0.0341752847051326
 40
0.0724502295557767
 40
0.1107098708129843
 40
0.1490911211198964
 40
0.1874325864602328
 40
0.1874325864602328
 40
0.1874325864602328
 40
0.1874325864602328
 10
36.33666868880948
 20
29.6808348945998
 30
0.0
 10
36.33655203228074
 20
29.6811415038074
 30
0.0
 10
36.33250070347984
 20
29.69178852044473
 30
0.0
 10
36.32384831660488
 20
29.71433553954364
 30
0.0
 10
36.31036528941147
 20
29.74833692125418
 30
0.0
 10
36.2954819970331
 20
29.78363595362362
 30
0.0
 10
36.27956755145329
 20
29.81851454607312
 30
0.0
 10
36.267793467682
 20
29.84123115007134
 30
0.0
 10
36.26166868880967
 20
29.85244845673128
 30
0.0
 11
36.33666868880948
 21
29.6808348945998
 31
0.0
 11
36.33631863053927
 21
29.68175466980176
 31
0.0
 11
36.3244016916068
 21
29.7127320484442
 31
0.0
 11
36.31023611037893
 21
29.74828896291854
 31
0.0
 11
36.29532823854049
 21
29.78352442674873
 31
0.0
 11
36.27927397382803
 21
29.81838747537131
 31
0.0
 11
36.26166868880967
 21
29.85244845673128
 31
0.0
  0
SPLINE
  5
3D
330
2
100
AcDbEntity
  8
GAIKEI
  6
Continuous
 62
     1
100
AcDbSpline
210
0.0
220
0.0
230
1.0
 70
     8
 71
     3
 72
    13
 73
     9
 74
     7
 42
0.0000000001
 43
0.0000000001
 44
0.000001
 12
-0.3556040416314752
 22
0.9346367024546811
 32
0.0
 13
-0.4792288571630963
 23
0.8776899808372844
 33
0.0
 40
0.0
 40
0.0
 40
0.0
 40
0.0
 40
0.0009841552556807
 40
0.0341752847052837
 40
0.0724502295558697
 40
0.110709870812967
 40
0.1490911211198892
 40
0.1874325864602256
 40
0.1874325864602256
 40
0.1874325864602256
 40
0.1874325864602256
 10
36.33666868880948
 20
10.55352475893892
 30
0.0
 10
36.33655203228065
 20
10.55383136814652
 30
0.0
 10
36.33250070347675
 20
10.56447838478402
 30
0.0
 10
36.32384831660633
 20
10.58702540388276
 30
0.0
 10
36.31036528941093
 20
10.62102678559336
 30
0.0
 10
36.29548199703305
 20
10.65632581796268
 30
0.0
 10
36.27956755145333
 20
10.6912044104123
 30
0.0
 10
36.267793467682
 20
10.71392101441046
 30
0.0
 10
36.26166868880967
 20
10.7251383210704
 30
0.0
 11
36.33666868880948
 21
10.55352475893892
 31
0.0
 11
36.33631863053904
 21
10.55444453414088
 31
0.0
 11
36.3244016916068
 21
10.58542191278331
 31
0.0
 11
36.31023611037893
 21
10.62097882725766
 31
0.0
 11
36.29532823854049
 21
10.65621429108785
 31
0.0
 11
36.27927397382803
 21
10.69107733971043
 31
0.0
 11
36.26166868880967
 21
10.7251383210704
 31
0.0
  0
SPLINE
  5
3E
330
2
100
AcDbEntity
  8
GAIKEI
  6
Continuous
 62
     1
100
AcDbSpline
210
0.0
220
0.0
230
1.0
 70
     8
 71
     3
 72
    11
 73
     7
 74
     5
 42
0.0000000001
 43
0.0000000001
 44
0.000001
 12
-0.5697183474043875
 22
0.8218400115781744
 32
0.0
 13
-0.7258381967822672
 23
0.6878654752870411
 33
0.0
 40
0.0
 40
0.0
 40
0.0
 40
0.0
 40
0.0271269143005459
 40
0.0541651219876461
 40
0.0813877632111765
 40
0.0927557661412386
 40
0.0927557661412386
 40
0.0927557661412386
 40
0.0927557661412386
 10
36.26166868880967
 20
10.7251383210704
 30
0.0
 10
36.25651712188118
 20
10.73256964892471
 30
0.0
 10
36.24576561769996
 20
10.74709260498389
 30
0.0
 10
36.22825569363617
 20
10.7678353457303
 30
0.0
 10
36.21317544972602
 20
10.78370179582339
 30
0.0
 10
36.20394370142733
 20
10.79266120424626
 30
0.0
 10
36.20119325784475
 20
10.79526775649242
 30
0.0
 11
36.26166868880967
 21
10.7251383210704
 31
0.0
 11
36.24552240551401
 21
10.74693706586981
 31
0.0
 11
36.22809837758223
 21
10.76761277585683
 31
0.0
 11
36.20935004817795
 21
10.78735049640499
 31
0.0
 11
36.20119325784475
 21
10.79526775649242
 31
0.0
  0
SPLINE
  5
3F
330
2
100
AcDbEntity
  8
GAIKEI
  6
Continuous
 62
     1
100
AcDbSpline
210
0.0
220
0.0
230
1.0
 70
     8
 71
     3
 72
    11
 73
     7
 74
     5
 42
0.0000000001
 43
0.0000000001
 44
0.000001
 12
0.7261327727614697
 22
0.6875545042552915
 32
0.0
 13
0.5694961259186093
 23
0.8219940161361854
 33
0.0
 40
0.0
 40
0.0
 40
0.0
 40
0.0
 40
0.0216057200347024
 40
0.0445668898279325
 40
0.0685149071729119
 40
0.0928153822368552
 40
0.0928153822368552
 40
0.0928153822368552
 40
0.0928153822368552
 10
36.20115179946191
 20
28.70572693315068
 30
0.0
 10
36.20638133992735
 20
28.71067863652655
 30
0.0
 10
36.21693588684347
 20
28.72114138463519
 30
0.0
 10
36.23238698336158
 20
28.73797168704243
 30
0.0
 10
36.24752237901716
 20
28.7562717075956
 30
0.0
 10
36.25705568000737
 20
28.7692373925176
 30
0.0
 10
36.26166868880967
 20
28.7758956742149
 30
0.0
 11
36.20115179946191
 21
28.70572693315068
 31
0.0
 11
36.21649550774771
 21
28.72093755004778
 31
0.0
 11
36.23201837405117
 21
28.73785581607194
 31
0.0
 11
36.24727014716587
 21
28.75631980316041
 31
0.0
 11
36.26166868880967
 21
28.7758956742149
 31
0.0
  0
SPLINE
  5
40
330
2
100
AcDbEntity
  8
GAIKEI
  6
Continuous
 62
     1
100
AcDbSpline
210
0.0
220
0.0
230
1.0
 70
     8
 71
     3
 72
    11
 73
     7
 74
     5
 42
0.0000000001
 43
0.0000000001
 44
0.000001
 12
0.7261327727615202
 22
0.6875545042552385
 32
0.0
 13
0.5694961259181754
 23
0.8219940161364862
 33
0.0
 40
0.0
 40
0.0
 40
0.0
 40
0.0
 40
0.0216057200346623
 40
0.0445668898279344
 40
0.0685149071729138
 40
0.092815382236857
 40
0.092815382236857
 40
0.092815382236857
 40
0.092815382236857
 10
36.20115179946191
 20
9.578416797489808
 30
0.0
 10
36.20638133992733
 20
9.583368500865617
 30
0.0
 10
36.2169358868435
 20
9.593831248974083
 30
0.0
 10
36.23238698336159
 20
9.610661551381667
 30
0.0
 10
36.24752237901714
 20
9.628961571934723
 30
0.0
 10
36.25705568000737
 20
9.641927256856718
 30
0.0
 10
36.26166868880967
 20
9.648585538554016
 30
0.0
 11
36.20115179946191
 21
9.578416797489808
 31
0.0
 11
36.21649550774771
 21
9.593627414386901
 31
0.0
 11
36.23201837405117
 21
9.610545680411064
 31
0.0
 11
36.24727014716587
 21
9.629009667499531
 31
0.0
 11
36.26166868880967
 21
9.648585538554016
 31
0.0
  0
SPLINE
  5
41
330
2
100
AcDbEntity
  8
GAIKEI
  6
Continuous
 62
     1
100
AcDbSpline
210
0.0
220
0.0
230
1.0
 70
     8
 71
     3
 72
    11
 73
     7
 74
     5
 42
0.0000000001
 43
0.0000000001
 44
0.000001
 12
-0.5697183474044964
 22
0.8218400115780987
 32
0.0
 13
-0.725838196782078
 23
0.6878654752872409
 33
0.0
 40
0.0
 40
0.0
 40
0.0
 40
0.0
 40
0.0271269143005459
 40
0.0541651219876461
 40
0.0813877632111765
 40
0.0927557661412386
 40
0.0927557661412386
 40
0.0927557661412386
 40
0.0927557661412386
 10
36.26166868880967
 20
29.85244845673128
 30
0.0
 10
36.25651712188116
 20
29.85987978458559
 30
0.0
 10
36.24576561769996
 20
29.87440274064471
 30
0.0
 10
36.22825569363617
 20
29.89514548139118
 30
0.0
 10
36.21317544972602
 20
29.91101193148433
 30
0.0
 10
36.20394370142733
 20
29.91997133990714
 30
0.0
 10
36.20119325784475
 20
29.9225778921533
 30
0.0
 11
36.26166868880967
 21
29.85244845673128
 31
0.0
 11
36.24552240551401
 21
29.8742472015307
 31
0.0
 11
36.22809837758223
 21
29.89492291151771
 31
0.0
 11
36.20935004817795
 21
29.91466063206587
 31
0.0
 11
36.20119325784475
 21
29.9225778921533
 31
0.0
  0
SPLINE
  5
42
330
2
100
AcDbEntity
  8
GAIKEI
  6
Continuous
 62
     1
100
AcDbSpline
210
0.0
220
0.0
230
1.0
 70
     8
 71
     3
 72
    16
 73
    12
 74
    10
 42
0.0000000001
 43
0.0000000001
 44
0.000001
 12
-0.7246933390181188
 22
0.6890715234159442
 32
0.0
 13
-0.0435589224551712
 23
0.999050859703621
 33
0.0
 40
0.0
 40
0.0
 40
0.0
 40
0.0
 40
0.0008245869742816
 40
0.0042427686756445
 40
0.010416972395223
 40
0.0192855983072265
 40
0.0307089239071617
 40
0.0445088940072588
 40
0.0604644486191607
 40
0.0783168924071111
 40
0.0828709020179592
 40
0.0828709020179592
 40
0.0828709020179592
 40
0.0828709020179592
 10
36.33335919365288
 20
34.51167282535391
 30
0.0
 10
36.33316000275698
 20
34.51186222515474
 30
0.0
 10
36.33217928394245
 20
34.51291912442684
 30
0.0
 10
36.33196872214693
 20
34.51663062623658
 30
0.0
 10
36.33090842594604
 20
34.52254963803154
 30
0.0
 10
36.33025061269132
 20
34.53142359994138
 30
0.0
 10
36.32938820347198
 20
34.54272507793769
 30
0.0
 10
36.32859115603654
 20
34.55643942172514
 30
0.0
 10
36.32776521009167
 20
34.57228356685624
 30
0.0
 10
36.32717236276049
 20
34.58505822439298
 30
0.0
 10
36.32684531780936
 20
34.59251981047379
 30
0.0
 10
36.32677919522553
 20
34.59403637287937
 30
0.0
 11
36.33335919365288
 21
34.51167282535391
 31
0.0
 11
36.33281327818077
 21
34.51229095687438
 31
0.0
 11
36.33197994484743
 21
34.51560574832627
 31
0.0
 11
36.3311466115141
 21
34.52172341797928
 31
0.0
 11
36.33031327818071
 21
34.5305527883861
 31
0.0
 11
36.32947994484744
 21
34.54194566821423
 31
0.0
 11
36.32864661151411
 21
34.55572044847907
 31
0.0
 11
36.32781327818077
 21
34.57165422250012
 31
0.0
 11
36.32697994484738
 21
34.58948720272133
 31
0.0
 11
36.32677919522553
 21
34.59403637287937
 31
0.0
  0
SPLINE
  5
43
330
2
100
AcDbEntity
  8
GAIKEI
  6
Continuous
 62
     1
100
AcDbSpline
210
0.0
220
0.0
230
1.0
 70
     8
 71
     3
 72
    18
 73
    14
 74
    12
 42
0.0000000001
 43
0.0000000001
 44
0.000001
 12
-0.5846562919338174
 22
-0.8112810982034519
 32
0.0
 13
-0.0371796361213846
 23
-0.9993085983107928
 33
0.0
 40
0.0
 40
0.0
 40
0.0
 40
0.0
 40
0.0015787525645385
 40
0.0058612971317751
 40
0.0128958923591801
 40
0.0225827165460961
 40
0.0347748335201111
 40
0.0492781281816669
 40
0.0658580340895536
 40
0.0842514048913409
 40
0.1041566705154363
 40
0.1252574645254074
 40
0.1472102067833182
 40
0.1472102067833182
 40
0.1472102067833182
 40
0.1472102067833182
 10
36.31278645457377
 20
34.86667344642967
 30
0.0
 10
36.31247877870035
 20
34.86624650905822
 30
0.0
 10
36.31142898289274
 20
34.86456431047111
 30
0.0
 10
36.31111709717048
 20
34.86014828918064
 30
0.0
 10
36.31011723707363
 20
34.85328460817016
 30
0.0
 10
36.30941367395326
 20
34.84363788773698
 30
0.0
 10
36.30856554959948
 20
34.8315530572479
 30
0.0
 10
36.30776078730696
 20
34.81714550338177
 30
0.0
 10
36.30693532580513
 20
34.80067548190698
 30
0.0
 10
36.30611350788121
 20
34.78240055250746
 30
0.0
 10
36.30528806107371
 20
34.76261808444127
 30
0.0
 10
36.30446311771968
 20
34.74164798024617
 30
0.0
 10
36.30391867650374
 20
34.72730713837393
 30
0.0
 10
36.30364661151407
 20
34.71999461700898
 30
0.0
 11
36.31278645457377
 21
34.86667344642967
 31
0.0
 11
36.31197994484745
 21
34.86531615127069
 31
0.0
 11
36.31114661151412
 21
34.8611156428741
 31
0.0
 11
36.31031327818073
 21
34.85413061163524
 31
0.0
 11
36.30947994484746
 21
34.84447971335442
 31
0.0
 11
36.30864661151412
 21
34.83231611744623
 31
0.0
 11
36.30781327818079
 21
34.81783678897239
 31
0.0
 11
36.3069799448474
 21
34.80127784243177
 31
0.0
 11
36.30614661151412
 21
34.7829033616498
 31
0.0
 11
36.30531327818073
 21
34.76301554954148
 31
0.0
 11
36.30447994484746
 21
34.74193121934877
 31
0.0
 11
36.30364661151407
 21
34.71999461700898
 31
0.0
  0
SPLINE
  5
44
330
2
100
AcDbEntity
  8
GAIKEI
  6
Continuous
 62
     1
100
AcDbSpline
210
0.0
220
0.0
230
1.0
 70
     8
 71
     3
 72
    18
 73
    14
 74
    12
 42
0.0000000001
 43
0.0000000001
 44
0.000001
 12
-0.5844656576224157
 22
-0.8114184463394934
 32
0.0
 13
-0.0371796361214128
 23
-0.9993085983107919
 33
0.0
 40
0.0
 40
0.0
 40
0.0
 40
0.0
 40
0.0015785755413335
 40
0.0058611200296627
 40
0.0128957152542898
 40
0.0225825394405176
 40
0.0347746564143357
 40
0.0492779510757339
 40
0.0658578569835892
 40
0.0842512277853649
 40
0.1041564934094466
 40
0.1252572874194666
 40
0.1472100295646772
 40
0.1472100295646772
 40
0.1472100295646772
 40
0.1472100295646772
 10
36.35278611478293
 20
34.86667344234468
 30
0.0
 10
36.35247857371897
 20
34.86624648057364
 30
0.0
 10
36.35142916142573
 20
34.86456415488471
 30
0.0
 10
36.35111698414218
 20
34.8601483476051
 30
0.0
 10
36.35011728812023
 20
34.85328458157176
 30
0.0
 10
36.3494136540775
 20
34.84363789790518
 30
0.0
 10
36.34856555657277
 20
34.83155305349908
 30
0.0
 10
36.3477607849339
 20
34.81714550447822
 30
0.0
 10
36.34693532650022
 20
34.80067548141347
 30
0.0
 10
36.34611350761299
 20
34.78240055251303
 30
0.0
 10
36.34528806110234
 20
34.76261808429541
 30
0.0
 10
36.34446311764202
 20
34.7416479801837
 30
0.0
 10
36.34391867650243
 20
34.72730713833636
 30
0.0
 10
36.34364661151415
 20
34.71999461700898
 30
0.0
 11
36.35278611478293
 21
34.86667344234468
 31
0.0
 11
36.35197994484741
 21
34.86531615127069
 31
0.0
 11
36.35114661151408
 21
34.8611156428741
 31
0.0
 11
36.35031327818081
 21
34.85413061163524
 31
0.0
 11
36.34947994484742
 21
34.84447971335442
 31
0.0
 11
36.34864661151409
 21
34.83231611744623
 31
0.0
 11
36.34781327818075
 21
34.81783678897239
 31
0.0
 11
36.34697994484748
 21
34.80127784243177
 31
0.0
 11
36.34614661151409
 21
34.7829033616498
 31
0.0
 11
36.34531327818076
 21
34.76301554954148
 31
0.0
 11
36.34447994484742
 21
34.74193121934877
 31
0.0
 11
36.34364661151415
 21
34.71999461700898
 31
0.0
  0
SPLINE
  5
45
330
2
100
AcDbEntity
  8
GAIKEI
  6
Continuous
 62
     1
100
AcDbSpline
210
0.0
220
0.0
230
1.0
 70
     8
 71
     3
 72
    20
 73
    16
 74
    14
 42
0.0000000001
 43
0.0000000001
 44
0.000001
 12
-0.0366600883891987
 22
-0.9993277930285419
 32
0.0
 13
-0.8962567755996664
 23
-0.4435355591062449
 33
0.0
 40
0.0
 40
0.0
 40
0.0
 40
0.0
 40
0.0225441489661095
 40
0.0447243509195021
 40
0.0661807098233039
 40
0.0865702989487714
 40
0.105560024997201
 40
0.1228469656545373
 40
0.1381506161008298
 40
0.1512251988682479
 40
0.1618642916135566
 40
0.1698958897130195
 40
0.1752100305703386
 40
0.1777642420885777
 40
0.1780980751421437
 40
0.1780980751421437
 40
0.1780980751421437
 40
0.1780980751421437
 10
36.38364661151411
 20
34.68917206547303
 30
0.0
 10
36.38337112134953
 20
34.68166240059571
 30
0.0
 10
36.38282048942417
 20
34.66676446083767
 30
0.0
 10
36.38199459053505
 20
34.64471966365773
 30
0.0
 10
36.3811683793023
 20
34.62339368564432
 30
0.0
 10
36.38034363638559
 20
34.60313160340746
 30
0.0
 10
36.37951873846719
 20
34.58426177978959
 30
0.0
 10
36.37869945223176
 20
34.56708475514586
 30
0.0
 10
36.3778719186023
 20
34.55189481254763
 30
0.0
 10
36.37708244094017
 20
34.53888530794336
 30
0.0
 10
36.3762093157219
 20
34.52841309852818
 30
0.0
 10
36.37558845669531
 20
34.52026146141293
 30
0.0
 10
36.37450564381138
 20
34.51540454886617
 30
0.0
 10
36.37431956882061
 20
34.51220040060344
 30
0.0
 10
36.37345866695043
 20
34.51172218201236
 30
0.0
 10
36.3733589335717
 20
34.51167282640233
 30
0.0
 11
36.38364661151411
 21
34.68917206547303
 31
0.0
 11
36.38281327818072
 21
34.66664385986224
 31
0.0
 11
36.38197994484745
 21
34.64447931945142
 31
0.0
 11
36.38114661151411
 21
34.62303915084238
 31
0.0
 11
36.38031327818078
 21
34.60266660006084
 31
0.0
 11
36.37947994484739
 21
34.5836951699921
 31
0.0
 11
36.37864661151411
 21
34.56642833016633
 31
0.0
 11
36.37781327818078
 21
34.5511473902028
 31
0.0
 11
36.37697994484745
 21
34.53809939877101
 31
0.0
 11
36.37614661151406
 21
34.52749300466587
 31
0.0
 11
36.37531327818078
 21
34.51950477805326
 31
0.0
 11
36.37447994484745
 21
34.51425643819232
 31
0.0
 11
36.37364661151412
 21
34.51184231373168
 31
0.0
 11
36.3733589335717
 21
34.51167282640233
 31
0.0
  0
SPLINE
  5
46
330
2
100
AcDbEntity
  8
GAIKEI
  6
Continuous
 62
     1
100
AcDbSpline
210
0.0
220
0.0
230
1.0
 70
     8
 71
     3
 72
    16
 73
    12
 74
    10
 42
0.0000000001
 43
0.0000000001
 44
0.000001
 12
-0.0430768721965857
 22
0.9990717607268052
 32
0.0
 13
-0.9995301167088943
 23
0.0306520112211923
 33
0.0
 40
0.0
 40
0.0
 40
0.0
 40
0.0
 40
0.0160287203943067
 40
0.032720496009847
 40
0.0473482253724389
 40
0.059679252428639
 40
0.0695126747968553
 40
0.0767030109011081
 40
0.0811430012141312
 40
0.0828762629778492
 40
0.0829034368634684
 40
0.0829034368634684
 40
0.0829034368634684
 40
0.0829034368634684
 10
36.35937313949899
 20
34.78426204794187
 30
0.0
 10
36.35914298378569
 20
34.78959999524403
 30
0.0
 10
36.35864733880047
 20
34.80049396884863
 30
0.0
 10
36.35786918607252
 20
34.81626481889248
 30
0.0
 10
36.35704717721085
 20
34.83076953401434
 30
0.0
 10
36.35624620491021
 20
34.84307198420566
 30
0.0
 10
36.35541643552605
 20
34.85265206462225
 30
0.0
 10
36.35470463943399
 20
34.8601688590611
 30
0.0
 10
36.35386200969724
 20
34.8638266968681
 30
0.0
 10
36.35338519592011
 20
34.86666072141265
 30
0.0
 10
36.35279516848861
 20
34.86667316469993
 30
0.0
 10
36.35278611478293
 20
34.86667344234468
 30
0.0
 11
36.35937313949899
 21
34.78426204794187
 31
0.0
 11
36.35864661151413
 21
34.80027357953009
 31
0.0
 11
36.35781327818075
 21
34.81694453664181
 31
0.0
 11
36.35697994484747
 21
34.83154850486119
 31
0.0
 11
36.35614661151408
 21
34.84385133409342
 31
0.0
 11
36.35531327818075
 21
34.85364936975589
 31
0.0
 11
36.35447994484741
 21
34.86079122566548
 31
0.0
 11
36.35364661151414
 21
34.86515222864057
 31
0.0
 11
36.35281327818075
 21
34.86667225285657
 31
0.0
 11
36.35278611478293
 21
34.86667344234468
 31
0.0
  0
SPLINE
  5
47
330
2
100
AcDbEntity
  8
GAIKEI
  6
Continuous
 62
     1
100
AcDbSpline
210
0.0
220
0.0
230
1.0
 70
     8
 71
     3
 72
    20
 73
    16
 74
    14
 42
0.0000000001
 43
0.0000000001
 44
0.000001
 12
-0.03666008838921
 22
-0.9993277930285415
 32
0.0
 13
-0.89604732285992
 23
-0.443958551213478
 33
0.0
 40
0.0
 40
0.0
 40
0.0
 40
0.0
 40
0.0225441487658523
 40
0.0447243507194046
 40
0.0661807096233625
 40
0.0865702987490919
 40
0.1055600247977212
 40
0.1228469654554159
 40
0.1381506159022079
 40
0.1512251986702934
 40
0.1618642914167717
 40
0.1698958895183467
 40
0.1752100303814306
 40
0.1777642418023381
 40
0.1780978513807329
 40
0.1780978513807329
 40
0.1780978513807329
 40
0.1780978513807329
 10
36.34364661151415
 20
34.68917206547303
 30
0.0
 10
36.34337112135201
 20
34.68166240066239
 30
0.0
 10
36.34282048961674
 20
34.66676446095971
 30
0.0
 10
36.34199459064578
 20
34.6447196638689
 30
0.0
 10
36.34116837947298
 20
34.62339368578546
 30
0.0
 10
36.34034363641081
 20
34.6031316037865
 30
0.0
 10
36.33951873896732
 20
34.58426177937133
 30
0.0
 10
36.33869945120208
 20
34.56708475730585
 30
0.0
 10
36.33787192232186
 20
34.55189480670635
 30
0.0
 10
36.3370824306904
 20
34.53888532564281
 30
0.0
 10
36.33620934370136
 20
34.52841305181357
 30
0.0
 10
36.33558839100803
 20
34.52026157253283
 30
0.0
 10
36.33450576751784
 20
34.5154043409043
 30
0.0
 10
36.33431943784959
 20
34.51220071768984
 30
0.0
 10
36.33345883697608
 20
34.51172219496226
 30
0.0
 10
36.33335919365288
 20
34.51167282535391
 30
0.0
 11
36.34364661151415
 21
34.68917206547303
 31
0.0
 11
36.34281327818076
 21
34.66664385986224
 31
0.0
 11
36.34197994484742
 21
34.64447931945142
 31
0.0
 11
36.34114661151409
 21
34.62303915084238
 31
0.0
 11
36.34031327818082
 21
34.60266660006084
 31
0.0
 11
36.33947994484743
 21
34.5836951699921
 31
0.0
 11
36.3386466115141
 21
34.56642833016633
 31
0.0
 11
36.33781327818076
 21
34.5511473902028
 31
0.0
 11
36.33697994484748
 21
34.53809939877101
 31
0.0
 11
36.3361466115141
 21
34.52749300466587
 31
0.0
 11
36.33531327818076
 21
34.51950477805326
 31
0.0
 11
36.33447994484743
 21
34.51425643819232
 31
0.0
 11
36.33364661151416
 21
34.51184231373168
 31
0.0
 11
36.33335919365288
 21
34.51167282535391
 31
0.0
  0
SPLINE
  5
48
330
2
100
AcDbEntity
  8
GAIKEI
  6
Continuous
 62
     1
100
AcDbSpline
210
0.0
220
0.0
230
1.0
 70
     8
 71
     3
 72
    20
 73
    16
 74
    14
 42
0.0000000001
 43
0.0000000001
 44
0.000001
 12
-0.0366600883891941
 22
-0.9993277930285421
 32
0.0
 13
-0.8960473228605128
 23
-0.4439585512122816
 33
0.0
 40
0.0
 40
0.0
 40
0.0
 40
0.0
 40
0.0225441487658523
 40
0.0447243507194046
 40
0.0661807096233625
 40
0.0865702987490919
 40
0.1055600247977212
 40
0.1228469654554159
 40
0.1381506159022079
 40
0.1512251986702934
 40
0.1618642914167717
 40
0.1698958895183467
 40
0.1752100303814306
 40
0.1777642418023381
 40
0.1780978513807329
 40
0.1780978513807329
 40
0.1780978513807329
 40
0.1780978513807329
 10
36.34364661151415
 20
31.06917206547303
 30
0.0
 10
36.34337112135201
 20
31.06166240066239
 30
0.0
 10
36.34282048961674
 20
31.04676446095971
 30
0.0
 10
36.34199459064578
 20
31.0247196638689
 30
0.0
 10
36.34116837947298
 20
31.00339368578545
 30
0.0
 10
36.34034363641081
 20
30.98313160378655
 30
0.0
 10
36.33951873896732
 20
30.96426177937133
 30
0.0
 10
36.33869945120208
 20
30.94708475730584
 30
0.0
 10
36.33787192232186
 20
30.93189480670628
 30
0.0
 10
36.3370824306904
 20
30.91888532564275
 30
0.0
 10
36.33620934370136
 20
30.90841305181363
 30
0.0
 10
36.33558839100803
 20
30.90026157253288
 30
0.0
 10
36.33450576751784
 20
30.89540434090407
 30
0.0
 10
36.33431943784959
 20
30.89220071769006
 30
0.0
 10
36.33345883697608
 20
30.89172219496226
 30
0.0
 10
36.33335919365288
 20
30.89167282535391
 30
0.0
 11
36.34364661151415
 21
31.06917206547303
 31
0.0
 11
36.34281327818076
 21
31.04664385986223
 31
0.0
 11
36.34197994484742
 21
31.02447931945142
 31
0.0
 11
36.34114661151409
 21
31.00303915084237
 31
0.0
 11
36.34031327818082
 21
30.98266660006084
 31
0.0
 11
36.33947994484743
 21
30.96369516999209
 31
0.0
 11
36.3386466115141
 21
30.94642833016633
 31
0.0
 11
36.33781327818076
 21
30.9311473902028
 31
0.0
 11
36.33697994484748
 21
30.91809939877101
 31
0.0
 11
36.3361466115141
 21
30.90749300466587
 31
0.0
 11
36.33531327818076
 21
30.89950477805326
 31
0.0
 11
36.33447994484743
 21
30.89425643819232
 31
0.0
 11
36.33364661151416
 21
30.89184231373167
 31
0.0
 11
36.33335919365288
 21
30.89167282535391
 31
0.0
  0
SPLINE
  5
49
330
2
100
AcDbEntity
  8
GAIKEI
  6
Continuous
 62
     1
100
AcDbSpline
210
0.0
220
0.0
230
1.0
 70
     8
 71
     3
 72
    16
 73
    12
 74
    10
 42
0.0000000001
 43
0.0000000001
 44
0.000001
 12
-0.7246933390218108
 22
0.6890715234120614
 32
0.0
 13
-0.043558922455188
 23
0.9990508597036205
 33
0.0
 40
0.0
 40
0.0
 40
0.0
 40
0.0
 40
0.0008245869742816
 40
0.0042427686756445
 40
0.010416972395223
 40
0.0192855983072158
 40
0.0307089239071593
 40
0.0445088940072564
 40
0.0604644486191583
 40
0.0783168924071087
 40
0.0828709020179568
 40
0.0828709020179568
 40
0.0828709020179568
 40
0.0828709020179568
 10
36.33335919365288
 20
30.89167282535391
 30
0.0
 10
36.33316000275698
 20
30.89186222515474
 30
0.0
 10
36.33217928394245
 20
30.89291912442678
 30
0.0
 10
36.33196872214694
 20
30.89663062623669
 30
0.0
 10
36.33090842594598
 20
30.90254963803136
 30
0.0
 10
36.33025061269151
 20
30.91142359994137
 30
0.0
 10
36.32938820347192
 20
30.92272507793763
 30
0.0
 10
36.3285911560366
 20
30.93643942172525
 30
0.0
 10
36.32776521009166
 20
30.9522835668563
 30
0.0
 10
36.32717236276051
 20
30.96505822439292
 30
0.0
 10
36.32684531780936
 20
30.97251981047378
 30
0.0
 10
36.32677919522553
 20
30.97403637287937
 30
0.0
 11
36.33335919365288
 21
30.89167282535391
 31
0.0
 11
36.33281327818077
 21
30.89229095687438
 31
0.0
 11
36.33197994484743
 21
30.89560574832626
 31
0.0
 11
36.3311466115141
 21
30.90172341797927
 31
0.0
 11
36.33031327818083
 21
30.9105527883861
 31
0.0
 11
36.32947994484744
 21
30.92194566821422
 31
0.0
 11
36.32864661151411
 21
30.93572044847906
 31
0.0
 11
36.32781327818077
 21
30.95165422250011
 31
0.0
 11
36.32697994484738
 21
30.96948720272133
 31
0.0
 11
36.32677919522553
 21
30.97403637287937
 31
0.0
  0
SPLINE
  5
4A
330
2
100
AcDbEntity
  8
GAIKEI
  6
Continuous
 62
     1
100
AcDbSpline
210
0.0
220
0.0
230
1.0
 70
     8
 71
     3
 72
    18
 73
    14
 74
    12
 42
0.0000000001
 43
0.0000000001
 44
0.000001
 12
-0.5846562919338174
 22
-0.8112810982034519
 32
0.0
 13
-0.0371796361214128
 23
-0.9993085983107919
 33
0.0
 40
0.0
 40
0.0
 40
0.0
 40
0.0
 40
0.0015787525645385
 40
0.0058612971317751
 40
0.0128958923591801
 40
0.0225827165462093
 40
0.0347748335201109
 40
0.0492781281816668
 40
0.0658580340895534
 40
0.0842514048913408
 40
0.1041566705155474
 40
0.1252574645254071
 40
0.1472102067833179
 40
0.1472102067833179
 40
0.1472102067833179
 40
0.1472102067833179
 10
36.31278645457377
 20
31.24667344642967
 30
0.0
 10
36.31247877870035
 20
31.24624650905821
 30
0.0
 10
36.31142898289274
 20
31.24456431047105
 30
0.0
 10
36.31111709717047
 20
31.24014828918064
 30
0.0
 10
36.31011723707363
 20
31.23328460817015
 30
0.0
 10
36.30941367395327
 20
31.22363788773692
 30
0.0
 10
36.30856554959948
 20
31.21155305724784
 30
0.0
 10
36.30776078730699
 20
31.19714550338182
 30
0.0
 10
36.30693532580512
 20
31.18067548190698
 30
0.0
 10
36.30611350788121
 20
31.16240055250745
 30
0.0
 10
36.30528806107378
 20
31.14261808444121
 30
0.0
 10
36.30446311771968
 20
31.12164798024617
 30
0.0
 10
36.30391867650374
 20
31.10730713837393
 30
0.0
 10
36.30364661151407
 20
31.09999461700898
 30
0.0
 11
36.31278645457377
 21
31.24667344642967
 31
0.0
 11
36.31197994484745
 21
31.24531615127069
 31
0.0
 11
36.31114661151412
 21
31.24111564287409
 31
0.0
 11
36.31031327818073
 21
31.23413061163524
 31
0.0
 11
36.30947994484746
 21
31.2244797133543
 31
0.0
 11
36.30864661151412
 21
31.21231611744622
 31
0.0
 11
36.30781327818079
 21
31.19783678897238
 31
0.0
 11
36.3069799448474
 21
31.18127784243177
 31
0.0
 11
36.30614661151412
 21
31.1629033616498
 31
0.0
 11
36.30531327818079
 21
31.14301554954136
 31
0.0
 11
36.30447994484746
 21
31.12193121934877
 31
0.0
 11
36.30364661151407
 21
31.09999461700898
 31
0.0
  0
SPLINE
  5
4B
330
2
100
AcDbEntity
  8
GAIKEI
  6
Continuous
 62
     1
100
AcDbSpline
210
0.0
220
0.0
230
1.0
 70
     8
 71
     3
 72
    18
 73
    14
 74
    12
 42
0.0000000001
 43
0.0000000001
 44
0.000001
 12
-0.5844656576229886
 22
-0.8114184463390806
 32
0.0
 13
-0.0371796361214176
 23
-0.9993085983107917
 33
0.0
 40
0.0
 40
0.0
 40
0.0
 40
0.0
 40
0.0015785755413335
 40
0.0058611200296627
 40
0.0128957152542898
 40
0.0225825394406309
 40
0.0347746564143355
 40
0.0492779510757338
 40
0.065857856983589
 40
0.0842512277853647
 40
0.10415649340956
 40
0.1252572874194664
 40
0.147210029564677
 40
0.147210029564677
 40
0.147210029564677
 40
0.147210029564677
 10
36.35278611478293
 20
31.24667344234467
 30
0.0
 10
36.35247857371897
 20
31.24624648057363
 30
0.0
 10
36.35142916142574
 20
31.2445641548847
 30
0.0
 10
36.35111698414215
 20
31.2401483476051
 30
0.0
 10
36.35011728812023
 20
31.23328458157175
 30
0.0
 10
36.34941365407754
 20
31.22363789790518
 30
0.0
 10
36.34856555657271
 20
31.21155305349896
 30
0.0
 10
36.34776078493393
 20
31.19714550447816
 30
0.0
 10
36.34693532650019
 20
31.18067548141352
 30
0.0
 10
36.34611350761299
 20
31.16240055251291
 30
0.0
 10
36.34528806110234
 20
31.14261808429529
 30
0.0
 10
36.34446311764198
 20
31.12164798018369
 30
0.0
 10
36.34391867650243
 20
31.10730713833635
 30
0.0
 10
36.34364661151415
 20
31.09999461700898
 30
0.0
 11
36.35278611478293
 21
31.24667344234467
 31
0.0
 11
36.35197994484741
 21
31.24531615127069
 31
0.0
 11
36.35114661151408
 21
31.24111564287409
 31
0.0
 11
36.35031327818081
 21
31.23413061163524
 31
0.0
 11
36.34947994484742
 21
31.2244797133543
 31
0.0
 11
36.34864661151409
 21
31.21231611744622
 31
0.0
 11
36.34781327818075
 21
31.19783678897238
 31
0.0
 11
36.34697994484748
 21
31.18127784243177
 31
0.0
 11
36.34614661151409
 21
31.1629033616498
 31
0.0
 11
36.34531327818076
 21
31.14301554954136
 31
0.0
 11
36.34447994484742
 21
31.12193121934877
 31
0.0
 11
36.34364661151415
 21
31.09999461700898
 31
0.0
  0
SPLINE
  5
4C
330
2
100
AcDbEntity
  8
GAIKEI
  6
Continuous
 62
     1
100
AcDbSpline
210
0.0
220
0.0
230
1.0
 70
     8
 71
     3
 72
    20
 73
    16
 74
    14
 42
0.0000000001
 43
0.0000000001
 44
0.000001
 12
-0.0366600883891987
 22
-0.9993277930285419
 32
0.0
 13
-0.8962567756003743
 23
-0.4435355591048144
 33
0.0
 40
0.0
 40
0.0
 40
0.0
 40
0.0
 40
0.0225441489661095
 40
0.0447243509195021
 40
0.0661807098233039
 40
0.0865702989487714
 40
0.105560024997201
 40
0.1228469656545373
 40
0.1381506161008298
 40
0.1512251988682479
 40
0.1618642916135566
 40
0.1698958897130195
 40
0.1752100305703386
 40
0.1777642420885777
 40
0.1780980751421437
 40
0.1780980751421437
 40
0.1780980751421437
 40
0.1780980751421437
 10
36.38364661151411
 20
31.06917206547303
 30
0.0
 10
36.38337112134953
 20
31.06166240059571
 30
0.0
 10
36.38282048942417
 20
31.04676446083761
 30
0.0
 10
36.38199459053505
 20
31.02471966365772
 30
0.0
 10
36.3811683793023
 20
31.0033936856442
 30
0.0
 10
36.38034363638559
 20
30.98313160340751
 30
0.0
 10
36.37951873846719
 20
30.96426177978953
 30
0.0
 10
36.37869945223176
 20
30.94708475514597
 30
0.0
 10
36.3778719186023
 20
30.93189481254746
 30
0.0
 10
36.37708244094017
 20
30.91888530794347
 30
0.0
 10
36.3762093157219
 20
30.90841309852806
 30
0.0
 10
36.37558845669531
 20
30.90026146141293
 30
0.0
 10
36.37450564381138
 20
30.89540454886628
 30
0.0
 10
36.37431956882061
 20
30.89220040060332
 30
0.0
 10
36.37345866695043
 20
30.89172218201236
 30
0.0
 10
36.3733589335717
 20
30.89167282640233
 30
0.0
 11
36.38364661151411
 21
31.06917206547303
 31
0.0
 11
36.38281327818072
 21
31.04664385986223
 31
0.0
 11
36.38197994484745
 21
31.02447931945142
 31
0.0
 11
36.38114661151411
 21
31.00303915084237
 31
0.0
 11
36.38031327818078
 21
30.98266660006084
 31
0.0
 11
36.37947994484739
 21
30.96369516999209
 31
0.0
 11
36.37864661151411
 21
30.94642833016633
 31
0.0
 11
36.37781327818078
 21
30.9311473902028
 31
0.0
 11
36.37697994484745
 21
30.91809939877101
 31
0.0
 11
36.37614661151406
 21
30.90749300466587
 31
0.0
 11
36.37531327818078
 21
30.89950477805326
 31
0.0
 11
36.37447994484745
 21
30.89425643819232
 31
0.0
 11
36.37364661151412
 21
30.89184231373167
 31
0.0
 11
36.3733589335717
 21
30.89167282640233
 31
0.0
  0
SPLINE
  5
4D
330
2
100
AcDbEntity
  8
GAIKEI
  6
Continuous
 62
     1
100
AcDbSpline
210
0.0
220
0.0
230
1.0
 70
     8
 71
     3
 72
    16
 73
    12
 74
    10
 42
0.0000000001
 43
0.0000000001
 44
0.000001
 12
-0.0430768721966507
 22
0.9990717607268027
 32
0.0
 13
-0.9995301167089067
 23
0.0306520112207888
 33
0.0
 40
0.0
 40
0.0
 40
0.0
 40
0.0
 40
0.0160287203943067
 40
0.032720496009847
 40
0.0473482253724389
 40
0.059679252428639
 40
0.0695126747968553
 40
0.0767030109011081
 40
0.0811430012141312
 40
0.0828762629778492
 40
0.0829034368634684
 40
0.0829034368634684
 40
0.0829034368634684
 40
0.0829034368634684
 10
36.35937313949899
 20
31.16426204794186
 30
0.0
 10
36.35914298378569
 20
31.16959999524403
 30
0.0
 10
36.35864733880047
 20
31.18049396884862
 30
0.0
 10
36.35786918607252
 20
31.19626481889247
 30
0.0
 10
36.35704717721085
 20
31.21076953401445
 30
0.0
 10
36.35624620491021
 20
31.22307198420549
 30
0.0
 10
36.35541643552605
 20
31.23265206462253
 30
0.0
 10
36.35470463943399
 20
31.24016885906036
 30
0.0
 10
36.35386200969724
 20
31.24382669686929
 30
0.0
 10
36.35338519592011
 20
31.24666072141173
 30
0.0
 10
36.35279516848861
 20
31.24667316469993
 30
0.0
 10
36.35278611478293
 20
31.24667344234467
 30
0.0
 11
36.35937313949899
 21
31.16426204794186
 31
0.0
 11
36.35864661151413
 21
31.18027357953008
 31
0.0
 11
36.35781327818075
 21
31.19694453664181
 31
0.0
 11
36.35697994484747
 21
31.21154850486119
 31
0.0
 11
36.35614661151408
 21
31.22385133409341
 31
0.0
 11
36.35531327818075
 21
31.23364936975588
 31
0.0
 11
36.35447994484741
 21
31.24079122566548
 31
0.0
 11
36.35364661151414
 21
31.24515222864057
 31
0.0
 11
36.35281327818075
 21
31.24667225285657
 31
0.0
 11
36.35278611478293
 21
31.24667344234467
 31
0.0
  0
SPLINE
  5
4E
330
2
100
AcDbEntity
  8
GAIKEI
  6
Continuous
 62
     1
100
AcDbSpline
210
0.0
220
0.0
230
1.0
 70
     8
 71
     3
 72
    11
 73
     7
 74
     5
 42
0.0000000001
 43
0.0000000001
 44
0.000001
 12
0.0263247353920106
 22
0.9996534441027755
 32
0.0
 13
0.1800564184768131
 23
0.9836562845655503
 33
0.0
 40
0.0
 40
0.0
 40
0.0
 40
0.0
 40
0.0222209517494263
 40
0.0388462874323282
 40
0.049882048448065
 40
0.0553514638909737
 40
0.0553514638909737
 40
0.0553514638909737
 40
0.0553514638909737
 10
36.26450413311613
 20
30.7305938863683
 30
0.0
 10
36.26469912000779
 20
30.73799830335082
 30
0.0
 10
36.26512317674399
 20
30.75094334768016
 30
0.0
 10
36.26594745144979
 20
30.76754281749061
 30
0.0
 10
36.26648702673151
 20
30.77858830828603
 30
0.0
 10
36.26736239388829
 20
30.78402586254458
 30
0.0
 10
36.26769066167355
 20
30.785819204169
 30
0.0
 11
36.26450413311613
 21
30.7305938863683
 31
0.0
 11
36.26525653557144
 21
30.75280199116537
 31
0.0
 11
36.2660384244827
 21
30.76940891239781
 31
0.0
 11
36.2668497998501
 21
30.78041465006573
 31
0.0
 11
36.26769066167355
 21
30.785819204169
 31
0.0
  0
SPLINE
  5
4F
330
2
100
AcDbEntity
  8
GAIKEI
  6
Continuous
 62
     1
100
AcDbSpline
210
0.0
220
0.0
230
1.0
 70
     8
 71
     3
 72
    13
 73
     9
 74
     7
 42
0.0000000001
 43
0.0000000001
 44
0.000001
 12
-0.1367026333584174
 22
0.9906121289550588
 32
0.0
 13
-0.1693098136655528
 23
0.9855628782561444
 33
0.0
 40
0.0
 40
0.0
 40
0.0
 40
0.0
 40
0.0167469922486499
 40
0.0333773442702691
 40
0.0502571168680879
 40
0.0667711030724865
 40
0.0840636332563482
 40
0.1007849533910366
 40
0.1007849533910366
 40
0.1007849533910366
 40
0.1007849533910366
 10
37.57526565671032
 20
35.51010028915425
 30
0.0
 10
37.57450253739657
 20
35.5156302137026
 30
0.0
 10
37.57291096606323
 20
35.52664193988835
 30
0.0
 10
37.57030138271435
 20
35.54319023179363
 30
0.0
 10
37.56751370272183
 20
35.55963053797541
 30
0.0
 10
37.56456561144172
 20
35.57626683508846
 30
0.0
 10
37.5615617569878
 20
35.59283946617592
 30
0.0
 10
37.55962104643456
 20
35.60401018500665
 30
0.0
 10
37.55867735190248
 20
35.60950348914003
 30
0.0
 11
37.57526565671032
 21
35.51010028915425
 31
0.0
 11
37.57287075085742
 21
35.52667522051331
 31
0.0
 11
37.57028393142821
 21
35.54310315855901
 31
0.0
 11
37.56747350356375
 21
35.55974732834329
 31
0.0
 11
37.56460149492478
 21
35.57600966296286
 31
0.0
 11
37.56154826876719
 21
35.59303117839693
 31
0.0
 11
37.55867735190248
 21
35.60950348914003
 31
0.0
  0
SPLINE
  5
50
330
2
100
AcDbEntity
  8
GAIKEI
  6
Continuous
 62
     1
100
AcDbSpline
210
0.0
220
0.0
230
1.0
 70
     8
 71
     3
 72
    13
 73
     9
 74
     7
 42
0.0000000001
 43
0.0000000001
 44
0.000001
 12
0.1358537149050929
 22
0.9907289074951259
 32
0.0
 13
0.1028701000007821
 23
0.9946947986824044
 33
0.0
 40
0.0
 40
0.0
 40
0.0
 40
0.0
 40
0.0167629848690612
 40
0.0334123275051458
 40
0.0503098774187991
 40
0.0668410117253159
 40
0.0842373612998063
 40
0.1010541529109476
 40
0.1010541529109476
 40
0.1010541529109476
 40
0.1010541529109476
 10
37.74075370558785
 20
32.14171874376268
 30
0.0
 10
37.74151281017697
 20
32.14725460165789
 30
0.0
 10
37.74295585360751
 20
32.15829852210806
 30
0.0
 10
37.74491839079831
 20
32.17495366488402
 30
0.0
 10
37.746678377878
 20
32.19155358192819
 30
0.0
 10
37.74833744728522
 20
32.20841389879718
 30
0.0
 10
37.74992077719908
 20
32.2252544472525
 30
0.0
 10
37.75107451151491
 20
32.23660041927554
 30
0.0
 10
37.75165115985982
 20
32.24217627765757
 30
0.0
 11
37.74075370558785
 21
32.14171874376268
 31
0.0
 11
37.74292660594256
 21
32.15834036487786
 31
0.0
 11
37.74487777728734
 21
32.17487498560411
 31
0.0
 11
37.7466708821504
 21
32.19167713204354
 31
0.0
 11
37.74829859903815
 21
32.20812794158394
 31
0.0
 11
37.74996160991771
 21
32.2254452794408
 31
0.0
 11
37.75165115985982
 21
32.24217627765757
 31
0.0
  0
SPLINE
  5
51
330
2
100
AcDbEntity
  8
GAIKEI
  6
Continuous
 62
     1
100
AcDbSpline
210
0.0
220
0.0
230
1.0
 70
     8
 71
     3
 72
    13
 73
     9
 74
     7
 42
0.0000000001
 43
0.0000000001
 44
0.000001
 12
0.1686465211669663
 22
0.9856765954907725
 32
0.0
 13
0.1366868105490227
 23
0.9906143123445854
 33
0.0
 40
0.0
 40
0.0
 40
0.0
 40
0.0
 40
0.0148768856752681
 40
0.0303404718420845
 40
0.0467491639371592
 40
0.0635503078503972
 40
0.0820032027515628
 40
0.100784933155334
 40
0.100784933155334
 40
0.100784933155334
 40
0.100784933155334
 10
37.55867735190248
 20
30.83898101693922
 30
0.0
 10
37.55951366357412
 20
30.84386894961387
 30
0.0
 10
37.56123835357907
 20
30.85383439371174
 30
0.0
 10
37.56401466866242
 20
30.86916818959935
 30
0.0
 10
37.56686372991058
 20
30.88514058254714
 30
0.0
 10
37.56977849013821
 20
30.90211324765704
 30
0.0
 10
37.57262642807534
 20
30.9198991313329
 30
0.0
 10
37.57440991843515
 20
30.93218239994212
 30
0.0
 10
37.57526565671032
 20
30.93838421692499
 30
0.0
 11
37.55867735190248
 21
30.83898101693922
 31
0.0
 11
37.56122448173289
 21
30.85363802027257
 31
0.0
 11
37.56395311616802
 21
30.8688591243639
 31
0.0
 11
37.56682458625892
 21
30.88501461656165
 31
0.0
 11
37.56965653700945
 21
30.90157537052335
 31
0.0
 11
37.57256612521394
 21
30.9197974404591
 31
0.0
 11
37.57526565671032
 21
30.93838421692499
 31
0.0
  0
SPLINE
  5
52
330
2
100
AcDbEntity
  8
GAIKEI
  6
Continuous
 62
     1
100
AcDbSpline
210
0.0
220
0.0
230
1.0
 70
     8
 71
     3
 72
    23
 73
    19
 74
    17
 42
0.0000000001
 43
0.0000000001
 44
0.000001
 12
-0.0195855615079534
 22
0.9998081844936148
 32
0.0
 13
-0.1708806009777295
 23
0.9852917437030972
 33
0.0
 40
0.0
 40
0.0
 40
0.0
 40
0.0
 40
0.0246422057409199
 40
0.0561693393133863
 40
0.0946352834719927
 40
0.1238383489245238
 40
0.1560774103075219
 40
0.1637317308166681
 40
0.1715387786614522
 40
0.1794984554017595
 40
0.1876106488051588
 40
0.1958752329952482
 40
0.2042920686457141
 40
0.2128610032233835
 40
0.2387981685051509
 40
0.2711882160498584
 40
0.3100387699381647
 40
0.3553446180978695
 40
0.3553446180978695
 40
0.3553446180978695
 40
0.3553446180978695
 10
36.26450413311613
 20
35.71789061971094
 30
0.0
 10
36.26434325597073
 20
35.72610311270552
 30
0.0
 10
36.26362458404215
 20
35.74482059763454
 30
0.0
 10
36.26068348370622
 20
35.7762393881797
 30
0.0
 10
36.25669397303406
 20
35.80906480609844
 30
0.0
 10
36.25206606160073
 20
35.84204555113718
 30
0.0
 10
36.24861907317427
 20
35.86481858632629
 30
0.0
 10
36.24616616144857
 20
35.88052838610798
 30
0.0
 10
36.24494931634271
 20
35.88823998992893
 30
0.0
 10
36.24369719937535
 20
35.89610053047295
 30
0.0
 10
36.24241063114709
 20
35.90411001098033
 30
0.0
 10
36.24109044398713
 20
35.9122684247094
 30
0.0
 10
36.23973771946911
 20
35.92057579660207
 30
0.0
 10
36.23742542281028
 20
35.9346953575402
 30
0.0
 10
36.23379965217589
 20
35.95669734182763
 30
0.0
 10
36.2284320290004
 20
35.98864219092764
 30
0.0
 10
36.22186014854742
 20
36.0269311405446
 30
0.0
 10
36.21709237854541
 20
36.05457513955059
 30
0.0
 10
36.21451174835829
 20
36.06945496559502
 30
0.0
 11
36.26450413311613
 21
35.71789061971094
 31
0.0
 11
36.26351401777572
 21
35.74251304814811
 31
0.0
 11
36.26076833234515
 21
35.77392032524552
 31
0.0
 11
36.25618698222741
 21
35.81211245100337
 31
0.0
 11
36.25215621295001
 21
35.8410359940998
 31
0.0
 11
36.24735158919447
 21
35.87291501727259
 31
0.0
 11
36.24617099989405
 21
35.88047774193535
 31
0.0
 11
36.24495438770009
 21
35.88818940999227
 31
0.0
 11
36.24370250295715
 21
35.89605002144333
 31
0.0
 11
36.24241615627136
 21
35.90405957628843
 31
0.0
 11
36.24109621904654
 21
35.91221807452769
 31
0.0
 11
36.23974362393824
 21
35.92052551616098
 31
0.0
 11
36.23835936522051
 21
35.92898190118842
 31
0.0
 11
36.2341364604057
 21
35.9545729840753
 31
0.0
 11
36.22877089092481
 21
35.98651552243871
 31
0.0
 11
36.22221839808049
 21
36.02480951627865
 31
0.0
 11
36.21451174835829
 21
36.06945496559502
 31
0.0
  0
ARC
  5
53
330
2
100
AcDbEntity
  8
GAIKEI
  6
Continuous
 62
     1
100
AcDbCircle
 10
36.39114661151393
 20
37.24503721547308
 30
0.0
 40
0.05
100
AcDbArc
 50
0.0
 51
89.00000000002432
  0
ARC
  5
54
330
2
100
AcDbEntity
  8
GAIKEI
  6
Continuous
 62
     1
100
AcDbCircle
 10
36.39114661151393
 20
37.12263641547304
 30
0.0
 40
0.05
100
AcDbArc
 50
277.9999999999843
 51
0.0
  0
LINE
  5
55
330
2
100
AcDbEntity
  8
GAIKEI
  6
Continuous
 62
     1
100
AcDbLine
 10
36.441146611514
 20
37.24503721547308
 30
0.0
 11
36.441146611514
 21
37.12263641547304
 31
0.0
  0
LINE
  5
56
330
2
100
AcDbEntity
  8
GAIKEI
  6
Continuous
 62
     1
100
AcDbLine
 10
36.34697851151396
 20
37.24583101547307
 30
0.0
 11
36.35134496151398
 21
37.29573956547313
 31
0.0
  0
LINE
  5
57
330
2
100
AcDbEntity
  8
GAIKEI
  6
Continuous
 62
     1
100
AcDbLine
 10
36.35134496151398
 20
37.29573956547313
 30
0.0
 11
36.39201921151397
 21
37.2950295654731
 31
0.0
  0
LINE
  5
58
330
2
100
AcDbEntity
  8
GAIKEI
  6
Continuous
 62
     1
100
AcDbLine
 10
36.31364311151396
 20
37.24345301547305
 30
0.0
 11
36.34692306151396
 21
37.24519711547305
 31
0.0
  0
LINE
  5
59
330
2
100
AcDbEntity
  8
GAIKEI
  6
Continuous
 62
     1
100
AcDbLine
 10
36.34114661151398
 20
37.17917206547304
 30
0.0
 11
36.30928521151395
 21
37.17917206547304
 31
0.0
  0
LINE
  5
5A
330
2
100
AcDbEntity
  8
GAIKEI
  6
Continuous
 62
     1
100
AcDbLine
 10
36.34697851151396
 20
37.24583101547307
 30
0.0
 11
36.34114661151398
 21
37.17917206547304
 31
0.0
  0
LINE
  5
5B
330
2
100
AcDbEntity
  8
GAIKEI
  6
Continuous
 62
     1
100
AcDbLine
 10
36.39810526151393
 20
37.07312301547302
 30
0.0
 11
36.20114661151399
 21
37.04544226547307
 31
0.0
  0
ARC
  5
5C
330
2
100
AcDbEntity
  8
GAIKEI
  6
Continuous
 62
     7
100
AcDbCircle
 10
33.95369661151398
 20
1.877339579812201
 30
0.0
 40
0.05
100
AcDbArc
 50
180.0
 51
214.4001229999906
  0
ARC
  5
5D
330
2
100
AcDbEntity
  8
GAIKEI
  6
Continuous
 62
     7
100
AcDbCircle
 10
33.95369661151398
 20
37.28869441547306
 30
0.0
 40
0.05
100
AcDbArc
 50
145.5998770000094
 51
180.0
  0
ARC
  5
5E
330
2
100
AcDbEntity
  8
GAIKEI
  6
Continuous
 62
     7
100
AcDbCircle
 10
34.12963821151397
 20
37.50139921547305
 30
0.0
 40
0.075
100
AcDbArc
 50
93.00000000000558
 51
145.5998770000094
  0
ARC
  5
5F
330
2
100
AcDbEntity
  8
GAIKEI
  6
Continuous
 62
     7
100
AcDbCircle
 10
34.12963821151397
 20
1.664634779812217
 30
0.0
 40
0.075
100
AcDbArc
 50
214.4001229999906
 51
266.9999999999944
  0
ARC
  5
60
330
2
100
AcDbEntity
  8
GAIKEI
  6
Continuous
 62
     7
100
AcDbCircle
 10
36.17614661151396
 20
37.63751491547305
 30
0.0
 40
0.025
100
AcDbArc
 50
0.0
 51
84.99999999997722
  0
ARC
  5
61
330
2
100
AcDbEntity
  8
GAIKEI
  6
Continuous
 62
     7
100
AcDbCircle
 10
36.17614661151396
 20
1.528519079812213
 30
0.0
 40
0.025
100
AcDbArc
 50
275.0000000000228
 51
0.0
  0
LINE
  5
62
330
2
100
AcDbEntity
  8
GAIKEI
  6
Continuous
 62
     7
100
AcDbLine
 10
33.90369661151396
 20
37.28869441547306
 30
0.0
 11
33.90369661151396
 21
37.11920376547312
 31
0.0
  0
LINE
  5
63
330
2
100
AcDbEntity
  8
GAIKEI
  6
Continuous
 62
     7
100
AcDbLine
 10
33.90369661151396
 20
37.11920376547312
 30
0.0
 11
33.91244101151392
 21
37.11920376547312
 31
0.0
  0
LINE
  5
64
330
2
100
AcDbEntity
  8
GAIKEI
  6
Continuous
 62
     7
100
AcDbLine
 10
33.90369661151396
 20
1.877339579812201
 30
0.0
 11
33.90369661151396
 21
37.11920376547312
 31
0.0
  0
LINE
  5
65
330
2
100
AcDbEntity
  8
GAIKEI
  6
Continuous
 62
     1
100
AcDbLine
 10
34.06775481151397
 20
37.34603281547311
 30
0.0
 11
33.91244101151392
 21
37.11920376547312
 31
0.0
  0
LINE
  5
66
330
2
100
AcDbEntity
  8
GAIKEI
  6
Continuous
 62
     7
100
AcDbLine
 10
33.91244101151392
 20
37.31694286547304
 30
0.0
 11
34.06775481151397
 21
37.54377191547303
 31
0.0
  0
LINE
  5
67
330
2
100
AcDbEntity
  8
GAIKEI
  6
Continuous
 62
     7
100
AcDbLine
 10
34.06775481151397
 20
1.622262079812117
 30
0.0
 11
33.91244101151392
 21
1.849091129812222
 31
0.0
  0
LINE
  5
68
330
2
100
AcDbEntity
  8
GAIKEI
  6
Continuous
 62
     1
100
AcDbLine
 10
34.06775481151397
 20
1.622262079812117
 30
0.0
 11
34.06775481151397
 21
37.34603281547311
 31
0.0
  0
LINE
  5
69
330
2
100
AcDbEntity
  8
GAIKEI
  6
Continuous
 62
     7
100
AcDbLine
 10
36.20114661151399
 20
37.63751491547305
 30
0.0
 11
36.20114661151399
 21
37.46318086547308
 31
0.0
  0
LINE
  5
6A
330
2
100
AcDbEntity
  8
GAIKEI
  6
Continuous
 62
     1
100
AcDbLine
 10
36.20114661151399
 20
37.46318086547308
 30
0.0
 11
36.17832551151395
 21
37.46318086547308
 31
0.0
  0
LINE
  5
6B
330
2
100
AcDbEntity
  8
GAIKEI
  6
Continuous
 62
     7
100
AcDbLine
 10
36.20114661151399
 20
37.46318086547308
 30
0.0
 11
36.20114661151399
 21
1.528519079812213
 31
0.0
  0
LINE
  5
6C
330
2
100
AcDbEntity
  8
GAIKEI
  6
Continuous
 62
     7
100
AcDbLine
 10
36.17832551151395
 20
1.503614229812228
 30
0.0
 11
36.10114661151397
 21
1.496861929812212
 31
0.0
  0
LINE
  5
6D
330
2
100
AcDbEntity
  8
GAIKEI
  6
Continuous
 62
     1
100
AcDbLine
 10
36.17832551151395
 20
37.46318086547308
 30
0.0
 11
36.10114661151397
 21
37.46993311547305
 31
0.0
  0
LINE
  5
6E
330
2
100
AcDbEntity
  8
GAIKEI
  6
Continuous
 62
     7
100
AcDbLine
 10
36.10114661151397
 20
37.66917206547305
 30
0.0
 11
36.17832551151395
 21
37.66241976547303
 31
0.0
  0
LINE
  5
6F
330
2
100
AcDbEntity
  8
GAIKEI
  6
Continuous
 62
     1
100
AcDbLine
 10
36.10114661151397
 20
1.686587829812197
 30
0.0
 11
36.10114661151397
 21
1.486861929812221
 31
0.0
  0
LINE
  5
70
330
2
100
AcDbEntity
  8
GAIKEI
  6
Continuous
 62
     7
100
AcDbLine
 10
36.10114661151397
 20
1.486861929812221
 30
0.0
 11
34.12571301151394
 21
1.589737529812168
 31
0.0
  0
LINE
  5
71
330
2
100
AcDbEntity
  8
GAIKEI
  6
Continuous
 62
     1
100
AcDbLine
 10
36.10114661151397
 20
37.67917206547304
 30
0.0
 11
36.10114661151397
 21
37.47944616547306
 31
0.0
  0
LINE
  5
72
330
2
100
AcDbEntity
  8
GAIKEI
  6
Continuous
 62
     7
100
AcDbLine
 10
34.12571301151394
 20
37.5762964654731
 30
0.0
 11
36.10114661151397
 21
37.67917206547304
 31
0.0
  0
LINE
  5
73
330
2
100
AcDbEntity
  8
GAIKEI
  6
Continuous
 62
     1
100
AcDbLine
 10
34.12571301151394
 20
37.37657056547312
 30
0.0
 11
34.12571301151394
 21
1.589737529812168
 31
0.0
  0
LINE
  5
74
330
2
100
AcDbEntity
  8
GAIKEI
  6
Continuous
 62
     1
100
AcDbLine
 10
34.12571301151394
 20
1.789463429812144
 30
0.0
 11
36.10114661151397
 21
1.686587829812197
 31
0.0
  0
LINE
  5
75
330
2
100
AcDbEntity
  8
GAIKEI
  6
Continuous
 62
     1
100
AcDbLine
 10
36.10114661151397
 20
37.47944616547306
 30
0.0
 11
36.10114661151397
 21
1.686587829812197
 31
0.0
  0
LINE
  5
76
330
2
100
AcDbEntity
  8
GAIKEI
  6
Continuous
 62
     1
100
AcDbLine
 10
36.10114661151397
 20
37.47944616547306
 30
0.0
 11
34.12571301151394
 21
37.37657056547312
 31
0.0
  0
ELLIPSE
  5
77
330
2
100
AcDbEntity
  8
GAIKEI
  6
Continuous
 62
     1
100
AcDbEllipse
 10
37.61614661151396
 20
3.301514129812176
 30
0.0
 11
-0.5749999999999888
 21
0.0000000000000021
 31
0.0
210
0.0
220
0.0
230
1.0
 40
0.3583520000000866
 41
2.345160897092421
 42
3.141592653589802
  0
ARC
  5
78
330
2
100
AcDbEntity
  8
GAIKEI
  6
Continuous
 62
     1
100
AcDbCircle
 10
37.61614661151396
 20
3.301514129812176
 30
0.0
 40
0.5750000000000001
100
AcDbArc
 50
273.0000000000056
 51
0.0
  0
ARC
  5
79
330
2
100
AcDbEntity
  8
GAIKEI
  6
Continuous
 62
     1
100
AcDbCircle
 10
36.31364661151395
 20
2.407120779812203
 30
0.0
 40
0.25
100
AcDbArc
 50
93.00000000000558
 51
101.6320759999917
  0
ARC
  5
7A
330
2
100
AcDbEntity
  8
GAIKEI
  6
Continuous
 62
     1
100
AcDbCircle
 10
37.75794211151396
 20
35.98845331547307
 30
0.0
 40
0.25
100
AcDbArc
 50
7.999999999984337
 51
9.618225999996282
  0
ARC
  5
7B
330
2
100
AcDbEntity
  8
GAIKEI
  6
Continuous
 62
     1
100
AcDbCircle
 10
36.31364661151395
 20
2.407120779812203
 30
0.0
 40
0.25
100
AcDbArc
 50
101.6320759999917
 51
116.7436839999986
  0
ARC
  5
7C
330
2
100
AcDbEntity
  8
GAIKEI
  6
Continuous
 62
     1
100
AcDbCircle
 10
38.20614661151393
 20
7.800852079812216
 30
0.0
 40
0.15
100
AcDbArc
 50
317.5188869999826
 51
0.0
  0
ARC
  5
7D
330
2
100
AcDbEntity
  8
GAIKEI
  6
Continuous
 62
     1
100
AcDbCircle
 10
38.35364661151397
 20
7.665782629812156
 30
0.0
 40
0.05
100
AcDbArc
 50
137.5188869999826
 51
180.0
  0
ARC
  5
7E
330
2
100
AcDbEntity
  8
GAIKEI
  6
Continuous
 62
     1
100
AcDbCircle
 10
38.35364661151397
 20
7.665797779812237
 30
0.0
 40
0.05
100
AcDbArc
 50
137.5189609999845
 51
180.0
  0
ARC
  5
7F
330
2
100
AcDbEntity
  8
GAIKEI
  6
Continuous
 62
     1
100
AcDbCircle
 10
38.20614661151393
 20
7.800866829812207
 30
0.0
 40
0.15
100
AcDbArc
 50
317.5189609999845
 51
0.0
  0
ARC
  5
80
330
2
100
AcDbEntity
  8
GAIKEI
  6
Continuous
 62
     7
100
AcDbCircle
 10
37.75794211151396
 20
35.98845331547307
 30
0.0
 40
0.25
100
AcDbArc
 50
7.999999999984337
 51
76.97098900001984
  0
ARC
  5
81
330
2
100
AcDbEntity
  8
GAIKEI
  6
Continuous
 62
     7
100
AcDbCircle
 10
38.05364661151396
 20
4.061913829812169
 30
0.0
 40
0.25
100
AcDbArc
 50
289.9999999999963
 51
0.0
  0
ARC
  5
82
330
2
100
AcDbEntity
  8
GAIKEI
  6
Continuous
 62
     7
100
AcDbCircle
 10
36.31364661151395
 20
36.80661806547312
 30
0.0
 40
0.25
100
AcDbArc
 50
243.2563160000013
 51
257.9999999999834
  0
LINE
  5
83
330
2
100
AcDbEntity
  8
GAIKEI
  6
Continuous
 62
     1
100
AcDbLine
 10
38.35614661151396
 20
7.971057929812218
 30
0.0
 11
38.35614661151396
 21
9.06781377981224
 31
0.0
  0
LINE
  5
84
330
2
100
AcDbEntity
  8
GAIKEI
  6
Continuous
 62
     1
100
AcDbLine
 10
38.35614661151396
 20
7.809128679812147
 30
0.0
 11
38.35614661151396
 21
7.96644902981211
 31
0.0
  0
LINE
  5
85
330
2
100
AcDbEntity
  8
GAIKEI
  6
Continuous
 62
     1
100
AcDbLine
 10
38.35614661151396
 20
31.03183406547305
 30
0.0
 11
38.35614661151396
 21
31.07495496547313
 31
0.0
  0
LINE
  5
86
330
2
100
AcDbEntity
  8
GAIKEI
  6
Continuous
 62
     1
100
AcDbLine
 10
38.35614661151396
 20
31.07495496547313
 30
0.0
 11
38.35614661151396
 21
31.53420041547315
 31
0.0
  0
LINE
  5
87
330
2
100
AcDbEntity
  8
GAIKEI
  6
Continuous
 62
     1
100
AcDbLine
 10
38.35614661151396
 20
7.971057929812218
 30
0.0
 11
38.35614661151396
 21
9.06781377981224
 31
0.0
  0
LINE
  5
88
330
2
100
AcDbEntity
  8
GAIKEI
  6
Continuous
 62
     1
100
AcDbLine
 10
38.35614661151396
 20
7.809128679812147
 30
0.0
 11
38.35614661151396
 21
7.96644902981211
 31
0.0
  0
LINE
  5
89
330
2
100
AcDbEntity
  8
GAIKEI
  6
Continuous
 62
     1
100
AcDbLine
 10
38.35614661151396
 20
7.96644902981211
 30
0.0
 11
38.35614661151396
 21
7.971057929812218
 31
0.0
  0
LINE
  5
8A
330
2
100
AcDbEntity
  8
GAIKEI
  6
Continuous
 62
     1
100
AcDbLine
 10
38.35614661151396
 20
31.96536356547313
 30
0.0
 11
38.35614661151396
 21
33.52832696547307
 31
0.0
  0
LINE
  5
8B
330
2
100
AcDbEntity
  8
GAIKEI
  6
Continuous
 62
     1
100
AcDbLine
 10
38.35614661151396
 20
33.52832696547307
 30
0.0
 11
38.35614661151396
 21
33.52833121547315
 31
0.0
  0
LINE
  5
8C
330
2
100
AcDbEntity
  8
GAIKEI
  6
Continuous
 62
     1
100
AcDbLine
 10
38.191146611514
 20
3.301514129812176
 30
0.0
 11
38.191146611514
 21
3.686861929812152
 31
0.0
  0
LINE
  5
8D
330
2
100
AcDbEntity
  8
GAIKEI
  6
Continuous
 62
     1
100
AcDbLine
 10
36.3005626115139
 20
2.656778179812135
 30
0.0
 11
36.3758741115139
 21
2.660725079812209
 31
0.0
  0
LINE
  5
8E
330
2
100
AcDbEntity
  8
GAIKEI
  6
Continuous
 62
     1
100
AcDbLine
 10
38.35614661151396
 20
31.96536356547313
 30
0.0
 11
38.35614661151396
 21
33.52832696547307
 31
0.0
  0
LINE
  5
8F
330
2
100
AcDbEntity
  8
GAIKEI
  6
Continuous
 62
     1
100
AcDbLine
 10
38.35614661151396
 20
33.52832696547307
 30
0.0
 11
38.35614661151396
 21
33.52833121547315
 31
0.0
  0
LINE
  5
90
330
2
100
AcDbEntity
  8
GAIKEI
  6
Continuous
 62
     1
100
AcDbLine
 10
38.35614661151396
 20
31.49632936547312
 30
0.0
 11
38.35614661151396
 21
31.96536356547313
 31
0.0
  0
LINE
  5
91
330
2
100
AcDbEntity
  8
GAIKEI
  6
Continuous
 62
     1
100
AcDbLine
 10
36.40556261151392
 20
2.66228097981218
 30
0.0
 11
37.64623976151393
 21
2.727302129812187
 31
0.0
  0
LINE
  5
92
330
2
100
AcDbEntity
  8
GAIKEI
  6
Continuous
 62
     1
100
AcDbLine
 10
36.3758741115139
 20
2.660725079812209
 30
0.0
 11
36.40556261151392
 21
2.66228097981218
 31
0.0
  0
LINE
  5
93
330
2
100
AcDbEntity
  8
GAIKEI
  6
Continuous
 62
     1
100
AcDbLine
 10
38.30364661151396
 20
4.33686192981213
 30
0.0
 11
38.30364661151396
 21
4.286861929812175
 31
0.0
  0
LINE
  5
94
330
2
100
AcDbEntity
  8
GAIKEI
  6
Continuous
 62
     1
100
AcDbLine
 10
38.30364661151396
 20
4.33686192981213
 30
0.0
 11
38.30364661151396
 21
4.486861929812221
 31
0.0
  0
LINE
  5
95
330
2
100
AcDbEntity
  8
GAIKEI
  6
Continuous
 62
     7
100
AcDbLine
 10
38.35614661151396
 20
7.800866829812207
 30
0.0
 11
38.35614661151396
 21
7.835104929812132
 31
0.0
  0
LINE
  5
96
330
2
100
AcDbEntity
  8
GAIKEI
  6
Continuous
 62
     7
100
AcDbLine
 10
38.35614661151396
 20
7.835104929812132
 30
0.0
 11
38.35614661151396
 21
33.52536111547306
 31
0.0
  0
LINE
  5
97
330
2
100
AcDbEntity
  8
GAIKEI
  6
Continuous
 62
     1
100
AcDbLine
 10
38.35614661151396
 20
33.52833121547315
 30
0.0
 11
38.35365181151394
 21
33.54608271547306
 31
0.0
  0
LINE
  5
98
330
2
100
AcDbEntity
  8
GAIKEI
  6
Continuous
 62
     1
100
AcDbLine
 10
38.35614661151396
 20
33.52536111547306
 30
0.0
 11
38.35614661151396
 21
33.52833121547315
 31
0.0
  0
LINE
  5
99
330
2
100
AcDbEntity
  8
GAIKEI
  6
Continuous
 62
     7
100
AcDbLine
 10
38.35365181151394
 20
33.54608271547306
 30
0.0
 11
38.09592531151395
 21
35.37990181547309
 31
0.0
  0
LINE
  5
9A
330
2
100
AcDbEntity
  8
GAIKEI
  6
Continuous
 62
     7
100
AcDbLine
 10
38.09592531151395
 20
35.37990181547309
 30
0.0
 11
38.0055091115139
 21
36.02324656547307
 31
0.0
  0
LINE
  5
9B
330
2
100
AcDbEntity
  8
GAIKEI
  6
Continuous
 62
     7
100
AcDbLine
 10
37.81430686151395
 20
36.23201646547307
 30
0.0
 11
37.81360136151397
 21
36.23197131547306
 31
0.0
  0
LINE
  5
9C
330
2
100
AcDbEntity
  8
GAIKEI
  6
Continuous
 62
     1
100
AcDbLine
 10
38.30121361151396
 20
6.946220579812234
 30
0.0
 11
38.30364661151396
 21
6.946220579812234
 31
0.0
  0
LINE
  5
9D
330
2
100
AcDbEntity
  8
GAIKEI
  6
Continuous
 62
     7
100
AcDbLine
 10
37.8099200115139
 20
36.23299021547314
 30
0.0
 11
36.45839811151393
 21
36.52026501547311
 31
0.0
  0
LINE
  5
9E
330
2
100
AcDbEntity
  8
GAIKEI
  6
Continuous
 62
     7
100
AcDbLine
 10
37.8099200115139
 20
36.23299021547314
 30
0.0
 11
37.81367151151392
 21
36.23194056547311
 31
0.0
  0
LINE
  5
9F
330
2
100
AcDbEntity
  8
GAIKEI
  6
Continuous
 62
     1
100
AcDbLine
 10
38.23697361151392
 20
32.34975926547304
 30
0.0
 11
38.23697361151392
 21
31.4130580154731
 31
0.0
  0
LINE
  5
A0
330
2
100
AcDbEntity
  8
GAIKEI
  6
Continuous
 62
     7
100
AcDbLine
 10
36.45839811151393
 20
36.52026501547311
 30
0.0
 11
36.41467426151394
 21
36.52955881547314
 31
0.0
  0
LINE
  5
A1
330
2
100
AcDbEntity
  8
GAIKEI
  6
Continuous
 62
     1
100
AcDbLine
 10
38.30364661151396
 20
6.757960279812209
 30
0.0
 11
38.30364661151396
 21
6.758436429812149
 31
0.0
  0
LINE
  5
A2
330
2
100
AcDbEntity
  8
GAIKEI
  6
Continuous
 62
     7
100
AcDbLine
 10
38.30121361151396
 20
7.803438829812193
 30
0.0
 11
38.30121361151396
 21
6.946220579812234
 31
0.0
  0
LINE
  5
A3
330
2
100
AcDbEntity
  8
GAIKEI
  6
Continuous
 62
     7
100
AcDbLine
 10
38.35371361151397
 20
7.847491579812185
 30
0.0
 11
38.30121361151396
 21
7.803438829812193
 31
0.0
  0
LINE
  5
A4
330
2
100
AcDbEntity
  8
GAIKEI
  6
Continuous
 62
     1
100
AcDbLine
 10
38.13614436151397
 20
30.82559076547307
 30
0.0
 11
37.99283506151392
 21
30.57798051547309
 31
0.0
  0
LINE
  5
A5
330
2
100
AcDbEntity
  8
GAIKEI
  6
Continuous
 62
     7
100
AcDbLine
 10
38.30364661151396
 20
4.061913829812169
 30
0.0
 11
38.30364661151396
 21
6.946220579812234
 31
0.0
  0
LINE
  5
A6
330
2
100
AcDbEntity
  8
GAIKEI
  6
Continuous
 62
     7
100
AcDbLine
 10
36.20114661151399
 20
3.121614494686468
 30
0.0
 11
38.13915166151395
 21
3.826990679812183
 31
0.0
  0
LINE
  5
A7
330
2
100
AcDbEntity
  8
GAIKEI
  6
Continuous
 62
     7
100
AcDbLine
 10
36.41511051151395
 20
36.52946611547304
 30
0.0
 11
36.26166871151395
 21
36.56208116547305
 31
0.0
  0
LINE
  5
A8
330
2
100
AcDbEntity
  8
GAIKEI
  6
Continuous
 62
     1
100
AcDbLine
 10
37.90760246151393
 20
4.484091729812234
 30
0.0
 11
36.20114661151399
 21
3.862992558858991
 31
0.0
  0
LINE
  5
A9
330
2
100
AcDbEntity
  8
GAIKEI
  6
Continuous
 62
     1
100
AcDbLine
 10
37.90760246151393
 20
6.66744387981214
 30
0.0
 11
37.90760246151393
 21
4.484091729812234
 31
0.0
  0
LINE
  5
AA
330
2
100
AcDbEntity
  8
GAIKEI
  6
Continuous
 62
     1
100
AcDbLine
 10
37.84466086151395
 20
6.742454729812152
 30
0.0
 11
37.90760246151393
 21
6.66744387981214
 31
0.0
  0
LINE
  5
AB
330
2
100
AcDbEntity
  8
GAIKEI
  6
Continuous
 62
     1
100
AcDbLine
 10
37.82742001151394
 20
30.00544001547314
 30
0.0
 11
37.82742001151394
 21
7.277771779812155
 31
0.0
  0
LINE
  5
AC
330
2
100
AcDbEntity
  8
GAIKEI
  6
Continuous
 62
     1
100
AcDbLine
 10
36.33666871151394
 20
28.94750921547302
 30
0.0
 11
36.33666871151394
 21
29.68083491547304
 31
0.0
  0
LINE
  5
AD
330
2
100
AcDbEntity
  8
GAIKEI
  6
Continuous
 62
     1
100
AcDbLine
 10
36.33666871151394
 20
9.820199079812141
 30
0.0
 11
36.33666871151394
 21
10.55352477981216
 31
0.0
  0
ARC
  5
AE
330
2
100
AcDbEntity
  8
GAIKEI
  6
Continuous
 62
     1
100
AcDbCircle
 10
38.11364661151396
 20
5.136861929812198
 30
0.0
 40
0.35
100
AcDbArc
 50
0.0
 51
16.25702800000541
  0
ARC
  5
AF
330
2
100
AcDbEntity
  8
GAIKEI
  6
Continuous
 62
     1
100
AcDbCircle
 10
38.11364661151396
 20
5.136861929812198
 30
0.0
 40
0.35
100
AcDbArc
 50
343.7429719999946
 51
0.0
  0
ARC
  5
B0
330
2
100
AcDbEntity
  8
GAIKEI
  6
Continuous
 62
     1
100
AcDbCircle
 10
38.40165126151396
 20
5.052877879812172
 30
0.0
 40
0.05
100
AcDbArc
 50
275.0000010000219
 51
343.7429719999946
  0
ARC
  5
B1
330
2
100
AcDbEntity
  8
GAIKEI
  6
Continuous
 62
     1
100
AcDbCircle
 10
38.40165126151396
 20
5.220845979812111
 30
0.0
 40
0.05
100
AcDbArc
 50
16.25702800000541
 51
84.99999899997805
  0
LINE
  5
B2
330
2
100
AcDbEntity
  8
GAIKEI
  6
Continuous
 62
     1
100
AcDbLine
 10
38.36364661151396
 20
5.271861929812189
 30
0.0
 11
38.32864661151393
 21
5.271861929812189
 31
0.0
  0
LINE
  5
B3
330
2
100
AcDbEntity
  8
GAIKEI
  6
Continuous
 62
     1
100
AcDbLine
 10
38.32864661151393
 20
5.001861929812207
 30
0.0
 11
38.36364661151396
 21
5.001861929812207
 31
0.0
  0
LINE
  5
B4
330
2
100
AcDbEntity
  8
GAIKEI
  6
Continuous
 62
     1
100
AcDbLine
 10
38.40600906151394
 20
5.270655679812193
 30
0.0
 11
38.36364661151396
 21
5.27436192981213
 31
0.0
  0
LINE
  5
B5
330
2
100
AcDbEntity
  8
GAIKEI
  6
Continuous
 62
     1
100
AcDbLine
 10
38.36364661151396
 20
4.999361929812152
 30
0.0
 11
38.40600906151394
 21
5.003068179812203
 31
0.0
  0
LINE
  5
B6
330
2
100
AcDbEntity
  8
GAIKEI
  6
Continuous
 62
     1
100
AcDbLine
 10
38.32864661151393
 20
5.386861929812198
 30
0.0
 11
38.30364661151396
 21
5.386861929812198
 31
0.0
  0
LINE
  5
B7
330
2
100
AcDbEntity
  8
GAIKEI
  6
Continuous
 62
     1
100
AcDbLine
 10
38.30364661151396
 20
4.886861929812198
 30
0.0
 11
38.32864661151393
 21
4.886861929812198
 31
0.0
  0
LINE
  5
B8
330
2
100
AcDbEntity
  8
GAIKEI
  6
Continuous
 62
     1
100
AcDbLine
 10
38.32864661151393
 20
4.886861929812198
 30
0.0
 11
38.32864661151393
 21
5.386861929812198
 31
0.0
  0
ARC
  5
B9
330
2
100
AcDbEntity
  8
GAIKEI
  6
Continuous
 62
     1
100
AcDbCircle
 10
38.11364661151396
 20
7.036861929812175
 30
0.0
 40
0.35
100
AcDbArc
 50
0.0
 51
16.25702800000541
  0
ARC
  5
BA
330
2
100
AcDbEntity
  8
GAIKEI
  6
Continuous
 62
     1
100
AcDbCircle
 10
38.11364661151396
 20
7.036861929812175
 30
0.0
 40
0.35
100
AcDbArc
 50
343.7429719999946
 51
0.0
  0
ARC
  5
BB
330
2
100
AcDbEntity
  8
GAIKEI
  6
Continuous
 62
     1
100
AcDbCircle
 10
38.40165126151396
 20
6.952877879812149
 30
0.0
 40
0.05
100
AcDbArc
 50
275.0000010000219
 51
343.7429719999946
  0
ARC
  5
BC
330
2
100
AcDbEntity
  8
GAIKEI
  6
Continuous
 62
     1
100
AcDbCircle
 10
38.40165126151396
 20
7.120845979812202
 30
0.0
 40
0.05
100
AcDbArc
 50
16.25702800000541
 51
84.99999899997805
  0
LINE
  5
BD
330
2
100
AcDbEntity
  8
GAIKEI
  6
Continuous
 62
     1
100
AcDbLine
 10
38.36364661151396
 20
7.171861929812166
 30
0.0
 11
38.32864661151393
 21
7.171861929812166
 31
0.0
  0
LINE
  5
BE
330
2
100
AcDbEntity
  8
GAIKEI
  6
Continuous
 62
     1
100
AcDbLine
 10
38.32864661151393
 20
6.901861929812184
 30
0.0
 11
38.36364661151396
 21
6.901861929812184
 31
0.0
  0
LINE
  5
BF
330
2
100
AcDbEntity
  8
GAIKEI
  6
Continuous
 62
     1
100
AcDbLine
 10
38.40600906151394
 20
7.170655679812171
 30
0.0
 11
38.36364661151396
 21
7.174361929812221
 31
0.0
  0
LINE
  5
C0
330
2
100
AcDbEntity
  8
GAIKEI
  6
Continuous
 62
     1
100
AcDbLine
 10
38.36364661151396
 20
6.89936192981213
 30
0.0
 11
38.40600906151394
 21
6.90306817981218
 31
0.0
  0
LINE
  5
C1
330
2
100
AcDbEntity
  8
GAIKEI
  6
Continuous
 62
     1
100
AcDbLine
 10
38.32864661151393
 20
7.286861929812175
 30
0.0
 11
38.30364661151396
 21
7.286861929812175
 31
0.0
  0
LINE
  5
C2
330
2
100
AcDbEntity
  8
GAIKEI
  6
Continuous
 62
     1
100
AcDbLine
 10
38.30364661151396
 20
6.786861929812175
 30
0.0
 11
38.32864661151393
 21
6.786861929812175
 31
0.0
  0
LINE
  5
C3
330
2
100
AcDbEntity
  8
GAIKEI
  6
Continuous
 62
     1
100
AcDbLine
 10
38.32864661151393
 20
6.786861929812175
 30
0.0
 11
38.32864661151393
 21
7.286861929812175
 31
0.0
  0
LINE
  5
C4
330
2
100
AcDbEntity
  8
GAIKEI
  6
Continuous
 62
     1
100
AcDbLine
 10
36.30364661151395
 20
34.68917206547303
 30
0.0
 11
36.30364661151395
 21
34.93917206547303
 31
0.0
  0
LINE
  5
C5
330
2
100
AcDbEntity
  8
GAIKEI
  6
Continuous
 62
     1
100
AcDbLine
 10
36.27032316151395
 20
34.43917206547303
 30
0.0
 11
36.30364661151395
 21
34.43917206547303
 31
0.0
  0
LINE
  5
C6
330
2
100
AcDbEntity
  8
GAIKEI
  6
Continuous
 62
     1
100
AcDbLine
 10
36.30364661151395
 20
34.93917206547303
 30
0.0
 11
36.27032316151395
 21
34.93917206547303
 31
0.0
  0
LINE
  5
C7
330
2
100
AcDbEntity
  8
GAIKEI
  6
Continuous
 62
     1
100
AcDbLine
 10
36.30364661151395
 20
34.43917206547303
 30
0.0
 11
36.30364661151395
 21
34.68917206547303
 31
0.0
  0
ARC
  5
C8
330
2
100
AcDbEntity
  8
GAIKEI
  6
Continuous
 62
     1
100
AcDbCircle
 10
36.06364661151395
 20
34.68917206547303
 30
0.0
 40
0.45
100
AcDbArc
 50
0.0
 51
16.60155000001893
  0
ARC
  5
C9
330
2
100
AcDbEntity
  8
GAIKEI
  6
Continuous
 62
     1
100
AcDbCircle
 10
36.06364661151395
 20
34.68917206547303
 30
0.0
 40
0.45
100
AcDbArc
 50
343.3984499999811
 51
0.0
  0
ARC
  5
CA
330
2
100
AcDbEntity
  8
GAIKEI
  6
Continuous
 62
     1
100
AcDbCircle
 10
36.43259781151392
 20
34.57917206547313
 30
0.0
 40
0.065
100
AcDbArc
 50
270.0
 51
343.3984499999811
  0
ARC
  5
CB
330
2
100
AcDbEntity
  8
GAIKEI
  6
Continuous
 62
     1
100
AcDbCircle
 10
36.43259781151392
 20
34.79917206547304
 30
0.0
 40
0.065
100
AcDbArc
 50
16.60155000001893
 51
90.0
  0
LINE
  5
CC
330
2
100
AcDbEntity
  8
GAIKEI
  6
Continuous
 62
     1
100
AcDbLine
 10
36.30364661151395
 20
34.59417206547312
 30
0.0
 11
36.33650431151398
 21
34.59417206547312
 31
0.0
  0
LINE
  5
CD
330
2
100
AcDbEntity
  8
GAIKEI
  6
Continuous
 62
     1
100
AcDbLine
 10
36.30620416151396
 20
34.78417206547306
 30
0.0
 11
36.30364661151395
 21
34.78417206547306
 31
0.0
  0
LINE
  5
CE
330
2
100
AcDbEntity
  8
GAIKEI
  6
Continuous
 62
     1
100
AcDbLine
 10
36.38364661151394
 20
34.78417206547306
 30
0.0
 11
36.34963696151397
 21
34.78417206547306
 31
0.0
  0
LINE
  5
CF
330
2
100
AcDbEntity
  8
GAIKEI
  6
Continuous
 62
     1
100
AcDbLine
 10
36.38364661151394
 20
34.51417206547308
 30
0.0
 11
36.43259781151392
 21
34.51417206547308
 31
0.0
  0
LINE
  5
D0
330
2
100
AcDbEntity
  8
GAIKEI
  6
Continuous
 62
     1
100
AcDbLine
 10
36.43259781151392
 20
34.8641720654731
 30
0.0
 11
36.38364661151394
 21
34.8641720654731
 31
0.0
  0
LINE
  5
D1
330
2
100
AcDbEntity
  8
GAIKEI
  6
Continuous
 62
     1
100
AcDbLine
 10
36.38364661151394
 20
34.68917206547303
 30
0.0
 11
36.38364661151394
 21
34.8641720654731
 31
0.0
  0
LINE
  5
D2
330
2
100
AcDbEntity
  8
GAIKEI
  6
Continuous
 62
     1
100
AcDbLine
 10
36.38364661151394
 20
34.51417206547308
 30
0.0
 11
36.38364661151394
 21
34.68917206547303
 31
0.0
  0
LINE
  5
D3
330
2
100
AcDbEntity
  8
GAIKEI
  6
Continuous
 62
     1
100
AcDbLine
 10
36.30364661151395
 20
34.70783926547313
 30
0.0
 11
36.34364661151392
 21
34.70783926547313
 31
0.0
  0
LINE
  5
D4
330
2
100
AcDbEntity
  8
GAIKEI
  6
Continuous
 62
     1
100
AcDbLine
 10
36.34364661151392
 20
34.68917206547303
 30
0.0
 11
36.38364661151394
 21
34.68917206547303
 31
0.0
  0
LINE
  5
D5
330
2
100
AcDbEntity
  8
GAIKEI
  6
Continuous
 62
     1
100
AcDbLine
 10
36.37335911151394
 20
34.51167281547305
 30
0.0
 11
36.33335911151391
 21
34.51167281547305
 31
0.0
  0
LINE
  5
D6
330
2
100
AcDbEntity
  8
GAIKEI
  6
Continuous
 62
     1
100
AcDbLine
 10
36.35278641151393
 20
34.86667346547313
 30
0.0
 11
36.31278641151397
 21
34.86667346547313
 31
0.0
  0
LINE
  5
D7
330
2
100
AcDbEntity
  8
GAIKEI
  6
Continuous
 62
     1
100
AcDbLine
 10
36.34364661151392
 20
34.71999461547307
 30
0.0
 11
36.34364661151392
 21
34.70783926547313
 31
0.0
  0
LINE
  5
D8
330
2
100
AcDbEntity
  8
GAIKEI
  6
Continuous
 62
     1
100
AcDbLine
 10
36.30364661151395
 20
31.06917206547314
 30
0.0
 11
36.30364661151395
 21
31.31917206547314
 31
0.0
  0
LINE
  5
D9
330
2
100
AcDbEntity
  8
GAIKEI
  6
Continuous
 62
     1
100
AcDbLine
 10
36.26450411151393
 20
30.81917206547314
 30
0.0
 11
36.30364661151395
 21
30.81917206547314
 31
0.0
  0
LINE
  5
DA
330
2
100
AcDbEntity
  8
GAIKEI
  6
Continuous
 62
     1
100
AcDbLine
 10
36.30364661151395
 20
31.31917206547314
 30
0.0
 11
36.26450411151393
 21
31.31917206547314
 31
0.0
  0
LINE
  5
DB
330
2
100
AcDbEntity
  8
GAIKEI
  6
Continuous
 62
     1
100
AcDbLine
 10
36.30364661151395
 20
30.81917206547314
 30
0.0
 11
36.30364661151395
 21
31.06917206547314
 31
0.0
  0
ARC
  5
DC
330
2
100
AcDbEntity
  8
GAIKEI
  6
Continuous
 62
     1
100
AcDbCircle
 10
36.06364661151395
 20
31.06917206547314
 30
0.0
 40
0.45
100
AcDbArc
 50
0.0
 51
16.60155000001893
  0
ARC
  5
DD
330
2
100
AcDbEntity
  8
GAIKEI
  6
Continuous
 62
     1
100
AcDbCircle
 10
36.06364661151395
 20
31.06917206547314
 30
0.0
 40
0.45
100
AcDbArc
 50
343.3984499999811
 51
0.0
  0
ARC
  5
DE
330
2
100
AcDbEntity
  8
GAIKEI
  6
Continuous
 62
     1
100
AcDbCircle
 10
36.43259781151392
 20
30.95917206547313
 30
0.0
 40
0.065
100
AcDbArc
 50
270.0
 51
343.3984499999811
  0
ARC
  5
DF
330
2
100
AcDbEntity
  8
GAIKEI
  6
Continuous
 62
     1
100
AcDbCircle
 10
36.43259781151392
 20
31.17917206547304
 30
0.0
 40
0.065
100
AcDbArc
 50
16.60155000001893
 51
90.0
  0
LINE
  5
E0
330
2
100
AcDbEntity
  8
GAIKEI
  6
Continuous
 62
     1
100
AcDbLine
 10
36.30364661151395
 20
30.97417206547311
 30
0.0
 11
36.33650431151398
 21
30.97417206547311
 31
0.0
  0
LINE
  5
E1
330
2
100
AcDbEntity
  8
GAIKEI
  6
Continuous
 62
     1
100
AcDbLine
 10
36.38364661151394
 20
31.16417206547306
 30
0.0
 11
36.34963696151397
 21
31.16417206547306
 31
0.0
  0
LINE
  5
E2
330
2
100
AcDbEntity
  8
GAIKEI
  6
Continuous
 62
     1
100
AcDbLine
 10
36.38364661151394
 20
30.89417206547307
 30
0.0
 11
36.43259781151392
 21
30.89417206547307
 31
0.0
  0
LINE
  5
E3
330
2
100
AcDbEntity
  8
GAIKEI
  6
Continuous
 62
     1
100
AcDbLine
 10
36.43259781151392
 20
31.2441720654731
 30
0.0
 11
36.38364661151394
 21
31.2441720654731
 31
0.0
  0
LINE
  5
E4
330
2
100
AcDbEntity
  8
GAIKEI
  6
Continuous
 62
     1
100
AcDbLine
 10
36.38364661151394
 20
31.06917206547314
 30
0.0
 11
36.38364661151394
 21
31.2441720654731
 31
0.0
  0
LINE
  5
E5
330
2
100
AcDbEntity
  8
GAIKEI
  6
Continuous
 62
     1
100
AcDbLine
 10
36.38364661151394
 20
30.89417206547307
 30
0.0
 11
36.38364661151394
 21
31.06917206547314
 31
0.0
  0
LINE
  5
E6
330
2
100
AcDbEntity
  8
GAIKEI
  6
Continuous
 62
     1
100
AcDbLine
 10
36.30364661151395
 20
31.08783926547312
 30
0.0
 11
36.34364661151392
 21
31.08783926547312
 31
0.0
  0
LINE
  5
E7
330
2
100
AcDbEntity
  8
GAIKEI
  6
Continuous
 62
     1
100
AcDbLine
 10
36.34364661151392
 20
31.06917206547314
 30
0.0
 11
36.38364661151394
 21
31.06917206547314
 31
0.0
  0
LINE
  5
E8
330
2
100
AcDbEntity
  8
GAIKEI
  6
Continuous
 62
     1
100
AcDbLine
 10
36.37335911151394
 20
30.89167281547304
 30
0.0
 11
36.33335911151391
 21
30.89167281547304
 31
0.0
  0
LINE
  5
E9
330
2
100
AcDbEntity
  8
GAIKEI
  6
Continuous
 62
     1
100
AcDbLine
 10
36.35278641151393
 20
31.24667346547312
 30
0.0
 11
36.31278641151397
 21
31.24667346547312
 31
0.0
  0
LINE
  5
EA
330
2
100
AcDbEntity
  8
GAIKEI
  6
Continuous
 62
     1
100
AcDbLine
 10
36.34364661151392
 20
31.09999461547307
 30
0.0
 11
36.34364661151392
 21
31.08783926547312
 31
0.0
  0
ARC
  5
EB
330
2
100
AcDbEntity
  8
GAIKEI
  6
Continuous
 62
     1
100
AcDbCircle
 10
35.91364661151397
 20
2.251861929812207
 30
0.0
 40
0.35
100
AcDbArc
 50
0.0
 51
16.25702800000541
  0
ARC
  5
EC
330
2
100
AcDbEntity
  8
GAIKEI
  6
Continuous
 62
     1
100
AcDbCircle
 10
35.91364661151397
 20
2.251861929812207
 30
0.0
 40
0.35
100
AcDbArc
 50
343.7429719999946
 51
0.0
  0
ARC
  5
ED
330
2
100
AcDbEntity
  8
GAIKEI
  6
Continuous
 62
     1
100
AcDbCircle
 10
36.20165126151392
 20
2.167877879812181
 30
0.0
 40
0.05
100
AcDbArc
 50
320.9555470000156
 51
343.7429719999946
  0
ARC
  5
EE
330
2
100
AcDbEntity
  8
GAIKEI
  6
Continuous
 62
     1
100
AcDbCircle
 10
36.20165126151392
 20
2.33584597981212
 30
0.0
 40
0.05
100
AcDbArc
 50
16.25702800000541
 51
80.92142899999224
  0
ARC
  5
EF
330
2
100
AcDbEntity
  8
GAIKEI
  6
Continuous
 62
     1
100
AcDbCircle
 10
36.16165126151396
 20
2.370845979812202
 30
0.0
 40
0.05
100
AcDbArc
 50
16.25702800000541
 51
37.82319200001238
  0
ARC
  5
F0
330
2
100
AcDbEntity
  8
GAIKEI
  6
Continuous
 62
     1
100
AcDbCircle
 10
35.86364661151396
 20
1.886861929812198
 30
0.0
 40
0.45
100
AcDbArc
 50
343.3984499999811
 51
348.2276048164396
  0
ARC
  5
F1
330
2
100
AcDbEntity
  8
GAIKEI
  6
Continuous
 62
     1
100
AcDbCircle
 10
36.23259781151399
 20
1.776861929812184
 30
0.0
 40
0.065
100
AcDbArc
 50
270.0
 51
343.3984499999811
  0
LINE
  5
F2
330
2
100
AcDbEntity
  8
GAIKEI
  6
Continuous
 62
     1
100
AcDbLine
 10
36.20114661151399
 20
1.71186192981213
 30
0.0
 11
36.23259781151399
 21
1.71186192981213
 31
0.0
  0
ARC
  5
F3
330
2
100
AcDbEntity
  8
GAIKEI
  6
Continuous
 62
     1
100
AcDbCircle
 10
35.86364661151396
 20
37.24167206547304
 30
0.0
 40
0.45
100
AcDbArc
 50
0.0
 51
16.60155000001893
  0
ARC
  5
F4
330
2
100
AcDbEntity
  8
GAIKEI
  6
Continuous
 62
     1
100
AcDbCircle
 10
35.86364661151396
 20
37.24167206547304
 30
0.0
 40
0.45
100
AcDbArc
 50
343.3984499999811
 51
0.0
  0
ARC
  5
F5
330
2
100
AcDbEntity
  8
GAIKEI
  6
Continuous
 62
     1
100
AcDbCircle
 10
36.23259781151399
 20
37.13167206547303
 30
0.0
 40
0.065
100
AcDbArc
 50
270.0
 51
343.3984499999811
  0
ARC
  5
F6
330
2
100
AcDbEntity
  8
GAIKEI
  6
Continuous
 62
     1
100
AcDbCircle
 10
36.23259781151399
 20
37.35167206547306
 30
0.0
 40
0.065
100
AcDbArc
 50
16.60155000001893
 51
90.0
  0
LINE
  5
F7
330
2
100
AcDbEntity
  8
GAIKEI
  6
Continuous
 62
     1
100
AcDbLine
 10
36.20114661151399
 20
37.06667206547308
 30
0.0
 11
36.23259781151399
 21
37.06667206547308
 31
0.0
  0
LINE
  5
F8
330
2
100
AcDbEntity
  8
GAIKEI
  6
Continuous
 62
     1
100
AcDbLine
 10
36.23259781151399
 20
37.41667206547311
 30
0.0
 11
36.20114661151399
 21
37.41667206547311
 31
0.0
  0
ARC
  5
F9
330
2
100
AcDbEntity
  8
GAIKEI
  6
Continuous
 62
     1
100
AcDbCircle
 10
35.86364661151396
 20
18.977097729045
 30
0.0
 40
0.45
100
AcDbArc
 50
0.0
 51
16.60155000001893
  0
ARC
  5
FA
330
2
100
AcDbEntity
  8
GAIKEI
  6
Continuous
 62
     1
100
AcDbCircle
 10
35.86364661151396
 20
18.977097729045
 30
0.0
 40
0.45
100
AcDbArc
 50
343.3984499999811
 51
0.0
  0
ARC
  5
FB
330
2
100
AcDbEntity
  8
GAIKEI
  6
Continuous
 62
     1
100
AcDbCircle
 10
36.23259781151399
 20
18.8670977290451
 30
0.0
 40
0.065
100
AcDbArc
 50
270.0
 51
343.3984499999811
  0
ARC
  5
FC
330
2
100
AcDbEntity
  8
GAIKEI
  6
Continuous
 62
     1
100
AcDbCircle
 10
36.23259781151399
 20
19.08709772904501
 30
0.0
 40
0.065
100
AcDbArc
 50
16.60155000001893
 51
90.0
  0
LINE
  5
FD
330
2
100
AcDbEntity
  8
GAIKEI
  6
Continuous
 62
     1
100
AcDbLine
 10
36.20114661151399
 20
18.80209772904504
 30
0.0
 11
36.23259781151399
 21
18.80209772904504
 31
0.0
  0
LINE
  5
FE
330
2
100
AcDbEntity
  8
GAIKEI
  6
Continuous
 62
     1
100
AcDbLine
 10
36.23259781151399
 20
19.15209772904507
 30
0.0
 11
36.20114661151399
 21
19.15209772904507
 31
0.0
  0
LINE
  5
FF
330
2
100
AcDbEntity
  8
GAIKEI
  6
Continuous
 62
     1
100
AcDbLine
 10
36.23259781151399
 20
2.136861929812198
 30
0.0
 11
36.20114661151399
 21
2.136861929812198
 31
0.0
  0
ARC
  5
100
330
2
100
AcDbEntity
  8
GAIKEI
  6
Continuous
 62
     1
100
AcDbCircle
 10
35.90364661151398
 20
1.96186192981213
 30
0.0
 40
0.45
100
AcDbArc
 50
0.0
 51
16.60155000001893
  0
ARC
  5
101
330
2
100
AcDbEntity
  8
GAIKEI
  6
Continuous
 62
     1
100
AcDbCircle
 10
35.90364661151398
 20
1.96186192981213
 30
0.0
 40
0.45
100
AcDbArc
 50
343.3984499999811
 51
0.0
  0
ARC
  5
102
330
2
100
AcDbEntity
  8
GAIKEI
  6
Continuous
 62
     1
100
AcDbCircle
 10
36.27259781151395
 20
1.85186192981223
 30
0.0
 40
0.065
100
AcDbArc
 50
299.071346000013
 51
343.3984499999811
  0
ARC
  5
103
330
2
100
AcDbEntity
  8
GAIKEI
  6
Continuous
 62
     1
100
AcDbCircle
 10
36.27259781151395
 20
2.071861929812143
 30
0.0
 40
0.065
100
AcDbArc
 50
16.60155000001893
 51
90.0
  0
LINE
  5
104
330
2
100
AcDbEntity
  8
GAIKEI
  6
Continuous
 62
     1
100
AcDbLine
 10
36.27259781151395
 20
2.136861929812198
 30
0.0
 11
36.24086871151394
 21
2.136861929812198
 31
0.0
  0
ELLIPSE
  5
105
330
2
100
AcDbEntity
  8
GAIKEI
  6
Continuous
 62
     1
100
AcDbEllipse
 10
36.41766781151398
 20
35.66266531547308
 30
0.0
 11
0.1424851626795885
 21
0.0468826024892312
 31
0.0
210
0.0
220
0.0
230
1.0
 40
0.9984440000001793
 41
1.218517221577885
 42
2.82325303544779
  0
ELLIPSE
  5
106
330
2
100
AcDbEntity
  8
GAIKEI
  6
Continuous
 62
     1
100
AcDbEllipse
 10
36.41766781151398
 20
30.785819215473
 30
0.0
 11
-0.1424851626777184
 21
0.0468826024949143
 31
0.0
210
0.0
220
0.0
230
1.0
 40
0.9984440000005646
 41
0.318339618181823
 42
1.923075432051857
  0
ELLIPSE
  5
107
330
2
100
AcDbEntity
  8
GAIKEI
  6
Continuous
 62
     1
100
AcDbEllipse
 10
36.85459056151393
 20
33.45438416547302
 30
0.0
 11
-0.0677683608693831
 21
0.9901836694613269
 31
0.0
210
0.0
220
0.0
230
1.0
 40
0.9986229999985823
 41
4.644149142569689
 42
4.780628818045713
  0
ELLIPSE
  5
108
330
2
100
AcDbEntity
  8
GAIKEI
  6
Continuous
 62
     1
100
AcDbEllipse
 10
37.40490311151393
 20
30.82029421547304
 30
0.0
 11
0.1113231012737732
 21
0.1005344076561978
 31
0.0
210
0.0
220
0.0
230
1.0
 40
0.9976620000000806
 41
4.013930599325021
 42
5.410847361505642
  0
ELLIPSE
  5
109
330
2
100
AcDbEntity
  8
GAIKEI
  6
Continuous
 62
     1
100
AcDbEllipse
 10
36.85459056151393
 20
32.99410031547302
 30
0.0
 11
0.0677683607176556
 21
0.9901836694785888
 31
0.0
210
0.0
220
0.0
230
1.0
 40
0.998622999991616
 41
4.644149142570644
 42
4.78062881804572
  0
ELLIPSE
  5
10A
330
2
100
AcDbEntity
  8
GAIKEI
  6
Continuous
 62
     1
100
AcDbEllipse
 10
37.40490311151393
 20
35.62819026547311
 30
0.0
 11
-0.1113231012655573
 21
0.1005344076653982
 31
0.0
210
0.0
220
0.0
230
1.0
 40
0.9976619999996227
 41
4.013930599346159
 42
5.410847361526342
  0
ELLIPSE
  5
10B
330
2
100
AcDbEntity
  8
GAIKEI
  6
Continuous
 62
     1
100
AcDbEllipse
 10
37.64859186151398
 20
30.64167991547311
 30
0.0
 11
-0.2200773139313426
 21
0.2042784546889193
 31
0.0
210
0.0
220
0.0
230
1.0
 40
0.9990920000004408
 41
2.530501865473186
 42
3.75268344169062
  0
ELLIPSE
  5
10C
330
2
100
AcDbEntity
  8
GAIKEI
  6
Continuous
 62
     1
100
AcDbEllipse
 10
36.81098626151396
 20
32.997084615473
 30
0.0
 11
-1.447501845782709
 21
0.0990673050774751
 31
0.0
210
0.0
220
0.0
230
1.0
 40
0.9993879999934986
 41
3.073300713334443
 42
3.209884594306729
  0
ELLIPSE
  5
10D
330
2
100
AcDbEntity
  8
GAIKEI
  6
Continuous
 62
     1
100
AcDbEllipse
 10
36.81098626151396
 20
33.45139986547304
 30
0.0
 11
1.447501845805857
 21
0.0990673047384905
 31
0.0
210
0.0
220
0.0
230
1.0
 40
0.9993880000055288
 41
-0.0682919404817914
 42
0.0682919404888547
  0
ELLIPSE
  5
10E
330
2
100
AcDbEntity
  8
GAIKEI
  6
Continuous
 62
     1
100
AcDbEllipse
 10
37.64859186151398
 20
35.80680461547308
 30
0.0
 11
0.2200773139137207
 21
0.2042784547079607
 31
0.0
210
0.0
220
0.0
230
1.0
 40
0.9990919999997052
 41
-0.6110907881875775
 42
0.6110907880307086
  0
ARC
  5
10F
330
2
100
AcDbEntity
  8
GAIKEI
  6
Continuous
 62
     1
100
AcDbCircle
 10
37.64895076151396
 20
30.64134681547307
 30
0.0
 40
0.34978195
100
AcDbArc
 50
317.3057001384141
 51
349.609110091751
  0
LINE
  5
110
330
2
100
AcDbEntity
  8
GAIKEI
  6
Continuous
 62
     1
100
AcDbLine
 10
36.32840376151392
 20
30.94036391547309
 30
0.0
 11
36.32840376151392
 21
30.80975751547305
 31
0.0
  0
LINE
  5
111
330
2
100
AcDbEntity
  8
GAIKEI
  6
Continuous
 62
     1
100
AcDbLine
 10
36.32840376151392
 20
30.80975751547305
 30
0.0
 11
36.27841136151392
 21
30.80975751547305
 31
0.0
  0
LINE
  5
112
330
2
100
AcDbEntity
  8
GAIKEI
  6
Continuous
 62
     1
100
AcDbLine
 10
37.41013086151395
 20
30.6705910654731
 30
0.0
 11
37.40882701151395
 21
30.67203481547313
 31
0.0
  0
LINE
  5
113
330
2
100
AcDbEntity
  8
GAIKEI
  6
Continuous
 62
     1
100
AcDbLine
 10
36.27841136151392
 20
30.80975751547305
 30
0.0
 11
36.27841136151392
 21
30.81917206547314
 31
0.0
  0
LINE
  5
114
330
2
100
AcDbEntity
  8
GAIKEI
  6
Continuous
 62
     1
100
AcDbLine
 10
37.83648856151393
 20
33.58941926547311
 30
0.0
 11
37.68409361151396
 21
34.71876576547311
 31
0.0
  0
LINE
  5
115
330
2
100
AcDbEntity
  8
GAIKEI
  6
Continuous
 62
     1
100
AcDbLine
 10
37.5586773615139
 20
35.60950346547315
 30
0.0
 11
37.55330081151396
 21
35.64859861547302
 31
0.0
  0
LINE
  5
116
330
2
100
AcDbEntity
  8
GAIKEI
  6
Continuous
 62
     1
100
AcDbLine
 10
37.68409361151396
 20
34.71876576547311
 30
0.0
 11
37.57526566151398
 21
35.51010026547306
 31
0.0
  0
LINE
  5
117
330
2
100
AcDbEntity
  8
GAIKEI
  6
Continuous
 62
     1
100
AcDbLine
 10
37.84573036151392
 20
32.99410031547314
 30
0.0
 11
37.84573036151392
 21
33.45438416547313
 31
0.0
  0
LINE
  5
118
330
2
100
AcDbEntity
  8
GAIKEI
  6
Continuous
 62
     1
100
AcDbLine
 10
37.75165116151396
 20
32.24217626547306
 30
0.0
 11
37.83648856151393
 21
32.85906526547308
 31
0.0
  0
LINE
  5
119
330
2
100
AcDbEntity
  8
GAIKEI
  6
Continuous
 62
     1
100
AcDbLine
 10
37.57526566151398
 20
30.93838421547309
 30
0.0
 11
37.74075371151401
 21
32.14171876547311
 31
0.0
  0
LINE
  5
11A
330
2
100
AcDbEntity
  8
GAIKEI
  6
Continuous
 62
     1
100
AcDbLine
 10
37.55330081151396
 20
30.79988591547305
 30
0.0
 11
37.5586773615139
 21
30.83898101547311
 31
0.0
  0
LINE
  5
11B
330
2
100
AcDbEntity
  8
GAIKEI
  6
Continuous
 62
     1
100
AcDbLine
 10
36.42289556151394
 20
30.63611601547314
 30
0.0
 11
37.41013086151395
 21
30.6705910654731
 31
0.0
  0
LINE
  5
11C
330
2
100
AcDbEntity
  8
GAIKEI
  6
Continuous
 62
     1
100
AcDbLine
 10
36.20816141151397
 20
30.02601876547306
 30
0.0
 11
37.71173961151396
 21
30.34821411547307
 31
0.0
  0
LINE
  5
11D
330
2
100
AcDbEntity
  8
GAIKEI
  6
Continuous
 62
     1
100
AcDbLine
 10
37.94594076151395
 20
30.60052836547311
 30
0.0
 11
38.24835791151395
 21
32.79953281547307
 31
0.0
  0
LINE
  5
11E
330
2
100
AcDbEntity
  8
GAIKEI
  6
Continuous
 62
     1
100
AcDbLine
 10
38.26187011151399
 20
32.99696366547312
 30
0.0
 11
38.26187011151399
 21
33.45152081547303
 31
0.0
  0
LINE
  5
11F
330
2
100
AcDbEntity
  8
GAIKEI
  6
Continuous
 62
     1
100
AcDbLine
 10
38.24835791151395
 20
33.64895171547312
 30
0.0
 11
37.94594076151395
 21
35.84795616547308
 31
0.0
  0
LINE
  5
120
330
2
100
AcDbEntity
  8
GAIKEI
  6
Continuous
 62
     1
100
AcDbLine
 10
37.71173961151396
 20
36.10027041547312
 30
0.0
 11
36.20816141151397
 21
36.4224657154731
 31
0.0
  0
LINE
  5
121
330
2
100
AcDbEntity
  8
GAIKEI
  6
Continuous
 62
     1
100
AcDbLine
 10
36.26450411151393
 20
35.71789061547316
 30
0.0
 11
36.26450411151393
 21
30.73059386547311
 31
0.0
  0
LINE
  5
122
330
2
100
AcDbEntity
  8
GAIKEI
  6
Continuous
 62
     1
100
AcDbLine
 10
37.41013086151395
 20
35.77789346547309
 30
0.0
 11
36.42289556151394
 21
35.81236846547313
 31
0.0
  0
ARC
  5
123
330
2
100
AcDbEntity
  8
GAIKEI
  6
Continuous
 62
     1
100
AcDbCircle
 10
37.836406311514
 20
2.676055829812185
 30
0.0
 40
0.05
100
AcDbArc
 50
273.0000000000056
 51
359.0000000000243
  0
ARC
  5
124
330
2
100
AcDbEntity
  8
GAIKEI
  6
Continuous
 62
     1
100
AcDbCircle
 10
36.38453986151393
 20
2.299555029812154
 30
0.0
 40
0.25
100
AcDbArc
 50
93.00000000000558
 51
137.1867789999956
  0
LINE
  5
125
330
2
100
AcDbEntity
  8
GAIKEI
  6
Continuous
 62
     1
100
AcDbLine
 10
36.37145591151398
 20
2.549212379812161
 30
0.0
 11
37.37553241151398
 21
2.601833829812221
 31
0.0
  0
LINE
  5
126
330
2
100
AcDbEntity
  8
GAIKEI
  6
Continuous
 62
     1
100
AcDbLine
 10
37.24886331151396
 20
2.595195379812139
 30
0.0
 11
37.83902311151394
 21
2.626124329812228
 31
0.0
  0
LINE
  5
127
330
2
100
AcDbEntity
  8
GAIKEI
  6
Continuous
 62
     1
100
AcDbLine
 10
37.88639871151395
 20
2.675183179812165
 30
0.0
 11
37.88849191151394
 21
2.795102179812147
 31
0.0
  0
LINE
  5
128
330
2
100
AcDbEntity
  8
GAIKEI
  6
Continuous
 62
     1
100
AcDbLine
 10
36.37145591151398
 20
2.549212379812161
 30
0.0
 11
37.24886331151396
 21
2.595195379812139
 31
0.0
  0
ELLIPSE
  5
129
330
2
100
AcDbEntity
  8
GAIKEI
  6
Continuous
 62
     1
100
AcDbEllipse
 10
38.38107801151398
 20
6.33686192981213
 30
0.0
 11
0.0500686172998712
 21
0.0000000000139555
 31
0.0
210
0.0
220
0.0
230
1.0
 40
0.9986299999997962
 41
-0.0000000002791107
 42
1.57079632651655
  0
ARC
  5
12A
330
2
100
AcDbEntity
  8
GAIKEI
  6
Continuous
 62
     1
100
AcDbCircle
 10
38.1811466115139
 20
6.041370429812218
 30
0.0
 40
0.25
100
AcDbArc
 50
299.3405819999889
 51
0.0
  0
LINE
  5
12B
330
2
100
AcDbEntity
  8
GAIKEI
  6
Continuous
 62
     1
100
AcDbLine
 10
38.43114661151389
 20
6.041370429812218
 30
0.0
 11
38.43114661151389
 21
6.33686192981213
 31
0.0
  0
LINE
  5
12C
330
2
100
AcDbEntity
  8
GAIKEI
  6
Continuous
 62
     1
100
AcDbLine
 10
38.38107801151398
 20
6.386861929812198
 30
0.0
 11
38.37976781151395
 21
6.386861929812198
 31
0.0
  0
LINE
  5
12D
330
2
100
AcDbEntity
  8
GAIKEI
  6
Continuous
 62
     1
100
AcDbLine
 10
38.37976781151395
 20
6.386861929812198
 30
0.0
 11
38.30364661151396
 21
6.386861929812198
 31
0.0
  0
ELLIPSE
  5
12E
330
2
100
AcDbEntity
  8
GAIKEI
  6
Continuous
 62
     1
100
AcDbEllipse
 10
38.3410780115139
 20
4.236861929812221
 30
0.0
 11
-0.0500686172998712
 21
0.0000000000068056
 31
0.0
210
0.0
220
0.0
230
1.0
 40
0.9986300000009318
 41
3.141592653725905
 42
4.712388980520429
  0
ARC
  5
12F
330
2
100
AcDbEntity
  8
GAIKEI
  6
Continuous
 62
     1
100
AcDbCircle
 10
36.33212961151389
 20
3.036861929812175
 30
0.0
 40
0.25
100
AcDbArc
 50
270.0
 51
296.5650509999881
  0
ARC
  5
130
330
2
100
AcDbEntity
  8
GAIKEI
  6
Continuous
 62
     1
100
AcDbCircle
 10
38.14114661151393
 20
3.941370429812195
 30
0.0
 40
0.25
100
AcDbArc
 50
296.5650509999881
 51
0.0
  0
LINE
  5
131
330
2
100
AcDbEntity
  8
GAIKEI
  6
Continuous
 62
     1
100
AcDbLine
 10
38.39114661151393
 20
3.941370429812195
 30
0.0
 11
38.39114661151393
 21
4.236861929812221
 31
0.0
  0
LINE
  5
132
330
2
100
AcDbEntity
  8
GAIKEI
  6
Continuous
 62
     1
100
AcDbLine
 10
36.44393301151394
 20
2.813255129812205
 30
0.0
 11
38.25295001151392
 21
3.717763629812225
 31
0.0
  0
LINE
  5
133
330
2
100
AcDbEntity
  8
GAIKEI
  6
Continuous
 62
     1
100
AcDbLine
 10
38.3410780115139
 20
4.286861929812175
 30
0.0
 11
38.33976781151398
 21
4.286861929812175
 31
0.0
  0
LINE
  5
134
330
2
100
AcDbEntity
  8
GAIKEI
  6
Continuous
 62
     1
100
AcDbLine
 10
38.33976781151398
 20
4.286861929812175
 30
0.0
 11
38.30364661151396
 21
4.286861929812175
 31
0.0
  0
LINE
  5
135
330
2
100
AcDbEntity
  8
GAIKEI
  6
Continuous
 62
     1
100
AcDbLine
 10
36.20114661151399
 20
2.786861929812175
 30
0.0
 11
36.33212961151389
 21
2.786861929812175
 31
0.0
  0
DIMENSION
  5
136
330
2
100
AcDbEntity
  8
SUNPO
100
AcDbDimension
  2
*D6
 10
38.35369661151395
 20
45.67119577126265
 30
0.0
 11
44.93702994484729
 21
47.42119577126266
 31
0.0
 70
    33
  1
89
 71
     5
 42
4.449999999999988
  3
STANDARD
100
AcDbAlignedDimension
 13
33.90369661151396
 23
37.67772827582178
 33
0.0
 14
38.35369661151395
 24
37.67772827582178
 34
0.0
1001
ACAD
1000
DSTYLE
1002
{
1070
    40
1040
1.0
1070
   140
1040
2.5
1070
   147
1040
0.5
1070
   172
1070
     1
1070
   279
1070
     0
1070
   288
1070
     0
1002
}
  0
DIMENSION
  5
147
330
2
100
AcDbEntity
  8
SUNPO
100
AcDbDimension
  2
*D5
 10
21.77547415904931
 20
37.67148221561399
 30
0.0
 11
20.0254741590493
 21
19.57532714778358
 31
0.0
 70
    33
  1
724
 71
     5
 42
36.19231013566082
  3
STANDARD
100
AcDbAlignedDimension
 13
13.77547415904931
 23
1.479172079953173
 33
0.0
 14
13.77547415904928
 24
37.67148221561399
 34
0.0
1001
ACAD
1000
DSTYLE
1002
{
1070
   287
1070
     3
1070
   287
1070
     3
1070
   287
1070
     3
1070
   287
1070
     3
1070
   287
1070
     3
1070
   287
1070
     3
1070
   287
1070
     3
1070
   287
1070
     3
1070
   287
1070
     3
1070
   287
1070
     3
1070
   287
1070
     3
1070
   287
1070
     3
1070
   287
1070
     3
1070
   287
1070
     3
1070
   287
1070
     3
1070
   287
1070
     3
1070
   287
1070
     3
1070
   287
1070
     3
1070
   287
1070
     3
1070
   287
1070
     3
1070
   287
1070
     3
1070
   287
1070
     3
1070
   287
1070
     3
1070
   287
1070
     3
1070
   287
1070
     3
1070
   287
1070
     3
1070
   287
1070
     3
1070
   287
1070
     3
1070
   287
1070
     3
1070
   287
1070
     3
1070
   287
1070
     3
1070
   287
1070
     3
1070
   287
1070
     3
1070
   287
1070
     3
1070
    40
1040
1.0
1070
   140
1040
2.5
1070
   147
1040
0.5
1070
   172
1070
     1
1070
   279
1070
     0
1002
}
  0
DIMENSION
  5
154
330
2
100
AcDbEntity
  8
SUNPO
100
AcDbDimension
  2
*D4
 10
14.21523934877697
 20
45.67119577126265
 30
0.0
 11
-16.03476063912298
 21
47.42119577126266
 31
0.0
 70
    33
  1
1210
 71
     5
 42
60.49999997579991
  3
STANDARD
100
AcDbAlignedDimension
 13
-46.28476062702293
 23
37.67119577126266
 33
0.0
 14
14.21523934877697
 24
37.67119577126266
 34
0.0
1001
ACAD
1000
DSTYLE
1002
{
1070
   287
1070
     3
1070
   287
1070
     3
1070
   287
1070
     3
1070
   287
1070
     3
1070
   287
1070
     3
1070
   287
1070
     3
1070
   287
1070
     3
1070
   287
1070
     3
1070
   287
1070
     3
1070
   287
1070
     3
1070
   287
1070
     3
1070
   287
1070
     3
1070
   287
1070
     3
1070
   287
1070
     3
1070
   287
1070
     3
1070
   287
1070
     3
1070
   287
1070
     3
1070
   287
1070
     3
1070
   287
1070
     3
1070
   287
1070
     3
1070
   287
1070
     3
1070
   287
1070
     3
1070
   287
1070
     3
1070
   287
1070
     3
1070
   287
1070
     3
1070
   287
1070
     3
1070
   287
1070
     3
1070
   287
1070
     3
1070
   287
1070
     3
1070
   287
1070
     3
1070
   287
1070
     3
1070
   287
1070
     3
1070
   287
1070
     3
1070
   287
1070
     3
1070
    40
1040
1.0
1070
   140
1040
2.5
1070
   147
1040
0.5
1070
   172
1070
     1
1070
   279
1070
     0
1002
}
  0
SPLINE
  5
161
330
2
100
AcDbEntity
  8
GAIKEI
  6
Continuous
 62
     1
100
AcDbSpline
210
0.0
220
0.0
230
1.0
 70
     8
 71
     3
 72
    19
 73
    15
 74
    13
 42
0.0000000001
 43
0.0000000001
 44
0.000001
 12
-0.9971663916962876
 22
-0.0752275698890099
 32
0.0
 13
-0.0752446516939761
 23
-0.9971651028748709
 33
0.0
 40
0.0
 40
0.0
 40
0.0
 40
0.0
 40
0.0307154355882571
 40
0.047403057744553
 40
0.0651725077316206
 40
0.0907715901301813
 40
0.1187843457395388
 40
0.1493748434368309
 40
0.1799684720857725
 40
0.2079831862985767
 40
0.2335829246383
 40
0.2513519490619301
 40
0.2680383244319028
 40
0.2987487387216448
 40
0.2987487387216448
 40
0.2987487387216448
 40
0.2987487387216448
 10
-45.95162138825514
 20
37.5437718977621
 30
0.0
 10
-45.96183085494678
 20
37.54300168190298
 30
0.0
 10
-45.97754147949628
 20
37.54028001203995
 30
0.0
 10
-45.99809280303031
 20
37.53314934217247
 30
0.0
 10
-46.01633363597461
 20
37.5248329253576
 30
0.0
 10
-46.03686155272407
 20
37.5126943788934
 30
0.0
 10
-46.05937908751736
 20
37.49585685933158
 30
0.0
 10
-46.08134308654391
 20
37.47575302269189
 30
0.0
 10
-46.10144584245209
 20
37.45378716871676
 30
0.0
 10
-46.118283627896
 20
37.43126747315927
 30
0.0
 10
-46.13042219596282
 20
37.41073873958181
 30
0.0
 10
-46.13873847855407
 20
37.39249823039933
 30
0.0
 10
-46.14586871463602
 20
37.37194912102803
 30
0.0
 10
-46.14859019450324
 20
37.35624061118012
 30
0.0
 10
-46.1493604593121
 20
37.34603282670525
 30
0.0
 11
-45.95162138825514
 21
37.5437718977621
 31
0.0
 11
-45.98187038284629
 21
37.53843873709707
 31
0.0
 11
-45.99765760139627
 21
37.53303183925436
 31
0.0
 11
-46.01383760938148
 21
37.52568633323142
 31
0.0
 11
-46.0359205213071
 21
37.51273832479149
 31
0.0
 11
-46.05840553474047
 21
37.49603110876638
 31
0.0
 11
-46.08102238798233
 21
37.47543382643244
 31
0.0
 11
-46.10162036931813
 21
37.45281337509323
 31
0.0
 11
-46.11832785068213
 21
37.43032611871252
 31
0.0
 11
-46.13127580325749
 21
37.4082424135953
 31
0.0
 11
-46.13862113032815
 21
37.39206279165853
 31
0.0
 11
-46.14402778782687
 21
37.37627680852961
 31
0.0
 11
-46.1493604593121
 21
37.34603282670525
 31
0.0
  0
SPLINE
  5
162
330
2
100
AcDbEntity
  8
GAIKEI
  6
Continuous
 62
     1
100
AcDbSpline
210
0.0
220
0.0
230
1.0
 70
     8
 71
     3
 72
    19
 73
    15
 74
    13
 42
0.0000000001
 43
0.0000000001
 44
0.000001
 12
0.9971663916962711
 22
-0.075227569889229
 32
0.0
 13
0.075244651693976
 23
-0.9971651028748709
 33
0.0
 40
0.0
 40
0.0
 40
0.0
 40
0.0
 40
0.0307154355883691
 40
0.0474030577445506
 40
0.0651725077316798
 40
0.0907715901302344
 40
0.1187843457395462
 40
0.149374843436841
 40
0.1799684720857392
 40
0.2079831862986643
 40
0.2335829246383301
 40
0.2513519490619866
 40
0.2680383244319789
 40
0.2987487387217197
 40
0.2987487387217197
 40
0.2987487387217197
 40
0.2987487387217197
 10
13.8821001100091
 20
37.5437718977621
 30
0.0
 10
13.89230957670078
 20
37.54300168190298
 30
0.0
 10
13.90802020125027
 20
37.54028001203995
 30
0.0
 10
13.92857152478433
 20
37.53314934217252
 30
0.0
 10
13.9468123577286
 20
37.52483292535754
 30
0.0
 10
13.96734027447806
 20
37.5126943788934
 30
0.0
 10
13.98985780927133
 20
37.49585685933153
 30
0.0
 10
14.01182180829785
 20
37.47575302269195
 30
0.0
 10
14.03192456420616
 20
37.45378716871682
 30
0.0
 10
14.04876234965007
 20
37.43126747315927
 30
0.0
 10
14.06090091771675
 20
37.41073873958181
 30
0.0
 10
14.06921720030809
 20
37.39249823039933
 30
0.0
 10
14.07634743639012
 20
37.37194912102814
 30
0.0
 10
14.07906891625731
 20
37.35624061118012
 30
0.0
 10
14.07983918106618
 20
37.34603282670525
 30
0.0
 11
13.8821001100091
 21
37.5437718977621
 31
0.0
 11
13.91234910460036
 21
37.53843873709707
 31
0.0
 11
13.92813632315023
 21
37.53303183925436
 31
0.0
 11
13.9443163311355
 21
37.52568633323142
 31
0.0
 11
13.96639924306112
 21
37.51273832479149
 31
0.0
 11
13.98888425649443
 21
37.49603110876638
 31
0.0
 11
14.01150110973629
 21
37.47543382643244
 31
0.0
 11
14.03209909107215
 21
37.45281337509335
 31
0.0
 11
14.0488065724362
 21
37.43032611871252
 31
0.0
 11
14.06175452501145
 21
37.4082424135953
 31
0.0
 11
14.06909985208216
 21
37.39206279165853
 31
0.0
 11
14.07450650958094
 21
37.37627680852961
 31
0.0
 11
14.07983918106618
 21
37.34603282670525
 31
0.0
  0
SPLINE
  5
163
330
2
100
AcDbEntity
  8
GAIKEI
  6
Continuous
 62
     1
100
AcDbSpline
210
0.0
220
0.0
230
1.0
 70
     8
 71
     3
 72
    19
 73
    15
 74
    13
 42
0.0000000001
 43
0.0000000001
 44
0.000001
 12
0.075227569746649
 22
-0.9971663917070275
 32
0.0
 13
0.9971651028676605
 23
-0.0752446517895329
 33
0.0
 40
0.0
 40
0.0
 40
0.0
 40
0.0
 40
0.0307154355815327
 40
0.0474030577359908
 40
0.0651725077224812
 40
0.090771590121971
 40
0.1187843457348567
 40
0.1493748434379274
 40
0.1799684720829606
 40
0.207983186293529
 40
0.2335829246325495
 40
0.2513519490566054
 40
0.2680383244278215
 40
0.298748738722034
 40
0.298748738722034
 40
0.298748738722034
 40
0.298748738722034
 10
-46.14936045931204
 20
1.812311318720958
 30
0.0
 10
-46.14859024345455
 20
1.802101852031455
 30
0.0
 10
-46.14586857359388
 20
1.78639122748433
 30
0.0
 10
-46.13873790372795
 20
1.765839903953008
 30
0.0
 10
-46.13042148691384
 20
1.747599071008835
 30
0.0
 10
-46.11828294044906
 20
1.727071154258226
 30
0.0
 10
-46.10144542088505
 20
1.704553619462387
 30
0.0
 10
-46.081341584244
 20
1.682589620434555
 30
0.0
 10
-46.05937573026901
 20
1.662486864526329
 30
0.0
 10
-46.03685603471331
 20
1.645649079083796
 30
0.0
 10
-46.01632730113666
 20
1.633510511017561
 30
0.0
 10
-45.99808679195402
 20
1.625194228425812
 30
0.0
 10
-45.977537682581
 20
1.61806399234274
 30
0.0
 10
-45.96182917273141
 20
1.615342512473944
 30
0.0
 10
-45.95162138825514
 20
1.614572247664
 30
0.0
 11
-46.14936045931204
 21
1.812311318720958
 31
0.0
 11
-46.1440272986515
 21
1.782062324135836
 31
0.0
 11
-46.13862040080999
 21
1.766275105587396
 31
0.0
 11
-46.13127489478773
 21
1.750095097602525
 31
0.0
 11
-46.11832688634751
 21
1.728012185675993
 31
0.0
 11
-46.10161967032024
 21
1.70552717223984
 31
0.0
 11
-46.08102238798233
 21
1.682910318993776
 31
0.0
 11
-46.05840193664596
 21
1.662312337660637
 31
0.0
 11
-46.03591468026706
 21
1.64560485629795
 31
0.0
 11
-46.01383097515048
 21
1.632656903722931
 31
0.0
 11
-45.99765135321348
 21
1.625311576651824
 31
0.0
 11
-45.98186537008354
 21
1.61990491915219
 31
0.0
 11
-45.95162138825514
 21
1.614572247664
 31
0.0
  0
SPLINE
  5
164
330
2
100
AcDbEntity
  8
GAIKEI
  6
Continuous
 62
     1
100
AcDbSpline
210
0.0
220
0.0
230
1.0
 70
     8
 71
     3
 72
    19
 73
    15
 74
    13
 42
0.0000000001
 43
0.0000000001
 44
0.000001
 12
-0.0752275697466489
 22
-0.9971663917070275
 32
0.0
 13
-0.9971651028676605
 23
-0.0752446517895329
 33
0.0
 40
0.0
 40
0.0
 40
0.0
 40
0.0
 40
0.030715435581542
 40
0.0474030577359828
 40
0.0651725077224747
 40
0.0907715901219914
 40
0.1187843457348729
 40
0.1493748434380371
 40
0.1799684720829518
 40
0.2079831862935572
 40
0.2335829246325348
 40
0.2513519490565875
 40
0.2680383244277968
 40
0.2987487387220723
 40
0.2987487387220723
 40
0.2987487387220723
 40
0.2987487387220723
 10
14.07983918106606
 20
1.812311318720958
 30
0.0
 10
14.07906896520856
 20
1.802101852031455
 30
0.0
 10
14.0763472953478
 20
1.786391227484273
 30
0.0
 10
14.06921662548198
 20
1.765839903953008
 30
0.0
 10
14.06090020866784
 20
1.747599071008778
 30
0.0
 10
14.04876166220299
 20
1.727071154258169
 30
0.0
 10
14.03192414263901
 20
1.70455361946233
 30
0.0
 10
14.01182030599804
 20
1.682589620434441
 30
0.0
 10
13.98985445202297
 20
1.662486864526442
 30
0.0
 10
13.96733475646726
 20
1.645649079083739
 30
0.0
 10
13.94680602289068
 20
1.633510511017618
 30
0.0
 10
13.92856551370802
 20
1.625194228425755
 30
0.0
 10
13.908016404335
 20
1.61806399234274
 30
0.0
 10
13.8923078944854
 20
1.615342512473944
 30
0.0
 10
13.8821001100091
 20
1.614572247664
 30
0.0
 11
14.07983918106606
 21
1.812311318720958
 31
0.0
 11
14.07450602040546
 21
1.782062324135836
 31
0.0
 11
14.06909912256401
 21
1.766275105587396
 31
0.0
 11
14.06175361654175
 21
1.750095097602525
 31
0.0
 11
14.04880560810147
 21
1.728012185675993
 31
0.0
 11
14.0320983920742
 21
1.70552717223984
 31
0.0
 11
14.01150110973629
 21
1.682910318993663
 31
0.0
 11
13.98888065839998
 21
1.662312337660637
 31
0.0
 11
13.96639340202102
 21
1.64560485629795
 31
0.0
 11
13.94430969690449
 21
1.632656903722931
 31
0.0
 11
13.9281300749675
 21
1.625311576651824
 31
0.0
 11
13.91234409183755
 21
1.61990491915219
 31
0.0
 11
13.8821001100091
 21
1.614572247664
 31
0.0
  0
LINE
  5
165
330
2
100
AcDbEntity
  8
GAIKEI
  6
Continuous
 62
     1
100
AcDbLine
 10
13.65527104900098
 20
37.31694286561799
 30
0.0
 11
-45.72479232724697
 21
37.31694286561799
 31
0.0
  0
LINE
  5
166
330
2
100
AcDbEntity
  8
GAIKEI
  6
Continuous
 62
     1
100
AcDbLine
 10
-44.47622552774641
 20
35.68344531627145
 30
0.0
 11
-44.47622552774641
 21
3.474898829154881
 31
0.0
  0
LINE
  5
167
330
2
100
AcDbEntity
  8
GAIKEI
  6
Continuous
 62
     1
100
AcDbLine
 10
-44.25153387783626
 20
3.250207179244739
 30
0.0
 11
12.18201259959033
 21
3.250207179244739
 31
0.0
  0
LINE
  5
168
330
2
100
AcDbEntity
  8
GAIKEI
  6
Continuous
 62
     1
100
AcDbLine
 10
12.40670424950042
 20
35.68344531627145
 30
0.0
 11
12.40670424950042
 21
3.474898829154881
 31
0.0
  0
LINE
  5
169
330
2
100
AcDbEntity
  8
GAIKEI
  6
Continuous
 62
     1
100
AcDbLine
 10
12.18201259959033
 20
35.90813696618159
 30
0.0
 11
-44.25153387783626
 21
35.90813696618159
 31
0.0
  0
LINE
  5
16A
330
2
100
AcDbEntity
  8
GAIKEI
  6
Continuous
 62
     1
100
AcDbLine
 10
-43.34476062819897
 20
2.004076929743177
 30
0.0
 11
-43.34476062819897
 21
2.304267229623064
 31
0.0
  0
LINE
  5
16B
330
2
100
AcDbEntity
  8
GAIKEI
  6
Continuous
 62
     1
100
AcDbLine
 10
-43.66985577806895
 20
2.329172079613158
 30
0.0
 11
-43.369665478189
 21
2.329172079613158
 31
0.0
  0
LINE
  5
16C
330
2
100
AcDbEntity
  8
GAIKEI
  6
Continuous
 62
     1
100
AcDbLine
 10
-43.69476062805898
 20
2.004076929743177
 30
0.0
 11
-43.69476062805898
 21
2.304267229623064
 31
0.0
  0
LINE
  5
16D
330
2
100
AcDbEntity
  8
GAIKEI
  6
Continuous
 62
     1
100
AcDbLine
 10
-43.66985577806895
 20
1.979172079753084
 30
0.0
 11
-43.369665478189
 21
1.979172079753084
 31
0.0
  0
LINE
  5
16E
330
2
100
AcDbEntity
  8
GAIKEI
  6
Continuous
 62
     1
100
AcDbLine
 10
-45.17851062746546
 20
2.097922079705654
 30
0.0
 11
-45.17851062746546
 21
2.210422079660588
 31
0.0
  0
LINE
  5
16F
330
2
100
AcDbEntity
  8
GAIKEI
  6
Continuous
 62
     1
100
AcDbLine
 10
-45.29101062742052
 20
2.210422079660588
 30
0.0
 11
-45.17851062746546
 21
2.210422079660588
 31
0.0
  0
LINE
  5
170
330
2
100
AcDbEntity
  8
GAIKEI
  6
Continuous
 62
     1
100
AcDbLine
 10
-45.29101062742052
 20
2.097922079705654
 30
0.0
 11
-45.29101062742052
 21
2.210422079660588
 31
0.0
  0
LINE
  5
171
330
2
100
AcDbEntity
  8
GAIKEI
  6
Continuous
 62
     1
100
AcDbLine
 10
-45.29101062742052
 20
2.097922079705654
 30
0.0
 11
-45.17851062746546
 21
2.097922079705654
 31
0.0
  0
LINE
  5
172
330
2
100
AcDbEntity
  8
GAIKEI
  6
Continuous
 62
     1
100
AcDbLine
 10
13.85301014892195
 20
37.11920376569708
 30
0.0
 11
13.85301014892195
 21
2.039140379729133
 31
0.0
  0
LINE
  5
173
330
2
100
AcDbEntity
  8
GAIKEI
  6
Continuous
 62
     1
100
AcDbLine
 10
-45.92253142716788
 20
37.11920376569708
 30
0.0
 11
-45.92253142716788
 21
2.039140379729133
 31
0.0
  0
LINE
  5
174
330
2
100
AcDbEntity
  8
GAIKEI
  6
Continuous
 62
     1
100
AcDbLine
 10
-45.72479232724697
 20
1.841401279808223
 30
0.0
 11
13.65527104900098
 21
1.841401279808223
 31
0.0
  0
LINE
  5
175
330
2
100
AcDbEntity
  8
GAIKEI
  6
Continuous
 62
     1
100
AcDbLine
 10
-46.14936047707715
 20
37.34603281560635
 30
0.0
 11
-45.92253142716788
 21
37.11920376569708
 31
0.0
  0
LINE
  5
176
330
2
100
AcDbEntity
  8
GAIKEI
  6
Continuous
 62
     1
100
AcDbLine
 10
-45.72479232724697
 20
37.31694286561799
 30
0.0
 11
-45.95162137715624
 21
37.54377191552726
 31
0.0
  0
LINE
  5
177
330
2
100
AcDbEntity
  8
GAIKEI
  6
Continuous
 62
     1
100
AcDbLine
 10
13.65527104900098
 20
37.31694286561799
 30
0.0
 11
13.88210009891031
 21
37.54377191552726
 31
0.0
  0
LINE
  5
178
330
2
100
AcDbEntity
  8
GAIKEI
  6
Continuous
 62
     1
100
AcDbLine
 10
14.07983919883122
 20
37.34603281560635
 30
0.0
 11
13.85301014892195
 21
37.11920376569708
 31
0.0
  0
LINE
  5
179
330
2
100
AcDbEntity
  8
GAIKEI
  6
Continuous
 62
     1
100
AcDbLine
 10
-45.95162137715624
 20
1.614572229898953
 30
0.0
 11
-45.72479232724697
 21
1.841401279808223
 31
0.0
  0
LINE
  5
17A
330
2
100
AcDbEntity
  8
GAIKEI
  6
Continuous
 62
     1
100
AcDbLine
 10
-45.92253142716788
 20
2.039140379729133
 30
0.0
 11
-46.14936047707715
 21
1.812311329819863
 31
0.0
  0
LINE
  5
17B
330
2
100
AcDbEntity
  8
GAIKEI
  6
Continuous
 62
     1
100
AcDbLine
 10
13.85301014892195
 20
2.039140379729133
 30
0.0
 11
14.07983919883122
 21
1.812311329819863
 31
0.0
  0
LINE
  5
17C
330
2
100
AcDbEntity
  8
GAIKEI
  6
Continuous
 62
     1
100
AcDbLine
 10
13.88210009891031
 20
1.614572229898953
 30
0.0
 11
13.65527104900098
 21
1.841401279808223
 31
0.0
  0
LINE
  5
17D
330
2
100
AcDbEntity
  8
GAIKEI
  6
Continuous
 62
     1
100
AcDbLine
 10
-45.95162137715624
 20
37.54377191552726
 30
0.0
 11
13.88210009891031
 21
37.54377191552726
 31
0.0
  0
LINE
  5
17E
330
2
100
AcDbEntity
  8
GAIKEI
  6
Continuous
 62
     1
100
AcDbLine
 10
-46.14936047707715
 20
1.812311329819863
 30
0.0
 11
-46.14936047707715
 21
37.34603281560635
 31
0.0
  0
LINE
  5
17F
330
2
100
AcDbEntity
  8
GAIKEI
  6
Continuous
 62
     1
100
AcDbLine
 10
14.07983919883122
 20
1.812311329819863
 30
0.0
 11
14.07983919883122
 21
37.34603281560635
 31
0.0
  0
LINE
  5
180
330
2
100
AcDbEntity
  8
GAIKEI
  6
Continuous
 62
     1
100
AcDbLine
 10
13.88210009891031
 20
1.614572229898953
 30
0.0
 11
-45.95162137715624
 21
1.614572229898953
 31
0.0
  0
LINE
  5
181
330
2
100
AcDbEntity
  8
GAIKEI
  6
Continuous
 62
     1
100
AcDbLine
 10
-44.24481342783894
 20
35.74960086624492
 30
0.0
 11
12.17529214959302
 21
35.74960086624492
 31
0.0
  0
LINE
  5
182
330
2
100
AcDbEntity
  8
GAIKEI
  6
Continuous
 62
     1
100
AcDbLine
 10
-44.31768942780979
 20
3.481619279152141
 30
0.0
 11
-44.31768942780979
 21
35.67672486627407
 31
0.0
  0
LINE
  5
183
330
2
100
AcDbEntity
  8
GAIKEI
  6
Continuous
 62
     1
100
AcDbLine
 10
12.24816814956386
 20
3.481619279152141
 30
0.0
 11
12.24816814956386
 21
35.67672486627407
 31
0.0
  0
LINE
  5
184
330
2
100
AcDbEntity
  8
GAIKEI
  6
Continuous
 62
     1
100
AcDbLine
 10
12.17529214959302
 20
3.408743279181294
 30
0.0
 11
-44.24481342783894
 21
3.408743279181294
 31
0.0
  0
LINE
  5
185
330
2
100
AcDbEntity
  8
GAIKEI
  6
Continuous
 62
     1
100
AcDbLine
 10
-44.29685447781809
 20
35.72876591625334
 30
0.0
 11
-43.7256358780466
 21
35.15754731648178
 31
0.0
  0
LINE
  5
186
330
2
100
AcDbEntity
  8
GAIKEI
  6
Continuous
 62
     1
100
AcDbLine
 10
12.22733319957217
 20
35.72876591625334
 30
0.0
 11
11.65611459980067
 21
35.15754731648178
 31
0.0
  0
LINE
  5
187
330
2
100
AcDbEntity
  8
GAIKEI
  6
Continuous
 62
     1
100
AcDbLine
 10
11.55316384984189
 20
35.199436116465
 30
0.0
 11
-43.62268512808782
 21
35.199436116465
 31
0.0
  0
LINE
  5
188
330
2
100
AcDbEntity
  8
GAIKEI
  6
Continuous
 62
     1
100
AcDbLine
 10
-43.7256358780466
 20
4.00079682894443
 30
0.0
 11
-44.29685447781809
 21
3.429578229172989
 31
0.0
  0
LINE
  5
189
330
2
100
AcDbEntity
  8
GAIKEI
  6
Continuous
 62
     1
100
AcDbLine
 10
-43.76752467802987
 20
35.05459656652295
 30
0.0
 11
-43.76752467802987
 21
4.103747578903266
 31
0.0
  0
LINE
  5
18A
330
2
100
AcDbEntity
  8
GAIKEI
  6
Continuous
 62
     1
100
AcDbLine
 10
11.65611459980067
 20
4.00079682894443
 30
0.0
 11
12.22733319957217
 21
3.429578229172989
 31
0.0
  0
LINE
  5
18B
330
2
100
AcDbEntity
  8
GAIKEI
  6
Continuous
 62
     1
100
AcDbLine
 10
11.69800339978394
 20
35.05459656652295
 30
0.0
 11
11.69800339978394
 21
4.103747578903266
 31
0.0
  0
LINE
  5
18C
330
2
100
AcDbEntity
  8
GAIKEI
  6
Continuous
 62
     1
100
AcDbLine
 10
-43.62268512808782
 20
3.958908028961218
 30
0.0
 11
11.55316384984189
 21
3.958908028961218
 31
0.0
  0
LINE
  5
18D
330
2
100
AcDbEntity
  8
GAIKEI
  6
Continuous
 62
     1
100
AcDbLine
 10
-43.60800602809365
 20
35.1391720664891
 30
0.0
 11
11.53848474984772
 21
35.1391720664891
 31
0.0
  0
LINE
  5
18E
330
2
100
AcDbEntity
  8
GAIKEI
  6
Continuous
 62
     1
100
AcDbLine
 10
11.63773934980804
 20
35.03991746652889
 30
0.0
 11
11.63773934980804
 21
4.118426678897435
 31
0.0
  0
LINE
  5
18F
330
2
100
AcDbEntity
  8
GAIKEI
  6
Continuous
 62
     1
100
AcDbLine
 10
-43.70726062805397
 20
35.03991746652889
 30
0.0
 11
-43.70726062805397
 21
4.118426678897435
 31
0.0
  0
LINE
  5
190
330
2
100
AcDbEntity
  8
GAIKEI
  6
Continuous
 62
     1
100
AcDbLine
 10
-43.60800602809365
 20
4.019172078937117
 30
0.0
 11
11.53848474984772
 21
4.019172078937117
 31
0.0
  0
LINE
  5
191
330
2
100
AcDbEntity
  8
GAIKEI
  6
Continuous
 62
     1
100
AcDbLine
 10
-45.94963457715701
 20
37.54377191552726
 30
0.0
 11
-46.08503472710288
 21
37.67917206547315
 31
0.0
  0
LINE
  5
192
330
2
100
AcDbEntity
  8
GAIKEI
  6
Continuous
 62
     1
100
AcDbLine
 10
-46.28476062702299
 20
37.47944616555299
 30
0.0
 11
-46.14936047707715
 21
37.34404601560732
 31
0.0
  0
LINE
  5
193
330
2
100
AcDbEntity
  8
GAIKEI
  6
Continuous
 62
     1
100
AcDbLine
 10
14.215239348777
 20
37.47944616555299
 30
0.0
 11
14.07983919883119
 21
37.34404601560721
 31
0.0
  0
LINE
  5
194
330
2
100
AcDbEntity
  8
GAIKEI
  6
Continuous
 62
     1
100
AcDbLine
 10
13.88011329891105
 20
37.54377191552726
 30
0.0
 11
14.01551344885695
 21
37.67917206547315
 31
0.0
  0
LINE
  5
195
330
2
100
AcDbEntity
  8
GAIKEI
  6
Continuous
 62
     1
100
AcDbLine
 10
-46.14936047707715
 20
1.814298129819007
 30
0.0
 11
-46.28476062702299
 21
1.678897979873227
 31
0.0
  0
LINE
  5
196
330
2
100
AcDbEntity
  8
GAIKEI
  6
Continuous
 62
     1
100
AcDbLine
 10
-46.08503472710288
 20
1.479172079953173
 30
0.0
 11
-45.94963457715704
 21
1.614572229898953
 31
0.0
  0
LINE
  5
197
330
2
100
AcDbEntity
  8
GAIKEI
  6
Continuous
 62
     1
100
AcDbLine
 10
14.01551344885695
 20
1.479172079953173
 30
0.0
 11
13.88011329891105
 21
1.614572229898953
 31
0.0
  0
LINE
  5
198
330
2
100
AcDbEntity
  8
GAIKEI
  6
Continuous
 62
     1
100
AcDbLine
 10
14.07983919883119
 20
1.814298129819121
 30
0.0
 11
14.215239348777
 21
1.678897979873227
 31
0.0
  0
LINE
  5
199
330
2
100
AcDbEntity
  8
GAIKEI
  6
Continuous
100
AcDbLine
 10
-46.08503472710288
 20
37.67917206547315
 30
0.0
 11
14.01551344885695
 21
37.67917206547315
 31
0.0
  0
LINE
  5
19A
330
2
100
AcDbEntity
  8
GAIKEI
  6
Continuous
100
AcDbLine
 10
14.215239348777
 20
37.47944616555299
 30
0.0
 11
14.215239348777
 21
1.678897979873227
 31
0.0
  0
LINE
  5
19B
330
2
100
AcDbEntity
  8
GAIKEI
  6
Continuous
100
AcDbLine
 10
-46.28476062702299
 20
37.47944616555299
 30
0.0
 11
-46.28476062702299
 21
1.678897979873227
 31
0.0
  0
LINE
  5
19C
330
2
100
AcDbEntity
  8
GAIKEI
  6
Continuous
100
AcDbLine
 10
-46.08503472710288
 20
1.479172079953173
 30
0.0
 11
14.01551344885695
 21
1.479172079953173
 31
0.0
  0
ELLIPSE
  5
19D
330
2
100
AcDbEntity
  8
GAIKEI
  6
Continuous
 62
     1
100
AcDbEllipse
 10
-44.25091672783651
 20
35.68282816627152
 30
0.0
 11
-0.159535404709199
 21
0.1595354047089534
 31
0.0
210
0.0
220
0.0
230
1.0
 40
0.9972649999999998
 41
5.499156671651721
 42
7.067213942705842
  0
ELLIPSE
  5
19E
330
2
100
AcDbEntity
  8
GAIKEI
  6
Continuous
 62
     1
100
AcDbEllipse
 10
-44.25091672783651
 20
3.475515979154465
 30
0.0
 11
-0.1595354047091879
 21
-0.1595354047089651
 31
0.0
210
0.0
220
0.0
230
1.0
 40
0.9972649999999999
 41
5.499156671653361
 42
7.067213942707414
  0
ELLIPSE
  5
19F
330
2
100
AcDbEntity
  8
GAIKEI
  6
Continuous
 62
     1
100
AcDbEllipse
 10
12.18139544959052
 20
3.475515979154579
 30
0.0
 11
-0.159535404709188
 21
0.1595354047089651
 31
0.0
210
0.0
220
0.0
230
1.0
 40
0.9972649999999998
 41
2.357564018062
 42
3.925621289115982
  0
ELLIPSE
  5
1A0
330
2
100
AcDbEntity
  8
GAIKEI
  6
Continuous
 62
     1
100
AcDbEllipse
 10
12.18139544959052
 20
35.68282816627152
 30
0.0
 11
-0.1595354047091992
 21
-0.1595354047089534
 31
0.0
210
0.0
220
0.0
230
1.0
 40
0.9972649999999998
 41
2.357564018063572
 42
3.925621289117657
  0
ELLIPSE
  5
1A1
330
2
100
AcDbEntity
  8
GAIKEI
  6
Continuous
 62
     1
100
AcDbEllipse
 10
-43.36985612818892
 20
2.004267579742986
 30
0.0
 11
-0.0178124651901289
 21
0.0178124651901336
 31
0.0
210
0.0
220
0.0
230
1.0
 40
0.9924329999999997
 41
2.359992588465599
 42
3.923192718713108
  0
ELLIPSE
  5
1A2
330
2
100
AcDbEntity
  8
GAIKEI
  6
Continuous
 62
     1
100
AcDbEllipse
 10
-43.36985612818892
 20
2.304076579623142
 30
0.0
 11
-0.0178124651901247
 21
-0.017812465190138
 31
0.0
210
0.0
220
0.0
230
1.0
 40
0.9924329999999999
 41
2.359992588465041
 42
3.923192718713587
  0
ELLIPSE
  5
1A3
330
2
100
AcDbEntity
  8
GAIKEI
  6
Continuous
 62
     1
100
AcDbEllipse
 10
-43.66966512806903
 20
2.304076579623028
 30
0.0
 11
-0.0178124651901339
 21
0.0178124651901291
 31
0.0
210
0.0
220
0.0
230
1.0
 40
0.9924329999999999
 41
5.501585242053079
 42
7.064785372305734
  0
ELLIPSE
  5
1A4
330
2
100
AcDbEntity
  8
GAIKEI
  6
Continuous
 62
     1
100
AcDbEllipse
 10
-43.66966512806903
 20
2.004267579742986
 30
0.0
 11
-0.0178124651901381
 21
-0.0178124651901247
 31
0.0
210
0.0
220
0.0
230
1.0
 40
0.9924329999999999
 41
5.501585242054793
 42
7.064785372306292
  0
ELLIPSE
  5
1A5
330
2
100
AcDbEntity
  8
GAIKEI
  6
Continuous
 62
     1
100
AcDbEllipse
 10
13.29375889914558
 20
36.75769161584174
 30
0.0
 11
-0.5021965241687404
 21
-0.5021965241687347
 31
0.0
210
0.0
220
0.0
230
1.0
 40
0.49281
 41
2.730628648546677
 42
3.552556658632908
  0
ELLIPSE
  5
1A6
330
2
100
AcDbEntity
  8
GAIKEI
  6
Continuous
 62
     1
100
AcDbEllipse
 10
-45.36328017739157
 20
36.75769161584174
 30
0.0
 11
-0.5021965241687404
 21
0.5021965241687347
 31
0.0
210
0.0
220
0.0
230
1.0
 40
0.49281
 41
5.87222130213647
 42
6.694149312222702
  0
ELLIPSE
  5
1A7
330
2
100
AcDbEntity
  8
GAIKEI
  6
Continuous
 62
     1
100
AcDbEllipse
 10
13.29375889914558
 20
2.400652529584476
 30
0.0
 11
-0.5021965241687355
 21
0.502196524168813
 31
0.0
210
0.0
220
0.0
230
1.0
 40
0.49281
 41
2.730628648546692
 42
3.552556658632933
  0
ELLIPSE
  5
1A8
330
2
100
AcDbEntity
  8
GAIKEI
  6
Continuous
 62
     1
100
AcDbEllipse
 10
-45.36328017739151
 20
2.400652529584476
 30
0.0
 11
-0.5021965241687356
 21
-0.502196524168813
 31
0.0
210
0.0
220
0.0
230
1.0
 40
0.49281
 41
5.872221302136444
 42
6.694149312222707
  0
ELLIPSE
  5
1A9
330
2
100
AcDbEntity
  8
GAIKEI
  6
Continuous
 62
     1
100
AcDbEllipse
 10
12.17540434959289
 20
35.6748158662748
 30
0.0
 11
-0.0740370952919559
 21
0.0126634681883976
 31
0.0
210
0.0
220
0.0
230
1.0
 40
0.9955149999999999
 41
4.117568889116213
 42
4.882540434961859
  0
ELLIPSE
  5
1AA
330
2
100
AcDbEntity
  8
GAIKEI
  6
Continuous
 62
     1
100
AcDbEllipse
 10
-44.24492562783888
 20
35.6748158662748
 30
0.0
 11
-0.0740370952919559
 21
-0.0126634681883976
 31
0.0
210
0.0
220
0.0
230
1.0
 40
0.9955150000000001
 41
4.54223752580752
 42
5.307209071653165
  0
ELLIPSE
  5
1AB
330
2
100
AcDbEntity
  8
GAIKEI
  6
Continuous
 62
     1
100
AcDbEllipse
 10
-44.24290442783967
 20
3.481507079152152
 30
0.0
 11
-0.0126634681884195
 21
0.0740370952919524
 31
0.0
210
0.0
220
0.0
230
1.0
 40
0.9955149999999999
 41
1.400644872217396
 42
2.165616418062327
  0
ELLIPSE
  5
1AC
330
2
100
AcDbEntity
  8
GAIKEI
  6
Continuous
 62
     1
100
AcDbEllipse
 10
12.17338314959375
 20
3.481507079152152
 30
0.0
 11
-0.0126634681884195
 21
-0.0740370952919523
 31
0.0
210
0.0
220
0.0
230
1.0
 40
0.9955149999999999
 41
0.975976235527481
 42
1.740947781372396
  0
ELLIPSE
  5
1AD
330
2
100
AcDbEntity
  8
GAIKEI
  6
Continuous
 62
     1
100
AcDbEllipse
 10
-44.24290442783967
 20
35.67683706627395
 30
0.0
 11
-0.012663468188404
 21
-0.0740370952919547
 31
0.0
210
0.0
220
0.0
230
1.0
 40
0.9955149999999997
 41
4.117568889119865
 42
4.882540434962009
  0
ELLIPSE
  5
1AE
330
2
100
AcDbEntity
  8
GAIKEI
  6
Continuous
 62
     1
100
AcDbEllipse
 10
12.17338314959375
 20
35.67683706627406
 30
0.0
 11
-0.0126634681884039
 21
0.0740370952919547
 31
0.0
210
0.0
220
0.0
230
1.0
 40
0.9955149999999999
 41
4.542237525807408
 42
5.30720907164956
  0
ELLIPSE
  5
1AF
330
2
100
AcDbEntity
  8
GAIKEI
  6
Continuous
 62
     1
100
AcDbEllipse
 10
12.17540434959295
 20
3.4835282791513
 30
0.0
 11
-0.074037095291956
 21
-0.0126634681883971
 31
0.0
210
0.0
220
0.0
230
1.0
 40
0.9955149999999999
 41
1.400644872217725
 42
2.165616418060674
  0
ELLIPSE
  5
1B0
330
2
100
AcDbEntity
  8
GAIKEI
  6
Continuous
 62
     1
100
AcDbEllipse
 10
-44.24492562783888
 20
3.4835282791513
 30
0.0
 11
-0.0740370952919559
 21
0.0126634681883972
 31
0.0
210
0.0
220
0.0
230
1.0
 40
0.9955149999999999
 41
0.9759762355291181
 42
1.740947781372067
  0
ELLIPSE
  5
1B1
330
2
100
AcDbEntity
  8
GAIKEI
  6
Continuous
 62
     1
100
AcDbEllipse
 10
-43.61892032808936
 20
35.04678936652601
 30
0.0
 11
-0.0866320186582728
 21
0.1272290693382462
 31
0.0
210
0.0
220
0.0
230
1.0
 40
0.9735809999999998
 41
5.69777769105948
 42
6.456692423303279
  0
ELLIPSE
  5
1B2
330
2
100
AcDbEntity
  8
GAIKEI
  6
Continuous
 62
     1
100
AcDbEllipse
 10
11.54939904984331
 20
35.04678936652601
 30
0.0
 11
-0.0866320186582728
 21
-0.1272290693382461
 31
0.0
210
0.0
220
0.0
230
1.0
 40
0.9735809999999998
 41
2.9680855374661
 42
3.7270002697099
  0
ELLIPSE
  5
1B3
330
2
100
AcDbEntity
  8
GAIKEI
  6
Continuous
 62
     1
100
AcDbEllipse
 10
-43.61487792809095
 20
4.107512378901674
 30
0.0
 11
-0.1272290693381955
 21
-0.0866320186583462
 31
0.0
210
0.0
220
0.0
230
1.0
 40
0.9735809999999997
 41
5.697777691058886
 42
6.456692423302397
  0
ELLIPSE
  5
1B4
330
2
100
AcDbEntity
  8
GAIKEI
  6
Continuous
 62
     1
100
AcDbEllipse
 10
-43.61487792809095
 20
35.05083176652443
 30
0.0
 11
-0.1272290693382015
 21
0.0866320186583368
 31
0.0
210
0.0
220
0.0
230
1.0
 40
0.9735809999999998
 41
6.109678191058712
 42
6.868592923300215
  0
ELLIPSE
  5
1B5
330
2
100
AcDbEntity
  8
GAIKEI
  6
Continuous
 62
     1
100
AcDbEllipse
 10
11.54535664984496
 20
35.05083176652443
 30
0.0
 11
-0.1272290693382016
 21
-0.0866320186583367
 31
0.0
210
0.0
220
0.0
230
0.9999999999999998
 40
0.9735809999999998
 41
2.556185037469163
 42
3.315099769710879
  0
ELLIPSE
  5
1B6
330
2
100
AcDbEntity
  8
GAIKEI
  6
Continuous
 62
     1
100
AcDbEllipse
 10
11.54535664984496
 20
4.107512378901674
 30
0.0
 11
-0.1272290693381955
 21
0.0866320186583462
 31
0.0
210
0.0
220
0.0
230
1.0
 40
0.973581
 41
2.968085537466982
 42
3.727000269710492
  0
ELLIPSE
  5
1B7
330
2
100
AcDbEntity
  8
GAIKEI
  6
Continuous
 62
     1
100
AcDbEllipse
 10
11.54939904984331
 20
4.111554778900085
 30
0.0
 11
-0.0866320186582643
 21
0.1272290693382531
 31
0.0
210
0.0
220
0.0
230
1.0
 40
0.9735809999999998
 41
2.556185037470086
 42
3.315099769710523
  0
ELLIPSE
  5
1B8
330
2
100
AcDbEntity
  8
GAIKEI
  6
Continuous
 62
     1
100
AcDbEllipse
 10
-43.6189203280893
 20
4.111554778900085
 30
0.0
 11
-0.0866320186582643
 21
-0.127229069338253
 31
0.0
210
0.0
220
0.0
230
1.0
 40
0.973581
 41
6.10967819105908
 42
6.868592923299293
  0
ELLIPSE
  5
1B9
330
2
100
AcDbEntity
  8
GAIKEI
  6
Continuous
 62
     1
100
AcDbEllipse
 10
-43.60650962809427
 20
35.03842106652939
 30
0.0
 11
-0.0717687987905402
 21
0.0717687987905878
 31
0.0
210
0.0
220
0.0
230
1.0
 40
0.9852570000000001
 41
5.505213485255321
 42
7.061157129105444
  0
ELLIPSE
  5
1BA
330
2
100
AcDbEntity
  8
GAIKEI
  6
Continuous
 62
     1
100
AcDbEllipse
 10
11.53698834984828
 20
35.03842106652939
 30
0.0
 11
-0.0717687987905403
 21
-0.0717687987905877
 31
0.0
210
0.0
220
0.0
230
1.0
 40
0.9852569999999998
 41
2.363620831663935
 42
3.919564475514135
  0
ELLIPSE
  5
1BB
330
2
100
AcDbEntity
  8
GAIKEI
  6
Continuous
 62
     1
100
AcDbEllipse
 10
11.53698834984828
 20
4.119923078896817
 30
0.0
 11
-0.0717687987905345
 21
0.071768798790594
 31
0.0
210
0.0
220
0.0
230
1.0
 40
0.985257
 41
2.363620831665123
 42
3.919564475515255
  0
ELLIPSE
  5
1BC
330
2
100
AcDbEntity
  8
GAIKEI
  6
Continuous
 62
     1
100
AcDbEllipse
 10
-43.60650962809427
 20
4.119923078896817
 30
0.0
 11
-0.0717687987905345
 21
-0.071768798790594
 31
0.0
210
0.0
220
0.0
230
1.0
 40
0.985257
 41
5.505213485254125
 42
7.061157129104256
  0
ELLIPSE
  5
1BD
330
2
100
AcDbEntity
  8
GAIKEI
  6
Continuous
100
AcDbEllipse
 10
-46.08448617710308
 20
37.47889761555314
 30
0.0
 11
-0.1418092486302778
 21
0.1418092486303013
 31
0.0
210
0.0
220
0.0
230
1.0
 40
0.9972649999999999
 41
5.499156671652713
 42
7.067213942706739
  0
ELLIPSE
  5
1BE
330
2
100
AcDbEntity
  8
GAIKEI
  6
Continuous
100
AcDbEllipse
 10
14.0149648988571
 20
37.47889761555314
 30
0.0
 11
-0.1418092486302781
 21
-0.1418092486303011
 31
0.0
210
0.0
220
0.0
230
1.0
 40
0.9972649999999998
 41
2.357564018062679
 42
3.925621289116665
  0
ELLIPSE
  5
1BF
330
2
100
AcDbEntity
  8
GAIKEI
  6
Continuous
100
AcDbEllipse
 10
-46.08448617710308
 20
1.679446529872961
 30
0.0
 11
-0.1418092486302894
 21
-0.1418092486302897
 31
0.0
210
0.0
220
0.0
230
1.0
 40
0.9972649999999999
 41
5.499156671652512
 42
7.067213942706579
  0
ELLIPSE
  5
1C0
330
2
100
AcDbEntity
  8
GAIKEI
  6
Continuous
100
AcDbEllipse
 10
14.0149648988571
 20
1.679446529872961
 30
0.0
 11
-0.1418092486302895
 21
0.1418092486302897
 31
0.0
210
0.0
220
0.0
230
1.0
 40
0.9972649999999998
 41
2.35756401806288
 42
3.925621289116826
  0
TEXT
  5
1C1
330
2
100
AcDbEntity
  8
MOJI1
100
AcDbText
 10
-20.85983457021416
 20
-42.68609552521946
 30
0.0
 40
3.0
  1
ＤＶＩ－Ｄ入力、ＰＣ入力、ＬＡＮ、ＲＳ２３２Ｃ、音声入力
 41
0.8
100
AcDbText
  0
TEXT
  5
1C2
330
2
100
AcDbEntity
  8
MOJI1
100
AcDbText
 10
-20.85983457021416
 20
-37.68609552521946
 30
0.0
 40
3.0
  1
ビデオ入力、ＲＧＢ／コンポーネントビデオ入力、ＨＤＭＩ入力
 41
0.7800000000000001
100
AcDbText
  0
TEXT
  5
1C3
330
2
100
AcDbEntity
  8
MOJI1
100
AcDbText
 10
-20.85983457021416
 20
-17.68609552521946
 30
0.0
 40
3.0
  1
４６０Ｗ
100
AcDbText
  0
TEXT
  5
1C4
330
2
100
AcDbEntity
  8
MOJI1
100
AcDbText
 10
-20.85983457021416
 20
-22.68609552521946
 30
0.0
 40
3.0
  1
５０型（１２６８ｃｍ）１６：９
100
AcDbText
  0
TEXT
  5
1C5
330
2
100
AcDbEntity
  8
MOJI1
100
AcDbText
 10
-20.85983457021416
 20
-32.68609552521946
 30
0.0
 40
3.0
  1
５００００００：１
100
AcDbText
  0
LINE
  5
1C6
330
2
100
AcDbEntity
  8
WAKU
 62
     1
100
AcDbLine
 10
-62.35983457021416
 20
-18.68609552521945
 30
0.0
 11
62.64016542978561
 21
-18.68609552521945
 31
0.0
  0
LINE
  5
1C8
330
2
100
AcDbEntity
  8
WAKU
 62
     1
100
AcDbLine
 10
-62.35983457021416
 20
-28.68609552521946
 30
0.0
 11
62.64016542978561
 21
-28.68609552521946
 31
0.0
  0
LINE
  5
1C9
330
2
100
AcDbEntity
  8
WAKU
 62
     4
100
AcDbLine
 10
-62.35983457021416
 20
-8.686095525219457
 30
0.0
 11
62.64016542978561
 21
-8.686095525219457
 31
0.0
  0
LINE
  5
1CA
330
2
100
AcDbEntity
  8
WAKU
 62
     1
100
AcDbLine
 10
-62.35983457021416
 20
-13.68609552521945
 30
0.0
 11
62.64016542978561
 21
-13.68609552521945
 31
0.0
  0
LINE
  5
1CB
330
2
100
AcDbEntity
  8
WAKU
 62
     1
100
AcDbLine
 10
-62.35983457021416
 20
-23.68609552521946
 30
0.0
 11
62.64016542978561
 21
-23.68609552521946
 31
0.0
  0
LINE
  5
1CC
330
2
100
AcDbEntity
  8
WAKU
 62
     1
100
AcDbLine
 10
-62.35983457021416
 20
-33.68609552521946
 30
0.0
 11
62.64016542978561
 21
-33.68609552521946
 31
0.0
  0
LINE
  5
1CD
330
2
100
AcDbEntity
  8
WAKU
 62
     4
100
AcDbLine
 10
62.64016542978561
 20
-48.68609552521945
 30
0.0
 11
-62.35983457021416
 21
-48.68609552521945
 31
0.0
  0
TEXT
  5
1CE
330
2
100
AcDbEntity
  8
MOJI1
100
AcDbText
 10
-20.85983457021416
 20
-27.68609552521946
 30
0.0
 40
3.0
  1
１９２０×１０８０画素
100
AcDbText
  0
TEXT
  5
1CF
330
2
100
AcDbEntity
  8
MOJI1
100
AcDbText
 10
-20.85983457021416
 20
-12.68609552521946
 30
0.0
 40
3.0
  1
ＡＣ１００Ｖ　５０Ｈｚ／６０Ｈｚ
100
AcDbText
  0
LINE
  5
1D0
330
2
100
AcDbEntity
  8
WAKU
 62
     4
100
AcDbLine
 10
-22.35983457021439
 20
-8.686095525219457
 30
0.0
 11
-22.35983457021439
 21
-48.68609552521945
 31
0.0
  0
LINE
  5
1D1
330
2
100
AcDbEntity
  8
WAKU
 62
     4
100
AcDbLine
 10
-62.35983457021439
 20
-8.686095525219457
 30
0.0
 11
-62.35983457021416
 21
-48.68609552521945
 31
0.0
  0
TEXT
  5
1D2
330
2
100
AcDbEntity
  8
MOJI1
100
AcDbText
 10
-59.85983457021416
 20
-22.68609552521946
 30
0.0
 40
3.0
  1
画面サイズ
100
AcDbText
  0
TEXT
  5
1D3
330
2
100
AcDbEntity
  8
MOJI1
100
AcDbText
 10
-59.85983457021416
 20
-32.68609552521946
 30
0.0
 40
3.0
  1
コントラスト
100
AcDbText
  0
TEXT
  5
1D4
330
2
100
AcDbEntity
  8
MOJI1
100
AcDbText
 10
-59.85983457021416
 20
-17.68609552521946
 30
0.0
 40
3.0
  1
消費電力
100
AcDbText
  0
TEXT
  5
1D5
330
2
100
AcDbEntity
  8
MOJI1
100
AcDbText
 10
-59.85983457021416
 20
-12.68609552521946
 30
0.0
 40
3.0
  1
電  源
100
AcDbText
  0
TEXT
  5
1D6
330
2
100
AcDbEntity
  8
MOJI1
100
AcDbText
 10
-59.85983457021416
 20
-27.68609552521946
 30
0.0
 40
3.0
  1
画素数
100
AcDbText
  0
LINE
  5
1D7
330
2
100
AcDbEntity
  8
WAKU
 62
     4
100
AcDbLine
 10
62.64016542978561
 20
-8.686095525219457
 30
0.0
 11
62.64016542978561
 21
-48.68609552521945
 31
0.0
  0
LINE
  5
1D8
330
2
100
AcDbEntity
  8
WAKU
 62
     1
100
AcDbLine
 10
-62.35983457021416
 20
-38.68609552521946
 30
0.0
 11
62.64016542978561
 21
-38.68609552521946
 31
0.0
  0
TEXT
  5
1D9
330
2
100
AcDbEntity
  8
MOJI1
100
AcDbText
 10
-59.85983457021416
 20
-37.68609552521946
 30
0.0
 40
3.0
  1
入出力端子
100
AcDbText
  0
LINE
  5
1DA
330
2
100
AcDbEntity
  8
WAKU
 62
     1
100
AcDbLine
 10
-62.35983457021416
 20
-43.68609552521945
 30
0.0
 11
62.64016542978561
 21
-43.68609552521945
 31
0.0
  0
TEXT
  5
1DB
330
2
100
AcDbEntity
  8
MOJI1
100
AcDbText
 10
-20.85983457021416
 20
-47.68609552521946
 30
0.0
 40
3.0
  1
約３３．０ ｋｇ
100
AcDbText
  0
TEXT
  5
1DC
330
2
100
AcDbEntity
  8
MOJI1
100
AcDbText
 10
-59.85983457021416
 20
-47.68609552521946
 30
0.0
 40
3.0
  1
質　量
100
AcDbText
  0
ENDSEC
  0
SECTION
  2
OBJECTS
  0
DICTIONARY
  5
7
330
0
100
AcDbDictionary
281
     1
  3
ACAD_COLOR
350
2C
  3
ACAD_GROUP
350
28
  3
ACAD_LAYOUT
350
B
  3
ACAD_MATERIAL
350
2B
  3
ACAD_MLINESTYLE
350
29
  3
ACAD_PLOTSETTINGS
350
2A
  3
ACAD_PLOTSTYLENAME
350
6
  3
ACDBHEADERROUNDTRIPXREC
350
21B
  3
AcDbVariableDictionary
350
216
  0
DICTIONARY
  5
11
330
10
100
AcDbDictionary
280
     1
281
     1
  3
ACAD_LAYERSTATES
360
12
  0
DICTIONARY
  5
2C
102
{ACAD_REACTORS
330
7
102
}
330
7
100
AcDbDictionary
281
     1
  0
DICTIONARY
  5
28
102
{ACAD_REACTORS
330
7
102
}
330
7
100
AcDbDictionary
281
     1
  0
DICTIONARY
  5
B
102
{ACAD_REACTORS
330
7
102
}
330
7
100
AcDbDictionary
281
     1
  3
Model
350
A
  3
レイアウト1
350
F
  0
DICTIONARY
  5
2B
102
{ACAD_REACTORS
330
7
102
}
330
7
100
AcDbDictionary
281
     1
  0
DICTIONARY
  5
29
102
{ACAD_REACTORS
330
7
102
}
330
7
100
AcDbDictionary
281
     1
  3
Standard
350
2E
  0
DICTIONARY
  5
2A
102
{ACAD_REACTORS
330
7
102
}
330
7
100
AcDbDictionary
281
     1
  0
ACDBDICTIONARYWDFLT
  5
6
102
{ACAD_REACTORS
330
7
102
}
330
7
100
AcDbDictionary
281
     1
  3
Normal
350
5
100
AcDbDictionaryWithDefault
340
5
  0
DICTIONARY
  5
21B
102
{ACAD_REACTORS
330
7
102
}
330
7
100
AcDbDictionary
281
     1
  3
COLORDICT
350
21D
  3
MATERIALDICT
350
21C
  0
DICTIONARY
  5
216
102
{ACAD_REACTORS
330
7
102
}
330
7
100
AcDbDictionary
281
     1
  3
DIMASSOC
350
218
  3
HIDETEXT
350
217
  3
PROJECTNAME
350
219
  0
DICTIONARY
  5
12
102
{ACAD_REACTORS
330
11
102
}
330
11
100
AcDbDictionary
281
     1
  0
LAYOUT
  5
A
102
{ACAD_XDICTIONARY
360
21E
102
}
102
{ACAD_REACTORS
330
B
102
}
330
B
100
AcDbPlotSettings
  1

  2
10F06M_RICOH_SP-8100
  4
A4
  6

 40
5.873749732971191
 41
5.873747825622558
 42
5.873748779296875
 43
5.873748779296875
 44
209.9733276367187
 45
296.9259948730469
 46
5.419999999999999
 47
0.0
 48
0.0
 49
0.0
140
0.0
141
0.0
142
1.0
143
1.38245207335299
 70
 11956
 72
     1
 73
     0
 74
     1
  7
tmsacad.ctb
 75
     0
147
0.7233523818114045
148
0.0319065267781298
149
0.0300716685512725
100
AcDbLayout
  1
Model
 70
     1
 71
     0
 10
0.0
 20
0.0
 11
12.0
 21
9.0
 12
0.0
 22
0.0
 32
0.0
 14
0.0
 24
0.0
 34
0.0
 15
0.0
 25
0.0
 35
0.0
146
0.0
 13
0.0
 23
0.0
 33
0.0
 16
1.0
 26
0.0
 36
0.0
 17
0.0
 27
1.0
 37
0.0
 76
     0
330
2
  0
LAYOUT
  5
F
102
{ACAD_XDICTIONARY
360
220
102
}
102
{ACAD_REACTORS
330
B
102
}
330
B
100
AcDbPlotSettings
  1

  2
None
  4

  6

 40
0.0
 41
0.0
 42
0.0
 43
0.0
 44
0.0
 45
0.0
 46
0.0
 47
0.0
 48
0.0
 49
0.0
140
0.0
141
0.0
142
1.0
143
1.0
 70
   688
 72
     0
 73
     0
 74
     5
  7
tmsacad.ctb
 75
    16
147
1.0
148
0.0
149
0.0
100
AcDbLayout
  1
レイアウト1
 70
     1
 71
     1
 10
0.0
 20
0.0
 11
12.0
 21
9.0
 12
0.0
 22
0.0
 32
0.0
 14
0.0
 24
0.0
 34
0.0
 15
0.0
 25
0.0
 35
0.0
146
0.0
 13
0.0
 23
0.0
 33
0.0
 16
1.0
 26
0.0
 36
0.0
 17
0.0
 27
1.0
 37
0.0
 76
     0
330
C
  0
MLINESTYLE
  5
2E
102
{ACAD_REACTORS
330
29
102
}
330
29
100
AcDbMlineStyle
  2
STANDARD
 70
     0
  3

 62
   256
 51
90.0
 52
90.0
 71
     2
 49
0.5
 62
   256
  6
BYLAYER
 49
-0.5
 62
   256
  6
BYLAYER
  0
ACDBPLACEHOLDER
  5
5
102
{ACAD_REACTORS
330
6
102
}
330
6
  0
XRECORD
  5
21D
102
{ACAD_REACTORS
330
21B
102
}
330
21B
100
AcDbXrecord
280
     1
340
2C
  0
XRECORD
  5
21C
102
{ACAD_REACTORS
330
21B
102
}
330
21B
100
AcDbXrecord
280
     1
340
2B
  0
DICTIONARYVAR
  5
218
102
{ACAD_REACTORS
330
216
102
}
330
216
100
DictionaryVariables
280
     0
  1
1
  0
DICTIONARYVAR
  5
217
102
{ACAD_REACTORS
330
216
102
}
330
216
100
DictionaryVariables
280
     0
  1
1
  0
DICTIONARYVAR
  5
219
102
{ACAD_REACTORS
330
216
102
}
330
216
100
DictionaryVariables
280
     0
  1

  0
DICTIONARY
  5
21E
330
A
100
AcDbDictionary
280
     1
281
     1
  3
ACAD_XREC_ROUNDTRIP
360
21F
  0
DICTIONARY
  5
220
330
F
100
AcDbDictionary
280
     1
281
     1
  3
ACAD_XREC_ROUNDTRIP
360
221
  0
XRECORD
  5
21F
102
{ACAD_REACTORS
330
21E
102
}
330
21E
100
AcDbXrecord
280
     1
102
SHADEPLOT
 70
     0
102
SHADEPLOTRESLEVEL
 70
     2
102
SHADEPLOTCUSTOMDPI
 70
   300
  0
XRECORD
  5
221
102
{ACAD_REACTORS
330
220
102
}
330
220
100
AcDbXrecord
280
     1
102
SHADEPLOT
 70
     0
102
SHADEPLOTRESLEVEL
 70
     2
102
SHADEPLOTCUSTOMDPI
 70
   300
  0
ENDSEC
  0
EOF
