  0
SECTION
  2
HEADER
  9
$ACADVER
  1
AC1015
  9
$ACADMAINTVER
 70
    20
  9
$DWGCODEPAGE
  3
ANSI_932
  9
$INSBASE
 10
129.499999944041
 20
120.5008351249346
 30
0.0
  9
$EXTMIN
 10
-65.15716462530793
 20
-57.90357908781572
 30
-0.0015258207003583
  9
$EXTMAX
 10
59.87640436724348
 20
55.09835856419329
 30
0.0000000349246037
  9
$LIMMIN
 10
0.0
 20
0.0
  9
$LIMMAX
 10
420.0
 20
297.0
  9
$ORTHOMODE
 70
     0
  9
$REGENMODE
 70
     0
  9
$FILLMODE
 70
     1
  9
$QTEXTMODE
 70
     0
  9
$MIRRTEXT
 70
     0
  9
$LTSCALE
 40
1.0
  9
$ATTMODE
 70
     1
  9
$TEXTSIZE
 40
2.5
  9
$TRACEWID
 40
1.0
  9
$TEXTSTYLE
  7
Standard
  9
$CLAYER
  8
SUNPO
  9
$CELTYPE
  6
ByLayer
  9
$CECOLOR
 62
   256
  9
$CELTSCALE
 40
1.0
  9
$DISPSILH
 70
     0
  9
$DIMSCALE
 40
1.0
  9
$DIMASZ
 40
2.0
  9
$DIMEXO
 40
2.0
  9
$DIMDLI
 40
8.0
  9
$DIMRND
 40
0.0
  9
$DIMDLE
 40
0.0
  9
$DIMEXE
 40
2.0
  9
$DIMTP
 40
0.0
  9
$DIMTM
 40
0.0
  9
$DIMTXT
 40
2.5
  9
$DIMCEN
 40
0.0
  9
$DIMTSZ
 40
0.0
  9
$DIMTOL
 70
     0
  9
$DIMLIM
 70
     0
  9
$DIMTIH
 70
     0
  9
$DIMTOH
 70
     0
  9
$DIMSE1
 70
     0
  9
$DIMSE2
 70
     0
  9
$DIMTAD
 70
     3
  9
$DIMZIN
 70
     0
  9
$DIMBLK
  1

  9
$DIMASO
 70
     1
  9
$DIMSHO
 70
     1
  9
$DIMPOST
  1

  9
$DIMAPOST
  1

  9
$DIMALT
 70
     0
  9
$DIMALTD
 70
     2
  9
$DIMALTF
 40
25.4
  9
$DIMLFAC
 40
1.0
  9
$DIMTOFL
 70
     1
  9
$DIMTVP
 40
0.0
  9
$DIMTIX
 70
     0
  9
$DIMSOXD
 70
     0
  9
$DIMSAH
 70
     1
  9
$DIMBLK1
  1
OPEN30
  9
$DIMBLK2
  1
OPEN30
  9
$DIMSTYLE
  2
STANDARD
  9
$DIMCLRD
 70
     0
  9
$DIMCLRE
 70
     0
  9
$DIMCLRT
 70
     0
  9
$DIMTFAC
 40
1.0
  9
$DIMGAP
 40
0.5
  9
$DIMJUST
 70
     0
  9
$DIMSD1
 70
     0
  9
$DIMSD2
 70
     0
  9
$DIMTOLJ
 70
     1
  9
$DIMTZIN
 70
     0
  9
$DIMALTZ
 70
     0
  9
$DIMALTTZ
 70
     0
  9
$DIMUPT
 70
     0
  9
$DIMDEC
 70
     4
  9
$DIMTDEC
 70
     4
  9
$DIMALTU
 70
     2
  9
$DIMALTTD
 70
     2
  9
$DIMTXSTY
  7
Standard
  9
$DIMAUNIT
 70
     0
  9
$DIMADEC
 70
     0
  9
$DIMALTRND
 40
0.0
  9
$DIMAZIN
 70
     0
  9
$DIMDSEP
 70
    46
  9
$DIMATFIT
 70
     3
  9
$DIMFRAC
 70
     0
  9
$DIMLDRBLK
  1
OPEN30
  9
$DIMLUNIT
 70
     2
  9
$DIMLWD
 70
    -2
  9
$DIMLWE
 70
    -2
  9
$DIMTMOVE
 70
     0
  9
$LUNITS
 70
     2
  9
$LUPREC
 70
     4
  9
$SKETCHINC
 40
1.0
  9
$FILLETRAD
 40
0.0
  9
$AUNITS
 70
     0
  9
$AUPREC
 70
     0
  9
$MENU
  1
.
  9
$ELEVATION
 40
0.0
  9
$PELEVATION
 40
0.0
  9
$THICKNESS
 40
0.0
  9
$LIMCHECK
 70
     0
  9
$CHAMFERA
 40
0.0
  9
$CHAMFERB
 40
0.0
  9
$CHAMFERC
 40
0.0
  9
$CHAMFERD
 40
0.0
  9
$SKPOLY
 70
     0
  9
$TDCREATE
 40
2454349.434269746
  9
$TDUCREATE
 40
2454349.059269746
  9
$TDUPDATE
 40
2454643.680060301
  9
$TDUUPDATE
 40
2454643.305060301
  9
$TDINDWG
 40
0.6821926852
  9
$TDUSRTIMER
 40
0.6821926852
  9
$USRTIMER
 70
     1
  9
$ANGBASE
 50
0.0
  9
$ANGDIR
 70
     0
  9
$PDMODE
 70
     0
  9
$PDSIZE
 40
0.0
  9
$PLINEWID
 40
0.0
  9
$SPLFRAME
 70
     0
  9
$SPLINETYPE
 70
     6
  9
$SPLINESEGS
 70
     8
  9
$HANDSEED
  5
3AF
  9
$SURFTAB1
 70
     6
  9
$SURFTAB2
 70
     6
  9
$SURFTYPE
 70
     6
  9
$SURFU
 70
     6
  9
$SURFV
 70
     6
  9
$UCSBASE
  2

  9
$UCSNAME
  2

  9
$UCSORG
 10
0.0
 20
0.0
 30
0.0
  9
$UCSXDIR
 10
1.0
 20
0.0
 30
0.0
  9
$UCSYDIR
 10
0.0
 20
1.0
 30
0.0
  9
$UCSORTHOREF
  2

  9
$UCSORTHOVIEW
 70
     0
  9
$UCSORGTOP
 10
0.0
 20
0.0
 30
0.0
  9
$UCSORGBOTTOM
 10
0.0
 20
0.0
 30
0.0
  9
$UCSORGLEFT
 10
0.0
 20
0.0
 30
0.0
  9
$UCSORGRIGHT
 10
0.0
 20
0.0
 30
0.0
  9
$UCSORGFRONT
 10
0.0
 20
0.0
 30
0.0
  9
$UCSORGBACK
 10
0.0
 20
0.0
 30
0.0
  9
$PUCSBASE
  2

  9
$PUCSNAME
  2

  9
$PUCSORG
 10
0.0
 20
0.0
 30
0.0
  9
$PUCSXDIR
 10
1.0
 20
0.0
 30
0.0
  9
$PUCSYDIR
 10
0.0
 20
1.0
 30
0.0
  9
$PUCSORTHOREF
  2

  9
$PUCSORTHOVIEW
 70
     0
  9
$PUCSORGTOP
 10
0.0
 20
0.0
 30
0.0
  9
$PUCSORGBOTTOM
 10
0.0
 20
0.0
 30
0.0
  9
$PUCSORGLEFT
 10
0.0
 20
0.0
 30
0.0
  9
$PUCSORGRIGHT
 10
0.0
 20
0.0
 30
0.0
  9
$PUCSORGFRONT
 10
0.0
 20
0.0
 30
0.0
  9
$PUCSORGBACK
 10
0.0
 20
0.0
 30
0.0
  9
$USERI1
 70
     0
  9
$USERI2
 70
     0
  9
$USERI3
 70
     0
  9
$USERI4
 70
     0
  9
$USERI5
 70
     0
  9
$USERR1
 40
0.0
  9
$USERR2
 40
0.0
  9
$USERR3
 40
0.0
  9
$USERR4
 40
0.0
  9
$USERR5
 40
0.0
  9
$WORLDVIEW
 70
     1
  9
$SHADEDGE
 70
     3
  9
$SHADEDIF
 70
    70
  9
$TILEMODE
 70
     1
  9
$MAXACTVP
 70
    64
  9
$PINSBASE
 10
0.0
 20
0.0
 30
0.0
  9
$PLIMCHECK
 70
     0
  9
$PEXTMIN
 10
0.0
 20
0.0
 30
0.0
  9
$PEXTMAX
 10
0.0
 20
0.0
 30
0.0
  9
$PLIMMIN
 10
0.0
 20
0.0
  9
$PLIMMAX
 10
12.0
 20
9.0
  9
$UNITMODE
 70
     0
  9
$VISRETAIN
 70
     1
  9
$PLINEGEN
 70
     0
  9
$PSLTSCALE
 70
     1
  9
$TREEDEPTH
 70
  3020
  9
$CMLSTYLE
  2
Standard
  9
$CMLJUST
 70
     0
  9
$CMLSCALE
 40
20.0
  9
$PROXYGRAPHICS
 70
     1
  9
$MEASUREMENT
 70
     1
  9
$CELWEIGHT
370
    -1
  9
$ENDCAPS
280
     0
  9
$JOINSTYLE
280
     0
  9
$LWDISPLAY
290
     0
  9
$INSUNITS
 70
     4
  9
$HYPERLINKBASE
  1

  9
$STYLESHEET
  1

  9
$XEDIT
290
     1
  9
$CEPSNTYPE
380
     0
  9
$PSTYLEMODE
290
     1
  9
$FINGERPRINTGUID
  2
{FDEAD578-A652-11D2-9A35-0060089B3A3F}
  9
$VERSIONGUID
  2
{B077FC22-C698-4FB4-96A5-BA428B03907B}
  9
$EXTNAMES
290
     1
  9
$PSVPSCALE
 40
0.0
  9
$OLESTARTUP
290
     0
  0
ENDSEC
  0
SECTION
  2
CLASSES
  0
CLASS
  1
ACDBDICTIONARYWDFLT
  2
AcDbDictionaryWithDefault
  3
ObjectDBX Classes
 90
        0
280
     0
281
     0
  0
CLASS
  1
ACDBPLACEHOLDER
  2
AcDbPlaceHolder
  3
ObjectDBX Classes
 90
        0
280
     0
281
     0
  0
CLASS
  1
LAYOUT
  2
AcDbLayout
  3
ObjectDBX Classes
 90
        0
280
     0
281
     0
  0
CLASS
  1
DICTIONARYVAR
  2
AcDbDictionaryVar
  3
ObjectDBX Classes
 90
        0
280
     0
281
     0
  0
CLASS
  1
SORTENTSTABLE
  2
AcDbSortentsTable
  3
ObjectDBX Classes
 90
        0
280
     0
281
     0
  0
CLASS
  1
DIMASSOC
  2
AcDbDimAssoc
  3
"AcDbDimAssoc|Product Desc:     AcDim ARX App For Dimension|Company:          Autodesk, Inc.|WEB Address:      www.autodesk.com"
 90
    32768
280
     0
281
     0
  0
ENDSEC
  0
SECTION
  2
TABLES
  0
TABLE
  2
VPORT
  5
1D
330
0
100
AcDbSymbolTable
 70
     3
  0
VPORT
  5
3A7
330
1D
100
AcDbSymbolTableRecord
100
AcDbViewportTableRecord
  2
*Active
 70
     0
 10
0.0
 20
0.0
 11
1.0
 21
1.0
 12
-2.640380129032219
 22
-1.402610261811219
 13
0.0
 23
0.0
 14
10.0
 24
10.0
 15
10.0
 25
10.0
 16
0.0
 26
0.0
 36
1.0
 17
0.0
 27
0.0
 37
0.0
 40
113.8952336018272
 41
1.439313984168865
 42
50.0
 43
0.0
 44
0.0
 50
0.0
 51
0.0
 71
     0
 72
 10000
 73
     1
 74
     2
 75
     0
 76
     0
 77
     0
 78
     0
281
     0
 65
     1
110
0.0
120
0.0
130
0.0
111
1.0
121
0.0
131
0.0
112
0.0
122
1.0
132
0.0
 79
     0
146
0.0
  0
ENDTAB
  0
TABLE
  2
LTYPE
  5
18
330
0
100
AcDbSymbolTable
 70
     2
  0
LTYPE
  5
19
330
18
100
AcDbSymbolTableRecord
100
AcDbLinetypeTableRecord
  2
ByBlock
 70
     0
  3

 72
    65
 73
     0
 40
0.0
  0
LTYPE
  5
1A
330
18
100
AcDbSymbolTableRecord
100
AcDbLinetypeTableRecord
  2
ByLayer
 70
     0
  3

 72
    65
 73
     0
 40
0.0
  0
LTYPE
  5
A
330
18
100
AcDbSymbolTableRecord
100
AcDbLinetypeTableRecord
  2
Continuous
 70
     0
  3
Solid line
 72
    65
 73
     0
 40
0.0
  0
LTYPE
  5
48
330
18
100
AcDbSymbolTableRecord
100
AcDbLinetypeTableRecord
  2
S10
 70
     0
  3
- - - - - - - - - 1,-1,1,-1
 72
    65
 73
     4
 40
4.0
 49
1.0
 74
     0
 49
-1.0
 74
     0
 49
1.0
 74
     0
 49
-1.0
 74
     0
  0
ENDTAB
  0
TABLE
  2
LAYER
  5
12
102
{ACAD_XDICTIONARY
360
13
102
}
330
0
100
AcDbSymbolTable
 70
     8
  0
LAYER
  5
6
330
12
100
AcDbSymbolTableRecord
100
AcDbLayerTableRecord
  2
0
 70
     0
 62
     7
  6
Continuous
370
    -3
390
7
  0
LAYER
  5
33E
330
12
100
AcDbSymbolTableRecord
100
AcDbLayerTableRecord
  2
WAKU
 70
     0
 62
     4
  6
Continuous
370
    -3
390
7
  0
LAYER
  5
311
330
12
100
AcDbSymbolTableRecord
100
AcDbLayerTableRecord
  2
DEFPOINTS
 70
     0
 62
     7
  6
Continuous
290
     0
370
    -3
390
7
  0
LAYER
  5
2F
330
12
100
AcDbSymbolTableRecord
100
AcDbLayerTableRecord
  2
SUNPO
 70
     0
 62
     3
  6
Continuous
370
    -3
390
7
  0
LAYER
  5
306
330
12
100
AcDbSymbolTableRecord
100
AcDbLayerTableRecord
  2
MOJI1
 70
     0
 62
     2
  6
Continuous
370
    -3
390
7
  0
LAYER
  5
32
330
12
100
AcDbSymbolTableRecord
100
AcDbLayerTableRecord
  2
GAIKEI
 70
     0
 62
     7
  6
Continuous
370
    -3
390
7
  0
LAYER
  5
304
330
12
100
AcDbSymbolTableRecord
100
AcDbLayerTableRecord
  2
TOUROKU
 70
     0
 62
     1
  6
Continuous
370
    -3
390
7
  0
LAYER
  5
302
330
12
100
AcDbSymbolTableRecord
100
AcDbLayerTableRecord
  2
S1
 70
     0
 62
     1
  6
Continuous
370
    -3
390
7
  0
ENDTAB
  0
TABLE
  2
STYLE
  5
15
330
0
100
AcDbSymbolTable
 70
     1
  0
STYLE
  5
16
330
15
100
AcDbSymbolTableRecord
100
AcDbTextStyleTableRecord
  2
Standard
 70
     0
 40
0.0
 41
1.0
 50
0.0
 71
     0
 42
2.5
  3
MONOTXT.shx
  4
BIGFONT.shx
  0
ENDTAB
  0
TABLE
  2
VIEW
  5
1B
330
0
100
AcDbSymbolTable
 70
     0
  0
ENDTAB
  0
TABLE
  2
UCS
  5
1C
330
0
100
AcDbSymbolTable
 70
     0
  0
ENDTAB
  0
TABLE
  2
APPID
  5
1F
330
0
100
AcDbSymbolTable
 70
     2
  0
APPID
  5
20
330
1F
100
AcDbSymbolTableRecord
100
AcDbRegAppTableRecord
  2
ACAD
 70
     0
  0
APPID
  5
365
330
1F
100
AcDbSymbolTableRecord
100
AcDbRegAppTableRecord
  2
DCO15
 70
     0
  0
ENDTAB
  0
TABLE
  2
DIMSTYLE
  5
21
330
0
100
AcDbSymbolTable
 70
     1
100
AcDbDimStyleTable
 71
     1
340
22
  0
DIMSTYLE
105
22
102
{ACAD_REACTORS
330
307
330
315
330
322
330
32F
102
}
330
21
100
AcDbSymbolTableRecord
100
AcDbDimStyleTableRecord
  2
STANDARD
 70
     0
 40
0.0
 41
2.0
 42
2.0
 43
8.0
 44
2.0
 73
     0
 74
     0
 77
     3
140
3.0
141
0.0
173
     1
279
     2
288
     1
340
16
341
23
343
23
344
23
  0
ENDTAB
  0
TABLE
  2
BLOCK_RECORD
  5
1
330
0
100
AcDbSymbolTable
 70
     9
  0
BLOCK_RECORD
  5
2
102
{ACAD_XDICTIONARY
360
3
102
}
330
1
100
AcDbSymbolTableRecord
100
AcDbBlockTableRecord
  2
*Model_Space
340
C
  0
BLOCK_RECORD
  5
E
330
1
100
AcDbSymbolTableRecord
100
AcDbBlockTableRecord
  2
*Paper_Space
340
11
  0
BLOCK_RECORD
  5
23
330
1
100
AcDbSymbolTableRecord
100
AcDbBlockTableRecord
  2
_OPEN30
340
0
102
{BLKREFS
331
328
331
329
331
31B
331
31C
331
335
331
336
331
30D
331
30E
331
377
331
378
331
383
331
384
331
38F
331
390
331
39B
331
39C
102
}
  0
BLOCK_RECORD
  5
308
330
1
100
AcDbSymbolTableRecord
100
AcDbBlockTableRecord
  2
*D1
340
0
  0
BLOCK_RECORD
  5
316
330
1
100
AcDbSymbolTableRecord
100
AcDbBlockTableRecord
  2
*D2
340
0
  0
BLOCK_RECORD
  5
323
330
1
100
AcDbSymbolTableRecord
100
AcDbBlockTableRecord
  2
*D3
340
0
  0
BLOCK_RECORD
  5
330
330
1
100
AcDbSymbolTableRecord
100
AcDbBlockTableRecord
  2
*D4
340
0
  0
BLOCK_RECORD
  5
373
330
1
100
AcDbSymbolTableRecord
100
AcDbBlockTableRecord
  2
*D5
340
0
  0
BLOCK_RECORD
  5
37F
330
1
100
AcDbSymbolTableRecord
100
AcDbBlockTableRecord
  2
*D6
340
0
  0
BLOCK_RECORD
  5
38B
330
1
100
AcDbSymbolTableRecord
100
AcDbBlockTableRecord
  2
*D7
340
0
  0
BLOCK_RECORD
  5
397
330
1
100
AcDbSymbolTableRecord
100
AcDbBlockTableRecord
  2
*D8
340
0
  0
ENDTAB
  0
ENDSEC
  0
SECTION
  2
BLOCKS
  0
BLOCK
  5
5
330
2
100
AcDbEntity
  8
0
100
AcDbBlockBegin
  2
*Model_Space
 70
     0
 10
0.0
 20
0.0
 30
0.0
  3
*Model_Space
  1

  0
ENDBLK
  5
B
330
2
100
AcDbEntity
  8
0
100
AcDbBlockEnd
  0
BLOCK
  5
F
330
E
100
AcDbEntity
 67
     1
  8
0
100
AcDbBlockBegin
  2
*Paper_Space
 70
     0
 10
0.0
 20
0.0
 30
0.0
  3
*Paper_Space
  1

  0
ENDBLK
  5
10
330
E
100
AcDbEntity
 67
     1
  8
0
100
AcDbBlockEnd
  0
BLOCK
  5
24
330
23
100
AcDbEntity
  8
0
100
AcDbBlockBegin
  2
_OPEN30
 70
     0
 10
0.0
 20
0.0
 30
0.0
  3
_OPEN30
  1

  0
LINE
  5
25
330
23
100
AcDbEntity
  8
0
  6
ByBlock
 62
     0
100
AcDbLine
 10
-1.0
 20
0.26794919
 30
0.0
 11
0.0
 21
0.0
 31
0.0
  0
LINE
  5
26
330
23
100
AcDbEntity
  8
0
  6
ByBlock
 62
     0
100
AcDbLine
 10
0.0
 20
0.0
 30
0.0
 11
-1.0
 21
-0.26794919
 31
0.0
  0
LINE
  5
27
330
23
100
AcDbEntity
  8
0
  6
ByBlock
 62
     0
100
AcDbLine
 10
0.0
 20
0.0
 30
0.0
 11
-1.0
 21
0.0
 31
0.0
  0
ENDBLK
  5
28
330
23
100
AcDbEntity
  8
0
100
AcDbBlockEnd
  0
BLOCK
  5
309
330
308
100
AcDbEntity
  8
0
100
AcDbBlockBegin
  2
*D1
 70
     1
 10
0.0
 20
0.0
 30
0.0
  3
*D1
  1

  0
LINE
  5
30A
330
308
100
AcDbEntity
  8
SUNPO
 62
     0
370
    -2
100
AcDbLine
 10
163.1121077977402
 20
91.07051432889241
 30
0.0
 11
163.1121077977402
 21
99.07051432889241
 31
0.0
  0
LINE
  5
30B
330
308
100
AcDbEntity
  8
SUNPO
 62
     0
370
    -2
100
AcDbLine
 10
203.4454389220037
 20
91.07051432889241
 30
0.0
 11
203.4454389220037
 21
99.07051432889241
 31
0.0
  0
LINE
  5
30C
330
308
100
AcDbEntity
  8
SUNPO
 62
     0
370
    -2
100
AcDbLine
 10
165.1121077977402
 20
97.07051432889242
 30
0.0
 11
201.4454389220037
 21
97.07051432889242
 31
0.0
  0
INSERT
  5
30D
330
308
100
AcDbEntity
  8
SUNPO
 62
     0
370
    -2
100
AcDbBlockReference
  2
_OPEN30
 10
163.1121077977402
 20
97.07051432889242
 30
0.0
 41
2.0
 42
2.0
 43
2.0
 50
180.0
  0
INSERT
  5
30E
330
308
100
AcDbEntity
  8
SUNPO
 62
     0
370
    -2
100
AcDbBlockReference
  2
_OPEN30
 10
203.4454389220037
 20
97.07051432889242
 30
0.0
 41
2.0
 42
2.0
 43
2.0
  0
MTEXT
  5
30F
330
308
100
AcDbEntity
  8
SUNPO
 62
     0
100
AcDbMText
 10
175.2790827276337
 20
98.82051432889241
 30
0.0
 40
2.5
 41
0.0
 71
     5
 72
     1
  1
\A1;1210
 73
     1
 44
1.0
1001
ACAD
1000
MTEXTBEGIN
1070
    73
1070
     1
1070
    44
1040
1.0
1070
    74
1070
     0
1000
MTEXTEND
  0
POINT
  5
310
330
308
100
AcDbEntity
  8
DEFPOINTS
 62
     0
100
AcDbPoint
 10
163.1121077977402
 20
89.0705143288924
 30
0.0
  0
POINT
  5
312
330
308
100
AcDbEntity
  8
DEFPOINTS
 62
     0
100
AcDbPoint
 10
203.4454389220037
 20
89.0705143288924
 30
0.0
  0
POINT
  5
313
330
308
100
AcDbEntity
  8
DEFPOINTS
 62
     0
100
AcDbPoint
 10
203.4454389220037
 20
97.07051432889242
 30
0.0
  0
ENDBLK
  5
314
330
308
100
AcDbEntity
  8
0
100
AcDbBlockEnd
  0
BLOCK
  5
317
330
316
100
AcDbEntity
  8
0
100
AcDbBlockBegin
  2
*D2
 70
     1
 10
0.0
 20
0.0
 30
0.0
  3
*D2
  1

  0
LINE
  5
318
330
316
100
AcDbEntity
  8
SUNPO
 62
     0
370
    -2
100
AcDbLine
 10
205.4051784238338
 20
64.93018266184892
 30
0.0
 11
213.4051784238337
 21
64.93018266184892
 31
0.0
  0
LINE
  5
319
330
316
100
AcDbEntity
  8
SUNPO
 62
     0
370
    -2
100
AcDbLine
 10
205.4051784238338
 20
89.0635080078082
 30
0.0
 11
213.4051784238337
 21
89.0635080078082
 31
0.0
  0
LINE
  5
31A
330
316
100
AcDbEntity
  8
SUNPO
 62
     0
370
    -2
100
AcDbLine
 10
211.4051784238337
 20
66.93018266184892
 30
0.0
 11
211.4051784238337
 21
87.06350800780821
 31
0.0
  0
INSERT
  5
31B
330
316
100
AcDbEntity
  8
SUNPO
 62
     0
370
    -2
100
AcDbBlockReference
  2
_OPEN30
 10
211.4051784238337
 20
64.93018266184892
 30
0.0
 41
2.0
 42
2.0
 43
2.0
 50
270.0
  0
INSERT
  5
31C
330
316
100
AcDbEntity
  8
SUNPO
 62
     0
370
    -2
100
AcDbBlockReference
  2
_OPEN30
 10
211.4051784238337
 20
89.0635080078082
 30
0.0
 41
2.0
 42
2.0
 43
2.0
 50
90.0
  0
MTEXT
  5
31D
330
316
100
AcDbEntity
  8
SUNPO
 62
     0
100
AcDbMText
 10
209.6551784238337
 20
76.99684533482859
 30
0.0
 40
2.5
 41
0.0
 71
     5
 72
     1
  1
\A1;724
 11
0.0000000000000001
 21
1.0
 31
0.0
 73
     1
 44
1.0
1001
ACAD
1000
MTEXTBEGIN
1070
    73
1070
     1
1070
    44
1040
1.0
1070
    74
1070
     0
1000
MTEXTEND
  0
POINT
  5
31E
330
316
100
AcDbEntity
  8
DEFPOINTS
 62
     0
100
AcDbPoint
 10
203.4051784238338
 20
64.93018266184892
 30
0.0
  0
POINT
  5
31F
330
316
100
AcDbEntity
  8
DEFPOINTS
 62
     0
100
AcDbPoint
 10
203.4051784238338
 20
89.0635080078082
 30
0.0
  0
POINT
  5
320
330
316
100
AcDbEntity
  8
DEFPOINTS
 62
     0
100
AcDbPoint
 10
211.4051784238337
 20
89.0635080078082
 30
0.0
  0
ENDBLK
  5
321
330
316
100
AcDbEntity
  8
0
100
AcDbBlockEnd
  0
BLOCK
  5
324
330
323
100
AcDbEntity
  8
0
100
AcDbBlockBegin
  2
*D3
 70
     1
 10
0.0
 20
0.0
 30
0.0
  3
*D3
  1

  0
LINE
  5
325
330
323
100
AcDbEntity
  8
SUNPO
 62
     0
370
    -2
100
AcDbLine
 10
161.158723851529
 20
65.01751280132018
 30
0.0
 11
153.158723851529
 21
65.01751280132019
 31
0.0
  0
LINE
  5
326
330
323
100
AcDbEntity
  8
SUNPO
 62
     0
370
    -2
100
AcDbLine
 10
161.158723851529
 20
104.5960752027683
 30
0.0
 11
153.158723851529
 21
104.5960752027683
 31
0.0
  0
LINE
  5
327
330
323
100
AcDbEntity
  8
SUNPO
 62
     0
370
    -2
100
AcDbLine
 10
155.158723851529
 20
67.01751280132019
 30
0.0
 11
155.158723851529
 21
102.5960752027683
 31
0.0
  0
INSERT
  5
328
330
323
100
AcDbEntity
  8
SUNPO
 62
     0
370
    -2
100
AcDbBlockReference
  2
_OPEN30
 10
155.158723851529
 20
65.01751280132019
 30
0.0
 41
2.0
 42
2.0
 43
2.0
 50
270.0
  0
INSERT
  5
329
330
323
100
AcDbEntity
  8
SUNPO
 62
     0
370
    -2
100
AcDbBlockReference
  2
_OPEN30
 10
155.158723851529
 20
104.5960752027683
 30
0.0
 41
2.0
 42
2.0
 43
2.0
 50
90.0
  0
MTEXT
  5
32A
330
323
100
AcDbEntity
  8
SUNPO
 62
     0
100
AcDbMText
 10
153.4087238515289
 20
84.80679400204428
 30
0.0
 40
2.5
 41
0.0
 71
     5
 72
     1
  1
\A1;1187.3～1487.3
 11
0.0000000000000001
 21
1.0
 31
0.0
 73
     1
 44
1.0
1001
ACAD
1000
MTEXTBEGIN
1070
    73
1070
     1
1070
    44
1040
1.0
1070
    74
1070
     0
1000
MTEXTEND
  0
POINT
  5
32B
330
323
100
AcDbEntity
  8
DEFPOINTS
 62
     0
100
AcDbPoint
 10
163.158723851529
 20
65.01751280132018
 30
0.0
  0
POINT
  5
32C
330
323
100
AcDbEntity
  8
DEFPOINTS
 62
     0
100
AcDbPoint
 10
163.158723851529
 20
104.5960752027683
 30
0.0
  0
POINT
  5
32D
330
323
100
AcDbEntity
  8
DEFPOINTS
 62
     0
100
AcDbPoint
 10
155.158723851529
 20
104.5960752027683
 30
0.0
  0
ENDBLK
  5
32E
330
323
100
AcDbEntity
  8
0
100
AcDbBlockEnd
  0
BLOCK
  5
331
330
330
100
AcDbEntity
  8
0
100
AcDbBlockBegin
  2
*D4
 70
     1
 10
0.0
 20
0.0
 30
0.0
  3
*D4
  1

  0
LINE
  5
332
330
330
100
AcDbEntity
  8
SUNPO
 62
     0
370
    -2
100
AcDbLine
 10
171.0454364135252
 20
62.93691736506395
 30
0.0
 11
171.0454364135252
 21
54.93691736506395
 31
0.0
  0
LINE
  5
333
330
330
100
AcDbEntity
  8
SUNPO
 62
     0
370
    -2
100
AcDbLine
 10
195.4121014210986
 20
62.93691736506395
 30
0.0
 11
195.4121014210986
 21
54.93691736506395
 31
0.0
  0
LINE
  5
334
330
330
100
AcDbEntity
  8
SUNPO
 62
     0
370
    -2
100
AcDbLine
 10
173.0454364135252
 20
56.93691736506394
 30
0.0
 11
193.4121014210986
 21
56.93691736506394
 31
0.0
  0
INSERT
  5
335
330
330
100
AcDbEntity
  8
SUNPO
 62
     0
370
    -2
100
AcDbBlockReference
  2
_OPEN30
 10
171.0454364135252
 20
56.93691736506394
 30
0.0
 41
2.0
 42
2.0
 43
2.0
 50
180.0
  0
INSERT
  5
336
330
330
100
AcDbEntity
  8
SUNPO
 62
     0
370
    -2
100
AcDbBlockReference
  2
_OPEN30
 10
195.4121014210986
 20
56.93691736506394
 30
0.0
 41
2.0
 42
2.0
 43
2.0
  0
MTEXT
  5
337
330
330
100
AcDbEntity
  8
SUNPO
 62
     0
100
AcDbMText
 10
183.2287689173119
 20
58.68691736506395
 30
0.0
 40
2.5
 41
0.0
 71
     5
 72
     1
  1
\A1;731
 73
     1
 44
1.0
1001
ACAD
1000
MTEXTBEGIN
1070
    73
1070
     1
1070
    44
1040
1.0
1070
    74
1070
     0
1000
MTEXTEND
  0
POINT
  5
338
330
330
100
AcDbEntity
  8
DEFPOINTS
 62
     0
100
AcDbPoint
 10
171.0454364135252
 20
64.93691736506395
 30
0.0
  0
POINT
  5
339
330
330
100
AcDbEntity
  8
DEFPOINTS
 62
     0
100
AcDbPoint
 10
195.4121014210986
 20
64.93691736506395
 30
0.0
  0
POINT
  5
33A
330
330
100
AcDbEntity
  8
DEFPOINTS
 62
     0
100
AcDbPoint
 10
195.4121014210986
 20
56.93691736506394
 30
0.0
  0
ENDBLK
  5
33B
330
330
100
AcDbEntity
  8
0
100
AcDbBlockEnd
  0
BLOCK
  5
37D
330
373
100
AcDbEntity
  8
0
100
AcDbBlockBegin
  2
*D5
 70
     1
 10
0.0
 20
0.0
 30
0.0
  3
*D5
  1

  0
LINE
  5
374
330
373
100
AcDbEntity
  8
SUNPO
 62
     0
370
    -2
100
AcDbLine
 10
-25.60513047532976
 20
-0.4665847906398426
 30
0.0
 11
-25.60513047532976
 21
-8.466584790639842
 31
0.0
  0
LINE
  5
375
330
373
100
AcDbEntity
  8
SUNPO
 62
     0
370
    -2
100
AcDbLine
 10
-1.238465467756384
 20
-0.4665847906398426
 30
0.0
 11
-1.238465467756385
 21
-8.466584790639842
 31
0.0
  0
LINE
  5
376
330
373
100
AcDbEntity
  8
SUNPO
 62
     0
370
    -2
100
AcDbLine
 10
-23.60513047532976
 20
-6.466584790639842
 30
0.0
 11
-3.238465467756384
 21
-6.466584790639842
 31
0.0
  0
INSERT
  5
377
330
373
100
AcDbEntity
  8
SUNPO
 62
     0
370
    -2
100
AcDbBlockReference
  2
_OPEN30
 10
-25.60513047532976
 20
-6.466584790639842
 30
0.0
 41
2.0
 42
2.0
 43
2.0
 50
180.0
  0
INSERT
  5
378
330
373
100
AcDbEntity
  8
SUNPO
 62
     0
370
    -2
100
AcDbBlockReference
  2
_OPEN30
 10
-1.238465467756384
 20
-6.466584790639842
 30
0.0
 41
2.0
 42
2.0
 43
2.0
  0
MTEXT
  5
379
330
373
100
AcDbEntity
  8
SUNPO
 62
     0
100
AcDbMText
 10
-13.42179797154307
 20
-4.716584790639842
 30
0.0
 40
2.5
 41
0.0
 71
     5
 72
     1
  1
\A1;731
 73
     1
 44
1.0
1001
ACAD
1000
MTEXTBEGIN
1070
    73
1070
     1
1070
    44
1040
1.0
1070
    74
1070
     0
1000
MTEXTEND
  0
POINT
  5
37A
330
373
100
AcDbEntity
  8
DEFPOINTS
 62
     0
100
AcDbPoint
 10
-25.60513047532976
 20
1.533415209360157
 30
0.0
  0
POINT
  5
37B
330
373
100
AcDbEntity
  8
DEFPOINTS
 62
     0
100
AcDbPoint
 10
-1.238465467756384
 20
1.533415209360157
 30
0.0
  0
POINT
  5
37C
330
373
100
AcDbEntity
  8
DEFPOINTS
 62
     0
100
AcDbPoint
 10
-1.238465467756384
 20
-6.466584790639842
 30
0.0
  0
ENDBLK
  5
37E
330
373
100
AcDbEntity
  8
0
100
AcDbBlockEnd
  0
BLOCK
  5
389
330
37F
100
AcDbEntity
  8
0
100
AcDbBlockBegin
  2
*D6
 70
     1
 10
0.0
 20
0.0
 30
0.0
  3
*D6
  1

  0
LINE
  5
380
330
37F
100
AcDbEntity
  8
SUNPO
 62
     0
370
    -2
100
AcDbLine
 10
-35.49184303732599
 20
1.614010645616389
 30
0.0
 11
-43.491843037326
 21
1.614010645616392
 31
0.0
  0
LINE
  5
381
330
37F
100
AcDbEntity
  8
SUNPO
 62
     0
370
    -2
100
AcDbLine
 10
-35.49184303732599
 20
41.1925730470645
 30
0.0
 11
-43.49184303732599
 21
41.1925730470645
 31
0.0
  0
LINE
  5
382
330
37F
100
AcDbEntity
  8
SUNPO
 62
     0
370
    -2
100
AcDbLine
 10
-41.49184303732599
 20
3.614010645616391
 30
0.0
 11
-41.49184303732599
 21
39.1925730470645
 31
0.0
  0
INSERT
  5
383
330
37F
100
AcDbEntity
  8
SUNPO
 62
     0
370
    -2
100
AcDbBlockReference
  2
_OPEN30
 10
-41.49184303732599
 20
1.614010645616391
 30
0.0
 41
2.0
 42
2.0
 43
2.0
 50
270.0
  0
INSERT
  5
384
330
37F
100
AcDbEntity
  8
SUNPO
 62
     0
370
    -2
100
AcDbBlockReference
  2
_OPEN30
 10
-41.49184303732599
 20
41.1925730470645
 30
0.0
 41
2.0
 42
2.0
 43
2.0
 50
90.0
  0
MTEXT
  5
385
330
37F
100
AcDbEntity
  8
SUNPO
 62
     0
100
AcDbMText
 10
-43.24184303732599
 20
21.40329184634044
 30
0.0
 40
2.5
 41
0.0
 71
     5
 72
     1
  1
\A1;1187.3～1487.3
 11
0.0000000000000001
 21
1.0
 31
0.0
 73
     1
 44
1.0
1001
ACAD
1000
MTEXTBEGIN
1070
    73
1070
     1
1070
    44
1040
1.0
1070
    74
1070
     0
1000
MTEXTEND
  0
POINT
  5
386
330
37F
100
AcDbEntity
  8
DEFPOINTS
 62
     0
100
AcDbPoint
 10
-33.49184303732599
 20
1.614010645616389
 30
0.0
  0
POINT
  5
387
330
37F
100
AcDbEntity
  8
DEFPOINTS
 62
     0
100
AcDbPoint
 10
-33.49184303732599
 20
41.1925730470645
 30
0.0
  0
POINT
  5
388
330
37F
100
AcDbEntity
  8
DEFPOINTS
 62
     0
100
AcDbPoint
 10
-41.49184303732599
 20
41.1925730470645
 30
0.0
  0
ENDBLK
  5
38A
330
37F
100
AcDbEntity
  8
0
100
AcDbBlockEnd
  0
BLOCK
  5
395
330
38B
100
AcDbEntity
  8
0
100
AcDbBlockBegin
  2
*D7
 70
     1
 10
0.0
 20
0.0
 30
0.0
  3
*D7
  1

  0
LINE
  5
38C
330
38B
100
AcDbEntity
  8
SUNPO
 62
     0
370
    -2
100
AcDbLine
 10
8.754611534978749
 20
1.526680506145125
 30
0.0
 11
16.75461153497874
 21
1.526680506145123
 31
0.0
  0
LINE
  5
38D
330
38B
100
AcDbEntity
  8
SUNPO
 62
     0
370
    -2
100
AcDbLine
 10
8.754611534978749
 20
25.66000585210442
 30
0.0
 11
16.75461153497875
 21
25.66000585210442
 31
0.0
  0
LINE
  5
38E
330
38B
100
AcDbEntity
  8
SUNPO
 62
     0
370
    -2
100
AcDbLine
 10
14.75461153497874
 20
3.526680506145124
 30
0.0
 11
14.75461153497875
 21
23.66000585210441
 31
0.0
  0
INSERT
  5
38F
330
38B
100
AcDbEntity
  8
SUNPO
 62
     0
370
    -2
100
AcDbBlockReference
  2
_OPEN30
 10
14.75461153497874
 20
1.526680506145124
 30
0.0
 41
2.0
 42
2.0
 43
2.0
 50
270.0
  0
INSERT
  5
390
330
38B
100
AcDbEntity
  8
SUNPO
 62
     0
370
    -2
100
AcDbBlockReference
  2
_OPEN30
 10
14.75461153497875
 20
25.66000585210442
 30
0.0
 41
2.0
 42
2.0
 43
2.0
 50
90.0
  0
MTEXT
  5
391
330
38B
100
AcDbEntity
  8
SUNPO
 62
     0
100
AcDbMText
 10
13.00461153497874
 20
13.59334317912477
 30
0.0
 40
2.5
 41
0.0
 71
     5
 72
     1
  1
\A1;724
 11
0.0000000000000001
 21
1.0
 31
0.0
 73
     1
 44
1.0
1001
ACAD
1000
MTEXTBEGIN
1070
    73
1070
     1
1070
    44
1040
1.0
1070
    74
1070
     0
1000
MTEXTEND
  0
POINT
  5
392
330
38B
100
AcDbEntity
  8
DEFPOINTS
 62
     0
100
AcDbPoint
 10
6.754611534978749
 20
1.526680506145126
 30
0.0
  0
POINT
  5
393
330
38B
100
AcDbEntity
  8
DEFPOINTS
 62
     0
100
AcDbPoint
 10
6.754611534978749
 20
25.66000585210442
 30
0.0
  0
POINT
  5
394
330
38B
100
AcDbEntity
  8
DEFPOINTS
 62
     0
100
AcDbPoint
 10
14.75461153497875
 20
25.66000585210442
 30
0.0
  0
ENDBLK
  5
396
330
38B
100
AcDbEntity
  8
0
100
AcDbBlockEnd
  0
BLOCK
  5
3A1
330
397
100
AcDbEntity
  8
0
100
AcDbBlockBegin
  2
*D8
 70
     1
 10
0.0
 20
0.0
 30
0.0
  3
*D8
  1

  0
LINE
  5
398
330
397
100
AcDbEntity
  8
SUNPO
 62
     0
370
    -2
100
AcDbLine
 10
-33.53845909111476
 20
27.66701217318861
 30
0.0
 11
-33.53845909111476
 21
35.66701217318863
 31
0.0
  0
LINE
  5
399
330
397
100
AcDbEntity
  8
SUNPO
 62
     0
370
    -2
100
AcDbLine
 10
6.794872033148749
 20
27.66701217318861
 30
0.0
 11
6.79487203314875
 21
35.66701217318863
 31
0.0
  0
LINE
  5
39A
330
397
100
AcDbEntity
  8
SUNPO
 62
     0
370
    -2
100
AcDbLine
 10
-31.53845909111476
 20
33.66701217318862
 30
0.0
 11
4.79487203314875
 21
33.66701217318862
 31
0.0
  0
INSERT
  5
39B
330
397
100
AcDbEntity
  8
SUNPO
 62
     0
370
    -2
100
AcDbBlockReference
  2
_OPEN30
 10
-33.53845909111476
 20
33.66701217318862
 30
0.0
 41
2.0
 42
2.0
 43
2.0
 50
180.0
  0
INSERT
  5
39C
330
397
100
AcDbEntity
  8
SUNPO
 62
     0
370
    -2
100
AcDbBlockReference
  2
_OPEN30
 10
6.79487203314875
 20
33.66701217318862
 30
0.0
 41
2.0
 42
2.0
 43
2.0
  0
MTEXT
  5
39D
330
397
100
AcDbEntity
  8
SUNPO
 62
     0
100
AcDbMText
 10
-21.3714841612213
 20
35.41701217318863
 30
0.0
 40
2.5
 41
0.0
 71
     5
 72
     1
  1
\A1;1210
 73
     1
 44
1.0
1001
ACAD
1000
MTEXTBEGIN
1070
    73
1070
     1
1070
    44
1040
1.0
1070
    74
1070
     0
1000
MTEXTEND
  0
POINT
  5
39E
330
397
100
AcDbEntity
  8
DEFPOINTS
 62
     0
100
AcDbPoint
 10
-33.53845909111476
 20
25.66701217318861
 30
0.0
  0
POINT
  5
39F
330
397
100
AcDbEntity
  8
DEFPOINTS
 62
     0
100
AcDbPoint
 10
6.794872033148749
 20
25.66701217318861
 30
0.0
  0
POINT
  5
3A0
330
397
100
AcDbEntity
  8
DEFPOINTS
 62
     0
100
AcDbPoint
 10
6.79487203314875
 20
33.66701217318862
 30
0.0
  0
ENDBLK
  5
3A2
330
397
100
AcDbEntity
  8
0
100
AcDbBlockEnd
  0
ENDSEC
  0
SECTION
  2
ENTITIES
  0
LINE
  5
31
330
2
100
AcDbEntity
  8
GAIKEI
  6
Continuous
 62
     7
100
AcDbLine
 10
-19.25564960354302
 20
41.19257288038304
 30
0.0
 11
-7.587946339543009
 21
41.19257288038304
 31
0.0
  0
LINE
  5
33
330
2
100
AcDbEntity
  8
GAIKEI
  6
Continuous
 62
     7
100
AcDbLine
 10
-19.25564960354302
 20
41.19257288038304
 30
0.0
 11
-19.25564960354302
 21
41.08589673625502
 31
0.0
  0
LINE
  5
34
330
2
100
AcDbEntity
  8
GAIKEI
  6
Continuous
 62
     7
100
AcDbLine
 10
-7.587946339543009
 20
41.19257288038304
 30
0.0
 11
-7.587946339543009
 21
41.08589673625502
 31
0.0
  0
LINE
  5
35
330
2
100
AcDbEntity
  8
GAIKEI
  6
Continuous
 62
     7
100
AcDbLine
 10
-19.25564960354302
 20
41.08589673625502
 30
0.0
 11
-7.587946339543009
 21
41.08589673625502
 31
0.0
  0
LINE
  5
36
330
2
100
AcDbEntity
  8
GAIKEI
  6
Continuous
 62
     7
100
AcDbLine
 10
-15.51218935549139
 20
39.65910330854303
 30
0.0
 11
-11.33140692095753
 21
39.65910330854303
 31
0.0
  0
LINE
  5
37
330
2
100
AcDbEntity
  8
GAIKEI
  6
Continuous
 62
     7
100
AcDbLine
 10
-15.99929996534178
 20
39.87058576401023
 30
0.0
 11
-16.96908112390616
 21
40.90825162034227
 31
0.0
  0
ARC
  5
38
330
2
100
AcDbEntity
  8
GAIKEI
  6
Continuous
 62
     7
100
AcDbCircle
 10
-15.51218935549139
 20
40.32582920934302
 30
0.0
 40
0.6667259008
100
AcDbArc
 50
223.0632000000202
 51
270.0
  0
LINE
  5
39
330
2
100
AcDbEntity
  8
GAIKEI
  6
Continuous
 62
     7
100
AcDbLine
 10
-10.8442963111072
 20
39.87058576401023
 30
0.0
 11
-9.874514819179864
 21
40.90825162034227
 31
0.0
  0
ARC
  5
3A
330
2
100
AcDbEntity
  8
GAIKEI
  6
Continuous
 62
     7
100
AcDbCircle
 10
-11.33140692095753
 20
40.32582920934302
 30
0.0
 40
0.6667259008
100
AcDbArc
 50
270.0
 51
316.9367999999798
  0
ARC
  5
3B
330
2
100
AcDbEntity
  8
GAIKEI
  6
Continuous
 62
     7
100
AcDbCircle
 10
-17.37825414285663
 20
40.52584697958304
 30
0.0
 40
0.560049756672
100
AcDbArc
 50
43.0632000000202
 51
90.0
  0
ARC
  5
3C
330
2
100
AcDbEntity
  8
GAIKEI
  6
Continuous
 62
     7
100
AcDbCircle
 10
-9.4653421335924
 20
40.52584697958304
 30
0.0
 40
0.560049756672
100
AcDbArc
 50
90.0
 51
136.9367999999798
  0
LINE
  5
3D
330
2
100
AcDbEntity
  8
GAIKEI
  6
Continuous
 62
     7
100
AcDbLine
 10
-12.038341727383
 20
39.65910330854303
 30
0.0
 11
-12.038341727383
 21
39.62247938808619
 31
0.0
  0
LINE
  5
3E
330
2
100
AcDbEntity
  8
GAIKEI
  6
Continuous
 62
     7
100
AcDbLine
 10
-14.80525421570303
 20
39.65910330854303
 30
0.0
 11
-14.80525421570303
 21
39.62247938808619
 31
0.0
  0
LINE
  5
3F
330
2
100
AcDbEntity
  8
GAIKEI
  6
Continuous
 62
     1
100
AcDbLine
 10
-13.42179797154301
 20
39.08154799661963
 30
0.0
 11
-13.25511649634308
 21
38.98531444691292
 31
0.0
  0
LINE
  5
40
330
2
100
AcDbEntity
  8
GAIKEI
  6
Continuous
 62
     1
100
AcDbLine
 10
-13.58847944674301
 20
38.98531444691292
 30
0.0
 11
-13.42179797154301
 21
39.08154799661963
 31
0.0
  0
LINE
  5
41
330
2
100
AcDbEntity
  8
GAIKEI
  6
Continuous
 62
     1
100
AcDbLine
 10
-13.58847944674301
 20
38.98531444691292
 30
0.0
 11
-13.58847944674301
 21
38.7928470141365
 31
0.0
  0
LINE
  5
42
330
2
100
AcDbEntity
  8
GAIKEI
  6
Continuous
 62
     1
100
AcDbLine
 10
-13.58847944674301
 20
38.7928470141365
 30
0.0
 11
-13.42179797154301
 21
38.69661346442979
 31
0.0
  0
LINE
  5
43
330
2
100
AcDbEntity
  8
GAIKEI
  6
Continuous
 62
     1
100
AcDbLine
 10
-13.42179797154301
 20
38.69661346442979
 30
0.0
 11
-13.25511649634308
 21
38.7928470141365
 31
0.0
  0
LINE
  5
44
330
2
100
AcDbEntity
  8
GAIKEI
  6
Continuous
 62
     1
100
AcDbLine
 10
-13.25511649634308
 20
38.98531444691292
 30
0.0
 11
-13.25511649634308
 21
38.7928470141365
 31
0.0
  0
CIRCLE
  5
45
330
2
100
AcDbEntity
  8
GAIKEI
  6
Continuous
 62
     1
100
AcDbCircle
 10
-13.42179797154301
 20
38.88908089720619
 30
0.0
 40
0.3333629504
  0
LINE
  5
46
330
2
100
AcDbEntity
  8
GAIKEI
  6
Continuous
 62
     7
100
AcDbLine
 10
-14.906929915575
 20
39.62247938808619
 30
0.0
 11
-11.93666602751102
 21
39.62247938808619
 31
0.0
  0
LINE
  5
47
330
2
100
AcDbEntity
  8
GAIKEI
  6
S10
 62
     1
100
AcDbLine
 10
-14.906929915575
 20
20.00406975704618
 30
0.0
 11
-11.93666602751102
 21
20.00406975704618
 31
0.0
  0
LINE
  5
49
330
2
100
AcDbEntity
  8
GAIKEI
  6
S10
 62
     1
100
AcDbLine
 10
-10.75489436834306
 20
17.90388316952618
 30
0.0
 11
-16.08870157474302
 21
17.90388316952618
 31
0.0
  0
LINE
  5
4A
330
2
100
AcDbEntity
  8
GAIKEI
  6
S10
 62
     1
100
AcDbLine
 10
-13.72182462690301
 20
17.23715726872621
 30
0.0
 11
-13.72182462690301
 21
17.42521064267634
 31
0.0
  0
LINE
  5
4B
330
2
100
AcDbEntity
  8
GAIKEI
  6
S10
 62
     1
100
AcDbLine
 10
-13.12177131618307
 20
17.23715726872621
 30
0.0
 11
-13.12177131618307
 21
17.42521064267634
 31
0.0
  0
LINE
  5
4C
330
2
100
AcDbEntity
  8
GAIKEI
  6
S10
 62
     1
100
AcDbLine
 10
-10.75489436834306
 20
19.52402710847019
 30
0.0
 11
-16.08870157474302
 21
19.52402710847019
 31
0.0
  0
LINE
  5
4D
330
2
100
AcDbEntity
  8
GAIKEI
  6
S10
 62
     1
100
AcDbLine
 10
-16.08870157474302
 20
19.52402710847019
 30
0.0
 11
-16.08870157474302
 21
17.90388316952618
 31
0.0
  0
LINE
  5
4E
330
2
100
AcDbEntity
  8
GAIKEI
  6
S10
 62
     1
100
AcDbLine
 10
-10.75489436834306
 20
19.52402710847019
 30
0.0
 11
-10.75489436834306
 21
17.90388316952618
 31
0.0
  0
LINE
  5
4F
330
2
100
AcDbEntity
  8
GAIKEI
  6
S10
 62
     1
100
AcDbLine
 10
-13.25511649634308
 20
19.7240448787102
 30
0.0
 11
-13.25511649634308
 21
19.52402710847019
 31
0.0
  0
LINE
  5
50
330
2
100
AcDbEntity
  8
GAIKEI
  6
S10
 62
     1
100
AcDbLine
 10
-13.58847944674301
 20
19.7240448787102
 30
0.0
 11
-13.58847944674301
 21
19.52402710847019
 31
0.0
  0
LINE
  5
51
330
2
100
AcDbEntity
  8
GAIKEI
  6
S10
 62
     1
100
AcDbLine
 10
-13.32178908642305
 20
19.7907174687902
 30
0.0
 11
-13.52180685666297
 21
19.7907174687902
 31
0.0
  0
ARC
  5
52
330
2
100
AcDbEntity
  8
GAIKEI
  6
S10
 62
     1
100
AcDbCircle
 10
-13.32178908642305
 20
19.7240448787102
 30
0.0
 40
0.06667259008
100
AcDbArc
 50
0.0
 51
90.0
  0
ARC
  5
53
330
2
100
AcDbEntity
  8
GAIKEI
  6
S10
 62
     1
100
AcDbCircle
 10
-13.52180685666297
 20
19.7240448787102
 30
0.0
 40
0.06667259008
100
AcDbArc
 50
90.0
 51
180.0
  0
LINE
  5
54
330
2
100
AcDbEntity
  8
GAIKEI
  6
S10
 62
     1
100
AcDbLine
 10
-1.238465467756384
 20
19.42568503810219
 30
0.0
 11
-1.421815090476343
 21
19.42568503810219
 31
0.0
  0
LINE
  5
55
330
2
100
AcDbEntity
  8
GAIKEI
  6
S10
 62
     1
100
AcDbLine
 10
-1.238465467756384
 20
18.00222523989418
 30
0.0
 11
-1.421815090476343
 21
18.00222523989418
 31
0.0
  0
LINE
  5
56
330
2
100
AcDbEntity
  8
GAIKEI
  6
S10
 62
     1
100
AcDbLine
 10
-1.238465467756384
 20
18.00222523989418
 30
0.0
 11
-1.238465467756384
 21
19.42568503810219
 31
0.0
  0
LINE
  5
57
330
2
100
AcDbEntity
  8
GAIKEI
  6
S10
 62
     1
100
AcDbLine
 10
-25.60513047532964
 20
18.00222523989418
 30
0.0
 11
-25.60513047532964
 21
19.42568503810219
 31
0.0
  0
LINE
  5
58
330
2
100
AcDbEntity
  8
GAIKEI
  6
S10
 62
     1
100
AcDbLine
 10
-1.238465467756384
 20
6.922907583350195
 30
0.0
 11
-1.238465467756384
 21
7.769649477366186
 31
0.0
  0
LINE
  5
59
330
2
100
AcDbEntity
  8
GAIKEI
  6
S10
 62
     1
100
AcDbLine
 10
-1.238465467756384
 20
7.769649477366186
 30
0.0
 11
-1.421815090476343
 21
7.769649477366186
 31
0.0
  0
LINE
  5
5A
330
2
100
AcDbEntity
  8
GAIKEI
  6
S10
 62
     1
100
AcDbLine
 10
-13.84516891855099
 20
11.92140199945331
 30
0.0
 11
-13.84516891855099
 21
7.769649477366186
 31
0.0
  0
LINE
  5
5B
330
2
100
AcDbEntity
  8
GAIKEI
  6
S10
 62
     1
100
AcDbLine
 10
-12.99842702453503
 20
11.92140199945331
 30
0.0
 11
-12.99842702453503
 21
7.769649477366186
 31
0.0
  0
ARC
  5
5C
330
2
100
AcDbEntity
  8
GAIKEI
  6
S10
 62
     1
100
AcDbCircle
 10
-13.42179797154301
 20
7.769649477366186
 30
0.0
 40
0.4233709470079999
100
AcDbArc
 50
180.0
 51
0.0
  0
LINE
  5
5D
330
2
100
AcDbEntity
  8
GAIKEI
  6
S10
 62
     1
100
AcDbLine
 10
-1.238465467756384
 20
6.922907583350195
 30
0.0
 11
-1.421815090476343
 21
6.922907583350195
 31
0.0
  0
LINE
  5
5E
330
2
100
AcDbEntity
  8
GAIKEI
  6
S10
 62
     1
100
AcDbLine
 10
-25.60513047532964
 20
6.922907583350195
 30
0.0
 11
-25.60513047532964
 21
7.769649477366186
 31
0.0
  0
LINE
  5
5F
330
2
100
AcDbEntity
  8
GAIKEI
  6
S10
 62
     1
100
AcDbLine
 10
-25.60513047532964
 20
7.769649477366186
 30
0.0
 11
-25.42178085260969
 21
7.769649477366186
 31
0.0
  0
LINE
  5
60
330
2
100
AcDbEntity
  8
GAIKEI
  6
S10
 62
     1
100
AcDbLine
 10
-13.42179797154301
 20
17.76298731853964
 30
0.0
 11
-13.25511649634308
 21
17.6667537688329
 31
0.0
  0
LINE
  5
61
330
2
100
AcDbEntity
  8
GAIKEI
  6
S10
 62
     1
100
AcDbLine
 10
-13.58847944674301
 20
17.6667537688329
 30
0.0
 11
-13.42179797154301
 21
17.76298731853964
 31
0.0
  0
LINE
  5
62
330
2
100
AcDbEntity
  8
GAIKEI
  6
S10
 62
     1
100
AcDbLine
 10
-13.58847944674301
 20
17.6667537688329
 30
0.0
 11
-13.58847944674301
 21
17.47428633605653
 31
0.0
  0
LINE
  5
63
330
2
100
AcDbEntity
  8
GAIKEI
  6
S10
 62
     1
100
AcDbLine
 10
-13.58847944674301
 20
17.47428633605653
 30
0.0
 11
-13.42179797154301
 21
17.37805278634979
 31
0.0
  0
LINE
  5
64
330
2
100
AcDbEntity
  8
GAIKEI
  6
S10
 62
     1
100
AcDbLine
 10
-13.42179797154301
 20
17.37805278634979
 30
0.0
 11
-13.25511649634308
 21
17.47428633605653
 31
0.0
  0
LINE
  5
65
330
2
100
AcDbEntity
  8
GAIKEI
  6
S10
 62
     1
100
AcDbLine
 10
-13.25511649634308
 20
17.6667537688329
 30
0.0
 11
-13.25511649634308
 21
17.47428633605653
 31
0.0
  0
CIRCLE
  5
66
330
2
100
AcDbEntity
  8
GAIKEI
  6
S10
 62
     1
100
AcDbCircle
 10
-13.42179797154301
 20
17.57052021912619
 30
0.0
 40
0.3333629504
  0
LINE
  5
67
330
2
100
AcDbEntity
  8
GAIKEI
  6
S10
 62
     1
100
AcDbLine
 10
-13.12177131618307
 20
17.71582946221309
 30
0.0
 11
-13.12177131618307
 21
17.90388316952618
 31
0.0
  0
LINE
  5
68
330
2
100
AcDbEntity
  8
GAIKEI
  6
S10
 62
     1
100
AcDbLine
 10
-13.72182462690301
 20
17.71582946221309
 30
0.0
 11
-13.72182462690301
 21
17.90388316952618
 31
0.0
  0
LINE
  5
69
330
2
100
AcDbEntity
  8
GAIKEI
  6
S10
 62
     1
100
AcDbLine
 10
-16.08870157474302
 20
19.42568503810219
 30
0.0
 11
-23.4216031502097
 21
19.42568503810219
 31
0.0
  0
LINE
  5
6A
330
2
100
AcDbEntity
  8
GAIKEI
  6
S10
 62
     1
100
AcDbLine
 10
-16.08870157474302
 20
18.00222523989418
 30
0.0
 11
-23.4216031502097
 21
18.00222523989418
 31
0.0
  0
LINE
  5
6B
330
2
100
AcDbEntity
  8
GAIKEI
  6
S10
 62
     1
100
AcDbLine
 10
-3.421992792876324
 20
19.42568503810219
 30
0.0
 11
-10.75489436834306
 21
19.42568503810219
 31
0.0
  0
LINE
  5
6C
330
2
100
AcDbEntity
  8
GAIKEI
  6
S10
 62
     1
100
AcDbLine
 10
-3.421992792876324
 20
18.00222523989418
 30
0.0
 11
-10.75489436834306
 21
18.00222523989418
 31
0.0
  0
LINE
  5
6D
330
2
100
AcDbEntity
  8
GAIKEI
  6
S10
 62
     1
100
AcDbLine
 10
-25.42178085260969
 20
19.42568503810219
 30
0.0
 11
-25.60513047532964
 21
19.42568503810219
 31
0.0
  0
LINE
  5
6E
330
2
100
AcDbEntity
  8
GAIKEI
  6
S10
 62
     1
100
AcDbLine
 10
-25.42178085260969
 20
18.00222523989418
 30
0.0
 11
-25.60513047532964
 21
18.00222523989418
 31
0.0
  0
LINE
  5
6F
330
2
100
AcDbEntity
  8
GAIKEI
  6
S10
 62
     1
100
AcDbLine
 10
-23.4216031502097
 20
7.769649477366186
 30
0.0
 11
-13.84516891855099
 21
7.769649477366186
 31
0.0
  0
LINE
  5
70
330
2
100
AcDbEntity
  8
GAIKEI
  6
S10
 62
     1
100
AcDbLine
 10
-25.42178085260969
 20
6.922907583350195
 30
0.0
 11
-25.60513047532964
 21
6.922907583350195
 31
0.0
  0
LINE
  5
71
330
2
100
AcDbEntity
  8
GAIKEI
  6
S10
 62
     1
100
AcDbLine
 10
-3.421992792876324
 20
7.769649477366186
 30
0.0
 11
-12.99842702453503
 21
7.769649477366186
 31
0.0
  0
LINE
  5
72
330
2
100
AcDbEntity
  8
GAIKEI
  6
S10
 62
     1
100
AcDbLine
 10
-3.421992792876324
 20
6.922907583350195
 30
0.0
 11
-23.4216031502097
 21
6.922907583350195
 31
0.0
  0
LINE
  5
73
330
2
100
AcDbEntity
  8
GAIKEI
  6
S10
 62
     1
100
AcDbLine
 10
-13.89850699061497
 20
17.22048912120618
 30
0.0
 11
-13.89850699061497
 21
11.92140199945331
 31
0.0
  0
LINE
  5
74
330
2
100
AcDbEntity
  8
GAIKEI
  6
S10
 62
     1
100
AcDbLine
 10
-12.94508895247105
 20
17.22048912120618
 30
0.0
 11
-12.94508895247105
 21
11.92140199945331
 31
0.0
  0
LINE
  5
75
330
2
100
AcDbEntity
  8
GAIKEI
  6
S10
 62
     1
100
AcDbLine
 10
-12.94508895247105
 20
11.92140199945331
 30
0.0
 11
-13.27178464386304
 21
11.92140199945331
 31
0.0
  0
LINE
  5
76
330
2
100
AcDbEntity
  8
GAIKEI
  6
S10
 62
     1
100
AcDbLine
 10
-13.371793528983
 20
13.5882167514533
 30
0.0
 11
-13.47180241410302
 21
13.5882167514533
 31
0.0
  0
LINE
  5
77
330
2
100
AcDbEntity
  8
GAIKEI
  6
S10
 62
     1
100
AcDbLine
 10
-13.371793528983
 20
13.5882167514533
 30
0.0
 11
-13.371793528983
 21
12.0214108845733
 31
0.0
  0
LINE
  5
78
330
2
100
AcDbEntity
  8
GAIKEI
  6
S10
 62
     1
100
AcDbLine
 10
-13.47180241410302
 20
13.5882167514533
 30
0.0
 11
-13.47180241410302
 21
12.0214108845733
 31
0.0
  0
LINE
  5
79
330
2
100
AcDbEntity
  8
GAIKEI
  6
S10
 62
     1
100
AcDbLine
 10
-13.57181129922304
 20
11.92140199945331
 30
0.0
 11
-13.89850699061497
 21
11.92140199945331
 31
0.0
  0
ARC
  5
7A
330
2
100
AcDbEntity
  8
GAIKEI
  6
S10
 62
     1
100
AcDbCircle
 10
-13.27178464386304
 20
12.0214108845733
 30
0.0
 40
0.10000888512
100
AcDbArc
 50
180.0
 51
270.0
  0
ARC
  5
7B
330
2
100
AcDbEntity
  8
GAIKEI
  6
S10
 62
     1
100
AcDbCircle
 10
-13.57181129922304
 20
12.0214108845733
 30
0.0
 40
0.10000888512
100
AcDbArc
 50
270.0
 51
0.0
  0
LINE
  5
7C
330
2
100
AcDbEntity
  8
GAIKEI
  6
S10
 62
     1
100
AcDbLine
 10
-24.1883379361297
 20
19.42568503810219
 30
0.0
 11
-24.65504606668969
 21
19.42568503810219
 31
0.0
  0
LINE
  5
7D
330
2
100
AcDbEntity
  8
GAIKEI
  6
S10
 62
     1
100
AcDbLine
 10
-2.65525800695633
 20
19.42568503810219
 30
0.0
 11
-2.188549876396336
 21
19.42568503810219
 31
0.0
  0
LINE
  5
7E
330
2
100
AcDbEntity
  8
GAIKEI
  6
Continuous
 62
     7
100
AcDbLine
 10
37.27128885951817
 20
41.19257288038304
 30
0.0
 11
39.14868432020455
 21
41.19257288038304
 31
0.0
  0
LINE
  5
7F
330
2
100
AcDbEntity
  8
GAIKEI
  6
Continuous
 62
     7
100
AcDbLine
 10
27.48098105620454
 20
41.19257288038304
 30
0.0
 11
27.48098105620454
 21
41.08589673625502
 31
0.0
  0
LINE
  5
80
330
2
100
AcDbEntity
  8
GAIKEI
  6
Continuous
 62
     7
100
AcDbLine
 10
39.14868432020455
 20
41.19257288038304
 30
0.0
 11
39.14868432020455
 21
40.12581143910302
 31
0.0
  0
LINE
  5
81
330
2
100
AcDbEntity
  8
GAIKEI
  6
Continuous
 62
     7
100
AcDbLine
 10
27.48098105620454
 20
41.08589673625502
 30
0.0
 11
39.14868432020455
 21
41.08589673625502
 31
0.0
  0
LINE
  5
82
330
2
100
AcDbEntity
  8
GAIKEI
  6
Continuous
 62
     7
100
AcDbLine
 10
36.42032692391308
 20
40.12581143910302
 30
0.0
 11
39.14868432020455
 21
40.12581143910302
 31
0.0
  0
LINE
  5
83
330
2
100
AcDbEntity
  8
GAIKEI
  6
Continuous
 62
     7
100
AcDbLine
 10
31.22444163761907
 20
39.65910330854303
 30
0.0
 11
35.40522407215292
 21
39.65910330854303
 31
0.0
  0
LINE
  5
84
330
2
100
AcDbEntity
  8
GAIKEI
  6
Continuous
 62
     7
100
AcDbLine
 10
27.48098105620454
 20
41.19257288038304
 30
0.0
 11
37.25018231767655
 21
41.19257288038304
 31
0.0
  0
LINE
  5
85
330
2
100
AcDbEntity
  8
GAIKEI
  6
Continuous
 62
     7
100
AcDbLine
 10
30.73733102776873
 20
39.87058576401023
 30
0.0
 11
29.7675495358414
 21
40.90825162034227
 31
0.0
  0
ARC
  5
86
330
2
100
AcDbEntity
  8
GAIKEI
  6
Continuous
 62
     7
100
AcDbCircle
 10
31.22444163761907
 20
40.32582920934302
 30
0.0
 40
0.6667259008
100
AcDbArc
 50
223.0632000000202
 51
270.0
  0
LINE
  5
87
330
2
100
AcDbEntity
  8
GAIKEI
  6
Continuous
 62
     7
100
AcDbLine
 10
35.89233468200331
 20
39.87058576401023
 30
0.0
 11
36.8621158405677
 21
40.90825162034227
 31
0.0
  0
ARC
  5
88
330
2
100
AcDbEntity
  8
GAIKEI
  6
Continuous
 62
     7
100
AcDbCircle
 10
35.40522407215292
 20
40.32582920934302
 30
0.0
 40
0.6667259008
100
AcDbArc
 50
270.0
 51
316.9367999999798
  0
ARC
  5
89
330
2
100
AcDbEntity
  8
GAIKEI
  6
Continuous
 62
     7
100
AcDbCircle
 10
29.35837685025388
 20
40.52584697958304
 30
0.0
 40
0.560049756672
100
AcDbArc
 50
43.0632000000202
 51
90.0
  0
ARC
  5
8A
330
2
100
AcDbEntity
  8
GAIKEI
  6
Continuous
 62
     7
100
AcDbCircle
 10
37.27128885951817
 20
40.52584697958304
 30
0.0
 40
0.560049756672
100
AcDbArc
 50
90.0
 51
136.9367999999798
  0
ARC
  5
8B
330
2
100
AcDbEntity
  8
GAIKEI
  6
Continuous
 62
     7
100
AcDbCircle
 10
36.42032692391308
 20
39.45908553830305
 30
0.0
 40
0.6667259008
100
AcDbArc
 50
90.0
 51
136.9367999999798
  0
LINE
  5
8C
330
2
100
AcDbEntity
  8
GAIKEI
  6
Continuous
 62
     7
100
AcDbLine
 10
34.69828893236456
 20
39.65910330854303
 30
0.0
 11
34.69828893236456
 21
39.62247938808619
 31
0.0
  0
LINE
  5
8D
330
2
100
AcDbEntity
  8
GAIKEI
  6
Continuous
 62
     7
100
AcDbLine
 10
31.93137644404453
 20
39.65910330854303
 30
0.0
 11
31.93137644404453
 21
39.62247938808619
 31
0.0
  0
LINE
  5
8E
330
2
100
AcDbEntity
  8
GAIKEI
  6
Continuous
 62
     1
100
AcDbLine
 10
33.31483268820455
 20
37.74809619501963
 30
0.0
 11
33.48151416340454
 21
37.65186264531292
 31
0.0
  0
LINE
  5
8F
330
2
100
AcDbEntity
  8
GAIKEI
  6
Continuous
 62
     1
100
AcDbLine
 10
33.14815121300455
 20
37.65186264531292
 30
0.0
 11
33.31483268820455
 21
37.74809619501963
 31
0.0
  0
LINE
  5
90
330
2
100
AcDbEntity
  8
GAIKEI
  6
Continuous
 62
     1
100
AcDbLine
 10
33.14815121300455
 20
37.65186264531292
 30
0.0
 11
33.14815121300455
 21
37.45939521253652
 31
0.0
  0
LINE
  5
91
330
2
100
AcDbEntity
  8
GAIKEI
  6
Continuous
 62
     1
100
AcDbLine
 10
33.14815121300455
 20
37.45939521253652
 30
0.0
 11
33.31483268820455
 21
37.36316166282978
 31
0.0
  0
LINE
  5
92
330
2
100
AcDbEntity
  8
GAIKEI
  6
Continuous
 62
     1
100
AcDbLine
 10
33.31483268820455
 20
37.36316166282978
 30
0.0
 11
33.48151416340454
 21
37.45939521253652
 31
0.0
  0
LINE
  5
93
330
2
100
AcDbEntity
  8
GAIKEI
  6
Continuous
 62
     1
100
AcDbLine
 10
33.48151416340454
 20
37.65186264531292
 30
0.0
 11
33.48151416340454
 21
37.45939521253652
 31
0.0
  0
CIRCLE
  5
94
330
2
100
AcDbEntity
  8
GAIKEI
  6
Continuous
 62
     1
100
AcDbCircle
 10
33.31483268820455
 20
37.55562909560621
 30
0.0
 40
0.3333629504
  0
LINE
  5
95
330
2
100
AcDbEntity
  8
GAIKEI
  6
Continuous
 62
     7
100
AcDbLine
 10
33.76437796062612
 20
17.90388316952618
 30
0.0
 11
33.76437796062612
 21
17.23715726872621
 31
0.0
  0
CIRCLE
  5
96
330
2
100
AcDbEntity
  8
GAIKEI
  6
Continuous
 62
     1
100
AcDbCircle
 10
30.98129203540452
 20
18.72728965701418
 30
0.0
 40
0.7117298991040001
  0
CIRCLE
  5
97
330
2
100
AcDbEntity
  8
GAIKEI
  6
Continuous
 62
     1
100
AcDbCircle
 10
30.98129203540452
 20
18.72728965701418
 30
0.0
 40
0.635056420512
  0
LINE
  5
98
330
2
100
AcDbEntity
  8
GAIKEI
  6
Continuous
 62
     1
100
AcDbLine
 10
33.97890335310461
 20
12.66729493371429
 30
0.0
 11
33.92301305429237
 21
12.42340959946821
 31
0.0
  0
LINE
  5
99
330
2
100
AcDbEntity
  8
GAIKEI
  6
Continuous
 62
     1
100
AcDbLine
 10
33.55648182377934
 20
12.76409986751801
 30
0.0
 11
33.50059152496709
 21
12.52021453327191
 31
0.0
  0
LINE
  5
9A
330
2
100
AcDbEntity
  8
GAIKEI
  6
Continuous
 62
     1
100
AcDbLine
 10
33.55648182377934
 20
12.76409986751801
 30
0.0
 11
33.7956377378481
 21
12.83764006773919
 31
0.0
  0
LINE
  5
9B
330
2
100
AcDbEntity
  8
GAIKEI
  6
Continuous
 62
     1
100
AcDbLine
 10
33.68385714022361
 20
12.34986973260999
 30
0.0
 11
33.92301305429237
 21
12.42340959946821
 31
0.0
  0
LINE
  5
9C
330
2
100
AcDbEntity
  8
GAIKEI
  6
Continuous
 62
     1
100
AcDbLine
 10
33.7956377378481
 20
12.83764006773919
 30
0.0
 11
33.97890335310461
 21
12.66729493371429
 31
0.0
  0
LINE
  5
9D
330
2
100
AcDbEntity
  8
GAIKEI
  6
Continuous
 62
     1
100
AcDbLine
 10
33.50059152496709
 20
12.52021453327191
 30
0.0
 11
33.68385714022361
 21
12.34986973260999
 31
0.0
  0
CIRCLE
  5
9E
330
2
100
AcDbEntity
  8
GAIKEI
  6
Continuous
 62
     1
100
AcDbCircle
 10
33.73974743903585
 20
12.59375473349311
 30
0.0
 40
0.3000266553599999
  0
CIRCLE
  5
9F
330
2
100
AcDbEntity
  8
GAIKEI
  6
Continuous
 62
     1
100
AcDbCircle
 10
33.31483268820455
 20
37.55562909560621
 30
0.0
 40
0.0833407376
  0
LINE
  5
A0
330
2
100
AcDbEntity
  8
GAIKEI
  6
Continuous
 62
     1
100
AcDbLine
 10
33.54068208674517
 20
20.62921763058347
 30
0.0
 11
33.54068208674517
 21
20.37901040134597
 31
0.0
  0
LINE
  5
A1
330
2
100
AcDbEntity
  8
GAIKEI
  6
Continuous
 62
     1
100
AcDbLine
 10
33.10731025122516
 20
20.62921763058347
 30
0.0
 11
33.10731025122516
 21
20.37901040134597
 31
0.0
  0
LINE
  5
A2
330
2
100
AcDbEntity
  8
GAIKEI
  6
Continuous
 62
     1
100
AcDbLine
 10
33.10731025122516
 20
20.62921763058347
 30
0.0
 11
33.32399616898511
 21
20.75432141188366
 31
0.0
  0
LINE
  5
A3
330
2
100
AcDbEntity
  8
GAIKEI
  6
Continuous
 62
     1
100
AcDbLine
 10
33.32399616898511
 20
20.25390662004577
 30
0.0
 11
33.54068208674517
 21
20.37901040134597
 31
0.0
  0
LINE
  5
A4
330
2
100
AcDbEntity
  8
GAIKEI
  6
Continuous
 62
     1
100
AcDbLine
 10
33.32399616898511
 20
20.75432141188366
 30
0.0
 11
33.54068208674517
 21
20.62921763058347
 31
0.0
  0
LINE
  5
A5
330
2
100
AcDbEntity
  8
GAIKEI
  6
Continuous
 62
     1
100
AcDbLine
 10
33.10731025122516
 20
20.37901040134597
 30
0.0
 11
33.32399616898511
 21
20.25390662004577
 31
0.0
  0
CIRCLE
  5
A6
330
2
100
AcDbEntity
  8
GAIKEI
  6
Continuous
 62
     1
100
AcDbCircle
 10
33.32399616898511
 20
20.50411418264619
 30
0.0
 40
0.3000266553599999
  0
CIRCLE
  5
A7
330
2
100
AcDbEntity
  8
GAIKEI
  6
Continuous
 62
     1
100
AcDbCircle
 10
33.31483268820455
 20
23.83774368664621
 30
0.0
 40
0.15834740144
  0
POINT
  5
A8
330
2
100
AcDbEntity
  8
GAIKEI
  6
Continuous
 62
     7
100
AcDbPoint
 10
30.98129203540452
 20
18.72728965701418
 30
0.0
  0
LINE
  5
A9
330
2
100
AcDbEntity
  8
GAIKEI
  6
Continuous
 62
     7
100
AcDbLine
 10
-14.90692991557461
 20
39.62247938808742
 30
0.0
 11
-14.90692991557461
 21
25.74612056649196
 31
0.0
  0
LINE
  5
AA
330
2
100
AcDbEntity
  8
GAIKEI
  6
Continuous
 62
     7
100
AcDbLine
 10
-11.93666602751057
 20
39.62247938808742
 30
0.0
 11
-11.93666602751057
 21
25.74612056649196
 31
0.0
  0
LINE
  5
AB
330
2
100
AcDbEntity
  8
GAIKEI
  6
S10
 62
     1
100
AcDbLine
 10
-14.90692991557461
 20
20.00406975704712
 30
0.0
 11
-11.93666602751057
 21
20.00406975704712
 31
0.0
  0
LINE
  5
AC
330
2
100
AcDbEntity
  8
GAIKEI
  6
Continuous
 62
     7
100
AcDbLine
 10
-14.90692991557461
 20
39.62247938808742
 30
0.0
 11
-11.93666602751057
 21
39.62247938808742
 31
0.0
  0
LINE
  5
AD
330
2
100
AcDbEntity
  8
GAIKEI
  6
S10
 62
     1
100
AcDbLine
 10
-11.93666602751057
 20
25.74612056649196
 30
0.0
 11
-11.93666602751057
 21
20.00406975704712
 31
0.0
  0
LINE
  5
AE
330
2
100
AcDbEntity
  8
GAIKEI
  6
S10
 62
     1
100
AcDbLine
 10
-14.90692991557461
 20
25.74612056649196
 30
0.0
 11
-14.90692991557461
 21
20.00406975704712
 31
0.0
  0
LINE
  5
AF
330
2
100
AcDbEntity
  8
GAIKEI
  6
S10
 62
     1
100
AcDbLine
 10
-12.9450889524706
 20
12.60479604777413
 30
0.0
 11
-12.79507562479057
 21
12.60479604777413
 31
0.0
  0
LINE
  5
B0
330
2
100
AcDbEntity
  8
GAIKEI
  6
S10
 62
     1
100
AcDbLine
 10
-12.9450889524706
 20
12.17142421225412
 30
0.0
 11
-12.79507562479057
 21
12.17142421225412
 31
0.0
  0
LINE
  5
B1
330
2
100
AcDbEntity
  8
GAIKEI
  6
S10
 62
     1
100
AcDbLine
 10
-12.79507562479057
 20
12.60479604777413
 30
0.0
 11
-12.79507562479057
 21
12.17142421225412
 31
0.0
  0
LINE
  5
B2
330
2
100
AcDbEntity
  8
GAIKEI
  6
S10
 62
     1
100
AcDbLine
 10
-14.12075973628333
 20
12.57979382649412
 30
0.0
 11
-13.95184506267861
 21
12.57979382649412
 31
0.0
  0
LINE
  5
B3
330
2
100
AcDbEntity
  8
GAIKEI
  6
S10
 62
     1
100
AcDbLine
 10
-14.12075973628333
 20
12.19642643353413
 30
0.0
 11
-13.95184506267861
 21
12.19642643353413
 31
0.0
  0
LINE
  5
B4
330
2
100
AcDbEntity
  8
GAIKEI
  6
S10
 62
     1
100
AcDbLine
 10
-14.13519468539863
 20
12.24434735765413
 30
0.0
 11
-14.13519468539863
 21
12.53187290237415
 31
0.0
  0
LINE
  5
B5
330
2
100
AcDbEntity
  8
GAIKEI
  6
S10
 62
     1
100
AcDbLine
 10
-14.00184950523862
 20
12.19642643353413
 30
0.0
 11
-14.00184950523862
 21
12.57979382649412
 31
0.0
  0
LINE
  5
B6
330
2
100
AcDbEntity
  8
GAIKEI
  6
S10
 62
     1
100
AcDbLine
 10
-14.12075973628333
 20
12.48395197825414
 30
0.0
 11
-14.00184950523862
 21
12.48395197825414
 31
0.0
  0
LINE
  5
B7
330
2
100
AcDbEntity
  8
GAIKEI
  6
S10
 62
     1
100
AcDbLine
 10
-14.12075973628333
 20
12.29226828177414
 30
0.0
 11
-14.00184950523862
 21
12.29226828177414
 31
0.0
  0
LINE
  5
B8
330
2
100
AcDbEntity
  8
GAIKEI
  6
S10
 62
     1
100
AcDbLine
 10
-13.95184506267861
 20
12.59646197401412
 30
0.0
 11
-13.89850699061463
 21
12.59646197401412
 31
0.0
  0
LINE
  5
B9
330
2
100
AcDbEntity
  8
GAIKEI
  6
S10
 62
     1
100
AcDbLine
 10
-13.95184506267861
 20
12.17975828601413
 30
0.0
 11
-13.89850699061463
 21
12.17975828601413
 31
0.0
  0
LINE
  5
BA
330
2
100
AcDbEntity
  8
GAIKEI
  6
S10
 62
     1
100
AcDbLine
 10
-13.89850699061463
 20
12.59646197401412
 30
0.0
 11
-13.89850699061463
 21
12.17975828601413
 31
0.0
  0
LINE
  5
BB
330
2
100
AcDbEntity
  8
GAIKEI
  6
S10
 62
     1
100
AcDbLine
 10
-13.95184506267861
 20
12.59646197401412
 30
0.0
 11
-13.95184506267861
 21
12.17975828601413
 31
0.0
  0
LINE
  5
BC
330
2
100
AcDbEntity
  8
GAIKEI
  6
S10
 62
     1
100
AcDbLine
 10
-12.68506585115858
 20
12.27143309737414
 30
0.0
 11
-12.9450889524706
 21
12.27143309737414
 31
0.0
  0
LINE
  5
BD
330
2
100
AcDbEntity
  8
GAIKEI
  6
S10
 62
     1
100
AcDbLine
 10
-12.9450889524706
 20
12.50478716265414
 30
0.0
 11
-12.68506585115858
 21
12.50478716265414
 31
0.0
  0
LINE
  5
BE
330
2
100
AcDbEntity
  8
GAIKEI
  6
S10
 62
     1
100
AcDbLine
 10
-12.68506585115858
 20
12.27143309737414
 30
0.0
 11
-12.66839770363856
 21
12.28810124489411
 31
0.0
  0
LINE
  5
BF
330
2
100
AcDbEntity
  8
GAIKEI
  6
S10
 62
     1
100
AcDbLine
 10
-12.66839770363856
 20
12.48811901513414
 30
0.0
 11
-12.68506585115858
 21
12.50478716265414
 31
0.0
  0
ARC
  5
C0
330
2
100
AcDbEntity
  8
GAIKEI
  6
S10
 62
     1
100
AcDbCircle
 10
-14.04843431065342
 20
12.53187290237415
 30
0.0
 40
0.0867607081081548
100
AcDbArc
 50
146.472642000001
 51
213.527357999999
  0
ARC
  5
C1
330
2
100
AcDbEntity
  8
GAIKEI
  6
S10
 62
     1
100
AcDbCircle
 10
-14.04843431065342
 20
12.24434735765413
 30
0.0
 40
0.0867607081081548
100
AcDbArc
 50
146.472642000001
 51
213.527357999999
  0
ARC
  5
C2
330
2
100
AcDbEntity
  8
GAIKEI
  6
S10
 62
     1
100
AcDbCircle
 10
-13.80980477668333
 20
12.38811013001412
 30
0.0
 40
0.3253899087152878
100
AcDbArc
 50
162.8697630000006
 51
197.1302369999994
  0
LINE
  5
C3
330
2
100
AcDbEntity
  8
GAIKEI
  6
S10
 62
     1
100
AcDbLine
 10
-12.66839770363856
 20
12.28810124489411
 30
0.0
 11
-12.66839770363856
 21
12.48811901513414
 31
0.0
  0
LINE
  5
C4
330
2
100
AcDbEntity
  8
GAIKEI
  6
S10
 62
     1
100
AcDbLine
 10
-13.95184506267861
 20
12.19642643353413
 30
0.0
 11
-13.95184506267861
 21
12.57979382649412
 31
0.0
  0
LINE
  5
C5
330
2
100
AcDbEntity
  8
GAIKEI
  6
S10
 62
     1
100
AcDbLine
 10
-12.75173844123861
 20
12.27143309737414
 30
0.0
 11
-12.75173844123861
 21
12.50478716265414
 31
0.0
  0
LINE
  5
C6
330
2
100
AcDbEntity
  8
GAIKEI
  6
S10
 62
     1
100
AcDbLine
 10
-3.255311317675761
 20
11.11327986987899
 30
0.0
 11
-3.255311317675761
 21
17.6471936977191
 31
0.0
  0
LINE
  5
C7
330
2
100
AcDbEntity
  8
GAIKEI
  6
S10
 62
     1
100
AcDbLine
 10
-1.588496565675768
 20
11.11327986987899
 30
0.0
 11
-1.588496565675768
 21
17.6471936977191
 31
0.0
  0
LINE
  5
C8
330
2
100
AcDbEntity
  8
GAIKEI
  6
S10
 62
     1
100
AcDbLine
 10
-3.188638727595787
 20
17.7138662877991
 30
0.0
 11
-1.655169155755743
 21
17.7138662877991
 31
0.0
  0
LINE
  5
C9
330
2
100
AcDbEntity
  8
GAIKEI
  6
S10
 62
     1
100
AcDbLine
 10
-3.188638727595787
 20
11.04660727979899
 30
0.0
 11
-1.655169155755743
 21
11.04660727979899
 31
0.0
  0
ARC
  5
CA
330
2
100
AcDbEntity
  8
GAIKEI
  6
S10
 62
     1
100
AcDbCircle
 10
-3.188638727595787
 20
11.11327986987899
 30
0.0
 40
0.0666725900800009
100
AcDbArc
 50
180.0
 51
270.0
  0
ARC
  5
CB
330
2
100
AcDbEntity
  8
GAIKEI
  6
S10
 62
     1
100
AcDbCircle
 10
-1.655169155755743
 20
11.11327986987899
 30
0.0
 40
0.0666725900800009
100
AcDbArc
 50
270.0
 51
0.0
  0
ARC
  5
CC
330
2
100
AcDbEntity
  8
GAIKEI
  6
S10
 62
     1
100
AcDbCircle
 10
-3.188638727595787
 20
17.6471936977191
 30
0.0
 40
0.0666725900800009
100
AcDbArc
 50
90.0
 51
180.0
  0
ARC
  5
CD
330
2
100
AcDbEntity
  8
GAIKEI
  6
S10
 62
     1
100
AcDbCircle
 10
-1.655169155755743
 20
17.6471936977191
 30
0.0
 40
0.0666725900800009
100
AcDbArc
 50
0.0
 51
90.0
  0
LINE
  5
CE
330
2
100
AcDbEntity
  8
GAIKEI
  6
Continuous
 62
     1
100
AcDbLine
 10
34.61994863902134
 20
19.94573124072713
 30
0.0
 11
34.67496352672589
 21
19.94284798456911
 31
0.0
  0
LINE
  5
CF
330
2
100
AcDbEntity
  8
GAIKEI
  6
Continuous
 62
     1
100
AcDbLine
 10
34.61994863902134
 20
19.59570014280712
 30
0.0
 11
34.67496352672589
 21
19.59858306560215
 31
0.0
  0
LINE
  5
D0
330
2
100
AcDbEntity
  8
GAIKEI
  6
Continuous
 62
     1
100
AcDbLine
 10
34.61994863902134
 20
19.96239938824712
 30
0.0
 11
34.61994863902134
 21
19.57903199528712
 31
0.0
  0
ARC
  5
D1
330
2
100
AcDbEntity
  8
GAIKEI
  6
Continuous
 62
     1
100
AcDbCircle
 10
34.67164856554712
 20
19.87959569836022
 30
0.0
 40
0.0633389605760009
100
AcDbArc
 50
15.65991700000085
 51
86.99999999999986
  0
ARC
  5
D2
330
2
100
AcDbEntity
  8
GAIKEI
  6
Continuous
 62
     1
100
AcDbCircle
 10
34.67164856554712
 20
19.66183535181108
 30
0.0
 40
0.0633389605760009
100
AcDbArc
 50
273.0000000000001
 51
344.3400829999991
  0
ARC
  5
D3
330
2
100
AcDbEntity
  8
GAIKEI
  6
Continuous
 62
     1
100
AcDbCircle
 10
34.28325205911733
 20
19.77071569176712
 30
0.0
 40
0.4667081305600066
100
AcDbArc
 50
344.3400829999991
 51
15.65991700000085
  0
LINE
  5
D4
330
2
100
AcDbEntity
  8
GAIKEI
  6
Continuous
 62
     1
100
AcDbLine
 10
34.61994863902134
 20
19.57903199528712
 30
0.0
 11
34.58661234398136
 21
19.57903199528712
 31
0.0
  0
LINE
  5
D5
330
2
100
AcDbEntity
  8
GAIKEI
  6
Continuous
 62
     1
100
AcDbLine
 10
34.61994863902134
 20
19.96239938824712
 30
0.0
 11
34.58661234398136
 21
19.96239938824712
 31
0.0
  0
CIRCLE
  5
D6
330
2
100
AcDbEntity
  8
GAIKEI
  6
Continuous
 62
     1
100
AcDbCircle
 10
36.28176294676541
 20
18.7139551389991
 30
0.0
 40
0.2333540652800033
  0
LINE
  5
D7
330
2
100
AcDbEntity
  8
GAIKEI
  6
Continuous
 62
     1
100
AcDbLine
 10
36.47423004617883
 20
18.7139551389991
 30
0.0
 11
36.37799649647212
 21
18.88063661419912
 31
0.0
  0
LINE
  5
D8
330
2
100
AcDbEntity
  8
GAIKEI
  6
Continuous
 62
     1
100
AcDbLine
 10
36.37799649647212
 20
18.88063661419912
 30
0.0
 11
36.18552939705864
 21
18.88063661419912
 31
0.0
  0
LINE
  5
D9
330
2
100
AcDbEntity
  8
GAIKEI
  6
Continuous
 62
     1
100
AcDbLine
 10
36.18552939705864
 20
18.88063661419912
 30
0.0
 11
36.08929584735193
 21
18.7139551389991
 31
0.0
  0
LINE
  5
DA
330
2
100
AcDbEntity
  8
GAIKEI
  6
Continuous
 62
     1
100
AcDbLine
 10
36.08929584735193
 20
18.7139551389991
 30
0.0
 11
36.18552939705864
 21
18.5472736637991
 31
0.0
  0
LINE
  5
DB
330
2
100
AcDbEntity
  8
GAIKEI
  6
Continuous
 62
     1
100
AcDbLine
 10
36.18552939705864
 20
18.5472736637991
 30
0.0
 11
36.37799649647212
 21
18.5472736637991
 31
0.0
  0
LINE
  5
DC
330
2
100
AcDbEntity
  8
GAIKEI
  6
Continuous
 62
     1
100
AcDbLine
 10
36.37799649647212
 20
18.5472736637991
 30
0.0
 11
36.47423004617883
 21
18.7139551389991
 31
0.0
  0
CIRCLE
  5
DD
330
2
100
AcDbEntity
  8
GAIKEI
  6
Continuous
 62
     1
100
AcDbCircle
 10
36.28176294676541
 20
18.7139551389991
 30
0.0
 40
0.0800071080960011
  0
LINE
  5
DE
330
2
100
AcDbEntity
  8
GAIKEI
  6
S10
 62
     1
100
AcDbLine
 10
-11.82165580962259
 20
17.8772141334951
 30
0.0
 11
-11.89666247346258
 21
17.8772141334951
 31
0.0
  0
LINE
  5
DF
330
2
100
AcDbEntity
  8
GAIKEI
  6
S10
 62
     1
100
AcDbLine
 10
-11.90499654722259
 20
17.83387694994309
 30
0.0
 11
-11.90499654722259
 21
17.79053976639108
 31
0.0
  0
LINE
  5
E0
330
2
100
AcDbEntity
  8
GAIKEI
  6
S10
 62
     1
100
AcDbLine
 10
-11.60496989186259
 20
17.83387694994309
 30
0.0
 11
-11.60496989186259
 21
17.79053976639108
 31
0.0
  0
LINE
  5
E1
330
2
100
AcDbEntity
  8
GAIKEI
  6
S10
 62
     1
100
AcDbLine
 10
-11.60496989186259
 20
17.83387694994309
 30
0.0
 11
-11.90499654722259
 21
17.83387694994309
 31
0.0
  0
LINE
  5
E2
330
2
100
AcDbEntity
  8
GAIKEI
  6
S10
 62
     1
100
AcDbLine
 10
-11.67164248194257
 20
17.7238671763111
 30
0.0
 11
-11.83832395714256
 21
17.7238671763111
 31
0.0
  0
ARC
  5
E3
330
2
100
AcDbEntity
  8
GAIKEI
  6
S10
 62
     1
100
AcDbCircle
 10
-11.83832395714256
 20
17.79053976639108
 30
0.0
 40
0.0666725900800009
100
AcDbArc
 50
180.0
 51
270.0
  0
ARC
  5
E4
330
2
100
AcDbEntity
  8
GAIKEI
  6
S10
 62
     1
100
AcDbCircle
 10
-11.67164248194257
 20
17.79053976639108
 30
0.0
 40
0.0666725900800009
100
AcDbArc
 50
270.0
 51
0.0
  0
LINE
  5
E5
330
2
100
AcDbEntity
  8
GAIKEI
  6
S10
 62
     1
100
AcDbLine
 10
-11.55496544930258
 20
17.90388316952709
 30
0.0
 11
-11.9550009897826
 21
17.90388316952709
 31
0.0
  0
LINE
  5
E6
330
2
100
AcDbEntity
  8
GAIKEI
  6
S10
 62
     1
100
AcDbLine
 10
-11.55496544930258
 20
17.8772141334951
 30
0.0
 11
-11.9550009897826
 21
17.8772141334951
 31
0.0
  0
LINE
  5
E7
330
2
100
AcDbEntity
  8
GAIKEI
  6
S10
 62
     1
100
AcDbLine
 10
-11.55496544930258
 20
17.8772141334951
 30
0.0
 11
-11.55496544930258
 21
17.90388316952709
 31
0.0
  0
LINE
  5
E8
330
2
100
AcDbEntity
  8
GAIKEI
  6
S10
 62
     1
100
AcDbLine
 10
-11.9550009897826
 20
17.8772141334951
 30
0.0
 11
-11.9550009897826
 21
17.90388316952709
 31
0.0
  0
LINE
  5
E9
330
2
100
AcDbEntity
  8
GAIKEI
  6
S10
 62
     1
100
AcDbLine
 10
-11.89666247346258
 20
17.8772141334951
 30
0.0
 11
-11.6133039656226
 21
17.8772141334951
 31
0.0
  0
LINE
  5
EA
330
2
100
AcDbEntity
  8
GAIKEI
  6
S10
 62
     1
100
AcDbLine
 10
-11.6133039656226
 20
17.8772141334951
 30
0.0
 11
-11.6133039656226
 21
17.83387694994309
 31
0.0
  0
LINE
  5
EB
330
2
100
AcDbEntity
  8
GAIKEI
  6
S10
 62
     1
100
AcDbLine
 10
-11.89666247346258
 20
17.8772141334951
 30
0.0
 11
-11.89666247346258
 21
17.83387694994309
 31
0.0
  0
LINE
  5
EC
330
2
100
AcDbEntity
  8
GAIKEI
  6
S10
 62
     1
100
AcDbLine
 10
-15.15528531362264
 20
17.8772141334951
 30
0.0
 11
-15.23029197746263
 21
17.8772141334951
 31
0.0
  0
LINE
  5
ED
330
2
100
AcDbEntity
  8
GAIKEI
  6
S10
 62
     1
100
AcDbLine
 10
-15.23862605122264
 20
17.83387694994309
 30
0.0
 11
-15.23862605122264
 21
17.79053976639108
 31
0.0
  0
LINE
  5
EE
330
2
100
AcDbEntity
  8
GAIKEI
  6
S10
 62
     1
100
AcDbLine
 10
-14.93859939586264
 20
17.83387694994309
 30
0.0
 11
-14.93859939586264
 21
17.79053976639108
 31
0.0
  0
LINE
  5
EF
330
2
100
AcDbEntity
  8
GAIKEI
  6
S10
 62
     1
100
AcDbLine
 10
-14.93859939586264
 20
17.83387694994309
 30
0.0
 11
-15.23862605122264
 21
17.83387694994309
 31
0.0
  0
LINE
  5
F0
330
2
100
AcDbEntity
  8
GAIKEI
  6
S10
 62
     1
100
AcDbLine
 10
-15.00527198594261
 20
17.7238671763111
 30
0.0
 11
-15.17195346114266
 21
17.7238671763111
 31
0.0
  0
ARC
  5
F1
330
2
100
AcDbEntity
  8
GAIKEI
  6
S10
 62
     1
100
AcDbCircle
 10
-15.17195346114266
 20
17.79053976639108
 30
0.0
 40
0.0666725900800009
100
AcDbArc
 50
180.0
 51
270.0
  0
ARC
  5
F2
330
2
100
AcDbEntity
  8
GAIKEI
  6
S10
 62
     1
100
AcDbCircle
 10
-15.00527198594261
 20
17.79053976639108
 30
0.0
 40
0.0666725900800009
100
AcDbArc
 50
270.0
 51
0.0
  0
LINE
  5
F3
330
2
100
AcDbEntity
  8
GAIKEI
  6
S10
 62
     1
100
AcDbLine
 10
-14.88859495330263
 20
17.90388316952709
 30
0.0
 11
-15.28863049378265
 21
17.90388316952709
 31
0.0
  0
LINE
  5
F4
330
2
100
AcDbEntity
  8
GAIKEI
  6
S10
 62
     1
100
AcDbLine
 10
-14.88859495330263
 20
17.8772141334951
 30
0.0
 11
-15.28863049378265
 21
17.8772141334951
 31
0.0
  0
LINE
  5
F5
330
2
100
AcDbEntity
  8
GAIKEI
  6
S10
 62
     1
100
AcDbLine
 10
-14.88859495330263
 20
17.8772141334951
 30
0.0
 11
-14.88859495330263
 21
17.90388316952709
 31
0.0
  0
LINE
  5
F6
330
2
100
AcDbEntity
  8
GAIKEI
  6
S10
 62
     1
100
AcDbLine
 10
-15.28863049378265
 20
17.8772141334951
 30
0.0
 11
-15.28863049378265
 21
17.90388316952709
 31
0.0
  0
LINE
  5
F7
330
2
100
AcDbEntity
  8
GAIKEI
  6
S10
 62
     1
100
AcDbLine
 10
-14.94693346962259
 20
17.8772141334951
 30
0.0
 11
-14.94693346962259
 21
17.83387694994309
 31
0.0
  0
LINE
  5
F8
330
2
100
AcDbEntity
  8
GAIKEI
  6
S10
 62
     1
100
AcDbLine
 10
-15.23029197746263
 20
17.8772141334951
 30
0.0
 11
-15.23029197746263
 21
17.83387694994309
 31
0.0
  0
POINT
  5
F9
330
2
100
AcDbEntity
  8
GAIKEI
  6
Continuous
 62
     1
100
AcDbPoint
 10
31.54800905108533
 20
7.311275420566943
 30
0.0
  0
CIRCLE
  5
FA
330
2
100
AcDbEntity
  8
GAIKEI
  6
Continuous
 62
     1
100
AcDbCircle
 10
31.54800905108533
 20
7.311275420566943
 30
0.0
 40
0.356698356928005
  0
CIRCLE
  5
FB
330
2
100
AcDbEntity
  8
GAIKEI
  6
Continuous
 62
     1
100
AcDbCircle
 10
31.54800905108533
 20
7.311275420566943
 30
0.0
 40
0.4233709470080061
  0
LINE
  5
FC
330
2
100
AcDbEntity
  8
GAIKEI
  6
Continuous
 62
     7
100
AcDbLine
 10
33.16824699838134
 20
12.31831426245185
 30
0.0
 11
31.52665802484842
 21
8.364050643719707
 31
0.0
  0
LINE
  5
FD
330
2
100
AcDbEntity
  8
GAIKEI
  6
Continuous
 62
     7
100
AcDbLine
 10
33.95027714319161
 20
11.99365941904216
 30
0.0
 11
32.22141954576676
 21
7.82918276650119
 31
0.0
  0
CIRCLE
  5
FE
330
2
100
AcDbEntity
  8
GAIKEI
  6
Continuous
 62
     1
100
AcDbCircle
 10
33.43970011517376
 20
11.86798558709677
 30
0.0
 40
0.1166770326400016
  0
CIRCLE
  5
FF
330
2
100
AcDbEntity
  8
GAIKEI
  6
Continuous
 62
     1
100
AcDbCircle
 10
33.24797441496196
 20
11.40615689004178
 30
0.0
 40
0.1166770326400016
  0
CIRCLE
  5
100
330
2
100
AcDbEntity
  8
GAIKEI
  6
Continuous
 62
     1
100
AcDbCircle
 10
33.05624904811316
 20
10.9443281929868
 30
0.0
 40
0.1166770326400016
  0
CIRCLE
  5
101
330
2
100
AcDbEntity
  8
GAIKEI
  6
Continuous
 62
     1
100
AcDbCircle
 10
32.86452368126436
 20
10.48249916256881
 30
0.0
 40
0.1166770326400016
  0
CIRCLE
  5
102
330
2
100
AcDbEntity
  8
GAIKEI
  6
Continuous
 62
     1
100
AcDbCircle
 10
32.67279831441556
 20
10.02067046551383
 30
0.0
 40
0.1166770326400016
  0
LINE
  5
103
330
2
100
AcDbEntity
  8
GAIKEI
  6
Continuous
 62
     7
100
AcDbLine
 10
35.46460101406427
 20
17.9888907218791
 30
0.0
 11
33.11898528847485
 21
12.33876507937003
 31
0.0
  0
LINE
  5
104
330
2
100
AcDbEntity
  8
GAIKEI
  6
Continuous
 62
     7
100
AcDbLine
 10
36.8626385536748
 20
18.86985132266483
 30
0.0
 11
33.9995388530981
 21
11.97320860212397
 31
0.0
  0
LINE
  5
105
330
2
100
AcDbEntity
  8
GAIKEI
  6
Continuous
 62
     7
100
AcDbLine
 10
33.9995388530981
 20
11.97320860212397
 30
0.0
 11
33.11898528847485
 21
12.33876507937003
 31
0.0
  0
LINE
  5
106
330
2
100
AcDbEntity
  8
GAIKEI
  6
Continuous
 62
     7
100
AcDbLine
 10
36.8626385536748
 20
18.86985132266483
 30
0.0
 11
36.46527258370156
 21
19.03481531194436
 31
0.0
  0
LINE
  5
107
330
2
100
AcDbEntity
  8
GAIKEI
  6
Continuous
 62
     7
100
AcDbLine
 10
32.28140754196534
 20
7.587793987390654
 30
0.0
 11
32.28140754196534
 21
7.104762739964314
 31
0.0
  0
LINE
  5
108
330
2
100
AcDbEntity
  8
GAIKEI
  6
Continuous
 62
     7
100
AcDbLine
 10
31.23349410853797
 20
8.500406066865053
 30
0.0
 11
31.89586062203563
 21
8.192328362889952
 31
0.0
  0
LINE
  5
109
330
2
100
AcDbEntity
  8
GAIKEI
  6
Continuous
 62
     7
100
AcDbLine
 10
30.98165840128781
 20
6.075017920696723
 30
0.0
 11
31.89586062203563
 21
6.500228364465016
 31
0.0
  0
ARC
  5
10A
330
2
100
AcDbEntity
  8
GAIKEI
  6
Continuous
 62
     7
100
AcDbCircle
 10
31.51467275604534
 20
9.104940442364352
 30
0.0
 40
0.6667259008000094
100
AcDbArc
 50
180.0
 51
245.0560950000004
  0
ARC
  5
10B
330
2
100
AcDbEntity
  8
GAIKEI
  6
Continuous
 62
     7
100
AcDbCircle
 10
31.61468164116536
 20
7.587793987390654
 30
0.0
 40
0.6667259008000094
100
AcDbArc
 50
0.0
 51
65.05609500000035
  0
ARC
  5
10C
330
2
100
AcDbEntity
  8
GAIKEI
  6
Continuous
 62
     7
100
AcDbCircle
 10
31.61468164116536
 20
7.104762739964314
 30
0.0
 40
0.6667259008000094
100
AcDbArc
 50
294.9439049999996
 51
0.0
  0
ARC
  5
10D
330
2
100
AcDbEntity
  8
GAIKEI
  6
Continuous
 62
     7
100
AcDbCircle
 10
30.70047975378043
 20
6.679552629558941
 30
0.0
 40
0.6667259008000094
100
AcDbArc
 50
270.0
 51
294.9439049999996
  0
LINE
  5
10E
330
2
100
AcDbEntity
  8
GAIKEI
  6
Continuous
 62
     7
100
AcDbLine
 10
32.28140754196534
 20
19.03288414037269
 30
0.0
 11
32.28140754196534
 21
18.39502613762553
 31
0.0
  0
LINE
  5
10F
330
2
100
AcDbEntity
  8
GAIKEI
  6
Continuous
 62
     7
100
AcDbLine
 10
31.01984079353775
 20
20.26084356968159
 30
0.0
 11
31.99616986717393
 21
19.57968371985515
 31
0.0
  0
LINE
  5
110
330
2
100
AcDbEntity
  8
GAIKEI
  6
Continuous
 62
     7
100
AcDbLine
 10
31.13318453003671
 20
17.24614306705513
 30
0.0
 11
31.99616986717393
 21
17.84822622478012
 31
0.0
  0
ARC
  5
111
330
2
100
AcDbEntity
  8
GAIKEI
  6
Continuous
 62
     7
100
AcDbCircle
 10
30.63835256752919
 20
19.71404399019911
 30
0.0
 40
0.6667259008000094
100
AcDbArc
 50
55.0975040000006
 51
90.0
  0
ARC
  5
112
330
2
100
AcDbEntity
  8
GAIKEI
  6
Continuous
 62
     7
100
AcDbCircle
 10
31.61468164116536
 20
19.03288414037269
 30
0.0
 40
0.6667259008000094
100
AcDbArc
 50
0.0
 51
55.0975040000006
  0
ARC
  5
113
330
2
100
AcDbEntity
  8
GAIKEI
  6
Continuous
 62
     7
100
AcDbCircle
 10
31.61468164116536
 20
18.39502613762553
 30
0.0
 40
0.6667259008000094
100
AcDbArc
 50
304.9024959999994
 51
0.0
  0
LINE
  5
114
330
2
100
AcDbEntity
  8
GAIKEI
  6
Continuous
 62
     7
100
AcDbLine
 10
29.84785800404529
 20
6.012826728758938
 30
0.0
 11
30.70047975378043
 21
6.012826728758938
 31
0.0
  0
LINE
  5
115
330
2
100
AcDbEntity
  8
GAIKEI
  6
Continuous
 62
     7
100
AcDbLine
 10
29.84785800404529
 20
20.38076989099915
 30
0.0
 11
30.63835256752919
 21
20.38076989099915
 31
0.0
  0
LINE
  5
116
330
2
100
AcDbEntity
  8
GAIKEI
  6
Continuous
 62
     7
100
AcDbLine
 10
30.84794685524531
 20
16.69934348757266
 30
0.0
 11
30.84794685524531
 21
9.104940442364352
 31
0.0
  0
ARC
  5
117
330
2
100
AcDbEntity
  8
GAIKEI
  6
Continuous
 62
     7
100
AcDbCircle
 10
31.51467275604534
 20
16.69934348757266
 30
0.0
 40
0.6667259008000094
100
AcDbArc
 50
124.9024959999994
 51
180.0
  0
CIRCLE
  5
118
330
2
100
AcDbEntity
  8
GAIKEI
  6
Continuous
 62
     1
100
AcDbCircle
 10
30.84794685524531
 20
8.346367381558991
 30
0.0
 40
0.1083429588800015
  0
LINE
  5
119
330
2
100
AcDbEntity
  8
GAIKEI
  6
Continuous
 62
     7
100
AcDbLine
 10
29.84785800404529
 20
20.38076989099915
 30
0.0
 11
29.84785800404529
 21
6.012826728758938
 31
0.0
  0
CIRCLE
  5
11A
330
2
100
AcDbEntity
  8
GAIKEI
  6
Continuous
 62
     1
100
AcDbCircle
 10
30.51458390484532
 20
19.88072546539914
 30
0.0
 40
0.1083429588800015
  0
CIRCLE
  5
11B
330
2
100
AcDbEntity
  8
GAIKEI
  6
Continuous
 62
     1
100
AcDbCircle
 10
30.08121206932532
 20
8.829743659638978
 30
0.0
 40
0.0833407376000012
  0
LINE
  5
11C
330
2
100
AcDbEntity
  8
GAIKEI
  6
Continuous
 62
     7
100
AcDbLine
 10
35.00824947028434
 20
19.5240271084711
 30
0.0
 11
35.00824947028434
 21
19.4473536298791
 31
0.0
  0
LINE
  5
11D
330
2
100
AcDbEntity
  8
GAIKEI
  6
Continuous
 62
     7
100
AcDbLine
 10
32.10712239122967
 20
19.4473536298791
 30
0.0
 11
35.00824947028434
 21
19.4473536298791
 31
0.0
  0
LINE
  5
11E
330
2
100
AcDbEntity
  8
GAIKEI
  6
Continuous
 62
     7
100
AcDbLine
 10
32.04305303242933
 20
19.5240271084711
 30
0.0
 11
35.00824947028434
 21
19.5240271084711
 31
0.0
  0
LINE
  5
11F
330
2
100
AcDbEntity
  8
GAIKEI
  6
Continuous
 62
     7
100
AcDbLine
 10
35.00824947028434
 20
17.90388316952709
 30
0.0
 11
35.00824947028434
 21
17.98055664811909
 31
0.0
  0
LINE
  5
120
330
2
100
AcDbEntity
  8
GAIKEI
  6
Continuous
 62
     7
100
AcDbLine
 10
32.16288667884669
 20
17.98055664811909
 30
0.0
 11
35.00824947028434
 21
17.98055664811909
 31
0.0
  0
LINE
  5
121
330
2
100
AcDbEntity
  8
GAIKEI
  6
Continuous
 62
     7
100
AcDbLine
 10
32.10095317646955
 20
17.90388316952709
 30
0.0
 11
35.00824947028434
 21
17.90388316952709
 31
0.0
  0
LINE
  5
122
330
2
100
AcDbEntity
  8
GAIKEI
  6
Continuous
 62
     7
100
AcDbLine
 10
32.01471718164532
 20
19.53126175122071
 30
0.0
 11
32.01471718164532
 21
19.79071746879111
 31
0.0
  0
LINE
  5
123
330
2
100
AcDbEntity
  8
GAIKEI
  6
Continuous
 62
     7
100
AcDbLine
 10
31.93804370305333
 20
19.58523387961634
 30
0.0
 11
31.93804370305333
 21
19.79071746879111
 31
0.0
  0
LINE
  5
124
330
2
100
AcDbEntity
  8
GAIKEI
  6
Continuous
 62
     7
100
AcDbLine
 10
31.93804370305333
 20
19.79071746879111
 30
0.0
 11
32.01471718164532
 21
19.79071746879111
 31
0.0
  0
LINE
  5
125
330
2
100
AcDbEntity
  8
GAIKEI
  6
Continuous
 62
     7
100
AcDbLine
 10
32.11460205574781
 20
19.43901955611912
 30
0.0
 11
35.75825243636086
 21
19.43901955611912
 31
0.0
  0
LINE
  5
126
330
2
100
AcDbEntity
  8
GAIKEI
  6
Continuous
 62
     7
100
AcDbLine
 10
32.16856284980315
 20
17.9888907218791
 30
0.0
 11
35.75825243636086
 21
17.9888907218791
 31
0.0
  0
ARC
  5
127
330
2
100
AcDbEntity
  8
GAIKEI
  6
Continuous
 62
     7
100
AcDbCircle
 10
36.08174517652538
 20
18.7139551389991
 30
0.0
 40
0.5000444256000071
100
AcDbArc
 50
304.8222900000008
 51
55.17770999999918
  0
LINE
  5
128
330
2
100
AcDbEntity
  8
GAIKEI
  6
Continuous
 62
     7
100
AcDbLine
 10
36.04379447152593
 20
19.34947493401216
 30
0.0
 11
36.36728721169049
 21
19.12445494249218
 31
0.0
  0
LINE
  5
129
330
2
100
AcDbEntity
  8
GAIKEI
  6
Continuous
 62
     7
100
AcDbLine
 10
36.04379447152593
 20
18.07843501062308
 30
0.0
 11
36.36728721169049
 21
18.30345500214309
 31
0.0
  0
ARC
  5
12A
330
2
100
AcDbEntity
  8
GAIKEI
  6
Continuous
 62
     7
100
AcDbCircle
 10
35.75825243636086
 20
18.48893514747911
 30
0.0
 40
0.5000444256000071
100
AcDbArc
 50
270.0
 51
304.8222900000008
  0
ARC
  5
12B
330
2
100
AcDbEntity
  8
GAIKEI
  6
Continuous
 62
     7
100
AcDbCircle
 10
35.75825243636086
 20
18.93897513051911
 30
0.0
 40
0.5000444256000071
100
AcDbArc
 50
55.17770999999918
 51
90.0
  0
LINE
  5
12C
330
2
100
AcDbEntity
  8
GAIKEI
  6
Continuous
 62
     7
100
AcDbLine
 10
34.74650921641484
 20
19.32626653876826
 30
0.0
 11
34.74650921641484
 21
18.10180508689794
 31
0.0
  0
LWPOLYLINE
  5
12D
330
2
100
AcDbEntity
  8
GAIKEI
  6
Continuous
 62
     1
100
AcDbPolyline
 90
       72
 70
     1
 43
0.0
 10
34.40524656417921
 20
18.84730031915913
 10
34.39636610854348
 20
18.84679260738568
 10
34.38755299222379
 20
18.84527447250954
 10
34.37887488789897
 20
18.84275658214517
 10
34.37039713470734
 20
18.83925860470663
 10
34.36218473842428
 20
18.834806875867
 10
34.35430003792135
 20
18.8294353986472
 10
34.34680337189275
 20
18.8231848433272
 10
34.33975107867707
 20
18.81610321417184
 10
34.33319749643516
 20
18.80824418261616
 10
34.32719229624666
 20
18.79966775399123
 10
34.32178081547283
 20
18.79043860070939
 10
34.31700472448245
 20
18.78062772907913
 10
34.3129003598371
 20
18.77030914567538
 10
34.30949872429124
 20
18.75956185751747
 10
34.30682548679198
 20
18.74846720516518
 10
34.30490164920525
 20
18.73711019617096
 10
34.30374154613782
 20
18.72557683817598
 10
34.3033538450265
 20
18.71395513899912
 10
34.30374154613782
 20
18.70233310645932
 10
34.30490164920525
 20
18.69079974846434
 10
34.30682548679198
 20
18.67944273947012
 10
34.30949872429124
 20
18.66834842048081
 10
34.3129003598371
 20
18.65760079895992
 10
34.31700472448245
 20
18.64728254891912
 10
34.32178081547283
 20
18.63747134392591
 10
34.32719229624666
 20
18.62824252400705
 10
34.33319749643516
 20
18.61966576201914
 10
34.33975107867707
 20
18.61180673046346
 10
34.34680337189275
 20
18.6047251013081
 10
34.35430003792135
 20
18.59847454598812
 10
34.36218473842428
 20
18.59310306876833
 10
34.37039713470734
 20
18.58865167329162
 10
34.37887488789897
 20
18.58515336249013
 10
34.38755299222379
 20
18.58263547212576
 10
34.39636610854348
 20
18.58111733724962
 10
34.40524656417921
 20
18.58060995883912
 10
34.41412701981494
 20
18.58111733724962
 10
34.42294013613463
 20
18.58263547212576
 10
34.43161857382239
 20
18.58515336249013
 10
34.44009599365108
 20
18.58865167329162
 10
34.4483083899342
 20
18.59310306876833
 10
34.45619309043707
 20
18.59847454598812
 10
34.46369008982856
 20
18.6047251013081
 10
34.47074204968135
 20
18.61180673046346
 10
34.47729563192325
 20
18.61966576201914
 10
34.4833011654747
 20
18.62824252400705
 10
34.48871231288558
 20
18.63747134392591
 10
34.49348840387597
 20
18.64728254891912
 10
34.49759310188426
 20
18.65760079895992
 10
34.50099473743012
 20
18.66834842048081
 10
34.50366764156644
 20
18.67944273947012
 10
34.50559147915323
 20
18.69079974846434
 10
34.50675191558355
 20
18.70233310645932
 10
34.50713961669487
 20
18.71395513899912
 10
34.50675191558355
 20
18.72557683817598
 10
34.50559147915323
 20
18.73711019617096
 10
34.50366764156644
 20
18.74846720516518
 10
34.50099473743012
 20
18.75956185751747
 10
34.49759310188426
 20
18.77030914567538
 10
34.49348840387597
 20
18.78062772907913
 10
34.48871231288558
 20
18.79043860070939
 10
34.4833011654747
 20
18.79966775399123
 10
34.47729563192325
 20
18.80824418261616
 10
34.47074204968135
 20
18.81610321417184
 10
34.46369008982856
 20
18.8231848433272
 10
34.45619309043707
 20
18.8294353986472
 10
34.4483083899342
 20
18.834806875867
 10
34.44009599365108
 20
18.83925860470663
 10
34.43161857382239
 20
18.84275658214517
 10
34.42294013613463
 20
18.84527447250954
 10
34.41412701981494
 20
18.84679260738568
  0
LINE
  5
12E
330
2
100
AcDbEntity
  8
GAIKEI
  6
Continuous
 62
     7
100
AcDbLine
 10
32.04305303242933
 20
17.22048912120709
 30
0.0
 11
34.58661234398136
 21
17.22048912120709
 31
0.0
  0
LINE
  5
12F
330
2
100
AcDbEntity
  8
GAIKEI
  6
Continuous
 62
     7
100
AcDbLine
 10
34.76496152244539
 20
17.8872150220071
 30
0.0
 11
34.76496152244539
 21
17.25382541624708
 31
0.0
  0
LINE
  5
130
330
2
100
AcDbEntity
  8
GAIKEI
  6
Continuous
 62
     7
100
AcDbLine
 10
31.86470385396535
 20
17.7215026329039
 30
0.0
 11
31.86470385396535
 21
17.25382541624708
 31
0.0
  0
LINE
  5
131
330
2
100
AcDbEntity
  8
GAIKEI
  6
Continuous
 62
     7
100
AcDbLine
 10
31.86470385396535
 20
17.25382541624708
 30
0.0
 11
31.88137200148532
 21
17.23715726872709
 31
0.0
  0
LINE
  5
132
330
2
100
AcDbEntity
  8
GAIKEI
  6
Continuous
 62
     7
100
AcDbLine
 10
34.76496152244539
 20
17.25382541624708
 30
0.0
 11
34.74829337492537
 21
17.23715726872709
 31
0.0
  0
LINE
  5
133
330
2
100
AcDbEntity
  8
GAIKEI
  6
Continuous
 62
     7
100
AcDbLine
 10
31.88137200148532
 20
17.23715726872709
 30
0.0
 11
34.74829337492537
 21
17.23715726872709
 31
0.0
  0
LINE
  5
134
330
2
100
AcDbEntity
  8
GAIKEI
  6
Continuous
 62
     7
100
AcDbLine
 10
34.58661234398136
 20
20.00406975704712
 30
0.0
 11
34.58661234398136
 21
19.5240271084711
 31
0.0
  0
LINE
  5
135
330
2
100
AcDbEntity
  8
GAIKEI
  6
Continuous
 62
     7
100
AcDbLine
 10
32.04305303242933
 20
20.00406975704712
 30
0.0
 11
32.04305303242933
 21
19.5240271084711
 31
0.0
  0
LINE
  5
136
330
2
100
AcDbEntity
  8
GAIKEI
  6
Continuous
 62
     1
100
AcDbLine
 10
34.58661234398136
 20
17.22048912120709
 30
0.0
 11
34.58661234398136
 21
17.23715726872709
 31
0.0
  0
LINE
  5
137
330
2
100
AcDbEntity
  8
GAIKEI
  6
Continuous
 62
     7
100
AcDbLine
 10
32.04305303242933
 20
17.22048912120709
 30
0.0
 11
32.04305303242933
 21
17.23715726872709
 31
0.0
  0
LINE
  5
138
330
2
100
AcDbEntity
  8
GAIKEI
  6
Continuous
 62
     7
100
AcDbLine
 10
34.76496152244539
 20
17.8872150220071
 30
0.0
 11
34.74829337492537
 21
17.90388316952709
 31
0.0
  0
LINE
  5
139
330
2
100
AcDbEntity
  8
GAIKEI
  6
S10
 62
     1
100
AcDbLine
 10
-14.69357762731863
 20
17.22048912120709
 30
0.0
 11
-12.1500183157666
 21
17.22048912120709
 31
0.0
  0
LINE
  5
13A
330
2
100
AcDbEntity
  8
GAIKEI
  6
S10
 62
     1
100
AcDbLine
 10
-11.97166913730257
 20
17.8872150220071
 30
0.0
 11
-11.97166913730257
 21
17.25382541624708
 31
0.0
  0
LINE
  5
13B
330
2
100
AcDbEntity
  8
GAIKEI
  6
S10
 62
     1
100
AcDbLine
 10
-14.8719268057826
 20
17.8872150220071
 30
0.0
 11
-14.8719268057826
 21
17.25382541624708
 31
0.0
  0
LINE
  5
13C
330
2
100
AcDbEntity
  8
GAIKEI
  6
S10
 62
     1
100
AcDbLine
 10
-14.8719268057826
 20
17.8872150220071
 30
0.0
 11
-14.85525865826264
 21
17.90388316952709
 31
0.0
  0
LINE
  5
13D
330
2
100
AcDbEntity
  8
GAIKEI
  6
S10
 62
     1
100
AcDbLine
 10
-14.8719268057826
 20
17.25382541624708
 30
0.0
 11
-14.85525865826264
 21
17.23715726872709
 31
0.0
  0
LINE
  5
13E
330
2
100
AcDbEntity
  8
GAIKEI
  6
S10
 62
     1
100
AcDbLine
 10
-11.97166913730257
 20
17.25382541624708
 30
0.0
 11
-11.98833728482259
 21
17.23715726872709
 31
0.0
  0
LINE
  5
13F
330
2
100
AcDbEntity
  8
GAIKEI
  6
S10
 62
     1
100
AcDbLine
 10
-14.85525865826264
 20
17.23715726872709
 30
0.0
 11
-11.98833728482259
 21
17.23715726872709
 31
0.0
  0
LINE
  5
140
330
2
100
AcDbEntity
  8
GAIKEI
  6
S10
 62
     1
100
AcDbLine
 10
-12.1500183157666
 20
20.00406975704712
 30
0.0
 11
-12.1500183157666
 21
19.5240271084711
 31
0.0
  0
LINE
  5
141
330
2
100
AcDbEntity
  8
GAIKEI
  6
S10
 62
     1
100
AcDbLine
 10
-14.69357762731863
 20
20.00406975704712
 30
0.0
 11
-14.69357762731863
 21
19.5240271084711
 31
0.0
  0
LINE
  5
142
330
2
100
AcDbEntity
  8
GAIKEI
  6
S10
 62
     1
100
AcDbLine
 10
-12.1500183157666
 20
17.22048912120709
 30
0.0
 11
-12.1500183157666
 21
17.23715726872709
 31
0.0
  0
LINE
  5
143
330
2
100
AcDbEntity
  8
GAIKEI
  6
S10
 62
     1
100
AcDbLine
 10
-14.69357762731863
 20
17.22048912120709
 30
0.0
 11
-14.69357762731863
 21
17.23715726872709
 31
0.0
  0
LINE
  5
144
330
2
100
AcDbEntity
  8
GAIKEI
  6
S10
 62
     1
100
AcDbLine
 10
-11.97166913730257
 20
17.8872150220071
 30
0.0
 11
-11.98833728482259
 21
17.90388316952709
 31
0.0
  0
LINE
  5
145
330
2
100
AcDbEntity
  8
GAIKEI
  6
Continuous
 62
     1
100
AcDbLine
 10
34.79996463223733
 20
39.2224438476074
 30
0.0
 11
34.82037077852022
 21
39.2224438476074
 31
0.0
  0
LINE
  5
146
330
2
100
AcDbEntity
  8
GAIKEI
  6
Continuous
 62
     1
100
AcDbLine
 10
34.79996463223733
 20
38.55571794680739
 30
0.0
 11
34.82037077852022
 21
38.55571794680739
 31
0.0
  0
ARC
  5
147
330
2
100
AcDbEntity
  8
GAIKEI
  6
Continuous
 62
     1
100
AcDbCircle
 10
34.79996463223733
 20
38.88908089720741
 30
0.0
 40
0.2297270763796512
100
AcDbArc
 50
331.3713620000011
 51
28.62863799999893
  0
LINE
  5
148
330
2
100
AcDbEntity
  8
GAIKEI
  6
Continuous
 62
     1
100
AcDbLine
 10
34.9081529107084
 20
39.17035221961493
 30
0.0
 11
35.00160621340877
 21
38.99915000944458
 31
0.0
  0
LINE
  5
149
330
2
100
AcDbEntity
  8
GAIKEI
  6
Continuous
 62
     1
100
AcDbLine
 10
34.9081529107084
 20
38.60780924143688
 30
0.0
 11
35.00160621340877
 21
38.77901145160726
 31
0.0
  0
ARC
  5
14A
330
2
100
AcDbEntity
  8
GAIKEI
  6
Continuous
 62
     1
100
AcDbCircle
 10
34.82037077852022
 20
39.12243496248738
 30
0.0
 40
0.1000088851200014
100
AcDbArc
 50
28.62863799999893
 51
90.0
  0
ARC
  5
14B
330
2
100
AcDbEntity
  8
GAIKEI
  6
Continuous
 62
     1
100
AcDbCircle
 10
34.82037077852022
 20
38.65572683192741
 30
0.0
 40
0.1000088851200014
100
AcDbArc
 50
270.0
 51
331.3713620000011
  0
LINE
  5
14C
330
2
100
AcDbEntity
  8
GAIKEI
  6
Continuous
 62
     1
100
AcDbLine
 10
31.82970074417335
 20
39.2224438476074
 30
0.0
 11
31.80929493125342
 21
39.2224438476074
 31
0.0
  0
LINE
  5
14D
330
2
100
AcDbEntity
  8
GAIKEI
  6
Continuous
 62
     1
100
AcDbLine
 10
31.82970074417335
 20
38.55571794680739
 30
0.0
 11
31.80929493125342
 21
38.55571794680739
 31
0.0
  0
ARC
  5
14E
330
2
100
AcDbEntity
  8
GAIKEI
  6
Continuous
 62
     1
100
AcDbCircle
 10
31.82970074417335
 20
38.88908089720741
 30
0.0
 40
0.2297270763796512
100
AcDbArc
 50
151.371362000001
 51
208.628637999999
  0
LINE
  5
14F
330
2
100
AcDbEntity
  8
GAIKEI
  6
Continuous
 62
     1
100
AcDbLine
 10
31.72151279906529
 20
39.17035221961493
 30
0.0
 11
31.62805916300192
 21
38.99915000944458
 31
0.0
  0
LINE
  5
150
330
2
100
AcDbEntity
  8
GAIKEI
  6
Continuous
 62
     1
100
AcDbLine
 10
31.72151279906529
 20
38.60780924143688
 30
0.0
 11
31.62805916300192
 21
38.77901145160726
 31
0.0
  0
ARC
  5
151
330
2
100
AcDbEntity
  8
GAIKEI
  6
Continuous
 62
     1
100
AcDbCircle
 10
31.80929493125342
 20
39.12243496248738
 30
0.0
 40
0.1000088851200014
100
AcDbArc
 50
90.0
 51
151.371362000001
  0
ARC
  5
152
330
2
100
AcDbEntity
  8
GAIKEI
  6
Continuous
 62
     1
100
AcDbCircle
 10
31.80929493125342
 20
38.65572683192741
 30
0.0
 40
0.1000088851200014
100
AcDbArc
 50
208.628637999999
 51
270.0
  0
LINE
  5
153
330
2
100
AcDbEntity
  8
GAIKEI
  6
Continuous
 62
     7
100
AcDbLine
 10
31.82970074417335
 20
39.62247938808742
 30
0.0
 11
31.82970074417335
 21
20.00406975704712
 31
0.0
  0
LINE
  5
154
330
2
100
AcDbEntity
  8
GAIKEI
  6
Continuous
 62
     7
100
AcDbLine
 10
34.79996463223733
 20
39.62247938808742
 30
0.0
 11
34.79996463223733
 21
20.00406975704712
 31
0.0
  0
LINE
  5
155
330
2
100
AcDbEntity
  8
GAIKEI
  6
Continuous
 62
     7
100
AcDbLine
 10
31.82970074417335
 20
20.00406975704712
 30
0.0
 11
34.79996463223733
 21
20.00406975704712
 31
0.0
  0
LINE
  5
156
330
2
100
AcDbEntity
  8
GAIKEI
  6
Continuous
 62
     7
100
AcDbLine
 10
31.82970074417335
 20
39.62247938808742
 30
0.0
 11
34.79996463223733
 21
39.62247938808742
 31
0.0
  0
LINE
  5
157
330
2
100
AcDbEntity
  8
GAIKEI
  6
Continuous
 62
     1
100
AcDbLine
 10
-11.93666602751057
 20
37.88899204600739
 30
0.0
 11
-11.91626021459069
 21
37.88899204600739
 31
0.0
  0
LINE
  5
158
330
2
100
AcDbEntity
  8
GAIKEI
  6
Continuous
 62
     1
100
AcDbLine
 10
-11.93666602751057
 20
37.22226614520736
 30
0.0
 11
-11.91626021459069
 21
37.22226614520736
 31
0.0
  0
ARC
  5
159
330
2
100
AcDbEntity
  8
GAIKEI
  6
Continuous
 62
     1
100
AcDbCircle
 10
-11.93666602751057
 20
37.55562909560737
 30
0.0
 40
0.2297270763796512
100
AcDbArc
 50
331.3713620000011
 51
28.62863799999893
  0
LINE
  5
15A
330
2
100
AcDbEntity
  8
GAIKEI
  6
Continuous
 62
     1
100
AcDbLine
 10
-11.82847808240251
 20
37.83690041801492
 30
0.0
 11
-11.73502444633919
 21
37.66569820784457
 31
0.0
  0
LINE
  5
15B
330
2
100
AcDbEntity
  8
GAIKEI
  6
Continuous
 62
     1
100
AcDbLine
 10
-11.82847808240251
 20
37.27435743983688
 30
0.0
 11
-11.73502444633919
 21
37.44555965000723
 31
0.0
  0
ARC
  5
15C
330
2
100
AcDbEntity
  8
GAIKEI
  6
Continuous
 62
     1
100
AcDbCircle
 10
-11.91626021459069
 20
37.78898316088737
 30
0.0
 40
0.1000088851200014
100
AcDbArc
 50
28.62863799999893
 51
90.0
  0
ARC
  5
15D
330
2
100
AcDbEntity
  8
GAIKEI
  6
Continuous
 62
     1
100
AcDbCircle
 10
-11.91626021459069
 20
37.32227503032738
 30
0.0
 40
0.1000088851200014
100
AcDbArc
 50
270.0
 51
331.3713620000011
  0
LINE
  5
15E
330
2
100
AcDbEntity
  8
GAIKEI
  6
Continuous
 62
     1
100
AcDbLine
 10
-14.90692991557461
 20
37.88899204600739
 30
0.0
 11
-14.92733606185749
 21
37.88899204600739
 31
0.0
  0
LINE
  5
15F
330
2
100
AcDbEntity
  8
GAIKEI
  6
Continuous
 62
     1
100
AcDbLine
 10
-14.90692991557461
 20
37.22226614520736
 30
0.0
 11
-14.92733606185749
 21
37.22226614520736
 31
0.0
  0
ARC
  5
160
330
2
100
AcDbEntity
  8
GAIKEI
  6
Continuous
 62
     1
100
AcDbCircle
 10
-14.90692991557461
 20
37.55562909560737
 30
0.0
 40
0.2297270763796512
100
AcDbArc
 50
151.371362000001
 51
208.628637999999
  0
LINE
  5
161
330
2
100
AcDbEntity
  8
GAIKEI
  6
Continuous
 62
     1
100
AcDbLine
 10
-15.01511819404561
 20
37.83690041801492
 30
0.0
 11
-15.10857149674604
 21
37.66569820784457
 31
0.0
  0
LINE
  5
162
330
2
100
AcDbEntity
  8
GAIKEI
  6
Continuous
 62
     1
100
AcDbLine
 10
-15.01511819404561
 20
37.27435743983688
 30
0.0
 11
-15.10857149674604
 21
37.44555965000723
 31
0.0
  0
ARC
  5
163
330
2
100
AcDbEntity
  8
GAIKEI
  6
Continuous
 62
     1
100
AcDbCircle
 10
-14.92733606185749
 20
37.78898316088737
 30
0.0
 40
0.1000088851200014
100
AcDbArc
 50
90.0
 51
151.371362000001
  0
ARC
  5
164
330
2
100
AcDbEntity
  8
GAIKEI
  6
Continuous
 62
     1
100
AcDbCircle
 10
-14.92733606185749
 20
37.32227503032738
 30
0.0
 40
0.1000088851200014
100
AcDbArc
 50
208.628637999999
 51
270.0
  0
LINE
  5
165
330
2
100
AcDbEntity
  8
GAIKEI
  6
S10
 62
     1
100
AcDbLine
 10
-1.421815090475774
 20
20.38076989099915
 30
0.0
 11
-1.421815090475774
 21
6.012826728758909
 31
0.0
  0
LINE
  5
166
330
2
100
AcDbEntity
  8
GAIKEI
  6
S10
 62
     1
100
AcDbLine
 10
-3.421992792875755
 20
6.012826728758909
 30
0.0
 11
-1.421815090475774
 21
6.012826728758909
 31
0.0
  0
LINE
  5
167
330
2
100
AcDbEntity
  8
GAIKEI
  6
S10
 62
     1
100
AcDbLine
 10
-3.421992792875755
 20
6.012826728758909
 30
0.0
 11
-3.421992792875755
 21
20.38076989099915
 31
0.0
  0
LINE
  5
168
330
2
100
AcDbEntity
  8
GAIKEI
  6
S10
 62
     1
100
AcDbLine
 10
-1.671837303275765
 20
20.38076989099915
 30
0.0
 11
-1.421815090475774
 21
20.38076989099915
 31
0.0
  0
LINE
  5
169
330
2
100
AcDbEntity
  8
GAIKEI
  6
S10
 62
     1
100
AcDbLine
 10
-3.171970580075765
 20
20.38076989099915
 30
0.0
 11
-3.421992792875755
 21
20.38076989099915
 31
0.0
  0
LINE
  5
16A
330
2
100
AcDbEntity
  8
GAIKEI
  6
S10
 62
     1
100
AcDbLine
 10
-2.655258006955762
 20
19.0139817943591
 30
0.0
 11
-2.655258006955762
 21
19.59203748407108
 31
0.0
  0
LINE
  5
16B
330
2
100
AcDbEntity
  8
GAIKEI
  6
S10
 62
     1
100
AcDbLine
 10
-2.188549876395768
 20
19.0139817943591
 30
0.0
 11
-2.188549876395768
 21
19.59203748407108
 31
0.0
  0
LINE
  5
16C
330
2
100
AcDbEntity
  8
GAIKEI
  6
S10
 62
     1
100
AcDbLine
 10
-2.405235794155771
 20
18.79729587659912
 30
0.0
 11
-2.438572089195758
 21
18.79729587659912
 31
0.0
  0
ARC
  5
16D
330
2
100
AcDbEntity
  8
GAIKEI
  6
S10
 62
     1
100
AcDbCircle
 10
-2.438572089195758
 20
19.0139817943591
 30
0.0
 40
0.2166859177600031
100
AcDbArc
 50
180.0
 51
270.0
  0
ARC
  5
16E
330
2
100
AcDbEntity
  8
GAIKEI
  6
S10
 62
     1
100
AcDbCircle
 10
-2.405235794155771
 20
19.0139817943591
 30
0.0
 40
0.2166859177600031
100
AcDbArc
 50
270.0
 51
0.0
  0
LINE
  5
16F
330
2
100
AcDbEntity
  8
GAIKEI
  6
S10
 62
     1
100
AcDbLine
 10
-3.071961694955803
 20
20.28076100587913
 30
0.0
 11
-3.071961694955803
 21
20.17508261706166
 31
0.0
  0
LINE
  5
170
330
2
100
AcDbEntity
  8
GAIKEI
  6
S10
 62
     1
100
AcDbLine
 10
-1.771846188395784
 20
20.28076100587913
 30
0.0
 11
-1.771846188395784
 21
20.17508261706166
 31
0.0
  0
LINE
  5
171
330
2
100
AcDbEntity
  8
GAIKEI
  6
S10
 62
     1
100
AcDbLine
 10
-2.655258006955762
 20
8.346367381558962
 30
0.0
 11
-2.655258006955762
 21
8.485060703532241
 31
0.0
  0
LINE
  5
172
330
2
100
AcDbEntity
  8
GAIKEI
  6
S10
 62
     1
100
AcDbLine
 10
-2.188549876395768
 20
8.346367381558962
 30
0.0
 11
-2.188549876395768
 21
8.485060703532241
 31
0.0
  0
LINE
  5
173
330
2
100
AcDbEntity
  8
GAIKEI
  6
S10
 62
     1
100
AcDbLine
 10
-2.405235794155771
 20
8.129681463798959
 30
0.0
 11
-2.438572089195758
 21
8.129681463798959
 31
0.0
  0
ARC
  5
174
330
2
100
AcDbEntity
  8
GAIKEI
  6
S10
 62
     1
100
AcDbCircle
 10
-2.405235794155771
 20
8.346367381558962
 30
0.0
 40
0.2166859177600031
100
AcDbArc
 50
270.0
 51
0.0
  0
ARC
  5
175
330
2
100
AcDbEntity
  8
GAIKEI
  6
S10
 62
     1
100
AcDbCircle
 10
-2.438572089195758
 20
8.346367381558962
 30
0.0
 40
0.2166859177600031
100
AcDbArc
 50
180.0
 51
270.0
  0
ARC
  5
176
330
2
100
AcDbEntity
  8
GAIKEI
  6
S10
 62
     1
100
AcDbCircle
 10
-2.97178079455341
 20
9.313119937718965
 30
0.0
 40
0.0668446053624074
100
AcDbArc
 50
86.66036600000058
 51
269.8524600000009
  0
ARC
  5
177
330
2
100
AcDbEntity
  8
GAIKEI
  6
S10
 62
     1
100
AcDbCircle
 10
-2.421903941675793
 20
9.313119937718965
 30
0.0
 40
0.5500488681600077
100
AcDbArc
 50
6.931044999999448
 51
173.0264240000003
  0
ARC
  5
178
330
2
100
AcDbEntity
  8
GAIKEI
  6
S10
 62
     1
100
AcDbCircle
 10
-2.421903941675793
 20
9.079765872438969
 30
0.0
 40
0.5500488681600077
100
AcDbArc
 50
180.0
 51
236.0727679999995
  0
ARC
  5
179
330
2
100
AcDbEntity
  8
GAIKEI
  6
S10
 62
     1
100
AcDbCircle
 10
-2.421903941675793
 20
9.079765872438969
 30
0.0
 40
0.5500488681600077
100
AcDbArc
 50
303.9272320000005
 51
0.0
  0
ARC
  5
17A
330
2
100
AcDbEntity
  8
GAIKEI
  6
S10
 62
     1
100
AcDbCircle
 10
-1.872027422161124
 20
9.313119937718965
 30
0.0
 40
0.0668446053624074
100
AcDbArc
 50
270.1475399999991
 51
93.33963399999941
  0
LINE
  5
17B
330
2
100
AcDbEntity
  8
GAIKEI
  6
S10
 62
     1
100
AcDbLine
 10
-2.971952809835784
 20
9.079765872438969
 30
0.0
 11
-2.971952809835784
 21
9.246388342396755
 31
0.0
  0
LINE
  5
17C
330
2
100
AcDbEntity
  8
GAIKEI
  6
S10
 62
     1
100
AcDbLine
 10
-1.871855073515746
 20
9.079765872438969
 30
0.0
 11
-1.871855073515746
 21
9.24627533235656
 31
0.0
  0
ARC
  5
17D
330
2
100
AcDbEntity
  8
GAIKEI
  6
S10
 62
     1
100
AcDbCircle
 10
-2.821939482155755
 20
8.485060703532241
 30
0.0
 40
0.1666814752000023
100
AcDbArc
 50
0.0
 51
56.07276799999947
  0
ARC
  5
17E
330
2
100
AcDbEntity
  8
GAIKEI
  6
S10
 62
     1
100
AcDbCircle
 10
-2.021868401195774
 20
8.485060703532241
 30
0.0
 40
0.1666814752000023
100
AcDbArc
 50
123.9272320000005
 51
180.0
  0
LINE
  5
17F
330
2
100
AcDbEntity
  8
GAIKEI
  6
S10
 62
     1
100
AcDbLine
 10
-3.012488411152617
 20
20.04745361141218
 30
0.0
 11
-2.774204574562133
 21
19.84729516200713
 31
0.0
  0
LINE
  5
180
330
2
100
AcDbEntity
  8
GAIKEI
  6
S10
 62
     1
100
AcDbLine
 10
-2.069603308789453
 20
19.84729516200713
 30
0.0
 11
-1.831319472198913
 21
20.04745361141218
 31
0.0
  0
ARC
  5
181
330
2
100
AcDbEntity
  8
GAIKEI
  6
S10
 62
     1
100
AcDbCircle
 10
-2.988620957355806
 20
19.59203748407108
 30
0.0
 40
0.3333629504000047
100
AcDbArc
 50
0.0
 51
49.96974099999936
  0
ARC
  5
182
330
2
100
AcDbEntity
  8
GAIKEI
  6
S10
 62
     1
100
AcDbCircle
 10
-1.855186925995781
 20
19.59203748407108
 30
0.0
 40
0.3333629504000047
100
AcDbArc
 50
130.0302590000006
 51
180.0
  0
ARC
  5
183
330
2
100
AcDbEntity
  8
GAIKEI
  6
S10
 62
     1
100
AcDbCircle
 10
-2.905280219755752
 20
20.17508261706166
 30
0.0
 40
0.1666814752000023
100
AcDbArc
 50
180.0
 51
229.9697409999994
  0
ARC
  5
184
330
2
100
AcDbEntity
  8
GAIKEI
  6
S10
 62
     1
100
AcDbCircle
 10
-1.938527663595777
 20
20.17508261706166
 30
0.0
 40
0.1666814752000023
100
AcDbArc
 50
310.0302590000006
 51
0.0
  0
ARC
  5
185
330
2
100
AcDbEntity
  8
GAIKEI
  6
S10
 62
     1
100
AcDbCircle
 10
-3.171970580075765
 20
20.28076100587913
 30
0.0
 40
0.1000088851200014
100
AcDbArc
 50
0.0
 51
90.0
  0
ARC
  5
186
330
2
100
AcDbEntity
  8
GAIKEI
  6
S10
 62
     1
100
AcDbCircle
 10
-1.671837303275765
 20
20.28076100587913
 30
0.0
 40
0.1000088851200014
100
AcDbArc
 50
90.0
 51
180.0
  0
LINE
  5
187
330
2
100
AcDbEntity
  8
GAIKEI
  6
S10
 62
     1
100
AcDbLine
 10
-25.42178085260946
 20
20.38076989099915
 30
0.0
 11
-25.42178085260946
 21
6.012826728758909
 31
0.0
  0
LINE
  5
188
330
2
100
AcDbEntity
  8
GAIKEI
  6
S10
 62
     1
100
AcDbLine
 10
-23.42160315020942
 20
6.012826728758909
 30
0.0
 11
-25.42178085260946
 21
6.012826728758909
 31
0.0
  0
LINE
  5
189
330
2
100
AcDbEntity
  8
GAIKEI
  6
S10
 62
     1
100
AcDbLine
 10
-23.42160315020942
 20
6.012826728758909
 30
0.0
 11
-23.42160315020942
 21
20.38076989099915
 31
0.0
  0
LINE
  5
18A
330
2
100
AcDbEntity
  8
GAIKEI
  6
S10
 62
     1
100
AcDbLine
 10
-25.17175863980947
 20
20.38076989099915
 30
0.0
 11
-25.42178085260946
 21
20.38076989099915
 31
0.0
  0
LINE
  5
18B
330
2
100
AcDbEntity
  8
GAIKEI
  6
S10
 62
     1
100
AcDbLine
 10
-23.67162536300941
 20
20.38076989099915
 30
0.0
 11
-23.42160315020942
 21
20.38076989099915
 31
0.0
  0
LINE
  5
18C
330
2
100
AcDbEntity
  8
GAIKEI
  6
S10
 62
     1
100
AcDbLine
 10
-24.18833793612942
 20
19.0139817943591
 30
0.0
 11
-24.18833793612942
 21
19.59203748407108
 31
0.0
  0
LINE
  5
18D
330
2
100
AcDbEntity
  8
GAIKEI
  6
S10
 62
     1
100
AcDbLine
 10
-24.65504606668941
 20
19.0139817943591
 30
0.0
 11
-24.65504606668941
 21
19.59203748407108
 31
0.0
  0
LINE
  5
18E
330
2
100
AcDbEntity
  8
GAIKEI
  6
S10
 62
     1
100
AcDbLine
 10
-24.43836014892946
 20
18.79729587659912
 30
0.0
 11
-24.40502385388942
 21
18.79729587659912
 31
0.0
  0
ARC
  5
18F
330
2
100
AcDbEntity
  8
GAIKEI
  6
S10
 62
     1
100
AcDbCircle
 10
-24.40502385388942
 20
19.0139817943591
 30
0.0
 40
0.2166859177600031
100
AcDbArc
 50
270.0
 51
0.0
  0
ARC
  5
190
330
2
100
AcDbEntity
  8
GAIKEI
  6
S10
 62
     1
100
AcDbCircle
 10
-24.43836014892946
 20
19.0139817943591
 30
0.0
 40
0.2166859177600031
100
AcDbArc
 50
180.0
 51
270.0
  0
LINE
  5
191
330
2
100
AcDbEntity
  8
GAIKEI
  6
S10
 62
     1
100
AcDbLine
 10
-23.77163424812943
 20
20.28076100587913
 30
0.0
 11
-23.77163424812943
 21
20.17508261706166
 31
0.0
  0
LINE
  5
192
330
2
100
AcDbEntity
  8
GAIKEI
  6
S10
 62
     1
100
AcDbLine
 10
-25.07174975468945
 20
20.28076100587913
 30
0.0
 11
-25.07174975468945
 21
20.17508261706166
 31
0.0
  0
LINE
  5
193
330
2
100
AcDbEntity
  8
GAIKEI
  6
S10
 62
     1
100
AcDbLine
 10
-24.18833793612942
 20
8.346367381558962
 30
0.0
 11
-24.18833793612942
 21
8.485060703532241
 31
0.0
  0
LINE
  5
194
330
2
100
AcDbEntity
  8
GAIKEI
  6
S10
 62
     1
100
AcDbLine
 10
-24.65504606668941
 20
8.346367381558962
 30
0.0
 11
-24.65504606668941
 21
8.485060703532241
 31
0.0
  0
LINE
  5
195
330
2
100
AcDbEntity
  8
GAIKEI
  6
S10
 62
     1
100
AcDbLine
 10
-24.43836014892946
 20
8.129681463798959
 30
0.0
 11
-24.40502385388942
 21
8.129681463798959
 31
0.0
  0
ARC
  5
196
330
2
100
AcDbEntity
  8
GAIKEI
  6
S10
 62
     1
100
AcDbCircle
 10
-24.43836014892946
 20
8.346367381558962
 30
0.0
 40
0.2166859177600031
100
AcDbArc
 50
180.0
 51
270.0
  0
ARC
  5
197
330
2
100
AcDbEntity
  8
GAIKEI
  6
S10
 62
     1
100
AcDbCircle
 10
-24.40502385388942
 20
8.346367381558962
 30
0.0
 40
0.2166859177600031
100
AcDbArc
 50
270.0
 51
0.0
  0
ARC
  5
198
330
2
100
AcDbEntity
  8
GAIKEI
  6
S10
 62
     1
100
AcDbCircle
 10
-23.87181548189477
 20
9.313119937718965
 30
0.0
 40
0.0668446053624074
100
AcDbArc
 50
270.1475399999991
 51
93.33963399999941
  0
ARC
  5
199
330
2
100
AcDbEntity
  8
GAIKEI
  6
S10
 62
     1
100
AcDbCircle
 10
-24.42169200140944
 20
9.313119937718965
 30
0.0
 40
0.5500488681600077
100
AcDbArc
 50
6.973575999999644
 51
173.0689550000005
  0
ARC
  5
19A
330
2
100
AcDbEntity
  8
GAIKEI
  6
S10
 62
     1
100
AcDbCircle
 10
-24.42169200140944
 20
9.079765872438969
 30
0.0
 40
0.5500488681600077
100
AcDbArc
 50
303.9272320000005
 51
0.0
  0
ARC
  5
19B
330
2
100
AcDbEntity
  8
GAIKEI
  6
S10
 62
     1
100
AcDbCircle
 10
-24.42169200140944
 20
9.079765872438969
 30
0.0
 40
0.5500488681600077
100
AcDbArc
 50
180.0
 51
236.0727679999995
  0
ARC
  5
19C
330
2
100
AcDbEntity
  8
GAIKEI
  6
S10
 62
     1
100
AcDbCircle
 10
-24.97156885428706
 20
9.313119937718965
 30
0.0
 40
0.0668446053624074
100
AcDbArc
 50
86.66036600000058
 51
269.8524600000009
  0
LINE
  5
19D
330
2
100
AcDbEntity
  8
GAIKEI
  6
S10
 62
     1
100
AcDbLine
 10
-23.87164313324945
 20
9.079765872438969
 30
0.0
 11
-23.87164313324945
 21
9.246388342396755
 31
0.0
  0
LINE
  5
19E
330
2
100
AcDbEntity
  8
GAIKEI
  6
S10
 62
     1
100
AcDbLine
 10
-24.97174086956943
 20
9.079765872438969
 30
0.0
 11
-24.97174086956943
 21
9.24627533235656
 31
0.0
  0
ARC
  5
19F
330
2
100
AcDbEntity
  8
GAIKEI
  6
S10
 62
     1
100
AcDbCircle
 10
-24.02165646092942
 20
8.485060703532241
 30
0.0
 40
0.1666814752000023
100
AcDbArc
 50
123.9272320000005
 51
180.0
  0
ARC
  5
1A0
330
2
100
AcDbEntity
  8
GAIKEI
  6
S10
 62
     1
100
AcDbCircle
 10
-24.82172754188946
 20
8.485060703532241
 30
0.0
 40
0.1666814752000023
100
AcDbArc
 50
0.0
 51
56.07276799999947
  0
LINE
  5
1A1
330
2
100
AcDbEntity
  8
GAIKEI
  6
S10
 62
     1
100
AcDbLine
 10
-23.83110753193256
 20
20.04745361141218
 30
0.0
 11
-24.0693913685231
 21
19.84729516200713
 31
0.0
  0
LINE
  5
1A2
330
2
100
AcDbEntity
  8
GAIKEI
  6
S10
 62
     1
100
AcDbLine
 10
-24.77399263429578
 20
19.84729516200713
 30
0.0
 11
-25.01227647088626
 21
20.04745361141218
 31
0.0
  0
ARC
  5
1A3
330
2
100
AcDbEntity
  8
GAIKEI
  6
S10
 62
     1
100
AcDbCircle
 10
-23.85497498572943
 20
19.59203748407108
 30
0.0
 40
0.3333629504000047
100
AcDbArc
 50
130.0302590000006
 51
180.0
  0
ARC
  5
1A4
330
2
100
AcDbEntity
  8
GAIKEI
  6
S10
 62
     1
100
AcDbCircle
 10
-24.98840901708945
 20
19.59203748407108
 30
0.0
 40
0.3333629504000047
100
AcDbArc
 50
0.0
 51
49.96974099999936
  0
ARC
  5
1A5
330
2
100
AcDbEntity
  8
GAIKEI
  6
S10
 62
     1
100
AcDbCircle
 10
-23.93831572332942
 20
20.17508261706166
 30
0.0
 40
0.1666814752000023
100
AcDbArc
 50
310.0302590000006
 51
0.0
  0
ARC
  5
1A6
330
2
100
AcDbEntity
  8
GAIKEI
  6
S10
 62
     1
100
AcDbCircle
 10
-24.90506827948946
 20
20.17508261706166
 30
0.0
 40
0.1666814752000023
100
AcDbArc
 50
180.0
 51
229.9697409999994
  0
ARC
  5
1A7
330
2
100
AcDbEntity
  8
GAIKEI
  6
S10
 62
     1
100
AcDbCircle
 10
-23.67162536300941
 20
20.28076100587913
 30
0.0
 40
0.1000088851200014
100
AcDbArc
 50
90.0
 51
180.0
  0
ARC
  5
1A8
330
2
100
AcDbEntity
  8
GAIKEI
  6
S10
 62
     1
100
AcDbCircle
 10
-25.17175863980947
 20
20.28076100587913
 30
0.0
 40
0.1000088851200014
100
AcDbArc
 50
0.0
 51
90.0
  0
LINE
  5
1A9
330
2
100
AcDbEntity
  8
GAIKEI
  6
S10
 62
     1
100
AcDbLine
 10
-11.90499654722259
 20
17.90388316952709
 30
0.0
 11
-11.60496989186259
 21
17.90388316952709
 31
0.0
  0
LINE
  5
1AA
330
2
100
AcDbEntity
  8
GAIKEI
  6
S10
 62
     1
100
AcDbLine
 10
-15.23862605122264
 20
17.90388316952709
 30
0.0
 11
-14.93859939586264
 21
17.90388316952709
 31
0.0
  0
LINE
  5
1AB
330
2
100
AcDbEntity
  8
GAIKEI
  6
S10
 62
     1
100
AcDbLine
 10
-15.16361938738265
 20
20.75432141188461
 30
0.0
 11
-14.94693346962259
 21
20.75432141188461
 31
0.0
  0
LINE
  5
1AC
330
2
100
AcDbEntity
  8
GAIKEI
  6
S10
 62
     1
100
AcDbLine
 10
-14.94693346962259
 20
20.63745936280714
 30
0.0
 11
-15.16361938738265
 21
20.63745936280714
 31
0.0
  0
LINE
  5
1AD
330
2
100
AcDbEntity
  8
GAIKEI
  6
S10
 62
     1
100
AcDbLine
 10
-15.16361938738265
 20
20.37076900248712
 30
0.0
 11
-14.94693346962259
 21
20.37076900248712
 31
0.0
  0
LINE
  5
1AE
330
2
100
AcDbEntity
  8
GAIKEI
  6
S10
 62
     1
100
AcDbLine
 10
-15.16361938738265
 20
20.25390662004671
 30
0.0
 11
-14.94693346962259
 21
20.25390662004671
 31
0.0
  0
LINE
  5
1AF
330
2
100
AcDbEntity
  8
GAIKEI
  6
S10
 62
     1
100
AcDbLine
 10
-14.94693346962259
 20
20.80414083800713
 30
0.0
 11
-14.94693346962259
 21
20.20408752728713
 31
0.0
  0
LINE
  5
1B0
330
2
100
AcDbEntity
  8
GAIKEI
  6
S10
 62
     1
100
AcDbLine
 10
-14.90692991557461
 20
20.80414083800713
 30
0.0
 11
-14.94693346962259
 21
20.80414083800713
 31
0.0
  0
LINE
  5
1B1
330
2
100
AcDbEntity
  8
GAIKEI
  6
S10
 62
     1
100
AcDbLine
 10
-14.94693346962259
 20
20.20408752728713
 30
0.0
 11
-14.90692991557461
 21
20.20408752728713
 31
0.0
  0
LINE
  5
1B2
330
2
100
AcDbEntity
  8
GAIKEI
  6
S10
 62
     1
100
AcDbLine
 10
-15.16361938738265
 20
20.75432141188461
 30
0.0
 11
-15.16361938738265
 21
20.25390662004671
 31
0.0
  0
LINE
  5
1B3
330
2
100
AcDbEntity
  8
GAIKEI
  6
S10
 62
     1
100
AcDbLine
 10
-11.67997655570258
 20
20.75432141188461
 30
0.0
 11
-11.89666247346258
 21
20.75432141188461
 31
0.0
  0
LINE
  5
1B4
330
2
100
AcDbEntity
  8
GAIKEI
  6
S10
 62
     1
100
AcDbLine
 10
-11.89666247346258
 20
20.63745936280714
 30
0.0
 11
-11.67997655570258
 21
20.63745936280714
 31
0.0
  0
LINE
  5
1B5
330
2
100
AcDbEntity
  8
GAIKEI
  6
S10
 62
     1
100
AcDbLine
 10
-11.67997655570258
 20
20.37076900248712
 30
0.0
 11
-11.89666247346258
 21
20.37076900248712
 31
0.0
  0
LINE
  5
1B6
330
2
100
AcDbEntity
  8
GAIKEI
  6
S10
 62
     1
100
AcDbLine
 10
-11.67997655570258
 20
20.25390662004671
 30
0.0
 11
-11.89666247346258
 21
20.25390662004671
 31
0.0
  0
LINE
  5
1B7
330
2
100
AcDbEntity
  8
GAIKEI
  6
S10
 62
     1
100
AcDbLine
 10
-11.89666247346258
 20
20.80414083800713
 30
0.0
 11
-11.89666247346258
 21
20.20408752728713
 31
0.0
  0
LINE
  5
1B8
330
2
100
AcDbEntity
  8
GAIKEI
  6
S10
 62
     1
100
AcDbLine
 10
-11.93666602751057
 20
20.80414083800713
 30
0.0
 11
-11.89666247346258
 21
20.80414083800713
 31
0.0
  0
LINE
  5
1B9
330
2
100
AcDbEntity
  8
GAIKEI
  6
S10
 62
     1
100
AcDbLine
 10
-11.89666247346258
 20
20.20408752728713
 30
0.0
 11
-11.93666602751057
 21
20.20408752728713
 31
0.0
  0
LINE
  5
1BA
330
2
100
AcDbEntity
  8
GAIKEI
  6
S10
 62
     1
100
AcDbLine
 10
-11.67997655570258
 20
20.75432141188461
 30
0.0
 11
-11.67997655570258
 21
20.25390662004671
 31
0.0
  0
LINE
  5
1BB
330
2
100
AcDbEntity
  8
GAIKEI
  6
S10
 62
     1
100
AcDbLine
 10
-14.90692991557461
 20
20.80414083800713
 30
0.0
 11
-14.90692991557461
 21
20.20408752728713
 31
0.0
  0
LINE
  5
1BC
330
2
100
AcDbEntity
  8
GAIKEI
  6
S10
 62
     1
100
AcDbLine
 10
-11.93666602751057
 20
20.80414083800713
 30
0.0
 11
-11.93666602751057
 21
20.20408752728713
 31
0.0
  0
ELLIPSE
  5
1BD
330
2
100
AcDbEntity
  8
GAIKEI
  6
Continuous
 62
     1
100
AcDbEllipse
 10
-33.48381538083208
 20
25.55530011636733
 30
0.0
 11
-0.0052978427251001
 21
0.2879170138793281
 31
0.0
210
0.0
220
0.0
230
1.0
 40
0.0404429999982056
 41
4.285401047309302
 42
4.371811220306485
  0
ELLIPSE
  5
1BE
330
2
100
AcDbEntity
  8
GAIKEI
  6
Continuous
 62
     1
100
AcDbEllipse
 10
-33.48381538083208
 20
1.631134275051294
 30
0.0
 11
0.0052978427251001
 21
0.2879170138793289
 31
0.0
210
0.0
220
0.0
230
1.0
 40
0.0404429999982055
 41
-1.230218566716693
 42
-1.143808393719511
  0
ELLIPSE
  5
1BF
330
2
100
AcDbEntity
  8
GAIKEI
  6
Continuous
 62
     1
100
AcDbEllipse
 10
-33.43387947769469
 20
25.60523601950473
 30
0.0
 11
-0.2879170138797297
 21
0.0052978427250935
 31
0.0
210
0.0
220
0.0
230
1.0
 40
0.0404429999981596
 41
1.911374086872534
 42
1.997784259869754
  0
ELLIPSE
  5
1C0
330
2
100
AcDbEntity
  8
GAIKEI
  6
Continuous
 62
     1
100
AcDbEllipse
 10
-33.43387947769469
 20
1.581198371913899
 30
0.0
 11
0.2879170138799391
 21
0.0052978427250901
 31
0.0
210
0.0
220
0.0
230
1.0
 40
0.0404429999981356
 41
1.143808393720369
 42
1.23021856671755
  0
ELLIPSE
  5
1C1
330
2
100
AcDbEntity
  8
GAIKEI
  6
Continuous
 62
     1
100
AcDbEllipse
 10
6.740228322866073
 20
1.631134275051294
 30
0.0
 11
-0.0052978427254085
 21
0.2879170138543368
 31
0.0
210
0.0
220
0.0
230
1.0
 40
0.0404430000012197
 41
1.14380839367993
 42
1.230218566685839
  0
ELLIPSE
  5
1C2
330
2
100
AcDbEntity
  8
GAIKEI
  6
Continuous
 62
     1
100
AcDbEllipse
 10
6.740228322866073
 20
25.55530011636733
 30
0.0
 11
0.0052978427250493
 21
0.2879170138793219
 31
0.0
210
0.0
220
0.0
230
1.0
 40
0.0404429999982778
 41
1.911374086873103
 42
1.997784259870286
  0
ELLIPSE
  5
1C3
330
2
100
AcDbEntity
  8
GAIKEI
  6
Continuous
 62
     1
100
AcDbEllipse
 10
6.690292419728734
 20
25.60523601950473
 30
0.0
 11
0.2879170138798924
 21
0.005297842725091
 31
0.0
210
0.0
220
0.0
230
1.0
 40
0.0404429999981408
 41
4.285401047310096
 42
4.371811220307267
  0
ELLIPSE
  5
1C4
330
2
100
AcDbEntity
  8
GAIKEI
  6
Continuous
 62
     1
100
AcDbEllipse
 10
6.690292419728734
 20
1.581198371913899
 30
0.0
 11
-0.2879170138799422
 21
0.0052978427250903
 31
0.0
210
0.0
220
0.0
230
1.0
 40
0.0404429999981349
 41
-1.230218566717536
 42
-1.143808393720374
  0
ELLIPSE
  5
1C5
330
2
100
AcDbEntity
  8
GAIKEI
  6
Continuous
 62
     1
100
AcDbEllipse
 10
-31.76024305296801
 20
23.90666591292066
 30
0.0
 11
-0.0427537848529118
 21
0.0546568828203793
 31
0.0
210
0.0
220
0.0
230
1.0
 40
0.960211999995565
 41
-0.6513938851084821
 42
-0.3742724761095297
  0
ELLIPSE
  5
1C6
330
2
100
AcDbEntity
  8
GAIKEI
  6
Continuous
 62
     1
100
AcDbEllipse
 10
5.016655995001997
 20
23.90666591292066
 30
0.0
 11
0.0427537848527262
 21
0.0546568828205145
 31
0.0
210
0.0
220
0.0
230
1.0
 40
0.9602119999955242
 41
0.3742724761062375
 42
0.6513938851051569
  0
ELLIPSE
  5
1C7
330
2
100
AcDbEntity
  8
GAIKEI
  6
Continuous
 62
     1
100
AcDbEllipse
 10
-31.76024305296801
 20
3.27976847849797
 30
0.0
 11
0.0427537848582486
 21
0.0546568828163674
 31
0.0
210
0.0
220
0.0
230
1.0
 40
0.9602120000005857
 41
3.515865129796059
 42
3.792986538793065
  0
ELLIPSE
  5
1C8
330
2
100
AcDbEntity
  8
GAIKEI
  6
Continuous
 62
     1
100
AcDbEllipse
 10
5.016655995001997
 20
3.27976847849797
 30
0.0
 11
-0.042753784866503
 21
0.0546568828102033
 31
0.0
210
0.0
220
0.0
230
0.9999999999999996
 40
0.9602120000078178
 41
2.490198768239826
 42
2.767320177232909
  0
ELLIPSE
  5
1C9
330
2
100
AcDbEntity
  8
GAIKEI
  6
Continuous
 62
     1
100
AcDbEllipse
 10
-31.76023575231937
 20
23.90665861227205
 30
0.0
 11
-0.05471957312403
 21
0.042691791412705
 31
0.0
210
0.0
220
0.0
230
1.0
 40
0.9600420000005415
 41
0.3752614365549947
 42
0.6500607537665788
  0
ELLIPSE
  5
1CA
330
2
100
AcDbEntity
  8
GAIKEI
  6
Continuous
 62
     1
100
AcDbEllipse
 10
-31.76023575231937
 20
3.279775779146575
 30
0.0
 11
0.054719573126713
 21
0.0426917914091056
 31
0.0
210
0.0
220
0.0
230
1.0
 40
0.9600419999976159
 41
2.491531899886615
 42
2.766331217099247
  0
ELLIPSE
  5
1CB
330
2
100
AcDbEntity
  8
GAIKEI
  6
Continuous
 62
     1
100
AcDbEllipse
 10
5.01664869435342
 20
23.90665861227205
 30
0.0
 11
0.0547195731240741
 21
0.0426917914126376
 31
0.0
210
0.0
220
0.0
230
1.0
 40
0.9600420000007662
 41
-0.6500607537652972
 42
-0.3752614365537126
  0
ELLIPSE
  5
1CC
330
2
100
AcDbEntity
  8
GAIKEI
  6
Continuous
 62
     1
100
AcDbEllipse
 10
5.01664869435342
 20
3.279775779146575
 30
0.0
 11
-0.0547195731247495
 21
0.0426917914117292
 31
0.0
210
0.0
220
0.0
230
1.0
 40
0.9600419999999962
 41
3.516854090128136
 42
3.791653407339537
  0
ELLIPSE
  5
1CD
330
2
100
AcDbEntity
  8
GAIKEI
  6
Continuous
 62
     1
100
AcDbEllipse
 10
5.016655995001997
 20
3.2815944407225
 30
0.0
 11
-0.0607808270033003
 21
0.0822184915853297
 31
0.0
210
0.0
220
0.0
230
1.0
 40
0.9776259999984945
 41
2.515781018572056
 42
2.792902427569963
  0
ELLIPSE
  5
1CE
330
2
100
AcDbEntity
  8
GAIKEI
  6
Continuous
 62
     1
100
AcDbEllipse
 10
-31.76024305296801
 20
3.2815944407225
 30
0.0
 11
0.0607808269967871
 21
0.0822184915900438
 31
0.0
210
0.0
220
0.0
230
1.0
 40
0.977625999995409
 41
3.490282879530687
 42
3.767404288529979
  0
ELLIPSE
  5
1CF
330
2
100
AcDbEntity
  8
GAIKEI
  6
Continuous
 62
     1
100
AcDbEllipse
 10
-31.76024305296801
 20
23.90483995069616
 30
0.0
 11
-0.0607808270158121
 21
0.082218491576272
 31
0.0
210
0.0
220
0.0
230
0.9999999999999998
 40
0.9776260000034472
 41
-0.625811635167389
 42
-0.3486902261722637
  0
ELLIPSE
  5
1D0
330
2
100
AcDbEntity
  8
GAIKEI
  6
Continuous
 62
     1
100
AcDbEllipse
 10
5.016655995001997
 20
23.90483995069616
 30
0.0
 11
0.0607808270141988
 21
0.0822184915774339
 31
0.0
210
0.0
220
0.0
230
1.0
 40
0.9776260000029461
 41
0.3486902261527096
 42
0.6258116351479744
  0
ELLIPSE
  5
1D1
330
2
100
AcDbEntity
  8
GAIKEI
  6
Continuous
 62
     1
100
AcDbEllipse
 10
-31.7583831877314
 20
3.279775779146575
 30
0.0
 11
0.0823124171870749
 21
0.0606728015078452
 31
0.0
210
0.0
220
0.0
230
1.0
 40
0.9775040000002562
 41
2.517225752813203
 42
2.792025070024934
  0
ELLIPSE
  5
1D2
330
2
100
AcDbEntity
  8
GAIKEI
  6
Continuous
 62
     1
100
AcDbEllipse
 10
-31.7583831877314
 20
23.90665861227205
 30
0.0
 11
-0.0823124171911972
 21
0.0606728015020962
 31
0.0
210
0.0
220
0.0
230
1.0
 40
0.9775039999983139
 41
0.3495675834948664
 42
0.6243669007078401
  0
ELLIPSE
  5
1D3
330
2
100
AcDbEntity
  8
GAIKEI
  6
Continuous
 62
     1
100
AcDbEllipse
 10
5.014796129765443
 20
23.90665861227205
 30
0.0
 11
0.0823124171885619
 21
0.0606728015057627
 31
0.0
210
0.0
220
0.0
230
1.0
 40
0.9775039999996579
 41
-0.6243669007516715
 42
-0.349567583539371
  0
ELLIPSE
  5
1D4
330
2
100
AcDbEntity
  8
GAIKEI
  6
Continuous
 62
     1
100
AcDbEllipse
 10
5.014796129765443
 20
3.279775779146575
 30
0.0
 11
-0.0823124171856117
 21
0.0606728015098772
 31
0.0
210
0.0
220
0.0
230
1.0
 40
0.9775040000007887
 41
3.491160237179388
 42
3.765959554391168
  0
ELLIPSE
  5
1D5
330
2
100
AcDbEntity
  8
GAIKEI
  6
Continuous
 62
     1
100
AcDbEllipse
 10
-33.43387947769469
 20
25.55530011636733
 30
0.0
 11
0.3230407423546598
 21
0.0305357091463026
 31
0.0
210
0.0
220
0.0
230
1.0
 40
0.0083089999813824
 41
1.192616585226102
 42
1.279026757979404
  0
ELLIPSE
  5
1D6
330
2
100
AcDbEntity
  8
GAIKEI
  6
Continuous
 62
     1
100
AcDbEllipse
 10
-33.43387947769469
 20
25.55530011636733
 30
0.0
 11
0.0305357090498701
 21
0.3230407412646187
 31
0.0
210
0.0
220
0.0
230
1.0
 40
0.0083090000057821
 41
1.862565896623444
 42
1.948976069703653
  0
ELLIPSE
  5
1D7
330
2
100
AcDbEntity
  8
GAIKEI
  6
Continuous
 62
     1
100
AcDbEllipse
 10
-33.43387947769469
 20
1.631134275051294
 30
0.0
 11
-0.030535709049866
 21
0.3230407412645781
 31
0.0
210
0.0
220
0.0
230
1.0
 40
0.0083090000057778
 41
1.192616583886016
 42
1.279026756966244
  0
ELLIPSE
  5
1D8
330
2
100
AcDbEntity
  8
GAIKEI
  6
Continuous
 62
     1
100
AcDbEllipse
 10
-33.43387947769469
 20
1.631134275051294
 30
0.0
 11
-0.3230407423546608
 21
0.0305357091463026
 31
0.0
210
0.0
220
0.0
230
1.0
 40
0.0083089999813824
 41
1.862565895610391
 42
1.948976068363679
  0
ELLIPSE
  5
1D9
330
2
100
AcDbEntity
  8
GAIKEI
  6
Continuous
 62
     1
100
AcDbEllipse
 10
6.690292419728734
 20
25.55530011636733
 30
0.0
 11
-0.030535709066745
 21
0.3230407414557805
 31
0.0
210
0.0
220
0.0
230
1.0
 40
0.0083090000015409
 41
4.33420923771091
 42
4.420619410733783
  0
ELLIPSE
  5
1DA
330
2
100
AcDbEntity
  8
GAIKEI
  6
Continuous
 62
     1
100
AcDbEllipse
 10
6.690292419728734
 20
25.55530011636733
 30
0.0
 11
-0.3230407423314021
 21
0.0305357091442352
 31
0.0
210
0.0
220
0.0
230
1.0
 40
0.0083089999819134
 41
-1.279026757957789
 42
-1.192616585197497
  0
ELLIPSE
  5
1DB
330
2
100
AcDbEntity
  8
GAIKEI
  6
Continuous
 62
     1
100
AcDbEllipse
 10
6.690292419728734
 20
1.631134275051294
 30
0.0
 11
0.3230407423313618
 21
0.0305357091442317
 31
0.0
210
0.0
220
0.0
230
1.0
 40
0.0083089999819143
 41
4.334209238787228
 42
4.420619411547537
  0
ELLIPSE
  5
1DC
330
2
100
AcDbEntity
  8
GAIKEI
  6
Continuous
 62
     1
100
AcDbEllipse
 10
6.690292419728734
 20
1.631134275051294
 30
0.0
 11
0.0305357090723699
 21
0.3230407415195018
 31
0.0
210
0.0
220
0.0
230
1.0
 40
0.0083090000001242
 41
-1.279026757203155
 42
-1.192616584199406
  0
ELLIPSE
  5
1DD
330
2
100
AcDbEntity
  8
GAIKEI
  6
Continuous
 62
     1
100
AcDbEllipse
 10
6.122464872051978
 20
2.198961822727966
 30
0.0
 11
-0.3876090726745644
 21
0.3876090726745644
 31
0.0
210
0.0
220
0.0
230
1.0
 40
0.4561099999999687
 41
2.756538952252958
 42
3.526646354926537
  0
ELLIPSE
  5
1DE
330
2
100
AcDbEntity
  8
GAIKEI
  6
Continuous
 62
     1
100
AcDbEllipse
 10
-32.86605193001799
 20
2.198961822727966
 30
0.0
 11
0.3876090726745644
 21
0.3876090726745644
 31
0.0
210
0.0
220
0.0
230
1.0
 40
0.4561099999999612
 41
2.756538952253047
 42
3.526646354926617
  0
ELLIPSE
  5
1DF
330
2
100
AcDbEntity
  8
GAIKEI
  6
Continuous
 62
     1
100
AcDbEllipse
 10
6.122464872051978
 20
24.98747256869066
 30
0.0
 11
0.3876090726745562
 21
0.3876090726745562
 31
0.0
210
0.0
220
0.0
230
1.0
 40
0.4561100000000421
 41
5.898131605842833
 42
6.668239008516371
  0
ELLIPSE
  5
1E0
330
2
100
AcDbEntity
  8
GAIKEI
  6
Continuous
 62
     1
100
AcDbEllipse
 10
-32.86605193001799
 20
24.98747256869066
 30
0.0
 11
-0.3876090726745502
 21
0.3876090726745502
 31
0.0
210
0.0
220
0.0
230
1.0
 40
0.4561100000000735
 41
-0.3850537013367683
 42
0.3850537013367188
  0
ARC
  5
1E1
330
2
100
AcDbEntity
  8
GAIKEI
  6
Continuous
 62
     1
100
AcDbCircle
 10
-33.40524003327175
 20
25.5266606719444
 30
0.0
 40
0.133345180160005
100
AcDbArc
 50
179.9215319999867
 51
180.0
  0
ARC
  5
1E2
330
2
100
AcDbEntity
  8
GAIKEI
  6
Continuous
 62
     1
100
AcDbCircle
 10
-33.40524003327175
 20
1.659773719474173
 30
0.0
 40
0.133345180160005
100
AcDbArc
 50
180.0
 51
180.0784680000133
  0
ARC
  5
1E3
330
2
100
AcDbEntity
  8
GAIKEI
  6
Continuous
 62
     1
100
AcDbCircle
 10
6.661652975305742
 20
1.659773719474173
 30
0.0
 40
0.133345180160005
100
AcDbArc
 50
359.9215319999867
 51
0.0
  0
ARC
  5
1E4
330
2
100
AcDbEntity
  8
GAIKEI
  6
Continuous
 62
     1
100
AcDbCircle
 10
6.661652975305742
 20
25.5266606719444
 30
0.0
 40
0.133345180160005
100
AcDbArc
 50
0.0
 51
0.0784680000133352
  0
ARC
  5
1E5
330
2
100
AcDbEntity
  8
GAIKEI
  6
Continuous
 62
     1
100
AcDbCircle
 10
6.661652975305742
 20
25.5266606719444
 30
0.0
 40
0.133345180160005
100
AcDbArc
 50
89.92153200000025
 51
90.0
  0
ARC
  5
1E6
330
2
100
AcDbEntity
  8
GAIKEI
  6
Continuous
 62
     1
100
AcDbCircle
 10
-33.40524003327175
 20
25.5266606719444
 30
0.0
 40
0.133345180160005
100
AcDbArc
 50
90.0
 51
90.07846799999974
  0
ARC
  5
1E7
330
2
100
AcDbEntity
  8
GAIKEI
  6
Continuous
 62
     1
100
AcDbCircle
 10
-33.40524003327175
 20
1.659773719474173
 30
0.0
 40
0.133345180160005
100
AcDbArc
 50
269.9215320000003
 51
270.0
  0
ARC
  5
1E8
330
2
100
AcDbEntity
  8
GAIKEI
  6
Continuous
 62
     1
100
AcDbCircle
 10
6.661652975305742
 20
1.659773719474173
 30
0.0
 40
0.133345180160005
100
AcDbArc
 50
270.0
 51
270.0784679999998
  0
ARC
  5
1E9
330
2
100
AcDbEntity
  8
GAIKEI
  6
Continuous
 62
     7
100
AcDbCircle
 10
-33.40524003327175
 20
1.659773719474173
 30
0.0
 40
0.133345180160005
100
AcDbArc
 50
180.0784680000133
 51
269.9215320000003
  0
ARC
  5
1EA
330
2
100
AcDbEntity
  8
GAIKEI
  6
Continuous
 62
     7
100
AcDbCircle
 10
6.661652975305742
 20
1.659773719474173
 30
0.0
 40
0.133345180160005
100
AcDbArc
 50
270.0784679999998
 51
359.9215319999867
  0
ARC
  5
1EB
330
2
100
AcDbEntity
  8
GAIKEI
  6
Continuous
 62
     7
100
AcDbCircle
 10
-33.40524003327175
 20
25.5266606719444
 30
0.0
 40
0.133345180160005
100
AcDbArc
 50
90.07846799999974
 51
179.9215319999867
  0
ARC
  5
1EC
330
2
100
AcDbEntity
  8
GAIKEI
  6
Continuous
 62
     7
100
AcDbCircle
 10
6.661652975305742
 20
25.5266606719444
 30
0.0
 40
0.133345180160005
100
AcDbArc
 50
0.0784680000133352
 51
89.92153200000025
  0
ARC
  5
1ED
330
2
100
AcDbEntity
  8
GAIKEI
  6
Continuous
 62
     1
100
AcDbCircle
 10
-31.76306453697129
 20
23.90948302986931
 30
0.0
 40
0.0655246547603001
100
AcDbArc
 50
105.7493539999939
 51
164.3805440000058
  0
ARC
  5
1EE
330
2
100
AcDbEntity
  8
GAIKEI
  6
Continuous
 62
     1
100
AcDbCircle
 10
5.019477479005274
 20
23.90948302986931
 30
0.0
 40
0.0655246547603001
100
AcDbArc
 50
15.61945599999415
 51
74.25064600000602
  0
ARC
  5
1EF
330
2
100
AcDbEntity
  8
GAIKEI
  6
Continuous
 62
     1
100
AcDbCircle
 10
-32.36514762802369
 20
2.696532495218235
 30
0.0
 40
0.0666725900800025
100
AcDbArc
 50
180.0
 51
270.0
  0
ARC
  5
1F0
330
2
100
AcDbEntity
  8
GAIKEI
  6
Continuous
 62
     1
100
AcDbCircle
 10
5.621560570057738
 20
2.696532495218235
 30
0.0
 40
0.0666725900800025
100
AcDbArc
 50
270.0
 51
0.0
  0
ARC
  5
1F1
330
2
100
AcDbEntity
  8
GAIKEI
  6
Continuous
 62
     1
100
AcDbCircle
 10
-32.36514762802369
 20
24.48990189620037
 30
0.0
 40
0.0666725900800025
100
AcDbArc
 50
90.0
 51
180.0
  0
ARC
  5
1F2
330
2
100
AcDbEntity
  8
GAIKEI
  6
Continuous
 62
     1
100
AcDbCircle
 10
5.621560570057738
 20
24.48990189620037
 30
0.0
 40
0.0666725900800025
100
AcDbArc
 50
0.0
 51
90.0
  0
ARC
  5
1F3
330
2
100
AcDbEntity
  8
GAIKEI
  6
Continuous
 62
     1
100
AcDbCircle
 10
-31.79676379759172
 20
2.074810592722201
 30
0.0
 40
0.0166681475200006
100
AcDbArc
 50
90.0
 51
180.0
  0
ARC
  5
1F4
330
2
100
AcDbEntity
  8
GAIKEI
  6
Continuous
 62
     1
100
AcDbCircle
 10
-31.59674602735169
 20
2.074810592722201
 30
0.0
 40
0.0166681475200006
100
AcDbArc
 50
0.0
 51
90.0
  0
ARC
  5
1F5
330
2
100
AcDbEntity
  8
GAIKEI
  6
Continuous
 62
     1
100
AcDbCircle
 10
-31.79676379759172
 20
1.874792822482191
 30
0.0
 40
0.0166681475200006
100
AcDbArc
 50
180.0
 51
270.0
  0
ARC
  5
1F6
330
2
100
AcDbEntity
  8
GAIKEI
  6
Continuous
 62
     1
100
AcDbCircle
 10
-31.59674602735169
 20
1.874792822482191
 30
0.0
 40
0.0166681475200006
100
AcDbArc
 50
270.0
 51
0.0
  0
ARC
  5
1F7
330
2
100
AcDbEntity
  8
GAIKEI
  6
Continuous
 62
     1
100
AcDbCircle
 10
5.621560570057738
 20
24.48990189620037
 30
0.0
 40
0.1346545964928812
100
AcDbArc
 50
0.0
 51
90.0
  0
ARC
  5
1F8
330
2
100
AcDbEntity
  8
GAIKEI
  6
Continuous
 62
     1
100
AcDbCircle
 10
5.621560570057738
 20
2.696532495218235
 30
0.0
 40
0.1346545964928812
100
AcDbArc
 50
270.0
 51
0.0
  0
ARC
  5
1F9
330
2
100
AcDbEntity
  8
GAIKEI
  6
Continuous
 62
     1
100
AcDbCircle
 10
-32.36514762802369
 20
24.48990189620037
 30
0.0
 40
0.1346545964928812
100
AcDbArc
 50
90.0
 51
180.0
  0
ARC
  5
1FA
330
2
100
AcDbEntity
  8
GAIKEI
  6
Continuous
 62
     1
100
AcDbCircle
 10
-32.36514762802369
 20
2.696532495218235
 30
0.0
 40
0.1346545964928812
100
AcDbArc
 50
180.0
 51
270.0
  0
LINE
  5
1FB
330
2
100
AcDbEntity
  8
GAIKEI
  6
Continuous
 62
     7
100
AcDbLine
 10
-33.53858521343176
 20
25.5266606719444
 30
0.0
 11
-33.53858521343176
 21
1.659773719474173
 31
0.0
  0
LINE
  5
1FC
330
2
100
AcDbEntity
  8
GAIKEI
  6
Continuous
 62
     7
100
AcDbLine
 10
6.794998155465748
 20
25.5266606719444
 30
0.0
 11
6.794998155465748
 21
1.659773719474173
 31
0.0
  0
LINE
  5
1FD
330
2
100
AcDbEntity
  8
GAIKEI
  6
Continuous
 62
     7
100
AcDbLine
 10
-33.40524003327175
 20
25.66000585210441
 30
0.0
 11
6.661652975305742
 21
25.66000585210441
 31
0.0
  0
LINE
  5
1FE
330
2
100
AcDbEntity
  8
GAIKEI
  6
Continuous
 62
     7
100
AcDbLine
 10
-33.40524003327175
 20
1.526428539314167
 30
0.0
 11
6.661652975305742
 21
1.526428539314167
 31
0.0
  0
LINE
  5
1FF
330
2
100
AcDbEntity
  8
GAIKEI
  6
Continuous
 62
     1
100
AcDbLine
 10
-33.47107044853016
 20
1.727105768142678
 30
0.0
 11
-33.53858508008659
 21
1.659591103249965
 31
0.0
  0
LINE
  5
200
330
2
100
AcDbEntity
  8
GAIKEI
  6
Continuous
 62
     1
100
AcDbLine
 10
-33.40542264949596
 20
1.526428672659363
 30
0.0
 11
-33.33790798460331
 21
1.59394330421577
 31
0.0
  0
LINE
  5
201
330
2
100
AcDbEntity
  8
GAIKEI
  6
Continuous
 62
     1
100
AcDbLine
 10
-33.33790798460331
 20
25.5924910872028
 30
0.0
 11
-33.40542264949596
 21
25.66000571875924
 31
0.0
  0
LINE
  5
202
330
2
100
AcDbEntity
  8
GAIKEI
  6
Continuous
 62
     1
100
AcDbLine
 10
-33.53858508008659
 20
25.52684328816864
 30
0.0
 11
-33.47107044853016
 21
25.45932862327592
 31
0.0
  0
LINE
  5
203
330
2
100
AcDbEntity
  8
GAIKEI
  6
Continuous
 62
     1
100
AcDbLine
 10
6.594320926637294
 20
25.5924910872028
 30
0.0
 11
6.661835591530007
 21
25.66000571875924
 31
0.0
  0
LINE
  5
204
330
2
100
AcDbEntity
  8
GAIKEI
  6
Continuous
 62
     1
100
AcDbLine
 10
6.79499802212058
 20
25.52684328816864
 30
0.0
 11
6.727483390564145
 21
25.45932862327592
 31
0.0
  0
LINE
  5
205
330
2
100
AcDbEntity
  8
GAIKEI
  6
Continuous
 62
     1
100
AcDbLine
 10
-33.47102271095565
 20
25.43625974042675
 30
0.0
 11
-33.47102271095565
 21
1.750174650991823
 31
0.0
  0
LINE
  5
206
330
2
100
AcDbEntity
  8
GAIKEI
  6
Continuous
 62
     1
100
AcDbLine
 10
6.72743565298964
 20
25.43625974042675
 30
0.0
 11
6.72743565298964
 21
1.750174650991823
 31
0.0
  0
LINE
  5
207
330
2
100
AcDbEntity
  8
GAIKEI
  6
Continuous
 62
     1
100
AcDbLine
 10
6.571252043788092
 20
25.5924433496283
 30
0.0
 11
-33.31483910175411
 21
25.5924433496283
 31
0.0
  0
LINE
  5
208
330
2
100
AcDbEntity
  8
GAIKEI
  6
Continuous
 62
     1
100
AcDbLine
 10
-33.31483910175411
 20
1.593991041790275
 30
0.0
 11
6.571252043788092
 21
1.593991041790275
 31
0.0
  0
LINE
  5
209
330
2
100
AcDbEntity
  8
GAIKEI
  6
Continuous
 62
     1
100
AcDbLine
 10
5.018835755325767
 20
23.97502128583795
 30
0.0
 11
-31.76242281329178
 21
23.97502128583795
 31
0.0
  0
LINE
  5
20A
330
2
100
AcDbEntity
  8
GAIKEI
  6
Continuous
 62
     1
100
AcDbLine
 10
-31.76242281329178
 20
3.211413105580618
 30
0.0
 11
5.018835755325767
 21
3.211413105580618
 31
0.0
  0
LINE
  5
20B
330
2
100
AcDbEntity
  8
GAIKEI
  6
Continuous
 62
     1
100
AcDbLine
 10
-31.8286011927978
 20
23.90884844015693
 30
0.0
 11
-31.8286011927978
 21
3.277585951261698
 31
0.0
  0
LINE
  5
20C
330
2
100
AcDbEntity
  8
GAIKEI
  6
Continuous
 62
     1
100
AcDbLine
 10
5.085014134831794
 20
23.90884844015693
 30
0.0
 11
5.085014134831794
 21
3.277585951261698
 31
0.0
  0
LINE
  5
20D
330
2
100
AcDbEntity
  8
GAIKEI
  6
Continuous
 62
     1
100
AcDbLine
 10
5.018835755325767
 20
3.180151228172064
 30
0.0
 11
-31.76242281329178
 21
3.180151228172064
 31
0.0
  0
LINE
  5
20E
330
2
100
AcDbEntity
  8
GAIKEI
  6
Continuous
 62
     1
100
AcDbLine
 10
-31.76242281329178
 20
24.00628316324654
 30
0.0
 11
5.018835755325767
 21
24.00628316324654
 31
0.0
  0
LINE
  5
20F
330
2
100
AcDbEntity
  8
GAIKEI
  6
Continuous
 62
     1
100
AcDbLine
 10
-32.36514762802369
 20
24.55657448628037
 30
0.0
 11
5.621560570057738
 21
24.55657448628037
 31
0.0
  0
LINE
  5
210
330
2
100
AcDbEntity
  8
GAIKEI
  6
Continuous
 62
     1
100
AcDbLine
 10
5.621560570057738
 20
2.629859905138232
 30
0.0
 11
-32.36514762802369
 21
2.629859905138232
 31
0.0
  0
LINE
  5
211
330
2
100
AcDbEntity
  8
GAIKEI
  6
Continuous
 62
     1
100
AcDbLine
 10
-32.43182021810373
 20
2.696532495218235
 30
0.0
 11
-32.43182021810373
 21
24.48990189620037
 31
0.0
  0
LINE
  5
212
330
2
100
AcDbEntity
  8
GAIKEI
  6
Continuous
 62
     1
100
AcDbLine
 10
-31.85983643450664
 20
3.277585951261698
 30
0.0
 11
-31.85983643450664
 21
23.90884844015693
 31
0.0
  0
LINE
  5
213
330
2
100
AcDbEntity
  8
GAIKEI
  6
Continuous
 62
     1
100
AcDbLine
 10
5.688233160137713
 20
2.696532495218235
 30
0.0
 11
5.688233160137713
 21
24.48990189620037
 31
0.0
  0
LINE
  5
214
330
2
100
AcDbEntity
  8
GAIKEI
  6
Continuous
 62
     1
100
AcDbLine
 10
5.116249376540622
 20
3.277585951261698
 30
0.0
 11
5.116249376540622
 21
23.90884844015693
 31
0.0
  0
LINE
  5
215
330
2
100
AcDbEntity
  8
GAIKEI
  6
Continuous
 62
     1
100
AcDbLine
 10
-32.426155881532
 20
2.671864603641182
 30
0.0
 11
-31.85602986298488
 21
3.250329563047387
 31
0.0
  0
LINE
  5
216
330
2
100
AcDbEntity
  8
GAIKEI
  6
Continuous
 62
     1
100
AcDbLine
 10
-31.78990332141763
 20
3.184021605362516
 30
0.0
 11
-32.33607642464387
 21
2.629859905138232
 31
0.0
  0
LINE
  5
217
330
2
100
AcDbEntity
  8
GAIKEI
  6
Continuous
 62
     1
100
AcDbLine
 10
5.682568823565986
 20
2.671864603641182
 30
0.0
 11
5.112442805018872
 21
3.250329563047387
 31
0.0
  0
LINE
  5
218
330
2
100
AcDbEntity
  8
GAIKEI
  6
Continuous
 62
     1
100
AcDbLine
 10
5.046316263451672
 20
3.184021605362516
 30
0.0
 11
5.592489366677909
 21
2.629859905138232
 31
0.0
  0
LINE
  5
219
330
2
100
AcDbEntity
  8
GAIKEI
  6
Continuous
 62
     1
100
AcDbLine
 10
-31.85602986298488
 20
23.93610482837124
 30
0.0
 11
-32.426155881532
 21
24.51456978777742
 31
0.0
  0
LINE
  5
21A
330
2
100
AcDbEntity
  8
GAIKEI
  6
Continuous
 62
     1
100
AcDbLine
 10
-32.33525907262566
 20
24.55574517926868
 30
0.0
 11
-31.78990332141763
 21
24.00241278605609
 31
0.0
  0
LINE
  5
21B
330
2
100
AcDbEntity
  8
GAIKEI
  6
Continuous
 62
     1
100
AcDbLine
 10
5.592489366677909
 20
24.5565744862804
 30
0.0
 11
5.046316263451672
 21
24.00241278605609
 31
0.0
  0
LINE
  5
21C
330
2
100
AcDbEntity
  8
GAIKEI
  6
Continuous
 62
     1
100
AcDbLine
 10
5.112442805018872
 20
23.93610482837124
 30
0.0
 11
5.682568823565986
 21
24.51456978777742
 31
0.0
  0
LINE
  5
21D
330
2
100
AcDbEntity
  8
GAIKEI
  6
Continuous
 62
     1
100
AcDbLine
 10
-33.447648700998
 20
1.750174650991823
 30
0.0
 11
-33.447648700998
 21
25.43625974042675
 31
0.0
  0
LINE
  5
21E
330
2
100
AcDbEntity
  8
GAIKEI
  6
Continuous
 62
     1
100
AcDbLine
 10
-33.31483910175411
 20
25.56906933967065
 30
0.0
 11
6.571252043788092
 21
25.56906933967065
 31
0.0
  0
LINE
  5
21F
330
2
100
AcDbEntity
  8
GAIKEI
  6
Continuous
 62
     1
100
AcDbLine
 10
6.704061643031991
 20
1.750174650991823
 30
0.0
 11
6.704061643031991
 21
25.43625974042675
 31
0.0
  0
LINE
  5
220
330
2
100
AcDbEntity
  8
GAIKEI
  6
Continuous
 62
     1
100
AcDbLine
 10
6.571252043788092
 20
1.617365051747924
 30
0.0
 11
-33.31483910175411
 21
1.617365051747924
 31
0.0
  0
LINE
  5
221
330
2
100
AcDbEntity
  8
GAIKEI
  6
Continuous
 62
     1
100
AcDbLine
 10
-33.447648700998
 20
25.43625974042675
 30
0.0
 11
-33.29168441128155
 21
25.2802954507103
 31
0.0
  0
LINE
  5
222
330
2
100
AcDbEntity
  8
GAIKEI
  6
Continuous
 62
     1
100
AcDbLine
 10
-33.15887481203765
 20
25.4131050499542
 30
0.0
 11
-33.31483910175411
 21
25.56906933967065
 31
0.0
  0
LINE
  5
223
330
2
100
AcDbEntity
  8
GAIKEI
  6
Continuous
 62
     1
100
AcDbLine
 10
-33.31483910175411
 20
1.617365051747924
 30
0.0
 11
-33.15887481203765
 21
1.773329341464432
 31
0.0
  0
LINE
  5
224
330
2
100
AcDbEntity
  8
GAIKEI
  6
Continuous
 62
     1
100
AcDbLine
 10
-33.29168441128155
 20
1.906138940708302
 30
0.0
 11
-33.447648700998
 21
1.750174650991823
 31
0.0
  0
LINE
  5
225
330
2
100
AcDbEntity
  8
GAIKEI
  6
Continuous
 62
     1
100
AcDbLine
 10
6.704061643031991
 20
25.43625974042675
 30
0.0
 11
6.54809735331554
 21
25.2802954507103
 31
0.0
  0
LINE
  5
226
330
2
100
AcDbEntity
  8
GAIKEI
  6
Continuous
 62
     1
100
AcDbLine
 10
6.415287754071641
 20
25.4131050499542
 30
0.0
 11
6.571252043788092
 21
25.56906933967065
 31
0.0
  0
LINE
  5
227
330
2
100
AcDbEntity
  8
GAIKEI
  6
Continuous
 62
     1
100
AcDbLine
 10
6.571252043788092
 20
1.617365051747924
 30
0.0
 11
6.415287754071641
 21
1.773329341464432
 31
0.0
  0
LINE
  5
228
330
2
100
AcDbEntity
  8
GAIKEI
  6
Continuous
 62
     1
100
AcDbLine
 10
6.54809735331554
 20
1.906138940708302
 30
0.0
 11
6.704061643031991
 21
1.750174650991823
 31
0.0
  0
LINE
  5
229
330
2
100
AcDbEntity
  8
GAIKEI
  6
Continuous
 62
     1
100
AcDbLine
 10
-32.80351990779974
 20
1.938131783058224
 30
0.0
 11
-32.87685975688771
 21
1.938131783058224
 31
0.0
  0
LINE
  5
22A
330
2
100
AcDbEntity
  8
GAIKEI
  6
Continuous
 62
     1
100
AcDbLine
 10
-31.58007787983166
 20
2.074810592722201
 30
0.0
 11
-31.58007787983166
 21
1.874792822482191
 31
0.0
  0
LINE
  5
22B
330
2
100
AcDbEntity
  8
GAIKEI
  6
Continuous
 62
     1
100
AcDbLine
 10
-32.87685975688771
 20
1.938131783058224
 30
0.0
 11
-32.87685975688771
 21
2.011471632146196
 31
0.0
  0
LINE
  5
22C
330
2
100
AcDbEntity
  8
GAIKEI
  6
Continuous
 62
     1
100
AcDbLine
 10
-32.87685975688771
 20
2.011471632146196
 30
0.0
 11
-32.80351990779974
 21
2.011471632146196
 31
0.0
  0
LINE
  5
22D
330
2
100
AcDbEntity
  8
GAIKEI
  6
Continuous
 62
     1
100
AcDbLine
 10
-32.80351990779974
 20
2.011471632146196
 30
0.0
 11
-32.80351990779974
 21
1.938131783058224
 31
0.0
  0
LINE
  5
22E
330
2
100
AcDbEntity
  8
GAIKEI
  6
Continuous
 62
     1
100
AcDbLine
 10
-31.59674602735169
 20
1.858124674962198
 30
0.0
 11
-31.79676379759172
 21
1.858124674962198
 31
0.0
  0
LINE
  5
22F
330
2
100
AcDbEntity
  8
GAIKEI
  6
Continuous
 62
     1
100
AcDbLine
 10
-31.81343194511169
 20
1.874792822482191
 30
0.0
 11
-31.81343194511169
 21
2.074810592722201
 31
0.0
  0
LINE
  5
230
330
2
100
AcDbEntity
  8
GAIKEI
  6
Continuous
 62
     1
100
AcDbLine
 10
-31.79676379759172
 20
2.091478740242223
 30
0.0
 11
-31.59674602735169
 21
2.091478740242223
 31
0.0
  0
LINE
  5
231
330
2
100
AcDbEntity
  8
GAIKEI
  6
Continuous
 62
     1
100
AcDbLine
 10
5.621560570057738
 20
24.62455649269327
 30
0.0
 11
-32.36514762802369
 21
24.62455649269327
 31
0.0
  0
LINE
  5
232
330
2
100
AcDbEntity
  8
GAIKEI
  6
Continuous
 62
     1
100
AcDbLine
 10
-32.36514762802369
 20
2.561877898725356
 30
0.0
 11
5.621560570057738
 21
2.561877898725356
 31
0.0
  0
LINE
  5
233
330
2
100
AcDbEntity
  8
GAIKEI
  6
Continuous
 62
     1
100
AcDbLine
 10
5.756215166550589
 20
24.48990189620037
 30
0.0
 11
5.756215166550589
 21
2.696532495218235
 31
0.0
  0
LINE
  5
234
330
2
100
AcDbEntity
  8
GAIKEI
  6
Continuous
 62
     1
100
AcDbLine
 10
-32.4998022245166
 20
24.48990189620037
 30
0.0
 11
-32.4998022245166
 21
2.696532495218235
 31
0.0
  0
LINE
  5
235
330
2
100
AcDbEntity
  8
GAIKEI
  6
Continuous
 62
     1
100
AcDbLine
 10
-33.29168441128155
 20
25.2802954507103
 30
0.0
 11
-33.29168441128155
 21
1.906138940708302
 31
0.0
  0
LINE
  5
236
330
2
100
AcDbEntity
  8
GAIKEI
  6
Continuous
 62
     1
100
AcDbLine
 10
6.415287754071641
 20
25.4131050499542
 30
0.0
 11
-33.15887481203765
 21
25.4131050499542
 31
0.0
  0
LINE
  5
237
330
2
100
AcDbEntity
  8
GAIKEI
  6
Continuous
 62
     1
100
AcDbLine
 10
6.54809735331554
 20
25.2802954507103
 30
0.0
 11
6.54809735331554
 21
1.906138940708302
 31
0.0
  0
LINE
  5
238
330
2
100
AcDbEntity
  8
GAIKEI
  6
Continuous
 62
     1
100
AcDbLine
 10
-33.15887481203765
 20
1.773329341464432
 30
0.0
 11
6.415287754071641
 21
1.773329341464432
 31
0.0
  0
SPLINE
  5
239
330
2
100
AcDbEntity
  8
GAIKEI
  6
Continuous
 62
     1
100
AcDbSpline
210
0.0
220
0.0
230
1.0
 70
     8
 71
     3
 72
    21
 73
    17
 74
    15
 42
0.0000000001
 43
0.0000000001
 44
0.000001
 12
-0.0001490760298766
 22
-0.9999999888881687
 32
0.0
 13
0.9999997489039975
 23
0.0007086550233522
 33
0.0
 40
0.0
 40
0.0
 40
0.0
 40
0.0
 40
0.0146800531684174
 40
0.0294098671609988
 40
0.0440944857460805
 40
0.0587961819046473
 40
0.0735433082183485
 40
0.0882452749644568
 40
0.1031289863564644
 40
0.118059688522961
 40
0.1329432357531999
 40
0.1478756372181092
 40
0.1628556352591396
 40
0.1777879301772668
 40
0.1934470599829982
 40
0.2091023769872298
 40
0.2091023769872298
 40
0.2091023769872298
 40
0.2091023769872298
 10
-33.47107043545276
 20
1.727105752518127
 30
0.0
 10
-33.4710711649341
 20
1.722212401516358
 30
0.0
 10
-33.47053757531166
 20
1.712400158915343
 30
0.0
 10
-33.46811905906577
 20
1.697873932674511
 30
0.0
 10
-33.46412883999139
 20
1.683688159224516
 30
0.0
 10
-33.45855480166932
 20
1.670040601794724
 30
0.0
 10
-33.45152212592675
 20
1.657080012736983
 30
0.0
 10
-33.44308168425241
 20
1.644912615739372
 30
0.0
 10
-33.43327370865154
 20
1.633735176308064
 30
0.0
 10
-33.42224960850251
 20
1.623668157028546
 30
0.0
 10
-33.41016763232492
 20
1.614867545867866
 30
0.0
 10
-33.39714250951494
 20
1.60750068404269
 30
0.0
 10
-33.38336799189264
 20
1.601616898494896
 30
0.0
 10
-33.3687899233079
 20
1.597232005626921
 30
0.0
 10
-33.35357506345278
 20
1.594542964069333
 30
0.0
 10
-33.34312643791887
 20
1.593939619220179
 30
0.0
 10
-33.3379080002278
 20
1.593943317293195
 30
0.0
 11
-33.47107043545276
 21
1.727105752518127
 31
0.0
 11
-33.47027030925324
 21
1.712446954809365
 31
0.0
 11
-33.46785477520768
 21
1.697916540795404
 31
0.0
 11
-33.46386807848785
 21
1.683783432191773
 31
0.0
 11
-33.45831918107649
 21
1.670169088851736
 31
0.0
 11
-33.45128600162667
 21
1.65720711480526
 31
0.0
 11
-33.44289831671586
 21
1.645132547036212
 31
0.0
 11
-33.43308926860317
 21
1.633938436947147
 31
0.0
 11
-33.42206391115292
 21
1.623870268609067
 31
0.0
 11
-33.41002728720253
 21
1.615115822679115
 31
0.0
 11
-33.39703480252513
 21
1.60775562265556
 31
0.0
 11
-33.38325845573394
 21
1.601872322836868
 31
0.0
 11
-33.36895674920083
 21
1.597578681879042
 31
0.0
 11
-33.35353782126754
 21
1.594846393005866
 31
0.0
 11
-33.3379080002278
 21
1.593943317293195
 31
0.0
  0
SPLINE
  5
23A
330
2
100
AcDbEntity
  8
GAIKEI
  6
Continuous
 62
     1
100
AcDbSpline
210
0.0
220
0.0
230
1.0
 70
     8
 71
     3
 72
    21
 73
    17
 74
    15
 42
0.0000000001
 43
0.0000000001
 44
0.000001
 12
0.0001490760298765
 22
-0.9999999888881687
 32
0.0
 13
-0.9999997489039975
 23
0.000708655023352
 33
0.0
 40
0.0
 40
0.0
 40
0.0
 40
0.0
 40
0.0146800531684205
 40
0.0294098671610019
 40
0.0440944857460682
 40
0.0587961819046349
 40
0.0735433082183362
 40
0.0882452749644445
 40
0.103128986356452
 40
0.1180596885229907
 40
0.1329432357531836
 40
0.1478756372180929
 40
0.1628556352591233
 40
0.1777879301772505
 40
0.1934470599829819
 40
0.2091023769872135
 40
0.2091023769872135
 40
0.2091023769872135
 40
0.2091023769872135
 10
6.727483377486805
 20
1.727105752518127
 30
0.0
 10
6.727484106968148
 20
1.722212401516358
 30
0.0
 10
6.726950517345642
 20
1.712400158915329
 30
0.0
 10
6.72453200109976
 20
1.697873932674553
 30
0.0
 10
6.720541782025463
 20
1.683688159224459
 30
0.0
 10
6.71496774370334
 20
1.670040601794752
 30
0.0
 10
6.707935067960818
 20
1.657080012736955
 30
0.0
 10
6.699494626286366
 20
1.6449126157394
 30
0.0
 10
6.6896866506857
 20
1.633735176308022
 30
0.0
 10
6.678662550536387
 20
1.623668157028603
 30
0.0
 10
6.666580574359045
 20
1.614867545867824
 30
0.0
 10
6.653555451548925
 20
1.60750068404269
 30
0.0
 10
6.639780933926772
 20
1.601616898494896
 30
0.0
 10
6.625202865341947
 20
1.597232005626935
 30
0.0
 10
6.609988005486883
 20
1.594542964069319
 30
0.0
 10
6.599539379952915
 20
1.593939619220179
 30
0.0
 10
6.594320942261845
 20
1.593943317293195
 30
0.0
 11
6.727483377486805
 21
1.727105752518127
 31
0.0
 11
6.726683251287226
 21
1.712446954809365
 31
0.0
 11
6.724267717241673
 21
1.697916540795404
 31
0.0
 11
6.720281020521895
 21
1.683783432191773
 31
0.0
 11
6.714732123110536
 21
1.670169088851736
 31
0.0
 11
6.707698943660716
 21
1.65720711480526
 31
0.0
 11
6.699311258749901
 21
1.645132547036212
 31
0.0
 11
6.689502210637215
 21
1.633938436947147
 31
0.0
 11
6.678476853186907
 21
1.623870268609067
 31
0.0
 11
6.66644022923657
 21
1.615115822679115
 31
0.0
 11
6.653447744559173
 21
1.60775562265556
 31
0.0
 11
6.639671397767983
 21
1.601872322836868
 31
0.0
 11
6.62536969123488
 21
1.597578681879042
 31
0.0
 11
6.609950763301583
 21
1.594846393005866
 31
0.0
 11
6.594320942261845
 21
1.593943317293195
 31
0.0
  0
SPLINE
  5
23B
330
2
100
AcDbEntity
  8
GAIKEI
  6
Continuous
 62
     1
100
AcDbSpline
210
0.0
220
0.0
230
1.0
 70
     8
 71
     3
 72
    21
 73
    17
 74
    15
 42
0.0000000001
 43
0.0000000001
 44
0.000001
 12
-0.9999999888881687
 22
0.0001490760296198
 32
0.0
 13
0.0007086550231108
 23
-0.9999997489039976
 33
0.0
 40
0.0
 40
0.0
 40
0.0
 40
0.0
 40
0.0146800531684757
 40
0.0294098671610548
 40
0.0440944857461211
 40
0.0587961819046961
 40
0.0735433082183599
 40
0.0882452749644987
 40
0.1031289863564929
 40
0.1180596885229991
 40
0.1329432357531952
 40
0.1478756372181115
 40
0.1628556352591792
 40
0.1777879301772928
 40
0.1934470599830118
 40
0.2091023769872316
 40
0.2091023769872316
 40
0.2091023769872316
 40
0.2091023769872316
 10
-33.3379080002278
 20
25.59249107412544
 30
0.0
 10
-33.34280135122958
 20
25.59249180360678
 30
0.0
 10
-33.35261359383066
 20
25.59195821398431
 30
0.0
 10
-33.36713982007143
 20
25.58953969773842
 30
0.0
 10
-33.38132559352152
 20
25.58554947866419
 30
0.0
 10
-33.39497315095122
 20
25.57997544034191
 30
0.0
 10
-33.40793374000899
 20
25.5729427645994
 30
0.0
 10
-33.42010113700656
 20
25.56450232292511
 30
0.0
 10
-33.43127857643788
 20
25.55469434732427
 30
0.0
 10
-33.44134559571739
 20
25.54367024717509
 30
0.0
 10
-33.45014620687812
 20
25.53158827099766
 30
0.0
 10
-33.45751306870329
 20
25.51856314818761
 30
0.0
 10
-33.46339685425107
 20
25.50478863056537
 30
0.0
 10
-33.46778174711904
 20
25.49021056198061
 30
0.0
 10
-33.47047078867655
 20
25.47499570212548
 30
0.0
 10
-33.47107413352578
 20
25.46454707659159
 30
0.0
 10
-33.47107043545276
 20
25.4593286389005
 30
0.0
 11
-33.3379080002278
 21
25.59249107412544
 31
0.0
 11
-33.35256679793662
 21
25.59169094792589
 31
0.0
 11
-33.36709721195058
 21
25.58927541388033
 31
0.0
 11
-33.38123032055421
 21
25.58528871716055
 31
0.0
 11
-33.39484466389422
 21
25.57973981974916
 31
0.0
 11
-33.40780663794067
 21
25.57270664029932
 31
0.0
 11
-33.41988120570977
 21
25.56431895538853
 31
0.0
 11
-33.43107531579881
 21
25.55450990727582
 31
0.0
 11
-33.44114348413689
 21
25.54348454982557
 31
0.0
 11
-33.44989793006681
 21
25.53144792587523
 31
0.0
 11
-33.45725813009039
 21
25.51845544119783
 31
0.0
 11
-33.46314142990912
 21
25.50467909440661
 31
0.0
 11
-33.46743507086694
 21
25.49037738787354
 31
0.0
 11
-33.47016735974006
 21
25.47495845994024
 31
0.0
 11
-33.47107043545276
 21
25.4593286389005
 31
0.0
  0
SPLINE
  5
23C
330
2
100
AcDbEntity
  8
GAIKEI
  6
Continuous
 62
     1
100
AcDbSpline
210
0.0
220
0.0
230
1.0
 70
     8
 71
     3
 72
    21
 73
    17
 74
    15
 42
0.0000000001
 43
0.0000000001
 44
0.000001
 12
0.9999999888881687
 22
0.00014907602962
 32
0.0
 13
-0.0007086550231109
 23
-0.9999997489039976
 33
0.0
 40
0.0
 40
0.0
 40
0.0
 40
0.0
 40
0.0146800531684757
 40
0.0294098671610548
 40
0.0440944857460664
 40
0.0587961819046414
 40
0.0735433082183551
 40
0.0882452749644473
 40
0.1031289863564415
 40
0.1180596885229477
 40
0.1329432357531772
 40
0.1478756372180655
 40
0.1628556352591332
 40
0.1777879301772468
 40
0.1934470599829757
 40
0.2091023769871955
 40
0.2091023769871955
 40
0.2091023769871955
 40
0.2091023769871955
 10
6.594320942261845
 20
25.59249107412544
 30
0.0
 10
6.599214293263628
 20
25.59249180360678
 30
0.0
 10
6.609026535864643
 20
25.5919582139843
 30
0.0
 10
6.623552762105532
 20
25.58953969773839
 30
0.0
 10
6.637738535555456
 20
25.58554947866418
 30
0.0
 10
6.651386092985205
 20
25.57997544034189
 30
0.0
 10
6.664346682043031
 20
25.57294276459948
 30
0.0
 10
6.676514079040515
 20
25.56450232292502
 30
0.0
 10
6.687691518471979
 20
25.5546943473243
 30
0.0
 10
6.697758537751326
 20
25.54367024717507
 30
0.0
 10
6.706559148912219
 20
25.5315882709977
 30
0.0
 10
6.713926010737225
 20
25.5185631481876
 30
0.0
 10
6.719809796285034
 20
25.50478863056537
 30
0.0
 10
6.724194689153137
 20
25.49021056198059
 30
0.0
 10
6.72688373071054
 20
25.47499570212547
 30
0.0
 10
6.727487075559821
 20
25.46454707659159
 30
0.0
 10
6.727483377486805
 20
25.4593286389005
 30
0.0
 11
6.594320942261845
 21
25.59249107412544
 31
0.0
 11
6.608979739970664
 21
25.59169094792589
 31
0.0
 11
6.623510153984625
 21
25.58927541388033
 31
0.0
 11
6.637643262588198
 21
25.58528871716055
 31
0.0
 11
6.651257605928208
 21
25.57973981974916
 31
0.0
 11
6.664219579974712
 21
25.57270664029932
 31
0.0
 11
6.67629414774376
 21
25.56431895538853
 31
0.0
 11
6.687488257832796
 21
25.55450990727582
 31
0.0
 11
6.697556426170876
 21
25.54348454982557
 31
0.0
 11
6.706310872100857
 21
25.53144792587523
 31
0.0
 11
6.713671072124384
 21
25.51845544119783
 31
0.0
 11
6.719554371943104
 21
25.50467909440661
 31
0.0
 11
6.72384801290093
 21
25.49037738787354
 31
0.0
 11
6.726580301774106
 21
25.47495845994024
 31
0.0
 11
6.727483377486805
 21
25.4593286389005
 31
0.0
  0
SPLINE
  5
23D
330
2
100
AcDbEntity
  8
GAIKEI
  6
Continuous
 62
     1
100
AcDbSpline
210
0.0
220
0.0
230
1.0
 70
     8
 71
     3
 72
    14
 73
    10
 74
     8
 42
0.0000000001
 43
0.0000000001
 44
0.000001
 12
0.2697836156325394
 22
-0.962920973255975
 32
0.0
 13
0.9616843088117285
 23
-0.2741592423853476
 33
0.0
 40
0.0
 40
0.0
 40
0.0
 40
0.0
 40
0.0000378405968412
 40
0.0111891984537567
 40
0.0223415869632639
 40
0.0334914632169847
 40
0.0446413298613517
 40
0.0558040986430091
 40
0.0669660519622346
 40
0.0669660519622346
 40
0.0669660519622346
 40
0.0669660519622346
 10
-31.826169461566
 20
3.25930904543236
 30
0.0
 10
-31.82616605864166
 20
3.259296899597586
 30
0.0
 10
-31.82515868442684
 20
3.255705796557379
 30
0.0
 10
-31.82251833505396
 20
3.248698056232342
 30
0.0
 10
-31.81688655865026
 20
3.239013435959762
 30
0.0
 10
-31.80966001118927
 20
3.230449427615667
 30
0.0
 10
-31.8011075776746
 20
3.223204929312046
 30
0.0
 10
-31.79142884123388
 20
3.217546523213215
 30
0.0
 10
-31.78442797616074
 20
3.214906656142744
 30
0.0
 10
-31.78084988437314
 20
3.213886605254231
 30
0.0
 11
-31.826169461566
 21
3.25930904543236
 31
0.0
 11
-31.82615924215066
 21
3.259272610549032
 31
0.0
 11
-31.82223940362496
 21
3.248832364251256
 31
0.0
 11
-31.81662091713736
 21
3.239198729166815
 31
0.0
 11
-31.80944016357228
 21
3.230668965577478
 31
0.0
 11
-31.80092458195412
 21
3.223471406452262
 31
0.0
 11
-31.79129277160126
 21
3.217829114428354
 31
0.0
 11
-31.78084988437314
 21
3.213886605254231
 31
0.0
  0
SPLINE
  5
23E
330
2
100
AcDbEntity
  8
GAIKEI
  6
Continuous
 62
     1
100
AcDbSpline
210
0.0
220
0.0
230
1.0
 70
     8
 71
     3
 72
    14
 73
    10
 74
     8
 42
0.0000000001
 43
0.0000000001
 44
0.000001
 12
-0.2697836156325397
 22
-0.962920973255975
 32
0.0
 13
-0.9616843088117285
 23
-0.2741592423853476
 33
0.0
 40
0.0
 40
0.0
 40
0.0
 40
0.0
 40
0.0000378405968686
 40
0.0111891984537575
 40
0.0223415869632647
 40
0.0334914632170221
 40
0.0446413298613456
 40
0.055804098643003
 40
0.0669660519622285
 40
0.0669660519622285
 40
0.0669660519622285
 40
0.0669660519622285
 10
5.082582403600042
 20
3.25930904543236
 30
0.0
 10
5.082579000675707
 20
3.259296899597572
 30
0.0
 10
5.081571626454888
 20
3.25570579655843
 30
0.0
 10
5.078931277090731
 20
3.248698056231859
 30
0.0
 10
5.073299500683617
 20
3.239013435959861
 30
0.0
 10
5.066072953223454
 20
3.230449427615653
 30
0.0
 10
5.057520519708646
 20
3.223204929312061
 30
0.0
 10
5.047841783267898
 20
3.217546523213215
 30
0.0
 10
5.040840918194788
 20
3.214906656142744
 30
0.0
 10
5.037262826407186
 20
3.213886605254231
 30
0.0
 11
5.082582403600042
 21
3.25930904543236
 31
0.0
 11
5.082572184184641
 21
3.259272610549032
 31
0.0
 11
5.078652345659008
 21
3.248832364251256
 31
0.0
 11
5.073033859171403
 21
3.239198729166815
 31
0.0
 11
5.065853105606265
 21
3.230668965577478
 31
0.0
 11
5.057337523988167
 21
3.223471406452262
 31
0.0
 11
5.047705713635309
 21
3.217829114428354
 31
0.0
 11
5.037262826407186
 21
3.213886605254231
 31
0.0
  0
SPLINE
  5
23F
330
2
100
AcDbEntity
  8
GAIKEI
  6
Continuous
 62
     1
100
AcDbSpline
210
0.0
220
0.0
230
1.0
 70
     8
 71
     3
 72
    19
 73
    15
 74
    13
 42
0.0000000001
 43
0.0000000001
 44
0.000001
 12
-0.963993839467831
 22
0.2659245710122877
 32
0.0
 13
-0.26346002757732
 23
0.9646703135625962
 33
0.0
 40
0.0
 40
0.0
 40
0.0
 40
0.0
 40
0.0080455644807581
 40
0.0160915728628373
 40
0.0243810347115529
 40
0.0326706179664451
 40
0.0406926484299212
 40
0.04871473539639
 40
0.0569835490403167
 40
0.0652522942794892
 40
0.073306220283737
 40
0.0813600285367534
 40
0.0896585537562679
 40
0.0979566571399819
 40
0.0979566571399819
 40
0.0979566571399819
 40
0.0979566571399819
 10
-31.78990331181336
 20
3.184021597691582
 30
0.0
 10
-31.79248860334485
 20
3.184734768785943
 30
0.0
 10
-31.7976016583857
 20
3.186380185287774
 30
0.0
 10
-31.80511106853809
 20
3.189511752963881
 30
0.0
 10
-31.81239460513706
 20
3.193319973002047
 30
0.0
 10
-31.81931170746182
 20
3.19774414192561
 30
0.0
 10
-31.82574625446501
 20
3.202698737426587
 30
0.0
 10
-31.83173256868378
 20
3.208176254301946
 30
0.0
 10
-31.83727500714301
 20
3.21421570016956
 30
0.0
 10
-31.84227519900864
 20
3.22072457900407
 30
0.0
 10
-31.84665070024667
 20
3.227583030454866
 30
0.0
 10
-31.85043450579559
 20
3.234796166769569
 30
0.0
 10
-31.85361076247432
 20
3.242385085034413
 30
0.0
 10
-31.85530113727023
 20
3.247661240681011
 30
0.0
 10
-31.85602987678567
 20
3.250329552012061
 30
0.0
 11
-31.78990331181336
 21
3.184021597691582
 31
0.0
 11
-31.79756297361758
 21
3.186484738737618
 31
0.0
 11
-31.80498828962323
 21
3.189583578257213
 31
0.0
 11
-31.81233469349775
 21
3.193423604913192
 31
0.0
 11
-31.81931708745265
 21
3.197891678479493
 31
0.0
 11
-31.8256738930088
 21
3.202784972203204
 31
0.0
 11
-31.8315913629649
 21
3.208201406729187
 31
0.0
 11
-31.83718337415928
 21
3.214292634287801
 31
0.0
 11
-31.84221978457851
 21
3.220850612266218
 31
0.0
 11
-31.84655296187327
 21
3.22763954354167
 31
0.0
 11
-31.8502934716995
 21
3.234772050056619
 31
0.0
 11
-31.85349953352704
 21
3.242426235587089
 31
0.0
 11
-31.85602987678567
 21
3.250329552012061
 31
0.0
  0
SPLINE
  5
240
330
2
100
AcDbEntity
  8
GAIKEI
  6
Continuous
 62
     1
100
AcDbSpline
210
0.0
220
0.0
230
1.0
 70
     8
 71
     3
 72
    19
 73
    15
 74
    13
 42
0.0000000001
 43
0.0000000001
 44
0.000001
 12
0.9639938394678312
 22
0.2659245710122878
 32
0.0
 13
0.26346002757732
 23
0.9646703135625962
 33
0.0
 40
0.0
 40
0.0
 40
0.0
 40
0.0
 40
0.0080455644807581
 40
0.0160915728627848
 40
0.0243810347115005
 40
0.0326706179664405
 40
0.0406926484298716
 40
0.0487147353963403
 40
0.0569835490402671
 40
0.0652522942794742
 40
0.0733062202836914
 40
0.0813600285367342
 40
0.0896585537562706
 40
0.0979566571399674
 40
0.0979566571399674
 40
0.0979566571399674
 40
0.0979566571399674
 10
5.046316253847408
 20
3.184021597691582
 30
0.0
 10
5.048901545378896
 20
3.184734768785943
 30
0.0
 10
5.054014600419748
 20
3.18638018528776
 30
0.0
 10
5.061524010572071
 20
3.189511752963881
 30
0.0
 10
5.068807547171076
 20
3.193319973002061
 30
0.0
 10
5.075724649495896
 20
3.197744141925568
 30
0.0
 10
5.082159196498935
 20
3.202698737426601
 30
0.0
 10
5.088145510717822
 20
3.208176254301946
 30
0.0
 10
5.093687949176995
 20
3.214215700169546
 30
0.0
 10
5.098688141042657
 20
3.220724579004055
 30
0.0
 10
5.103063642280687
 20
3.227583030454866
 30
0.0
 10
5.106847447829636
 20
3.234796166769569
 30
0.0
 10
5.110023704508392
 20
3.242385085034385
 30
0.0
 10
5.111714079304277
 20
3.247661240681026
 30
0.0
 10
5.112442818819715
 20
3.250329552012061
 30
0.0
 11
5.046316253847408
 21
3.184021597691582
 31
0.0
 11
5.053975915651619
 21
3.186484738737618
 31
0.0
 11
5.061401231657214
 21
3.189583578257213
 31
0.0
 11
5.068747635531735
 21
3.193423604913192
 31
0.0
 11
5.075730029486692
 21
3.197891678479493
 31
0.0
 11
5.082086835042787
 21
3.202784972203204
 31
0.0
 11
5.088004304998889
 21
3.208201406729187
 31
0.0
 11
5.09359631619327
 21
3.214292634287801
 31
0.0
 11
5.098632726612549
 21
3.220850612266218
 31
0.0
 11
5.102965903907261
 21
3.22763954354167
 31
0.0
 11
5.106706413733547
 21
3.234772050056619
 31
0.0
 11
5.109912475561145
 21
3.242426235587089
 31
0.0
 11
5.112442818819715
 21
3.250329552012061
 31
0.0
  0
SPLINE
  5
241
330
2
100
AcDbEntity
  8
GAIKEI
  6
Continuous
 62
     1
100
AcDbSpline
210
0.0
220
0.0
230
1.0
 70
     8
 71
     3
 72
    19
 73
    15
 74
    13
 42
0.0000000001
 43
0.0000000001
 44
0.000001
 12
0.2634414923284026
 22
0.9646753755122933
 32
0.0
 13
0.9639886149825482
 23
0.2659435093850355
 33
0.0
 40
0.0
 40
0.0
 40
0.0
 40
0.0
 40
0.0080469836170657
 40
0.0160943919464651
 40
0.0243850109521406
 40
0.0326757504936013
 40
0.0406967337973738
 40
0.0487177849602453
 40
0.0569854589412216
 40
0.0652530764933947
 40
0.0733066642993709
 40
0.0813601339663856
 40
0.0896586163757191
 40
0.0979566568646854
 40
0.0979566568646854
 40
0.0979566568646854
 40
0.0979566568646854
 10
-31.85602987678567
 20
23.93610483940666
 30
0.0
 10
-31.85532324032806
 20
23.93869241505417
 30
0.0
 10
-31.85369083753082
 20
23.94381061714127
 30
0.0
 10
-31.85057872547282
 20
23.95132953534215
 30
0.0
 10
-31.84678960912882
 20
23.95862441481158
 30
0.0
 10
-31.84238411206943
 20
23.9655539187883
 30
0.0
 10
-31.83744747270532
 20
23.97200185271719
 30
0.0
 10
-31.83198736114761
 20
23.9780025870548
 30
0.0
 10
-31.82596424030641
 20
23.98356113447183
 30
0.0
 10
-31.81947003764114
 20
23.98857895435954
 30
0.0
 10
-31.81262424081564
 20
23.99297312737495
 30
0.0
 10
-31.80542168025289
 20
23.99677653266849
 30
0.0
 10
-31.7978414264013
 20
23.99997307007304
 30
0.0
 10
-31.7925697173327
 20
24.00167719039082
 30
0.0
 10
-31.78990331181336
 20
24.00241279372705
 30
0.0
 11
-31.85602987678567
 21
23.93610483940666
 31
0.0
 11
-31.85358623648779
 21
23.94377223025356
 31
0.0
 11
-31.85050657595639
 21
23.95120703633492
 31
0.0
 11
-31.84668583950503
 21
23.95856479493819
 31
0.0
 11
-31.84223620382307
 21
23.96556032354005
 31
0.0
 11
-31.83736107980826
 21
23.9719297557013
 31
0.0
 11
-31.83196181646713
 21
23.97786149671549
 31
0.0
 11
-31.82588706504748
 21
23.98346972204371
 31
0.0
 11
-31.81934405796977
 21
23.98852372203959
 31
0.0
 11
-31.81256743851907
 21
23.99287550270845
 31
0.0
 11
-31.80544547655455
 21
23.99663532567294
 31
0.0
 11
-31.79779994289123
 21
23.99986185584592
 31
0.0
 11
-31.78990331181336
 21
24.00241279372705
 31
0.0
  0
SPLINE
  5
242
330
2
100
AcDbEntity
  8
GAIKEI
  6
Continuous
 62
     1
100
AcDbSpline
210
0.0
220
0.0
230
1.0
 70
     8
 71
     3
 72
    19
 73
    15
 74
    13
 42
0.0000000001
 43
0.0000000001
 44
0.000001
 12
-0.2634414923284028
 22
0.9646753755122933
 32
0.0
 13
-0.9639886149825482
 23
0.2659435093850356
 33
0.0
 40
0.0
 40
0.0
 40
0.0
 40
0.0
 40
0.0080469836170484
 40
0.0160943919464478
 40
0.0243850109521233
 40
0.032675750493584
 40
0.0406967337973566
 40
0.0487177849602281
 40
0.0569854589412043
 40
0.0652530764933774
 40
0.0733066642993536
 40
0.0813601339663683
 40
0.0896586163757019
 40
0.0979566568646681
 40
0.0979566568646681
 40
0.0979566568646681
 40
0.0979566568646681
 10
5.112442818819658
 20
23.93610483940666
 30
0.0
 10
5.111736182362051
 20
23.93869241505417
 30
0.0
 10
5.110103779564923
 20
23.94381061714127
 30
0.0
 10
5.106991667506804
 20
23.95132953534217
 30
0.0
 10
5.103202551162866
 20
23.9586244148116
 30
0.0
 10
5.098797054103528
 20
23.96555391878833
 30
0.0
 10
5.093860414739253
 20
23.97200185271719
 30
0.0
 10
5.0884003031816
 20
23.9780025870548
 30
0.0
 10
5.082377182340451
 20
23.98356113447186
 30
0.0
 10
5.075882979675299
 20
23.9885789543595
 30
0.0
 10
5.069037182849626
 20
23.99297312737497
 30
0.0
 10
5.06183462228688
 20
23.99677653266849
 30
0.0
 10
5.054254368435408
 20
23.99997307007304
 30
0.0
 10
5.048982659366743
 20
24.00167719039082
 30
0.0
 10
5.046316253847408
 20
24.00241279372705
 30
0.0
 11
5.112442818819658
 21
23.93610483940666
 31
0.0
 11
5.109999178521832
 21
23.94377223025356
 31
0.0
 11
5.106919517990434
 21
23.95120703633492
 31
0.0
 11
5.103098781539074
 21
23.95856479493819
 31
0.0
 11
5.098649145857109
 21
23.96556032354005
 31
0.0
 11
5.093774021842307
 21
23.9719297557013
 31
0.0
 11
5.088374758501174
 21
23.97786149671549
 31
0.0
 11
5.082300007081528
 21
23.98346972204371
 31
0.0
 11
5.075757000003818
 21
23.98852372203959
 31
0.0
 11
5.068980380553114
 21
23.99287550270845
 31
0.0
 11
5.061858418588599
 21
23.99663532567294
 31
0.0
 11
5.054212884925277
 21
23.99986185584592
 31
0.0
 11
5.046316253847408
 21
24.00241279372705
 31
0.0
  0
SPLINE
  5
243
330
2
100
AcDbEntity
  8
GAIKEI
  6
Continuous
 62
     1
100
AcDbSpline
210
0.0
220
0.0
230
1.0
 70
     8
 71
     3
 72
    19
 73
    15
 74
    13
 42
0.0000000001
 43
0.0000000001
 44
0.000001
 12
0.0944471245025448
 22
0.9955298793472755
 32
0.0
 13
0.9955257326591484
 23
0.0944908229060694
 33
0.0
 40
0.0
 40
0.0
 40
0.0
 40
0.0
 40
0.0114746607580177
 40
0.0229538204373724
 40
0.0343591230295864
 40
0.0457936629856653
 40
0.0572035280088703
 40
0.0746287115525523
 40
0.0920556101582164
 40
0.1090656328910511
 40
0.1260693628544404
 40
0.1369222365398771
 40
0.1478018299471676
 40
0.1586464376140127
 40
0.1586464376140127
 40
0.1586464376140127
 40
0.1586464376140127
 10
-33.44523377594851
 20
25.46262126210172
 30
0.0
 10
-33.44487252637743
 20
25.46642905131505
 30
0.0
 10
-33.44373527039218
 20
25.47401419807324
 30
0.0
 10
-33.44077627304967
 20
25.48510092551278
 30
0.0
 10
-33.43668333428909
 20
25.49580429733069
 30
0.0
 10
-33.43156334878128
 20
25.50602872804666
 30
0.0
 10
-33.42442919597676
 20
25.51742093375938
 30
0.0
 10
-33.41471692195674
 20
25.52946810893985
 30
0.0
 10
-33.40207344910672
 20
25.54133938132728
 30
0.0
 10
-33.38801323287896
 20
25.55124747001936
 30
0.0
 10
-33.37465668514216
 20
25.55809970426984
 30
0.0
 10
-33.36251229484231
 20
25.56254036092665
 30
0.0
 10
-33.35197944866343
 20
25.565257370925
 30
0.0
 10
-33.34479931876001
 20
25.5663128426537
 30
0.0
 10
-33.34120062342902
 20
25.56665441462121
 30
0.0
 11
-33.44523377594851
 21
25.46262126210172
 31
0.0
 11
-33.44352603408464
 21
25.47396902201865
 31
0.0
 11
-33.4405791561864
 21
25.48506360605748
 31
0.0
 11
-33.43651461957416
 21
25.49572012908621
 31
0.0
 11
-33.43140126297226
 21
25.5059476500789
 31
0.0
 11
-33.42534698223233
 21
25.51561868116727
 31
0.0
 11
-33.41442295739171
 21
25.5291939464428
 31
0.0
 11
-33.40171228391262
 21
25.54111504055879
 31
0.0
 11
-33.38780524454171
 21
25.55090935265801
 31
0.0
 11
-33.37266240321094
 21
25.55864379026929
 31
0.0
 11
-33.36246852647901
 21
25.56236806694907
 31
0.0
 11
-33.35192989885428
 21
25.56507090034358
 31
0.0
 11
-33.34120062342902
 21
25.56665441462121
 31
0.0
  0
SPLINE
  5
244
330
2
100
AcDbEntity
  8
GAIKEI
  6
Continuous
 62
     1
100
AcDbSpline
210
0.0
220
0.0
230
1.0
 70
     8
 71
     3
 72
    19
 73
    15
 74
    13
 42
0.0000000001
 43
0.0000000001
 44
0.000001
 12
-0.995529879347374
 22
0.0944471245015059
 32
0.0
 13
-0.0944908229060039
 23
0.9955257326591544
 33
0.0
 40
0.0
 40
0.0
 40
0.0
 40
0.0
 40
0.011474660758024
 40
0.0229538204374025
 40
0.0343591230296083
 40
0.0457936629856873
 40
0.0572035280088863
 40
0.0746287115525994
 40
0.0920556101582446
 40
0.1090656328910806
 40
0.1260693628544956
 40
0.1369222365398643
 40
0.1478018299471823
 40
0.1586464376139972
 40
0.1586464376139972
 40
0.1586464376139972
 40
0.1586464376139972
 10
-33.34120062342902
 20
1.619779976797417
 30
0.0
 10
-33.34500841264236
 20
1.620141226368488
 30
0.0
 10
-33.35259355940053
 20
1.621278482353815
 30
0.0
 10
-33.36368028684012
 20
1.62423747969629
 30
0.0
 10
-33.37438365865796
 20
1.628330418456883
 30
0.0
 10
-33.38460808937398
 20
1.633450403964531
 30
0.0
 10
-33.39600029508665
 20
1.640584556769312
 30
0.0
 10
-33.40804747026721
 20
1.650296830789173
 30
0.0
 10
-33.41991874265452
 20
1.662940303639331
 30
0.0
 10
-33.4298268313467
 20
1.677000519866965
 30
0.0
 10
-33.43667906559716
 20
1.690357067603827
 30
0.0
 10
-33.44111972225397
 20
1.70250145790365
 30
0.0
 10
-33.44383673225229
 20
1.713034304082469
 30
0.0
 10
-33.444892203981
 20
1.720214433985944
 30
0.0
 10
-33.44523377594851
 20
1.723813129316908
 30
0.0
 11
-33.34120062342902
 21
1.619779976797417
 31
0.0
 11
-33.35254838334595
 21
1.621487718661313
 31
0.0
 11
-33.36364296738481
 21
1.624434596559552
 31
0.0
 11
-33.37429949041354
 21
1.628499133171828
 31
0.0
 11
-33.38452701140625
 21
1.633612489773668
 31
0.0
 11
-33.39419804249457
 21
1.639666770513656
 31
0.0
 11
-33.40777330777013
 21
1.650590795354275
 31
0.0
 11
-33.41969440188609
 21
1.663301468833367
 31
0.0
 11
-33.42948871398534
 21
1.677208508204273
 31
0.0
 11
-33.43722315159664
 21
1.692351349535044
 31
0.0
 11
-33.44094742827639
 21
1.70254522626692
 31
0.0
 11
-33.44365026167088
 21
1.713083853891674
 31
0.0
 11
-33.44523377594851
 21
1.723813129316908
 31
0.0
  0
SPLINE
  5
245
330
2
100
AcDbEntity
  8
GAIKEI
  6
Continuous
 62
     1
100
AcDbSpline
210
0.0
220
0.0
230
1.0
 70
     8
 71
     3
 72
    19
 73
    15
 74
    13
 42
0.0000000001
 43
0.0000000001
 44
0.000001
 12
-0.0944471245025449
 22
0.9955298793472755
 32
0.0
 13
-0.9955257326591484
 23
0.0944908229060694
 33
0.0
 40
0.0
 40
0.0
 40
0.0
 40
0.0
 40
0.0114746607580262
 40
0.0229538204373808
 40
0.0343591230295949
 40
0.0457936629856738
 40
0.057203528008909
 40
0.074628711552591
 40
0.092055610158255
 40
0.1090656328910897
 40
0.1260693628544791
 40
0.1369222365398624
 40
0.1478018299471529
 40
0.158646437613998
 40
0.158646437613998
 40
0.158646437613998
 40
0.158646437613998
 10
6.701646717982612
 20
25.46262126210172
 30
0.0
 10
6.701285468411526
 20
25.46642905131505
 30
0.0
 10
6.700148212426228
 20
25.47401419807324
 30
0.0
 10
6.697189215083653
 20
25.48510092551278
 30
0.0
 10
6.69309627632316
 20
25.49580429733067
 30
0.0
 10
6.687976290815385
 20
25.50602872804666
 30
0.0
 10
6.680842138010717
 20
25.5174209337594
 30
0.0
 10
6.671129863990728
 20
25.5294681089398
 30
0.0
 10
6.658486391140712
 20
25.54133938132729
 30
0.0
 10
6.644426174913007
 20
25.55124747001936
 30
0.0
 10
6.631069627176032
 20
25.55809970426981
 30
0.0
 10
6.618925236876378
 20
25.56254036092666
 30
0.0
 10
6.608392390697503
 20
25.56525737092498
 30
0.0
 10
6.601212260794056
 20
25.5663128426537
 30
0.0
 10
6.597613565463063
 20
25.56665441462121
 30
0.0
 11
6.701646717982612
 21
25.46262126210172
 31
0.0
 11
6.699938976118687
 21
25.47396902201865
 31
0.0
 11
6.696992098220448
 21
25.48506360605748
 31
0.0
 11
6.6929275616082
 21
25.49572012908621
 31
0.0
 11
6.687814205006304
 21
25.5059476500789
 31
0.0
 11
6.681759924266316
 21
25.51561868116727
 31
0.0
 11
6.670835899425696
 21
25.5291939464428
 31
0.0
 11
6.658125225946605
 21
25.54111504055879
 31
0.0
 11
6.644218186575699
 21
25.55090935265801
 31
0.0
 11
6.629075345244928
 21
25.55864379026929
 31
0.0
 11
6.618881468513052
 21
25.56236806694907
 31
0.0
 11
6.608342840888326
 21
25.56507090034358
 31
0.0
 11
6.597613565463063
 21
25.56665441462121
 31
0.0
  0
SPLINE
  5
246
330
2
100
AcDbEntity
  8
GAIKEI
  6
Continuous
 62
     1
100
AcDbSpline
210
0.0
220
0.0
230
1.0
 70
     8
 71
     3
 72
    19
 73
    15
 74
    13
 42
0.0000000001
 43
0.0000000001
 44
0.000001
 12
0.995529879347374
 22
0.0944471245015057
 32
0.0
 13
0.0944908229060041
 23
0.9955257326591546
 33
0.0
 40
0.0
 40
0.0
 40
0.0
 40
0.0
 40
0.011474660758024
 40
0.0229538204374025
 40
0.0343591230296083
 40
0.0457936629856364
 40
0.0572035280088836
 40
0.0746287115525967
 40
0.092055610158242
 40
0.109065632891078
 40
0.126069362854467
 40
0.136922236539865
 40
0.1478018299471759
 40
0.1586464376139991
 40
0.1586464376139991
 40
0.1586464376139991
 40
0.1586464376139991
 10
6.597613565463063
 20
1.619779976797417
 30
0.0
 10
6.601421354676404
 20
1.620141226368488
 30
0.0
 10
6.609006501434521
 20
1.621278482353815
 30
0.0
 10
6.620093228874168
 20
1.62423747969629
 30
0.0
 10
6.630796600691979
 20
1.628330418456854
 30
0.0
 10
6.641021031408001
 20
1.633450403964559
 30
0.0
 10
6.652413237120754
 20
1.640584556769283
 30
0.0
 10
6.664460412301252
 20
1.650296830789187
 30
0.0
 10
6.676331684688534
 20
1.662940303639331
 30
0.0
 10
6.686239773380748
 20
1.677000519866922
 30
0.0
 10
6.69309200763115
 20
1.690357067603869
 30
0.0
 10
6.697532664288047
 20
1.702501457903636
 30
0.0
 10
6.700249674286339
 20
1.713034304082484
 30
0.0
 10
6.701305146015101
 20
1.72021443398593
 30
0.0
 10
6.701646717982612
 20
1.723813129316908
 30
0.0
 11
6.597613565463063
 21
1.619779976797417
 31
0.0
 11
6.608961325379993
 21
1.621487718661313
 31
0.0
 11
6.620055909418852
 21
1.624434596559552
 31
0.0
 11
6.63071243244758
 21
1.628499133171828
 31
0.0
 11
6.640939953440238
 21
1.633612489773668
 31
0.0
 11
6.650610984528611
 21
1.639666770513656
 31
0.0
 11
6.664186249804174
 21
1.650590795354275
 31
0.0
 11
6.676107343920136
 21
1.663301468833367
 31
0.0
 11
6.685901656019382
 21
1.677208508204273
 31
0.0
 11
6.69363609363063
 21
1.692351349535044
 31
0.0
 11
6.697360370310434
 21
1.70254522626692
 31
0.0
 11
6.700063203704928
 21
1.713083853891674
 31
0.0
 11
6.701646717982612
 21
1.723813129316908
 31
0.0
  0
LINE
  5
247
330
2
100
AcDbEntity
  8
GAIKEI
  6
Continuous
 62
     1
100
AcDbLine
 10
28.16770880070112
 20
25.15372220676915
 30
0.0
 11
28.33619116923177
 21
25.16132141399686
 31
0.0
  0
LINE
  5
248
330
2
100
AcDbEntity
  8
GAIKEI
  6
Continuous
 62
     1
100
AcDbLine
 10
28.31737309737201
 20
25.29621066467053
 30
0.0
 11
28.16770880070112
 21
25.30103502661612
 31
0.0
  0
LINE
  5
249
330
2
100
AcDbEntity
  8
GAIKEI
  6
Continuous
 62
     1
100
AcDbLine
 10
29.25000578887716
 20
3.736748344766795
 30
0.0
 11
29.22113572396512
 21
3.720080197246801
 31
0.0
  0
LINE
  5
24A
330
2
100
AcDbEntity
  8
GAIKEI
  6
Continuous
 62
     1
100
AcDbLine
 10
29.32114460908514
 20
3.736748344766795
 30
0.0
 11
29.25000578887716
 21
3.736748344766795
 31
0.0
  0
LINE
  5
24B
330
2
100
AcDbEntity
  8
GAIKEI
  6
Continuous
 62
     1
100
AcDbLine
 10
29.22113572396512
 20
3.621738126878796
 30
0.0
 11
29.32114460908514
 21
3.632989126454788
 31
0.0
  0
LINE
  5
24C
330
2
100
AcDbEntity
  8
GAIKEI
  6
Continuous
 62
     1
100
AcDbLine
 10
29.35448090412513
 20
3.636739459646804
 30
0.0
 11
29.32114460908514
 21
3.632989126454788
 31
0.0
  0
LINE
  5
24D
330
2
100
AcDbEntity
  8
GAIKEI
  6
Continuous
 62
     1
100
AcDbLine
 10
29.35448090412513
 20
3.736748344766795
 30
0.0
 11
29.35448090412513
 21
3.636739459646804
 31
0.0
  0
LINE
  5
24E
330
2
100
AcDbEntity
  8
GAIKEI
  6
Continuous
 62
     1
100
AcDbLine
 10
29.32114460908514
 20
3.736748344766795
 30
0.0
 11
29.35448090412513
 21
3.736748344766795
 31
0.0
  0
LINE
  5
24F
330
2
100
AcDbEntity
  8
GAIKEI
  6
Continuous
 62
     1
100
AcDbLine
 10
29.25447201900511
 20
4.020106852606829
 30
0.0
 11
29.22113572396512
 21
4.053443147646817
 31
0.0
  0
LINE
  5
250
330
2
100
AcDbEntity
  8
GAIKEI
  6
Continuous
 62
     1
100
AcDbLine
 10
29.22113572396512
 20
3.720080197246801
 30
0.0
 11
29.25447201900511
 21
3.753416492286817
 31
0.0
  0
LINE
  5
251
330
2
100
AcDbEntity
  8
GAIKEI
  6
Continuous
 62
     1
100
AcDbLine
 10
29.25447201900511
 20
3.753416492286817
 30
0.0
 11
29.25447201900511
 21
4.020106852606829
 31
0.0
  0
LINE
  5
252
330
2
100
AcDbEntity
  8
GAIKEI
  6
Continuous
 62
     1
100
AcDbLine
 10
28.95444536364511
 20
4.07011129516681
 30
0.0
 11
29.22113572396512
 21
4.07011129516681
 31
0.0
  0
LINE
  5
253
330
2
100
AcDbEntity
  8
GAIKEI
  6
Continuous
 62
     1
100
AcDbLine
 10
29.22113572396512
 20
3.603403164606788
 30
0.0
 11
28.96191776085095
 21
3.603403164606788
 31
0.0
  0
LINE
  5
254
330
2
100
AcDbEntity
  8
GAIKEI
  6
Continuous
 62
     1
100
AcDbLine
 10
29.22113572396512
 20
4.07011129516681
 30
0.0
 11
29.22113572396512
 21
3.603403164606788
 31
0.0
  0
LINE
  5
255
330
2
100
AcDbEntity
  8
GAIKEI
  6
Continuous
 62
     1
100
AcDbLine
 10
26.66419217813433
 20
1.939807498600998
 30
0.0
 11
26.66470859068079
 21
1.939762294584909
 31
0.0
  0
ELLIPSE
  5
256
330
2
100
AcDbEntity
  8
GAIKEI
  6
Continuous
 62
     7
100
AcDbEllipse
 10
27.05704904750417
 20
25.55530011636736
 30
0.0
 11
-0.2869767173597468
 21
0.0122233693731572
 31
0.0
210
0.0
220
0.0
230
1.0
 40
0.0979550000005576
 41
-0.0556951287901055
 42
0.0307150442121456
  0
ELLIPSE
  5
257
330
2
100
AcDbEntity
  8
GAIKEI
  6
Continuous
 62
     1
100
AcDbEllipse
 10
27.05704904750417
 20
1.631134275051294
 30
0.0
 11
-0.2001980877510127
 21
0.2902428013319058
 31
0.0
210
0.0
220
0.0
230
1.0
 40
0.7084260000000244
 41
0.7388798675130728
 42
0.8252900405155028
  0
ELLIPSE
  5
258
330
2
100
AcDbEntity
  8
GAIKEI
  6
Continuous
 62
     1
100
AcDbEllipse
 10
27.05704904750417
 20
25.55530011636736
 30
0.0
 11
0.2001980877512309
 21
0.2902428013316132
 31
0.0
210
0.0
220
0.0
230
1.0
 40
0.7084260000000006
 41
2.316302613075226
 42
2.402712786077776
  0
ELLIPSE
  5
259
330
2
100
AcDbEntity
  8
GAIKEI
  6
Continuous
 62
     7
100
AcDbEllipse
 10
26.81386104187766
 20
25.54255515072913
 30
0.0
 11
-0.0026170303216906
 21
0.049935913209143
 31
0.0
210
0.0
220
0.0
230
1.0
 40
0.9969939999998402
 41
-0.0000000000786828
 42
1.015719002433118
  0
ELLIPSE
  5
25A
330
2
100
AcDbEntity
  8
GAIKEI
  6
Continuous
 62
     1
100
AcDbEllipse
 10
28.10286117275678
 20
25.52666067194443
 30
0.0
 11
-0.0034917656106537
 21
0.1333451488971089
 31
0.0
210
0.0
220
0.0
230
1.0
 40
0.0261499999999963
 41
0.0006847638988461
 42
1.568742034989258
  0
ELLIPSE
  5
25B
330
2
100
AcDbEntity
  8
GAIKEI
  6
Continuous
 62
     1
100
AcDbEllipse
 10
27.05443201499833
 20
25.55530011636736
 30
0.0
 11
0.1794014869528182
 21
0.2652613547454717
 31
0.0
210
0.0
220
0.0
230
1.0
 40
0.6240159999999813
 41
2.309985920125742
 42
2.396396093127902
  0
ELLIPSE
  5
25C
330
2
100
AcDbEntity
  8
GAIKEI
  6
Continuous
 62
     1
100
AcDbEllipse
 10
27.05443201499833
 20
1.631134275051294
 30
0.0
 11
-0.1794014869538512
 21
0.2652613547436747
 31
0.0
210
0.0
220
0.0
230
1.0
 40
0.6240159999999943
 41
0.7451965604551792
 42
0.8316067334577596
  0
ELLIPSE
  5
25D
330
2
100
AcDbEntity
  8
GAIKEI
  6
Continuous
 62
     1
100
AcDbEllipse
 10
25.55499177828267
 20
25.52594400527778
 30
0.0
 11
2.544377609282683
 21
0.0
 31
0.0
210
0.0
220
0.0
230
1.0
 40
0.052408
 41
0.0
 42
0.0013695278703807
  0
ARC
  5
25E
330
2
100
AcDbEntity
  8
GAIKEI
  6
Continuous
 62
     7
100
AcDbCircle
 10
26.70104515227439
 20
25.39539707671929
 30
0.0
 40
0.0333362950400013
100
AcDbArc
 50
147.9140249999927
 51
180.0
  0
ARC
  5
25F
330
2
100
AcDbEntity
  8
GAIKEI
  6
Continuous
 62
     7
100
AcDbCircle
 10
26.70104515227439
 20
1.791037314699309
 30
0.0
 40
0.0333362950400013
100
AcDbArc
 50
180.0
 51
212.0859750000072
  0
ARC
  5
260
330
2
100
AcDbEntity
  8
GAIKEI
  6
Continuous
 62
     7
100
AcDbCircle
 10
26.81295032763348
 20
25.5425074464909
 30
0.0
 40
0.0500044425600019
100
AcDbArc
 50
93.00000000000038
 51
147.9140249999927
  0
ARC
  5
261
330
2
100
AcDbEntity
  8
GAIKEI
  6
Continuous
 62
     7
100
AcDbCircle
 10
26.81295032763348
 20
1.64392694492767
 30
0.0
 40
0.0500044425600019
100
AcDbArc
 50
212.0859750000072
 51
266.9999999999996
  0
ARC
  5
262
330
2
100
AcDbEntity
  8
GAIKEI
  6
Continuous
 62
     7
100
AcDbCircle
 10
28.13437250566108
 20
1.559764834354183
 30
0.0
 40
0.0333362950400013
100
AcDbArc
 50
270.0
 51
0.0
  0
ARC
  5
263
330
2
100
AcDbEntity
  8
GAIKEI
  6
Continuous
 62
     7
100
AcDbCircle
 10
28.13437250566108
 20
25.62666955706442
 30
0.0
 40
0.0333362950400013
100
AcDbArc
 50
0.0
 51
90.0
  0
LINE
  5
264
330
2
100
AcDbEntity
  8
GAIKEI
  6
Continuous
 62
     7
100
AcDbLine
 10
26.6677088572344
 20
25.39539707671929
 30
0.0
 11
26.6677088572344
 21
1.791037314699309
 31
0.0
  0
LINE
  5
265
330
2
100
AcDbEntity
  8
GAIKEI
  6
Continuous
 62
     7
100
AcDbLine
 10
26.81124400937188
 20
25.5924910872028
 30
0.0
 11
26.81033329512763
 21
25.59244334962833
 31
0.0
  0
LINE
  5
266
330
2
100
AcDbEntity
  8
GAIKEI
  6
Continuous
 62
     7
100
AcDbLine
 10
26.81033329512763
 20
1.593991041790275
 30
0.0
 11
26.81124400937188
 21
1.59394330421577
 31
0.0
  0
LINE
  5
267
330
2
100
AcDbEntity
  8
GAIKEI
  6
Continuous
 62
     7
100
AcDbLine
 10
26.77058396366561
 20
1.617365051747924
 30
0.0
 11
26.67280090962913
 21
1.773329341464432
 31
0.0
  0
LINE
  5
268
330
2
100
AcDbEntity
  8
GAIKEI
  6
Continuous
 62
     1
100
AcDbLine
 10
26.6677088572344
 20
1.914260780865333
 30
0.0
 11
26.77058396366561
 21
1.750174650991823
 31
0.0
  0
LINE
  5
269
330
2
100
AcDbEntity
  8
GAIKEI
  6
Continuous
 62
     1
100
AcDbLine
 10
26.77058396366561
 20
25.43625974042678
 30
0.0
 11
26.6677088572344
 21
25.27217361055327
 31
0.0
  0
LINE
  5
26A
330
2
100
AcDbEntity
  8
GAIKEI
  6
Continuous
 62
     7
100
AcDbLine
 10
26.67280090962913
 20
25.4131050499542
 30
0.0
 11
26.77058396366561
 21
25.56906933967065
 31
0.0
  0
LINE
  5
26B
330
2
100
AcDbEntity
  8
GAIKEI
  6
Continuous
 62
     1
100
AcDbLine
 10
26.77058396366561
 20
1.750174650991823
 30
0.0
 11
26.77058396366561
 21
25.43625974042678
 31
0.0
  0
LINE
  5
26C
330
2
100
AcDbEntity
  8
GAIKEI
  6
Continuous
 62
     7
100
AcDbLine
 10
26.81124400937188
 20
25.5924910872028
 30
0.0
 11
28.09936699565589
 21
25.66000571875924
 31
0.0
  0
LINE
  5
26D
330
2
100
AcDbEntity
  8
GAIKEI
  6
Continuous
 62
     7
100
AcDbLine
 10
28.09936699565589
 20
1.526428672659363
 30
0.0
 11
26.81124400937188
 21
1.59394330421577
 31
0.0
  0
LINE
  5
26E
330
2
100
AcDbEntity
  8
GAIKEI
  6
Continuous
 62
     7
100
AcDbLine
 10
28.13437250566108
 20
1.526428539314196
 30
0.0
 11
28.09936939586908
 21
1.526428539314196
 31
0.0
  0
LINE
  5
26F
330
2
100
AcDbEntity
  8
GAIKEI
  6
Continuous
 62
     7
100
AcDbLine
 10
28.16770880070112
 20
1.659773719474202
 30
0.0
 11
28.16770880070112
 21
1.559764834354183
 31
0.0
  0
LINE
  5
270
330
2
100
AcDbEntity
  8
GAIKEI
  6
Continuous
 62
     7
100
AcDbLine
 10
28.09936939586908
 20
25.66000585210441
 30
0.0
 11
28.13437250566108
 21
25.66000585210441
 31
0.0
  0
LINE
  5
271
330
2
100
AcDbEntity
  8
GAIKEI
  6
Continuous
 62
     7
100
AcDbLine
 10
28.09936939586908
 20
25.66000585210441
 30
0.0
 11
28.09936699565589
 21
25.66000571875924
 31
0.0
  0
LINE
  5
272
330
2
100
AcDbEntity
  8
GAIKEI
  6
Continuous
 62
     1
100
AcDbLine
 10
28.16770880070112
 20
1.659773719474202
 30
0.0
 11
28.13437250566108
 21
1.659773719474202
 31
0.0
  0
LINE
  5
273
330
2
100
AcDbEntity
  8
GAIKEI
  6
Continuous
 62
     7
100
AcDbLine
 10
28.16770880070112
 20
1.659773719474202
 30
0.0
 11
28.16770880070112
 21
25.62666955706442
 31
0.0
  0
LINE
  5
274
330
2
100
AcDbEntity
  8
GAIKEI
  6
Continuous
 62
     1
100
AcDbLine
 10
28.09936939586908
 20
1.659773719474202
 30
0.0
 11
28.13437250566108
 21
1.659773719474202
 31
0.0
  0
LINE
  5
275
330
2
100
AcDbEntity
  8
GAIKEI
  6
Continuous
 62
     1
100
AcDbLine
 10
28.09936699565589
 20
25.52684328816864
 30
0.0
 11
26.81124400937188
 21
25.45932862327592
 31
0.0
  0
LINE
  5
276
330
2
100
AcDbEntity
  8
GAIKEI
  6
Continuous
 62
     1
100
AcDbLine
 10
26.81033329512763
 20
25.43625974042678
 30
0.0
 11
26.81033329512763
 21
1.750174650991823
 31
0.0
  0
LINE
  5
277
330
2
100
AcDbEntity
  8
GAIKEI
  6
Continuous
 62
     1
100
AcDbLine
 10
26.77008123297611
 20
1.729263018227214
 30
0.0
 11
28.09936699565589
 21
1.659591103249965
 31
0.0
  0
LINE
  5
278
330
2
100
AcDbEntity
  8
GAIKEI
  6
Continuous
 62
     1
100
AcDbLine
 10
28.09936939586908
 20
25.5266606719444
 30
0.0
 11
28.09936939586908
 21
1.526428539314196
 31
0.0
  0
ARC
  5
279
330
2
100
AcDbEntity
  8
GAIKEI
  6
Continuous
 62
     1
100
AcDbCircle
 10
27.94268880918111
 20
3.179908773298251
 30
0.0
 40
0.3000266553600113
100
AcDbArc
 50
0.0
 51
16.60155000000209
  0
ARC
  5
27A
330
2
100
AcDbEntity
  8
GAIKEI
  6
Continuous
 62
     1
100
AcDbCircle
 10
27.94268880918111
 20
3.179908773298251
 30
0.0
 40
0.3000266553600113
100
AcDbArc
 50
343.3984499999979
 51
0.0
  0
ARC
  5
27B
330
2
100
AcDbEntity
  8
GAIKEI
  6
Continuous
 62
     1
100
AcDbCircle
 10
28.18867813035235
 20
3.10656892421025
 30
0.0
 40
0.0433371835520016
100
AcDbArc
 50
270.0
 51
343.3984499999979
  0
ARC
  5
27C
330
2
100
AcDbEntity
  8
GAIKEI
  6
Continuous
 62
     1
100
AcDbCircle
 10
28.18867813035235
 20
3.253248622386252
 30
0.0
 40
0.0433371835520016
100
AcDbArc
 50
16.60155000000209
 51
90.0
  0
LINE
  5
27D
330
2
100
AcDbEntity
  8
GAIKEI
  6
Continuous
 62
     1
100
AcDbLine
 10
28.16770880070112
 20
3.063231740658238
 30
0.0
 11
28.18867813035235
 21
3.063231740658238
 31
0.0
  0
LINE
  5
27E
330
2
100
AcDbEntity
  8
GAIKEI
  6
Continuous
 62
     1
100
AcDbLine
 10
28.18867813035235
 20
3.296585805938264
 30
0.0
 11
28.16770880070112
 21
3.296585805938264
 31
0.0
  0
ELLIPSE
  5
27F
330
2
100
AcDbEntity
  8
GAIKEI
  6
Continuous
 62
     1
100
AcDbEllipse
 10
28.85505876714467
 20
2.670305198431833
 30
0.0
 11
-0.0174468687851453
 21
0.3329060880623922
 31
0.0
210
0.0
220
0.0
230
1.0
 40
0.765609999999989
 41
3.141592653589826
 42
4.672286563984031
  0
ELLIPSE
  5
280
330
2
100
AcDbEntity
  8
GAIKEI
  6
Continuous
 62
     1
100
AcDbEllipse
 10
29.42282030895717
 20
7.386949207346447
 30
0.0
 11
0.0
 21
0.2166859177600031
 31
0.0
210
0.0
220
0.0
230
1.0
 40
0.1391730000000056
 41
3.141592653589793
 42
6.283185307179586
  0
ELLIPSE
  5
281
330
2
100
AcDbEntity
  8
GAIKEI
  6
Continuous
 62
     1
100
AcDbEllipse
 10
29.42282030895717
 20
19.7394798530002
 30
0.0
 11
0.0
 21
0.2166859177600031
 31
0.0
210
0.0
220
0.0
230
1.0
 40
0.1391730000000056
 41
3.141592653589793
 42
6.283185307179586
  0
ELLIPSE
  5
282
330
2
100
AcDbEntity
  8
GAIKEI
  6
Continuous
 62
     7
100
AcDbEllipse
 10
28.8592451724121
 20
4.765473643119122
 30
0.0
 11
-0.2142815740456751
 21
0.2553708356956748
 31
0.0
210
0.0
220
0.0
230
1.0
 40
0.160711
 41
3.141592653589792
 42
3.14434683352869
  0
ARC
  5
283
330
2
100
AcDbEntity
  8
GAIKEI
  6
Continuous
 62
     1
100
AcDbCircle
 10
29.80285407241314
 20
4.903777227471181
 30
0.0
 40
0.1666814752000063
100
AcDbArc
 50
131.5352399999965
 51
178.4006089999968
  0
ARC
  5
284
330
2
100
AcDbEntity
  8
GAIKEI
  6
Continuous
 62
     1
100
AcDbCircle
 10
29.80285407241314
 20
4.903777227471181
 30
0.0
 40
0.1666814752000063
100
AcDbArc
 50
178.4006089999968
 51
179.1867999999953
  0
ARC
  5
285
330
2
100
AcDbEntity
  8
GAIKEI
  6
Continuous
 62
     7
100
AcDbCircle
 10
29.65450755948518
 20
5.214474130811311
 30
0.0
 40
0.1666814752000063
100
AcDbArc
 50
309.9999999999982
 51
0.0
  0
ARC
  5
286
330
2
100
AcDbEntity
  8
GAIKEI
  6
Continuous
 62
     1
100
AcDbCircle
 10
29.3028096468131
 20
2.693770816528228
 30
0.0
 40
0.3333629504000126
100
AcDbArc
 50
273.0000000000004
 51
0.0
  0
ARC
  5
287
330
2
100
AcDbEntity
  8
GAIKEI
  6
Continuous
 62
     1
100
AcDbCircle
 10
29.80285407241314
 20
4.903777227471181
 30
0.0
 40
0.1666814752000063
100
AcDbArc
 50
179.1867999999953
 51
180.0
  0
ARC
  5
288
330
2
100
AcDbEntity
  8
GAIKEI
  6
Continuous
 62
     7
100
AcDbCircle
 10
29.208998312304
 20
24.47871320215978
 30
0.0
 40
0.1666814752000063
100
AcDbArc
 50
7.999999999998316
 51
77.99999999999899
  0
ARC
  5
289
330
2
100
AcDbEntity
  8
GAIKEI
  6
Continuous
 62
     1
100
AcDbCircle
 10
28.30478131200954
 20
2.303664158162916
 30
0.0
 40
0.1666814752000063
100
AcDbArc
 50
285.0000000000029
 51
314.9999999999928
  0
ARC
  5
28A
330
2
100
AcDbEntity
  8
GAIKEI
  6
Continuous
 62
     1
100
AcDbCircle
 10
28.63036223769541
 20
2.157798698993275
 30
0.0
 40
0.1666814752000063
100
AcDbArc
 50
133.2988929999936
 51
134.9999999999928
  0
ARC
  5
28B
330
2
100
AcDbEntity
  8
GAIKEI
  6
Continuous
 62
     1
100
AcDbCircle
 10
28.24271546454111
 20
1.941910952145406
 30
0.0
 40
0.1666814752000063
100
AcDbArc
 50
105.0000000000029
 51
116.7436839999979
  0
ARC
  5
28C
330
2
100
AcDbEntity
  8
GAIKEI
  6
Continuous
 62
     1
100
AcDbCircle
 10
28.84443559001312
 20
3.80329749054627
 30
0.0
 40
0.2300204357760087
100
AcDbArc
 50
298.5718781421423
 51
0.0
  0
ARC
  5
28D
330
2
100
AcDbEntity
  8
GAIKEI
  6
Continuous
 62
     1
100
AcDbCircle
 10
28.84443559001312
 20
3.80329749054627
 30
0.0
 40
0.2300204357760087
100
AcDbArc
 50
0.0
 51
61.42812185785762
  0
ARC
  5
28E
330
2
100
AcDbEntity
  8
GAIKEI
  6
Continuous
 62
     7
100
AcDbCircle
 10
28.72109129836514
 20
2.563138110686736
 30
0.0
 40
0.2333540652800088
100
AcDbArc
 50
273.0000000000004
 51
0.0
  0
ARC
  5
28F
330
2
100
AcDbEntity
  8
GAIKEI
  6
Continuous
 62
     7
100
AcDbCircle
 10
29.28780831404515
 20
4.254015300473326
 30
0.0
 40
0.3333629504000126
100
AcDbArc
 50
130.5742470000073
 51
180.0
  0
LINE
  5
290
330
2
100
AcDbEntity
  8
GAIKEI
  6
Continuous
 62
     1
100
AcDbLine
 10
29.82118903468517
 20
20.2675047644791
 30
0.0
 11
29.82118903468517
 21
19.64482677704132
 31
0.0
  0
LINE
  5
291
330
2
100
AcDbEntity
  8
GAIKEI
  6
Continuous
 62
     7
100
AcDbLine
 10
29.41771972247085
 20
24.19123899533415
 30
0.0
 11
29.82118903468517
 21
21.3204056743437
 31
0.0
  0
LINE
  5
292
330
2
100
AcDbEntity
  8
GAIKEI
  6
Continuous
 62
     7
100
AcDbLine
 10
29.41771972247085
 20
24.19123899533415
 30
0.0
 11
29.82118903468517
 21
21.3204056743437
 31
0.0
  0
LINE
  5
293
330
2
100
AcDbEntity
  8
GAIKEI
  6
Continuous
 62
     7
100
AcDbLine
 10
29.41771972247085
 20
24.19123899533415
 30
0.0
 11
29.82118903468517
 21
21.3204056743437
 31
0.0
  0
LINE
  5
294
330
2
100
AcDbEntity
  8
GAIKEI
  6
Continuous
 62
     7
100
AcDbLine
 10
29.82118903468517
 20
21.3204056743437
 30
0.0
 11
29.82118903468517
 21
5.214474130811311
 31
0.0
  0
LINE
  5
295
330
2
100
AcDbEntity
  8
GAIKEI
  6
Continuous
 62
     1
100
AcDbLine
 10
29.63617259721315
 20
2.693770816528228
 30
0.0
 11
29.63617259721315
 21
4.903777227471181
 31
0.0
  0
LINE
  5
296
330
2
100
AcDbEntity
  8
GAIKEI
  6
Continuous
 62
     1
100
AcDbLine
 10
28.74523347924611
 20
2.330729032231943
 30
0.0
 11
29.32025651559832
 21
2.360864740946965
 31
0.0
  0
LINE
  5
297
330
2
100
AcDbEntity
  8
GAIKEI
  6
Continuous
 62
     1
100
AcDbLine
 10
29.11042958846605
 20
4.07011129516681
 30
0.0
 11
29.11042958846605
 21
4.209012035567837
 31
0.0
  0
LINE
  5
298
330
2
100
AcDbEntity
  8
GAIKEI
  6
Continuous
 62
     1
100
AcDbLine
 10
29.11042958846605
 20
2.670305198431805
 30
0.0
 11
29.11042958846605
 21
3.603403164606788
 31
0.0
  0
LINE
  5
299
330
2
100
AcDbEntity
  8
GAIKEI
  6
Continuous
 62
     1
100
AcDbLine
 10
29.11042958846605
 20
4.209012035567837
 30
0.0
 11
29.48018837239226
 21
4.519276467152394
 31
0.0
  0
LINE
  5
29A
330
2
100
AcDbEntity
  8
GAIKEI
  6
Continuous
 62
     7
100
AcDbLine
 10
29.07352674322863
 20
4.509386121794761
 30
0.0
 11
29.06580095684422
 21
4.502206450595679
 31
0.0
  0
LINE
  5
29B
330
2
100
AcDbEntity
  8
GAIKEI
  6
Continuous
 62
     7
100
AcDbLine
 10
29.82118903468517
 20
21.3204056743437
 30
0.0
 11
29.58668590065144
 21
22.98898211619144
 31
0.0
  0
LINE
  5
29C
330
2
100
AcDbEntity
  8
GAIKEI
  6
Continuous
 62
     7
100
AcDbLine
 10
29.58668590065144
 20
22.98898211619144
 30
0.0
 11
29.37405765484533
 21
24.50191077993597
 31
0.0
  0
LINE
  5
29D
330
2
100
AcDbEntity
  8
GAIKEI
  6
Continuous
 62
     1
100
AcDbLine
 10
28.42264288322122
 20
2.185802553614962
 30
0.0
 11
28.51250063314746
 21
2.275660303541229
 31
0.0
  0
LINE
  5
29E
330
2
100
AcDbEntity
  8
GAIKEI
  6
Continuous
 62
     1
100
AcDbLine
 10
28.19957513181129
 20
2.102912889423151
 30
0.0
 11
28.3479216447393
 21
2.142662220885199
 31
0.0
  0
LINE
  5
29F
330
2
100
AcDbEntity
  8
GAIKEI
  6
Continuous
 62
     7
100
AcDbLine
 10
29.24365333964085
 20
24.64175228721345
 30
0.0
 11
28.16770880070112
 21
24.87045134049896
 31
0.0
  0
LINE
  5
2A0
330
2
100
AcDbEntity
  8
GAIKEI
  6
Continuous
 62
     7
100
AcDbLine
 10
29.33752629782186
 20
4.730908069203621
 30
0.0
 11
29.76164834489339
 21
5.086788720150593
 31
0.0
  0
LINE
  5
2A1
330
2
100
AcDbEntity
  8
GAIKEI
  6
Continuous
 62
     1
100
AcDbLine
 10
29.39940112831971
 20
7.170263289586387
 30
0.0
 11
29.42282030895717
 21
7.170263289586387
 31
0.0
  0
LINE
  5
2A2
330
2
100
AcDbEntity
  8
GAIKEI
  6
Continuous
 62
     1
100
AcDbLine
 10
29.42282030895717
 20
7.603635125106421
 30
0.0
 11
29.39940112831971
 21
7.603635125106421
 31
0.0
  0
LINE
  5
2A3
330
2
100
AcDbEntity
  8
GAIKEI
  6
Continuous
 62
     1
100
AcDbLine
 10
29.42282030895717
 20
19.9561657707602
 30
0.0
 11
29.39940112831971
 21
19.9561657707602
 31
0.0
  0
LINE
  5
2A4
330
2
100
AcDbEntity
  8
GAIKEI
  6
Continuous
 62
     1
100
AcDbLine
 10
29.39940112831971
 20
19.5227939352402
 30
0.0
 11
29.42282030895717
 21
19.5227939352402
 31
0.0
  0
LINE
  5
2A5
330
2
100
AcDbEntity
  8
GAIKEI
  6
Continuous
 62
     7
100
AcDbLine
 10
28.95444536364511
 20
2.563138110686736
 30
0.0
 11
28.95444536364511
 21
2.743148503405194
 31
0.0
  0
LINE
  5
2A6
330
2
100
AcDbEntity
  8
GAIKEI
  6
Continuous
 62
     1
100
AcDbLine
 10
29.26899680943552
 20
7.170263289586387
 30
0.0
 11
29.39940112831971
 21
7.170263289586387
 31
0.0
  0
LINE
  5
2A7
330
2
100
AcDbEntity
  8
GAIKEI
  6
Continuous
 62
     1
100
AcDbLine
 10
29.39940112831971
 20
7.603635125106421
 30
0.0
 11
29.26899680943552
 21
7.603635125106421
 31
0.0
  0
LINE
  5
2A8
330
2
100
AcDbEntity
  8
GAIKEI
  6
Continuous
 62
     1
100
AcDbLine
 10
29.39940112831971
 20
19.9561657707602
 30
0.0
 11
29.26899680943552
 21
19.9561657707602
 31
0.0
  0
LINE
  5
2A9
330
2
100
AcDbEntity
  8
GAIKEI
  6
Continuous
 62
     1
100
AcDbLine
 10
29.26899680943552
 20
19.5227939352402
 30
0.0
 11
29.39940112831971
 21
19.5227939352402
 31
0.0
  0
LINE
  5
2AA
330
2
100
AcDbEntity
  8
GAIKEI
  6
Continuous
 62
     1
100
AcDbLine
 10
29.37405764338734
 20
7.603635125106421
 30
0.0
 11
29.37405764338734
 21
19.5227939352402
 31
0.0
  0
LINE
  5
2AB
330
2
100
AcDbEntity
  8
GAIKEI
  6
Continuous
 62
     1
100
AcDbLine
 10
29.37405764338734
 20
19.9561657707602
 30
0.0
 11
29.37405764338734
 21
21.04717943769964
 31
0.0
  0
LINE
  5
2AC
330
2
100
AcDbEntity
  8
GAIKEI
  6
Continuous
 62
     1
100
AcDbLine
 10
29.37405764338734
 20
4.761561507593796
 30
0.0
 11
29.37405764338734
 21
7.170263289586387
 31
0.0
  0
LINE
  5
2AD
330
2
100
AcDbEntity
  8
GAIKEI
  6
Continuous
 62
     7
100
AcDbLine
 10
29.07352674322863
 20
4.509386121794761
 30
0.0
 11
29.33752629782186
 21
4.730908069203621
 31
0.0
  0
LINE
  5
2AE
330
2
100
AcDbEntity
  8
GAIKEI
  6
Continuous
 62
     7
100
AcDbLine
 10
28.95444536364511
 20
2.743148503405194
 30
0.0
 11
28.95444536364511
 21
4.254015300473326
 31
0.0
  0
LINE
  5
2AF
330
2
100
AcDbEntity
  8
GAIKEI
  6
Continuous
 62
     7
100
AcDbLine
 10
29.0709760166136
 20
4.507295736077963
 30
0.0
 11
29.07345106983882
 21
4.509453327765555
 31
0.0
  0
LINE
  5
2B0
330
2
100
AcDbEntity
  8
GAIKEI
  6
Continuous
 62
     7
100
AcDbLine
 10
28.16770880070112
 20
2.300462256495507
 30
0.0
 11
28.73341026557887
 21
2.33010943685133
 31
0.0
  0
LINE
  5
2B1
330
2
100
AcDbEntity
  8
GAIKEI
  6
Continuous
 62
     1
100
AcDbLine
 10
29.24365332450321
 20
7.170263289586387
 30
0.0
 11
29.24365332450321
 21
5.029155699842533
 31
0.0
  0
LINE
  5
2B2
330
2
100
AcDbEntity
  8
GAIKEI
  6
Continuous
 62
     1
100
AcDbLine
 10
29.24365332450321
 20
7.170263289586387
 30
0.0
 11
29.26899680943552
 21
7.170263289586387
 31
0.0
  0
LINE
  5
2B3
330
2
100
AcDbEntity
  8
GAIKEI
  6
Continuous
 62
     1
100
AcDbLine
 10
29.26899680943552
 20
7.603635125106421
 30
0.0
 11
29.26899680943552
 21
7.170263289586387
 31
0.0
  0
LINE
  5
2B4
330
2
100
AcDbEntity
  8
GAIKEI
  6
Continuous
 62
     1
100
AcDbLine
 10
29.26899680943552
 20
7.603635125106421
 30
0.0
 11
29.24365332450321
 21
7.603635125106421
 31
0.0
  0
LINE
  5
2B5
330
2
100
AcDbEntity
  8
GAIKEI
  6
Continuous
 62
     1
100
AcDbLine
 10
29.24365332450321
 20
19.5227939352402
 30
0.0
 11
29.24365332450321
 21
7.603635125106421
 31
0.0
  0
LINE
  5
2B6
330
2
100
AcDbEntity
  8
GAIKEI
  6
Continuous
 62
     1
100
AcDbLine
 10
29.24365332450321
 20
19.5227939352402
 30
0.0
 11
29.26899680943552
 21
19.5227939352402
 31
0.0
  0
LINE
  5
2B7
330
2
100
AcDbEntity
  8
GAIKEI
  6
Continuous
 62
     1
100
AcDbLine
 10
29.26899680943552
 20
19.9561657707602
 30
0.0
 11
29.26899680943552
 21
19.5227939352402
 31
0.0
  0
LINE
  5
2B8
330
2
100
AcDbEntity
  8
GAIKEI
  6
Continuous
 62
     1
100
AcDbLine
 10
29.26899680943552
 20
19.9561657707602
 30
0.0
 11
29.24365332450321
 21
19.9561657707602
 31
0.0
  0
LINE
  5
2B9
330
2
100
AcDbEntity
  8
GAIKEI
  6
Continuous
 62
     1
100
AcDbLine
 10
29.24365332450321
 20
20.77963247433573
 30
0.0
 11
29.24365332450321
 21
19.9561657707602
 31
0.0
  0
LINE
  5
2BA
330
2
100
AcDbEntity
  8
GAIKEI
  6
Continuous
 62
     1
100
AcDbLine
 10
28.16770880070112
 20
20.27952783264823
 30
0.0
 11
28.2580648949019
 21
20.27952783264823
 31
0.0
  0
LINE
  5
2BB
330
2
100
AcDbEntity
  8
GAIKEI
  6
Continuous
 62
     1
100
AcDbLine
 10
28.2580648949019
 20
19.41278416160819
 30
0.0
 11
28.16770880070112
 21
19.41278416160819
 31
0.0
  0
LINE
  5
2BC
330
2
100
AcDbEntity
  8
GAIKEI
  6
Continuous
 62
     1
100
AcDbLine
 10
28.2580648949019
 20
19.41278416160819
 30
0.0
 11
28.2580648949019
 21
20.27952783264823
 31
0.0
  0
LINE
  5
2BD
330
2
100
AcDbEntity
  8
GAIKEI
  6
Continuous
 62
     1
100
AcDbLine
 10
28.2580648949019
 20
7.043585368434406
 30
0.0
 11
28.16770880070112
 21
7.043585368434406
 31
0.0
  0
LINE
  5
2BE
330
2
100
AcDbEntity
  8
GAIKEI
  6
Continuous
 62
     1
100
AcDbLine
 10
28.16770880070112
 20
7.910329039474447
 30
0.0
 11
28.2580648949019
 21
7.910329039474447
 31
0.0
  0
LINE
  5
2BF
330
2
100
AcDbEntity
  8
GAIKEI
  6
Continuous
 62
     1
100
AcDbLine
 10
28.2580648949019
 20
7.043585368434406
 30
0.0
 11
28.2580648949019
 21
7.910329039474447
 31
0.0
  0
ELLIPSE
  5
2C0
330
2
100
AcDbEntity
  8
GAIKEI
  6
Continuous
 62
     1
100
AcDbEllipse
 10
28.25089742478684
 20
21.0232656421075
 30
0.0
 11
-0.023564856710522
 21
0.023564856710522
 31
0.0
210
0.0
220
0.0
230
1.0
 40
0.9990757796463732
 41
0.7858604317907339
 42
0.8903589325719298
  0
LINE
  5
2C1
330
2
100
AcDbEntity
  8
GAIKEI
  6
Continuous
 62
     1
100
AcDbLine
 10
28.21695187561869
 20
21.02196209296256
 30
0.0
 11
28.21756619686368
 21
21.0232656421075
 31
0.0
  0
LINE
  5
2C2
330
2
100
AcDbEntity
  8
GAIKEI
  6
Continuous
 62
     1
100
AcDbLine
 10
28.20995088696106
 20
21.0608945185146
 30
0.0
 11
28.21100334713174
 21
21.05126316283312
 31
0.0
  0
LINE
  5
2C3
330
2
100
AcDbEntity
  8
GAIKEI
  6
Continuous
 62
     1
100
AcDbLine
 10
29.26419538286092
 20
22.8909641412838
 30
0.0
 11
29.26295373921585
 21
22.90910648644308
 31
0.0
  0
LINE
  5
2C4
330
2
100
AcDbEntity
  8
GAIKEI
  6
Continuous
 62
     1
100
AcDbLine
 10
29.17867578501711
 20
24.64796987281534
 30
0.0
 11
29.17878119438205
 21
24.64846181652126
 31
0.0
  0
LINE
  5
2C5
330
2
100
AcDbEntity
  8
GAIKEI
  6
Continuous
 62
     1
100
AcDbLine
 10
29.1786254138753
 20
24.64773485193533
 30
0.0
 11
29.17867578501711
 21
24.64796987281534
 31
0.0
  0
LINE
  5
2C6
330
2
100
AcDbEntity
  8
GAIKEI
  6
Continuous
 62
     1
100
AcDbLine
 10
29.26295373921585
 20
22.49371284816553
 30
0.0
 11
29.26419538286092
 21
22.51185519332478
 31
0.0
  0
LINE
  5
2C7
330
2
100
AcDbEntity
  8
GAIKEI
  6
Continuous
 62
     1
100
AcDbLine
 10
29.17867578501711
 20
20.75484946179324
 30
0.0
 11
29.17878119438205
 21
20.75435751808734
 31
0.0
  0
LINE
  5
2C8
330
2
100
AcDbEntity
  8
GAIKEI
  6
Continuous
 62
     1
100
AcDbLine
 10
29.1786254138753
 20
20.75508448267328
 30
0.0
 11
29.17867578501711
 21
20.75484946179324
 31
0.0
  0
LINE
  5
2C9
330
2
100
AcDbEntity
  8
GAIKEI
  6
Continuous
 62
     1
100
AcDbLine
 10
29.36024931660995
 20
20.95046587433541
 30
0.0
 11
29.36074772755711
 21
20.95039733491282
 31
0.0
  0
LINE
  5
2CA
330
2
100
AcDbEntity
  8
GAIKEI
  6
Continuous
 62
     1
100
AcDbLine
 10
29.36001122879077
 20
20.95049861057714
 30
0.0
 11
29.36024931660995
 21
20.95046587433541
 31
0.0
  0
LINE
  5
2CB
330
2
100
AcDbEntity
  8
GAIKEI
  6
Continuous
 62
     1
100
AcDbLine
 10
28.16846840151987
 20
24.79677125948916
 30
0.0
 11
28.16770880070112
 21
24.79677125948916
 31
0.0
  0
LINE
  5
2CC
330
2
100
AcDbEntity
  8
GAIKEI
  6
Continuous
 62
     1
100
AcDbLine
 10
28.16770880070112
 20
20.60604807511942
 30
0.0
 11
28.16846840151987
 21
20.60604807511942
 31
0.0
  0
LINE
  5
2CD
330
2
100
AcDbEntity
  8
GAIKEI
  6
Continuous
 62
     1
100
AcDbLine
 10
28.16846840151987
 20
20.60604807511942
 30
0.0
 11
29.16481135325512
 21
20.81955014334903
 31
0.0
  0
LINE
  5
2CE
330
2
100
AcDbEntity
  8
GAIKEI
  6
Continuous
 62
     1
100
AcDbLine
 10
28.16770880070112
 20
20.53769916001093
 30
0.0
 11
29.17878119438205
 21
20.75435751808734
 31
0.0
  0
LINE
  5
2CF
330
2
100
AcDbEntity
  8
GAIKEI
  6
Continuous
 62
     1
100
AcDbLine
 10
29.26419538286092
 20
22.51185519332478
 30
0.0
 11
29.26419538286092
 21
22.8909641412838
 31
0.0
  0
LINE
  5
2D0
330
2
100
AcDbEntity
  8
GAIKEI
  6
Continuous
 62
     1
100
AcDbLine
 10
29.07757763645668
 20
24.25705537601235
 30
0.0
 11
29.07304230018906
 21
24.29003390593397
 31
0.0
  0
LINE
  5
2D1
330
2
100
AcDbEntity
  8
GAIKEI
  6
Continuous
 62
     1
100
AcDbLine
 10
29.18443963042955
 20
23.4941624314142
 30
0.0
 11
29.0886374857169
 21
24.19078068794994
 31
0.0
  0
LINE
  5
2D2
330
2
100
AcDbEntity
  8
GAIKEI
  6
Continuous
 62
     1
100
AcDbLine
 10
29.26295373921585
 20
22.90910648644308
 30
0.0
 11
29.19170524259721
 21
23.42718481423458
 31
0.0
  0
LINE
  5
2D3
330
2
100
AcDbEntity
  8
GAIKEI
  6
Continuous
 62
     1
100
AcDbLine
 10
29.16481135325512
 20
24.58326919125955
 30
0.0
 11
28.16846840151987
 21
24.79677125948916
 31
0.0
  0
LINE
  5
2D4
330
2
100
AcDbEntity
  8
GAIKEI
  6
Continuous
 62
     1
100
AcDbLine
 10
29.07304230018906
 20
21.11278542867461
 30
0.0
 11
29.07757763645668
 21
21.14576395859626
 31
0.0
  0
LINE
  5
2D5
330
2
100
AcDbEntity
  8
GAIKEI
  6
Continuous
 62
     1
100
AcDbLine
 10
29.20156201830571
 20
22.04730755471002
 30
0.0
 11
29.26295373921585
 21
22.49371284816553
 31
0.0
  0
LINE
  5
2D6
330
2
100
AcDbEntity
  8
GAIKEI
  6
Continuous
 62
     1
100
AcDbLine
 10
29.0886374857169
 20
21.21203864665867
 30
0.0
 11
29.19429640613805
 21
21.9803299375304
 31
0.0
  0
LINE
  5
2D7
330
2
100
AcDbEntity
  8
GAIKEI
  6
Continuous
 62
     1
100
AcDbLine
 10
29.50466968072595
 20
22.55001101654761
 30
0.0
 11
29.50466968072595
 21
22.85280831806099
 31
0.0
  0
LINE
  5
2D8
330
2
100
AcDbEntity
  8
GAIKEI
  6
Continuous
 62
     1
100
AcDbLine
 10
29.49598727601904
 20
22.97966925547277
 30
0.0
 11
29.29469682604332
 21
24.4433383926781
 31
0.0
  0
LINE
  5
2D9
330
2
100
AcDbEntity
  8
GAIKEI
  6
Continuous
 62
     1
100
AcDbLine
 10
29.29469682604332
 20
20.95948094193051
 30
0.0
 11
29.49598727601904
 21
22.42315007913584
 31
0.0
  0
LINE
  5
2DA
330
2
100
AcDbEntity
  8
GAIKEI
  6
Continuous
 62
     1
100
AcDbLine
 10
29.36074772755711
 20
20.95039733491282
 30
0.0
 11
29.61418969145848
 21
22.79328248261794
 31
0.0
  0
LINE
  5
2DB
330
2
100
AcDbEntity
  8
GAIKEI
  6
Continuous
 62
     1
100
AcDbLine
 10
28.20995088696106
 20
24.34192481609401
 30
0.0
 11
28.16770880070112
 21
24.34192481609401
 31
0.0
  0
LINE
  5
2DC
330
2
100
AcDbEntity
  8
GAIKEI
  6
Continuous
 62
     1
100
AcDbLine
 10
28.16770880070112
 20
21.0608945185146
 30
0.0
 11
28.20995088696106
 21
21.0608945185146
 31
0.0
  0
LINE
  5
2DD
330
2
100
AcDbEntity
  8
GAIKEI
  6
Continuous
 62
     1
100
AcDbLine
 10
28.20995088696106
 20
24.34192481609401
 30
0.0
 11
28.20995088696106
 21
21.0608945185146
 31
0.0
  0
LINE
  5
2DE
330
2
100
AcDbEntity
  8
GAIKEI
  6
Continuous
 62
     1
100
AcDbLine
 10
28.9457688261262
 20
24.40497288415946
 30
0.0
 11
28.28190121259917
 21
24.42815564379248
 31
0.0
  0
LINE
  5
2DF
330
2
100
AcDbEntity
  8
GAIKEI
  6
Continuous
 62
     1
100
AcDbLine
 10
28.28190121259917
 20
20.9746636908161
 30
0.0
 11
28.9457688261262
 21
20.99784645044912
 31
0.0
  0
SPLINE
  5
2E0
330
2
100
AcDbEntity
  8
GAIKEI
  6
Continuous
 62
     1
100
AcDbSpline
210
0.0
220
0.0
230
1.0
 70
     8
 71
     3
 72
    19
 73
    15
 74
    13
 42
0.0000000001
 43
0.0000000001
 44
0.000001
 12
0.0213842593146391
 22
0.9997713305819308
 32
0.0
 13
-0.1213258174957188
 23
0.9926127371785009
 33
0.0
 40
0.0
 40
0.0
 40
0.0
 40
0.0
 40
0.0113484976343809
 40
0.0224435594540862
 40
0.0331022403675684
 40
0.0433328148777513
 40
0.0530063883185429
 40
0.0665828207561426
 40
0.0785040285380708
 40
0.0883020525193522
 40
0.0960449799608868
 40
0.0997746755134396
 40
0.1024788578004947
 40
0.104067500243334
 40
0.104067500243334
 40
0.104067500243334
 40
0.104067500243334
 10
26.77017090621485
 20
25.46262126210172
 30
0.0
 10
26.77025179928694
 20
25.4664032296284
 30
0.0
 10
26.77034200606982
 20
25.47388466548805
 30
0.0
 10
26.77021421586821
 20
25.48491855546844
 30
0.0
 10
26.76999186425917
 20
25.49557767864231
 30
0.0
 10
26.769733245097
 20
25.50576201532856
 30
0.0
 10
26.76946431801986
 20
25.51691901017484
 30
0.0
 10
26.76929872504075
 20
25.52864187863071
 30
0.0
 10
26.76932824331795
 20
25.54040818482074
 30
0.0
 10
26.76959252874008
 20
25.55022573738649
 30
0.0
 10
26.76994629441245
 20
25.55730914879331
 30
0.0
 10
26.77018811707751
 20
25.5620253877807
 30
0.0
 10
26.77036353693367
 20
25.56470009111003
 30
0.0
 10
26.77023515399588
 20
25.56612877904668
 30
0.0
 10
26.77017090621485
 20
25.56665441462121
 30
0.0
 11
26.77017090621485
 21
25.46262126210172
 31
0.0
 11
26.77029680858516
 21
25.47396902201865
 31
0.0
 11
26.77019403788154
 21
25.48506360605748
 31
0.0
 11
26.76997967644678
 21
25.49572012908621
 31
0.0
 11
26.76972979116357
 21
25.50594765007892
 31
0.0
 11
26.76950804682099
 21
25.51561868116727
 31
0.0
 11
26.76933001311937
 21
25.5291939464428
 31
0.0
 11
26.76938224274761
 21
25.54111504055879
 31
0.0
 11
26.76965189436015
 21
25.55090935265798
 31
0.0
 11
26.77001426790992
 21
25.55864379026929
 31
0.0
 11
26.77021500723924
 21
25.56236806694907
 31
0.0
 11
26.77029874325092
 21
25.56507090034358
 31
0.0
 11
26.77017090621485
 21
25.56665441462121
 31
0.0
  0
SPLINE
  5
2E1
330
2
100
AcDbEntity
  8
GAIKEI
  6
Continuous
 62
     1
100
AcDbSpline
210
0.0
220
0.0
230
1.0
 70
     8
 71
     3
 72
    25
 73
    21
 74
    19
 42
0.0000000001
 43
0.0000000001
 44
0.000001
 12
0.5909511587252205
 22
-0.8067073372675615
 32
0.0
 13
-0.0272811889574892
 23
-0.999627799097777
 33
0.0
 40
0.0
 40
0.0
 40
0.0
 40
0.0
 40
0.0004955099168236
 40
0.0018178620006157
 40
0.0040907347726492
 40
0.0072755829690934
 40
0.0112339836522919
 40
0.0160079251331016
 40
0.0217345560386104
 40
0.0282471715098582
 40
0.0353831516206092
 40
0.0431870615596816
 40
0.0518586981817737
 40
0.0611185243132706
 40
0.0706522526823895
 40
0.080616716436333
 40
0.0912501549405677
 40
0.1021898340907224
 40
0.1174982836900141
 40
0.1332424412970001
 40
0.1332424412970001
 40
0.1332424412970001
 40
0.1332424412970001
 10
26.81124402214363
 20
25.59249107412546
 30
0.0
 10
26.81134162953012
 20
25.59235783029694
 30
0.0
 10
26.81166761566175
 20
25.59183006378436
 30
0.0
 10
26.8115841521892
 20
25.59040547130155
 30
0.0
 10
26.81170277855873
 20
25.58818117822881
 30
0.0
 10
26.81162601394641
 20
25.58502675308123
 30
0.0
 10
26.8115775174883
 20
25.58106086520628
 30
0.0
 10
26.81149277596808
 20
25.57623972479338
 30
0.0
 10
26.81142045267578
 20
25.57056987162655
 30
0.0
 10
26.81136221852737
 20
25.56411145540602
 30
0.0
 10
26.81133357874785
 20
25.55696072728654
 30
0.0
 10
26.81133482361651
 20
25.54909017426559
 30
0.0
 10
26.81136982150116
 20
25.54051177864824
 30
0.0
 10
26.81143075263495
 20
25.53135691030194
 30
0.0
 10
26.81150897060937
 20
25.52177122267091
 30
0.0
 10
26.81158812062171
 20
25.51172765954074
 30
0.0
 10
26.81165192963928
 20
25.50121530298711
 30
0.0
 10
26.81167469578142
 20
25.48892144987238
 30
0.0
 10
26.81160225709203
 20
25.47492385691294
 30
0.0
 10
26.81138719525652
 20
25.46457473810628
 30
0.0
 10
26.81124402214363
 20
25.4593286389005
 30
0.0
 11
26.81124402214363
 21
25.59249107412546
 31
0.0
 11
26.81149153512752
 21
25.5920617359024
 31
0.0
 11
26.81162105126981
 21
25.59074593277535
 31
0.0
 11
26.8116616041055
 21
25.58847345612469
 31
0.0
 11
26.81163717199638
 21
25.58528871716055
 31
0.0
 11
26.8115766730345
 21
25.58133078708664
 31
0.0
 11
26.81150090290839
 21
25.57655745193176
 31
0.0
 11
26.8114261793092
 21
25.57083131179889
 31
0.0
 11
26.8113683312364
 21
25.56431895538853
 31
0.0
 11
26.81133824782108
 21
25.55718304012339
 31
0.0
 11
26.81133865674212
 21
25.54937913122973
 31
0.0
 11
26.81137166878045
 21
25.54070755822795
 31
0.0
 11
26.81143147897365
 21
25.53144792587523
 31
0.0
 11
26.81150641158922
 21
25.52191449245692
 31
0.0
 11
26.81158250024544
 21
25.5119503195869
 31
0.0
 11
26.81164298701657
 21
25.50131705333365
 31
0.0
 11
26.81166036554021
 21
25.49037738787354
 31
0.0
 11
26.81156280700077
 21
25.47506924682546
 31
0.0
 11
26.81124402214363
 21
25.4593286389005
 31
0.0
  0
SPLINE
  5
2E2
330
2
100
AcDbEntity
  8
GAIKEI
  6
Continuous
 62
     1
100
AcDbSpline
210
0.0
220
0.0
230
1.0
 70
     8
 71
     3
 72
    25
 73
    21
 74
    19
 42
0.0000000001
 43
0.0000000001
 44
0.000001
 12
0.0281905901065335
 22
-0.9996025663379647
 32
0.0
 13
-0.4008655609207862
 23
-0.9161368904632446
 33
0.0
 40
0.0
 40
0.0
 40
0.0
 40
0.0
 40
0.0108642250676617
 40
0.0216568857620733
 40
0.0326063958987582
 40
0.0433262346926784
 40
0.0534690969873172
 40
0.0632547433492301
 40
0.0728733530304742
 40
0.0819780700940557
 40
0.0903746034312835
 40
0.0981541992728602
 40
0.1054556263380665
 40
0.1119952017291992
 40
0.1175898577971874
 40
0.1223753842863795
 40
0.1264164536402339
 40
0.1295339844560013
 40
0.1322586066750055
 40
0.1332252651170845
 40
0.1332252651170845
 40
0.1332252651170845
 40
0.1332252651170845
 10
26.81124402214363
 20
1.727105752518127
 30
0.0
 10
26.8113461117822
 20
1.723485783431826
 30
0.0
 10
26.81151344541962
 20
1.716268572348482
 30
0.0
 10
26.81163685967536
 20
1.705400293937401
 30
0.0
 10
26.81167348434394
 20
1.694579606136727
 30
0.0
 10
26.81164522068491
 20
1.683975530884424
 30
0.0
 10
26.81158151963035
 20
1.673759604369053
 30
0.0
 10
26.81150223342252
 20
1.663910883045218
 30
0.0
 10
26.81142630414266
 20
1.654408195083789
 30
0.0
 10
26.81136628559773
 20
1.645368435888272
 30
0.0
 10
26.81133485587742
 20
1.636941523231882
 30
0.0
 10
26.81133335429655
 20
1.629115676879976
 30
0.0
 10
26.81136598569117
 20
1.621908761573109
 30
0.0
 10
26.81142314088851
 20
1.615430747684229
 30
0.0
 10
26.81150429031965
 20
1.609790443957479
 30
0.0
 10
26.81156972520864
 20
1.604986633681207
 30
0.0
 10
26.81167168324498
 20
1.600998287688355
 30
0.0
 10
26.81160179831153
 20
1.597724228277158
 30
0.0
 10
26.81180870832267
 20
1.595404714530374
 30
0.0
 10
26.81137318883648
 20
1.594238514446288
 30
0.0
 10
26.81124402214363
 20
1.593943317293195
 30
0.0
 11
26.81124402214363
 21
1.727105752518127
 31
0.0
 11
26.81149153512752
 21
1.716244562540396
 31
0.0
 11
26.81162105126981
 21
1.705452677514642
 31
0.0
 11
26.8116616041055
 21
1.694503242650512
 31
0.0
 11
26.81163717199638
 21
1.683783432191773
 31
0.0
 11
26.8115766730345
 21
1.67364075089344
 31
0.0
 11
26.81150090290839
 21
1.663855398455609
 31
0.0
 11
26.8114261793092
 21
1.654237079653995
 31
0.0
 11
26.8113683312364
 21
1.645132547036212
 31
0.0
 11
26.81133824782108
 21
1.636736068377899
 31
0.0
 11
26.81133865674218
 21
1.628956473535851
 31
0.0
 11
26.81137166878045
 21
1.621655122508883
 31
0.0
 11
26.81143147897365
 21
1.615115822679115
 31
0.0
 11
26.81150641158922
 21
1.609521671519615
 31
0.0
 11
26.81158250024544
 21
1.604736754876512
 31
0.0
 11
26.81164298701657
 21
1.60069614699563
 31
0.0
 11
26.81166036554021
 21
1.597578681879042
 31
0.0
 11
26.81156280700077
 21
1.594855952380271
 31
0.0
 11
26.81124402214363
 21
1.593943317293195
 31
0.0
  0
SPLINE
  5
2E3
330
2
100
AcDbEntity
  8
GAIKEI
  6
Continuous
 62
     1
100
AcDbSpline
210
0.0
220
0.0
230
1.0
 70
     8
 71
     3
 72
    41
 73
    37
 74
    35
 42
0.0000000001
 43
0.0000000001
 44
0.000001
 12
-0.4353819225186907
 22
-0.9002458450578536
 32
0.0
 13
-0.5598877767279204
 23
-0.8285684506850756
 33
0.0
 40
0.0
 40
0.0
 40
0.0
 40
0.0
 40
0.0014188981556681
 40
0.005644891511551
 40
0.0126413138108135
 40
0.0164792481111867
 40
0.0208170576424743
 40
0.0256522187933041
 40
0.0309822866874793
 40
0.0368048965486288
 40
0.0431177647878355
 40
0.0499186898280467
 40
0.0729057058812554
 40
0.1010164645422994
 40
0.1080304895441015
 40
0.1153021852383582
 40
0.1228314347323397
 40
0.1306181176540287
 40
0.1386621104766222
 40
0.1469632867771657
 40
0.1555215174959584
 40
0.1642630739514216
 40
0.1739105775431226
 40
0.184468511455269
 40
0.1959416628115404
 40
0.2083351588239719
 40
0.2238438276836132
 40
0.2405950042822374
 40
0.2556503340562806
 40
0.2671428071198638
 40
0.2750469816947931
 40
0.2819138388210206
 40
0.296454416485539
 40
0.3382914855718762
 40
0.3781195110425613
 40
0.4161359202117536
 40
0.4161359202117536
 40
0.4161359202117536
 40
0.4161359202117536
 10
29.6361725972123
 20
4.90377721934351
 30
0.0
 10
29.63596667634334
 20
4.903351433620443
 30
0.0
 10
29.63514989575543
 20
4.901656298519014
 30
0.0
 10
29.6333824600174
 20
4.897830871586592
 30
0.0
 10
29.63133034279838
 20
4.893249229774724
 30
0.0
 10
29.6293081794891
 20
4.888613672052741
 30
0.0
 10
29.62759837050834
 20
4.884627937835247
 30
0.0
 10
29.62572020185744
 20
4.880173311511072
 30
0.0
 10
29.62368037438063
 20
4.875249828899654
 30
0.0
 10
29.62148540303977
 20
4.86985756608638
 30
0.0
 10
29.61914297445858
 20
4.863996125224616
 30
0.0
 10
29.61474086803958
 20
4.852796502377998
 30
0.0
 10
29.60800092171809
 20
4.834710073089482
 30
0.0
 10
29.60158221210793
 20
4.816432986341226
 30
0.0
 10
29.59700797623654
 20
4.803061589902412
 30
0.0
 10
29.59467625210251
 20
4.796173899549373
 30
0.0
 10
29.59228335201164
 20
4.78903505025859
 30
0.0
 10
29.58982994159081
 20
4.781645007417424
 30
0.0
 10
29.58731659637005
 20
4.774003777398831
 30
0.0
 10
29.58474387736507
 20
4.76611137062801
 30
0.0
 10
29.58212006879231
 20
4.757991083636113
 30
0.0
 10
29.57937895945633
 20
4.749437111650323
 30
0.0
 10
29.5764388375008
 20
4.740246962995641
 30
0.0
 10
29.57321217734213
 20
4.730192492357375
 30
0.0
 10
29.56968371307295
 20
4.719273574368131
 30
0.0
 10
29.56560930835531
 20
4.706796888305518
 30
0.0
 10
29.56093537736498
 20
4.692665168861068
 30
0.0
 10
29.55582506204507
 20
4.677743971488155
 30
0.0
 10
29.55101752556419
 20
4.664134951882417
 30
0.0
 10
29.54709638015828
 20
4.653341043288833
 30
0.0
 10
29.54405918153242
 20
4.645130161841407
 30
0.0
 10
29.54056459526837
 20
4.636005710873391
 30
0.0
 10
29.53272173760874
 20
4.616436500815439
 30
0.0
 10
29.51965577282294
 20
4.587126942346927
 30
0.0
 10
29.50107523776191
 20
4.551787943876007
 30
0.0
 10
29.48728334207351
 20
4.529776213651174
 30
0.0
 10
29.48018836780386
 20
4.519276481235863
 30
0.0
 11
29.6361725972123
 21
4.90377721934351
 31
0.0
 11
29.63555870282886
 21
4.902497988978154
 31
0.0
 11
29.63377636377913
 21
4.898666251683692
 31
0.0
 11
29.63091433046259
 21
4.892282007460153
 31
0.0
 11
29.62937907519171
 21
4.888764523120784
 31
0.0
 11
29.62766856016969
 21
4.884778210978083
 31
0.0
 11
29.62578961043158
 21
4.880323071032108
 31
0.0
 11
29.62374900074895
 21
4.87539910328283
 31
0.0
 11
29.6215534505858
 21
4.87000630773025
 31
0.0
 11
29.61920961934623
 21
4.864144684374366
 31
0.0
 11
29.61672410190914
 21
4.857814233215179
 31
0.0
 11
29.60865989746651
 21
4.836288224757367
 31
0.0
 11
29.59931060584802
 21
4.809777838636563
 31
0.0
 11
29.59704021610958
 21
4.803141460982288
 31
0.0
 11
29.59470815016175
 21
4.796253892283772
 31
0.0
 11
29.59231498811647
 21
4.789115132541013
 31
0.0
 11
29.58986131376082
 21
4.78172518175404
 31
0.0
 11
29.58734771442602
 21
4.774084039922797
 31
0.0
 11
29.5847747808574
 21
4.766191707047312
 31
0.0
 11
29.58214310708525
 21
4.758048183127613
 31
0.0
 11
29.57947274452534
 21
4.74972451888766
 31
0.0
 11
29.5765309847651
 21
4.740536498443987
 31
0.0
 11
29.57330314306307
 21
4.730484121796592
 31
0.0
 11
29.56977364432351
 21
4.719567388945449
 31
0.0
 11
29.56592605836159
 21
4.707786299890614
 31
0.0
 11
29.56104155086911
 21
4.693066940204687
 31
0.0
 11
29.55561618292666
 21
4.677218706768542
 31
0.0
 11
29.55059914085092
 21
4.663023918747427
 31
0.0
 11
29.54667650037766
 21
4.652221602759112
 31
0.0
 11
29.54392506275224
 21
4.644811758803655
 31
0.0
 11
29.54146990594376
 21
4.638398799405678
 31
0.0
 11
29.53606344682658
 21
4.624900694797986
 31
0.0
 11
29.51896730738543
 21
4.586716089322464
 31
0.0
 11
29.5003482525139
 21
4.551508018135052
 31
0.0
 11
29.48018836780386
 21
4.519276481235863
 31
0.0
  0
SPLINE
  5
2E4
330
2
100
AcDbEntity
  8
GAIKEI
  6
Continuous
 62
     1
100
AcDbSpline
210
0.0
220
0.0
230
1.0
 70
     8
 71
     3
 72
    41
 73
    37
 74
    35
 42
0.0000000001
 43
0.0000000001
 44
0.000001
 12
0.0064747712617763
 22
0.9999790384488605
 32
0.0
 13
0.7486451432179164
 23
0.6629709266146034
 33
0.0
 40
0.0
 40
0.0
 40
0.0
 40
0.0
 40
0.00487972202932
 40
0.0095408573170909
 40
0.0141412567217166
 40
0.016448724682259
 40
0.0187692787785228
 40
0.0223290693966917
 40
0.0263636850181144
 40
0.0309350675743356
 40
0.037016649281269
 40
0.0438225559119305
 40
0.0592497184656935
 40
0.0737747348064682
 40
0.0806057129628015
 40
0.0867323678927906
 40
0.0921021930536216
 40
0.0967157812166358
 40
0.1005724437415775
 40
0.1036696750115144
 40
0.1061043465926222
 40
0.108508306879094
 40
0.1109974520350473
 40
0.1135749438028627
 40
0.1162400271326736
 40
0.117603517553665
 40
0.1189706962060181
 40
0.120334125454927
 40
0.1216923397903662
 40
0.1243862356734612
 40
0.1270369830950345
 40
0.1296268378283651
 40
0.1321361840472184
 40
0.1345438299926708
 40
0.1368271714864079
 40
0.1389621751957739
 40
0.1389621751957739
 40
0.1389621751957739
 40
0.1389621751957739
 10
29.63618717553067
 20
4.905981682634262
 30
0.0
 10
29.63619770722531
 20
4.907608222548518
 30
0.0
 10
29.63625115798169
 20
4.910788142792767
 30
0.0
 10
29.63638025961439
 20
4.915500484742182
 30
0.0
 10
29.63662128975949
 20
4.919350405052881
 30
0.0
 10
29.63690641289858
 20
4.922413478482397
 30
0.0
 10
29.63721637763155
 20
4.925125326623827
 30
0.0
 10
29.63768131065814
 20
4.928397859282625
 30
0.0
 10
29.63833761008243
 20
4.932399985260019
 30
0.0
 10
29.63925552350699
 20
4.937209643450216
 30
0.0
 10
29.64052744098007
 20
4.942889985818752
 30
0.0
 10
29.64294318286341
 20
4.952015925784294
 30
0.0
 10
29.6468634653703
 20
4.963644467857321
 30
0.0
 10
29.65180963547178
 20
4.974881333465532
 30
0.0
 10
29.65602876516704
 20
4.983015125881024
 30
0.0
 10
29.65904426373374
 20
4.988329726866396
 30
0.0
 10
29.66184944107124
 20
4.992909833824157
 30
0.0
 10
29.66437160748018
 20
4.996773330179479
 30
0.0
 10
29.66655563013489
 20
4.999951358314149
 30
0.0
 10
29.66837712394931
 20
5.002496282687857
 30
0.0
 10
29.66993989480722
 20
5.004630703713303
 30
0.0
 10
29.67142032518618
 20
5.006573734125396
 30
0.0
 10
29.67296636251499
 20
5.008526056977984
 30
0.0
 10
29.67460408670689
 20
5.010516231423423
 30
0.0
 10
29.67603470808865
 20
5.012190390995144
 30
0.0
 10
29.67722150247079
 20
5.013541870582983
 30
0.0
 10
29.67813150903658
 20
5.014558899851095
 30
0.0
 10
29.67904956727437
 20
5.015566286286002
 30
0.0
 10
29.68027721848506
 20
5.016889772614021
 30
0.0
 10
29.68181750215427
 20
5.018508431672088
 30
0.0
 10
29.68367092212801
 20
5.020395360103066
 30
0.0
 10
29.68550810591893
 20
5.022211601127679
 30
0.0
 10
29.6873114832496
 20
5.023946419802484
 30
0.0
 10
29.68906198233512
 20
5.025588550914832
 30
0.0
 10
29.69074023934962
 20
5.027125031408971
 30
0.0
 10
29.69183652145659
 20
5.028108573430017
 30
0.0
 10
29.69236930817584
 20
5.028580388559191
 30
0.0
 11
29.63618717553067
 21
4.905981682634262
 31
0.0
 11
29.63626018884429
 21
4.91086092583049
 31
0.0
 11
29.63640727586506
 21
4.915519749770595
 31
0.0
 11
29.63669889522339
 21
4.920110923023685
 31
0.0
 11
29.63691302553741
 21
4.922408449229493
 31
0.0
 11
29.63717674946679
 21
4.924713986010999
 31
0.0
 11
29.63766983219705
 21
4.928239491963893
 31
0.0
 11
29.63832384848468
 21
4.93222078363874
 31
0.0
 11
29.63918049171343
 21
4.936711228525439
 31
0.0
 11
29.64050949687487
 21
4.942645878285532
 31
0.0
 11
29.64225115188816
 21
4.949225223759043
 31
0.0
 11
29.64717983498929
 21
4.963844016196304
 31
0.0
 11
29.65303161195925
 21
4.977138196217453
 31
0.0
 11
29.65617573715315
 21
4.983202611413759
 31
0.0
 11
29.65919929598817
 21
4.988531239120504
 31
0.0
 11
29.6620037507526
 21
4.993110567780604
 31
0.0
 11
29.66452527038678
 21
4.996974149718653
 31
0.0
 11
29.66670936723472
 21
5.000152773136306
 31
0.0
 11
29.6685099426349
 21
5.002672854612598
 31
0.0
 11
29.6699514211856
 21
5.004634941165164
 31
0.0
 11
29.67140815400512
 21
5.00654726456392
 31
0.0
 11
29.67295326651237
 21
5.008498804073923
 31
0.0
 11
29.67459078164598
 21
5.010489294113881
 31
0.0
 11
29.67632180065414
 21
5.012515692512096
 31
0.0
 11
29.67722151991916
 21
5.013540204117617
 31
0.0
 11
29.67813313690789
 21
5.014559097970675
 31
0.0
 11
29.67905146790651
 21
5.015566877751666
 31
0.0
 11
29.67997510186024
 21
5.01656269843022
 31
0.0
 11
29.68183183264307
 21
5.018514536992825
 31
0.0
 11
29.68368906301066
 21
5.020405885981489
 31
0.0
 11
29.68553063821207
 21
5.022226870982592
 31
0.0
 11
29.68733888345315
 21
5.023966726836761
 31
0.0
 11
29.68909487992551
 21
5.025613923707027
 31
0.0
 11
29.69077865701377
 21
5.027156181561565
 31
0.0
 11
29.69236930817584
 21
5.028580388559191
 31
0.0
  0
SPLINE
  5
2E5
330
2
100
AcDbEntity
  8
GAIKEI
  6
Continuous
 62
     1
100
AcDbSpline
210
0.0
220
0.0
230
1.0
 70
     8
 71
     3
 72
    28
 73
    24
 74
    22
 42
0.0000000001
 43
0.0000000001
 44
0.000001
 12
0.7217480328339719
 22
0.6921558907502644
 32
0.0
 13
0.9952109123015889
 23
0.097750908107491
 33
0.0
 40
0.0
 40
0.0
 40
0.0
 40
0.0
 40
0.0085574556742827
 40
0.0157612278669675
 40
0.0214927938015424
 40
0.0271056634999198
 40
0.0329787390916014
 40
0.043338975641578
 40
0.0541633007318222
 40
0.0646559634914151
 40
0.0722886488914762
 40
0.0796562109045474
 40
0.0829521424257727
 40
0.0858598682483322
 40
0.0883836539143856
 40
0.0905234199420148
 40
0.091447642348206
 40
0.0930940134124226
 40
0.0950313810153329
 40
0.0987440020350078
 40
0.102523581500969
 40
0.1066919450467036
 40
0.1110672556985158
 40
0.1110672556985158
 40
0.1110672556985158
 40
0.1110672556985158
 10
28.51517532736915
 20
2.278275626975954
 30
0.0
 10
28.51723410296882
 20
2.280249991427552
 30
0.0
 10
28.52111843662431
 20
2.283790838971896
 30
0.0
 10
28.52661296567038
 20
2.288391818403084
 30
0.0
 10
28.53152804587873
 20
2.292145168400352
 30
0.0
 10
28.53620893334602
 20
2.295467763783889
 30
0.0
 10
28.54228932471236
 20
2.299477285351429
 30
0.0
 10
28.55005789405098
 20
2.304071957981847
 30
0.0
 10
28.55947640582787
 20
2.308860319061494
 30
0.0
 10
28.56832805399304
 20
2.312717768758744
 30
0.0
 10
28.57628013774803
 20
2.315718806120329
 30
0.0
 10
28.58206420801412
 20
2.317658891911634
 30
0.0
 10
28.58640298469501
 20
2.318940852323606
 30
0.0
 10
28.58921369635124
 20
2.319692447002296
 30
0.0
 10
28.59166706985127
 20
2.320285296627247
 30
0.0
 10
28.59348733876695
 20
2.320680890475102
 30
0.0
 10
28.59502716294512
 20
2.320988029555167
 30
0.0
 10
28.59650575512942
 20
2.321256237290711
 30
0.0
 10
28.59890205020093
 20
2.321672159678016
 30
0.0
 10
28.60200579438646
 20
2.322169573662634
 30
0.0
 10
28.60585281793325
 20
2.322725600549375
 30
0.0
 10
28.60992769030284
 20
2.323245937324188
 30
0.0
 10
28.61275918358013
 20
2.32355320148433
 30
0.0
 10
28.61421063588193
 20
2.32369576501415
 30
0.0
 11
28.51517532736915
 21
2.278275626975954
 31
0.0
 11
28.52149428426952
 21
2.284046641397367
 31
0.0
 11
28.52702631443259
 21
2.288660844144999
 31
0.0
 11
28.53157896189305
 21
2.292142918870041
 31
0.0
 11
28.53615550425963
 21
2.295392561976399
 31
0.0
 11
28.5410587309018
 21
2.298625510638203
 31
0.0
 11
28.5499761268656
 21
2.303899620010781
 31
0.0
 11
28.55962114933601
 21
2.308812966512334
 31
0.0
 11
28.56923981658292
 21
2.313005522173853
 31
0.0
 11
28.57637894980519
 21
2.315705621123157
 31
0.0
 11
28.58336934498186
 21
2.318032688540284
 31
0.0
 11
28.58653099705811
 21
2.3189638901095
 31
0.0
 11
28.58934022331999
 21
2.319714322574043
 31
0.0
 11
28.59179365641171
 21
2.320306093729357
 31
0.0
 11
28.59388482442808
 21
2.320759571863618
 31
0.0
 11
28.59479126171379
 21
2.32094002608386
 31
0.0
 11
28.59641044436609
 21
2.321238021006308
 31
0.0
 11
28.59831931500924
 21
2.321569120241406
 31
0.0
 11
28.6019849927867
 21
2.322157706226107
 31
0.0
 11
28.60572573061848
 21
2.322698233678238
 31
0.0
 11
28.60986062735748
 21
2.323225456021475
 31
0.0
 11
28.61421063588193
 21
2.32369576501415
 31
0.0
  0
SPLINE
  5
2E6
330
2
100
AcDbEntity
  8
GAIKEI
  6
Continuous
 62
     1
100
AcDbSpline
210
0.0
220
0.0
230
1.0
 70
     8
 71
     3
 72
    29
 73
    25
 74
    23
 42
0.0000000001
 43
0.0000000001
 44
0.000001
 12
-0.7526510322232209
 22
0.6584196410294276
 32
0.0
 13
-0.2875771477137425
 23
0.9577574766676731
 33
0.0
 40
0.0
 40
0.0
 40
0.0
 40
0.0
 40
0.0006178609696637
 40
0.0025238280918891
 40
0.0057516774460452
 40
0.0103542765095698
 40
0.0162722171497625
 40
0.023486723210082
 40
0.0319681323428898
 40
0.0417098918669663
 40
0.052699151323447
 40
0.0647415419929913
 40
0.0778782946105572
 40
0.0920789904186662
 40
0.1103097290039202
 40
0.1297009403755263
 40
0.150208603398184
 40
0.1717154207143003
 40
0.19400211479805
 40
0.2166743733353054
 40
0.2399436692024417
 40
0.2637847006266159
 40
0.2881156005156564
 40
0.3127859900064717
 40
0.3127859900064717
 40
0.3127859900064717
 40
0.3127859900064717
 10
29.33752628470711
 20
4.730908057025573
 30
0.0
 10
29.3373712734749
 20
4.731043660958192
 30
0.0
 10
29.33676268138924
 20
4.731640142878106
 30
0.0
 10
29.33616274439541
 20
4.73352388521431
 30
0.0
 10
29.33488132071071
 20
4.736472858279071
 30
0.0
 10
29.33335967090286
 20
4.740813267100989
 30
0.0
 10
29.33139283415034
 20
4.746381345247655
 30
0.0
 10
29.32908383278166
 20
4.753208580697872
 30
0.0
 10
29.3264061826738
 20
4.761253063323124
 30
0.0
 10
29.32337730025165
 20
4.770507811629229
 30
0.0
 10
29.32001588778888
 20
4.780902202386087
 30
0.0
 10
29.31634023047789
 20
4.792384403522504
 30
0.0
 10
29.31236826293477
 20
4.804895658222207
 30
0.0
 10
29.30780190248567
 20
4.819382426394938
 30
0.0
 10
29.30264112373791
 20
4.835867730200163
 30
0.0
 10
29.29688573141738
 20
4.854369784920166
 30
0.0
 10
29.29083691351968
 20
4.873924176209797
 30
0.0
 10
29.28453174922893
 20
4.894409530410797
 30
0.0
 10
29.27804133890891
 20
4.915592783569621
 30
0.0
 10
29.27140409657198
 20
4.9373454817716
 30
0.0
 10
29.26463946262561
 20
4.959600989503925
 30
0.0
 10
29.25773724848927
 20
4.982392521738546
 30
0.0
 10
29.25072154615904
 20
5.005637651955879
 30
0.0
 10
29.24601821733271
 20
5.021279602241193
 30
0.0
 10
29.24365333725177
 20
5.029155685570231
 30
0.0
 11
29.33752628470711
 21
4.730908057025573
 31
0.0
 11
29.33709467341021
 21
4.731350232688811
 31
0.0
 11
29.33628209527842
 21
4.733074135696142
 31
0.0
 11
29.33509091339585
 21
4.736074124794356
 31
0.0
 11
29.33350561689417
 21
4.740395078038773
 31
0.0
 11
29.33154830172737
 21
4.745979954849957
 31
0.0
 11
29.32922519247887
 21
4.752810195561409
 31
0.0
 11
29.3265459061493
 21
4.760857286010377
 31
0.0
 11
29.32351259749749
 21
4.770114762184704
 31
0.0
 11
29.32012965319336
 21
4.780570357142835
 31
0.0
 11
29.31645667010958
 21
4.792038937243006
 31
0.0
 11
29.31248052998683
 21
4.804559502126494
 31
0.0
 11
29.30821046002325
 21
4.818102996275115
 31
0.0
 11
29.30276260614414
 21
4.835500716806564
 31
0.0
 11
29.29700184955198
 21
4.85401645955153
 31
0.0
 11
29.29094066202117
 21
4.873607942903788
 31
0.0
 11
29.28461334423469
 21
4.894162947543804
 31
0.0
 11
29.2780839134893
 21
4.915471707374024
 31
0.0
 11
29.2714668263917
 21
4.937156850830319
 31
0.0
 11
29.26469945128281
 21
4.959420335450687
 31
0.0
 11
29.25778895239285
 21
4.982237867503613
 31
0.0
 11
29.25075905990605
 21
5.005531070068315
 31
0.0
 11
29.24365333725177
 21
5.029155685570231
 31
0.0
  0
SPLINE
  5
2E7
330
2
100
AcDbEntity
  8
GAIKEI
  6
Continuous
 62
     1
100
AcDbSpline
210
0.0
220
0.0
230
1.0
 70
     8
 71
     3
 72
    11
 73
     7
 74
     5
 42
0.0000000001
 43
0.0000000001
 44
0.000001
 12
0.1117045080192779
 22
-0.9937414668253364
 32
0.0
 13
0.1717596663978053
 23
-0.98513888208664
 33
0.0
 40
0.0
 40
0.0
 40
0.0
 40
0.0
 40
0.0001599086223848
 40
0.0092970523466174
 40
0.017285657148034
 40
0.022356277475746
 40
0.022356277475746
 40
0.022356277475746
 40
0.022356277475746
 10
28.21100335233211
 20
21.0512631550315
 30
0.0
 10
28.21100930650345
 20
21.05121018575518
 30
0.0
 10
28.21135549715453
 20
21.04813056490238
 30
0.0
 10
28.21202342024676
 20
21.04240759025798
 30
0.0
 10
28.21298188035064
 20
21.03507010543811
 30
0.0
 10
28.21368636832981
 20
21.03077386034417
 30
0.0
 10
28.21397667768179
 20
21.02910877193045
 30
0.0
 11
28.21100335233211
 21
21.0512631550315
 31
0.0
 11
28.21102122926845
 21
21.05110424963243
 31
0.0
 11
28.21209089425872
 21
21.04203010430516
 31
0.0
 11
28.21315948797906
 21
21.03411321741339
 31
0.0
 11
28.21397667768179
 21
21.02910877193045
 31
0.0
  0
SPLINE
  5
2E8
330
2
100
AcDbEntity
  8
GAIKEI
  6
Continuous
 62
     1
100
AcDbSpline
210
0.0
220
0.0
230
1.0
 70
     8
 71
     3
 72
    15
 73
    11
 74
     9
 42
0.0000000001
 43
0.0000000001
 44
0.000001
 12
0.9994496190759601
 22
0.0331731657958403
 32
0.0
 13
0.134530790036436
 23
0.9909094138881577
 33
0.0
 40
0.0
 40
0.0
 40
0.0
 40
0.0
 40
0.0233153785981862
 40
0.0466018528889248
 40
0.069867973504098
 40
0.0931236945379368
 40
0.1163794155718251
 40
0.1396455361868939
 40
0.1629320104776048
 40
0.1862473890757017
 40
0.1862473890757017
 40
0.1862473890757017
 40
0.1862473890757017
 10
28.94576881931073
 20
20.99784644276616
 30
0.0
 10
28.95353633473025
 20
20.99810425773944
 30
0.0
 10
28.96905339034427
 20
20.99995463747068
 30
0.0
 10
28.99144578393779
 20
21.00676439286958
 30
0.0
 10
29.01229362696563
 20
21.01737013771286
 30
0.0
 10
29.03095378509562
 20
21.03145528116908
 30
0.0
 10
29.04686165883169
 20
21.04858806613874
 30
0.0
 10
29.05953036969771
 20
21.06825067399183
 30
0.0
 10
29.06857963174056
 20
21.08983545835301
 30
0.0
 10
29.07199674151505
 20
21.10508427079416
 30
0.0
 10
29.07304228694932
 20
21.11278541350791
 30
0.0
 11
28.94576881931073
 21
20.99784644276616
 31
0.0
 11
28.96891809606371
 21
21.00062875053172
 31
0.0
 11
28.99119839058449
 21
21.00739996653917
 31
0.0
 11
29.01193410414936
 21
21.0179519342895
 31
0.0
 11
29.03049580962568
 21
21.03196240356437
 31
0.0
 11
29.04631939415424
 21
21.04900483097839
 31
0.0
 11
29.05892321543661
 21
21.06856135238496
 31
0.0
 11
29.06792274985765
 21
21.09003853260853
 31
0.0
 11
29.07304228694932
 21
21.11278541350791
 31
0.0
  0
SPLINE
  5
2E9
330
2
100
AcDbEntity
  8
GAIKEI
  6
Continuous
 62
     1
100
AcDbSpline
210
0.0
220
0.0
230
1.0
 70
     8
 71
     3
 72
    13
 73
     9
 74
     7
 42
0.0000000001
 43
0.0000000001
 44
0.000001
 12
-0.999877353382941
 22
0.0156613598364006
 32
0.0
 13
-0.9488110788832816
 23
-0.3158441650376698
 33
0.0
 40
0.0
 40
0.0
 40
0.0
 40
0.0
 40
0.0035193495400885
 40
0.0069366593676421
 40
0.0102686576436301
 40
0.0135328649839161
 40
0.0199316755031191
 40
0.0230409896072655
 40
0.0230409896072655
 40
0.0230409896072655
 40
0.0230409896072655
 10
28.28190121277078
 20
24.42815565950349
 30
0.0
 10
28.2807282401362
 20
24.42817403210333
 30
0.0
 10
28.27841536868442
 20
24.42816482858518
 30
0.0
 10
28.27499464123557
 20
24.42802191568026
 30
0.0
 10
28.27166753433983
 20
24.42773887495287
 30
0.0
 10
28.26737249833545
 20
24.42716804600491
 30
0.0
 10
28.26319780650928
 20
24.42628330481444
 30
0.0
 10
28.26016315537706
 20
24.42536385355729
 30
0.0
 10
28.25917977148714
 20
24.4250365006516
 30
0.0
 11
28.28190121277078
 21
24.42815565950349
 31
0.0
 11
28.27838281690612
 21
24.42814183931569
 31
0.0
 11
28.27496858360735
 21
24.42799639317892
 31
0.0
 11
28.27164864689246
 21
24.42771131806097
 31
0.0
 11
28.26841314077922
 21
24.42727861092965
 31
0.0
 11
28.26215595642975
 21
24.42593828849766
 31
0.0
 11
28.25917977148714
 21
24.4250365006516
 31
0.0
  0
SPLINE
  5
2EA
330
2
100
AcDbEntity
  8
GAIKEI
  6
Continuous
 62
     1
100
AcDbSpline
210
0.0
220
0.0
230
1.0
 70
     8
 71
     3
 72
    27
 73
    23
 74
    21
 42
0.0000000001
 43
0.0000000001
 44
0.000001
 12
0.076512265488583
 22
0.9970686401797044
 32
0.0
 13
0.9552657900996008
 23
0.2957486606316001
 33
0.0
 40
0.0
 40
0.0
 40
0.0
 40
0.0
 40
0.0049081096672613
 40
0.0071949186294767
 40
0.0093538447207483
 40
0.0140218595452991
 40
0.0168863887855699
 40
0.0201057702735778
 40
0.0249374265708986
 40
0.0303592006904417
 40
0.0363136033730588
 40
0.0449355480795138
 40
0.0526210573927009
 40
0.0587210726899715
 40
0.0641083993651827
 40
0.0689597463310068
 40
0.0735065916914116
 40
0.0777817551463168
 40
0.0817588340345096
 40
0.0856007268680729
 40
0.0893264960170779
 40
0.0929602759868131
 40
0.0929602759868131
 40
0.0929602759868131
 40
0.0929602759868131
 10
28.21052719800878
 20
24.35209496991615
 30
0.0
 10
28.21065237487207
 20
24.35372621066008
 30
0.0
 10
28.21082310938178
 20
24.35611903620503
 30
0.0
 10
28.21093605724025
 20
24.35923513834441
 30
0.0
 10
28.21118271953216
 20
24.3622648077308
 30
0.0
 10
28.21175118565205
 20
24.36545112735951
 30
0.0
 10
28.21255054600403
 20
24.36894481670864
 30
0.0
 10
28.21351909672333
 20
24.37245357491025
 30
0.0
 10
28.21493891615438
 20
24.37671693196989
 30
0.0
 10
28.21696581408895
 20
24.38172957152992
 30
0.0
 10
28.2198908529198
 20
24.38772421090892
 30
0.0
 10
28.22356419398534
 20
24.39417950901296
 30
0.0
 10
28.22770795817744
 20
24.40040125941312
 30
0.0
 10
28.23160740846692
 20
24.40547041939128
 30
0.0
 10
28.23520261433691
 20
24.40956596164813
 30
0.0
 10
28.23867822887104
 20
24.41306528594177
 30
0.0
 10
28.24211620874013
 20
24.41606379377161
 30
0.0
 10
28.24551980723834
 20
24.41864070526879
 30
0.0
 10
28.24889979956259
 20
24.42084801703876
 30
0.0
 10
28.25234287004543
 20
24.42258629230579
 30
0.0
 10
28.25583030912486
 20
24.42392762062045
 30
0.0
 10
28.25815222965025
 20
24.42472136290549
 30
0.0
 10
28.25930930488153
 20
24.42507959142517
 30
0.0
 11
28.21052719800878
 21
24.35209496991615
 31
0.0
 11
28.21084529182599
 21
24.35699264490413
 31
0.0
 11
28.21095423480131
 21
24.35927686577071
 31
0.0
 11
28.21113538125303
 21
24.3614281693383
 31
0.0
 11
28.21190136759719
 21
24.36603282720227
 31
0.0
 11
28.21254258951245
 21
24.36882458928059
 31
0.0
 11
28.21339653143292
 21
24.37192854581423
 31
0.0
 11
28.21492067634699
 21
24.37651333157769
 31
0.0
 11
28.21695338510938
 21
24.38153948221117
 31
0.0
 11
28.2195459426199
 21
24.38689983195445
 31
0.0
 11
28.22380943573728
 21
24.39439395010072
 31
0.0
 11
28.22808018810315
 21
24.40078363081961
 31
0.0
 11
28.23180623282837
 21
24.40561338673928
 31
0.0
 11
28.23536298534504
 21
24.40965966110454
 31
0.0
 11
28.238790504576
 21
24.4130928807175
 31
0.0
 11
28.24221798230713
 21
24.41608041255768
 31
0.0
 11
28.24562825604977
 21
24.41865846491334
 31
0.0
 11
28.24897455066309
 21
24.42080823482286
 31
0.0
 11
28.25240221380193
 21
24.422544199919
 31
0.0
 11
28.25586595235473
 21
24.42391674195022
 31
0.0
 11
28.25930930488153
 21
24.42507959142517
 31
0.0
  0
SPLINE
  5
2EB
330
2
100
AcDbEntity
  8
GAIKEI
  6
Continuous
 62
     1
100
AcDbSpline
210
0.0
220
0.0
230
1.0
 70
     8
 71
     3
 72
     9
 73
     5
 74
     3
 42
0.0000000001
 43
0.0000000001
 44
0.000001
 12
-0.1110702931717985
 22
-0.9938125527355401
 32
0.0
 13
-0.0037416002969241
 23
-0.9999930001891105
 33
0.0
 40
0.0
 40
0.0
 40
0.0
 40
0.0
 40
0.0014819459234957
 40
0.0103546008421527
 40
0.0103546008421527
 40
0.0103546008421527
 40
0.0103546008421527
 10
28.21054549803751
 20
24.3522604884611
 30
0.0
 10
28.21049063131477
 20
24.35176956297401
 30
0.0
 10
28.21013381365535
 20
24.34833662179244
 30
0.0
 10
28.20996196733978
 20
24.34488234535702
 30
0.0
 10
28.2099509013637
 20
24.34192481441977
 30
0.0
 11
28.21054549803751
 21
24.3522604884611
 31
0.0
 11
28.21039225787411
 21
24.35078664606346
 31
0.0
 11
28.2099509013637
 21
24.34192481441977
 31
0.0
  0
SPLINE
  5
2EC
330
2
100
AcDbEntity
  8
GAIKEI
  6
Continuous
 62
     1
100
AcDbSpline
210
0.0
220
0.0
230
1.0
 70
     8
 71
     3
 72
     9
 73
     5
 74
     3
 42
0.0000000001
 43
0.0000000001
 44
0.000001
 12
0.0037801567420873
 22
-0.9999928551819785
 32
0.0
 13
0.1113488517851972
 23
-0.993781380991875
 33
0.0
 40
0.0
 40
0.0
 40
0.0
 40
0.0
 40
0.0089265387507941
 40
0.0103706013120631
 40
0.0103706013120631
 40
0.0103706013120631
 40
0.0103706013120631
 10
28.2099509013637
 20
21.0608945201889
 30
0.0
 10
28.20996214926891
 20
21.05791902853146
 30
0.0
 10
28.21013546882128
 20
21.05445936911272
 30
0.0
 10
28.21049446068883
 20
21.05102129674265
 30
0.0
 10
28.21054805892487
 20
21.05054293591385
 30
0.0
 11
28.2099509013637
 21
21.0608945201889
 31
0.0
 11
28.21039805857544
 21
21.05197903198282
 31
0.0
 11
28.21054805892487
 21
21.05054293591385
 31
0.0
  0
SPLINE
  5
2ED
330
2
100
AcDbEntity
  8
GAIKEI
  6
Continuous
 62
     1
100
AcDbSpline
210
0.0
220
0.0
230
1.0
 70
     8
 71
     3
 72
    27
 73
    23
 74
    21
 42
0.0000000001
 43
0.0000000001
 44
0.000001
 12
-0.9535249561077124
 22
0.3013140522441413
 32
0.0
 13
-0.0768695003212578
 23
0.9970411626008027
 33
0.0
 40
0.0
 40
0.0
 40
0.0
 40
0.0
 40
0.0058739979649093
 40
0.0124236204270886
 40
0.0197818398251332
 40
0.0278973743687763
 40
0.0358503791856258
 40
0.0433983327956397
 40
0.0464908188593941
 40
0.0498285563935335
 40
0.0535042922793334
 40
0.0575234463291987
 40
0.0618893905706946
 40
0.066480365839282
 40
0.0707679492522824
 40
0.074210319982668
 40
0.0773515146809725
 40
0.0801844570514453
 40
0.0827251027315997
 40
0.0852229030852224
 40
0.087745240901918
 40
0.0928258952680474
 40
0.0928258952680474
 40
0.0928258952680474
 40
0.0928258952680474
 10
28.25931026725522
 20
20.97774134422281
 30
0.0
 10
28.257443266038
 20
20.9783313169327
 30
0.0
 10
28.25355995645688
 20
20.97979308645199
 30
0.0
 10
28.24766022575307
 20
20.98277637265676
 30
0.0
 10
28.24163314693007
 20
20.98701572924688
 30
0.0
 10
28.23591678456137
 20
20.99236670252957
 30
0.0
 10
28.23079059011968
 20
20.99835854598999
 30
0.0
 10
28.22723021342864
 20
21.0034425943424
 30
0.0
 10
28.22478236064871
 20
21.00740747684084
 30
0.0
 10
28.22307189332395
 20
21.01030989922256
 30
0.0
 10
28.22127961553525
 20
21.01352151911118
 30
0.0
 10
28.21940453780928
 20
21.01707827128485
 30
0.0
 10
28.21748264432642
 20
21.02095335020081
 30
0.0
 10
28.21561243890358
 20
21.02495414119784
 30
0.0
 10
28.21410736102988
 20
21.02877871421696
 30
0.0
 10
28.21298187208308
 20
21.03222509413246
 30
0.0
 10
28.21217881178981
 20
21.03526130483944
 30
0.0
 10
28.21160932982611
 20
21.03804323294992
 30
0.0
 10
28.21122211803134
 20
21.04063981603133
 30
0.0
 10
28.21100406578774
 20
21.04315188840008
 30
0.0
 10
28.21084505430992
 20
21.04651517931554
 30
0.0
 10
28.21065736708528
 20
21.04904290163034
 30
0.0
 10
28.21052718463113
 20
21.05073144214234
 30
0.0
 11
28.25931026725522
 21
20.97774134422281
 31
0.0
 11
28.25381001386552
 21
20.97980600244946
 31
0.0
 11
28.24797630557146
 21
20.98278349753349
 31
0.0
 11
28.2419435961782
 21
20.98699645224639
 31
0.0
 11
28.23598732359562
 21
20.99250849663974
 31
0.0
 11
28.2308069514902
 21
20.99854276800454
 31
0.0
 11
28.22646475225809
 21
21.00471655832223
 31
0.0
 11
28.22483414886119
 21
21.00734418646496
 31
0.0
 11
28.22314004032637
 21
21.01022001652322
 31
0.0
 11
28.22134779013288
 21
21.0134292123609
 31
0.0
 11
28.21947266748384
 21
21.01698419052326
 31
0.0
 11
28.21753047308908
 21
21.02089444859584
 31
0.0
 11
28.21561418949978
 21
21.02506636309778
 31
0.0
 11
28.21404751847439
 21
21.0290572470094
 31
0.0
 11
28.2129825700643
 21
21.03233057748801
 31
0.0
 11
28.21218192562412
 21
21.03536791815404
 31
0.0
 11
28.21161520374642
 21
21.03814353746412
 31
0.0
 11
28.21124508606397
 21
21.04065704958038
 31
0.0
 11
28.21102005212413
 21
21.04314468410081
 31
0.0
 11
28.21087684650655
 21
21.04566296457506
 31
0.0
 11
28.21052718463113
 21
21.05073144214234
 31
0.0
  0
SPLINE
  5
2EE
330
2
100
AcDbEntity
  8
GAIKEI
  6
Continuous
 62
     1
100
AcDbSpline
210
0.0
220
0.0
230
1.0
 70
     8
 71
     3
 72
    13
 73
     9
 74
     7
 42
0.0000000001
 43
0.0000000001
 44
0.000001
 12
0.9487139982427795
 22
-0.3161356505334366
 32
0.0
 13
0.9998801064241472
 23
0.0154845980650528
 33
0.0
 40
0.0
 40
0.0
 40
0.0
 40
0.0
 40
0.00322816300206
 40
0.0096478713637194
 40
0.0129156519903947
 40
0.0162409066154065
 40
0.019636864897581
 40
0.023115804828552
 40
0.023115804828552
 40
0.023115804828552
 40
0.023115804828552
 10
28.25910789789304
 20
20.97780864089285
 30
0.0
 10
28.2601287657026
 20
20.97746846175595
 30
0.0
 10
28.26320862445175
 20
20.97653698309037
 30
0.0
 10
28.26743141667845
 20
20.97564893923131
 30
0.0
 10
28.27173258984379
 20
20.97507976560925
 30
0.0
 10
28.27505155342712
 20
20.97479771753389
 30
0.0
 10
28.27844942695441
 20
20.97465496574871
 30
0.0
 10
28.28074170516129
 20
20.97464571844297
 30
0.0
 10
28.28190121277078
 20
20.97466367510515
 30
0.0
 11
28.25910789789304
 21
20.97780864089285
 31
0.0
 11
28.26219837361862
 21
20.97687416385415
 31
0.0
 11
28.26847783117159
 21
20.97553788297077
 31
0.0
 11
28.2717171534162
 21
20.97510674534132
 31
0.0
 11
28.27503039561168
 21
20.9748227575204
 31
0.0
 11
28.27842320098682
 21
20.97467778045825
 31
0.0
 11
28.28190121277078
 21
20.97466367510515
 31
0.0
  0
SPLINE
  5
2EF
330
2
100
AcDbEntity
  8
GAIKEI
  6
Continuous
 62
     1
100
AcDbSpline
210
0.0
220
0.0
230
1.0
 70
     8
 71
     3
 72
    15
 73
    11
 74
     9
 42
0.0000000001
 43
0.0000000001
 44
0.000001
 12
-0.1345307900367005
 22
0.990909413888122
 32
0.0
 13
-0.9994496190759491
 23
0.0331731657961701
 33
0.0
 40
0.0
 40
0.0
 40
0.0
 40
0.0
 40
0.0233153785982079
 40
0.0466018528890413
 40
0.0698679735041718
 40
0.0931236945380393
 40
0.1163794155718608
 40
0.1396455361869447
 40
0.1629320104776124
 40
0.1862473890756824
 40
0.1862473890756824
 40
0.1862473890756824
 40
0.1862473890756824
 10
29.07304228694932
 20
24.29003392110076
 30
0.0
 10
29.07199674151505
 20
24.29773506381453
 30
0.0
 10
29.06857963174062
 20
24.3129838762558
 30
0.0
 10
29.05953036969766
 20
24.33456866061701
 30
0.0
 10
29.04686165883146
 20
24.3542312684701
 30
0.0
 10
29.03095378509542
 20
24.37136405343976
 30
0.0
 10
29.01229362696546
 20
24.38544919689594
 30
0.0
 10
28.99144578393765
 20
24.39605494173917
 30
0.0
 10
28.96905339034413
 20
24.40286469713797
 30
0.0
 10
28.95353633473022
 20
24.4047150768692
 30
0.0
 10
28.94576881931073
 20
24.40497289184248
 30
0.0
 11
29.07304228694932
 21
24.29003392110076
 31
0.0
 11
29.06792274985765
 21
24.31278080200025
 31
0.0
 11
29.0589232154365
 21
24.33425798222391
 31
0.0
 11
29.04631939415401
 21
24.35381450363048
 31
0.0
 11
29.03049580962545
 21
24.37085693104447
 31
0.0
 11
29.01193410414914
 21
24.38486740031931
 31
0.0
 11
28.99119839058432
 21
24.39541936806956
 31
0.0
 11
28.96891809606359
 21
24.40219058407695
 31
0.0
 11
28.94576881931073
 21
24.40497289184248
 31
0.0
  0
SPLINE
  5
2F0
330
2
100
AcDbEntity
  8
GAIKEI
  6
Continuous
 62
     1
100
AcDbSpline
210
0.0
220
0.0
230
1.0
 70
     8
 71
     3
 72
    21
 73
    17
 74
    15
 42
0.0000000001
 43
0.0000000001
 44
0.000001
 12
0.978004482629762
 22
0.2085838727133314
 32
0.0
 13
0.1354487900196674
 23
0.9907843485250502
 33
0.0
 40
0.0
 40
0.0
 40
0.0
 40
0.0
 40
0.0199215087763172
 40
0.0395198938739145
 40
0.0588087415335798
 40
0.0777961773045899
 40
0.0964872829742974
 40
0.1148865293641492
 40
0.1329997522067994
 40
0.1508345262551679
 40
0.174183934516597
 40
0.1970597141137968
 40
0.2194690949709245
 40
0.2414165726700155
 40
0.2629089085026607
 40
0.2839580335681903
 40
0.2839580335681903
 40
0.2839580335681903
 40
0.2839580335681903
 10
29.17862552627401
 20
20.7550840058102
 30
0.0
 10
29.18511996790201
 20
20.75646910762715
 30
0.0
 10
29.19789238897019
 20
20.75977328558878
 30
0.0
 10
29.21639831158845
 20
20.76630650072583
 30
0.0
 10
29.23401146927716
 20
20.77423085806417
 30
0.0
 10
29.2506528334379
 20
20.78341988971846
 30
0.0
 10
29.26625510040972
 20
20.79375078299921
 30
0.0
 10
29.28075777091121
 20
20.80510772266294
 30
0.0
 10
29.29410972049107
 20
20.81737963528886
 30
0.0
 10
29.30757387009246
 20
20.83187676587944
 30
0.0
 10
29.32065454418776
 20
20.84880333279873
 30
0.0
 10
29.33279350208162
 20
20.86823812410265
 30
0.0
 10
29.34279014277885
 20
20.88833411378605
 30
0.0
 10
29.35067740597322
 20
20.90885252223241
 30
0.0
 10
29.35650150213101
 20
20.92957559295866
 30
0.0
 10
29.359061338456
 20
20.94354683710021
 30
0.0
 10
29.36001169796305
 20
20.95049855165524
 30
0.0
 11
29.17862552627401
 21
20.7550840058102
 31
0.0
 11
29.19791206538707
 21
20.76007559696254
 31
0.0
 11
29.21639422172098
 21
20.76659530769297
 31
0.0
 11
29.23398520028002
 21
20.7745084082946
 31
0.0
 11
29.25060714856704
 21
20.78368629907442
 31
0.0
 11
29.26619089791865
 21
20.79400639693404
 31
0.0
 11
29.28067569759378
 21
20.80535202089493
 31
0.0
 11
29.29400894190781
 21
20.81761227597088
 31
0.0
 11
29.30614583433885
 21
20.83068038387404
 31
0.0
 11
29.32042965673077
 21
20.84915111914131
 31
0.0
 11
29.33255114854046
 21
20.8685514091523
 31
0.0
 11
29.34253228361206
 21
20.88861524693368
 31
0.0
 11
29.35040594097689
 21
20.90910176527905
 31
0.0
 11
29.35621504094894
 21
20.92979415482847
 31
0.0
 11
29.36001169796305
 21
20.95049855165524
 31
0.0
  0
SPLINE
  5
2F1
330
2
100
AcDbEntity
  8
GAIKEI
  6
Continuous
 62
     1
100
AcDbSpline
210
0.0
220
0.0
230
1.0
 70
     8
 71
     3
 72
    15
 73
    11
 74
     9
 42
0.0000000001
 43
0.0000000001
 44
0.000001
 12
0.9785263958185264
 22
0.2061215483310866
 32
0.0
 13
0.1327585762537782
 23
0.9911484048471599
 33
0.0
 40
0.0
 40
0.0
 40
0.0
 40
0.0
 40
0.0257301444278661
 40
0.0508393460167734
 40
0.0759402904366688
 40
0.1016467932427982
 40
0.127345953590442
 40
0.1524442556000162
 40
0.1775562343418478
 40
0.2032949066242228
 40
0.2032949066242228
 40
0.2032949066242228
 40
0.2032949066242228
 10
29.16481135215389
 20
20.81955015170428
 30
0.0
 10
29.17320389398418
 20
20.82131799744036
 30
0.0
 10
29.18954419813719
 20
20.82609455022123
 30
0.0
 10
29.2125749613457
 20
20.83683188343542
 30
0.0
 10
29.23360041765642
 20
20.85111005559068
 30
0.0
 10
29.25229706782341
 20
20.86858742227378
 30
0.0
 10
29.26833948416135
 20
20.88852798580607
 30
0.0
 10
29.28101399949606
 20
20.91055481167128
 30
0.0
 10
29.29000901155101
 20
20.93432333226208
 30
0.0
 10
29.29355782080208
 20
20.95097733525456
 30
0.0
 10
29.29469683063104
 20
20.95948094991308
 30
0.0
 11
29.16481135215389
 21
20.81955015170428
 31
0.0
 11
29.18950828276604
 21
20.82676990076465
 31
0.0
 11
29.21224765235706
 21
20.83741852782032
 31
0.0
 11
29.23302946092713
 21
20.85149603287129
 31
0.0
 11
29.25185370847612
 21
20.86900241591758
 31
0.0
 11
29.26791074026255
 21
20.88906781006404
 31
0.0
 11
29.28040360455049
 21
20.91083603044544
 31
0.0
 11
29.28933230133998
 21
20.93430707706179
 31
0.0
 11
29.29469683063104
 21
20.95948094991308
 31
0.0
  0
SPLINE
  5
2F2
330
2
100
AcDbEntity
  8
GAIKEI
  6
Continuous
 62
     1
100
AcDbSpline
210
0.0
220
0.0
230
1.0
 70
     8
 71
     3
 72
     9
 73
     5
 74
     3
 42
0.0000000001
 43
0.0000000001
 44
0.000001
 12
0.1362218791743881
 22
0.990678353268203
 32
0.0
 13
0.0000205302016735
 23
0.9999999997892553
 33
0.0
 40
0.0
 40
0.0
 40
0.0
 40
0.0
 40
0.0636160010089791
 40
0.1272320020216058
 40
0.1272320020216058
 40
0.1272320020216058
 40
0.1272320020216058
 10
29.49598728093912
 20
22.42315008143888
 30
0.0
 10
29.49887591134012
 20
22.44415774647924
 30
0.0
 10
29.50322226552709
 20
22.48638248991223
 30
0.0
 10
29.5046692313733
 20
22.52880566804087
 30
0.0
 10
29.50466966672309
 20
22.55001100170728
 30
0.0
 11
29.49598728093912
 21
22.42315008143888
 31
0.0
 11
29.50249841610793
 21
22.48643203030446
 31
0.0
 11
29.50466966672309
 21
22.55001100170728
 31
0.0
  0
SPLINE
  5
2F3
330
2
100
AcDbEntity
  8
GAIKEI
  6
Continuous
 62
     1
100
AcDbSpline
210
0.0
220
0.0
230
1.0
 70
     8
 71
     3
 72
     9
 73
     5
 74
     3
 42
0.0000000001
 43
0.0000000001
 44
0.000001
 12
-0.0000205301984769
 22
0.9999999997892555
 32
0.0
 13
-0.1362218791775721
 23
0.990678353267765
 33
0.0
 40
0.0
 40
0.0
 40
0.0
 40
0.0
 40
0.063616001014118
 40
0.1272320020216128
 40
0.1272320020216128
 40
0.1272320020216128
 40
0.1272320020216128
 10
29.50466966672309
 20
22.85280833290139
 30
0.0
 10
29.50466923137339
 20
22.87401366656829
 30
0.0
 10
29.50322226552703
 20
22.91643684469696
 30
0.0
 10
29.49887591134012
 20
22.95866158812993
 30
0.0
 10
29.49598728093912
 20
22.97966925316979
 30
0.0
 11
29.50466966672309
 21
22.85280833290139
 31
0.0
 11
29.50249841610793
 21
22.91638730430571
 31
0.0
 11
29.49598728093912
 21
22.97966925316979
 31
0.0
  0
SPLINE
  5
2F4
330
2
100
AcDbEntity
  8
GAIKEI
  6
Continuous
 62
     1
100
AcDbSpline
210
0.0
220
0.0
230
1.0
 70
     8
 71
     3
 72
    15
 73
    11
 74
     9
 42
0.0000000001
 43
0.0000000001
 44
0.000001
 12
-0.1327902774087838
 22
0.9911441581453722
 32
0.0
 13
-0.9785329879817496
 23
0.2060902506949534
 33
0.0
 40
0.0
 40
0.0
 40
0.0
 40
0.0
 40
0.0257301444274651
 40
0.0508393460162794
 40
0.0759402904363073
 40
0.1016467932429376
 40
0.1273459535906403
 40
0.1524442556002645
 40
0.177556234342048
 40
0.2032949066242748
 40
0.2032949066242748
 40
0.2032949066242748
 40
0.2032949066242748
 10
29.29469683063104
 20
24.44333838469558
 30
0.0
 10
29.29355792629227
 20
24.45183914547475
 30
0.0
 10
29.29000961879643
 20
24.46848938601933
 30
0.0
 10
29.28101451732954
 20
24.49225479214064
 30
0.0
 10
29.26833926981217
 20
24.51428373023467
 30
0.0
 10
29.2523005203139
 20
24.53422819282923
 30
0.0
 10
29.2336080310717
 20
24.55170892627748
 30
0.0
 10
29.21258462669909
 20
24.56598621121717
 30
0.0
 10
29.18955075099475
 20
24.57672368685081
 30
0.0
 10
29.1732067321189
 20
24.58150101976329
 30
0.0
 10
29.16481135215389
 20
24.58326918290436
 30
0.0
 11
29.29469683063104
 21
24.44333838469558
 31
0.0
 11
29.28933346728127
 21
24.46850378736895
 31
0.0
 11
29.28040515913881
 21
24.49197201059266
 31
0.0
 11
29.26791190620384
 21
24.5137430543667
 31
0.0
 11
29.25185370847612
 21
24.53381691869106
 31
0.0
 11
29.23303782095997
 21
24.551321509204
 31
0.0
 11
29.21225879906751
 21
24.56539841674385
 31
0.0
 11
29.18951664279882
 21
24.57604764131065
 31
0.0
 11
29.16481135215389
 21
24.58326918290436
 31
0.0
  0
SPLINE
  5
2F5
330
2
100
AcDbEntity
  8
GAIKEI
  6
Continuous
 62
     1
100
AcDbSpline
210
0.0
220
0.0
230
1.0
 70
     8
 71
     3
 72
    15
 73
    11
 74
     9
 42
0.0000000001
 43
0.0000000001
 44
0.000001
 12
-0.1364008987339492
 22
0.9906537209462097
 32
0.0
 13
-0.1677708966327061
 23
0.9858260121558256
 33
0.0
 40
0.0
 40
0.0
 40
0.0
 40
0.0
 40
0.0088099548289516
 40
0.0175208478463952
 40
0.0261353685926574
 40
0.0346546660583881
 40
0.0430781984095443
 40
0.0513553481857598
 40
0.0593952990170794
 40
0.0671960523423756
 40
0.0671960523423756
 40
0.0671960523423756
 40
0.0671960523423756
 10
29.0886375005249
 20
24.19078067869222
 30
0.0
 10
29.08823693860606
 20
24.19368988353645
 30
0.0
 10
29.08740920312545
 20
24.19947134191072
 30
0.0
 10
29.08608618564304
 20
24.20808222206432
 30
0.0
 10
29.08469754246374
 20
24.21658458367748
 30
0.0
 10
29.08325888149184
 20
24.22498141047376
 30
0.0
 10
29.08179213884535
 20
24.23325915373215
 30
0.0
 10
29.08033179446693
 20
24.241375695492
 30
0.0
 10
29.0789102249519
 20
24.24928832532863
 30
0.0
 10
29.07801389451904
 20
24.25449197156431
 30
0.0
 10
29.07757764805911
 20
24.25705536674513
 30
0.0
 11
29.0886375005249
 21
24.19078067869222
 31
0.0
 11
29.08739053387058
 21
24.19950200479707
 31
0.0
 11
29.08606867074508
 21
24.20811202111469
 31
0.0
 11
29.08468231087653
 21
24.21661425516499
 31
0.0
 11
29.08324647324298
 21
24.22501168266149
 31
0.0
 11
29.08178091519409
 21
24.2333067422349
 31
0.0
 11
29.0803191226679
 21
24.2414537885573
 31
0.0
 11
29.07890672219253
 21
24.2493687390396
 31
0.0
 11
29.07757764805911
 21
24.25705536674513
 31
0.0
  0
SPLINE
  5
2F6
330
2
100
AcDbEntity
  8
GAIKEI
  6
Continuous
 62
     1
100
AcDbSpline
210
0.0
220
0.0
230
1.0
 70
     8
 71
     3
 72
    13
 73
     9
 74
     7
 42
0.0000000001
 43
0.0000000001
 44
0.000001
 12
-0.1032078770309288
 22
0.9946598082353428
 32
0.0
 13
-0.135947176317206
 23
0.9907160871063812
 33
0.0
 40
0.0
 40
0.0
 40
0.0
 40
0.0
 40
0.010667482179516
 40
0.0213526033887962
 40
0.0323808699812575
 40
0.0439032233371563
 40
0.0555872268423086
 40
0.0673754141472287
 40
0.0673754141472287
 40
0.0673754141472287
 40
0.0673754141472287
 10
29.19170523121176
 20
23.42718479782115
 30
0.0
 10
29.19133824181543
 20
23.43072163641416
 30
0.0
 10
29.19061612429542
 20
23.43780251141894
 30
0.0
 10
29.18960359648671
 20
23.44854857181944
 30
0.0
 10
29.18852857233239
 20
23.45957490516622
 30
0.0
 10
29.18733668557792
 20
23.47092421452988
 30
0.0
 10
29.18598532461385
 20
23.48251082735098
 30
0.0
 10
29.18497380645519
 20
23.49026952199908
 30
0.0
 10
29.18443961619585
 20
23.49416243759936
 30
0.0
 11
29.19170523121176
 21
23.42718479782115
 31
0.0
 11
29.19063128855419
 21
23.43779779059605
 31
0.0
 11
29.18960966664929
 21
23.44843420580639
 31
0.0
 11
29.18853223150922
 21
23.45940971979371
 31
0.0
 11
29.18732156535384
 21
23.47086829627324
 31
0.0
 11
29.1859643012827
 21
23.48247320409249
 31
0.0
 11
29.18443961619585
 21
23.49416243759936
 31
0.0
  0
SPLINE
  5
2F7
330
2
100
AcDbEntity
  8
GAIKEI
  6
Continuous
 62
     1
100
AcDbSpline
210
0.0
220
0.0
230
1.0
 70
     8
 71
     3
 72
    14
 73
    10
 74
     8
 42
0.0000000001
 43
0.0000000001
 44
0.000001
 12
0.1677588837034731
 22
0.9858280564776825
 32
0.0
 13
0.1366130456583842
 23
0.9906244877631182
 33
0.0
 40
0.0
 40
0.0
 40
0.0
 40
0.0
 40
0.0077805537819203
 40
0.0157593947443002
 40
0.0239337084991824
 40
0.0323033226631423
 40
0.0438356785406941
 40
0.0554749749921558
 40
0.0671959577983806
 40
0.0671959577983806
 40
0.0671959577983806
 40
0.0671959577983806
 10
29.07757764805911
 20
21.14576396786353
 30
0.0
 10
29.07801273373144
 20
21.14832073060124
 30
0.0
 10
29.07890442627749
 20
21.1534976732614
 30
0.0
 10
29.08031491442427
 20
21.16134992851423
 30
0.0
 10
29.08176245135741
 20
21.16939498901735
 30
0.0
 10
29.08339632147582
 20
21.17861004460038
 30
0.0
 10
29.08516316630846
 20
21.1889744428731
 30
0.0
 10
29.08698784019438
 20
21.20046160763228
 30
0.0
 10
29.08810375413847
 20
21.20816829172026
 30
0.0
 10
29.0886375005249
 20
21.21203865591642
 30
0.0
 11
29.07757764805911
 21
21.14576396786353
 31
0.0
 11
29.07890321222004
 21
21.15343070825398
 31
0.0
 11
29.08030474833203
 21
21.16128551850096
 31
0.0
 11
29.08174853194737
 21
21.16933131783355
 31
0.0
 11
29.08320558468813
 21
21.17757312696602
 31
0.0
 11
29.08513678592953
 21
21.18894263422959
 31
0.0
 11
29.08695831023056
 21
21.20043851873129
 31
0.0
 11
29.0886375005249
 21
21.21203865591642
 31
0.0
  0
SPLINE
  5
2F8
330
2
100
AcDbEntity
  8
GAIKEI
  6
Continuous
 62
     1
100
AcDbSpline
210
0.0
220
0.0
230
1.0
 70
     8
 71
     3
 72
    14
 73
    10
 74
     8
 42
0.0000000001
 43
0.0000000001
 44
0.000001
 12
0.1359523053525381
 22
0.9907153832808543
 32
0.0
 13
0.1044770653903519
 23
0.9945272961600501
 33
0.0
 40
0.0
 40
0.0
 40
0.0
 40
0.0
 40
0.0117441122318229
 40
0.0233143127744365
 40
0.0347515885516765
 40
0.0432002755691816
 40
0.0514996482291378
 40
0.0595581322122607
 40
0.0673754410105548
 40
0.0673754410105548
 40
0.0673754410105548
 40
0.0673754410105548
 10
29.19429641856027
 20
21.9803299313453
 30
0.0
 10
29.19482863160434
 20
21.98420828889565
 30
0.0
 10
29.1958335528206
 20
21.99191476954656
 30
0.0
 10
29.19717670289088
 20
22.00342079524478
 30
0.0
 10
29.19827425371375
 20
22.01384875167847
 30
0.0
 10
29.19919360428742
 20
22.02319879738616
 30
0.0
 10
29.19997987165073
 20
22.03143017191241
 30
0.0
 10
29.20074751086068
 20
22.03945194391714
 30
0.0
 10
29.20128979041542
 20
22.04471606212935
 30
0.0
 10
29.20156203357624
 20
22.0473075711235
 30
0.0
 11
29.19429641856027
 21
21.9803299313453
 31
0.0
 11
29.19581570227843
 21
21.9919754174708
 31
0.0
 11
29.19716096871997
 21
22.00346714794267
 31
0.0
 11
29.19836457309555
 21
22.01484091676602
 31
0.0
 11
29.19919554240824
 21
22.02324863846621
 31
0.0
 11
29.199988745567
 21
22.0315100189365
 31
0.0
 11
29.20076600312098
 21
22.0395309551601
 31
0.0
 11
29.20156203357624
 21
22.0473075711235
 31
0.0
  0
ARC
  5
2F9
330
2
100
AcDbEntity
  8
GAIKEI
 62
     1
100
AcDbCircle
 10
28.29438469458097
 20
25.25219314223287
 30
0.0
 40
0.1000109124005768
100
AcDbArc
 50
294.6822153763288
 51
359.9992555506058
  0
LINE
  5
2FA
330
2
100
AcDbEntity
  8
GAIKEI
 62
     1
100
AcDbLine
 10
28.39439560697309
 20
25.25219185389384
 30
0.0
 11
28.39439560697309
 21
25.30087954613606
 31
0.0
  0
ARC
  5
2FB
330
2
100
AcDbEntity
  8
GAIKEI
 62
     1
100
AcDbCircle
 10
28.31805058765559
 20
25.30586902207978
 30
0.0
 40
0.0096820896984856
100
AcDbArc
 50
265.9875314113305
 51
357.4403055779336
  0
LINE
  5
2FC
330
2
100
AcDbEntity
  8
GAIKEI
 62
     1
100
AcDbLine
 10
28.32772301689312
 20
25.30543661766802
 30
0.0
 11
28.32772301689312
 21
25.32504405965799
 31
0.0
  0
ARC
  5
2FD
330
2
100
AcDbEntity
  8
GAIKEI
 62
     1
100
AcDbCircle
 10
28.33772390540509
 20
25.32504405965795
 30
0.0
 40
0.0100008885120045
100
AcDbArc
 50
88.00000000002318
 51
179.9999999998914
  0
LINE
  5
2FE
330
2
100
AcDbEntity
  8
GAIKEI
 62
     1
100
AcDbLine
 10
28.33807293641417
 20
25.335038847628
 30
0.0
 11
28.36222273185195
 21
25.33419553360582
 31
0.0
  0
ARC
  5
2FF
330
2
100
AcDbEntity
  8
GAIKEI
 62
     1
100
AcDbCircle
 10
28.36105930269571
 20
25.30087954240384
 30
0.0
 40
0.03333630427746
100
AcDbArc
 50
0.0000064146182766
 51
88.00001314450677
  0
LINE
  5
300
330
2
100
AcDbEntity
  8
GAIKEI
 62
     1
100
AcDbLine
 10
26.77017089555306
 20
1.723813145947076
 30
0.0
 11
26.77017089555306
 21
1.618023896733035
 31
0.0
  0
ELLIPSE
  5
301
330
2
100
AcDbEntity
  8
S1
100
AcDbEllipse
 10
34.28424964774564
 20
17.56235466033763
 30
0.0
 11
-0.0010561492818511
 21
-0.3251459740627804
 31
0.0
210
0.0
220
0.0
230
1.0
 40
0.7373811941899307
 41
0.0
 42
6.283185307179586
  0
TEXT
  5
303
330
2
100
AcDbEntity
  8
TOUROKU
100
AcDbText
 10
12.64938308811382
 20
45.0973329692309
 30
0.0
 40
2.0
  1
ＴＨ５０ＰＨ１１ＫＲ＋ＴＹＣＥ４２ＰＳ７
 72
     2
 11
59.84938308811383
 21
45.0973329692309
 31
0.0
100
AcDbText
  0
TEXT
  5
305
330
2
100
AcDbEntity
  8
MOJI1
100
AcDbText
 10
-38.15056694481382
 20
51.09733296923113
 30
0.0
 40
4.0
  1
ハイビジョンプラズマディスプレイ天吊り金具付
 41
0.9200000000000001
100
AcDbText
  0
DIMENSION
  5
307
330
2
100
AcDbEntity
  8
SUNPO
100
AcDbDimension
  2
*D8
 10
6.79487203314875
 20
33.66701217318862
 30
0.0
 11
-21.3714841612213
 21
33.66701217318862
 31
0.0
 70
   161
  1
1210
 71
     5
 42
40.3333311242635
  3
STANDARD
100
AcDbAlignedDimension
 13
-33.53845909111476
 23
25.66701217318861
 33
0.0
 14
6.794872033148749
 24
25.66701217318861
 34
0.0
1001
ACAD
1000
DSTYLE
1002
{
1070
    40
1040
1.0
1070
   140
1040
2.5
1070
   147
1040
0.5
1070
   172
1070
     1
1070
   279
1070
     0
1070
   288
1070
     0
1002
}
  0
DIMENSION
  5
315
330
2
100
AcDbEntity
  8
SUNPO
100
AcDbDimension
  2
*D7
 10
14.75461153497875
 20
25.66000585210442
 30
0.0
 11
13.00461153497874
 21
13.59334317912477
 31
0.0
 70
    33
  1
724
 71
     5
 42
24.13332534595929
  3
STANDARD
100
AcDbAlignedDimension
 13
6.754611534978749
 23
1.526680506145126
 33
0.0
 14
6.754611534978749
 24
25.66000585210442
 34
0.0
1001
ACAD
1000
DSTYLE
1002
{
1070
    40
1040
1.0
1070
   140
1040
2.5
1070
   147
1040
0.5
1070
   172
1070
     1
1070
   279
1070
     0
1070
   288
1070
     0
1002
}
  0
DIMENSION
  5
322
330
2
100
AcDbEntity
  8
SUNPO
100
AcDbDimension
  2
*D6
 10
-41.49184303732599
 20
41.1925730470645
 30
0.0
 11
-43.24184303732599
 21
21.40329184634044
 31
0.0
 70
    33
  1
1187.3～1487.3
 71
     5
 42
39.57856240144811
  3
STANDARD
100
AcDbAlignedDimension
 13
-33.49184303732599
 23
1.614010645616389
 33
0.0
 14
-33.49184303732599
 24
41.1925730470645
 34
0.0
1001
ACAD
1000
DSTYLE
1002
{
1070
    40
1040
1.0
1070
   140
1040
2.5
1070
   147
1040
0.5
1070
   172
1070
     1
1070
   279
1070
     0
1070
   288
1070
     0
1002
}
  0
DIMENSION
  5
32F
330
2
100
AcDbEntity
  8
SUNPO
100
AcDbDimension
  2
*D5
 10
-1.238465467756384
 20
-6.466584790639842
 30
0.0
 11
-13.42179797154307
 21
-4.716584790639842
 31
0.0
 70
    33
  1
731
 71
     5
 42
24.36666500757338
  3
STANDARD
100
AcDbAlignedDimension
 13
-25.60513047532976
 23
1.533415209360157
 33
0.0
 14
-1.238465467756384
 24
1.533415209360157
 34
0.0
1001
ACAD
1000
DSTYLE
1002
{
1070
    40
1040
1.0
1070
   140
1040
2.5
1070
   147
1040
0.5
1070
   172
1070
     1
1070
   279
1070
     0
1070
   288
1070
     0
1002
}
  0
TEXT
  5
33C
330
2
100
AcDbEntity
  8
TOUROKU
100
AcDbText
 10
33.96854052711911
 20
1.53271851229249
 30
0.0
 40
1.5
  1
Ｓ＝１／３０
 41
0.7
 72
     2
 11
41.03854052711909
 21
1.53271851229249
 31
0.0
100
AcDbText
  0
LINE
  5
33D
330
2
100
AcDbEntity
  8
WAKU
 62
     1
100
AcDbLine
 10
-65.15056694481382
 20
-42.90266703076906
 30
0.0
 11
59.84943305518595
 21
-42.90266703076906
 31
0.0
  0
LINE
  5
33F
330
2
100
AcDbEntity
  8
WAKU
 62
     1
100
AcDbLine
 10
-65.15056694481382
 20
-37.90266703076907
 30
0.0
 11
59.84943305518595
 21
-37.90266703076907
 31
0.0
  0
LINE
  5
340
330
2
100
AcDbEntity
  8
WAKU
 62
     4
100
AcDbLine
 10
59.84943305518595
 20
-12.90266703076907
 30
0.0
 11
59.84943305518595
 21
-57.90266703076906
 31
0.0
  0
TEXT
  5
341
330
2
100
AcDbEntity
  8
MOJI1
100
AcDbText
 10
-23.65056694481382
 20
-21.90266703076907
 30
0.0
 40
3.0
  1
４４０Ｗ
100
AcDbText
  0
TEXT
  5
342
330
2
100
AcDbEntity
  8
MOJI1
100
AcDbText
 10
-23.65056694481382
 20
-56.90266703076907
 30
0.0
 40
3.0
  1
シリアル、音声
100
AcDbText
  0
LINE
  5
343
330
2
100
AcDbEntity
  8
WAKU
 62
     4
100
AcDbLine
 10
-25.15056694481405
 20
-12.90266703076907
 30
0.0
 11
-25.15056694481405
 21
-57.90266703076906
 31
0.0
  0
TEXT
  5
344
330
2
100
AcDbEntity
  8
MOJI1
100
AcDbText
 10
-23.65056694481382
 20
-46.90266703076907
 30
0.0
 40
3.0
  1
１６Ｗ（８Ｗ＋８Ｗ）
100
AcDbText
  0
TEXT
  5
345
330
2
100
AcDbEntity
  8
MOJI1
100
AcDbText
 10
-23.65056694481382
 20
-26.90266703076907
 30
0.0
 40
3.0
  1
５０Ｖ型（１６：９）
100
AcDbText
  0
LINE
  5
346
330
2
100
AcDbEntity
  8
WAKU
 62
     4
100
AcDbLine
 10
-65.15056694481405
 20
-12.90266703076907
 30
0.0
 11
-65.15056694481382
 21
-57.90266703076906
 31
0.0
  0
TEXT
  5
347
330
2
100
AcDbEntity
  8
MOJI1
100
AcDbText
 10
-62.65056694481382
 20
-31.90266703076907
 30
0.0
 40
3.0
  1
画素数
100
AcDbText
  0
TEXT
  5
348
330
2
100
AcDbEntity
  8
MOJI1
100
AcDbText
 10
-62.65056694481382
 20
-16.90266703076907
 30
0.0
 40
3.0
  1
電  源
100
AcDbText
  0
TEXT
  5
349
330
2
100
AcDbEntity
  8
MOJI1
100
AcDbText
 10
-62.65056694481382
 20
-21.90266703076907
 30
0.0
 40
3.0
  1
消費電力
100
AcDbText
  0
TEXT
  5
34A
330
2
100
AcDbEntity
  8
MOJI1
100
AcDbText
 10
-62.65056694481382
 20
-51.90266703076907
 30
0.0
 40
3.0
  1
接続端子
100
AcDbText
  0
TEXT
  5
34B
330
2
100
AcDbEntity
  8
MOJI1
100
AcDbText
 10
-62.65056694481382
 20
-46.90266703076907
 30
0.0
 40
3.0
  1
音声最大出力
100
AcDbText
  0
TEXT
  5
34C
330
2
100
AcDbEntity
  8
MOJI1
100
AcDbText
 10
-62.65056694481382
 20
-26.90266703076907
 30
0.0
 40
3.0
  1
画面サイズ
100
AcDbText
  0
TEXT
  5
34D
330
2
100
AcDbEntity
  8
MOJI1
100
AcDbText
 10
-23.65056694481382
 20
-16.90266703076907
 30
0.0
 40
3.0
  1
ＡＣ１００Ｖ　５０Ｈｚ／６０Ｈｚ
100
AcDbText
  0
TEXT
  5
34E
330
2
100
AcDbEntity
  8
MOJI1
100
AcDbText
 10
-23.65056694481382
 20
-51.90266703076907
 30
0.0
 40
3.0
  1
ビデオ／Ｓビデオ／ＰＣ／外部スピーカ
100
AcDbText
  0
TEXT
  5
34F
330
2
100
AcDbEntity
  8
MOJI1
100
AcDbText
 10
-23.65056694481382
 20
-31.90266703076907
 30
0.0
 40
3.0
  1
１０４９０８８画素（水平１３６６×垂直７６８）
100
AcDbText
  0
LINE
  5
350
330
2
100
AcDbEntity
  8
WAKU
 62
     4
100
AcDbLine
 10
59.84943305518595
 20
-57.90266703076906
 30
0.0
 11
-65.15056694481382
 21
-57.90266703076906
 31
0.0
  0
LINE
  5
351
330
2
100
AcDbEntity
  8
WAKU
 62
     1
100
AcDbLine
 10
-65.15056694481382
 20
-52.90266703076906
 30
0.0
 11
59.84943305518595
 21
-52.90266703076906
 31
0.0
  0
LINE
  5
352
330
2
100
AcDbEntity
  8
WAKU
 62
     1
100
AcDbLine
 10
-65.15056694481382
 20
-47.90266703076906
 30
0.0
 11
59.84943305518595
 21
-47.90266703076906
 31
0.0
  0
LINE
  5
353
330
2
100
AcDbEntity
  8
WAKU
 62
     1
100
AcDbLine
 10
-65.15056694481382
 20
-27.90266703076907
 30
0.0
 11
59.84943305518595
 21
-27.90266703076907
 31
0.0
  0
LINE
  5
354
330
2
100
AcDbEntity
  8
WAKU
 62
     1
100
AcDbLine
 10
-65.15056694481382
 20
-17.90266703076907
 30
0.0
 11
59.84943305518595
 21
-17.90266703076907
 31
0.0
  0
LINE
  5
355
330
2
100
AcDbEntity
  8
WAKU
 62
     4
100
AcDbLine
 10
-65.15056694481382
 20
-12.90266703076907
 30
0.0
 11
59.84943305518595
 21
-12.90266703076907
 31
0.0
  0
LINE
  5
356
330
2
100
AcDbEntity
  8
WAKU
 62
     1
100
AcDbLine
 10
-65.15056694481382
 20
-32.90266703076907
 30
0.0
 11
59.84943305518595
 21
-32.90266703076907
 31
0.0
  0
LINE
  5
357
330
2
100
AcDbEntity
  8
WAKU
 62
     1
100
AcDbLine
 10
-65.15056694481382
 20
-22.90266703076907
 30
0.0
 11
59.84943305518595
 21
-22.90266703076907
 31
0.0
  0
TEXT
  5
358
330
2
100
AcDbEntity
  8
MOJI1
100
AcDbText
 10
-62.65056694481382
 20
-36.90266703076907
 30
0.0
 40
3.0
  1
コントラスト
100
AcDbText
  0
TEXT
  5
359
330
2
100
AcDbEntity
  8
MOJI1
100
AcDbText
 10
-62.65056694481382
 20
-41.90266703076907
 30
0.0
 40
3.0
  1
階調数
100
AcDbText
  0
TEXT
  5
35A
330
2
100
AcDbEntity
  8
MOJI1
100
AcDbText
 10
-23.65056694481382
 20
-36.90266703076907
 30
0.0
 40
3.0
  1
１５０００：１
100
AcDbText
  0
TEXT
  5
35B
330
2
100
AcDbEntity
  8
MOJI1
100
AcDbText
 10
-23.65056694481382
 20
-41.90266703076907
 30
0.0
 40
3.0
  1
４０９６階調（相当）
100
AcDbText
  0
ENDSEC
  0
SECTION
  2
OBJECTS
  0
DICTIONARY
  5
9
330
0
100
AcDbDictionary
281
     1
  3
ACAD_COLOR
350
2E
  3
ACAD_GROUP
350
2A
  3
ACAD_LAYOUT
350
D
  3
ACAD_MATERIAL
350
2D
  3
ACAD_MLINESTYLE
350
2B
  3
ACAD_PLOTSETTINGS
350
2C
  3
ACAD_PLOTSTYLENAME
350
8
  3
ACDBHEADERROUNDTRIPXREC
350
3A8
  3
AcDbVariableDictionary
350
3A3
  3
ASE_INDEX_DICTIONARY
350
364
  0
DICTIONARY
  5
13
330
12
100
AcDbDictionary
280
     1
281
     1
  3
ACAD_LAYERSTATES
360
14
  0
DICTIONARY
  5
3
330
2
100
AcDbDictionary
280
     1
281
     1
  3
ACAD_SORTENTS
360
4
  0
DICTIONARY
  5
2E
102
{ACAD_REACTORS
330
9
102
}
330
9
100
AcDbDictionary
281
     1
  0
DICTIONARY
  5
2A
102
{ACAD_REACTORS
330
9
102
}
330
9
100
AcDbDictionary
281
     1
  0
DICTIONARY
  5
D
102
{ACAD_REACTORS
330
9
102
}
330
9
100
AcDbDictionary
281
     1
  3
Model
350
C
  3
レイアウト1
350
11
  0
DICTIONARY
  5
2D
102
{ACAD_REACTORS
330
9
102
}
330
9
100
AcDbDictionary
281
     1
  0
DICTIONARY
  5
2B
102
{ACAD_REACTORS
330
9
102
}
330
9
100
AcDbDictionary
281
     1
  3
Standard
350
30
  0
DICTIONARY
  5
2C
102
{ACAD_REACTORS
330
9
102
}
330
9
100
AcDbDictionary
281
     1
  0
ACDBDICTIONARYWDFLT
  5
8
102
{ACAD_REACTORS
330
9
102
}
330
9
100
AcDbDictionary
281
     1
  3
Normal
350
7
100
AcDbDictionaryWithDefault
340
7
  0
DICTIONARY
  5
3A8
102
{ACAD_REACTORS
330
9
102
}
330
9
100
AcDbDictionary
281
     1
  3
COLORDICT
350
3AA
  3
MATERIALDICT
350
3A9
  0
DICTIONARY
  5
3A3
102
{ACAD_REACTORS
330
9
102
}
330
9
100
AcDbDictionary
281
     1
  3
DIMASSOC
350
3A5
  3
HIDETEXT
350
3A4
  3
PROJECTNAME
350
3A6
  0
DICTIONARY
  5
364
102
{ACAD_REACTORS
330
9
102
}
330
9
100
AcDbDictionary
281
     1
  3
ASEBlockHierarchyIndexRecord
350
366
1001
DCO15
1040
1627816453.21
  0
DICTIONARY
  5
14
102
{ACAD_REACTORS
330
13
102
}
330
13
100
AcDbDictionary
281
     1
  0
SORTENTSTABLE
  5
4
102
{ACAD_REACTORS
330
3
102
}
330
3
100
AcDbSortentsTable
330
2
  0
LAYOUT
  5
C
102
{ACAD_XDICTIONARY
360
3AB
102
}
102
{ACAD_REACTORS
330
D
102
}
330
D
100
AcDbPlotSettings
  1

  2
Ａ４－縦3FRIM01.pc3
  4
A4
  6

 40
5.873749732971191
 41
5.873747825622558
 42
5.873748779296875
 43
5.873748779296875
 44
209.9733276367187
 45
296.9259948730469
 46
5.429999999999999
 47
0.0
 48
0.0
 49
0.0
140
0.0
141
0.0
142
1.0
143
1.382515366965649
 70
 11956
 72
     1
 73
     0
 74
     1
  7
tmsacad.ctb
 75
     0
147
0.7233192656619828
148
0.0256332569354072
149
0.0240599051811614
100
AcDbLayout
  1
Model
 70
     1
 71
     0
 10
0.0
 20
0.0
 11
12.0
 21
9.0
 12
0.0
 22
0.0
 32
0.0
 14
0.0
 24
0.0
 34
0.0
 15
0.0
 25
0.0
 35
0.0
146
0.0
 13
0.0
 23
0.0
 33
0.0
 16
1.0
 26
0.0
 36
0.0
 17
0.0
 27
1.0
 37
0.0
 76
     0
330
2
  0
LAYOUT
  5
11
102
{ACAD_XDICTIONARY
360
3AD
102
}
102
{ACAD_REACTORS
330
D
102
}
330
D
100
AcDbPlotSettings
  1

  2
None
  4

  6

 40
0.0
 41
0.0
 42
0.0
 43
0.0
 44
0.0
 45
0.0
 46
0.0
 47
0.0
 48
0.0
 49
0.0
140
0.0
141
0.0
142
1.0
143
1.0
 70
   688
 72
     0
 73
     0
 74
     5
  7
tmsacad.ctb
 75
    16
147
1.0
148
0.0
149
0.0
100
AcDbLayout
  1
レイアウト1
 70
     1
 71
     1
 10
0.0
 20
0.0
 11
12.0
 21
9.0
 12
0.0
 22
0.0
 32
0.0
 14
0.0
 24
0.0
 34
0.0
 15
0.0
 25
0.0
 35
0.0
146
0.0
 13
0.0
 23
0.0
 33
0.0
 16
1.0
 26
0.0
 36
0.0
 17
0.0
 27
1.0
 37
0.0
 76
     0
330
E
  0
MLINESTYLE
  5
30
102
{ACAD_REACTORS
330
2B
102
}
330
2B
100
AcDbMlineStyle
  2
STANDARD
 70
     0
  3

 62
   256
 51
90.0
 52
90.0
 71
     2
 49
0.5
 62
   256
  6
BYLAYER
 49
-0.5
 62
   256
  6
BYLAYER
  0
ACDBPLACEHOLDER
  5
7
102
{ACAD_REACTORS
330
8
102
}
330
8
  0
XRECORD
  5
3AA
102
{ACAD_REACTORS
330
3A8
102
}
330
3A8
100
AcDbXrecord
280
     1
340
2E
  0
XRECORD
  5
3A9
102
{ACAD_REACTORS
330
3A8
102
}
330
3A8
100
AcDbXrecord
280
     1
340
2D
  0
DICTIONARYVAR
  5
3A5
102
{ACAD_REACTORS
330
3A3
102
}
330
3A3
100
DictionaryVariables
280
     0
  1
1
  0
DICTIONARYVAR
  5
3A4
102
{ACAD_REACTORS
330
3A3
102
}
330
3A3
100
DictionaryVariables
280
     0
  1
1
  0
DICTIONARYVAR
  5
3A6
102
{ACAD_REACTORS
330
3A3
102
}
330
3A3
100
DictionaryVariables
280
     0
  1

  0
XRECORD
  5
366
102
{ACAD_REACTORS
330
364
102
}
330
364
100
AcDbXrecord
280
     1
330
30D
330
30E
330
31B
330
31C
330
328
330
329
330
335
330
336
330
377
330
378
330
383
330
384
330
38F
330
390
330
39B
330
39C
  0
DICTIONARY
  5
3AB
330
C
100
AcDbDictionary
280
     1
281
     1
  3
ACAD_XREC_ROUNDTRIP
360
3AC
  0
DICTIONARY
  5
3AD
330
11
100
AcDbDictionary
280
     1
281
     1
  3
ACAD_XREC_ROUNDTRIP
360
3AE
  0
XRECORD
  5
3AC
102
{ACAD_REACTORS
330
3AB
102
}
330
3AB
100
AcDbXrecord
280
     1
102
SHADEPLOT
 70
     0
102
SHADEPLOTRESLEVEL
 70
     2
102
SHADEPLOTCUSTOMDPI
 70
   300
  0
XRECORD
  5
3AE
102
{ACAD_REACTORS
330
3AD
102
}
330
3AD
100
AcDbXrecord
280
     1
102
SHADEPLOT
 70
     0
102
SHADEPLOTRESLEVEL
 70
     2
102
SHADEPLOTCUSTOMDPI
 70
   300
  0
ENDSEC
  0
EOF
