  0
SECTION
  2
HEADER
  9
$ACADVER
  1
AC1015
  9
$ACADMAINTVER
 70
    20
  9
$DWGCODEPAGE
  3
ANSI_932
  9
$INSBASE
 10
0.4999999440410648
 20
246.5008351249344
 30
0.0
  9
$EXTMIN
 10
-60.63903717864184
 20
-55.79626402188591
 30
-0.0015258207003583
  9
$EXTMAX
 10
64.36248835684091
 20
57.22833293190729
 30
0.0000000349246037
  9
$LIMMIN
 10
0.0
 20
0.0
  9
$LIMMAX
 10
420.0
 20
297.0
  9
$ORTHOMODE
 70
     0
  9
$REGENMODE
 70
     0
  9
$FILLMODE
 70
     1
  9
$QTEXTMODE
 70
     0
  9
$MIRRTEXT
 70
     0
  9
$LTSCALE
 40
1.0
  9
$ATTMODE
 70
     1
  9
$TEXTSIZE
 40
2.5
  9
$TRACEWID
 40
1.0
  9
$TEXTSTYLE
  7
Standard
  9
$CLAYER
  8
SUNPO
  9
$CELTYPE
  6
ByLayer
  9
$CECOLOR
 62
   256
  9
$CELTSCALE
 40
1.0
  9
$DISPSILH
 70
     0
  9
$DIMSCALE
 40
1.0
  9
$DIMASZ
 40
2.0
  9
$DIMEXO
 40
2.0
  9
$DIMDLI
 40
8.0
  9
$DIMRND
 40
0.0
  9
$DIMDLE
 40
0.0
  9
$DIMEXE
 40
2.0
  9
$DIMTP
 40
0.0
  9
$DIMTM
 40
0.0
  9
$DIMTXT
 40
2.5
  9
$DIMCEN
 40
0.0
  9
$DIMTSZ
 40
0.0
  9
$DIMTOL
 70
     0
  9
$DIMLIM
 70
     0
  9
$DIMTIH
 70
     0
  9
$DIMTOH
 70
     0
  9
$DIMSE1
 70
     0
  9
$DIMSE2
 70
     0
  9
$DIMTAD
 70
     3
  9
$DIMZIN
 70
     0
  9
$DIMBLK
  1

  9
$DIMASO
 70
     1
  9
$DIMSHO
 70
     1
  9
$DIMPOST
  1

  9
$DIMAPOST
  1

  9
$DIMALT
 70
     0
  9
$DIMALTD
 70
     2
  9
$DIMALTF
 40
25.4
  9
$DIMLFAC
 40
1.0
  9
$DIMTOFL
 70
     1
  9
$DIMTVP
 40
0.0
  9
$DIMTIX
 70
     0
  9
$DIMSOXD
 70
     0
  9
$DIMSAH
 70
     1
  9
$DIMBLK1
  1
OPEN30
  9
$DIMBLK2
  1
OPEN30
  9
$DIMSTYLE
  2
STANDARD
  9
$DIMCLRD
 70
     0
  9
$DIMCLRE
 70
     0
  9
$DIMCLRT
 70
     0
  9
$DIMTFAC
 40
1.0
  9
$DIMGAP
 40
0.5
  9
$DIMJUST
 70
     0
  9
$DIMSD1
 70
     0
  9
$DIMSD2
 70
     0
  9
$DIMTOLJ
 70
     1
  9
$DIMTZIN
 70
     0
  9
$DIMALTZ
 70
     0
  9
$DIMALTTZ
 70
     0
  9
$DIMUPT
 70
     0
  9
$DIMDEC
 70
     4
  9
$DIMTDEC
 70
     4
  9
$DIMALTU
 70
     2
  9
$DIMALTTD
 70
     2
  9
$DIMTXSTY
  7
Standard
  9
$DIMAUNIT
 70
     0
  9
$DIMADEC
 70
     0
  9
$DIMALTRND
 40
0.0
  9
$DIMAZIN
 70
     0
  9
$DIMDSEP
 70
    46
  9
$DIMATFIT
 70
     3
  9
$DIMFRAC
 70
     0
  9
$DIMLDRBLK
  1
OPEN30
  9
$DIMLUNIT
 70
     2
  9
$DIMLWD
 70
    -2
  9
$DIMLWE
 70
    -2
  9
$DIMTMOVE
 70
     0
  9
$LUNITS
 70
     2
  9
$LUPREC
 70
     4
  9
$SKETCHINC
 40
1.0
  9
$FILLETRAD
 40
0.0
  9
$AUNITS
 70
     0
  9
$AUPREC
 70
     0
  9
$MENU
  1
.
  9
$ELEVATION
 40
0.0
  9
$PELEVATION
 40
0.0
  9
$THICKNESS
 40
0.0
  9
$LIMCHECK
 70
     0
  9
$CHAMFERA
 40
0.0
  9
$CHAMFERB
 40
0.0
  9
$CHAMFERC
 40
0.0
  9
$CHAMFERD
 40
0.0
  9
$SKPOLY
 70
     0
  9
$TDCREATE
 40
2454349.434269746
  9
$TDUCREATE
 40
2454349.059269746
  9
$TDUPDATE
 40
2454643.679768194
  9
$TDUUPDATE
 40
2454643.304768195
  9
$TDINDWG
 40
0.6786881829
  9
$TDUSRTIMER
 40
0.6786881829
  9
$USRTIMER
 70
     1
  9
$ANGBASE
 50
0.0
  9
$ANGDIR
 70
     0
  9
$PDMODE
 70
     0
  9
$PDSIZE
 40
0.0
  9
$PLINEWID
 40
0.0
  9
$SPLFRAME
 70
     0
  9
$SPLINETYPE
 70
     6
  9
$SPLINESEGS
 70
     8
  9
$HANDSEED
  5
248
  9
$SURFTAB1
 70
     6
  9
$SURFTAB2
 70
     6
  9
$SURFTYPE
 70
     6
  9
$SURFU
 70
     6
  9
$SURFV
 70
     6
  9
$UCSBASE
  2

  9
$UCSNAME
  2

  9
$UCSORG
 10
0.0
 20
0.0
 30
0.0
  9
$UCSXDIR
 10
1.0
 20
0.0
 30
0.0
  9
$UCSYDIR
 10
0.0
 20
1.0
 30
0.0
  9
$UCSORTHOREF
  2

  9
$UCSORTHOVIEW
 70
     0
  9
$UCSORGTOP
 10
0.0
 20
0.0
 30
0.0
  9
$UCSORGBOTTOM
 10
0.0
 20
0.0
 30
0.0
  9
$UCSORGLEFT
 10
0.0
 20
0.0
 30
0.0
  9
$UCSORGRIGHT
 10
0.0
 20
0.0
 30
0.0
  9
$UCSORGFRONT
 10
0.0
 20
0.0
 30
0.0
  9
$UCSORGBACK
 10
0.0
 20
0.0
 30
0.0
  9
$PUCSBASE
  2

  9
$PUCSNAME
  2

  9
$PUCSORG
 10
0.0
 20
0.0
 30
0.0
  9
$PUCSXDIR
 10
1.0
 20
0.0
 30
0.0
  9
$PUCSYDIR
 10
0.0
 20
1.0
 30
0.0
  9
$PUCSORTHOREF
  2

  9
$PUCSORTHOVIEW
 70
     0
  9
$PUCSORGTOP
 10
0.0
 20
0.0
 30
0.0
  9
$PUCSORGBOTTOM
 10
0.0
 20
0.0
 30
0.0
  9
$PUCSORGLEFT
 10
0.0
 20
0.0
 30
0.0
  9
$PUCSORGRIGHT
 10
0.0
 20
0.0
 30
0.0
  9
$PUCSORGFRONT
 10
0.0
 20
0.0
 30
0.0
  9
$PUCSORGBACK
 10
0.0
 20
0.0
 30
0.0
  9
$USERI1
 70
     0
  9
$USERI2
 70
     0
  9
$USERI3
 70
     0
  9
$USERI4
 70
     0
  9
$USERI5
 70
     0
  9
$USERR1
 40
0.0
  9
$USERR2
 40
0.0
  9
$USERR3
 40
0.0
  9
$USERR4
 40
0.0
  9
$USERR5
 40
0.0
  9
$WORLDVIEW
 70
     1
  9
$SHADEDGE
 70
     3
  9
$SHADEDIF
 70
    70
  9
$TILEMODE
 70
     1
  9
$MAXACTVP
 70
    64
  9
$PINSBASE
 10
0.0
 20
0.0
 30
0.0
  9
$PLIMCHECK
 70
     0
  9
$PEXTMIN
 10
0.0
 20
0.0
 30
0.0
  9
$PEXTMAX
 10
0.0
 20
0.0
 30
0.0
  9
$PLIMMIN
 10
0.0
 20
0.0
  9
$PLIMMAX
 10
12.0
 20
9.0
  9
$UNITMODE
 70
     0
  9
$VISRETAIN
 70
     1
  9
$PLINEGEN
 70
     0
  9
$PSLTSCALE
 70
     1
  9
$TREEDEPTH
 70
  3020
  9
$CMLSTYLE
  2
Standard
  9
$CMLJUST
 70
     0
  9
$CMLSCALE
 40
20.0
  9
$PROXYGRAPHICS
 70
     1
  9
$MEASUREMENT
 70
     1
  9
$CELWEIGHT
370
    -1
  9
$ENDCAPS
280
     0
  9
$JOINSTYLE
280
     0
  9
$LWDISPLAY
290
     0
  9
$INSUNITS
 70
     4
  9
$HYPERLINKBASE
  1

  9
$STYLESHEET
  1

  9
$XEDIT
290
     1
  9
$CEPSNTYPE
380
     0
  9
$PSTYLEMODE
290
     1
  9
$FINGERPRINTGUID
  2
{FDEAD578-A652-11D2-9A35-0060089B3A3F}
  9
$VERSIONGUID
  2
{AFCD58E8-666A-41AA-A8DA-19667FB7C6B3}
  9
$EXTNAMES
290
     1
  9
$PSVPSCALE
 40
0.0
  9
$OLESTARTUP
290
     0
  0
ENDSEC
  0
SECTION
  2
CLASSES
  0
CLASS
  1
ACDBDICTIONARYWDFLT
  2
AcDbDictionaryWithDefault
  3
ObjectDBX Classes
 90
        0
280
     0
281
     0
  0
CLASS
  1
ACDBPLACEHOLDER
  2
AcDbPlaceHolder
  3
ObjectDBX Classes
 90
        0
280
     0
281
     0
  0
CLASS
  1
LAYOUT
  2
AcDbLayout
  3
ObjectDBX Classes
 90
        0
280
     0
281
     0
  0
CLASS
  1
DICTIONARYVAR
  2
AcDbDictionaryVar
  3
ObjectDBX Classes
 90
        0
280
     0
281
     0
  0
CLASS
  1
SORTENTSTABLE
  2
AcDbSortentsTable
  3
ObjectDBX Classes
 90
        0
280
     0
281
     0
  0
CLASS
  1
DIMASSOC
  2
AcDbDimAssoc
  3
"AcDbDimAssoc|Product Desc:     AcDim ARX App For Dimension|Company:          Autodesk, Inc.|WEB Address:      www.autodesk.com"
 90
    32768
280
     0
281
     0
  0
ENDSEC
  0
SECTION
  2
TABLES
  0
TABLE
  2
VPORT
  5
1D
330
0
100
AcDbSymbolTable
 70
     4
  0
VPORT
  5
240
330
1D
100
AcDbSymbolTableRecord
100
AcDbViewportTableRecord
  2
*Active
 70
     0
 10
0.0
 20
0.0
 11
1.0
 21
1.0
 12
1.861725589099538
 22
0.7160344550106857
 13
0.0
 23
0.0
 14
10.0
 24
10.0
 15
10.0
 25
10.0
 16
0.0
 26
0.0
 36
1.0
 17
0.0
 27
0.0
 37
0.0
 40
113.9180720285267
 41
1.439313984168865
 42
50.0
 43
0.0
 44
0.0
 50
0.0
 51
0.0
 71
     0
 72
 10000
 73
     1
 74
     2
 75
     0
 76
     0
 77
     0
 78
     0
281
     0
 65
     1
110
0.0
120
0.0
130
0.0
111
1.0
121
0.0
131
0.0
112
0.0
122
1.0
132
0.0
 79
     0
146
0.0
  0
ENDTAB
  0
TABLE
  2
LTYPE
  5
18
330
0
100
AcDbSymbolTable
 70
     1
  0
LTYPE
  5
19
330
18
100
AcDbSymbolTableRecord
100
AcDbLinetypeTableRecord
  2
ByBlock
 70
     0
  3

 72
    65
 73
     0
 40
0.0
  0
LTYPE
  5
1A
330
18
100
AcDbSymbolTableRecord
100
AcDbLinetypeTableRecord
  2
ByLayer
 70
     0
  3

 72
    65
 73
     0
 40
0.0
  0
LTYPE
  5
A
330
18
100
AcDbSymbolTableRecord
100
AcDbLinetypeTableRecord
  2
Continuous
 70
     0
  3
Solid line
 72
    65
 73
     0
 40
0.0
  0
ENDTAB
  0
TABLE
  2
LAYER
  5
12
102
{ACAD_XDICTIONARY
360
13
102
}
330
0
100
AcDbSymbolTable
 70
     7
  0
LAYER
  5
6
330
12
100
AcDbSymbolTableRecord
100
AcDbLayerTableRecord
  2
0
 70
     0
 62
     7
  6
Continuous
370
    -3
390
7
  0
LAYER
  5
1C9
330
12
100
AcDbSymbolTableRecord
100
AcDbLayerTableRecord
  2
WAKU
 70
     0
 62
     4
  6
Continuous
370
    -3
390
7
  0
LAYER
  5
19A
330
12
100
AcDbSymbolTableRecord
100
AcDbLayerTableRecord
  2
DEFPOINTS
 70
     0
 62
     7
  6
Continuous
290
     0
370
    -3
390
7
  0
LAYER
  5
2F
330
12
100
AcDbSymbolTableRecord
100
AcDbLayerTableRecord
  2
SUNPO
 70
     0
 62
     3
  6
Continuous
370
    -3
390
7
  0
LAYER
  5
18F
330
12
100
AcDbSymbolTableRecord
100
AcDbLayerTableRecord
  2
MOJI1
 70
     0
 62
     2
  6
Continuous
370
    -3
390
7
  0
LAYER
  5
32
330
12
100
AcDbSymbolTableRecord
100
AcDbLayerTableRecord
  2
GAIKEI
 70
     0
 62
     7
  6
Continuous
370
    -3
390
7
  0
LAYER
  5
18D
330
12
100
AcDbSymbolTableRecord
100
AcDbLayerTableRecord
  2
TOUROKU
 70
     0
 62
     1
  6
Continuous
370
    -3
390
7
  0
ENDTAB
  0
TABLE
  2
STYLE
  5
15
330
0
100
AcDbSymbolTable
 70
     1
  0
STYLE
  5
16
330
15
100
AcDbSymbolTableRecord
100
AcDbTextStyleTableRecord
  2
Standard
 70
     0
 40
0.0
 41
1.0
 50
0.0
 71
     0
 42
2.5
  3
MONOTXT.shx
  4
BIGFONT.shx
  0
ENDTAB
  0
TABLE
  2
VIEW
  5
1B
330
0
100
AcDbSymbolTable
 70
     0
  0
ENDTAB
  0
TABLE
  2
UCS
  5
1C
330
0
100
AcDbSymbolTable
 70
     0
  0
ENDTAB
  0
TABLE
  2
APPID
  5
1F
330
0
100
AcDbSymbolTable
 70
     2
  0
APPID
  5
20
330
1F
100
AcDbSymbolTableRecord
100
AcDbRegAppTableRecord
  2
ACAD
 70
     0
  0
APPID
  5
1F0
330
1F
100
AcDbSymbolTableRecord
100
AcDbRegAppTableRecord
  2
DCO15
 70
     0
  0
ENDTAB
  0
TABLE
  2
DIMSTYLE
  5
21
330
0
100
AcDbSymbolTable
 70
     1
100
AcDbDimStyleTable
 71
     1
340
22
  0
DIMSTYLE
105
22
102
{ACAD_REACTORS
330
190
330
19E
330
1AB
330
1BA
102
}
330
21
100
AcDbSymbolTableRecord
100
AcDbDimStyleTableRecord
  2
STANDARD
 70
     0
 40
0.0
 41
2.0
 42
2.0
 43
8.0
 44
2.0
 73
     0
 74
     0
 77
     3
140
3.0
141
0.0
173
     1
279
     2
288
     1
340
16
341
23
343
23
344
23
  0
ENDTAB
  0
TABLE
  2
BLOCK_RECORD
  5
1
330
0
100
AcDbSymbolTable
 70
     9
  0
BLOCK_RECORD
  5
2
102
{ACAD_XDICTIONARY
360
3
102
}
330
1
100
AcDbSymbolTableRecord
100
AcDbBlockTableRecord
  2
*Model_Space
340
C
  0
BLOCK_RECORD
  5
E
330
1
100
AcDbSymbolTableRecord
100
AcDbBlockTableRecord
  2
*Paper_Space
340
11
  0
BLOCK_RECORD
  5
23
330
1
100
AcDbSymbolTableRecord
100
AcDbBlockTableRecord
  2
_OPEN30
340
0
102
{BLKREFS
331
1C0
331
1C1
331
1A4
331
1A5
331
196
331
197
331
1B3
331
1B4
331
20E
331
20F
331
21C
331
21D
331
228
331
229
331
234
331
235
102
}
  0
BLOCK_RECORD
  5
191
330
1
100
AcDbSymbolTableRecord
100
AcDbBlockTableRecord
  2
*D1
340
0
  0
BLOCK_RECORD
  5
19F
330
1
100
AcDbSymbolTableRecord
100
AcDbBlockTableRecord
  2
*D2
340
0
  0
BLOCK_RECORD
  5
1AC
330
1
100
AcDbSymbolTableRecord
100
AcDbBlockTableRecord
  2
*D3
340
0
  0
BLOCK_RECORD
  5
1BB
330
1
100
AcDbSymbolTableRecord
100
AcDbBlockTableRecord
  2
*D4
340
0
  0
BLOCK_RECORD
  5
20A
330
1
100
AcDbSymbolTableRecord
100
AcDbBlockTableRecord
  2
*D5
340
0
  0
BLOCK_RECORD
  5
216
330
1
100
AcDbSymbolTableRecord
100
AcDbBlockTableRecord
  2
*D6
340
0
  0
BLOCK_RECORD
  5
224
330
1
100
AcDbSymbolTableRecord
100
AcDbBlockTableRecord
  2
*D7
340
0
  0
BLOCK_RECORD
  5
230
330
1
100
AcDbSymbolTableRecord
100
AcDbBlockTableRecord
  2
*D8
340
0
  0
ENDTAB
  0
ENDSEC
  0
SECTION
  2
BLOCKS
  0
BLOCK
  5
5
330
2
100
AcDbEntity
  8
0
100
AcDbBlockBegin
  2
*Model_Space
 70
     0
 10
0.0
 20
0.0
 30
0.0
  3
*Model_Space
  1

  0
ENDBLK
  5
B
330
2
100
AcDbEntity
  8
0
100
AcDbBlockEnd
  0
BLOCK
  5
F
330
E
100
AcDbEntity
 67
     1
  8
0
100
AcDbBlockBegin
  2
*Paper_Space
 70
     0
 10
0.0
 20
0.0
 30
0.0
  3
*Paper_Space
  1

  0
ENDBLK
  5
10
330
E
100
AcDbEntity
 67
     1
  8
0
100
AcDbBlockEnd
  0
BLOCK
  5
24
330
23
100
AcDbEntity
  8
0
100
AcDbBlockBegin
  2
_OPEN30
 70
     0
 10
0.0
 20
0.0
 30
0.0
  3
_OPEN30
  1

  0
LINE
  5
25
330
23
100
AcDbEntity
  8
0
  6
ByBlock
 62
     0
100
AcDbLine
 10
-1.0
 20
0.26794919
 30
0.0
 11
0.0
 21
0.0
 31
0.0
  0
LINE
  5
26
330
23
100
AcDbEntity
  8
0
  6
ByBlock
 62
     0
100
AcDbLine
 10
0.0
 20
0.0
 30
0.0
 11
-1.0
 21
-0.26794919
 31
0.0
  0
LINE
  5
27
330
23
100
AcDbEntity
  8
0
  6
ByBlock
 62
     0
100
AcDbLine
 10
0.0
 20
0.0
 30
0.0
 11
-1.0
 21
0.0
 31
0.0
  0
ENDBLK
  5
28
330
23
100
AcDbEntity
  8
0
100
AcDbBlockEnd
  0
BLOCK
  5
192
330
191
100
AcDbEntity
  8
0
100
AcDbBlockBegin
  2
*D1
 70
     1
 10
0.0
 20
0.0
 30
0.0
  3
*D1
  1

  0
LINE
  5
193
330
191
100
AcDbEntity
  8
SUNPO
 62
     0
370
    -2
100
AcDbLine
 10
29.6980155536869
 20
215.6436645924325
 30
0.0
 11
29.6980155536869
 21
223.6436645924325
 31
0.0
  0
LINE
  5
194
330
191
100
AcDbEntity
  8
SUNPO
 62
     0
370
    -2
100
AcDbLine
 10
70.03134667795041
 20
215.6436645924325
 30
0.0
 11
70.03134667795041
 21
223.6436645924325
 31
0.0
  0
LINE
  5
195
330
191
100
AcDbEntity
  8
SUNPO
 62
     0
370
    -2
100
AcDbLine
 10
31.6980155536869
 20
221.6436645924325
 30
0.0
 11
68.03134667795041
 21
221.6436645924325
 31
0.0
  0
INSERT
  5
196
330
191
100
AcDbEntity
  8
SUNPO
 62
     0
370
    -2
100
AcDbBlockReference
  2
_OPEN30
 10
29.6980155536869
 20
221.6436645924325
 30
0.0
 41
2.0
 42
2.0
 43
2.0
 50
180.0
  0
INSERT
  5
197
330
191
100
AcDbEntity
  8
SUNPO
 62
     0
370
    -2
100
AcDbBlockReference
  2
_OPEN30
 10
70.03134667795041
 20
221.6436645924325
 30
0.0
 41
2.0
 42
2.0
 43
2.0
  0
MTEXT
  5
198
330
191
100
AcDbEntity
  8
SUNPO
 62
     0
100
AcDbMText
 10
49.86468111581865
 20
223.3936645924325
 30
0.0
 40
2.5
 41
0.0
 71
     5
 72
     1
  1
\A1;1210
 73
     1
 44
1.0
1001
ACAD
1000
MTEXTBEGIN
1070
    73
1070
     1
1070
    44
1040
1.0
1070
    74
1070
     0
1000
MTEXTEND
  0
POINT
  5
199
330
191
100
AcDbEntity
  8
DEFPOINTS
 62
     0
100
AcDbPoint
 10
29.6980155536869
 20
213.6436645924325
 30
0.0
  0
POINT
  5
19B
330
191
100
AcDbEntity
  8
DEFPOINTS
 62
     0
100
AcDbPoint
 10
70.03134667795041
 20
213.6436645924325
 30
0.0
  0
POINT
  5
19C
330
191
100
AcDbEntity
  8
DEFPOINTS
 62
     0
100
AcDbPoint
 10
70.03134667795041
 20
221.6436645924325
 30
0.0
  0
ENDBLK
  5
19D
330
191
100
AcDbEntity
  8
0
100
AcDbBlockEnd
  0
BLOCK
  5
1A0
330
19F
100
AcDbEntity
  8
0
100
AcDbBlockBegin
  2
*D2
 70
     1
 10
0.0
 20
0.0
 30
0.0
  3
*D2
  1

  0
LINE
  5
1A1
330
19F
100
AcDbEntity
  8
SUNPO
 62
     0
370
    -2
100
AcDbLine
 10
75.33995621287883
 20
189.4993730351585
 30
0.0
 11
83.33995621287883
 21
189.4993730351585
 31
0.0
  0
LINE
  5
1A2
330
19F
100
AcDbEntity
  8
SUNPO
 62
     0
370
    -2
100
AcDbLine
 10
75.33995621287883
 20
213.6326983811178
 30
0.0
 11
83.33995621287883
 21
213.6326983811178
 31
0.0
  0
LINE
  5
1A3
330
19F
100
AcDbEntity
  8
SUNPO
 62
     0
370
    -2
100
AcDbLine
 10
81.33995621287883
 20
191.4993730351585
 30
0.0
 11
81.33995621287883
 21
211.6326983811178
 31
0.0
  0
INSERT
  5
1A4
330
19F
100
AcDbEntity
  8
SUNPO
 62
     0
370
    -2
100
AcDbBlockReference
  2
_OPEN30
 10
81.33995621287883
 20
189.4993730351585
 30
0.0
 41
2.0
 42
2.0
 43
2.0
 50
270.0
  0
INSERT
  5
1A5
330
19F
100
AcDbEntity
  8
SUNPO
 62
     0
370
    -2
100
AcDbBlockReference
  2
_OPEN30
 10
81.33995621287883
 20
213.6326983811178
 30
0.0
 41
2.0
 42
2.0
 43
2.0
 50
90.0
  0
MTEXT
  5
1A6
330
19F
100
AcDbEntity
  8
SUNPO
 62
     0
100
AcDbMText
 10
79.5899562128788
 20
201.5660357081382
 30
0.0
 40
2.5
 41
0.0
 71
     5
 72
     1
  1
\A1;724
 11
0.0000000000000001
 21
1.0
 31
0.0
 73
     1
 44
1.0
1001
ACAD
1000
MTEXTBEGIN
1070
    73
1070
     1
1070
    44
1040
1.0
1070
    74
1070
     0
1000
MTEXTEND
  0
POINT
  5
1A7
330
19F
100
AcDbEntity
  8
DEFPOINTS
 62
     0
100
AcDbPoint
 10
73.33995621287883
 20
189.4993730351585
 30
0.0
  0
POINT
  5
1A8
330
19F
100
AcDbEntity
  8
DEFPOINTS
 62
     0
100
AcDbPoint
 10
73.33995621287883
 20
213.6326983811178
 30
0.0
  0
POINT
  5
1A9
330
19F
100
AcDbEntity
  8
DEFPOINTS
 62
     0
100
AcDbPoint
 10
81.33995621287883
 20
213.6326983811178
 30
0.0
  0
ENDBLK
  5
1AA
330
19F
100
AcDbEntity
  8
0
100
AcDbBlockEnd
  0
BLOCK
  5
1AD
330
1AC
100
AcDbEntity
  8
0
100
AcDbBlockBegin
  2
*D3
 70
     1
 10
0.0
 20
0.0
 30
0.0
  3
*D3
  1

  0
LINE
  5
1AE
330
1AC
100
AcDbEntity
  8
SUNPO
 62
     0
370
    -2
100
AcDbLine
 10
95.90891977041007
 20
215.6436645924325
 30
0.0
 11
95.90891977041007
 21
223.6436645924325
 31
0.0
  0
LINE
  5
1AF
330
1AC
100
AcDbEntity
  8
SUNPO
 62
     0
370
    -2
100
AcDbLine
 10
99.06239994786083
 20
215.6436645924325
 30
0.0
 11
99.06239994786083
 21
223.6436645924325
 31
0.0
  0
LINE
  5
1B0
330
1AC
100
AcDbEntity
  8
SUNPO
 62
     0
370
    -2
100
AcDbLine
 10
93.90891977041006
 20
221.6436645924325
 30
0.0
 11
91.90891977041006
 21
221.6436645924325
 31
0.0
  0
LINE
  5
1B1
330
1AC
100
AcDbEntity
  8
SUNPO
 62
     0
370
    -2
100
AcDbLine
 10
101.0623999478608
 20
221.6436645924325
 30
0.0
 11
108.2290666145275
 21
221.6436645924325
 31
0.0
  0
LINE
  5
1B2
330
1AC
100
AcDbEntity
  8
SUNPO
 62
     0
370
    -2
100
AcDbLine
 10
95.90891977041007
 20
221.6436645924325
 30
0.0
 11
99.06239994786083
 21
221.6436645924325
 31
0.0
  0
INSERT
  5
1B3
330
1AC
100
AcDbEntity
  8
SUNPO
 62
     0
370
    -2
100
AcDbBlockReference
  2
_OPEN30
 10
95.90891977041007
 20
221.6436645924325
 30
0.0
 41
2.0
 42
2.0
 43
2.0
  0
INSERT
  5
1B4
330
1AC
100
AcDbEntity
  8
SUNPO
 62
     0
370
    -2
100
AcDbBlockReference
  2
_OPEN30
 10
99.06239994786083
 20
221.6436645924325
 30
0.0
 41
2.0
 42
2.0
 43
2.0
 50
180.0
  0
MTEXT
  5
1B5
330
1AC
100
AcDbEntity
  8
SUNPO
 62
     0
100
AcDbMText
 10
105.6457332811941
 20
223.3936645924325
 30
0.0
 40
2.5
 41
0.0
 71
     5
 72
     1
  1
\A1;95
 73
     1
 44
1.0
1001
ACAD
1000
MTEXTBEGIN
1070
    73
1070
     1
1070
    44
1040
1.0
1070
    74
1070
     0
1000
MTEXTEND
  0
POINT
  5
1B6
330
1AC
100
AcDbEntity
  8
DEFPOINTS
 62
     0
100
AcDbPoint
 10
95.90891977041007
 20
213.6436645924325
 30
0.0
  0
POINT
  5
1B7
330
1AC
100
AcDbEntity
  8
DEFPOINTS
 62
     0
100
AcDbPoint
 10
99.06239994786083
 20
213.6436645924325
 30
0.0
  0
POINT
  5
1B8
330
1AC
100
AcDbEntity
  8
DEFPOINTS
 62
     0
100
AcDbPoint
 10
99.06239994786083
 20
221.6436645924325
 30
0.0
  0
ENDBLK
  5
1B9
330
1AC
100
AcDbEntity
  8
0
100
AcDbBlockEnd
  0
BLOCK
  5
1BC
330
1BB
100
AcDbEntity
  8
0
100
AcDbBlockBegin
  2
*D4
 70
     1
 10
0.0
 20
0.0
 30
0.0
  3
*D4
  1

  0
LINE
  5
1BD
330
1BB
100
AcDbEntity
  8
SUNPO
 62
     0
370
    -2
100
AcDbLine
 10
26.19720498718031
 20
215.6326983811178
 30
0.0
 11
26.19720498718031
 21
228.6436645924325
 31
0.0
  0
LINE
  5
1BE
330
1BB
100
AcDbEntity
  8
SUNPO
 62
     0
370
    -2
100
AcDbLine
 10
73.53215724445696
 20
215.6200371234203
 30
0.0
 11
73.53215724445696
 21
228.6436645924325
 31
0.0
  0
LINE
  5
1BF
330
1BB
100
AcDbEntity
  8
SUNPO
 62
     0
370
    -2
100
AcDbLine
 10
28.19720498718032
 20
226.6436645924325
 30
0.0
 11
71.53215724445697
 21
226.6436645924325
 31
0.0
  0
INSERT
  5
1C0
330
1BB
100
AcDbEntity
  8
SUNPO
 62
     0
370
    -2
100
AcDbBlockReference
  2
_OPEN30
 10
26.19720498718031
 20
226.6436645924325
 30
0.0
 41
2.0
 42
2.0
 43
2.0
 50
180.0
  0
INSERT
  5
1C1
330
1BB
100
AcDbEntity
  8
SUNPO
 62
     0
370
    -2
100
AcDbBlockReference
  2
_OPEN30
 10
73.53215724445696
 20
226.6436645924325
 30
0.0
 41
2.0
 42
2.0
 43
2.0
  0
MTEXT
  5
1C2
330
1BB
100
AcDbEntity
  8
SUNPO
 62
     0
100
AcDbMText
 10
49.86468111581864
 20
228.3936645924324
 30
0.0
 40
2.5
 41
0.0
 71
     5
 72
     1
  1
\A1;1420
 73
     1
 44
1.0
1001
ACAD
1000
MTEXTBEGIN
1070
    73
1070
     1
1070
    44
1040
1.0
1070
    74
1070
     0
1000
MTEXTEND
  0
POINT
  5
1C3
330
1BB
100
AcDbEntity
  8
DEFPOINTS
 62
     0
100
AcDbPoint
 10
26.19720498718031
 20
213.6326983811178
 30
0.0
  0
POINT
  5
1C4
330
1BB
100
AcDbEntity
  8
DEFPOINTS
 62
     0
100
AcDbPoint
 10
73.53215724445696
 20
213.6200371234203
 30
0.0
  0
POINT
  5
1C5
330
1BB
100
AcDbEntity
  8
DEFPOINTS
 62
     0
100
AcDbPoint
 10
73.53215724445696
 20
226.6436645924325
 30
0.0
  0
ENDBLK
  5
1C6
330
1BB
100
AcDbEntity
  8
0
100
AcDbBlockEnd
  0
BLOCK
  5
214
330
20A
100
AcDbEntity
  8
0
100
AcDbBlockBegin
  2
*D5
 70
     1
 10
0.0
 20
0.0
 30
0.0
  3
*D5
  1

  0
LINE
  5
20B
330
20A
100
AcDbEntity
  8
SUNPO
 62
     0
370
    -2
100
AcDbLine
 10
-36.94070793591909
 20
28.34457875420046
 30
0.0
 11
-36.94070793591909
 21
41.35554496551509
 31
0.0
  0
LINE
  5
20C
330
20A
100
AcDbEntity
  8
SUNPO
 62
     0
370
    -2
100
AcDbLine
 10
10.39424432135756
 20
28.33191749650288
 30
0.0
 11
10.39424432135756
 21
41.35554496551509
 31
0.0
  0
LINE
  5
20D
330
20A
100
AcDbEntity
  8
SUNPO
 62
     0
370
    -2
100
AcDbLine
 10
-34.94070793591909
 20
39.35554496551509
 30
0.0
 11
8.394244321357561
 21
39.35554496551509
 31
0.0
  0
INSERT
  5
20E
330
20A
100
AcDbEntity
  8
SUNPO
 62
     0
370
    -2
100
AcDbBlockReference
  2
_OPEN30
 10
-36.94070793591909
 20
39.35554496551509
 30
0.0
 41
2.0
 42
2.0
 43
2.0
 50
180.0
  0
INSERT
  5
20F
330
20A
100
AcDbEntity
  8
SUNPO
 62
     0
370
    -2
100
AcDbBlockReference
  2
_OPEN30
 10
10.39424432135756
 20
39.35554496551509
 30
0.0
 41
2.0
 42
2.0
 43
2.0
  0
MTEXT
  5
210
330
20A
100
AcDbEntity
  8
SUNPO
 62
     0
100
AcDbMText
 10
-13.27323180728076
 20
41.10554496551509
 30
0.0
 40
2.5
 41
0.0
 71
     5
 72
     1
  1
\A1;1420
 73
     1
 44
1.0
1001
ACAD
1000
MTEXTBEGIN
1070
    73
1070
     1
1070
    44
1040
1.0
1070
    74
1070
     0
1000
MTEXTEND
  0
POINT
  5
211
330
20A
100
AcDbEntity
  8
DEFPOINTS
 62
     0
100
AcDbPoint
 10
-36.94070793591909
 20
26.34457875420046
 30
0.0
  0
POINT
  5
212
330
20A
100
AcDbEntity
  8
DEFPOINTS
 62
     0
100
AcDbPoint
 10
10.39424432135756
 20
26.33191749650289
 30
0.0
  0
POINT
  5
213
330
20A
100
AcDbEntity
  8
DEFPOINTS
 62
     0
100
AcDbPoint
 10
10.39424432135756
 20
39.35554496551509
 30
0.0
  0
ENDBLK
  5
215
330
20A
100
AcDbEntity
  8
0
100
AcDbBlockEnd
  0
BLOCK
  5
222
330
216
100
AcDbEntity
  8
0
100
AcDbBlockBegin
  2
*D6
 70
     1
 10
0.0
 20
0.0
 30
0.0
  3
*D6
  1

  0
LINE
  5
217
330
216
100
AcDbEntity
  8
SUNPO
 62
     0
370
    -2
100
AcDbLine
 10
32.77100684731066
 20
28.35554496551515
 30
0.0
 11
32.77100684731066
 21
36.35554496551515
 31
0.0
  0
LINE
  5
218
330
216
100
AcDbEntity
  8
SUNPO
 62
     0
370
    -2
100
AcDbLine
 10
35.92448702476144
 20
28.35554496551515
 30
0.0
 11
35.92448702476144
 21
36.35554496551515
 31
0.0
  0
LINE
  5
219
330
216
100
AcDbEntity
  8
SUNPO
 62
     0
370
    -2
100
AcDbLine
 10
30.77100684731066
 20
34.35554496551515
 30
0.0
 11
28.77100684731066
 21
34.35554496551515
 31
0.0
  0
LINE
  5
21A
330
216
100
AcDbEntity
  8
SUNPO
 62
     0
370
    -2
100
AcDbLine
 10
37.92448702476143
 20
34.35554496551515
 30
0.0
 11
45.0911536914281
 21
34.35554496551515
 31
0.0
  0
LINE
  5
21B
330
216
100
AcDbEntity
  8
SUNPO
 62
     0
370
    -2
100
AcDbLine
 10
32.77100684731066
 20
34.35554496551515
 30
0.0
 11
35.92448702476144
 21
34.35554496551515
 31
0.0
  0
INSERT
  5
21C
330
216
100
AcDbEntity
  8
SUNPO
 62
     0
370
    -2
100
AcDbBlockReference
  2
_OPEN30
 10
32.77100684731066
 20
34.35554496551515
 30
0.0
 41
2.0
 42
2.0
 43
2.0
  0
INSERT
  5
21D
330
216
100
AcDbEntity
  8
SUNPO
 62
     0
370
    -2
100
AcDbBlockReference
  2
_OPEN30
 10
35.92448702476144
 20
34.35554496551515
 30
0.0
 41
2.0
 42
2.0
 43
2.0
 50
180.0
  0
MTEXT
  5
21E
330
216
100
AcDbEntity
  8
SUNPO
 62
     0
100
AcDbMText
 10
42.50782035809477
 20
36.10554496551515
 30
0.0
 40
2.5
 41
0.0
 71
     5
 72
     1
  1
\A1;95
 73
     1
 44
1.0
1001
ACAD
1000
MTEXTBEGIN
1070
    73
1070
     1
1070
    44
1040
1.0
1070
    74
1070
     0
1000
MTEXTEND
  0
POINT
  5
21F
330
216
100
AcDbEntity
  8
DEFPOINTS
 62
     0
100
AcDbPoint
 10
32.77100684731066
 20
26.35554496551515
 30
0.0
  0
POINT
  5
220
330
216
100
AcDbEntity
  8
DEFPOINTS
 62
     0
100
AcDbPoint
 10
35.92448702476144
 20
26.35554496551515
 30
0.0
  0
POINT
  5
221
330
216
100
AcDbEntity
  8
DEFPOINTS
 62
     0
100
AcDbPoint
 10
35.92448702476144
 20
34.35554496551515
 30
0.0
  0
ENDBLK
  5
223
330
216
100
AcDbEntity
  8
0
100
AcDbBlockEnd
  0
BLOCK
  5
22E
330
224
100
AcDbEntity
  8
0
100
AcDbBlockBegin
  2
*D7
 70
     1
 10
0.0
 20
0.0
 30
0.0
  3
*D7
  1

  0
LINE
  5
225
330
224
100
AcDbEntity
  8
SUNPO
 62
     0
370
    -2
100
AcDbLine
 10
12.20204328977942
 20
2.211253408241162
 30
0.0
 11
20.20204328977942
 21
2.21125340824116
 31
0.0
  0
LINE
  5
226
330
224
100
AcDbEntity
  8
SUNPO
 62
     0
370
    -2
100
AcDbLine
 10
12.20204328977942
 20
26.34457875420046
 30
0.0
 11
20.20204328977943
 21
26.34457875420046
 31
0.0
  0
LINE
  5
227
330
224
100
AcDbEntity
  8
SUNPO
 62
     0
370
    -2
100
AcDbLine
 10
18.20204328977942
 20
4.21125340824116
 30
0.0
 11
18.20204328977942
 21
24.34457875420046
 31
0.0
  0
INSERT
  5
228
330
224
100
AcDbEntity
  8
SUNPO
 62
     0
370
    -2
100
AcDbBlockReference
  2
_OPEN30
 10
18.20204328977942
 20
2.21125340824116
 30
0.0
 41
2.0
 42
2.0
 43
2.0
 50
270.0
  0
INSERT
  5
229
330
224
100
AcDbEntity
  8
SUNPO
 62
     0
370
    -2
100
AcDbBlockReference
  2
_OPEN30
 10
18.20204328977942
 20
26.34457875420046
 30
0.0
 41
2.0
 42
2.0
 43
2.0
 50
90.0
  0
MTEXT
  5
22A
330
224
100
AcDbEntity
  8
SUNPO
 62
     0
100
AcDbMText
 10
16.45204328977942
 20
14.27791608122081
 30
0.0
 40
2.5
 41
0.0
 71
     5
 72
     1
  1
\A1;724
 11
0.0000000000000001
 21
1.0
 31
0.0
 73
     1
 44
1.0
1001
ACAD
1000
MTEXTBEGIN
1070
    73
1070
     1
1070
    44
1040
1.0
1070
    74
1070
     0
1000
MTEXTEND
  0
POINT
  5
22B
330
224
100
AcDbEntity
  8
DEFPOINTS
 62
     0
100
AcDbPoint
 10
10.20204328977942
 20
2.211253408241162
 30
0.0
  0
POINT
  5
22C
330
224
100
AcDbEntity
  8
DEFPOINTS
 62
     0
100
AcDbPoint
 10
10.20204328977942
 20
26.34457875420046
 30
0.0
  0
POINT
  5
22D
330
224
100
AcDbEntity
  8
DEFPOINTS
 62
     0
100
AcDbPoint
 10
18.20204328977942
 20
26.34457875420046
 30
0.0
  0
ENDBLK
  5
22F
330
224
100
AcDbEntity
  8
0
100
AcDbBlockEnd
  0
BLOCK
  5
23A
330
230
100
AcDbEntity
  8
0
100
AcDbBlockBegin
  2
*D8
 70
     1
 10
0.0
 20
0.0
 30
0.0
  3
*D8
  1

  0
LINE
  5
231
330
230
100
AcDbEntity
  8
SUNPO
 62
     0
370
    -2
100
AcDbLine
 10
-33.43989736941251
 20
28.35554496551512
 30
0.0
 11
-33.43989736941251
 21
36.35554496551512
 31
0.0
  0
LINE
  5
232
330
230
100
AcDbEntity
  8
SUNPO
 62
     0
370
    -2
100
AcDbLine
 10
6.893433754851002
 20
28.35554496551512
 30
0.0
 11
6.893433754851003
 21
36.35554496551512
 31
0.0
  0
LINE
  5
233
330
230
100
AcDbEntity
  8
SUNPO
 62
     0
370
    -2
100
AcDbLine
 10
-31.43989736941251
 20
34.35554496551513
 30
0.0
 11
4.893433754851003
 21
34.35554496551513
 31
0.0
  0
INSERT
  5
234
330
230
100
AcDbEntity
  8
SUNPO
 62
     0
370
    -2
100
AcDbBlockReference
  2
_OPEN30
 10
-33.43989736941251
 20
34.35554496551513
 30
0.0
 41
2.0
 42
2.0
 43
2.0
 50
180.0
  0
INSERT
  5
235
330
230
100
AcDbEntity
  8
SUNPO
 62
     0
370
    -2
100
AcDbBlockReference
  2
_OPEN30
 10
6.893433754851003
 20
34.35554496551513
 30
0.0
 41
2.0
 42
2.0
 43
2.0
  0
MTEXT
  5
236
330
230
100
AcDbEntity
  8
SUNPO
 62
     0
100
AcDbMText
 10
-13.27323180728075
 20
36.10554496551512
 30
0.0
 40
2.5
 41
0.0
 71
     5
 72
     1
  1
\A1;1210
 73
     1
 44
1.0
1001
ACAD
1000
MTEXTBEGIN
1070
    73
1070
     1
1070
    44
1040
1.0
1070
    74
1070
     0
1000
MTEXTEND
  0
POINT
  5
237
330
230
100
AcDbEntity
  8
DEFPOINTS
 62
     0
100
AcDbPoint
 10
-33.43989736941251
 20
26.35554496551512
 30
0.0
  0
POINT
  5
238
330
230
100
AcDbEntity
  8
DEFPOINTS
 62
     0
100
AcDbPoint
 10
6.893433754851002
 20
26.35554496551512
 30
0.0
  0
POINT
  5
239
330
230
100
AcDbEntity
  8
DEFPOINTS
 62
     0
100
AcDbPoint
 10
6.893433754851003
 20
34.35554496551513
 30
0.0
  0
ENDBLK
  5
23B
330
230
100
AcDbEntity
  8
0
100
AcDbBlockEnd
  0
ENDSEC
  0
SECTION
  2
ENTITIES
  0
LINE
  5
31
330
2
100
AcDbEntity
  8
GAIKEI
  6
Continuous
 62
     1
100
AcDbLine
 10
-33.38504102210648
 20
2.394886496027226
 30
0.0
 11
-33.75304228706644
 21
2.394886496027226
 31
0.0
  0
LINE
  5
33
330
2
100
AcDbEntity
  8
GAIKEI
  6
Continuous
 62
     7
100
AcDbLine
 10
-33.38504039370555
 20
26.16083093384057
 30
0.0
 11
-33.75304228706644
 21
26.16083093384054
 31
0.0
  0
LINE
  5
34
330
2
100
AcDbEntity
  8
GAIKEI
  6
Continuous
100
AcDbLine
 10
-33.77781420030876
 20
2.414891634237307
 30
0.0
 11
-33.37246098925341
 21
2.414891634237307
 31
0.0
  0
LINE
  5
35
330
2
100
AcDbEntity
  8
GAIKEI
  6
Continuous
 62
     1
100
AcDbLine
 10
-33.37246098925341
 20
25.85561950857559
 30
0.0
 11
-33.77789008440665
 21
25.85561950857559
 31
0.0
  0
LINE
  5
36
330
2
100
AcDbEntity
  8
GAIKEI
  6
Continuous
 62
     1
100
AcDbLine
 10
-33.77789008440665
 20
2.409185991264905
 30
0.0
 11
-33.77780864606764
 21
26.14170489903413
 31
0.0
  0
LINE
  5
37
330
2
100
AcDbEntity
  8
GAIKEI
  6
Continuous
 62
     1
100
AcDbLine
 10
-33.80124830291162
 20
2.437541733299752
 30
0.0
 11
-33.80124830291162
 21
26.11818403065325
 31
0.0
  0
LINE
  5
38
330
2
100
AcDbEntity
  8
GAIKEI
  6
Continuous
 62
     1
100
AcDbLine
 10
-36.88581214985173
 20
2.436988350039797
 30
0.0
 11
-36.88581214985173
 21
26.11873741391321
 31
0.0
  0
LINE
  5
39
330
2
100
AcDbEntity
  8
GAIKEI
  6
Continuous
 62
     1
100
AcDbLine
 10
-36.90925978744646
 20
26.14292571230169
 30
0.0
 11
-36.9092597874464
 21
2.41279179700399
 31
0.0
  0
LINE
  5
3A
330
2
100
AcDbEntity
  8
GAIKEI
  6
Continuous
 62
     1
100
AcDbLine
 10
-36.73000364826153
 20
2.593423297037219
 30
0.0
 11
-36.73000364826153
 21
25.96230218911293
 31
0.0
  0
LINE
  5
3B
330
2
100
AcDbEntity
  8
GAIKEI
  6
Continuous
100
AcDbLine
 10
-36.94070793591909
 20
2.351287284699822
 30
0.0
 11
-36.94070793591909
 21
26.20443847925316
 31
0.0
  0
LINE
  5
3C
330
2
100
AcDbEntity
  8
GAIKEI
  6
Continuous
 62
     1
100
AcDbLine
 10
-33.95705652669902
 20
2.593439687404867
 30
0.0
 11
-33.95705652669902
 21
25.96227802026576
 31
0.0
  0
LINE
  5
3D
330
2
100
AcDbEntity
  8
GAIKEI
  6
Continuous
 62
     1
100
AcDbLine
 10
-33.77295797276163
 20
2.700097921292183
 30
0.0
 11
-33.37246098925341
 21
2.700097921292183
 31
0.0
  0
LINE
  5
3E
330
2
100
AcDbEntity
  8
GAIKEI
  6
Continuous
 62
     1
100
AcDbLine
 10
-33.75304228706644
 20
2.394886496027226
 30
0.0
 11
-33.75304228706644
 21
2.414891634237307
 31
0.0
  0
LINE
  5
3F
330
2
100
AcDbEntity
  8
GAIKEI
  6
Continuous
 62
     1
100
AcDbLine
 10
33.55150588622094
 20
26.34061054853831
 30
0.0
 11
33.55150588622094
 21
2.215234894821946
 31
0.0
  0
LINE
  5
40
330
2
100
AcDbEntity
  8
GAIKEI
  6
Continuous
 62
     1
100
AcDbLine
 10
32.91348471241874
 20
26.28000879964367
 30
0.0
 11
32.91348471241874
 21
2.437072524300731
 31
0.0
  0
LINE
  5
41
330
2
100
AcDbEntity
  8
GAIKEI
  6
Continuous
 62
     1
100
AcDbLine
 10
33.51524789277865
 20
2.218017504076073
 30
0.0
 11
33.51524789277865
 21
26.33781982203445
 31
0.0
  0
LINE
  5
42
330
2
100
AcDbEntity
  8
GAIKEI
  6
Continuous
 62
     1
100
AcDbLine
 10
33.55150588622094
 20
26.21089545069427
 30
0.0
 11
33.56496765630625
 21
26.21089545069427
 31
0.0
  0
LINE
  5
43
330
2
100
AcDbEntity
  8
GAIKEI
  6
Continuous
 62
     1
100
AcDbLine
 10
34.10136021666346
 20
26.21089545069427
 30
0.0
 11
33.56496765630625
 21
26.21089545069427
 31
0.0
  0
LINE
  5
44
330
2
100
AcDbEntity
  8
GAIKEI
  6
Continuous
 62
     1
100
AcDbLine
 10
35.28458891278122
 20
4.717323805630712
 30
0.0
 11
35.28458891278122
 21
23.83852141354407
 31
0.0
  0
LINE
  5
45
330
2
100
AcDbEntity
  8
GAIKEI
  6
Continuous
 62
     1
100
AcDbLine
 10
34.10136021666346
 20
25.69187056837154
 30
0.0
 11
34.10136021666346
 21
26.21089545069427
 31
0.0
  0
LINE
  5
46
330
2
100
AcDbEntity
  8
GAIKEI
  6
Continuous
 62
     1
100
AcDbLine
 10
33.51524789277865
 20
26.20449820686406
 30
0.0
 11
33.55150588622094
 21
26.20449820686403
 31
0.0
  0
LINE
  5
47
330
2
100
AcDbEntity
  8
GAIKEI
  6
Continuous
 62
     1
100
AcDbLine
 10
34.10136021666346
 20
26.21089545069427
 30
0.0
 11
34.23766807000347
 21
26.21089545069427
 31
0.0
  0
LINE
  5
48
330
2
100
AcDbEntity
  8
GAIKEI
  6
Continuous
 62
     1
100
AcDbLine
 10
32.87371251303358
 20
26.11878491819906
 30
0.0
 11
32.77086906776346
 21
25.95421015096804
 31
0.0
  0
LINE
  5
49
330
2
100
AcDbEntity
  8
GAIKEI
  6
Continuous
 62
     1
100
AcDbLine
 10
32.87374307134611
 20
2.437031965085907
 30
0.0
 11
32.87374307134613
 21
26.25663291743587
 31
0.0
  0
LINE
  5
4A
330
2
100
AcDbEntity
  8
GAIKEI
  6
Continuous
 62
     7
100
AcDbLine
 10
32.77086906776344
 20
2.482870545117265
 30
0.0
 11
32.77086906776344
 21
26.07795706801685
 31
0.0
  0
SPLINE
  5
4B
330
2
100
AcDbEntity
  8
GAIKEI
  6
Continuous
 62
     1
100
AcDbSpline
210
0.0
220
0.0
230
1.0
 70
     8
 71
     3
 72
     9
 73
     5
 74
     3
 42
0.0000000001
 43
0.0000000001
 44
0.000001
 12
0.9993670886879911
 22
-0.0355727711499859
 32
0.0
 13
0.9998869922469225
 23
0.0150333873562463
 33
0.0
 40
0.0
 40
0.0
 40
0.0
 40
0.0
 40
0.0050430160477058
 40
0.0122797538089563
 40
0.0122797538089563
 40
0.0122797538089563
 40
0.0122797538089563
 10
34.68638978010735
 20
25.07908385725853
 30
0.0
 10
34.68806972152929
 20
25.07902405923994
 30
0.0
 10
34.69216195841821
 20
25.07892098153471
 30
0.0
 10
34.69625596129676
 20
25.07892147090044
 30
0.0
 10
34.69866793461468
 20
25.07895773512777
 30
0.0
 11
34.68638978010735
 21
25.07908385725853
 31
0.0
 11
34.69143115560607
 21
25.07895684602093
 31
0.0
 11
34.69866793461468
 21
25.07895773512777
 31
0.0
  0
SPLINE
  5
4C
330
2
100
AcDbEntity
  8
GAIKEI
  6
Continuous
 62
     1
100
AcDbSpline
210
0.0
220
0.0
230
1.0
 70
     8
 71
     3
 72
    29
 73
    25
 74
    23
 42
0.0000000001
 43
0.0000000001
 44
0.000001
 12
0.9994197136940536
 22
-0.0340622353890022
 32
0.0
 13
0.134655474864125
 23
-0.9908924780666756
 33
0.0
 40
0.0
 40
0.0
 40
0.0
 40
0.0
 40
0.0104864379038547
 40
0.0217386084219012
 40
0.025658684390416
 40
0.0296623075917915
 40
0.0337490262139828
 40
0.0379183642989475
 40
0.0421698218555
 40
0.0465028749806427
 40
0.0519799199024
 40
0.0593984895772351
 40
0.0687491338676166
 40
0.0800193438507177
 40
0.0931933871300646
 40
0.1042603696922238
 40
0.1144483718147348
 40
0.1237651631574609
 40
0.13221787218321
 40
0.1398128926266433
 40
0.1522958849436757
 40
0.1642148893849853
 40
0.1755833184640483
 40
0.1864122300572954
 40
0.1864122300572954
 40
0.1864122300572954
 40
0.1864122300572954
 10
35.02598136285812
 20
25.06697565014693
 30
0.0
 10
35.02947481378064
 20
25.06685658630818
 30
0.0
 10
35.03671010693542
 20
25.06634376828646
 30
0.0
 10
35.04518085670007
 20
25.06509361778001
 30
0.0
 10
35.05144622061982
 20
25.06382495461906
 30
0.0
 10
35.05534700630226
 20
25.06292150660497
 30
0.0
 10
35.05930088204096
 20
25.06188643918114
 30
0.0
 10
35.06330230400831
 20
25.06071357822396
 30
0.0
 10
35.06734531823042
 20
25.05939715076562
 30
0.0
 10
35.07175649336048
 20
25.05781039668472
 30
0.0
 10
35.07709258641343
 20
25.05568371779819
 30
0.0
 10
35.08385071665252
 20
25.0526228829911
 30
0.0
 10
35.09212003788069
 20
25.04825111373623
 30
0.0
 10
35.10166261536177
 20
25.04224073780463
 30
0.0
 10
35.11108518917229
 20
25.03504335387049
 30
0.0
 10
35.11954373790036
 20
25.02726766050737
 30
0.0
 10
35.12646689224377
 20
25.01977542224984
 30
0.0
 10
35.13226417309372
 20
25.01246872357632
 30
0.0
 10
35.1370518553392
 20
25.00549228408483
 30
0.0
 10
35.14192844166442
 20
24.9973216738469
 30
0.0
 10
35.14665260891792
 20
24.98773806534479
 30
0.0
 10
35.15086456606227
 20
24.97656419873468
 30
0.0
 10
35.1538707236103
 20
24.96558085875492
 30
0.0
 10
35.15518479209537
 20
24.95828837962935
 30
0.0
 10
35.15567084950632
 20
24.95471161728156
 30
0.0
 11
35.02598136285812
 21
25.06697565014693
 31
0.0
 11
35.03644188074789
 21
25.06623565762797
 31
0.0
 11
35.04757332624294
 21
25.06459182853595
 31
0.0
 11
35.05141542972501
 21
25.06381386473294
 31
0.0
 11
35.05531580081316
 21
25.06291047497382
 31
0.0
 11
35.05926928727743
 21
25.06187547022444
 31
0.0
 11
35.06327030034841
 21
25.0607027364299
 31
0.0
 11
35.06731280244114
 21
25.05938626162845
 31
0.0
 11
35.07139029604551
 21
25.05792016478847
 31
0.0
 11
35.07647775735734
 21
25.05589141093816
 31
0.0
 11
35.0832349872239
 21
25.05282951671987
 31
0.0
 11
35.09150104469367
 21
25.04845834476612
 31
0.0
 11
35.10103691507459
 21
25.04245124246921
 31
0.0
 11
35.11150390250495
 21
25.03445134862824
 31
0.0
 11
35.11964930956594
 21
25.02695928878399
 31
0.0
 11
35.12656299170763
 21
25.01947618619789
 31
0.0
 11
35.13235290885105
 21
25.01217688237441
 31
0.0
 11
35.1371348244939
 21
25.0052068113792
 31
0.0
 11
35.14102656682811
 21
24.99868462418493
 31
0.0
 11
35.14654549027905
 21
24.9874878720002
 31
0.0
 11
35.15074914651645
 21
24.97633473348091
 31
0.0
 11
35.15375046033485
 21
24.9653696211974
 31
0.0
 11
35.15567084950632
 21
24.95471161728156
 31
0.0
  0
SPLINE
  5
4D
330
2
100
AcDbEntity
  8
GAIKEI
  6
Continuous
 62
     1
100
AcDbSpline
210
0.0
220
0.0
230
1.0
 70
     8
 71
     3
 72
     9
 73
     5
 74
     3
 42
0.0000000001
 43
0.0000000001
 44
0.000001
 12
0.9975886262087163
 22
-0.0694041271035517
 32
0.0
 13
0.9994438890951194
 23
-0.0333453527560095
 33
0.0
 40
0.0
 40
0.0
 40
0.0
 40
0.0
 40
0.0045526072861701
 40
0.0095716005016453
 40
0.0095716005016453
 40
0.0095716005016453
 40
0.0095716005016453
 10
34.68909011202705
 20
25.07889815658666
 30
0.0
 10
34.69060398844315
 20
25.07879283334174
 30
0.0
 10
34.69378878285082
 20
25.07859872991844
 30
0.0
 10
34.69697661278051
 20
25.07846214600676
 30
0.0
 10
34.69864868014671
 20
25.078406359307
 30
0.0
 11
34.68909011202705
 21
25.07889815658666
 31
0.0
 11
34.69363428225487
 21
25.07862119546917
 31
0.0
 11
34.69864868014671
 21
25.078406359307
 31
0.0
  0
SPLINE
  5
4E
330
2
100
AcDbEntity
  8
GAIKEI
  6
Continuous
 62
     1
100
AcDbSpline
210
0.0
220
0.0
230
1.0
 70
     8
 71
     3
 72
    15
 73
    11
 74
     9
 42
0.0000000001
 43
0.0000000001
 44
0.000001
 12
-0.1345307900367005
 22
0.990909413888122
 32
0.0
 13
-0.9994496190759491
 23
0.0331731657961701
 33
0.0
 40
0.0
 40
0.0
 40
0.0
 40
0.0
 40
0.0233154107153437
 40
0.0466019170827612
 40
0.0698680697465795
 40
0.093123822814664
 40
0.1163795758827762
 40
0.1396457285465091
 40
0.1629322349137418
 40
0.186247645628936
 40
0.186247645628936
 40
0.186247645628936
 40
0.186247645628936
 10
35.17633926582103
 20
24.97759803255036
 30
0.0
 10
35.17529371894651
 20
24.98529918587252
 30
0.0
 10
35.17187660446669
 20
25.00054801931927
 30
0.0
 10
35.16282732995783
 20
25.02213283341325
 30
0.0
 10
35.15015860164094
 20
25.04179546835116
 30
0.0
 10
35.13425070599206
 20
25.05892827692077
 30
0.0
 10
35.11559052215807
 20
25.07301343977909
 30
0.0
 10
35.0947426504128
 20
25.08361919923127
 30
0.0
 10
35.07235022597416
 20
25.09042896401127
 30
0.0
 10
35.05683314898536
 20
25.09227934628953
 30
0.0
 10
35.04906562286607
 20
25.09253716161794
 30
0.0
 11
35.17633926582103
 21
24.97759803255036
 31
0.0
 11
35.17121972167725
 21
25.00034494478319
 31
0.0
 11
35.16222017485951
 21
25.02182215459118
 31
0.0
 11
35.14961633621546
 21
25.04137870293644
 31
0.0
 11
35.13379272989033
 21
25.05842115382598
 31
0.0
 11
35.11523099884565
 21
25.07243164239992
 31
0.0
 11
35.09449525671783
 21
25.08298362468528
 31
0.0
 11
35.07221493150655
 21
25.08975485001989
 31
0.0
 11
35.04906562286607
 21
25.09253716161794
 31
0.0
  0
SPLINE
  5
4F
330
2
100
AcDbEntity
  8
GAIKEI
  6
Continuous
 62
     1
100
AcDbSpline
210
0.0
220
0.0
230
1.0
 70
     8
 71
     3
 72
    15
 73
    11
 74
     9
 42
0.0000000001
 43
0.0000000001
 44
0.000001
 12
-0.1364008987339492
 22
0.9906537209462097
 32
0.0
 13
-0.1677708966327061
 23
0.9858260121558256
 33
0.0
 40
0.0
 40
0.0
 40
0.0
 40
0.0
 40
0.0088099669645615
 40
0.0175208719810777
 40
0.0261354045936598
 40
0.0346547137944945
 40
0.0430782577488818
 40
0.0513554189266763
 40
0.0593953808328715
 40
0.0671961449034638
 40
0.0671961449034638
 40
0.0671961449034638
 40
0.0671961449034638
 10
35.19193450087866
 20
24.87834465342274
 30
0.0
 10
35.19153393840807
 20
24.88125386227435
 30
0.0
 10
35.19070620178924
 20
24.8870353286128
 30
0.0
 10
35.18938318248357
 20
24.89564622062761
 30
0.0
 10
35.18799453739159
 20
24.90414859395256
 30
0.0
 10
35.18655587443801
 20
24.91254543231531
 30
0.0
 10
35.1850891297712
 20
24.92082318697618
 30
0.0
 10
35.18362878338097
 20
24.92893973991625
 30
0.0
 10
35.1822072119085
 20
24.93685238065251
 30
0.0
 10
35.18131088023904
 20
24.94205603405573
 30
0.0
 10
35.18087463317819
 20
24.94461943276756
 30
0.0
 11
35.19193450087866
 21
24.87834465342274
 31
0.0
 11
35.19068753250663
 21
24.88706599154102
 31
0.0
 11
35.18936566756028
 21
24.89567601971874
 31
0.0
 11
35.18797930578205
 21
24.90417826548068
 31
0.0
 11
35.18654346617069
 21
24.91257570454445
 31
0.0
 11
35.18507790610303
 21
24.92087077554413
 31
0.0
 11
35.18361611156328
 21
24.92901783308886
 31
0.0
 11
35.18220370914232
 21
24.93693279447382
 31
0.0
 11
35.18087463317819
 21
24.94461943276756
 31
0.0
  0
ELLIPSE
  5
50
330
2
100
AcDbEntity
  8
GAIKEI
  6
Continuous
 62
     1
100
AcDbEllipse
 10
34.69083284371706
 20
25.12880365699238
 30
0.0
 11
0.0035725988106416
 21
0.0498767250537941
 31
0.0
210
0.0
220
0.0
230
1.0
 40
0.5724779999751089
 41
3.141653430167889
 42
3.205466611748201
  0
ELLIPSE
  5
51
330
2
100
AcDbEntity
  8
GAIKEI
  6
Continuous
 62
     1
100
AcDbEllipse
 10
34.65859521299459
 20
25.13111275420954
 30
0.0
 11
0.0035725988105389
 21
0.0498767250537957
 31
0.0
210
0.0
220
0.0
230
1.0
 40
0.5724779999453076
 41
3.141653428793983
 42
3.205466611748591
  0
ELLIPSE
  5
52
330
2
100
AcDbEntity
  8
GAIKEI
  6
Continuous
 62
     1
100
AcDbEllipse
 10
34.65859521299459
 20
25.13111275420954
 30
0.0
 11
0.0035725988111033
 21
0.0498767250537553
 31
0.0
210
0.0
220
0.0
230
1.0
 40
0.5724779999231417
 41
3.086861282490106
 42
3.141653428813754
  0
LINE
  5
53
330
2
100
AcDbEntity
  8
GAIKEI
  6
Continuous
 62
     1
100
AcDbLine
 10
34.69864632643242
 20
25.07833799283574
 30
0.0
 11
35.0259789141499
 21
25.0669072393234
 31
0.0
  0
LINE
  5
54
330
2
100
AcDbEntity
  8
GAIKEI
  6
Continuous
 62
     1
100
AcDbLine
 10
34.69864632643242
 20
25.07833799283574
 30
0.0
 11
34.69864854885518
 21
25.07840633233471
 31
0.0
  0
LINE
  5
55
330
2
100
AcDbEntity
  8
GAIKEI
  6
Continuous
 62
     1
100
AcDbLine
 10
34.69864632643242
 20
25.07833799283574
 30
0.0
 11
34.69864854885518
 21
25.07840633233471
 31
0.0
  0
LINE
  5
56
330
2
100
AcDbEntity
  8
GAIKEI
  6
Continuous
 62
     1
100
AcDbLine
 10
34.65298137317692
 20
25.08138243417389
 30
0.0
 11
34.68726029917754
 21
25.07892693485937
 31
0.0
  0
LINE
  5
57
330
2
100
AcDbEntity
  8
GAIKEI
  6
Continuous
 62
     1
100
AcDbLine
 10
35.15567089282354
 20
24.95471156139979
 30
0.0
 11
35.15553504723416
 21
24.95469294860942
 31
0.0
  0
LINE
  5
58
330
2
100
AcDbEntity
  8
GAIKEI
  6
Continuous
 62
     1
100
AcDbLine
 10
35.15553504723416
 20
24.95469294860942
 30
0.0
 11
35.23348569110375
 21
24.38788153273188
 31
0.0
  0
LINE
  5
59
330
2
100
AcDbEntity
  8
GAIKEI
  6
Continuous
 62
     1
100
AcDbLine
 10
35.15567089282354
 20
24.95471156139979
 30
0.0
 11
35.15553504723416
 21
24.95469294860942
 31
0.0
  0
LINE
  5
5A
330
2
100
AcDbEntity
  8
GAIKEI
  6
Continuous
 62
     1
100
AcDbLine
 10
35.15567089282354
 20
24.95471156139979
 30
0.0
 11
35.23365098379432
 21
24.3876845705174
 31
0.0
  0
LINE
  5
5B
330
2
100
AcDbEntity
  8
GAIKEI
  6
Continuous
 62
     1
100
AcDbLine
 10
34.65289053164777
 20
25.08149105508489
 30
0.0
 11
34.6890901864934
 21
25.07889804336386
 31
0.0
  0
LINE
  5
5C
330
2
100
AcDbEntity
  8
GAIKEI
  6
Continuous
 62
     1
100
AcDbLine
 10
35.18087455560351
 20
24.94461953977981
 30
0.0
 11
35.17633914641591
 21
24.97759807068019
 31
0.0
  0
LINE
  5
5D
330
2
100
AcDbEntity
  8
GAIKEI
  6
Continuous
 62
     1
100
AcDbLine
 10
35.26445348503854
 20
24.35102709658924
 30
0.0
 11
35.19193444232266
 21
24.87834467152862
 31
0.0
  0
LINE
  5
5E
330
2
100
AcDbEntity
  8
GAIKEI
  6
Continuous
 62
     1
100
AcDbLine
 10
35.04906571927896
 20
25.09253705166197
 30
0.0
 11
34.63146443190428
 21
25.10712003401491
 31
0.0
  0
ELLIPSE
  5
5F
330
2
100
AcDbEntity
  8
GAIKEI
  6
Continuous
 62
     1
100
AcDbEllipse
 10
-33.38525365912988
 20
26.24499958503605
 30
0.0
 11
-0.0052978427251001
 21
0.2879170138793283
 31
0.0
210
0.0
220
0.0
230
1.0
 40
0.0404429999982056
 41
4.285401047309302
 42
4.371811220306485
  0
ELLIPSE
  5
60
330
2
100
AcDbEntity
  8
GAIKEI
  6
Continuous
 62
     1
100
AcDbEllipse
 10
-33.33531775599245
 20
26.29493548817345
 30
0.0
 11
-0.2879170138797297
 21
0.0052978427250935
 31
0.0
210
0.0
220
0.0
230
1.0
 40
0.0404429999981596
 41
1.911374086872534
 42
1.997784259869754
  0
ELLIPSE
  5
61
330
2
100
AcDbEntity
  8
GAIKEI
  6
Continuous
 62
     1
100
AcDbEllipse
 10
-33.33531775599245
 20
2.27089784058262
 30
0.0
 11
0.2879170138799391
 21
0.0052978427250901
 31
0.0
210
0.0
220
0.0
230
1.0
 40
0.0404429999981356
 41
1.143808393720369
 42
1.23021856671755
  0
ELLIPSE
  5
62
330
2
100
AcDbEntity
  8
GAIKEI
  6
Continuous
 62
     1
100
AcDbEllipse
 10
-31.66168133126577
 20
24.59636538158938
 30
0.0
 11
-0.0427537848529118
 21
0.0546568828203793
 31
0.0
210
0.0
220
0.0
230
1.0
 40
0.960211999995565
 41
-0.6513938851084821
 42
-0.3742724761095297
  0
ELLIPSE
  5
63
330
2
100
AcDbEntity
  8
GAIKEI
  6
Continuous
 62
     1
100
AcDbEllipse
 10
5.115217716704236
 20
24.59636538158938
 30
0.0
 11
0.0427537848527262
 21
0.0546568828205145
 31
0.0
210
0.0
220
0.0
230
1.0
 40
0.9602119999955242
 41
0.3742724761062375
 42
0.6513938851051569
  0
ELLIPSE
  5
64
330
2
100
AcDbEntity
  8
GAIKEI
  6
Continuous
 62
     1
100
AcDbEllipse
 10
-31.66168133126577
 20
3.969467947166691
 30
0.0
 11
0.0427537848582486
 21
0.0546568828163674
 31
0.0
210
0.0
220
0.0
230
1.0
 40
0.9602120000005857
 41
3.515865129796059
 42
3.792986538793065
  0
ELLIPSE
  5
65
330
2
100
AcDbEntity
  8
GAIKEI
  6
Continuous
 62
     1
100
AcDbEllipse
 10
5.115217716704236
 20
3.969467947166691
 30
0.0
 11
-0.042753784866503
 21
0.0546568828102033
 31
0.0
210
0.0
220
0.0
230
0.9999999999999996
 40
0.9602120000078178
 41
2.490198768239826
 42
2.767320177232909
  0
ELLIPSE
  5
66
330
2
100
AcDbEntity
  8
GAIKEI
  6
Continuous
 62
     1
100
AcDbEllipse
 10
-31.66167403061717
 20
24.59635808094077
 30
0.0
 11
-0.05471957312403
 21
0.042691791412705
 31
0.0
210
0.0
220
0.0
230
1.0
 40
0.9600420000005412
 41
0.3752614365549947
 42
0.6500607537665788
  0
ELLIPSE
  5
67
330
2
100
AcDbEntity
  8
GAIKEI
  6
Continuous
 62
     1
100
AcDbEllipse
 10
-31.66167403061717
 20
3.969475247815296
 30
0.0
 11
0.054719573126713
 21
0.0426917914091056
 31
0.0
210
0.0
220
0.0
230
1.0
 40
0.9600419999976159
 41
2.491531899886615
 42
2.766331217099247
  0
ELLIPSE
  5
68
330
2
100
AcDbEntity
  8
GAIKEI
  6
Continuous
 62
     1
100
AcDbEllipse
 10
5.115210416055631
 20
24.59635808094077
 30
0.0
 11
0.0547195731240741
 21
0.0426917914126376
 31
0.0
210
0.0
220
0.0
230
1.0
 40
0.9600420000007662
 41
-0.6500607537652972
 42
-0.3752614365537126
  0
ELLIPSE
  5
69
330
2
100
AcDbEntity
  8
GAIKEI
  6
Continuous
 62
     1
100
AcDbEllipse
 10
5.115210416055631
 20
3.969475247815296
 30
0.0
 11
-0.0547195731247495
 21
0.0426917914117292
 31
0.0
210
0.0
220
0.0
230
1.0
 40
0.9600419999999962
 41
3.516854090128136
 42
3.791653407339537
  0
ELLIPSE
  5
6A
330
2
100
AcDbEntity
  8
GAIKEI
  6
Continuous
 62
     1
100
AcDbEllipse
 10
5.115217716704236
 20
3.971293909391221
 30
0.0
 11
-0.0607808270033003
 21
0.0822184915853297
 31
0.0
210
0.0
220
0.0
230
1.0
 40
0.9776259999984945
 41
2.515781018572056
 42
2.792902427569963
  0
ELLIPSE
  5
6B
330
2
100
AcDbEntity
  8
GAIKEI
  6
Continuous
 62
     1
100
AcDbEllipse
 10
-31.66168133126577
 20
3.971293909391221
 30
0.0
 11
0.0607808269967871
 21
0.0822184915900438
 31
0.0
210
0.0
220
0.0
230
1.0
 40
0.977625999995409
 41
3.490282879530687
 42
3.767404288529979
  0
ELLIPSE
  5
6C
330
2
100
AcDbEntity
  8
GAIKEI
  6
Continuous
 62
     1
100
AcDbEllipse
 10
-31.66168133126577
 20
24.59453941936488
 30
0.0
 11
-0.0607808270158121
 21
0.082218491576272
 31
0.0
210
0.0
220
0.0
230
0.9999999999999998
 40
0.9776260000034472
 41
-0.625811635167389
 42
-0.3486902261722637
  0
ELLIPSE
  5
6D
330
2
100
AcDbEntity
  8
GAIKEI
  6
Continuous
 62
     1
100
AcDbEllipse
 10
5.115217716704236
 20
24.59453941936488
 30
0.0
 11
0.0607808270141988
 21
0.0822184915774339
 31
0.0
210
0.0
220
0.0
230
1.0
 40
0.9776260000029461
 41
0.3486902261527096
 42
0.6258116351479744
  0
ELLIPSE
  5
6E
330
2
100
AcDbEntity
  8
GAIKEI
  6
Continuous
 62
     1
100
AcDbEllipse
 10
-31.65982146602919
 20
3.969475247815296
 30
0.0
 11
0.0823124171870749
 21
0.0606728015078452
 31
0.0
210
0.0
220
0.0
230
1.0
 40
0.9775040000002562
 41
2.517225752813203
 42
2.792025070024934
  0
ELLIPSE
  5
6F
330
2
100
AcDbEntity
  8
GAIKEI
  6
Continuous
 62
     1
100
AcDbEllipse
 10
-31.65982146602919
 20
24.59635808094077
 30
0.0
 11
-0.0823124171911972
 21
0.0606728015020962
 31
0.0
210
0.0
220
0.0
230
1.0
 40
0.9775039999983139
 41
0.3495675834948664
 42
0.6243669007078401
  0
ELLIPSE
  5
70
330
2
100
AcDbEntity
  8
GAIKEI
  6
Continuous
 62
     1
100
AcDbEllipse
 10
5.113357851467654
 20
24.59635808094077
 30
0.0
 11
0.0823124171885619
 21
0.0606728015057627
 31
0.0
210
0.0
220
0.0
230
1.0
 40
0.9775039999996579
 41
-0.6243669007516715
 42
-0.349567583539371
  0
ELLIPSE
  5
71
330
2
100
AcDbEntity
  8
GAIKEI
  6
Continuous
 62
     1
100
AcDbEllipse
 10
5.113357851467654
 20
3.969475247815296
 30
0.0
 11
-0.0823124171856117
 21
0.0606728015098772
 31
0.0
210
0.0
220
0.0
230
1.0
 40
0.9775040000007887
 41
3.491160237179388
 42
3.765959554391168
  0
ELLIPSE
  5
72
330
2
100
AcDbEntity
  8
GAIKEI
  6
Continuous
 62
     1
100
AcDbEllipse
 10
-33.33531775599245
 20
26.24499958503605
 30
0.0
 11
0.32304074235466
 21
0.0305357091463026
 31
0.0
210
0.0
220
0.0
230
1.0
 40
0.0083089999813824
 41
1.192616585226102
 42
1.279026757979404
  0
ELLIPSE
  5
73
330
2
100
AcDbEntity
  8
GAIKEI
  6
Continuous
 62
     1
100
AcDbEllipse
 10
-33.33531775599245
 20
26.24499958503605
 30
0.0
 11
0.0305357090498701
 21
0.3230407412646187
 31
0.0
210
0.0
220
0.0
230
1.0
 40
0.0083090000057821
 41
1.862565896623444
 42
1.948976069703653
  0
ELLIPSE
  5
74
330
2
100
AcDbEntity
  8
GAIKEI
  6
Continuous
 62
     1
100
AcDbEllipse
 10
-33.33531775599245
 20
2.320833743720015
 30
0.0
 11
-0.030535709049866
 21
0.3230407412645781
 31
0.0
210
0.0
220
0.0
230
1.0
 40
0.0083090000057778
 41
1.192616583886016
 42
1.279026756966244
  0
ELLIPSE
  5
75
330
2
100
AcDbEntity
  8
GAIKEI
  6
Continuous
 62
     1
100
AcDbEllipse
 10
-33.33531775599245
 20
2.320833743720015
 30
0.0
 11
-0.3230407423546608
 21
0.0305357091463026
 31
0.0
210
0.0
220
0.0
230
1.0
 40
0.0083089999813824
 41
1.862565895610391
 42
1.948976068363679
  0
ELLIPSE
  5
76
330
2
100
AcDbEntity
  8
GAIKEI
  6
Continuous
 62
     1
100
AcDbEllipse
 10
-32.76749020831578
 20
2.888661291396687
 30
0.0
 11
0.3876090726745644
 21
0.3876090726745644
 31
0.0
210
0.0
220
0.0
230
1.0
 40
0.4561099999999612
 41
2.756538952253047
 42
3.526646354926617
  0
ELLIPSE
  5
77
330
2
100
AcDbEntity
  8
GAIKEI
  6
Continuous
 62
     1
100
AcDbEllipse
 10
-32.76749020831578
 20
25.67717203735938
 30
0.0
 11
-0.3876090726745502
 21
0.3876090726745502
 31
0.0
210
0.0
220
0.0
230
1.0
 40
0.4561100000000735
 41
-0.3850537013367683
 42
0.3850537013367188
  0
ARC
  5
78
330
2
100
AcDbEntity
  8
GAIKEI
  6
Continuous
 62
   251
100
AcDbCircle
 10
-33.30667831156951
 20
26.21636014061315
 30
0.0
 40
0.133345180160005
100
AcDbArc
 50
179.9215319999867
 51
180.0
  0
ARC
  5
79
330
2
100
AcDbEntity
  8
GAIKEI
  6
Continuous
 62
   251
100
AcDbCircle
 10
-33.30667831156951
 20
2.349473188142923
 30
0.0
 40
0.133345180160005
100
AcDbArc
 50
180.0
 51
180.0784680000133
  0
ARC
  5
7A
330
2
100
AcDbEntity
  8
GAIKEI
  6
Continuous
 62
   251
100
AcDbCircle
 10
-33.30667831156951
 20
26.21636014061315
 30
0.0
 40
0.133345180160005
100
AcDbArc
 50
90.0
 51
90.07846799999974
  0
ARC
  5
7B
330
2
100
AcDbEntity
  8
GAIKEI
  6
Continuous
 62
   251
100
AcDbCircle
 10
-33.30667831156951
 20
2.349473188142923
 30
0.0
 40
0.133345180160005
100
AcDbArc
 50
269.9215320000003
 51
270.0
  0
ARC
  5
7C
330
2
100
AcDbEntity
  8
GAIKEI
  6
Continuous
 62
     7
100
AcDbCircle
 10
-33.30667831156951
 20
2.349473188142923
 30
0.0
 40
0.133345180160005
100
AcDbArc
 50
180.0784680000133
 51
269.9215320000003
  0
ARC
  5
7D
330
2
100
AcDbEntity
  8
GAIKEI
  6
Continuous
 62
     7
100
AcDbCircle
 10
-33.30667831156951
 20
26.21636014061315
 30
0.0
 40
0.133345180160005
100
AcDbArc
 50
90.07846799999974
 51
179.9215319999867
  0
ARC
  5
7E
330
2
100
AcDbEntity
  8
GAIKEI
  6
Continuous
 62
     1
100
AcDbCircle
 10
-31.66450281526905
 20
24.59918249853803
 30
0.0
 40
0.0655246547603001
100
AcDbArc
 50
105.7493539999939
 51
164.3805440000058
  0
ARC
  5
7F
330
2
100
AcDbEntity
  8
GAIKEI
  6
Continuous
 62
     1
100
AcDbCircle
 10
5.118039200707542
 20
24.59918249853803
 30
0.0
 40
0.0655246547603001
100
AcDbArc
 50
15.61945599999415
 51
74.25064600000602
  0
ARC
  5
80
330
2
100
AcDbEntity
  8
GAIKEI
  6
Continuous
 62
     1
100
AcDbCircle
 10
-32.26658590632145
 20
3.386231963886956
 30
0.0
 40
0.0666725900800025
100
AcDbArc
 50
180.0
 51
270.0
  0
ARC
  5
81
330
2
100
AcDbEntity
  8
GAIKEI
  6
Continuous
 62
     1
100
AcDbCircle
 10
5.720122291759963
 20
3.386231963886956
 30
0.0
 40
0.0666725900800025
100
AcDbArc
 50
270.0
 51
0.0
  0
ARC
  5
82
330
2
100
AcDbEntity
  8
GAIKEI
  6
Continuous
 62
     1
100
AcDbCircle
 10
-32.26658590632145
 20
25.17960136486911
 30
0.0
 40
0.0666725900800025
100
AcDbArc
 50
90.0
 51
180.0
  0
ARC
  5
83
330
2
100
AcDbEntity
  8
GAIKEI
  6
Continuous
 62
     1
100
AcDbCircle
 10
5.720122291759963
 20
25.17960136486911
 30
0.0
 40
0.0666725900800025
100
AcDbArc
 50
0.0
 51
90.0
  0
ARC
  5
84
330
2
100
AcDbEntity
  8
GAIKEI
  6
Continuous
 62
     1
100
AcDbCircle
 10
-31.69820207588946
 20
2.764510061390922
 30
0.0
 40
0.0166681475200006
100
AcDbArc
 50
90.0
 51
180.0
  0
ARC
  5
85
330
2
100
AcDbEntity
  8
GAIKEI
  6
Continuous
 62
     1
100
AcDbCircle
 10
-31.49818430564945
 20
2.764510061390922
 30
0.0
 40
0.0166681475200006
100
AcDbArc
 50
0.0
 51
90.0
  0
ARC
  5
86
330
2
100
AcDbEntity
  8
GAIKEI
  6
Continuous
 62
     1
100
AcDbCircle
 10
-31.69820207588946
 20
2.564492291150912
 30
0.0
 40
0.0166681475200006
100
AcDbArc
 50
180.0
 51
270.0
  0
ARC
  5
87
330
2
100
AcDbEntity
  8
GAIKEI
  6
Continuous
 62
     1
100
AcDbCircle
 10
-31.49818430564945
 20
2.564492291150912
 30
0.0
 40
0.0166681475200006
100
AcDbArc
 50
270.0
 51
0.0
  0
ARC
  5
88
330
2
100
AcDbEntity
  8
GAIKEI
  6
Continuous
 62
     1
100
AcDbCircle
 10
5.720122291759963
 20
25.17960136486911
 30
0.0
 40
0.1346545964928812
100
AcDbArc
 50
0.0
 51
90.0
  0
ARC
  5
89
330
2
100
AcDbEntity
  8
GAIKEI
  6
Continuous
 62
     1
100
AcDbCircle
 10
5.720122291759963
 20
3.386231963886956
 30
0.0
 40
0.1346545964928812
100
AcDbArc
 50
270.0
 51
0.0
  0
ARC
  5
8A
330
2
100
AcDbEntity
  8
GAIKEI
  6
Continuous
 62
     1
100
AcDbCircle
 10
-32.26658590632145
 20
25.17960136486911
 30
0.0
 40
0.1346545964928812
100
AcDbArc
 50
90.0
 51
180.0
  0
ARC
  5
8B
330
2
100
AcDbEntity
  8
GAIKEI
  6
Continuous
 62
     1
100
AcDbCircle
 10
-32.26658590632145
 20
3.386231963886956
 30
0.0
 40
0.1346545964928812
100
AcDbArc
 50
180.0
 51
270.0
  0
LINE
  5
8C
330
2
100
AcDbEntity
  8
GAIKEI
  6
Continuous
 62
     7
100
AcDbLine
 10
-33.44002349172952
 20
26.21636014061315
 30
0.0
 11
-33.44002349172952
 21
26.16083093384057
 31
0.0
  0
LINE
  5
8D
330
2
100
AcDbEntity
  8
GAIKEI
  6
Continuous
 62
     7
100
AcDbLine
 10
-33.30667831156951
 20
26.34970532077316
 30
0.0
 11
6.760214697008009
 21
26.34970532077316
 31
0.0
  0
LINE
  5
8E
330
2
100
AcDbEntity
  8
GAIKEI
  6
Continuous
 62
     7
100
AcDbLine
 10
-33.30667831156951
 20
2.216128007982916
 30
0.0
 11
6.760214697008009
 21
2.216128007982916
 31
0.0
  0
LINE
  5
8F
330
2
100
AcDbEntity
  8
GAIKEI
  6
Continuous
 62
     1
100
AcDbLine
 10
-33.37250872682792
 20
2.416805236811427
 30
0.0
 11
-33.44002335838432
 21
2.349290571918686
 31
0.0
  0
LINE
  5
90
330
2
100
AcDbEntity
  8
GAIKEI
  6
Continuous
 62
     1
100
AcDbLine
 10
-33.30686092779375
 20
2.216128141328084
 30
0.0
 11
-33.23934626290104
 21
2.283642772884519
 31
0.0
  0
LINE
  5
91
330
2
100
AcDbEntity
  8
GAIKEI
  6
Continuous
 62
     1
100
AcDbLine
 10
-33.23934626290104
 20
26.28219055587155
 30
0.0
 11
-33.30686092779375
 21
26.34970518742799
 31
0.0
  0
LINE
  5
92
330
2
100
AcDbEntity
  8
GAIKEI
  6
Continuous
 62
     1
100
AcDbLine
 10
-33.44002335838432
 20
26.21654275683736
 30
0.0
 11
-33.37250872682792
 21
26.14902809194465
 31
0.0
  0
LINE
  5
93
330
2
100
AcDbEntity
  8
GAIKEI
  6
Continuous
 62
     1
100
AcDbLine
 10
-33.37246098925344
 20
26.1259592090955
 30
0.0
 11
-33.37246098925341
 21
2.414891634237307
 31
0.0
  0
LINE
  5
94
330
2
100
AcDbEntity
  8
GAIKEI
  6
Continuous
 62
     1
100
AcDbLine
 10
6.66981376549036
 20
26.28214281829705
 30
0.0
 11
-33.21627738005187
 21
26.28214281829705
 31
0.0
  0
LINE
  5
95
330
2
100
AcDbEntity
  8
GAIKEI
  6
Continuous
 62
     1
100
AcDbLine
 10
-33.21627738005187
 20
2.283690510459024
 30
0.0
 11
6.66981376549036
 21
2.283690510459024
 31
0.0
  0
LINE
  5
96
330
2
100
AcDbEntity
  8
GAIKEI
  6
Continuous
 62
     1
100
AcDbLine
 10
5.117397477028006
 20
24.66472075450671
 30
0.0
 11
-31.66386109158954
 21
24.66472075450671
 31
0.0
  0
LINE
  5
97
330
2
100
AcDbEntity
  8
GAIKEI
  6
Continuous
 62
     1
100
AcDbLine
 10
-31.66386109158954
 20
3.901112574249367
 30
0.0
 11
5.117397477028006
 21
3.901112574249367
 31
0.0
  0
LINE
  5
98
330
2
100
AcDbEntity
  8
GAIKEI
  6
Continuous
 62
     1
100
AcDbLine
 10
-31.73003947109557
 20
24.59854790882565
 30
0.0
 11
-31.73003947109557
 21
3.967285419930419
 31
0.0
  0
LINE
  5
99
330
2
100
AcDbEntity
  8
GAIKEI
  6
Continuous
 62
     1
100
AcDbLine
 10
5.183575856534062
 20
24.59854790882565
 30
0.0
 11
5.183575856534062
 21
3.967285419930419
 31
0.0
  0
LINE
  5
9A
330
2
100
AcDbEntity
  8
GAIKEI
  6
Continuous
 62
     1
100
AcDbLine
 10
5.117397477028006
 20
3.869850696840813
 30
0.0
 11
-31.66386109158954
 21
3.869850696840813
 31
0.0
  0
LINE
  5
9B
330
2
100
AcDbEntity
  8
GAIKEI
  6
Continuous
 62
     1
100
AcDbLine
 10
-31.66386109158954
 20
24.69598263191526
 30
0.0
 11
5.117397477028006
 21
24.69598263191526
 31
0.0
  0
LINE
  5
9C
330
2
100
AcDbEntity
  8
GAIKEI
  6
Continuous
 62
     1
100
AcDbLine
 10
-32.26658590632145
 20
25.24627395494909
 30
0.0
 11
5.720122291759963
 21
25.24627395494909
 31
0.0
  0
LINE
  5
9D
330
2
100
AcDbEntity
  8
GAIKEI
  6
Continuous
 62
     1
100
AcDbLine
 10
5.720122291759963
 20
3.319559373806953
 30
0.0
 11
-32.26658590632145
 21
3.319559373806953
 31
0.0
  0
LINE
  5
9E
330
2
100
AcDbEntity
  8
GAIKEI
  6
Continuous
 62
     1
100
AcDbLine
 10
-32.33325849640149
 20
3.386231963886956
 30
0.0
 11
-32.33325849640149
 21
25.17960136486911
 31
0.0
  0
LINE
  5
9F
330
2
100
AcDbEntity
  8
GAIKEI
  6
Continuous
 62
     1
100
AcDbLine
 10
-31.7612747128044
 20
3.967285419930419
 30
0.0
 11
-31.7612747128044
 21
24.59854790882565
 31
0.0
  0
LINE
  5
A0
330
2
100
AcDbEntity
  8
GAIKEI
  6
Continuous
 62
     1
100
AcDbLine
 10
5.786794881839952
 20
3.386231963886956
 30
0.0
 11
5.786794881839952
 21
25.17960136486911
 31
0.0
  0
LINE
  5
A1
330
2
100
AcDbEntity
  8
GAIKEI
  6
Continuous
 62
     1
100
AcDbLine
 10
5.214811098242861
 20
3.967285419930419
 30
0.0
 11
5.214811098242861
 21
24.59854790882565
 31
0.0
  0
LINE
  5
A2
330
2
100
AcDbEntity
  8
GAIKEI
  6
Continuous
 62
     1
100
AcDbLine
 10
-32.32759415982976
 20
3.361564072309903
 30
0.0
 11
-31.75746814128264
 21
3.940029031716107
 31
0.0
  0
LINE
  5
A3
330
2
100
AcDbEntity
  8
GAIKEI
  6
Continuous
 62
     1
100
AcDbLine
 10
-31.69134159971539
 20
3.873721074031237
 30
0.0
 11
-32.23751470294165
 21
3.319559373806953
 31
0.0
  0
LINE
  5
A4
330
2
100
AcDbEntity
  8
GAIKEI
  6
Continuous
 62
     1
100
AcDbLine
 10
5.781130545268226
 20
3.361564072309903
 30
0.0
 11
5.21100452672114
 21
3.940029031716107
 31
0.0
  0
LINE
  5
A5
330
2
100
AcDbEntity
  8
GAIKEI
  6
Continuous
 62
     1
100
AcDbLine
 10
5.144877985153883
 20
3.873721074031237
 30
0.0
 11
5.691051088380135
 21
3.319559373806953
 31
0.0
  0
LINE
  5
A6
330
2
100
AcDbEntity
  8
GAIKEI
  6
Continuous
 62
     1
100
AcDbLine
 10
-31.75746814128264
 20
24.62580429703996
 30
0.0
 11
-32.32759415982976
 21
25.20426925644614
 31
0.0
  0
LINE
  5
A7
330
2
100
AcDbEntity
  8
GAIKEI
  6
Continuous
 62
     1
100
AcDbLine
 10
-32.2366973509234
 20
25.2454446479374
 30
0.0
 11
-31.69134159971539
 21
24.69211225472483
 31
0.0
  0
LINE
  5
A8
330
2
100
AcDbEntity
  8
GAIKEI
  6
Continuous
 62
     1
100
AcDbLine
 10
5.69105108838012
 20
25.24627395494912
 30
0.0
 11
5.144877985153883
 21
24.69211225472483
 31
0.0
  0
LINE
  5
A9
330
2
100
AcDbEntity
  8
GAIKEI
  6
Continuous
 62
     1
100
AcDbLine
 10
5.21100452672114
 20
24.62580429703996
 30
0.0
 11
5.781130545268226
 21
25.20426925644614
 31
0.0
  0
LINE
  5
AA
330
2
100
AcDbEntity
  8
GAIKEI
  6
Continuous
 62
     1
100
AcDbLine
 10
-33.34908697929576
 20
2.439874119660572
 30
0.0
 11
-33.34908697929576
 21
26.1259592090955
 31
0.0
  0
LINE
  5
AB
330
2
100
AcDbEntity
  8
GAIKEI
  6
Continuous
 62
     1
100
AcDbLine
 10
-33.21627738005187
 20
26.2587688083394
 30
0.0
 11
6.66981376549036
 21
26.2587688083394
 31
0.0
  0
LINE
  5
AC
330
2
100
AcDbEntity
  8
GAIKEI
  6
Continuous
 62
     1
100
AcDbLine
 10
6.66981376549036
 20
2.307064520416673
 30
0.0
 11
-33.21627738005187
 21
2.307064520416673
 31
0.0
  0
LINE
  5
AD
330
2
100
AcDbEntity
  8
GAIKEI
  6
Continuous
 62
     1
100
AcDbLine
 10
-33.34908697929576
 20
26.1259592090955
 30
0.0
 11
-33.19312268957928
 21
25.96999491937902
 31
0.0
  0
LINE
  5
AE
330
2
100
AcDbEntity
  8
GAIKEI
  6
Continuous
 62
     1
100
AcDbLine
 10
-33.06031309033539
 20
26.10280451862292
 30
0.0
 11
-33.21627738005187
 21
26.2587688083394
 31
0.0
  0
LINE
  5
AF
330
2
100
AcDbEntity
  8
GAIKEI
  6
Continuous
 62
     1
100
AcDbLine
 10
-33.21627738005187
 20
2.307064520416673
 30
0.0
 11
-33.06031309033539
 21
2.463028810133153
 31
0.0
  0
LINE
  5
B0
330
2
100
AcDbEntity
  8
GAIKEI
  6
Continuous
 62
     1
100
AcDbLine
 10
-33.19312268957928
 20
2.595838409377023
 30
0.0
 11
-33.34908697929576
 21
2.439874119660572
 31
0.0
  0
LINE
  5
B1
330
2
100
AcDbEntity
  8
GAIKEI
  6
Continuous
 62
     1
100
AcDbLine
 10
-32.7049581860975
 20
2.627831251726945
 30
0.0
 11
-32.77829803518547
 21
2.627831251726945
 31
0.0
  0
LINE
  5
B2
330
2
100
AcDbEntity
  8
GAIKEI
  6
Continuous
 62
     1
100
AcDbLine
 10
-31.48151615812945
 20
2.764510061390922
 30
0.0
 11
-31.48151615812945
 21
2.564492291150912
 31
0.0
  0
LINE
  5
B3
330
2
100
AcDbEntity
  8
GAIKEI
  6
Continuous
 62
     1
100
AcDbLine
 10
-32.77829803518547
 20
2.627831251726945
 30
0.0
 11
-32.77829803518547
 21
2.701171100814946
 31
0.0
  0
LINE
  5
B4
330
2
100
AcDbEntity
  8
GAIKEI
  6
Continuous
 62
     1
100
AcDbLine
 10
-32.77829803518547
 20
2.701171100814946
 30
0.0
 11
-32.7049581860975
 21
2.701171100814946
 31
0.0
  0
LINE
  5
B5
330
2
100
AcDbEntity
  8
GAIKEI
  6
Continuous
 62
     1
100
AcDbLine
 10
-32.7049581860975
 20
2.701171100814946
 30
0.0
 11
-32.7049581860975
 21
2.627831251726945
 31
0.0
  0
LINE
  5
B6
330
2
100
AcDbEntity
  8
GAIKEI
  6
Continuous
 62
     1
100
AcDbLine
 10
-31.49818430564945
 20
2.547824143630947
 30
0.0
 11
-31.69820207588946
 21
2.547824143630947
 31
0.0
  0
LINE
  5
B7
330
2
100
AcDbEntity
  8
GAIKEI
  6
Continuous
 62
     1
100
AcDbLine
 10
-31.71487022340945
 20
2.564492291150912
 30
0.0
 11
-31.71487022340945
 21
2.764510061390922
 31
0.0
  0
LINE
  5
B8
330
2
100
AcDbEntity
  8
GAIKEI
  6
Continuous
 62
     1
100
AcDbLine
 10
-31.69820207588946
 20
2.781178208910944
 30
0.0
 11
-31.49818430564945
 21
2.781178208910944
 31
0.0
  0
LINE
  5
B9
330
2
100
AcDbEntity
  8
GAIKEI
  6
Continuous
 62
     1
100
AcDbLine
 10
5.720122291759963
 20
25.31425596136199
 30
0.0
 11
-32.26658590632145
 21
25.31425596136199
 31
0.0
  0
LINE
  5
BA
330
2
100
AcDbEntity
  8
GAIKEI
  6
Continuous
 62
     1
100
AcDbLine
 10
-32.26658590632145
 20
3.251577367394077
 30
0.0
 11
5.720122291759963
 21
3.251577367394077
 31
0.0
  0
LINE
  5
BB
330
2
100
AcDbEntity
  8
GAIKEI
  6
Continuous
 62
     1
100
AcDbLine
 10
5.854776888252828
 20
25.17960136486911
 30
0.0
 11
5.854776888252828
 21
3.386231963886956
 31
0.0
  0
LINE
  5
BC
330
2
100
AcDbEntity
  8
GAIKEI
  6
Continuous
 62
     1
100
AcDbLine
 10
-32.40124050281436
 20
25.17960136486911
 30
0.0
 11
-32.40124050281436
 21
3.386231963886956
 31
0.0
  0
LINE
  5
BD
330
2
100
AcDbEntity
  8
GAIKEI
  6
Continuous
 62
     1
100
AcDbLine
 10
-33.19312268957928
 20
25.96999491937902
 30
0.0
 11
-33.19312268957928
 21
2.595838409377023
 31
0.0
  0
LINE
  5
BE
330
2
100
AcDbEntity
  8
GAIKEI
  6
Continuous
 62
     1
100
AcDbLine
 10
6.513849475773866
 20
26.10280451862292
 30
0.0
 11
-33.06031309033539
 21
26.10280451862292
 31
0.0
  0
LINE
  5
BF
330
2
100
AcDbEntity
  8
GAIKEI
  6
Continuous
 62
     1
100
AcDbLine
 10
-33.06031309033539
 20
2.463028810133153
 30
0.0
 11
6.513849475773866
 21
2.463028810133153
 31
0.0
  0
SPLINE
  5
C0
330
2
100
AcDbEntity
  8
GAIKEI
  6
Continuous
 62
     1
100
AcDbSpline
210
0.0
220
0.0
230
1.0
 70
     8
 71
     3
 72
    21
 73
    17
 74
    15
 42
0.0000000001
 43
0.0000000001
 44
0.000001
 12
-0.0001490760298766
 22
-0.9999999888881687
 32
0.0
 13
0.9999997489039975
 23
0.0007086550233522
 33
0.0
 40
0.0
 40
0.0
 40
0.0
 40
0.0
 40
0.0146800531684178
 40
0.0294098671610009
 40
0.0440944857460595
 40
0.0587961819046569
 40
0.0735433082183507
 40
0.0882452749644449
 40
0.1031289863564581
 40
0.1180596885229407
 40
0.1329432357531736
 40
0.1478756372181006
 40
0.1628556352591571
 40
0.1777879301772469
 40
0.1934470599829758
 40
0.2091023769872224
 40
0.2091023769872224
 40
0.2091023769872224
 40
0.2091023769872224
 10
-33.37250871375052
 20
2.416805221186848
 30
0.0
 10
-33.37250944323187
 20
2.411911870185093
 30
0.0
 10
-33.37197585360943
 20
2.40209962758405
 30
0.0
 10
-33.36955733736346
 20
2.387573401343217
 30
0.0
 10
-33.36556711828931
 20
2.373387627893237
 30
0.0
 10
-33.35999307996704
 20
2.359740070463459
 30
0.0
 10
-33.35296040422455
 20
2.34677948140569
 30
0.0
 10
-33.34451996255018
 20
2.334612084408092
 30
0.0
 10
-33.33471198694937
 20
2.323434644976828
 30
0.0
 10
-33.32368788680024
 20
2.313367625697253
 30
0.0
 10
-33.31160591062279
 20
2.304567014536615
 30
0.0
 10
-33.29858078781273
 20
2.297200152711383
 30
0.0
 10
-33.28480627019046
 20
2.291316367163688
 30
0.0
 10
-33.27022820160569
 20
2.286931474295613
 30
0.0
 10
-33.2550133417506
 20
2.284242432738068
 30
0.0
 10
-33.24456471621668
 20
2.2836390878889
 30
0.0
 10
-33.23934627852559
 20
2.283642785961916
 30
0.0
 11
-33.37250871375052
 21
2.416805221186848
 31
0.0
 11
-33.371708587551
 21
2.402146423478086
 31
0.0
 11
-33.36929305350542
 21
2.387616009464124
 31
0.0
 11
-33.36530635678567
 21
2.373482900860494
 31
0.0
 11
-33.35975745937428
 21
2.359868557520456
 31
0.0
 11
-33.35272427992443
 21
2.34690658347398
 31
0.0
 11
-33.34433659501364
 21
2.334832015704932
 31
0.0
 11
-33.33452754690093
 21
2.323637905615868
 31
0.0
 11
-33.32350218945071
 21
2.313569737277788
 31
0.0
 11
-33.31146556550034
 21
2.304815291347836
 31
0.0
 11
-33.29847308082292
 21
2.29745509132428
 31
0.0
 11
-33.2846967340317
 21
2.291571791505589
 31
0.0
 11
-33.27039502749865
 21
2.287278150547763
 31
0.0
 11
-33.25497609956535
 21
2.284545861674587
 31
0.0
 11
-33.23934627852559
 21
2.283642785961916
 31
0.0
  0
SPLINE
  5
C1
330
2
100
AcDbEntity
  8
GAIKEI
  6
Continuous
 62
     1
100
AcDbSpline
210
0.0
220
0.0
230
1.0
 70
     8
 71
     3
 72
    21
 73
    17
 74
    15
 42
0.0000000001
 43
0.0000000001
 44
0.000001
 12
-0.9999999888881687
 22
0.0001490760296198
 32
0.0
 13
0.0007086550231108
 23
-0.9999997489039976
 33
0.0
 40
0.0
 40
0.0
 40
0.0
 40
0.0
 40
0.0146800531684438
 40
0.0294098671610357
 40
0.0440944857460986
 40
0.0587961819046727
 40
0.0735433082183657
 40
0.0882452749644578
 40
0.1031289863565001
 40
0.1180596885230015
 40
0.1329432357531777
 40
0.1478756372180975
 40
0.1628556352591457
 40
0.1777879301772518
 40
0.1934470599829788
 40
0.2091023769872104
 40
0.2091023769872104
 40
0.2091023769872104
 40
0.2091023769872104
 10
-33.23934627852559
 20
26.28219054279416
 30
0.0
 10
-33.24423962952736
 20
26.2821912722755
 30
0.0
 10
-33.2540518721284
 20
26.28165768265311
 30
0.0
 10
-33.26857809836922
 20
26.27923916640708
 30
0.0
 10
-33.28276387181928
 20
26.2752489473329
 30
0.0
 10
-33.296411429249
 20
26.26967490901061
 30
0.0
 10
-33.30937201830673
 20
26.2626422332682
 30
0.0
 10
-33.32153941530434
 20
26.25420179159366
 30
0.0
 10
-33.33271685473569
 20
26.24439381599302
 30
0.0
 10
-33.34278387401518
 20
26.23336971584379
 30
0.0
 10
-33.35158448517588
 20
26.2212877396664
 30
0.0
 10
-33.35895134700108
 20
26.20826261685631
 30
0.0
 10
-33.36483513254879
 20
26.19448809923412
 30
0.0
 10
-33.36922002541684
 20
26.17991003064935
 30
0.0
 10
-33.37190906697439
 20
26.16469517079423
 30
0.0
 10
-33.37251241182354
 20
26.15424654526029
 30
0.0
 10
-33.37250871375052
 20
26.14902810756922
 30
0.0
 11
-33.23934627852559
 21
26.28219054279416
 31
0.0
 11
-33.25400507623438
 21
26.28139041659461
 31
0.0
 11
-33.26853549024834
 21
26.27897488254905
 31
0.0
 11
-33.28266859885197
 21
26.27498818582927
 31
0.0
 11
-33.29628294219201
 21
26.26943928841789
 31
0.0
 11
-33.30924491623846
 21
26.26240610896804
 31
0.0
 11
-33.3213194840075
 21
26.25401842405725
 31
0.0
 11
-33.3325135940966
 21
26.24420937594454
 31
0.0
 11
-33.34258176243468
 21
26.23318401849429
 31
0.0
 11
-33.3513362083646
 21
26.22114739454395
 31
0.0
 11
-33.35869640838819
 21
26.20815490986655
 31
0.0
 11
-33.36457970820685
 21
26.19437856307533
 31
0.0
 11
-33.3688733491647
 21
26.18007685654226
 31
0.0
 11
-33.37160563803785
 21
26.16465792860896
 31
0.0
 11
-33.37250871375052
 21
26.14902810756922
 31
0.0
  0
SPLINE
  5
C2
330
2
100
AcDbEntity
  8
GAIKEI
  6
Continuous
 62
     1
100
AcDbSpline
210
0.0
220
0.0
230
1.0
 70
     8
 71
     3
 72
    14
 73
    10
 74
     8
 42
0.0000000001
 43
0.0000000001
 44
0.000001
 12
0.2697836156325394
 22
-0.962920973255975
 32
0.0
 13
0.9616843088117285
 23
-0.2741592423853476
 33
0.0
 40
0.0
 40
0.0
 40
0.0
 40
0.0
 40
0.0000378405968597
 40
0.0111891984537607
 40
0.0223415869632591
 40
0.033491463217032
 40
0.0446413298613566
 40
0.0558040986430354
 40
0.0669660519622692
 40
0.0669660519622692
 40
0.0669660519622692
 40
0.0669660519622692
 10
-31.72760773986381
 20
3.94900851410108
 30
0.0
 10
-31.72760433693947
 20
3.948996368266307
 30
0.0
 10
-31.72659696272083
 20
3.945405265223399
 30
0.0
 10
-31.72395661335352
 20
3.938397524902342
 30
0.0
 10
-31.7183248369476
 20
3.928712904628127
 30
0.0
 10
-31.71109828948717
 20
3.92014889628453
 30
0.0
 10
-31.70254585597236
 20
3.912904397980611
 30
0.0
 10
-31.69286711953168
 20
3.907245991882035
 30
0.0
 10
-31.6858662544585
 20
3.904606124811465
 30
0.0
 10
-31.6822881626709
 20
3.903586073922951
 30
0.0
 11
-31.72760773986381
 21
3.94900851410108
 31
0.0
 11
-31.72759752044842
 21
3.948972079217753
 31
0.0
 11
-31.72367768192278
 21
3.938531832919977
 31
0.0
 11
-31.71805919543515
 21
3.928898197835536
 31
0.0
 11
-31.71087844187001
 21
3.920368434246199
 31
0.0
 11
-31.70236286025191
 21
3.913170875120982
 31
0.0
 11
-31.69273104989903
 21
3.907528583097075
 31
0.0
 11
-31.6822881626709
 21
3.903586073922951
 31
0.0
  0
SPLINE
  5
C3
330
2
100
AcDbEntity
  8
GAIKEI
  6
Continuous
 62
     1
100
AcDbSpline
210
0.0
220
0.0
230
1.0
 70
     8
 71
     3
 72
    14
 73
    10
 74
     8
 42
0.0000000001
 43
0.0000000001
 44
0.000001
 12
-0.2697836156325397
 22
-0.962920973255975
 32
0.0
 13
-0.9616843088117285
 23
-0.2741592423853476
 33
0.0
 40
0.0
 40
0.0
 40
0.0
 40
0.0
 40
0.0000378405968626
 40
0.0111891984537598
 40
0.0223415869632547
 40
0.033491463217023
 40
0.0446413298613557
 40
0.0558040986430376
 40
0.0669660519622714
 40
0.0669660519622714
 40
0.0669660519622714
 40
0.0669660519622714
 10
5.181144125302282
 20
3.94900851410108
 30
0.0
 10
5.181140722377932
 20
3.948996368266307
 30
0.0
 10
5.180133348157511
 20
3.945405265224195
 30
0.0
 10
5.177492998792828
 20
3.938397524902001
 30
0.0
 10
5.171861222385871
 20
3.92871290462827
 30
0.0
 10
5.164634674925693
 20
3.920148896284445
 30
0.0
 10
5.156082241410828
 20
3.912904397980724
 30
0.0
 10
5.146403504970152
 20
3.907245991881922
 30
0.0
 10
5.139402639896971
 20
3.904606124811465
 30
0.0
 10
5.135824548109368
 20
3.903586073922951
 30
0.0
 11
5.181144125302282
 21
3.94900851410108
 31
0.0
 11
5.181133905886881
 21
3.948972079217753
 31
0.0
 11
5.177214067361248
 21
3.938531832919977
 31
0.0
 11
5.171595580873614
 21
3.928898197835536
 31
0.0
 11
5.16441482730849
 21
3.920368434246199
 31
0.0
 11
5.155899245690378
 21
3.913170875120982
 31
0.0
 11
5.146267435337492
 21
3.907528583097075
 31
0.0
 11
5.135824548109368
 21
3.903586073922951
 31
0.0
  0
SPLINE
  5
C4
330
2
100
AcDbEntity
  8
GAIKEI
  6
Continuous
 62
     1
100
AcDbSpline
210
0.0
220
0.0
230
1.0
 70
     8
 71
     3
 72
    19
 73
    15
 74
    13
 42
0.0000000001
 43
0.0000000001
 44
0.000001
 12
-0.963993839467831
 22
0.2659245710122877
 32
0.0
 13
-0.26346002757732
 23
0.9646703135625962
 33
0.0
 40
0.0
 40
0.0
 40
0.0
 40
0.0
 40
0.0080455644807606
 40
0.016091572862797
 40
0.0243810347115039
 40
0.0326706179664302
 40
0.0406926484299289
 40
0.0487147353963714
 40
0.0569835490402934
 40
0.0652522942794832
 40
0.0733062202837023
 40
0.0813600285367484
 40
0.0896585537562883
 40
0.0979566571399758
 40
0.0979566571399758
 40
0.0979566571399758
 40
0.0979566571399758
 10
-31.69134159011115
 20
3.873721066360303
 30
0.0
 10
-31.69392688164265
 20
3.874434237454664
 30
0.0
 10
-31.6990399366835
 20
3.876079653956423
 30
0.0
 10
-31.70654934683582
 20
3.879211221632573
 30
0.0
 10
-31.71383288343483
 20
3.883019441670796
 30
0.0
 10
-31.72074998575958
 20
3.887443610594289
 30
0.0
 10
-31.72718453276276
 20
3.89239820609535
 30
0.0
 10
-31.73317084698158
 20
3.897875722970638
 30
0.0
 10
-31.73871328544079
 20
3.903915168838295
 30
0.0
 10
-31.74371347730638
 20
3.910424047672762
 30
0.0
 10
-31.74808897854445
 20
3.917282499123615
 30
0.0
 10
-31.75187278409337
 20
3.924495635438262
 30
0.0
 10
-31.75504904077215
 20
3.932084553703191
 30
0.0
 10
-31.75673941556802
 20
3.937360709349746
 30
0.0
 10
-31.75746815508346
 20
3.940029020680782
 30
0.0
 11
-31.69134159011115
 21
3.873721066360303
 31
0.0
 11
-31.69900125191536
 21
3.876184207406339
 31
0.0
 11
-31.70642656792099
 21
3.879283046925934
 31
0.0
 11
-31.71377297179548
 21
3.883123073581913
 31
0.0
 11
-31.72075536575043
 21
3.887591147148214
 31
0.0
 11
-31.72711217130659
 21
3.892484440871925
 31
0.0
 11
-31.73302964126266
 21
3.897900875397908
 31
0.0
 11
-31.73862165245704
 21
3.903992102956522
 31
0.0
 11
-31.74365806287629
 21
3.910550080934939
 31
0.0
 11
-31.74799124017101
 21
3.917339012210391
 31
0.0
 11
-31.75173174999729
 21
3.92447151872534
 31
0.0
 11
-31.75493781182486
 21
3.93212570425581
 31
0.0
 11
-31.75746815508346
 21
3.940029020680782
 31
0.0
  0
SPLINE
  5
C5
330
2
100
AcDbEntity
  8
GAIKEI
  6
Continuous
 62
     1
100
AcDbSpline
210
0.0
220
0.0
230
1.0
 70
     8
 71
     3
 72
    19
 73
    15
 74
    13
 42
0.0000000001
 43
0.0000000001
 44
0.000001
 12
0.9639938394678312
 22
0.2659245710122878
 32
0.0
 13
0.26346002757732
 23
0.9646703135625962
 33
0.0
 40
0.0
 40
0.0
 40
0.0
 40
0.0
 40
0.0080455644807673
 40
0.0160915728627809
 40
0.0243810347114971
 40
0.0326706179664175
 40
0.0406926484299162
 40
0.0487147353963534
 40
0.0569835490402706
 40
0.0652522942794777
 40
0.0733062202836949
 40
0.0813600285367377
 40
0.0896585537562763
 40
0.0979566571399638
 40
0.0979566571399638
 40
0.0979566571399638
 40
0.0979566571399638
 10
5.144877975549633
 20
3.873721066360303
 30
0.0
 10
5.147463267081135
 20
3.874434237454664
 30
0.0
 10
5.152576322121973
 20
3.87607965395648
 30
0.0
 10
5.16008573227431
 20
3.879211221632601
 30
0.0
 10
5.167369268873272
 20
3.883019441670796
 30
0.0
 10
5.174286371198064
 20
3.887443610594317
 30
0.0
 10
5.180720918201203
 20
3.892398206095265
 30
0.0
 10
5.186707232420033
 20
3.897875722970638
 30
0.0
 10
5.192249670879277
 20
3.903915168838324
 30
0.0
 10
5.197249862744854
 20
3.910424047672734
 30
0.0
 10
5.201625363982927
 20
3.917282499123587
 30
0.0
 10
5.205409169531847
 20
3.924495635438319
 30
0.0
 10
5.208585426210618
 20
3.932084553703134
 30
0.0
 10
5.210275801006488
 20
3.937360709349746
 30
0.0
 10
5.211004540521926
 20
3.940029020680782
 30
0.0
 11
5.144877975549633
 21
3.873721066360303
 31
0.0
 11
5.152537637353844
 21
3.876184207406339
 31
0.0
 11
5.159962953359453
 21
3.879283046925934
 31
0.0
 11
5.167309357233961
 21
3.883123073581913
 31
0.0
 11
5.174291751188903
 21
3.887591147148214
 31
0.0
 11
5.180648556745055
 21
3.892484440871925
 31
0.0
 11
5.186566026701115
 21
3.897900875397908
 31
0.0
 11
5.192158037895495
 21
3.903992102956522
 31
0.0
 11
5.197194448314775
 21
3.910550080934939
 31
0.0
 11
5.201527625609486
 21
3.917339012210391
 31
0.0
 11
5.205268135435758
 21
3.92447151872534
 31
0.0
 11
5.208474197263328
 21
3.93212570425581
 31
0.0
 11
5.211004540521926
 21
3.940029020680782
 31
0.0
  0
SPLINE
  5
C6
330
2
100
AcDbEntity
  8
GAIKEI
  6
Continuous
 62
     1
100
AcDbSpline
210
0.0
220
0.0
230
1.0
 70
     8
 71
     3
 72
    19
 73
    15
 74
    13
 42
0.0000000001
 43
0.0000000001
 44
0.000001
 12
0.2634414923284026
 22
0.9646753755122933
 32
0.0
 13
0.9639886149825482
 23
0.2659435093850355
 33
0.0
 40
0.0
 40
0.0
 40
0.0
 40
0.0
 40
0.0080469836170398
 40
0.0160943919464432
 40
0.0243850109521237
 40
0.0326757504935945
 40
0.0406967337973509
 40
0.0487177849602329
 40
0.0569854589411917
 40
0.0652530764933988
 40
0.0733066642993648
 40
0.0813601339664014
 40
0.0896586163757284
 40
0.0979566568646734
 40
0.0979566568646734
 40
0.0979566568646734
 40
0.0979566568646734
 10
-31.7574681550834
 20
24.62580430807538
 30
0.0
 10
-31.7567615186258
 20
24.62839188372289
 30
0.0
 10
-31.75512911582867
 20
24.63351008580997
 30
0.0
 10
-31.75201700377057
 20
24.64102900401093
 30
0.0
 10
-31.74822788742663
 20
24.64832388348029
 30
0.0
 10
-31.74382239036724
 20
24.65525338745704
 30
0.0
 10
-31.73888575100305
 20
24.66170132138595
 30
0.0
 10
-31.73342563944537
 20
24.66770205572351
 30
0.0
 10
-31.7274025186042
 20
24.67326060314056
 30
0.0
 10
-31.72090831593897
 20
24.67827842302819
 30
0.0
 10
-31.71406251911341
 20
24.68267259604369
 30
0.0
 10
-31.70685995855066
 20
24.68647600133721
 30
0.0
 10
-31.6992797046991
 20
24.68967253874178
 30
0.0
 10
-31.69400799563049
 20
24.69137665905956
 30
0.0
 10
-31.69134159011115
 20
24.69211226239577
 30
0.0
 11
-31.7574681550834
 21
24.62580430807538
 31
0.0
 11
-31.75502451478561
 21
24.63347169892228
 31
0.0
 11
-31.75194485425421
 21
24.64090650500364
 31
0.0
 11
-31.74812411780282
 21
24.64826426360691
 31
0.0
 11
-31.74367448212085
 21
24.65525979220877
 31
0.0
 11
-31.73879935810605
 21
24.66162922437002
 31
0.0
 11
-31.73340009476492
 21
24.66756096538421
 31
0.0
 11
-31.72732534334527
 21
24.67316919071243
 31
0.0
 11
-31.72078233626753
 21
24.67822319070831
 31
0.0
 11
-31.71400571681686
 21
24.68257497137717
 31
0.0
 11
-31.70688375485231
 21
24.68633479434166
 31
0.0
 11
-31.69923822118899
 21
24.68956132451464
 31
0.0
 11
-31.69134159011115
 21
24.69211226239577
 31
0.0
  0
SPLINE
  5
C7
330
2
100
AcDbEntity
  8
GAIKEI
  6
Continuous
 62
     1
100
AcDbSpline
210
0.0
220
0.0
230
1.0
 70
     8
 71
     3
 72
    19
 73
    15
 74
    13
 42
0.0000000001
 43
0.0000000001
 44
0.000001
 12
-0.2634414923284028
 22
0.9646753755122933
 32
0.0
 13
-0.9639886149825482
 23
0.2659435093850356
 33
0.0
 40
0.0
 40
0.0
 40
0.0
 40
0.0
 40
0.0080469836170484
 40
0.0160943919464478
 40
0.0243850109521299
 40
0.0326757504935949
 40
0.0406967337973536
 40
0.0487177849602356
 40
0.0569854589411917
 40
0.065253076493396
 40
0.073306664299368
 40
0.0813601339663826
 40
0.0896586163757293
 40
0.0979566568646641
 40
0.0979566568646641
 40
0.0979566568646641
 40
0.0979566568646641
 10
5.211004540521884
 20
24.62580430807538
 30
0.0
 10
5.210297904064276
 20
24.62839188372289
 30
0.0
 10
5.20866550126712
 20
24.63351008580992
 30
0.0
 10
5.205553389209029
 20
24.64102900401087
 30
0.0
 10
5.201764272865062
 20
24.64832388348023
 30
0.0
 10
5.19735877580571
 20
24.65525338745707
 30
0.0
 10
5.192422136441521
 20
24.66170132138595
 30
0.0
 10
5.186962024883854
 20
24.66770205572357
 30
0.0
 10
5.180938904042676
 20
24.67326060314054
 30
0.0
 10
5.174444701377424
 20
24.67827842302822
 30
0.0
 10
5.167598904551894
 20
24.68267259604374
 30
0.0
 10
5.160396343989148
 20
24.68647600133727
 30
0.0
 10
5.152816090137577
 20
24.68967253874178
 30
0.0
 10
5.147544381068968
 20
24.69137665905956
 30
0.0
 10
5.144877975549633
 20
24.69211226239577
 30
0.0
 11
5.211004540521884
 21
24.62580430807538
 31
0.0
 11
5.208560900224057
 21
24.63347169892228
 31
0.0
 11
5.205481239692673
 21
24.64090650500364
 31
0.0
 11
5.201660503241285
 21
24.64826426360691
 31
0.0
 11
5.19721086755932
 21
24.65525979220877
 31
0.0
 11
5.192335743544518
 21
24.66162922437002
 31
0.0
 11
5.186936480203385
 21
24.66756096538421
 31
0.0
 11
5.180861728783739
 21
24.67316919071243
 31
0.0
 11
5.174318721706001
 21
24.67822319070831
 31
0.0
 11
5.167542102255325
 21
24.68257497137717
 31
0.0
 11
5.16042014029081
 21
24.68633479434166
 31
0.0
 11
5.15277460662746
 21
24.68956132451464
 31
0.0
 11
5.144877975549633
 21
24.69211226239577
 31
0.0
  0
SPLINE
  5
C8
330
2
100
AcDbEntity
  8
GAIKEI
  6
Continuous
 62
     1
100
AcDbSpline
210
0.0
220
0.0
230
1.0
 70
     8
 71
     3
 72
    19
 73
    15
 74
    13
 42
0.0000000001
 43
0.0000000001
 44
0.000001
 12
0.0944471245025448
 22
0.9955298793472755
 32
0.0
 13
0.9955257326591484
 23
0.0944908229060694
 33
0.0
 40
0.0
 40
0.0
 40
0.0
 40
0.0
 40
0.011474660758023
 40
0.022953820437384
 40
0.0343591230295683
 40
0.0457936629856377
 40
0.0572035280088982
 40
0.0746287115525891
 40
0.0920556101582486
 40
0.1090656328910508
 40
0.1260693628544496
 40
0.1369222365398247
 40
0.1478018299471533
 40
0.1586464376139681
 40
0.1586464376139681
 40
0.1586464376139681
 40
0.1586464376139681
 10
-33.34667205424633
 20
26.15232073077044
 30
0.0
 10
-33.34631080467525
 20
26.15612851998378
 30
0.0
 10
-33.34517354868995
 20
26.16371366674193
 30
0.0
 10
-33.34221455134738
 20
26.17480039418149
 30
0.0
 10
-33.33812161258693
 20
26.18550376599939
 30
0.0
 10
-33.33300162707918
 20
26.19572819671538
 30
0.0
 10
-33.32586747427444
 20
26.20712040242807
 30
0.0
 10
-33.31615520025452
 20
26.21916757760857
 30
0.0
 10
-33.30351172740441
 20
26.23103884999594
 30
0.0
 10
-33.28945151117678
 20
26.2409469386881
 30
0.0
 10
-33.27609496343991
 20
26.24779917293853
 30
0.0
 10
-33.26395057314007
 20
26.25223982959534
 30
0.0
 10
-33.25341772696128
 20
26.25495683959372
 30
0.0
 10
-33.2462375970578
 20
26.25601231132242
 30
0.0
 10
-33.24263890172684
 20
26.25635388328993
 30
0.0
 11
-33.34667205424633
 21
26.15232073077044
 31
0.0
 11
-33.34496431238243
 21
26.16366849068737
 31
0.0
 11
-33.34201743448416
 21
26.1747630747262
 31
0.0
 11
-33.33795289787194
 21
26.18541959775493
 31
0.0
 11
-33.33283954127008
 21
26.19564711874762
 31
0.0
 11
-33.32678526053006
 21
26.20531814983599
 31
0.0
 11
-33.31586123568944
 21
26.21889341511153
 31
0.0
 11
-33.30315056221035
 21
26.23081450922752
 31
0.0
 11
-33.28924352283947
 21
26.24060882132673
 31
0.0
 11
-33.2741006815087
 21
26.24834325893801
 31
0.0
 11
-33.26390680477683
 21
26.25206753561779
 31
0.0
 11
-33.25336817715207
 21
26.25477036901231
 31
0.0
 11
-33.24263890172684
 21
26.25635388328993
 31
0.0
  0
SPLINE
  5
C9
330
2
100
AcDbEntity
  8
GAIKEI
  6
Continuous
 62
     1
100
AcDbSpline
210
0.0
220
0.0
230
1.0
 70
     8
 71
     3
 72
    19
 73
    15
 74
    13
 42
0.0000000001
 43
0.0000000001
 44
0.000001
 12
-0.995529879347374
 22
0.0944471245015059
 32
0.0
 13
-0.0944908229060039
 23
0.9955257326591544
 33
0.0
 40
0.0
 40
0.0
 40
0.0
 40
0.0
 40
0.011474660758029
 40
0.0229538204373836
 40
0.0343591230296011
 40
0.0457936629856801
 40
0.0572035280088671
 40
0.0746287115525518
 40
0.092055610158211
 40
0.1090656328910621
 40
0.1260693628544692
 40
0.1369222365398404
 40
0.1478018299471522
 40
0.1586464376139728
 40
0.1586464376139728
 40
0.1586464376139728
 40
0.1586464376139728
 10
-33.24263890172684
 20
2.309479445466138
 30
0.0
 10
-33.24644669094016
 20
2.309840695037223
 30
0.0
 10
-33.25403183769835
 20
2.310977951022493
 30
0.0
 10
-33.26511856513793
 20
2.313936948365039
 30
0.0
 10
-33.27582193695577
 20
2.318029887125589
 30
0.0
 10
-33.28604636767181
 20
2.323149872633251
 30
0.0
 10
-33.29743857338444
 20
2.330284025438061
 30
0.0
 10
-33.30948574856495
 20
2.33999629945788
 30
0.0
 10
-33.32135702095235
 20
2.352639772308066
 30
0.0
 10
-33.33126510964446
 20
2.366699988535685
 30
0.0
 10
-33.33811734389497
 20
2.380056536272547
 30
0.0
 10
-33.34255800055177
 20
2.3922009265724
 30
0.0
 10
-33.34527501055005
 20
2.402733772751219
 30
0.0
 10
-33.34633048227882
 20
2.409913902654665
 30
0.0
 10
-33.34667205424633
 20
2.413512597985629
 30
0.0
 11
-33.24263890172684
 21
2.309479445466138
 31
0.0
 11
-33.25398666164377
 21
2.311187187330034
 31
0.0
 11
-33.2650812456826
 21
2.314134065228273
 31
0.0
 11
-33.27573776871132
 21
2.318198601840549
 31
0.0
 11
-33.28596528970404
 21
2.323311958442388
 31
0.0
 11
-33.29563632079235
 21
2.329366239182377
 31
0.0
 11
-33.30921158606789
 21
2.340290264022996
 31
0.0
 11
-33.32113268018388
 21
2.353000937502088
 31
0.0
 11
-33.33092699228313
 21
2.366907976872994
 31
0.0
 11
-33.33866142989443
 21
2.382050818203765
 31
0.0
 11
-33.34238570657418
 21
2.392244694935641
 31
0.0
 11
-33.34508853996867
 21
2.402783322560395
 31
0.0
 11
-33.34667205424633
 21
2.413512597985629
 31
0.0
  0
LINE
  5
CA
330
2
100
AcDbEntity
  8
GAIKEI
  6
Continuous
 62
     7
100
AcDbLine
 10
-33.44002349172949
 20
2.394886496027197
 30
0.0
 11
-33.44002349172952
 21
2.349473188142923
 31
0.0
  0
LINE
  5
CB
330
2
100
AcDbEntity
  8
GAIKEI
 62
     7
100
AcDbLine
 10
-33.82767276133332
 20
26.34139083695749
 30
0.0
 11
-36.80579993239674
 21
26.3403312176691
 31
0.0
  0
LINE
  5
CC
330
2
100
AcDbEntity
  8
GAIKEI
 62
     1
100
AcDbLine
 10
-33.91096681853991
 20
26.27487121026155
 30
0.0
 11
-36.75407814362696
 21
26.27589669340631
 31
0.0
  0
LINE
  5
CD
330
2
100
AcDbEntity
  8
GAIKEI
 62
     1
100
AcDbLine
 10
-34.09039383425657
 20
26.09561505002051
 30
0.0
 11
-36.59668273107157
 21
26.09561505002051
 31
0.0
  0
ARC
  5
CE
330
2
100
AcDbEntity
  8
GAIKEI
 62
     1
100
AcDbCircle
 10
-36.57797769199682
 20
25.94358796314072
 30
0.0
 40
0.1531734756148903
100
AcDbArc
 50
97.01427902932529
 51
172.9822586112943
  0
LINE
  5
CF
330
2
100
AcDbEntity
  8
GAIKEI
 62
     1
100
AcDbLine
 10
-36.75415139242308
 20
26.25271751883256
 30
0.0
 11
-36.59667773062039
 21
26.09562616213415
 31
0.0
  0
LINE
  5
D0
330
2
100
AcDbEntity
  8
GAIKEI
 62
     1
100
AcDbLine
 10
-36.88576408996018
 20
26.11872852422229
 30
0.0
 11
-36.73000475947286
 21
25.96231607925501
 31
0.0
  0
ARC
  5
D1
330
2
100
AcDbEntity
  8
GAIKEI
 62
     1
100
AcDbCircle
 10
-36.76100196211455
 20
26.12781282418396
 30
0.0
 40
0.1250924180370581
100
AcDbArc
 50
86.86067950641941
 51
184.1645260141715
  0
ARC
  5
D2
330
2
100
AcDbEntity
  8
GAIKEI
 62
     1
100
AcDbCircle
 10
-36.77452913561176
 20
26.1427270837954
 30
0.0
 40
0.1347307982500144
100
AcDbArc
 50
81.26923823096344
 51
179.9155309745605
  0
ARC
  5
D3
330
2
100
AcDbEntity
  8
GAIKEI
 62
     7
100
AcDbCircle
 10
-36.8049707262394
 20
26.20459644749826
 30
0.0
 40
0.1357373029648912
100
AcDbArc
 50
90.35001659551777
 51
180.0667031928842
  0
LINE
  5
D4
330
2
100
AcDbEntity
  8
GAIKEI
 62
     1
100
AcDbLine
 10
-33.93450409833882
 20
26.25143159552405
 30
0.0
 11
-36.75415139242308
 21
26.25271751883256
 31
0.0
  0
ARC
  5
D5
330
2
100
AcDbEntity
  8
GAIKEI
 62
     1
100
AcDbCircle
 10
-33.92636302084297
 20
26.12631378327296
 30
0.0
 40
0.1253769819956731
100
AcDbArc
 50
356.3131059995683
 51
93.69047934133137
  0
ARC
  5
D6
330
2
100
AcDbEntity
  8
GAIKEI
 62
     1
100
AcDbCircle
 10
-33.91048277461157
 20
26.14219705188549
 30
0.0
 40
0.1326750413579115
100
AcDbArc
 50
359.7874630703798
 51
90.2090350636767
  0
ARC
  5
D7
330
2
100
AcDbEntity
  8
GAIKEI
 62
     7
100
AcDbCircle
 10
-33.84453375053631
 20
26.20824742342975
 30
0.0
 40
0.1342067864257195
100
AcDbArc
 50
0.3995567468760974
 51
82.78260690452906
  0
LINE
  5
D8
330
2
100
AcDbEntity
  8
GAIKEI
 62
     7
100
AcDbLine
 10
-33.71033022739103
 20
26.20918331771074
 30
0.0
 11
-33.71033010021144
 21
26.16083093384054
 31
0.0
  0
LINE
  5
D9
330
2
100
AcDbEntity
  8
GAIKEI
 62
     1
100
AcDbLine
 10
-33.71028954099661
 20
26.20918335178314
 30
0.0
 11
-33.77780864606759
 21
26.14170489903413
 31
0.0
  0
LINE
  5
DA
330
2
100
AcDbEntity
  8
GAIKEI
 62
     1
100
AcDbLine
 10
-33.84346398359794
 20
26.34234962893817
 30
0.0
 11
-33.91096681853993
 21
26.27487121026155
 31
0.0
  0
LINE
  5
DB
330
2
100
AcDbEntity
  8
GAIKEI
 62
     1
100
AcDbLine
 10
-33.9344330967093
 20
26.25143077448459
 30
0.0
 11
-34.09039438986231
 21
26.09562255069722
 31
0.0
  0
LINE
  5
DC
330
2
100
AcDbEntity
  8
GAIKEI
 62
     1
100
AcDbLine
 10
-33.80124552488324
 20
26.11825153674371
 30
0.0
 11
-33.95705374867062
 21
25.96228996578793
 31
0.0
  0
ARC
  5
DD
330
2
100
AcDbEntity
  8
GAIKEI
 62
     1
100
AcDbCircle
 10
-34.10409265396392
 20
25.94857460253164
 30
0.0
 40
0.1476771846261403
100
AcDbArc
 50
5.328964981967105
 51
84.67748141098242
  0
LINE
  5
DE
330
2
100
AcDbEntity
  8
GAIKEI
 62
     1
100
AcDbLine
 10
-34.09039383425657
 20
2.460102379847256
 30
0.0
 11
-36.59668273107157
 21
2.460102379847256
 31
0.0
  0
LINE
  5
DF
330
2
100
AcDbEntity
  8
GAIKEI
 62
     1
100
AcDbLine
 10
-33.93450409833882
 20
2.304285913781654
 30
0.0
 11
-36.75415139242308
 21
2.302999990473153
 31
0.0
  0
LINE
  5
E0
330
2
100
AcDbEntity
  8
GAIKEI
 62
     1
100
AcDbLine
 10
-33.93450409833882
 20
2.280935825350439
 30
0.0
 11
-36.77619928003556
 21
2.279666179552151
 31
0.0
  0
LINE
  5
E1
330
2
100
AcDbEntity
  8
GAIKEI
100
AcDbLine
 10
-33.84346398359794
 20
2.213376019122677
 30
0.0
 11
-36.80579993239674
 21
2.215394430391711
 31
0.0
  0
ARC
  5
E2
330
2
100
AcDbEntity
  8
GAIKEI
100
AcDbCircle
 10
-36.80498474157083
 20
2.351115286797607
 30
0.0
 40
0.1357233045560985
100
AcDbArc
 50
179.9274162080465
 51
269.6558640035521
  0
ARC
  5
E3
330
2
100
AcDbEntity
  8
GAIKEI
 62
     1
100
AcDbCircle
 10
-36.77691638576739
 20
2.412009947880704
 30
0.0
 40
0.1323457111357501
100
AcDbArc
 50
179.6615159254602
 51
270.31045458593
  0
ARC
  5
E4
330
2
100
AcDbEntity
  8
GAIKEI
 62
     1
100
AcDbCircle
 10
-36.76100500855519
 20
2.427940086700715
 30
0.0
 40
0.1251102313759695
100
AcDbArc
 50
175.8526305486513
 51
273.1070202196272
  0
ARC
  5
E5
330
2
100
AcDbEntity
  8
GAIKEI
 62
     1
100
AcDbCircle
 10
-36.57797075184574
 20
2.612135276263018
 30
0.0
 40
0.153180089303778
100
AcDbArc
 50
187.0165901477163
 51
262.9834098522719
  0
LINE
  5
E6
330
2
100
AcDbEntity
  8
GAIKEI
 62
     1
100
AcDbLine
 10
-36.59668273107157
 20
2.460108213706945
 30
0.0
 11
-36.75422388898314
 21
2.30301376276418
 31
0.0
  0
LINE
  5
E7
330
2
100
AcDbEntity
  8
GAIKEI
 62
     1
100
AcDbLine
 10
-36.73000392606433
 20
2.593412462726405
 30
0.0
 11
-36.8857635343545
 21
2.437000295561972
 31
0.0
  0
ARC
  5
E8
330
2
100
AcDbEntity
  8
GAIKEI
100
AcDbCircle
 10
-33.84442850896995
 20
2.347433210047938
 30
0.0
 40
0.134101295133962
100
AcDbArc
 50
270.4086267862507
 51
359.6158847768068
  0
ARC
  5
E9
330
2
100
AcDbEntity
  8
GAIKEI
 62
     1
100
AcDbCircle
 10
-33.91319734227771
 20
2.414638904793093
 30
0.0
 40
0.1353901447901534
100
AcDbArc
 50
260.9455502991953
 51
359.7349573645155
  0
ARC
  5
EA
330
2
100
AcDbEntity
  8
GAIKEI
 62
     1
100
AcDbCircle
 10
-33.92636860759858
 20
2.429402577086165
 30
0.0
 40
0.1253808822988622
100
AcDbArc
 50
266.279680116195
 51
3.696555424063676
  0
LINE
  5
EB
330
2
100
AcDbEntity
  8
GAIKEI
 62
     1
100
AcDbLine
 10
-33.93443643034347
 20
2.304295545074097
 30
0.0
 11
-34.09039772349637
 21
2.460103768861472
 31
0.0
  0
LINE
  5
EC
330
2
100
AcDbEntity
  8
GAIKEI
 62
     1
100
AcDbLine
 10
-33.95705680450188
 20
2.593447743687278
 30
0.0
 11
-33.80124858071447
 21
2.437486172731468
 31
0.0
  0
ARC
  5
ED
330
2
100
AcDbEntity
  8
GAIKEI
 62
     1
100
AcDbCircle
 10
-34.10415071177842
 20
2.607252318709555
 30
0.0
 40
0.1477898521857294
100
AcDbArc
 50
275.3395407269476
 51
354.6372035467182
  0
LINE
  5
EE
330
2
100
AcDbEntity
  8
GAIKEI
100
AcDbLine
 10
-33.71028176251703
 20
2.346536022704498
 30
0.0
 11
-33.71033010021144
 21
2.394886496027226
 31
0.0
  0
LINE
  5
EF
330
2
100
AcDbEntity
  8
GAIKEI
  6
Continuous
 62
     1
100
AcDbLine
 10
6.838577407544946
 20
2.394886496027226
 30
0.0
 11
7.206578672504903
 21
2.394886496027226
 31
0.0
  0
LINE
  5
F0
330
2
100
AcDbEntity
  8
GAIKEI
  6
Continuous
 62
     7
100
AcDbLine
 10
6.83857677914402
 20
26.16083093384057
 30
0.0
 11
7.206578672504903
 21
26.16083093384054
 31
0.0
  0
LINE
  5
F1
330
2
100
AcDbEntity
  8
GAIKEI
  6
Continuous
100
AcDbLine
 10
7.231350585747222
 20
2.414891634237307
 30
0.0
 11
6.825997374691908
 21
2.414891634237307
 31
0.0
  0
LINE
  5
F2
330
2
100
AcDbEntity
  8
GAIKEI
  6
Continuous
 62
     1
100
AcDbLine
 10
6.825997374691908
 20
25.85561950857559
 30
0.0
 11
7.231426469845118
 21
25.85561950857559
 31
0.0
  0
LINE
  5
F3
330
2
100
AcDbEntity
  8
GAIKEI
  6
Continuous
 62
     1
100
AcDbLine
 10
7.231426469845146
 20
2.409185991264905
 30
0.0
 11
7.231345031506108
 21
26.14170489903413
 31
0.0
  0
LINE
  5
F4
330
2
100
AcDbEntity
  8
GAIKEI
  6
Continuous
 62
     1
100
AcDbLine
 10
7.254784688350099
 20
2.437541733299752
 30
0.0
 11
7.254784688350099
 21
26.11818403065325
 31
0.0
  0
LINE
  5
F5
330
2
100
AcDbEntity
  8
GAIKEI
  6
Continuous
 62
     1
100
AcDbLine
 10
10.33934853529021
 20
2.436988350039797
 30
0.0
 11
10.33934853529021
 21
26.11873741391321
 31
0.0
  0
LINE
  5
F6
330
2
100
AcDbEntity
  8
GAIKEI
  6
Continuous
 62
     1
100
AcDbLine
 10
10.36279617288492
 20
26.14292571230169
 30
0.0
 11
10.3627961728849
 21
2.41279179700399
 31
0.0
  0
LINE
  5
F7
330
2
100
AcDbEntity
  8
GAIKEI
  6
Continuous
 62
     1
100
AcDbLine
 10
10.1835400337
 20
2.593423297037219
 30
0.0
 11
10.1835400337
 21
25.96230218911293
 31
0.0
  0
LINE
  5
F8
330
2
100
AcDbEntity
  8
GAIKEI
  6
Continuous
100
AcDbLine
 10
10.39424432135756
 20
2.351287284699822
 30
0.0
 11
10.39424432135756
 21
26.20443847925316
 31
0.0
  0
LINE
  5
F9
330
2
100
AcDbEntity
  8
GAIKEI
  6
Continuous
 62
     1
100
AcDbLine
 10
7.410592912137502
 20
2.593439687404867
 30
0.0
 11
7.410592912137502
 21
25.96227802026576
 31
0.0
  0
LINE
  5
FA
330
2
100
AcDbEntity
  8
GAIKEI
  6
Continuous
 62
     1
100
AcDbLine
 10
7.226494358200099
 20
2.700097921292183
 30
0.0
 11
6.82599737469188
 21
2.700097921292183
 31
0.0
  0
LINE
  5
FB
330
2
100
AcDbEntity
  8
GAIKEI
  6
Continuous
 62
     1
100
AcDbLine
 10
7.206578672504903
 20
2.394886496027226
 30
0.0
 11
7.206578672504903
 21
2.414891634237307
 31
0.0
  0
ELLIPSE
  5
FC
330
2
100
AcDbEntity
  8
GAIKEI
  6
Continuous
 62
     1
100
AcDbEllipse
 10
6.838790044568341
 20
26.24499958503605
 30
0.0
 11
0.0052978427251001
 21
0.2879170138793284
 31
0.0
210
0.0
220
0.0
230
-1.0
 40
0.0404429999982056
 41
4.285401047309302
 42
4.371811220306485
  0
ELLIPSE
  5
FD
330
2
100
AcDbEntity
  8
GAIKEI
  6
Continuous
 62
     1
100
AcDbEllipse
 10
6.788854141430917
 20
26.29493548817345
 30
0.0
 11
0.2879170138797297
 21
0.0052978427250935
 31
0.0
210
0.0
220
0.0
230
-1.0
 40
0.0404429999981596
 41
1.911374086872534
 42
1.997784259869754
  0
ELLIPSE
  5
FE
330
2
100
AcDbEntity
  8
GAIKEI
  6
Continuous
 62
     1
100
AcDbEllipse
 10
6.788854141430917
 20
2.27089784058262
 30
0.0
 11
-0.2879170138799389
 21
0.0052978427250901
 31
0.0
210
0.0
220
0.0
230
-1.0
 40
0.0404429999981356
 41
1.143808393720369
 42
1.23021856671755
  0
ELLIPSE
  5
FF
330
2
100
AcDbEntity
  8
GAIKEI
  6
Continuous
 62
     1
100
AcDbEllipse
 10
6.788854141430917
 20
26.24499958503605
 30
0.0
 11
-0.3230407423546599
 21
0.0305357091463026
 31
0.0
210
0.0
220
0.0
230
-1.0
 40
0.0083089999813824
 41
1.192616585226102
 42
1.279026757979404
  0
ELLIPSE
  5
100
330
2
100
AcDbEntity
  8
GAIKEI
  6
Continuous
 62
     1
100
AcDbEllipse
 10
6.788854141430917
 20
26.24499958503605
 30
0.0
 11
-0.0305357090498701
 21
0.3230407412646188
 31
0.0
210
0.0
220
0.0
230
-1.0
 40
0.0083090000057821
 41
1.862565896623444
 42
1.948976069703653
  0
ELLIPSE
  5
101
330
2
100
AcDbEntity
  8
GAIKEI
  6
Continuous
 62
     1
100
AcDbEllipse
 10
6.788854141430917
 20
2.320833743720015
 30
0.0
 11
0.030535709049866
 21
0.3230407412645781
 31
0.0
210
0.0
220
0.0
230
-1.0
 40
0.0083090000057778
 41
1.192616583886016
 42
1.279026756966244
  0
ELLIPSE
  5
102
330
2
100
AcDbEntity
  8
GAIKEI
  6
Continuous
 62
     1
100
AcDbEllipse
 10
6.788854141430917
 20
2.320833743720015
 30
0.0
 11
0.3230407423546607
 21
0.0305357091463026
 31
0.0
210
0.0
220
0.0
230
-1.0
 40
0.0083089999813824
 41
1.862565895610391
 42
1.948976068363679
  0
ELLIPSE
  5
103
330
2
100
AcDbEntity
  8
GAIKEI
  6
Continuous
 62
     1
100
AcDbEllipse
 10
6.221026593754245
 20
2.888661291396687
 30
0.0
 11
-0.3876090726745644
 21
0.3876090726745644
 31
0.0
210
0.0
220
0.0
230
-1.0
 40
0.4561099999999613
 41
2.756538952253047
 42
3.526646354926617
  0
ELLIPSE
  5
104
330
2
100
AcDbEntity
  8
GAIKEI
  6
Continuous
 62
     1
100
AcDbEllipse
 10
6.221026593754245
 20
25.67717203735938
 30
0.0
 11
0.3876090726745502
 21
0.3876090726745502
 31
0.0
210
0.0
220
0.0
230
-1.0
 40
0.4561100000000735
 41
-0.3850537013367683
 42
0.3850537013367188
  0
ARC
  5
105
330
2
100
AcDbEntity
  8
GAIKEI
  6
Continuous
 62
   251
100
AcDbCircle
 10
6.760214697008009
 20
26.21636014061315
 30
0.0
 40
0.133345180160005
100
AcDbArc
 50
0.000000000000007
 51
0.0784680000133332
  0
ARC
  5
106
330
2
100
AcDbEntity
  8
GAIKEI
  6
Continuous
 62
   251
100
AcDbCircle
 10
6.760214697008009
 20
2.349473188142923
 30
0.0
 40
0.133345180160005
100
AcDbArc
 50
359.9215319999867
 51
0.000000000000007
  0
ARC
  5
107
330
2
100
AcDbEntity
  8
GAIKEI
  6
Continuous
 62
   251
100
AcDbCircle
 10
6.760214697008009
 20
26.21636014061315
 30
0.0
 40
0.133345180160005
100
AcDbArc
 50
89.92153200000027
 51
90.0
  0
ARC
  5
108
330
2
100
AcDbEntity
  8
GAIKEI
  6
Continuous
 62
   251
100
AcDbCircle
 10
6.760214697008009
 20
2.349473188142923
 30
0.0
 40
0.133345180160005
100
AcDbArc
 50
270.0
 51
270.0784679999998
  0
ARC
  5
109
330
2
100
AcDbEntity
  8
GAIKEI
  6
Continuous
 62
     7
100
AcDbCircle
 10
6.760214697008009
 20
2.349473188142923
 30
0.0
 40
0.133345180160005
100
AcDbArc
 50
270.0784679999998
 51
359.9215319999867
  0
ARC
  5
10A
330
2
100
AcDbEntity
  8
GAIKEI
  6
Continuous
 62
     7
100
AcDbCircle
 10
6.760214697008009
 20
26.21636014061315
 30
0.0
 40
0.133345180160005
100
AcDbArc
 50
0.0784680000133332
 51
89.92153200000027
  0
LINE
  5
10B
330
2
100
AcDbEntity
  8
GAIKEI
  6
Continuous
 62
     7
100
AcDbLine
 10
6.893559877167987
 20
26.21636014061315
 30
0.0
 11
6.893559877167987
 21
26.16083093384057
 31
0.0
  0
LINE
  5
10C
330
2
100
AcDbEntity
  8
GAIKEI
  6
Continuous
 62
     1
100
AcDbLine
 10
6.826045112266413
 20
2.416805236811427
 30
0.0
 11
6.893559743822805
 21
2.349290571918686
 31
0.0
  0
LINE
  5
10D
330
2
100
AcDbEntity
  8
GAIKEI
  6
Continuous
 62
     1
100
AcDbLine
 10
6.760397313232232
 20
2.216128141328084
 30
0.0
 11
6.692882648339519
 21
2.283642772884519
 31
0.0
  0
LINE
  5
10E
330
2
100
AcDbEntity
  8
GAIKEI
  6
Continuous
 62
     1
100
AcDbLine
 10
6.692882648339519
 20
26.28219055587155
 30
0.0
 11
6.760397313232232
 21
26.34970518742799
 31
0.0
  0
LINE
  5
10F
330
2
100
AcDbEntity
  8
GAIKEI
  6
Continuous
 62
     1
100
AcDbLine
 10
6.893559743822805
 20
26.21654275683736
 30
0.0
 11
6.826045112266413
 21
26.14902809194465
 31
0.0
  0
LINE
  5
110
330
2
100
AcDbEntity
  8
GAIKEI
  6
Continuous
 62
     1
100
AcDbLine
 10
6.825997374691922
 20
26.1259592090955
 30
0.0
 11
6.825997374691908
 21
2.414891634237307
 31
0.0
  0
LINE
  5
111
330
2
100
AcDbEntity
  8
GAIKEI
  6
Continuous
 62
     1
100
AcDbLine
 10
6.802623364734259
 20
2.439874119660572
 30
0.0
 11
6.802623364734259
 21
26.1259592090955
 31
0.0
  0
LINE
  5
112
330
2
100
AcDbEntity
  8
GAIKEI
  6
Continuous
 62
     1
100
AcDbLine
 10
6.802623364734259
 20
26.1259592090955
 30
0.0
 11
6.646659075017765
 21
25.96999491937902
 31
0.0
  0
LINE
  5
113
330
2
100
AcDbEntity
  8
GAIKEI
  6
Continuous
 62
     1
100
AcDbLine
 10
6.513849475773866
 20
26.10280451862292
 30
0.0
 11
6.66981376549036
 21
26.2587688083394
 31
0.0
  0
LINE
  5
114
330
2
100
AcDbEntity
  8
GAIKEI
  6
Continuous
 62
     1
100
AcDbLine
 10
6.66981376549036
 20
2.307064520416673
 30
0.0
 11
6.513849475773866
 21
2.463028810133153
 31
0.0
  0
LINE
  5
115
330
2
100
AcDbEntity
  8
GAIKEI
  6
Continuous
 62
     1
100
AcDbLine
 10
6.646659075017765
 20
2.595838409377023
 30
0.0
 11
6.802623364734259
 21
2.439874119660572
 31
0.0
  0
LINE
  5
116
330
2
100
AcDbEntity
  8
GAIKEI
  6
Continuous
 62
     1
100
AcDbLine
 10
6.646659075017765
 20
25.96999491937902
 30
0.0
 11
6.646659075017765
 21
2.595838409377023
 31
0.0
  0
SPLINE
  5
117
330
2
100
AcDbEntity
  8
GAIKEI
  6
Continuous
 62
     1
100
AcDbSpline
210
0.0
220
0.0
230
1.0
 70
     8
 71
     3
 72
    21
 73
    17
 74
    15
 42
0.0000000001
 43
0.0000000001
 44
0.000001
 12
0.0001490760298766
 22
-0.9999999888881687
 32
0.0
 13
-0.9999997489039975
 23
0.0007086550233522
 33
0.0
 40
0.0
 40
0.0
 40
0.0
 40
0.0
 40
0.0146800531684174
 40
0.0294098671609988
 40
0.0440944857460612
 40
0.0587961819046572
 40
0.0735433082183528
 40
0.0882452749644449
 40
0.1031289863564605
 40
0.1180596885229457
 40
0.1329432357531815
 40
0.1478756372181085
 40
0.162855635259165
 40
0.1777879301772514
 40
0.1934470599829803
 40
0.2091023769872127
 40
0.2091023769872127
 40
0.2091023769872127
 40
0.2091023769872127
 10
6.826045099188988
 20
2.416805221186848
 30
0.0
 10
6.826045828670331
 20
2.411911870185093
 30
0.0
 10
6.825512239047924
 20
2.40209962758405
 30
0.0
 10
6.823093722801942
 20
2.387573401343246
 30
0.0
 10
6.819103503727774
 20
2.37338762789318
 30
0.0
 10
6.813529465405537
 20
2.359740070463487
 30
0.0
 10
6.806496789663
 20
2.346779481405661
 30
0.0
 10
6.798056347988648
 20
2.334612084408092
 30
0.0
 10
6.788248372387855
 20
2.323434644976828
 30
0.0
 10
6.777224272238683
 20
2.313367625697225
 30
0.0
 10
6.76514229606127
 20
2.304567014536587
 30
0.0
 10
6.752117173251178
 20
2.297200152711383
 30
0.0
 10
6.73834265562894
 20
2.291316367163631
 30
0.0
 10
6.723764587044144
 20
2.286931474295585
 30
0.0
 10
6.708549727189094
 20
2.284242432738068
 30
0.0
 10
6.698101101655154
 20
2.2836390878889
 30
0.0
 10
6.69288266396407
 20
2.283642785961916
 30
0.0
 11
6.826045099188988
 21
2.416805221186848
 31
0.0
 11
6.825244972989466
 21
2.402146423478086
 31
0.0
 11
6.822829438943898
 21
2.387616009464124
 31
0.0
 11
6.818842742224134
 21
2.373482900860494
 31
0.0
 11
6.813293844812761
 21
2.359868557520456
 31
0.0
 11
6.806260665362898
 21
2.34690658347398
 31
0.0
 11
6.797872980452112
 21
2.334832015704932
 31
0.0
 11
6.788063932339397
 21
2.323637905615868
 31
0.0
 11
6.777038574889175
 21
2.313569737277788
 31
0.0
 11
6.76500195093881
 21
2.304815291347836
 31
0.0
 11
6.752009466261384
 21
2.29745509132428
 31
0.0
 11
6.738233119470166
 21
2.291571791505589
 31
0.0
 11
6.723931412937119
 21
2.287278150547763
 31
0.0
 11
6.708512485003822
 21
2.284545861674587
 31
0.0
 11
6.69288266396407
 21
2.283642785961916
 31
0.0
  0
SPLINE
  5
118
330
2
100
AcDbEntity
  8
GAIKEI
  6
Continuous
 62
     1
100
AcDbSpline
210
0.0
220
0.0
230
1.0
 70
     8
 71
     3
 72
    21
 73
    17
 74
    15
 42
0.0000000001
 43
0.0000000001
 44
0.000001
 12
0.9999999888881687
 22
0.0001490760296198
 32
0.0
 13
-0.0007086550231108
 23
-0.9999997489039976
 33
0.0
 40
0.0
 40
0.0
 40
0.0
 40
0.0
 40
0.0146800531684331
 40
0.0294098671610145
 40
0.0440944857460808
 40
0.0587961819046583
 40
0.0735433082183481
 40
0.0882452749644519
 40
0.1031289863564889
 40
0.1180596885229855
 40
0.1329432357531701
 40
0.1478756372180864
 40
0.1628556352591373
 40
0.1777879301772414
 40
0.1934470599829703
 40
0.209102376987201
 40
0.209102376987201
 40
0.209102376987201
 40
0.209102376987201
 10
6.69288266396407
 20
26.28219054279416
 30
0.0
 10
6.697776014965839
 20
26.2821912722755
 30
0.0
 10
6.707588257566868
 20
26.28165768265308
 30
0.0
 10
6.722114483807672
 20
26.27923916640702
 30
0.0
 10
6.736300257257767
 20
26.27524894733296
 30
0.0
 10
6.749947814687445
 20
26.26967490901063
 30
0.0
 10
6.762908403745214
 20
26.26264223326814
 30
0.0
 10
6.775075800742797
 20
26.25420179159372
 30
0.0
 10
6.786253240174175
 20
26.24439381599302
 30
0.0
 10
6.796320259453636
 20
26.23336971584382
 30
0.0
 10
6.805120870614359
 20
26.22128773966634
 30
0.0
 10
6.812487732439535
 20
26.20826261685636
 30
0.0
 10
6.818371517987301
 20
26.19448809923409
 30
0.0
 10
6.822756410855305
 20
26.1799100306493
 30
0.0
 10
6.825445452412864
 20
26.1646951707942
 30
0.0
 10
6.826048797262004
 20
26.15424654526029
 30
0.0
 10
6.826045099188988
 20
26.14902810756922
 30
0.0
 11
6.69288266396407
 21
26.28219054279416
 31
0.0
 11
6.707541461672846
 21
26.28139041659461
 31
0.0
 11
6.722071875686808
 21
26.27897488254905
 31
0.0
 11
6.736204984290438
 21
26.27498818582927
 31
0.0
 11
6.749819327630476
 21
26.26943928841789
 31
0.0
 11
6.762781301676923
 21
26.26240610896804
 31
0.0
 11
6.774855869445985
 21
26.25401842405725
 31
0.0
 11
6.786049979535064
 21
26.24420937594454
 31
0.0
 11
6.796118147873144
 21
26.23318401849429
 31
0.0
 11
6.804872593803082
 21
26.22114739454395
 31
0.0
 11
6.812232793826652
 21
26.20815490986655
 31
0.0
 11
6.818116093645329
 21
26.19437856307533
 31
0.0
 11
6.822409734603169
 21
26.18007685654226
 31
0.0
 11
6.825142023476331
 21
26.16465792860896
 31
0.0
 11
6.826045099188988
 21
26.14902810756922
 31
0.0
  0
SPLINE
  5
119
330
2
100
AcDbEntity
  8
GAIKEI
  6
Continuous
 62
     1
100
AcDbSpline
210
0.0
220
0.0
230
1.0
 70
     8
 71
     3
 72
    19
 73
    15
 74
    13
 42
0.0000000001
 43
0.0000000001
 44
0.000001
 12
-0.0944471245025448
 22
0.9955298793472755
 32
0.0
 13
-0.9955257326591484
 23
0.0944908229060695
 33
0.0
 40
0.0
 40
0.0
 40
0.0
 40
0.0
 40
0.0114746607580219
 40
0.0229538204373839
 40
0.0343591230295695
 40
0.0457936629856357
 40
0.0572035280088904
 40
0.0746287115525813
 40
0.0920556101582461
 40
0.1090656328910541
 40
0.1260693628544561
 40
0.1369222365398442
 40
0.1478018299471485
 40
0.1586464376139774
 40
0.1586464376139774
 40
0.1586464376139774
 40
0.1586464376139774
 10
6.800208439684794
 20
26.15232073077044
 30
0.0
 10
6.799847190113709
 20
26.15612851998378
 30
0.0
 10
6.798709934128439
 20
26.16371366674199
 30
0.0
 10
6.79575093678585
 20
26.17480039418152
 30
0.0
 10
6.791657998025414
 20
26.18550376599936
 30
0.0
 10
6.786538012517652
 20
26.19572819671544
 30
0.0
 10
6.779403859712914
 20
26.20712040242805
 30
0.0
 10
6.769691585692996
 20
26.21916757760857
 30
0.0
 10
6.757048112842895
 20
26.231038849996
 30
0.0
 10
6.742987896615247
 20
26.24094693868807
 30
0.0
 10
6.729631348878385
 20
26.24779917293864
 30
0.0
 10
6.717486958578533
 20
26.25223982959528
 30
0.0
 10
6.706954112399756
 20
26.25495683959377
 30
0.0
 10
6.699773982496282
 20
26.25601231132242
 30
0.0
 10
6.696175287165303
 20
26.25635388328993
 30
0.0
 11
6.800208439684794
 21
26.15232073077044
 31
0.0
 11
6.798500697820912
 21
26.16366849068737
 31
0.0
 11
6.795553819922631
 21
26.1747630747262
 31
0.0
 11
6.791489283310411
 21
26.18541959775493
 31
0.0
 11
6.786375926708544
 21
26.19564711874762
 31
0.0
 11
6.780321645968541
 21
26.20531814983599
 31
0.0
 11
6.769397621127922
 21
26.21889341511153
 31
0.0
 11
6.75668694764883
 21
26.23081450922752
 31
0.0
 11
6.742779908277938
 21
26.24060882132673
 31
0.0
 11
6.727637066947167
 21
26.24834325893801
 31
0.0
 11
6.717443190215291
 21
26.25206753561779
 31
0.0
 11
6.706904562590551
 21
26.25477036901231
 31
0.0
 11
6.696175287165303
 21
26.25635388328993
 31
0.0
  0
SPLINE
  5
11A
330
2
100
AcDbEntity
  8
GAIKEI
  6
Continuous
 62
     1
100
AcDbSpline
210
0.0
220
0.0
230
1.0
 70
     8
 71
     3
 72
    19
 73
    15
 74
    13
 42
0.0000000001
 43
0.0000000001
 44
0.000001
 12
0.995529879347374
 22
0.094447124501506
 32
0.0
 13
0.0944908229060039
 23
0.9955257326591544
 33
0.0
 40
0.0
 40
0.0
 40
0.0
 40
0.0
 40
0.0114746607580219
 40
0.0229538204373903
 40
0.0343591230296145
 40
0.0457936629856807
 40
0.0572035280088797
 40
0.0746287115525507
 40
0.0920556101582245
 40
0.1090656328910673
 40
0.1260693628544696
 40
0.136922236539848
 40
0.147801829947159
 40
0.158646437613978
 40
0.158646437613978
 40
0.158646437613978
 40
0.158646437613978
 10
6.696175287165303
 20
2.309479445466138
 30
0.0
 10
6.699983076378629
 20
2.309840695037223
 30
0.0
 10
6.707568223136831
 20
2.31097795102255
 30
0.0
 10
6.718654950576407
 20
2.313936948365039
 30
0.0
 10
6.729358322394233
 20
2.318029887125589
 30
0.0
 10
6.739582753110283
 20
2.323149872633223
 30
0.0
 10
6.750974958822936
 20
2.330284025438089
 30
0.0
 10
6.763022134003406
 20
2.339996299457936
 30
0.0
 10
6.774893406390845
 20
2.352639772308009
 30
0.0
 10
6.78480149508293
 20
2.366699988535685
 30
0.0
 10
6.791653729333404
 20
2.380056536272547
 30
0.0
 10
6.796094385990272
 20
2.3922009265724
 30
0.0
 10
6.798811395988522
 20
2.402733772751219
 30
0.0
 10
6.799866867717284
 20
2.409913902654665
 30
0.0
 10
6.800208439684794
 20
2.413512597985629
 30
0.0
 11
6.696175287165303
 21
2.309479445466138
 31
0.0
 11
6.707523047082233
 21
2.311187187330034
 31
0.0
 11
6.718617631121077
 21
2.314134065228273
 31
0.0
 11
6.729274154149806
 21
2.318198601840549
 31
0.0
 11
6.739501675142506
 21
2.323311958442388
 31
0.0
 11
6.749172706230837
 21
2.329366239182377
 31
0.0
 11
6.762747971506357
 21
2.340290264022996
 31
0.0
 11
6.774669065622362
 21
2.353000937502088
 31
0.0
 11
6.784463377721593
 21
2.366907976872994
 31
0.0
 11
6.792197815332897
 21
2.382050818203765
 31
0.0
 11
6.795922092012659
 21
2.392244694935641
 31
0.0
 11
6.798624925407153
 21
2.402783322560395
 31
0.0
 11
6.800208439684794
 21
2.413512597985629
 31
0.0
  0
LINE
  5
11B
330
2
100
AcDbEntity
  8
GAIKEI
  6
Continuous
 62
     7
100
AcDbLine
 10
6.893559877167973
 20
2.394886496027197
 30
0.0
 11
6.893559877167987
 21
2.349473188142923
 31
0.0
  0
LINE
  5
11C
330
2
100
AcDbEntity
  8
GAIKEI
 62
     7
100
AcDbLine
 10
7.281209146771786
 20
26.34139083695749
 30
0.0
 11
10.25933631783523
 21
26.3403312176691
 31
0.0
  0
LINE
  5
11D
330
2
100
AcDbEntity
  8
GAIKEI
 62
     1
100
AcDbLine
 10
7.364503203978387
 20
26.27487121026155
 30
0.0
 11
10.20761452906545
 21
26.27589669340631
 31
0.0
  0
LINE
  5
11E
330
2
100
AcDbEntity
  8
GAIKEI
 62
     1
100
AcDbLine
 10
7.543930219695056
 20
26.09561505002051
 30
0.0
 11
10.05021911651003
 21
26.09561505002051
 31
0.0
  0
ARC
  5
11F
330
2
100
AcDbEntity
  8
GAIKEI
 62
     1
100
AcDbCircle
 10
10.03151407743529
 20
25.94358796314072
 30
0.0
 40
0.1531734756148903
100
AcDbArc
 50
7.017741388705743
 51
82.98572097067472
  0
LINE
  5
120
330
2
100
AcDbEntity
  8
GAIKEI
 62
     1
100
AcDbLine
 10
10.20768777786155
 20
26.25271751883256
 30
0.0
 11
10.05021411605887
 21
26.09562616213415
 31
0.0
  0
LINE
  5
121
330
2
100
AcDbEntity
  8
GAIKEI
 62
     1
100
AcDbLine
 10
10.33930047539864
 20
26.11872852422229
 30
0.0
 11
10.18354114491134
 21
25.96231607925501
 31
0.0
  0
ARC
  5
122
330
2
100
AcDbEntity
  8
GAIKEI
 62
     1
100
AcDbCircle
 10
10.21453834755303
 20
26.12781282418396
 30
0.0
 40
0.1250924180370581
100
AcDbArc
 50
355.8354739858285
 51
93.13932049358058
  0
ARC
  5
123
330
2
100
AcDbEntity
  8
GAIKEI
 62
     1
100
AcDbCircle
 10
10.22806552105024
 20
26.1427270837954
 30
0.0
 40
0.1347307982500144
100
AcDbArc
 50
0.0844690254394899
 51
98.73076176903655
  0
ARC
  5
124
330
2
100
AcDbEntity
  8
GAIKEI
 62
     7
100
AcDbCircle
 10
10.2585071116779
 20
26.20459644749826
 30
0.0
 40
0.1357373029648912
100
AcDbArc
 50
359.9332968071157
 51
89.64998340448223
  0
LINE
  5
125
330
2
100
AcDbEntity
  8
GAIKEI
 62
     1
100
AcDbLine
 10
7.388040483777302
 20
26.25143159552405
 30
0.0
 11
10.20768777786155
 21
26.25271751883256
 31
0.0
  0
ARC
  5
126
330
2
100
AcDbEntity
  8
GAIKEI
 62
     1
100
AcDbCircle
 10
7.379899406281452
 20
26.12631378327296
 30
0.0
 40
0.1253769819956731
100
AcDbArc
 50
86.30952065866862
 51
183.6868940004317
  0
ARC
  5
127
330
2
100
AcDbEntity
  8
GAIKEI
 62
     1
100
AcDbCircle
 10
7.364019160050048
 20
26.14219705188549
 30
0.0
 40
0.1326750413579115
100
AcDbArc
 50
89.79096493632331
 51
180.2125369296203
  0
ARC
  5
128
330
2
100
AcDbEntity
  8
GAIKEI
 62
     7
100
AcDbCircle
 10
7.298070135974811
 20
26.20824742342975
 30
0.0
 40
0.1342067864257195
100
AcDbArc
 50
97.21739309547093
 51
179.6004432531239
  0
LINE
  5
129
330
2
100
AcDbEntity
  8
GAIKEI
 62
     7
100
AcDbLine
 10
7.163866612829494
 20
26.20918331771074
 30
0.0
 11
7.163866485649933
 21
26.16083093384054
 31
0.0
  0
LINE
  5
12A
330
2
100
AcDbEntity
  8
GAIKEI
 62
     1
100
AcDbLine
 10
7.16382592643508
 20
26.20918335178314
 30
0.0
 11
7.23134503150608
 21
26.14170489903413
 31
0.0
  0
LINE
  5
12B
330
2
100
AcDbEntity
  8
GAIKEI
 62
     1
100
AcDbLine
 10
7.29700036903641
 20
26.34234962893817
 30
0.0
 11
7.364503203978401
 21
26.27487121026155
 31
0.0
  0
LINE
  5
12C
330
2
100
AcDbEntity
  8
GAIKEI
 62
     1
100
AcDbLine
 10
7.387969482147781
 20
26.25143077448459
 30
0.0
 11
7.543930775300808
 21
26.09562255069722
 31
0.0
  0
LINE
  5
12D
330
2
100
AcDbEntity
  8
GAIKEI
 62
     1
100
AcDbLine
 10
7.254781910321725
 20
26.11825153674371
 30
0.0
 11
7.410590134109085
 21
25.96228996578793
 31
0.0
  0
ARC
  5
12E
330
2
100
AcDbEntity
  8
GAIKEI
 62
     1
100
AcDbCircle
 10
7.557629039402385
 20
25.94857460253164
 30
0.0
 40
0.1476771846261403
100
AcDbArc
 50
95.32251858901757
 51
174.6710350180329
  0
LINE
  5
12F
330
2
100
AcDbEntity
  8
GAIKEI
 62
     1
100
AcDbLine
 10
7.543930219695056
 20
2.460102379847256
 30
0.0
 11
10.05021911651003
 21
2.460102379847256
 31
0.0
  0
LINE
  5
130
330
2
100
AcDbEntity
  8
GAIKEI
 62
     1
100
AcDbLine
 10
7.388040483777302
 20
2.304285913781654
 30
0.0
 11
10.20768777786155
 21
2.302999990473153
 31
0.0
  0
LINE
  5
131
330
2
100
AcDbEntity
  8
GAIKEI
 62
     1
100
AcDbLine
 10
7.388040483777302
 20
2.280935825350439
 30
0.0
 11
10.22973566547402
 21
2.279666179552151
 31
0.0
  0
LINE
  5
132
330
2
100
AcDbEntity
  8
GAIKEI
100
AcDbLine
 10
7.29700036903641
 20
2.213376019122677
 30
0.0
 11
10.25933631783523
 21
2.215394430391711
 31
0.0
  0
ARC
  5
133
330
2
100
AcDbEntity
  8
GAIKEI
100
AcDbCircle
 10
10.25852112700933
 20
2.351115286797607
 30
0.0
 40
0.1357233045560985
100
AcDbArc
 50
270.3441359964479
 51
0.0725837919535229
  0
ARC
  5
134
330
2
100
AcDbEntity
  8
GAIKEI
 62
     1
100
AcDbCircle
 10
10.23045277120586
 20
2.412009947880704
 30
0.0
 40
0.1323457111357501
100
AcDbArc
 50
269.6895454140701
 51
0.3384840745397305
  0
ARC
  5
135
330
2
100
AcDbEntity
  8
GAIKEI
 62
     1
100
AcDbCircle
 10
10.21454139399365
 20
2.427940086700715
 30
0.0
 40
0.1251102313759695
100
AcDbArc
 50
266.8929797803729
 51
4.147369451348706
  0
ARC
  5
136
330
2
100
AcDbEntity
  8
GAIKEI
 62
     1
100
AcDbCircle
 10
10.03150713728421
 20
2.612135276263018
 30
0.0
 40
0.153180089303778
100
AcDbArc
 50
277.0165901477282
 51
352.9834098522837
  0
LINE
  5
137
330
2
100
AcDbEntity
  8
GAIKEI
 62
     1
100
AcDbLine
 10
10.05021911651003
 20
2.460108213706945
 30
0.0
 11
10.20776027442163
 21
2.30301376276418
 31
0.0
  0
LINE
  5
138
330
2
100
AcDbEntity
  8
GAIKEI
 62
     1
100
AcDbLine
 10
10.18354031150281
 20
2.593412462726405
 30
0.0
 11
10.33929991979298
 21
2.437000295561972
 31
0.0
  0
ARC
  5
139
330
2
100
AcDbEntity
  8
GAIKEI
100
AcDbCircle
 10
7.297964894408451
 20
2.347433210047938
 30
0.0
 40
0.134101295133962
100
AcDbArc
 50
180.3841152231933
 51
269.5913732137493
  0
ARC
  5
13A
330
2
100
AcDbEntity
  8
GAIKEI
 62
     1
100
AcDbCircle
 10
7.366733727716194
 20
2.414638904793093
 30
0.0
 40
0.1353901447901534
100
AcDbArc
 50
180.2650426354844
 51
279.0544497008046
  0
ARC
  5
13B
330
2
100
AcDbEntity
  8
GAIKEI
 62
     1
100
AcDbCircle
 10
7.379904993037058
 20
2.429402577086165
 30
0.0
 40
0.1253808822988622
100
AcDbArc
 50
176.3034445759363
 51
273.720319883805
  0
LINE
  5
13C
330
2
100
AcDbEntity
  8
GAIKEI
 62
     1
100
AcDbLine
 10
7.387972815781935
 20
2.304295545074097
 30
0.0
 11
7.543934108934848
 21
2.460103768861472
 31
0.0
  0
LINE
  5
13D
330
2
100
AcDbEntity
  8
GAIKEI
 62
     1
100
AcDbLine
 10
7.410593189940342
 20
2.593447743687278
 30
0.0
 11
7.254784966152939
 21
2.437486172731468
 31
0.0
  0
ARC
  5
13E
330
2
100
AcDbEntity
  8
GAIKEI
 62
     1
100
AcDbCircle
 10
7.557687097216884
 20
2.607252318709555
 30
0.0
 40
0.1477898521857294
100
AcDbArc
 50
185.3627964532817
 51
264.6604592730524
  0
LINE
  5
13F
330
2
100
AcDbEntity
  8
GAIKEI
100
AcDbLine
 10
7.163818147955495
 20
2.346536022704498
 30
0.0
 11
7.163866485649933
 21
2.394886496027226
 31
0.0
  0
LINE
  5
140
330
2
100
AcDbEntity
  8
GAIKEI
 62
     1
100
AcDbLine
 10
33.5152397323142
 20
26.20449831408957
 30
0.0
 11
32.87374307134616
 21
26.13873211677688
 31
0.0
  0
LINE
  5
141
330
2
100
AcDbEntity
  8
GAIKEI
 62
     7
100
AcDbLine
 10
33.54399568379728
 20
26.34058947078273
 30
0.0
 11
32.99108559517902
 21
26.28407573658507
 31
0.0
  0
LINE
  5
142
330
2
100
AcDbEntity
  8
GAIKEI
 62
     7
100
AcDbLine
 10
32.99108559517902
 20
26.28407573658492
 30
0.0
 11
32.91440451762641
 21
26.28005696826978
 31
0.0
  0
ARC
  5
143
330
2
100
AcDbEntity
  8
GAIKEI
 62
     7
100
AcDbCircle
 10
32.91613578028422
 20
26.23004757343779
 30
0.0
 40
0.0500393529319787
100
AcDbArc
 50
91.98271636162452
 51
147.9042790606875
  0
LINE
  5
144
330
2
100
AcDbEntity
  8
GAIKEI
 62
     7
100
AcDbLine
 10
32.87374446036035
 20
26.25663513291414
 30
0.0
 11
32.77596119384511
 21
26.10067078392993
 31
0.0
  0
ARC
  5
145
330
2
100
AcDbEntity
  8
GAIKEI
 62
     7
100
AcDbCircle
 10
32.81290886766849
 20
26.08045993271583
 30
0.0
 40
0.0421142387768983
100
AcDbArc
 50
151.3207753347372
 51
183.4071168973712
  0
ARC
  5
146
330
2
100
AcDbEntity
  8
GAIKEI
 62
     7
100
AcDbCircle
 10
34.20696024510232
 20
26.31170660694062
 30
0.0
 40
0.0308686550298805
100
AcDbArc
 50
354.1487151821884
 51
95.32435032164196
  0
LINE
  5
147
330
2
100
AcDbEntity
  8
GAIKEI
 62
     7
100
AcDbLine
 10
33.54399568379728
 20
26.34058947078273
 30
0.0
 11
34.20409582667783
 21
26.34244207457076
 31
0.0
  0
LINE
  5
148
330
2
100
AcDbEntity
  8
GAIKEI
  6
Continuous
 62
     1
100
AcDbLine
 10
34.23766807000348
 20
25.84342167543787
 30
0.0
 11
34.40615043853413
 21
25.85102088266558
 31
0.0
  0
LINE
  5
149
330
2
100
AcDbEntity
  8
GAIKEI
  6
Continuous
 62
     1
100
AcDbLine
 10
34.38733236667442
 20
25.98591013333925
 30
0.0
 11
34.23766807000348
 21
25.99073449528484
 31
0.0
  0
ARC
  5
14A
330
2
100
AcDbEntity
  8
GAIKEI
 62
     1
100
AcDbCircle
 10
34.36434396388336
 20
25.94189261090159
 30
0.0
 40
0.1000109124005768
100
AcDbArc
 50
294.6822153763288
 51
359.9992555506058
  0
LINE
  5
14B
330
2
100
AcDbEntity
  8
GAIKEI
 62
     1
100
AcDbLine
 10
34.46435487627548
 20
25.94189132256256
 30
0.0
 11
34.46435487627548
 21
25.99057901480478
 31
0.0
  0
ARC
  5
14C
330
2
100
AcDbEntity
  8
GAIKEI
 62
     1
100
AcDbCircle
 10
34.38800985695798
 20
25.99556849074853
 30
0.0
 40
0.0096820896984856
100
AcDbArc
 50
265.9875314113305
 51
357.4403055779336
  0
LINE
  5
14D
330
2
100
AcDbEntity
  8
GAIKEI
 62
     1
100
AcDbLine
 10
34.39768228619546
 20
25.99513608633674
 30
0.0
 11
34.39768228619548
 21
26.01474352832671
 31
0.0
  0
ARC
  5
14E
330
2
100
AcDbEntity
  8
GAIKEI
 62
     1
100
AcDbCircle
 10
34.40768317470749
 20
26.01474352832671
 30
0.0
 40
0.0100008885120045
100
AcDbArc
 50
88.00000000002318
 51
179.9999999998914
  0
LINE
  5
14F
330
2
100
AcDbEntity
  8
GAIKEI
 62
     1
100
AcDbLine
 10
34.40803220571655
 20
26.02473831629672
 30
0.0
 11
34.4321820011543
 21
26.02389500227455
 31
0.0
  0
ARC
  5
150
330
2
100
AcDbEntity
  8
GAIKEI
 62
     1
100
AcDbCircle
 10
34.43101857199807
 20
25.99057901107258
 30
0.0
 40
0.03333630427746
100
AcDbArc
 50
0.0000064146182766
 51
88.00001314450677
  0
LINE
  5
151
330
2
100
AcDbEntity
  8
GAIKEI
 62
     1
100
AcDbLine
 10
34.23766807000347
 20
25.68761127013744
 30
0.0
 11
33.71123723304631
 21
25.70761103667502
 31
0.0
  0
LINE
  5
152
330
2
100
AcDbEntity
  8
GAIKEI
 62
     1
100
AcDbLine
 10
33.65556000928963
 20
25.70967828047478
 30
0.0
 11
33.55150588622094
 21
25.7134621833973
 31
0.0
  0
ELLIPSE
  5
153
330
2
100
AcDbEntity
  8
GAIKEI
 62
     1
100
AcDbEllipse
 10
33.68542449788322
 20
25.84551966272977
 30
0.0
 11
0.0048428985547114
 21
0.169955681855815
 31
0.0
210
0.0
220
0.0
230
1.0
 40
0.2552453852602102
 41
0.0
 42
6.283185307179586
  0
ARC
  5
154
330
2
100
AcDbEntity
  8
GAIKEI
 62
     1
100
AcDbCircle
 10
33.89630428972119
 20
25.71010882441644
 30
0.0
 40
0.3039351738536516
100
AcDbArc
 50
179.6480118625684
 51
227.0790051900844
  0
LINE
  5
155
330
2
100
AcDbEntity
  8
GAIKEI
 62
     1
100
AcDbLine
 10
33.68932770427083
 20
25.48753909830626
 30
0.0
 11
34.307661485544
 21
25.49382221725674
 31
0.0
  0
ARC
  5
156
330
2
100
AcDbEntity
  8
GAIKEI
 62
     1
100
AcDbCircle
 10
34.4066899666901
 20
25.69023491599077
 30
0.0
 40
0.3053341310925439
100
AcDbArc
 50
179.6930692744335
 51
220.5186299774003
  0
ARC
  5
157
330
2
100
AcDbEntity
  8
GAIKEI
 62
     7
100
AcDbCircle
 10
34.53874006328851
 20
25.68681255369273
 30
0.0
 40
0.3010730527439958
100
AcDbArc
 50
179.847999897133
 51
219.8105702442833
  0
LINE
  5
158
330
2
100
AcDbEntity
  8
GAIKEI
 62
     1
100
AcDbLine
 10
33.68932770427085
 20
25.48753909830626
 30
0.0
 11
35.42709028062736
 21
24.06672406247836
 31
0.0
  0
LINE
  5
159
330
2
100
AcDbEntity
  8
GAIKEI
 62
     7
100
AcDbLine
 10
34.30746615542123
 20
25.4940501024
 30
0.0
 11
35.55222972617858
 21
24.0093898849658
 31
0.0
  0
ARC
  5
15A
330
2
100
AcDbEntity
  8
GAIKEI
 62
     1
100
AcDbCircle
 10
35.23334745440678
 20
25.10832186143293
 30
0.0
 40
0.166187930812541
100
AcDbArc
 50
7.809250808790455
 51
77.92644098243148
  0
LINE
  5
15B
330
2
100
AcDbEntity
  8
GAIKEI
 62
     7
100
AcDbLine
 10
34.23766807000347
 20
26.30855964747212
 30
0.0
 11
34.23766807000347
 21
25.68761127013744
 31
0.0
  0
LINE
  5
15C
330
2
100
AcDbEntity
  8
GAIKEI
 62
     7
100
AcDbLine
 10
35.34695065020942
 20
25.32931674741562
 30
0.0
 11
34.26614187070894
 21
25.55904994274153
 31
0.0
  0
LINE
  5
15D
330
2
100
AcDbEntity
  8
GAIKEI
 62
     1
100
AcDbLine
 10
35.26810853702196
 20
25.27083369325811
 30
0.0
 11
34.32521763544964
 21
25.47288164437973
 31
0.0
  0
LINE
  5
15E
330
2
100
AcDbEntity
  8
GAIKEI
 62
     1
100
AcDbLine
 10
35.397994144276
 20
25.13090273526146
 30
0.0
 11
35.55222972617858
 21
24.0093898849658
 31
0.0
  0
ARC
  5
15F
330
2
100
AcDbEntity
  8
GAIKEI
 62
     7
100
AcDbCircle
 10
35.31229597982072
 20
25.16627778457579
 30
0.0
 40
0.1666812814434652
100
AcDbArc
 50
7.999954115666997
 51
78.00011128326089
  0
LINE
  5
160
330
2
100
AcDbEntity
  8
GAIKEI
 62
     7
100
AcDbLine
 10
35.47735514906845
 20
25.18947520320151
 30
0.0
 11
35.67029676715379
 21
23.81662277116746
 31
0.0
  0
ARC
  5
161
330
2
100
AcDbEntity
  8
GAIKEI
 62
     1
100
AcDbCircle
 10
35.39518793567462
 20
24.04851791542581
 30
0.0
 40
0.0367317764882516
100
AcDbArc
 50
318.1467719571975
 51
29.71269670511121
  0
ARC
  5
162
330
2
100
AcDbEntity
  8
GAIKEI
 62
     1
100
AcDbCircle
 10
35.3527968711024
 20
23.87252115724959
 30
0.0
 40
0.2046080114861957
100
AcDbArc
 50
326.1444489288921
 51
33.85555107111008
  0
ARC
  5
163
330
2
100
AcDbEntity
  8
GAIKEI
 62
     1
100
AcDbCircle
 10
34.98516972637282
 20
23.44282392693444
 30
0.0
 40
0.7645555280058886
100
AcDbArc
 50
29.34811999867742
 51
54.68931910532074
  0
ARC
  5
164
330
2
100
AcDbEntity
  8
GAIKEI
 62
     1
100
AcDbCircle
 10
35.20364113232498
 20
23.60890935658062
 30
0.0
 40
0.4941619734738384
100
AcDbArc
 50
0.1436196268530043
 51
24.97346866073803
  0
ARC
  5
165
330
2
100
AcDbEntity
  8
GAIKEI
 62
     7
100
AcDbCircle
 10
35.1728081863766
 20
23.64488477987106
 30
0.0
 40
0.5261413084959541
100
AcDbArc
 50
356.2144820540979
 51
43.85131920853806
  0
LINE
  5
166
330
2
100
AcDbEntity
  8
GAIKEI
 62
     1
100
AcDbLine
 10
35.42254783691237
 20
24.02400956566001
 30
0.0
 11
35.28458881728054
 21
23.83852150774754
 31
0.0
  0
ARC
  5
167
330
2
100
AcDbEntity
  8
GAIKEI
 62
     1
100
AcDbCircle
 10
57.69391179522274
 20
90.15678618994547
 30
0.0
 40
70.00207136222759
100
AcDbArc
 50
251.3295934179257
 51
251.5351965038707
  0
ARC
  5
168
330
2
100
AcDbEntity
  8
GAIKEI
 62
     1
100
AcDbCircle
 10
35.41703979775311
 20
23.38906556486455
 30
0.0
 40
0.3842831201497643
100
AcDbArc
 50
55.92859297969427
 51
74.03878313188525
  0
ARC
  5
169
330
2
100
AcDbEntity
  8
GAIKEI
 62
     1
100
AcDbCircle
 10
35.56103124140558
 20
23.58871166301998
 30
0.0
 40
0.1384399276671704
100
AcDbArc
 50
8.90765528863759
 51
59.00386356229141
  0
LINE
  5
16A
330
2
100
AcDbEntity
  8
GAIKEI
 62
     7
100
AcDbLine
 10
35.69780155333521
 20
23.61014803915927
 30
0.0
 11
35.92448692257946
 21
22.00796570404515
 31
0.0
  0
LINE
  5
16B
330
2
100
AcDbEntity
  8
GAIKEI
 62
     1
100
AcDbLine
 10
35.69780147086849
 20
23.61014803176917
 30
0.0
 11
35.69780147086849
 21
4.937867375525769
 31
0.0
  0
LINE
  5
16C
330
2
100
AcDbEntity
  8
GAIKEI
 62
     7
100
AcDbLine
 10
35.92448702476142
 20
22.00796583493093
 30
0.0
 11
35.92448702476142
 21
5.906309153417936
 31
0.0
  0
LINE
  5
16D
330
2
100
AcDbEntity
  8
GAIKEI
 62
     7
100
AcDbLine
 10
35.69780147086849
 20
5.638375236831592
 30
0.0
 11
35.864946273005
 21
5.778626501504305
 31
0.0
  0
LINE
  5
16E
330
2
100
AcDbEntity
  8
GAIKEI
 62
     1
100
AcDbLine
 10
35.69780147086849
 20
5.717461260913751
 30
0.0
 11
35.92286483178892
 21
5.90631191025497
 31
0.0
  0
ARC
  5
16F
330
2
100
AcDbEntity
  8
GAIKEI
 62
     7
100
AcDbCircle
 10
35.77008143740088
 20
5.900587502105707
 30
0.0
 40
0.1545115617094552
100
AcDbArc
 50
307.8768217257112
 51
2.123203603632398
  0
ARC
  5
170
330
2
100
AcDbEntity
  8
GAIKEI
 62
     7
100
AcDbCircle
 10
35.90462457436195
 20
5.596302267123718
 30
0.0
 40
0.1651557752857223
100
AcDbArc
 50
131.2789217303646
 51
180.238526956298
  0
ARC
  5
171
330
2
100
AcDbEntity
  8
GAIKEI
 62
     7
100
AcDbCircle
 10
35.15196063481631
 20
4.91230338466849
 30
0.0
 40
0.5464391420192215
100
AcDbArc
 50
312.4681952910323
 51
2.681439676979842
  0
ARC
  5
172
330
2
100
AcDbEntity
  8
GAIKEI
 62
     1
100
AcDbCircle
 10
35.19007347978318
 20
4.94982624345198
 30
0.0
 40
0.5078688092938953
100
AcDbArc
 50
304.1043947865985
 51
358.6507224250838
  0
ARC
  5
173
330
2
100
AcDbEntity
  8
GAIKEI
 62
     1
100
AcDbCircle
 10
35.4694673438034
 20
5.04295556579342
 30
0.0
 40
0.2513563234062419
100
AcDbArc
 50
282.2297006437131
 51
335.2862852160586
  0
ARC
  5
174
330
2
100
AcDbEntity
  8
GAIKEI
 62
     1
100
AcDbCircle
 10
56.09170369205942
 20
-56.83738005095898
 30
0.0
 40
64.97628498578482
100
AcDbArc
 50
108.4551067593456
 51
108.6766106751914
  0
LINE
  5
175
330
2
100
AcDbEntity
  8
GAIKEI
 62
     7
100
AcDbLine
 10
35.73948493012179
 20
5.597819094961039
 30
0.0
 11
35.73947023025143
 21
3.385605323777667
 31
0.0
  0
ARC
  5
176
330
2
100
AcDbEntity
  8
GAIKEI
 62
     7
100
AcDbCircle
 10
35.40610682065143
 20
3.385605323777696
 30
0.0
 40
0.3333634096000158
100
AcDbArc
 50
272.9999999999984
 51
359.9999999999968
  0
LINE
  5
177
330
2
100
AcDbEntity
  8
GAIKEI
 62
     7
100
AcDbLine
 10
35.42355371346925
 20
3.052698777144627
 30
0.0
 11
34.27100441096346
 21
2.992296097292353
 31
0.0
  0
LINE
  5
178
330
2
100
AcDbEntity
  8
GAIKEI
 62
     7
100
AcDbLine
 10
34.30766148554403
 20
3.06202321202835
 30
0.0
 11
35.52090587547954
 21
4.509221326865571
 31
0.0
  0
LINE
  5
179
330
2
100
AcDbEntity
  8
GAIKEI
 62
     1
100
AcDbLine
 10
33.68932770427085
 20
3.068298192223721
 30
0.0
 11
35.4748367949078
 21
4.529302068388489
 31
0.0
  0
ARC
  5
17A
330
2
100
AcDbEntity
  8
GAIKEI
 62
     1
100
AcDbCircle
 10
34.44023543449958
 20
2.520376851195038
 30
0.0
 40
0.9978192992824462
100
AcDbArc
 50
134.0418697611565
 51
152.9577913790034
  0
LINE
  5
17B
330
2
100
AcDbEntity
  8
GAIKEI
 62
     1
100
AcDbLine
 10
33.7452577948127
 20
3.236200726130817
 30
0.0
 11
35.27639312761602
 21
4.710375028926847
 31
0.0
  0
ARC
  5
17C
330
2
100
AcDbEntity
  8
GAIKEI
 62
     1
100
AcDbCircle
 10
34.53732765687903
 20
2.868994567291423
 30
0.0
 40
0.3000110130389404
100
AcDbArc
 50
139.9537923843618
 51
176.7595130411008
  0
ARC
  5
17D
330
2
100
AcDbEntity
  8
GAIKEI
 62
     7
100
AcDbCircle
 10
34.23766807000351
 20
2.251597735087329
 30
0.0
 40
0.0333363409599675
100
AcDbArc
 50
269.9999999999349
 51
356.7637596474814
  0
LINE
  5
17E
330
2
100
AcDbEntity
  8
GAIKEI
 62
     7
100
AcDbLine
 10
33.51682379797916
 20
2.217853340952501
 30
0.0
 11
34.24480471747202
 21
2.219034260280295
 31
0.0
  0
LINE
  5
17F
330
2
100
AcDbEntity
  8
GAIKEI
 62
     7
100
AcDbLine
 10
34.27085825094602
 20
2.248479479549132
 30
0.0
 11
34.27100441096346
 21
3.000798096571571
 31
0.0
  0
LINE
  5
180
330
2
100
AcDbEntity
  8
GAIKEI
 62
     1
100
AcDbLine
 10
34.23770425586477
 20
2.88425909069295
 30
0.0
 11
34.23766807000347
 21
2.222702601643106
 31
0.0
  0
LINE
  5
181
330
2
100
AcDbEntity
  8
GAIKEI
 62
     1
100
AcDbLine
 10
34.23766807000347
 20
2.344941990000933
 30
0.0
 11
33.56496765630625
 21
2.344941990000933
 31
0.0
  0
LINE
  5
182
330
2
100
AcDbEntity
  8
GAIKEI
 62
     1
100
AcDbLine
 10
34.30766148554403
 20
3.06202321202835
 30
0.0
 11
33.60686409284233
 21
3.069135050154187
 31
0.0
  0
LINE
  5
183
330
2
100
AcDbEntity
  8
GAIKEI
 62
     1
100
AcDbLine
 10
34.10136032083358
 20
2.86396660625158
 30
0.0
 11
34.10136021666346
 21
2.344941990000933
 31
0.0
  0
ARC
  5
184
330
2
100
AcDbEntity
  8
GAIKEI
 62
     1
100
AcDbCircle
 10
34.40668924365923
 20
2.865602797289426
 30
0.0
 40
0.30533330678946
100
AcDbArc
 50
139.4813421796192
 51
180.3070326346156
  0
ELLIPSE
  5
185
330
2
100
AcDbEntity
  8
GAIKEI
 62
     1
100
AcDbEllipse
 10
33.68291794352274
 20
2.69571584427274
 30
0.0
 11
0.0028216851385802
 21
-0.1547352782023097
 31
0.0
210
0.0
220
0.0
230
0.9999999999999998
 40
0.310649656473011
 41
0.0
 42
6.283185307179586
  0
LINE
  5
186
330
2
100
AcDbEntity
  8
GAIKEI
 62
     7
100
AcDbLine
 10
32.91326484882655
 20
2.279726070164286
 30
0.0
 11
33.51682379797916
 21
2.217853340952501
 31
0.0
  0
LINE
  5
187
330
2
100
AcDbEntity
  8
GAIKEI
 62
     7
100
AcDbLine
 10
32.77597230595873
 20
2.460157662612687
 30
0.0
 11
32.87454953299451
 21
2.303068212121075
 31
0.0
  0
ARC
  5
188
330
2
100
AcDbEntity
  8
GAIKEI
 62
     7
100
AcDbCircle
 10
32.91701742426928
 20
2.329727812984771
 30
0.0
 40
0.0501423584161749
100
AcDbArc
 50
212.1189170118205
 51
265.7080609928864
  0
ARC
  5
189
330
2
100
AcDbEntity
  8
GAIKEI
 62
     1
100
AcDbCircle
 10
32.80723612641614
 20
2.479111917250975
 30
0.0
 40
0.036560774588166
100
AcDbArc
 50
174.0992861487775
 51
211.2270935956971
  0
LINE
  5
18A
330
2
100
AcDbEntity
  8
GAIKEI
 62
     1
100
AcDbLine
 10
32.88703853802174
 20
2.415741742039557
 30
0.0
 11
33.5152397323142
 21
2.351347115195522
 31
0.0
  0
LINE
  5
18B
330
2
100
AcDbEntity
  8
GAIKEI
 62
     1
100
AcDbLine
 10
32.88703853802174
 20
2.415741742039557
 30
0.0
 11
32.77597286156444
 21
2.593474412760031
 31
0.0
  0
TEXT
  5
18C
330
2
100
AcDbEntity
  8
TOUROKU
100
AcDbText
 10
17.1620370538693
 20
47.2127154980173
 30
0.0
 40
2.0
  1
ＴＨ５０ＰＨ１１ＫＲ＋ＴＹＳＰ５０Ｐ８Ｋ
 72
     2
 11
64.3620370538693
 21
47.2127154980173
 31
0.0
100
AcDbText
  0
TEXT
  5
18E
330
2
100
AcDbEntity
  8
MOJI1
100
AcDbText
 10
-33.63791297905834
 20
53.21271549801753
 30
0.0
 40
4.0
  1
ハイビジョンプラズマディスプレイ（ＳＰ付）
100
AcDbText
  0
DIMENSION
  5
190
330
2
100
AcDbEntity
  8
SUNPO
100
AcDbDimension
  2
*D8
 10
6.893433754851003
 20
34.35554496551513
 30
0.0
 11
-13.27323180728075
 21
36.10554496551512
 31
0.0
 70
    33
  1
1210
 71
     5
 42
40.3333311242635
  3
STANDARD
100
AcDbAlignedDimension
 13
-33.43989736941251
 23
26.35554496551512
 33
0.0
 14
6.893433754851002
 24
26.35554496551512
 34
0.0
1001
ACAD
1000
DSTYLE
1002
{
1070
    40
1040
1.0
1070
   140
1040
2.5
1070
   147
1040
0.5
1070
   172
1070
     1
1070
   279
1070
     0
1070
   288
1070
     0
1002
}
  0
DIMENSION
  5
19E
330
2
100
AcDbEntity
  8
SUNPO
100
AcDbDimension
  2
*D7
 10
18.20204328977942
 20
26.34457875420046
 30
0.0
 11
16.45204328977942
 21
14.27791608122081
 31
0.0
 70
    33
  1
724
 71
     5
 42
24.13332534595929
  3
STANDARD
100
AcDbAlignedDimension
 13
10.20204328977942
 23
2.211253408241162
 33
0.0
 14
10.20204328977942
 24
26.34457875420046
 34
0.0
1001
ACAD
1000
DSTYLE
1002
{
1070
    40
1040
1.0
1070
   140
1040
2.5
1070
   147
1040
0.5
1070
   172
1070
     1
1070
   279
1070
     0
1070
   288
1070
     0
1002
}
  0
DIMENSION
  5
1AB
330
2
100
AcDbEntity
  8
SUNPO
100
AcDbDimension
  2
*D6
 10
35.92448702476144
 20
34.35554496551515
 30
0.0
 11
42.50782035809477
 21
36.10554496551515
 31
0.0
 70
    33
  1
95
 71
     5
 42
3.153480177450774
  3
STANDARD
100
AcDbAlignedDimension
 13
32.77100684731066
 23
26.35554496551515
 33
0.0
 14
35.92448702476144
 24
26.35554496551515
 34
0.0
1001
ACAD
1000
DSTYLE
1002
{
1070
    40
1040
1.0
1070
   140
1040
2.5
1070
   147
1040
0.5
1070
   172
1070
     1
1070
   279
1070
     0
1070
   288
1070
     0
1002
}
  0
DIMENSION
  5
1BA
330
2
100
AcDbEntity
  8
SUNPO
100
AcDbDimension
  2
*D5
 10
10.39424432135756
 20
39.35554496551509
 30
0.0
 11
-13.27323180728076
 21
41.10554496551509
 31
0.0
 70
    32
  1
1420
 71
     5
 42
47.33495225727665
  3
STANDARD
100
AcDbAlignedDimension
 13
-36.94070793591909
 23
26.34457875420046
 33
0.0
 14
10.39424432135756
 24
26.33191749650289
 34
0.0
100
AcDbRotatedDimension
1001
ACAD
1000
DSTYLE
1002
{
1070
    40
1040
1.0
1070
   140
1040
2.5
1070
   147
1040
0.5
1070
   172
1070
     1
1070
   279
1070
     0
1070
   288
1070
     0
1002
}
  0
TEXT
  5
1C7
330
2
100
AcDbEntity
  8
TOUROKU
100
AcDbText
 10
39.58232467216613
 20
2.879931955948904
 30
0.0
 40
1.5
  1
Ｓ＝１／３０
 41
0.7
 72
     2
 11
46.65232467216611
 21
2.879931955948904
 31
0.0
100
AcDbText
  0
LINE
  5
1C8
330
2
100
AcDbEntity
  8
WAKU
 62
     1
100
AcDbLine
 10
-60.63791297905826
 20
-40.78728450198241
 30
0.0
 11
64.36208702094152
 21
-40.78728450198241
 31
0.0
  0
LINE
  5
1CA
330
2
100
AcDbEntity
  8
WAKU
 62
     1
100
AcDbLine
 10
-60.63791297905826
 20
-35.78728450198241
 30
0.0
 11
64.36208702094152
 21
-35.78728450198241
 31
0.0
  0
LINE
  5
1CB
330
2
100
AcDbEntity
  8
WAKU
 62
     4
100
AcDbLine
 10
64.36208702094152
 20
-10.78728450198241
 30
0.0
 11
64.36208702094152
 21
-55.78728450198241
 31
0.0
  0
TEXT
  5
1CC
330
2
100
AcDbEntity
  8
MOJI1
100
AcDbText
 10
-19.13791297905826
 20
-19.78728450198241
 30
0.0
 40
3.0
  1
４４０Ｗ
100
AcDbText
  0
TEXT
  5
1CD
330
2
100
AcDbEntity
  8
MOJI1
100
AcDbText
 10
-19.13791297905826
 20
-54.78728450198241
 30
0.0
 40
3.0
  1
シリアル、音声
100
AcDbText
  0
LINE
  5
1CE
330
2
100
AcDbEntity
  8
WAKU
 62
     4
100
AcDbLine
 10
-20.63791297905849
 20
-10.78728450198241
 30
0.0
 11
-20.63791297905849
 21
-55.78728450198241
 31
0.0
  0
TEXT
  5
1CF
330
2
100
AcDbEntity
  8
MOJI1
100
AcDbText
 10
-19.13791297905826
 20
-44.78728450198241
 30
0.0
 40
3.0
  1
１６Ｗ（８Ｗ＋８Ｗ）
100
AcDbText
  0
TEXT
  5
1D0
330
2
100
AcDbEntity
  8
MOJI1
100
AcDbText
 10
-19.13791297905826
 20
-24.78728450198242
 30
0.0
 40
3.0
  1
５０Ｖ型（１６：９）
100
AcDbText
  0
LINE
  5
1D1
330
2
100
AcDbEntity
  8
WAKU
 62
     4
100
AcDbLine
 10
-60.63791297905848
 20
-10.78728450198241
 30
0.0
 11
-60.63791297905826
 21
-55.78728450198241
 31
0.0
  0
TEXT
  5
1D2
330
2
100
AcDbEntity
  8
MOJI1
100
AcDbText
 10
-58.13791297905826
 20
-29.78728450198241
 30
0.0
 40
3.0
  1
画素数
100
AcDbText
  0
TEXT
  5
1D3
330
2
100
AcDbEntity
  8
MOJI1
100
AcDbText
 10
-58.13791297905826
 20
-14.78728450198241
 30
0.0
 40
3.0
  1
電  源
100
AcDbText
  0
TEXT
  5
1D4
330
2
100
AcDbEntity
  8
MOJI1
100
AcDbText
 10
-58.13791297905826
 20
-19.78728450198241
 30
0.0
 40
3.0
  1
消費電力
100
AcDbText
  0
TEXT
  5
1D5
330
2
100
AcDbEntity
  8
MOJI1
100
AcDbText
 10
-58.13791297905826
 20
-49.78728450198241
 30
0.0
 40
3.0
  1
接続端子
100
AcDbText
  0
TEXT
  5
1D6
330
2
100
AcDbEntity
  8
MOJI1
100
AcDbText
 10
-58.13791297905826
 20
-44.78728450198241
 30
0.0
 40
3.0
  1
音声最大出力
100
AcDbText
  0
TEXT
  5
1D7
330
2
100
AcDbEntity
  8
MOJI1
100
AcDbText
 10
-58.13791297905826
 20
-24.78728450198242
 30
0.0
 40
3.0
  1
画面サイズ
100
AcDbText
  0
TEXT
  5
1D8
330
2
100
AcDbEntity
  8
MOJI1
100
AcDbText
 10
-19.13791297905826
 20
-14.78728450198241
 30
0.0
 40
3.0
  1
ＡＣ１００Ｖ　５０Ｈｚ／６０Ｈｚ
100
AcDbText
  0
TEXT
  5
1D9
330
2
100
AcDbEntity
  8
MOJI1
100
AcDbText
 10
-19.13791297905826
 20
-49.78728450198241
 30
0.0
 40
3.0
  1
ビデオ／Ｓビデオ／ＰＣ／外部スピーカ
100
AcDbText
  0
TEXT
  5
1DA
330
2
100
AcDbEntity
  8
MOJI1
100
AcDbText
 10
-19.13791297905826
 20
-29.78728450198241
 30
0.0
 40
3.0
  1
１０４９０８８画素（水平１３６６×垂直７６８）
100
AcDbText
  0
LINE
  5
1DB
330
2
100
AcDbEntity
  8
WAKU
 62
     4
100
AcDbLine
 10
64.36208702094152
 20
-55.78728450198241
 30
0.0
 11
-60.63791297905826
 21
-55.78728450198241
 31
0.0
  0
LINE
  5
1DC
330
2
100
AcDbEntity
  8
WAKU
 62
     1
100
AcDbLine
 10
-60.63791297905826
 20
-50.78728450198241
 30
0.0
 11
64.36208702094152
 21
-50.78728450198241
 31
0.0
  0
LINE
  5
1DD
330
2
100
AcDbEntity
  8
WAKU
 62
     1
100
AcDbLine
 10
-60.63791297905826
 20
-45.78728450198241
 30
0.0
 11
64.36208702094152
 21
-45.78728450198241
 31
0.0
  0
LINE
  5
1DE
330
2
100
AcDbEntity
  8
WAKU
 62
     1
100
AcDbLine
 10
-60.63791297905826
 20
-25.78728450198241
 30
0.0
 11
64.36208702094152
 21
-25.78728450198241
 31
0.0
  0
LINE
  5
1DF
330
2
100
AcDbEntity
  8
WAKU
 62
     1
100
AcDbLine
 10
-60.63791297905826
 20
-15.78728450198241
 30
0.0
 11
64.36208702094152
 21
-15.78728450198241
 31
0.0
  0
LINE
  5
1E0
330
2
100
AcDbEntity
  8
WAKU
 62
     4
100
AcDbLine
 10
-60.63791297905826
 20
-10.78728450198241
 30
0.0
 11
64.36208702094152
 21
-10.78728450198241
 31
0.0
  0
LINE
  5
1E1
330
2
100
AcDbEntity
  8
WAKU
 62
     1
100
AcDbLine
 10
-60.63791297905826
 20
-30.78728450198241
 30
0.0
 11
64.36208702094152
 21
-30.78728450198241
 31
0.0
  0
LINE
  5
1E2
330
2
100
AcDbEntity
  8
WAKU
 62
     1
100
AcDbLine
 10
-60.63791297905826
 20
-20.78728450198241
 30
0.0
 11
64.36208702094152
 21
-20.78728450198241
 31
0.0
  0
TEXT
  5
1E3
330
2
100
AcDbEntity
  8
MOJI1
100
AcDbText
 10
-58.13791297905826
 20
-34.78728450198242
 30
0.0
 40
3.0
  1
コントラスト
100
AcDbText
  0
TEXT
  5
1E4
330
2
100
AcDbEntity
  8
MOJI1
100
AcDbText
 10
-58.13791297905826
 20
-39.78728450198241
 30
0.0
 40
3.0
  1
階調数
100
AcDbText
  0
TEXT
  5
1E5
330
2
100
AcDbEntity
  8
MOJI1
100
AcDbText
 10
-19.13791297905826
 20
-34.78728450198242
 30
0.0
 40
3.0
  1
１５０００：１
100
AcDbText
  0
TEXT
  5
1E6
330
2
100
AcDbEntity
  8
MOJI1
100
AcDbText
 10
-19.13791297905826
 20
-39.78728450198241
 30
0.0
 40
3.0
  1
４０９６階調（相当）
100
AcDbText
  0
ENDSEC
  0
SECTION
  2
OBJECTS
  0
DICTIONARY
  5
9
330
0
100
AcDbDictionary
281
     1
  3
ACAD_COLOR
350
2E
  3
ACAD_GROUP
350
2A
  3
ACAD_LAYOUT
350
D
  3
ACAD_MATERIAL
350
2D
  3
ACAD_MLINESTYLE
350
2B
  3
ACAD_PLOTSETTINGS
350
2C
  3
ACAD_PLOTSTYLENAME
350
8
  3
ACDBHEADERROUNDTRIPXREC
350
241
  3
AcDbVariableDictionary
350
23C
  3
ASE_INDEX_DICTIONARY
350
1EF
  0
DICTIONARY
  5
13
330
12
100
AcDbDictionary
280
     1
281
     1
  3
ACAD_LAYERSTATES
360
14
  0
DICTIONARY
  5
3
330
2
100
AcDbDictionary
280
     1
281
     1
  3
ACAD_SORTENTS
360
4
  0
DICTIONARY
  5
2E
102
{ACAD_REACTORS
330
9
102
}
330
9
100
AcDbDictionary
281
     1
  0
DICTIONARY
  5
2A
102
{ACAD_REACTORS
330
9
102
}
330
9
100
AcDbDictionary
281
     1
  0
DICTIONARY
  5
D
102
{ACAD_REACTORS
330
9
102
}
330
9
100
AcDbDictionary
281
     1
  3
Model
350
C
  3
レイアウト1
350
11
  0
DICTIONARY
  5
2D
102
{ACAD_REACTORS
330
9
102
}
330
9
100
AcDbDictionary
281
     1
  0
DICTIONARY
  5
2B
102
{ACAD_REACTORS
330
9
102
}
330
9
100
AcDbDictionary
281
     1
  3
Standard
350
30
  0
DICTIONARY
  5
2C
102
{ACAD_REACTORS
330
9
102
}
330
9
100
AcDbDictionary
281
     1
  0
ACDBDICTIONARYWDFLT
  5
8
102
{ACAD_REACTORS
330
9
102
}
330
9
100
AcDbDictionary
281
     1
  3
Normal
350
7
100
AcDbDictionaryWithDefault
340
7
  0
DICTIONARY
  5
241
102
{ACAD_REACTORS
330
9
102
}
330
9
100
AcDbDictionary
281
     1
  3
COLORDICT
350
243
  3
MATERIALDICT
350
242
  0
DICTIONARY
  5
23C
102
{ACAD_REACTORS
330
9
102
}
330
9
100
AcDbDictionary
281
     1
  3
DIMASSOC
350
23E
  3
HIDETEXT
350
23D
  3
PROJECTNAME
350
23F
  0
DICTIONARY
  5
1EF
102
{ACAD_REACTORS
330
9
102
}
330
9
100
AcDbDictionary
281
     1
  3
ASEBlockHierarchyIndexRecord
350
1F1
1001
DCO15
1040
1627816427.972
  0
DICTIONARY
  5
14
102
{ACAD_REACTORS
330
13
102
}
330
13
100
AcDbDictionary
281
     1
  0
SORTENTSTABLE
  5
4
102
{ACAD_REACTORS
330
3
102
}
330
3
100
AcDbSortentsTable
330
2
  0
LAYOUT
  5
C
102
{ACAD_XDICTIONARY
360
244
102
}
102
{ACAD_REACTORS
330
D
102
}
330
D
100
AcDbPlotSettings
  1

  2
Ａ４－縦3FRIM01.pc3
  4
A4
  6

 40
5.873749732971191
 41
5.873747825622558
 42
5.873748779296875
 43
5.873748779296875
 44
209.9733276367187
 45
296.9259948730469
 46
5.429999999999999
 47
0.0
 48
0.0
 49
0.0
140
0.0
141
0.0
142
1.0
143
1.382515366965649
 70
 11956
 72
     1
 73
     0
 74
     1
  7
tmsacad.ctb
 75
     0
147
0.7233192656619828
148
0.0256332569354072
149
0.0240599051811614
100
AcDbLayout
  1
Model
 70
     1
 71
     0
 10
0.0
 20
0.0
 11
12.0
 21
9.0
 12
0.0
 22
0.0
 32
0.0
 14
0.0
 24
0.0
 34
0.0
 15
0.0
 25
0.0
 35
0.0
146
0.0
 13
0.0
 23
0.0
 33
0.0
 16
1.0
 26
0.0
 36
0.0
 17
0.0
 27
1.0
 37
0.0
 76
     0
330
2
  0
LAYOUT
  5
11
102
{ACAD_XDICTIONARY
360
246
102
}
102
{ACAD_REACTORS
330
D
102
}
330
D
100
AcDbPlotSettings
  1

  2
None
  4

  6

 40
0.0
 41
0.0
 42
0.0
 43
0.0
 44
0.0
 45
0.0
 46
0.0
 47
0.0
 48
0.0
 49
0.0
140
0.0
141
0.0
142
1.0
143
1.0
 70
   688
 72
     0
 73
     0
 74
     5
  7
tmsacad.ctb
 75
    16
147
1.0
148
0.0
149
0.0
100
AcDbLayout
  1
レイアウト1
 70
     1
 71
     1
 10
0.0
 20
0.0
 11
12.0
 21
9.0
 12
0.0
 22
0.0
 32
0.0
 14
0.0
 24
0.0
 34
0.0
 15
0.0
 25
0.0
 35
0.0
146
0.0
 13
0.0
 23
0.0
 33
0.0
 16
1.0
 26
0.0
 36
0.0
 17
0.0
 27
1.0
 37
0.0
 76
     0
330
E
  0
MLINESTYLE
  5
30
102
{ACAD_REACTORS
330
2B
102
}
330
2B
100
AcDbMlineStyle
  2
STANDARD
 70
     0
  3

 62
   256
 51
90.0
 52
90.0
 71
     2
 49
0.5
 62
   256
  6
BYLAYER
 49
-0.5
 62
   256
  6
BYLAYER
  0
ACDBPLACEHOLDER
  5
7
102
{ACAD_REACTORS
330
8
102
}
330
8
  0
XRECORD
  5
243
102
{ACAD_REACTORS
330
241
102
}
330
241
100
AcDbXrecord
280
     1
340
2E
  0
XRECORD
  5
242
102
{ACAD_REACTORS
330
241
102
}
330
241
100
AcDbXrecord
280
     1
340
2D
  0
DICTIONARYVAR
  5
23E
102
{ACAD_REACTORS
330
23C
102
}
330
23C
100
DictionaryVariables
280
     0
  1
1
  0
DICTIONARYVAR
  5
23D
102
{ACAD_REACTORS
330
23C
102
}
330
23C
100
DictionaryVariables
280
     0
  1
1
  0
DICTIONARYVAR
  5
23F
102
{ACAD_REACTORS
330
23C
102
}
330
23C
100
DictionaryVariables
280
     0
  1

  0
XRECORD
  5
1F1
102
{ACAD_REACTORS
330
1EF
102
}
330
1EF
100
AcDbXrecord
280
     1
330
196
330
197
330
1A4
330
1A5
330
1B3
330
1B4
330
1C0
330
1C1
330
20E
330
20F
330
21C
330
21D
330
228
330
229
330
234
330
235
  0
DICTIONARY
  5
244
330
C
100
AcDbDictionary
280
     1
281
     1
  3
ACAD_XREC_ROUNDTRIP
360
245
  0
DICTIONARY
  5
246
330
11
100
AcDbDictionary
280
     1
281
     1
  3
ACAD_XREC_ROUNDTRIP
360
247
  0
XRECORD
  5
245
102
{ACAD_REACTORS
330
244
102
}
330
244
100
AcDbXrecord
280
     1
102
SHADEPLOT
 70
     0
102
SHADEPLOTRESLEVEL
 70
     2
102
SHADEPLOTCUSTOMDPI
 70
   300
  0
XRECORD
  5
247
102
{ACAD_REACTORS
330
246
102
}
330
246
100
AcDbXrecord
280
     1
102
SHADEPLOT
 70
     0
102
SHADEPLOTRESLEVEL
 70
     2
102
SHADEPLOTCUSTOMDPI
 70
   300
  0
ENDSEC
  0
EOF
