  0
SECTION
  2
HEADER
  9
$ACADVER
  1
AC1015
  9
$ACADMAINTVER
 70
    20
  9
$DWGCODEPAGE
  3
ANSI_932
  9
$INSBASE
 10
129.499999944041
 20
372.5008351249344
 30
0.0
  9
$EXTMIN
 10
-67.27203279183243
 20
-59.98823485196135
 30
-0.0015258207003583
  9
$EXTMAX
 10
57.76153620071887
 20
53.03636210183185
 30
0.0000000349246037
  9
$LIMMIN
 10
0.0
 20
0.0
  9
$LIMMAX
 10
420.0
 20
297.0
  9
$ORTHOMODE
 70
     0
  9
$REGENMODE
 70
     0
  9
$FILLMODE
 70
     1
  9
$QTEXTMODE
 70
     0
  9
$MIRRTEXT
 70
     0
  9
$LTSCALE
 40
1.0
  9
$ATTMODE
 70
     1
  9
$TEXTSIZE
 40
2.5
  9
$TRACEWID
 40
1.0
  9
$TEXTSTYLE
  7
Standard
  9
$CLAYER
  8
SUNPO
  9
$CELTYPE
  6
ByLayer
  9
$CECOLOR
 62
   256
  9
$CELTSCALE
 40
1.0
  9
$DISPSILH
 70
     0
  9
$DIMSCALE
 40
1.0
  9
$DIMASZ
 40
2.0
  9
$DIMEXO
 40
2.0
  9
$DIMDLI
 40
8.0
  9
$DIMRND
 40
0.0
  9
$DIMDLE
 40
0.0
  9
$DIMEXE
 40
2.0
  9
$DIMTP
 40
0.0
  9
$DIMTM
 40
0.0
  9
$DIMTXT
 40
2.5
  9
$DIMCEN
 40
0.0
  9
$DIMTSZ
 40
0.0
  9
$DIMTOL
 70
     0
  9
$DIMLIM
 70
     0
  9
$DIMTIH
 70
     0
  9
$DIMTOH
 70
     0
  9
$DIMSE1
 70
     0
  9
$DIMSE2
 70
     0
  9
$DIMTAD
 70
     3
  9
$DIMZIN
 70
     0
  9
$DIMBLK
  1

  9
$DIMASO
 70
     1
  9
$DIMSHO
 70
     1
  9
$DIMPOST
  1

  9
$DIMAPOST
  1

  9
$DIMALT
 70
     0
  9
$DIMALTD
 70
     2
  9
$DIMALTF
 40
25.4
  9
$DIMLFAC
 40
1.0
  9
$DIMTOFL
 70
     1
  9
$DIMTVP
 40
0.0
  9
$DIMTIX
 70
     0
  9
$DIMSOXD
 70
     0
  9
$DIMSAH
 70
     1
  9
$DIMBLK1
  1
OPEN30
  9
$DIMBLK2
  1
OPEN30
  9
$DIMSTYLE
  2
STANDARD
  9
$DIMCLRD
 70
     0
  9
$DIMCLRE
 70
     0
  9
$DIMCLRT
 70
     0
  9
$DIMTFAC
 40
1.0
  9
$DIMGAP
 40
0.5
  9
$DIMJUST
 70
     0
  9
$DIMSD1
 70
     0
  9
$DIMSD2
 70
     0
  9
$DIMTOLJ
 70
     1
  9
$DIMTZIN
 70
     0
  9
$DIMALTZ
 70
     0
  9
$DIMALTTZ
 70
     0
  9
$DIMUPT
 70
     0
  9
$DIMDEC
 70
     4
  9
$DIMTDEC
 70
     4
  9
$DIMALTU
 70
     2
  9
$DIMALTTD
 70
     2
  9
$DIMTXSTY
  7
Standard
  9
$DIMAUNIT
 70
     0
  9
$DIMADEC
 70
     0
  9
$DIMALTRND
 40
0.0
  9
$DIMAZIN
 70
     0
  9
$DIMDSEP
 70
    46
  9
$DIMATFIT
 70
     3
  9
$DIMFRAC
 70
     0
  9
$DIMLDRBLK
  1
OPEN30
  9
$DIMLUNIT
 70
     2
  9
$DIMLWD
 70
    -2
  9
$DIMLWE
 70
    -2
  9
$DIMTMOVE
 70
     0
  9
$LUNITS
 70
     2
  9
$LUPREC
 70
     4
  9
$SKETCHINC
 40
1.0
  9
$FILLETRAD
 40
0.0
  9
$AUNITS
 70
     0
  9
$AUPREC
 70
     0
  9
$MENU
  1
.
  9
$ELEVATION
 40
0.0
  9
$PELEVATION
 40
0.0
  9
$THICKNESS
 40
0.0
  9
$LIMCHECK
 70
     0
  9
$CHAMFERA
 40
0.0
  9
$CHAMFERB
 40
0.0
  9
$CHAMFERC
 40
0.0
  9
$CHAMFERD
 40
0.0
  9
$SKPOLY
 70
     0
  9
$TDCREATE
 40
2454349.434269746
  9
$TDUCREATE
 40
2454349.059269746
  9
$TDUPDATE
 40
2454643.679220301
  9
$TDUUPDATE
 40
2454643.304220301
  9
$TDINDWG
 40
0.6795590856
  9
$TDUSRTIMER
 40
0.6795590856
  9
$USRTIMER
 70
     1
  9
$ANGBASE
 50
0.0
  9
$ANGDIR
 70
     0
  9
$PDMODE
 70
     0
  9
$PDSIZE
 40
0.0
  9
$PLINEWID
 40
0.0
  9
$SPLFRAME
 70
     0
  9
$SPLINETYPE
 70
     6
  9
$SPLINESEGS
 70
     8
  9
$HANDSEED
  5
40B
  9
$SURFTAB1
 70
     6
  9
$SURFTAB2
 70
     6
  9
$SURFTYPE
 70
     6
  9
$SURFU
 70
     6
  9
$SURFV
 70
     6
  9
$UCSBASE
  2

  9
$UCSNAME
  2

  9
$UCSORG
 10
0.0
 20
0.0
 30
0.0
  9
$UCSXDIR
 10
1.0
 20
0.0
 30
0.0
  9
$UCSYDIR
 10
0.0
 20
1.0
 30
0.0
  9
$UCSORTHOREF
  2

  9
$UCSORTHOVIEW
 70
     0
  9
$UCSORGTOP
 10
0.0
 20
0.0
 30
0.0
  9
$UCSORGBOTTOM
 10
0.0
 20
0.0
 30
0.0
  9
$UCSORGLEFT
 10
0.0
 20
0.0
 30
0.0
  9
$UCSORGRIGHT
 10
0.0
 20
0.0
 30
0.0
  9
$UCSORGFRONT
 10
0.0
 20
0.0
 30
0.0
  9
$UCSORGBACK
 10
0.0
 20
0.0
 30
0.0
  9
$PUCSBASE
  2

  9
$PUCSNAME
  2

  9
$PUCSORG
 10
0.0
 20
0.0
 30
0.0
  9
$PUCSXDIR
 10
1.0
 20
0.0
 30
0.0
  9
$PUCSYDIR
 10
0.0
 20
1.0
 30
0.0
  9
$PUCSORTHOREF
  2

  9
$PUCSORTHOVIEW
 70
     0
  9
$PUCSORGTOP
 10
0.0
 20
0.0
 30
0.0
  9
$PUCSORGBOTTOM
 10
0.0
 20
0.0
 30
0.0
  9
$PUCSORGLEFT
 10
0.0
 20
0.0
 30
0.0
  9
$PUCSORGRIGHT
 10
0.0
 20
0.0
 30
0.0
  9
$PUCSORGFRONT
 10
0.0
 20
0.0
 30
0.0
  9
$PUCSORGBACK
 10
0.0
 20
0.0
 30
0.0
  9
$USERI1
 70
     0
  9
$USERI2
 70
     0
  9
$USERI3
 70
     0
  9
$USERI4
 70
     0
  9
$USERI5
 70
     0
  9
$USERR1
 40
0.0
  9
$USERR2
 40
0.0
  9
$USERR3
 40
0.0
  9
$USERR4
 40
0.0
  9
$USERR5
 40
0.0
  9
$WORLDVIEW
 70
     1
  9
$SHADEDGE
 70
     3
  9
$SHADEDIF
 70
    70
  9
$TILEMODE
 70
     1
  9
$MAXACTVP
 70
    64
  9
$PINSBASE
 10
0.0
 20
0.0
 30
0.0
  9
$PLIMCHECK
 70
     0
  9
$PEXTMIN
 10
0.0
 20
0.0
 30
0.0
  9
$PEXTMAX
 10
0.0
 20
0.0
 30
0.0
  9
$PLIMMIN
 10
0.0
 20
0.0
  9
$PLIMMAX
 10
12.0
 20
9.0
  9
$UNITMODE
 70
     0
  9
$VISRETAIN
 70
     1
  9
$PLINEGEN
 70
     0
  9
$PSLTSCALE
 70
     1
  9
$TREEDEPTH
 70
  3020
  9
$CMLSTYLE
  2
Standard
  9
$CMLJUST
 70
     0
  9
$CMLSCALE
 40
20.0
  9
$PROXYGRAPHICS
 70
     1
  9
$MEASUREMENT
 70
     1
  9
$CELWEIGHT
370
    -1
  9
$ENDCAPS
280
     0
  9
$JOINSTYLE
280
     0
  9
$LWDISPLAY
290
     0
  9
$INSUNITS
 70
     4
  9
$HYPERLINKBASE
  1

  9
$STYLESHEET
  1

  9
$XEDIT
290
     1
  9
$CEPSNTYPE
380
     0
  9
$PSTYLEMODE
290
     1
  9
$FINGERPRINTGUID
  2
{FDEAD578-A652-11D2-9A35-0060089B3A3F}
  9
$VERSIONGUID
  2
{6BF32AC9-3477-4BDC-BA54-83565C61A290}
  9
$EXTNAMES
290
     1
  9
$PSVPSCALE
 40
0.0
  9
$OLESTARTUP
290
     0
  0
ENDSEC
  0
SECTION
  2
CLASSES
  0
CLASS
  1
ACDBDICTIONARYWDFLT
  2
AcDbDictionaryWithDefault
  3
ObjectDBX Classes
 90
        0
280
     0
281
     0
  0
CLASS
  1
ACDBPLACEHOLDER
  2
AcDbPlaceHolder
  3
ObjectDBX Classes
 90
        0
280
     0
281
     0
  0
CLASS
  1
LAYOUT
  2
AcDbLayout
  3
ObjectDBX Classes
 90
        0
280
     0
281
     0
  0
CLASS
  1
DICTIONARYVAR
  2
AcDbDictionaryVar
  3
ObjectDBX Classes
 90
        0
280
     0
281
     0
  0
CLASS
  1
SORTENTSTABLE
  2
AcDbSortentsTable
  3
ObjectDBX Classes
 90
        0
280
     0
281
     0
  0
CLASS
  1
DIMASSOC
  2
AcDbDimAssoc
  3
"AcDbDimAssoc|Product Desc:     AcDim ARX App For Dimension|Company:          Autodesk, Inc.|WEB Address:      www.autodesk.com"
 90
    32768
280
     0
281
     0
  0
ENDSEC
  0
SECTION
  2
TABLES
  0
TABLE
  2
VPORT
  5
1D
330
0
100
AcDbSymbolTable
 70
     3
  0
VPORT
  5
403
330
1D
100
AcDbSymbolTableRecord
100
AcDbViewportTableRecord
  2
*Active
 70
     0
 10
0.0
 20
0.0
 11
1.0
 21
1.0
 12
-4.755248295556778
 22
-3.475936375064748
 13
0.0
 23
0.0
 14
10.0
 24
10.0
 15
10.0
 25
10.0
 16
0.0
 26
0.0
 36
1.0
 17
0.0
 27
0.0
 37
0.0
 40
113.9180720285267
 41
1.439313984168865
 42
50.0
 43
0.0
 44
0.0
 50
0.0
 51
0.0
 71
     0
 72
 10000
 73
     1
 74
     2
 75
     0
 76
     0
 77
     0
 78
     0
281
     0
 65
     1
110
0.0
120
0.0
130
0.0
111
1.0
121
0.0
131
0.0
112
0.0
122
1.0
132
0.0
 79
     0
146
0.0
  0
ENDTAB
  0
TABLE
  2
LTYPE
  5
18
330
0
100
AcDbSymbolTable
 70
     2
  0
LTYPE
  5
19
330
18
100
AcDbSymbolTableRecord
100
AcDbLinetypeTableRecord
  2
ByBlock
 70
     0
  3

 72
    65
 73
     0
 40
0.0
  0
LTYPE
  5
1A
330
18
100
AcDbSymbolTableRecord
100
AcDbLinetypeTableRecord
  2
ByLayer
 70
     0
  3

 72
    65
 73
     0
 40
0.0
  0
LTYPE
  5
A
330
18
100
AcDbSymbolTableRecord
100
AcDbLinetypeTableRecord
  2
Continuous
 70
     0
  3
Solid line
 72
    65
 73
     0
 40
0.0
  0
LTYPE
  5
19E
330
18
100
AcDbSymbolTableRecord
100
AcDbLinetypeTableRecord
  2
HIDDEN2
 70
     0
  3
Hidden (.5x) _ _ _ _ _ _ _ _ _ _ _ _ _ _ _ _ _
 72
    65
 73
     2
 40
1.399999999999999
 49
0.7
 74
     0
 49
-0.7
 74
     0
  0
ENDTAB
  0
TABLE
  2
LAYER
  5
12
102
{ACAD_XDICTIONARY
360
13
102
}
330
0
100
AcDbSymbolTable
 70
     7
  0
LAYER
  5
6
330
12
100
AcDbSymbolTableRecord
100
AcDbLayerTableRecord
  2
0
 70
     0
 62
     7
  6
Continuous
370
    -3
390
7
  0
LAYER
  5
39A
330
12
100
AcDbSymbolTableRecord
100
AcDbLayerTableRecord
  2
WAKU
 70
     0
 62
     4
  6
Continuous
370
    -3
390
7
  0
LAYER
  5
32C
330
12
100
AcDbSymbolTableRecord
100
AcDbLayerTableRecord
  2
DEFPOINTS
 70
     0
 62
     7
  6
Continuous
290
     0
370
    -3
390
7
  0
LAYER
  5
2F
330
12
100
AcDbSymbolTableRecord
100
AcDbLayerTableRecord
  2
SUNPO
 70
     0
 62
     3
  6
Continuous
370
    -3
390
7
  0
LAYER
  5
37D
330
12
100
AcDbSymbolTableRecord
100
AcDbLayerTableRecord
  2
MOJI1
 70
     0
 62
     2
  6
Continuous
370
    -3
390
7
  0
LAYER
  5
32
330
12
100
AcDbSymbolTableRecord
100
AcDbLayerTableRecord
  2
GAIKEI
 70
     0
 62
     7
  6
Continuous
370
    -3
390
7
  0
LAYER
  5
37B
330
12
100
AcDbSymbolTableRecord
100
AcDbLayerTableRecord
  2
TOUROKU
 70
     0
 62
     1
  6
Continuous
370
    -3
390
7
  0
ENDTAB
  0
TABLE
  2
STYLE
  5
15
330
0
100
AcDbSymbolTable
 70
     1
  0
STYLE
  5
16
330
15
100
AcDbSymbolTableRecord
100
AcDbTextStyleTableRecord
  2
Standard
 70
     0
 40
0.0
 41
1.0
 50
0.0
 71
     0
 42
2.5
  3
MONOTXT.shx
  4
BIGFONT.shx
  0
ENDTAB
  0
TABLE
  2
VIEW
  5
1B
330
0
100
AcDbSymbolTable
 70
     0
  0
ENDTAB
  0
TABLE
  2
UCS
  5
1C
330
0
100
AcDbSymbolTable
 70
     0
  0
ENDTAB
  0
TABLE
  2
APPID
  5
1F
330
0
100
AcDbSymbolTable
 70
     2
  0
APPID
  5
20
330
1F
100
AcDbSymbolTableRecord
100
AcDbRegAppTableRecord
  2
ACAD
 70
     0
  0
APPID
  5
3C1
330
1F
100
AcDbSymbolTableRecord
100
AcDbRegAppTableRecord
  2
DCO15
 70
     0
  0
ENDTAB
  0
TABLE
  2
DIMSTYLE
  5
21
330
0
100
AcDbSymbolTable
 70
     1
100
AcDbDimStyleTable
 71
     1
340
22
  0
DIMSTYLE
105
22
102
{ACAD_REACTORS
330
322
330
330
330
37E
330
38B
102
}
330
21
100
AcDbSymbolTableRecord
100
AcDbDimStyleTableRecord
  2
STANDARD
 70
     0
 40
0.0
 41
2.0
 42
2.0
 43
8.0
 44
2.0
 73
     0
 74
     0
 77
     3
140
3.0
141
0.0
173
     1
279
     2
288
     1
340
16
341
23
343
23
344
23
  0
ENDTAB
  0
TABLE
  2
BLOCK_RECORD
  5
1
330
0
100
AcDbSymbolTable
 70
     9
  0
BLOCK_RECORD
  5
2
102
{ACAD_XDICTIONARY
360
3
102
}
330
1
100
AcDbSymbolTableRecord
100
AcDbBlockTableRecord
  2
*Model_Space
340
C
  0
BLOCK_RECORD
  5
E
330
1
100
AcDbSymbolTableRecord
100
AcDbBlockTableRecord
  2
*Paper_Space
340
11
  0
BLOCK_RECORD
  5
23
330
1
100
AcDbSymbolTableRecord
100
AcDbBlockTableRecord
  2
_OPEN30
340
0
102
{BLKREFS
331
185
331
187
331
384
331
385
331
391
331
392
331
336
331
337
331
328
331
329
331
3D3
331
3D4
331
3DF
331
3E0
331
3EB
331
3EC
331
3F7
331
3F8
102
}
  0
BLOCK_RECORD
  5
323
330
1
100
AcDbSymbolTableRecord
100
AcDbBlockTableRecord
  2
*D1
340
0
  0
BLOCK_RECORD
  5
331
330
1
100
AcDbSymbolTableRecord
100
AcDbBlockTableRecord
  2
*D2
340
0
  0
BLOCK_RECORD
  5
37F
330
1
100
AcDbSymbolTableRecord
100
AcDbBlockTableRecord
  2
*D3
340
0
  0
BLOCK_RECORD
  5
38C
330
1
100
AcDbSymbolTableRecord
100
AcDbBlockTableRecord
  2
*D4
340
0
  0
BLOCK_RECORD
  5
3CF
330
1
100
AcDbSymbolTableRecord
100
AcDbBlockTableRecord
  2
*D5
340
0
  0
BLOCK_RECORD
  5
3DB
330
1
100
AcDbSymbolTableRecord
100
AcDbBlockTableRecord
  2
*D6
340
0
  0
BLOCK_RECORD
  5
3E7
330
1
100
AcDbSymbolTableRecord
100
AcDbBlockTableRecord
  2
*D7
340
0
  0
BLOCK_RECORD
  5
3F3
330
1
100
AcDbSymbolTableRecord
100
AcDbBlockTableRecord
  2
*D8
340
0
  0
ENDTAB
  0
ENDSEC
  0
SECTION
  2
BLOCKS
  0
BLOCK
  5
5
330
2
100
AcDbEntity
  8
0
100
AcDbBlockBegin
  2
*Model_Space
 70
     0
 10
0.0
 20
0.0
 30
0.0
  3
*Model_Space
  1

  0
ENDBLK
  5
B
330
2
100
AcDbEntity
  8
0
100
AcDbBlockEnd
  0
BLOCK
  5
F
330
E
100
AcDbEntity
 67
     1
  8
0
100
AcDbBlockBegin
  2
*Paper_Space
 70
     0
 10
0.0
 20
0.0
 30
0.0
  3
*Paper_Space
  1

  0
ENDBLK
  5
10
330
E
100
AcDbEntity
 67
     1
  8
0
100
AcDbBlockEnd
  0
BLOCK
  5
24
330
23
100
AcDbEntity
  8
0
100
AcDbBlockBegin
  2
_OPEN30
 70
     0
 10
0.0
 20
0.0
 30
0.0
  3
_OPEN30
  1

  0
LINE
  5
25
330
23
100
AcDbEntity
  8
0
  6
ByBlock
 62
     0
100
AcDbLine
 10
-1.0
 20
0.26794919
 30
0.0
 11
0.0
 21
0.0
 31
0.0
  0
LINE
  5
26
330
23
100
AcDbEntity
  8
0
  6
ByBlock
 62
     0
100
AcDbLine
 10
0.0
 20
0.0
 30
0.0
 11
-1.0
 21
-0.26794919
 31
0.0
  0
LINE
  5
27
330
23
100
AcDbEntity
  8
0
  6
ByBlock
 62
     0
100
AcDbLine
 10
0.0
 20
0.0
 30
0.0
 11
-1.0
 21
0.0
 31
0.0
  0
ENDBLK
  5
28
330
23
100
AcDbEntity
  8
0
100
AcDbBlockEnd
  0
BLOCK
  5
324
330
323
100
AcDbEntity
  8
0
100
AcDbBlockBegin
  2
*D1
 70
     1
 10
0.0
 20
0.0
 30
0.0
  3
*D1
  1

  0
LINE
  5
325
330
323
100
AcDbEntity
  8
SUNPO
 62
     0
370
    -2
100
AcDbLine
 10
160.3759847990321
 20
322.2064471131142
 30
0.0
 11
152.3759847990321
 21
322.2064471131142
 31
0.0
  0
LINE
  5
326
330
323
100
AcDbEntity
  8
SUNPO
 62
     0
370
    -2
100
AcDbLine
 10
160.3759847990321
 20
339.4064471113943
 30
0.0
 11
152.3759847990321
 21
339.4064471113943
 31
0.0
  0
LINE
  5
327
330
323
100
AcDbEntity
  8
SUNPO
 62
     0
370
    -2
100
AcDbLine
 10
154.3759847990321
 20
324.2064471131142
 30
0.0
 11
154.3759847990321
 21
337.4064471113943
 31
0.0
  0
INSERT
  5
328
330
323
100
AcDbEntity
  8
SUNPO
 62
     0
370
    -2
100
AcDbBlockReference
  2
_OPEN30
 10
154.3759847990321
 20
322.2064471131142
 30
0.0
 41
2.0
 42
2.0
 43
2.0
 50
270.0
  0
INSERT
  5
329
330
323
100
AcDbEntity
  8
SUNPO
 62
     0
370
    -2
100
AcDbBlockReference
  2
_OPEN30
 10
154.3759847990321
 20
339.4064471113943
 30
0.0
 41
2.0
 42
2.0
 43
2.0
 50
90.0
  0
MTEXT
  5
32A
330
323
100
AcDbEntity
  8
SUNPO
 62
     0
100
AcDbMText
 10
152.6259847990321
 20
330.8064471122543
 30
0.0
 40
2.5
 41
0.0
 71
     5
 72
     1
  1
\A1;516
 11
0.0000000000000001
 21
1.0
 31
0.0
 73
     1
 44
1.0
1001
ACAD
1000
MTEXTBEGIN
1070
    73
1070
     1
1070
    44
1040
1.0
1070
    74
1070
     0
1000
MTEXTEND
  0
POINT
  5
32B
330
323
100
AcDbEntity
  8
DEFPOINTS
 62
     0
100
AcDbPoint
 10
162.3759847990321
 20
322.2064471131142
 30
0.0
  0
POINT
  5
32D
330
323
100
AcDbEntity
  8
DEFPOINTS
 62
     0
100
AcDbPoint
 10
162.3759847990321
 20
339.4064471113943
 30
0.0
  0
POINT
  5
32E
330
323
100
AcDbEntity
  8
DEFPOINTS
 62
     0
100
AcDbPoint
 10
154.3759847990321
 20
339.4064471113943
 30
0.0
  0
ENDBLK
  5
32F
330
323
100
AcDbEntity
  8
0
100
AcDbBlockEnd
  0
BLOCK
  5
332
330
331
100
AcDbEntity
  8
0
100
AcDbBlockBegin
  2
*D2
 70
     1
 10
0.0
 20
0.0
 30
0.0
  3
*D2
  1

  0
LINE
  5
333
330
331
100
AcDbEntity
  8
SUNPO
 62
     0
370
    -2
100
AcDbLine
 10
169.6394734732489
 20
316.7528718353028
 30
0.0
 11
169.6394734732489
 21
308.7528718353028
 31
0.0
  0
LINE
  5
334
330
331
100
AcDbEntity
  8
SUNPO
 62
     0
370
    -2
100
AcDbLine
 10
195.4728068039988
 20
316.7528718353028
 30
0.0
 11
195.4728068039988
 21
308.7528718353028
 31
0.0
  0
LINE
  5
335
330
331
100
AcDbEntity
  8
SUNPO
 62
     0
370
    -2
100
AcDbLine
 10
171.6394734732489
 20
310.7528718353028
 30
0.0
 11
193.4728068039989
 21
310.7528718353028
 31
0.0
  0
INSERT
  5
336
330
331
100
AcDbEntity
  8
SUNPO
 62
     0
370
    -2
100
AcDbBlockReference
  2
_OPEN30
 10
169.6394734732489
 20
310.7528718353028
 30
0.0
 41
2.0
 42
2.0
 43
2.0
 50
180.0
  0
INSERT
  5
337
330
331
100
AcDbEntity
  8
SUNPO
 62
     0
370
    -2
100
AcDbBlockReference
  2
_OPEN30
 10
195.4728068039988
 20
310.7528718353028
 30
0.0
 41
2.0
 42
2.0
 43
2.0
  0
MTEXT
  5
338
330
331
100
AcDbEntity
  8
SUNPO
 62
     0
100
AcDbMText
 10
182.5561401386239
 20
312.5028718353028
 30
0.0
 40
2.5
 41
0.0
 71
     5
 72
     1
  1
\A1;775
 73
     1
 44
1.0
1001
ACAD
1000
MTEXTBEGIN
1070
    73
1070
     1
1070
    44
1040
1.0
1070
    74
1070
     0
1000
MTEXTEND
  0
POINT
  5
339
330
331
100
AcDbEntity
  8
DEFPOINTS
 62
     0
100
AcDbPoint
 10
169.6394734732489
 20
318.7528718353028
 30
0.0
  0
POINT
  5
33A
330
331
100
AcDbEntity
  8
DEFPOINTS
 62
     0
100
AcDbPoint
 10
195.4728068039988
 20
318.7528718353028
 30
0.0
  0
POINT
  5
33B
330
331
100
AcDbEntity
  8
DEFPOINTS
 62
     0
100
AcDbPoint
 10
195.4728068039988
 20
310.7528718353028
 30
0.0
  0
ENDBLK
  5
33C
330
331
100
AcDbEntity
  8
0
100
AcDbBlockEnd
  0
BLOCK
  5
380
330
37F
100
AcDbEntity
  8
0
100
AcDbBlockBegin
  2
*D3
 70
     1
 10
0.0
 20
0.0
 30
0.0
  3
*D3
  1

  0
LINE
  5
381
330
37F
100
AcDbEntity
  8
SUNPO
 62
     0
370
    -2
100
AcDbLine
 10
162.3894745764921
 20
344.8840758576473
 30
0.0
 11
162.3894745764921
 21
352.8840758576473
 31
0.0
  0
LINE
  5
382
330
37F
100
AcDbEntity
  8
SUNPO
 62
     0
370
    -2
100
AcDbLine
 10
202.7228057007556
 20
344.8840758576473
 30
0.0
 11
202.7228057007556
 21
352.8840758576473
 31
0.0
  0
LINE
  5
383
330
37F
100
AcDbEntity
  8
SUNPO
 62
     0
370
    -2
100
AcDbLine
 10
164.3894745764921
 20
350.8840758576473
 30
0.0
 11
200.7228057007556
 21
350.8840758576473
 31
0.0
  0
INSERT
  5
384
330
37F
100
AcDbEntity
  8
SUNPO
 62
     0
370
    -2
100
AcDbBlockReference
  2
_OPEN30
 10
162.3894745764921
 20
350.8840758576473
 30
0.0
 41
2.0
 42
2.0
 43
2.0
 50
180.0
  0
INSERT
  5
385
330
37F
100
AcDbEntity
  8
SUNPO
 62
     0
370
    -2
100
AcDbBlockReference
  2
_OPEN30
 10
202.7228057007556
 20
350.8840758576473
 30
0.0
 41
2.0
 42
2.0
 43
2.0
  0
MTEXT
  5
386
330
37F
100
AcDbEntity
  8
SUNPO
 62
     0
100
AcDbMText
 10
182.5561401386239
 20
352.6340758576473
 30
0.0
 40
2.5
 41
0.0
 71
     5
 72
     1
  1
\A1;1210
 73
     1
 44
1.0
1001
ACAD
1000
MTEXTBEGIN
1070
    73
1070
     1
1070
    44
1040
1.0
1070
    74
1070
     0
1000
MTEXTEND
  0
POINT
  5
387
330
37F
100
AcDbEntity
  8
DEFPOINTS
 62
     0
100
AcDbPoint
 10
162.3894745764921
 20
342.8840758576473
 30
0.0
  0
POINT
  5
388
330
37F
100
AcDbEntity
  8
DEFPOINTS
 62
     0
100
AcDbPoint
 10
202.7228057007556
 20
342.8840758576473
 30
0.0
  0
POINT
  5
389
330
37F
100
AcDbEntity
  8
DEFPOINTS
 62
     0
100
AcDbPoint
 10
202.7228057007556
 20
350.8840758576473
 30
0.0
  0
ENDBLK
  5
38A
330
37F
100
AcDbEntity
  8
0
100
AcDbBlockEnd
  0
BLOCK
  5
38D
330
38C
100
AcDbEntity
  8
0
100
AcDbBlockBegin
  2
*D4
 70
     1
 10
0.0
 20
0.0
 30
0.0
  3
*D4
  1

  0
LINE
  5
38E
330
38C
100
AcDbEntity
  8
SUNPO
 62
     0
370
    -2
100
AcDbLine
 10
204.7720907223884
 20
318.7397843003733
 30
0.0
 11
212.7720907223883
 21
318.7397843003733
 31
0.0
  0
LINE
  5
38F
330
38C
100
AcDbEntity
  8
SUNPO
 62
     0
370
    -2
100
AcDbLine
 10
204.7720907223884
 20
342.8731096463327
 30
0.0
 11
212.7720907223884
 21
342.8731096463327
 31
0.0
  0
LINE
  5
390
330
38C
100
AcDbEntity
  8
SUNPO
 62
     0
370
    -2
100
AcDbLine
 10
210.7720907223884
 20
320.7397843003733
 30
0.0
 11
210.7720907223884
 21
340.8731096463327
 31
0.0
  0
INSERT
  5
391
330
38C
100
AcDbEntity
  8
SUNPO
 62
     0
370
    -2
100
AcDbBlockReference
  2
_OPEN30
 10
210.7720907223883
 20
318.7397843003733
 30
0.0
 41
2.0
 42
2.0
 43
2.0
 50
270.0
  0
INSERT
  5
392
330
38C
100
AcDbEntity
  8
SUNPO
 62
     0
370
    -2
100
AcDbBlockReference
  2
_OPEN30
 10
210.7720907223884
 20
342.8731096463327
 30
0.0
 41
2.0
 42
2.0
 43
2.0
 50
90.0
  0
MTEXT
  5
393
330
38C
100
AcDbEntity
  8
SUNPO
 62
     0
100
AcDbMText
 10
209.0220907223883
 20
330.8064469733531
 30
0.0
 40
2.5
 41
0.0
 71
     5
 72
     1
  1
\A1;724
 11
0.0000000000000001
 21
1.0
 31
0.0
 73
     1
 44
1.0
1001
ACAD
1000
MTEXTBEGIN
1070
    73
1070
     1
1070
    44
1040
1.0
1070
    74
1070
     0
1000
MTEXTEND
  0
POINT
  5
394
330
38C
100
AcDbEntity
  8
DEFPOINTS
 62
     0
100
AcDbPoint
 10
202.7720907223883
 20
318.7397843003733
 30
0.0
  0
POINT
  5
395
330
38C
100
AcDbEntity
  8
DEFPOINTS
 62
     0
100
AcDbPoint
 10
202.7720907223883
 20
342.8731096463327
 30
0.0
  0
POINT
  5
396
330
38C
100
AcDbEntity
  8
DEFPOINTS
 62
     0
100
AcDbPoint
 10
210.7720907223884
 20
342.8731096463327
 30
0.0
  0
ENDBLK
  5
397
330
38C
100
AcDbEntity
  8
0
100
AcDbBlockEnd
  0
BLOCK
  5
3D9
330
3CF
100
AcDbEntity
  8
0
100
AcDbBlockBegin
  2
*D5
 70
     1
 10
0.0
 20
0.0
 30
0.0
  3
*D5
  1

  0
LINE
  5
3D0
330
3CF
100
AcDbEntity
  8
SUNPO
 62
     0
370
    -2
100
AcDbLine
 10
6.012229947657914
 20
1.271564702270438
 30
0.0
 11
14.01222994765791
 21
1.271564702270435
 31
0.0
  0
LINE
  5
3D1
330
3CF
100
AcDbEntity
  8
SUNPO
 62
     0
370
    -2
100
AcDbLine
 10
6.012229947657914
 20
25.40489004822973
 30
0.0
 11
14.01222994765791
 21
25.40489004822973
 31
0.0
  0
LINE
  5
3D2
330
3CF
100
AcDbEntity
  8
SUNPO
 62
     0
370
    -2
100
AcDbLine
 10
12.01222994765791
 20
3.271564702270436
 30
0.0
 11
12.01222994765791
 21
23.40489004822973
 31
0.0
  0
INSERT
  5
3D3
330
3CF
100
AcDbEntity
  8
SUNPO
 62
     0
370
    -2
100
AcDbBlockReference
  2
_OPEN30
 10
12.01222994765791
 20
1.271564702270436
 30
0.0
 41
2.0
 42
2.0
 43
2.0
 50
270.0
  0
INSERT
  5
3D4
330
3CF
100
AcDbEntity
  8
SUNPO
 62
     0
370
    -2
100
AcDbBlockReference
  2
_OPEN30
 10
12.01222994765791
 20
25.40489004822973
 30
0.0
 41
2.0
 42
2.0
 43
2.0
 50
90.0
  0
MTEXT
  5
3D5
330
3CF
100
AcDbEntity
  8
SUNPO
 62
     0
100
AcDbMText
 10
10.26222994765791
 20
13.33822737525008
 30
0.0
 40
2.5
 41
0.0
 71
     5
 72
     1
  1
\A1;724
 11
0.0000000000000001
 21
1.0
 31
0.0
 73
     1
 44
1.0
1001
ACAD
1000
MTEXTBEGIN
1070
    73
1070
     1
1070
    44
1040
1.0
1070
    74
1070
     0
1000
MTEXTEND
  0
POINT
  5
3D6
330
3CF
100
AcDbEntity
  8
DEFPOINTS
 62
     0
100
AcDbPoint
 10
4.012229947657914
 20
1.271564702270438
 30
0.0
  0
POINT
  5
3D7
330
3CF
100
AcDbEntity
  8
DEFPOINTS
 62
     0
100
AcDbPoint
 10
4.012229947657914
 20
25.40489004822973
 30
0.0
  0
POINT
  5
3D8
330
3CF
100
AcDbEntity
  8
DEFPOINTS
 62
     0
100
AcDbPoint
 10
12.01222994765791
 20
25.40489004822973
 30
0.0
  0
ENDBLK
  5
3DA
330
3CF
100
AcDbEntity
  8
0
100
AcDbBlockEnd
  0
BLOCK
  5
3E5
330
3DB
100
AcDbEntity
  8
0
100
AcDbBlockBegin
  2
*D6
 70
     1
 10
0.0
 20
0.0
 30
0.0
  3
*D6
  1

  0
LINE
  5
3DC
330
3DB
100
AcDbEntity
  8
SUNPO
 62
     0
370
    -2
100
AcDbLine
 10
-36.3703861982383
 20
27.4158562595444
 30
0.0
 11
-36.3703861982383
 21
35.4158562595444
 31
0.0
  0
LINE
  5
3DD
330
3DB
100
AcDbEntity
  8
SUNPO
 62
     0
370
    -2
100
AcDbLine
 10
3.962944926025215
 20
27.4158562595444
 30
0.0
 11
3.962944926025216
 21
35.4158562595444
 31
0.0
  0
LINE
  5
3DE
330
3DB
100
AcDbEntity
  8
SUNPO
 62
     0
370
    -2
100
AcDbLine
 10
-34.37038619823829
 20
33.4158562595444
 30
0.0
 11
1.962944926025216
 21
33.4158562595444
 31
0.0
  0
INSERT
  5
3DF
330
3DB
100
AcDbEntity
  8
SUNPO
 62
     0
370
    -2
100
AcDbBlockReference
  2
_OPEN30
 10
-36.3703861982383
 20
33.4158562595444
 30
0.0
 41
2.0
 42
2.0
 43
2.0
 50
180.0
  0
INSERT
  5
3E0
330
3DB
100
AcDbEntity
  8
SUNPO
 62
     0
370
    -2
100
AcDbBlockReference
  2
_OPEN30
 10
3.962944926025216
 20
33.4158562595444
 30
0.0
 41
2.0
 42
2.0
 43
2.0
  0
MTEXT
  5
3E1
330
3DB
100
AcDbEntity
  8
SUNPO
 62
     0
100
AcDbMText
 10
-16.20372063610654
 20
35.1658562595444
 30
0.0
 40
2.5
 41
0.0
 71
     5
 72
     1
  1
\A1;1210
 73
     1
 44
1.0
1001
ACAD
1000
MTEXTBEGIN
1070
    73
1070
     1
1070
    44
1040
1.0
1070
    74
1070
     0
1000
MTEXTEND
  0
POINT
  5
3E2
330
3DB
100
AcDbEntity
  8
DEFPOINTS
 62
     0
100
AcDbPoint
 10
-36.3703861982383
 20
25.4158562595444
 30
0.0
  0
POINT
  5
3E3
330
3DB
100
AcDbEntity
  8
DEFPOINTS
 62
     0
100
AcDbPoint
 10
3.962944926025215
 20
25.4158562595444
 30
0.0
  0
POINT
  5
3E4
330
3DB
100
AcDbEntity
  8
DEFPOINTS
 62
     0
100
AcDbPoint
 10
3.962944926025216
 20
33.4158562595444
 30
0.0
  0
ENDBLK
  5
3E6
330
3DB
100
AcDbEntity
  8
0
100
AcDbBlockEnd
  0
BLOCK
  5
3F1
330
3E7
100
AcDbEntity
  8
0
100
AcDbBlockBegin
  2
*D7
 70
     1
 10
0.0
 20
0.0
 30
0.0
  3
*D7
  1

  0
LINE
  5
3E8
330
3E7
100
AcDbEntity
  8
SUNPO
 62
     0
370
    -2
100
AcDbLine
 10
-29.12038730148152
 20
-0.7153477628000929
 30
0.0
 11
-29.12038730148152
 21
-8.715347762800092
 31
0.0
  0
LINE
  5
3E9
330
3E7
100
AcDbEntity
  8
SUNPO
 62
     0
370
    -2
100
AcDbLine
 10
-3.287053970731562
 20
-0.7153477628000929
 30
0.0
 11
-3.287053970731563
 21
-8.715347762800092
 31
0.0
  0
LINE
  5
3EA
330
3E7
100
AcDbEntity
  8
SUNPO
 62
     0
370
    -2
100
AcDbLine
 10
-27.12038730148151
 20
-6.715347762800092
 30
0.0
 11
-5.287053970731562
 21
-6.715347762800092
 31
0.0
  0
INSERT
  5
3EB
330
3E7
100
AcDbEntity
  8
SUNPO
 62
     0
370
    -2
100
AcDbBlockReference
  2
_OPEN30
 10
-29.12038730148152
 20
-6.715347762800092
 30
0.0
 41
2.0
 42
2.0
 43
2.0
 50
180.0
  0
INSERT
  5
3EC
330
3E7
100
AcDbEntity
  8
SUNPO
 62
     0
370
    -2
100
AcDbBlockReference
  2
_OPEN30
 10
-3.287053970731563
 20
-6.715347762800092
 30
0.0
 41
2.0
 42
2.0
 43
2.0
  0
MTEXT
  5
3ED
330
3E7
100
AcDbEntity
  8
SUNPO
 62
     0
100
AcDbMText
 10
-16.20372063610654
 20
-4.965347762800092
 30
0.0
 40
2.5
 41
0.0
 71
     5
 72
     1
  1
\A1;775
 73
     1
 44
1.0
1001
ACAD
1000
MTEXTBEGIN
1070
    73
1070
     1
1070
    44
1040
1.0
1070
    74
1070
     0
1000
MTEXTEND
  0
POINT
  5
3EE
330
3E7
100
AcDbEntity
  8
DEFPOINTS
 62
     0
100
AcDbPoint
 10
-29.12038730148152
 20
1.284652237199907
 30
0.0
  0
POINT
  5
3EF
330
3E7
100
AcDbEntity
  8
DEFPOINTS
 62
     0
100
AcDbPoint
 10
-3.287053970731562
 20
1.284652237199907
 30
0.0
  0
POINT
  5
3F0
330
3E7
100
AcDbEntity
  8
DEFPOINTS
 62
     0
100
AcDbPoint
 10
-3.287053970731563
 20
-6.715347762800092
 30
0.0
  0
ENDBLK
  5
3F2
330
3E7
100
AcDbEntity
  8
0
100
AcDbBlockEnd
  0
BLOCK
  5
3FD
330
3F3
100
AcDbEntity
  8
0
100
AcDbBlockBegin
  2
*D8
 70
     1
 10
0.0
 20
0.0
 30
0.0
  3
*D8
  1

  0
LINE
  5
3F4
330
3F3
100
AcDbEntity
  8
SUNPO
 62
     0
370
    -2
100
AcDbLine
 10
-38.38387597569829
 20
4.738227515011318
 30
0.0
 11
-46.38387597569829
 21
4.73822751501132
 31
0.0
  0
LINE
  5
3F5
330
3F3
100
AcDbEntity
  8
SUNPO
 62
     0
370
    -2
100
AcDbLine
 10
-38.38387597569829
 20
21.9382275132914
 30
0.0
 11
-46.38387597569828
 21
21.9382275132914
 31
0.0
  0
LINE
  5
3F6
330
3F3
100
AcDbEntity
  8
SUNPO
 62
     0
370
    -2
100
AcDbLine
 10
-44.38387597569829
 20
6.73822751501132
 30
0.0
 11
-44.38387597569828
 21
19.9382275132914
 31
0.0
  0
INSERT
  5
3F7
330
3F3
100
AcDbEntity
  8
SUNPO
 62
     0
370
    -2
100
AcDbBlockReference
  2
_OPEN30
 10
-44.38387597569829
 20
4.73822751501132
 30
0.0
 41
2.0
 42
2.0
 43
2.0
 50
270.0
  0
INSERT
  5
3F8
330
3F3
100
AcDbEntity
  8
SUNPO
 62
     0
370
    -2
100
AcDbBlockReference
  2
_OPEN30
 10
-44.38387597569828
 20
21.9382275132914
 30
0.0
 41
2.0
 42
2.0
 43
2.0
 50
90.0
  0
MTEXT
  5
3F9
330
3F3
100
AcDbEntity
  8
SUNPO
 62
     0
100
AcDbMText
 10
-46.13387597569829
 20
13.33822751415135
 30
0.0
 40
2.5
 41
0.0
 71
     5
 72
     1
  1
\A1;516
 11
0.0000000000000001
 21
1.0
 31
0.0
 73
     1
 44
1.0
1001
ACAD
1000
MTEXTBEGIN
1070
    73
1070
     1
1070
    44
1040
1.0
1070
    74
1070
     0
1000
MTEXTEND
  0
POINT
  5
3FA
330
3F3
100
AcDbEntity
  8
DEFPOINTS
 62
     0
100
AcDbPoint
 10
-36.38387597569829
 20
4.738227515011317
 30
0.0
  0
POINT
  5
3FB
330
3F3
100
AcDbEntity
  8
DEFPOINTS
 62
     0
100
AcDbPoint
 10
-36.38387597569829
 20
21.9382275132914
 30
0.0
  0
POINT
  5
3FC
330
3F3
100
AcDbEntity
  8
DEFPOINTS
 62
     0
100
AcDbPoint
 10
-44.38387597569828
 20
21.9382275132914
 30
0.0
  0
ENDBLK
  5
3FE
330
3F3
100
AcDbEntity
  8
0
100
AcDbBlockEnd
  0
ENDSEC
  0
SECTION
  2
ENTITIES
  0
ELLIPSE
  5
31
330
2
100
AcDbEntity
  8
GAIKEI
  6
Continuous
 62
     1
100
AcDbEllipse
 10
-36.31574248795562
 20
25.30531087906536
 30
0.0
 11
-0.0052978427251001
 21
0.2879170138793283
 31
0.0
210
0.0
220
0.0
230
1.0
 40
0.0404429999982056
 41
4.285401047309302
 42
4.371811220306485
  0
ELLIPSE
  5
33
330
2
100
AcDbEntity
  8
GAIKEI
  6
Continuous
 62
     1
100
AcDbEllipse
 10
-36.31574248795562
 20
1.38114503774932
 30
0.0
 11
0.0052978427251001
 21
0.287917013879329
 31
0.0
210
0.0
220
0.0
230
1.0
 40
0.0404429999982055
 41
-1.230218566716693
 42
-1.143808393719511
  0
ELLIPSE
  5
34
330
2
100
AcDbEntity
  8
GAIKEI
  6
Continuous
 62
     1
100
AcDbEllipse
 10
-36.26580658481822
 20
25.35524678220276
 30
0.0
 11
-0.2879170138797297
 21
0.0052978427250935
 31
0.0
210
0.0
220
0.0
230
1.0
 40
0.0404429999981596
 41
1.911374086872534
 42
1.997784259869754
  0
ELLIPSE
  5
35
330
2
100
AcDbEntity
  8
GAIKEI
  6
Continuous
 62
     1
100
AcDbEllipse
 10
-36.26580658481822
 20
1.331209134611924
 30
0.0
 11
0.2879170138799391
 21
0.0052978427250901
 31
0.0
210
0.0
220
0.0
230
1.0
 40
0.0404429999981356
 41
1.143808393720369
 42
1.23021856671755
  0
ELLIPSE
  5
36
330
2
100
AcDbEntity
  8
GAIKEI
  6
Continuous
 62
     1
100
AcDbEllipse
 10
3.90830121574254
 20
1.38114503774932
 30
0.0
 11
-0.0052978427254085
 21
0.2879170138543368
 31
0.0
210
0.0
220
0.0
230
1.0
 40
0.0404430000012197
 41
1.14380839367993
 42
1.230218566685839
  0
ELLIPSE
  5
37
330
2
100
AcDbEntity
  8
GAIKEI
  6
Continuous
 62
     1
100
AcDbEllipse
 10
3.90830121574254
 20
25.30531087906536
 30
0.0
 11
0.0052978427250493
 21
0.2879170138793219
 31
0.0
210
0.0
220
0.0
230
1.0
 40
0.0404429999982778
 41
1.911374086873103
 42
1.997784259870286
  0
ELLIPSE
  5
38
330
2
100
AcDbEntity
  8
GAIKEI
  6
Continuous
 62
     1
100
AcDbEllipse
 10
3.858365312605201
 20
25.35524678220276
 30
0.0
 11
0.2879170138798924
 21
0.005297842725091
 31
0.0
210
0.0
220
0.0
230
1.0
 40
0.0404429999981408
 41
4.285401047310096
 42
4.371811220307267
  0
ELLIPSE
  5
39
330
2
100
AcDbEntity
  8
GAIKEI
  6
Continuous
 62
     1
100
AcDbEllipse
 10
3.858365312605201
 20
1.331209134611924
 30
0.0
 11
-0.2879170138799422
 21
0.0052978427250903
 31
0.0
210
0.0
220
0.0
230
1.0
 40
0.0404429999981349
 41
-1.230218566717536
 42
-1.143808393720374
  0
ELLIPSE
  5
3A
330
2
100
AcDbEntity
  8
GAIKEI
  6
Continuous
 62
     1
100
AcDbEllipse
 10
-34.59217016009154
 20
23.65667667561865
 30
0.0
 11
-0.0427537848529118
 21
0.0546568828203793
 31
0.0
210
0.0
220
0.0
230
1.0
 40
0.960211999995565
 41
-0.6513938851084821
 42
-0.3742724761095297
  0
ELLIPSE
  5
3B
330
2
100
AcDbEntity
  8
GAIKEI
  6
Continuous
 62
     1
100
AcDbEllipse
 10
2.184728887878463
 20
23.65667667561865
 30
0.0
 11
0.0427537848527262
 21
0.0546568828205145
 31
0.0
210
0.0
220
0.0
230
1.0
 40
0.9602119999955242
 41
0.3742724761062375
 42
0.6513938851051569
  0
ELLIPSE
  5
3C
330
2
100
AcDbEntity
  8
GAIKEI
  6
Continuous
 62
     1
100
AcDbEllipse
 10
-34.59217016009154
 20
3.029779241196024
 30
0.0
 11
0.0427537848582486
 21
0.0546568828163674
 31
0.0
210
0.0
220
0.0
230
1.0
 40
0.9602120000005859
 41
3.515865129796059
 42
3.792986538793065
  0
ELLIPSE
  5
3D
330
2
100
AcDbEntity
  8
GAIKEI
  6
Continuous
 62
     1
100
AcDbEllipse
 10
2.184728887878463
 20
3.029779241196024
 30
0.0
 11
-0.042753784866503
 21
0.0546568828102033
 31
0.0
210
0.0
220
0.0
230
0.9999999999999996
 40
0.9602120000078178
 41
2.490198768239826
 42
2.767320177232909
  0
ELLIPSE
  5
3E
330
2
100
AcDbEntity
  8
GAIKEI
  6
Continuous
 62
     1
100
AcDbEllipse
 10
-34.59216285944291
 20
23.65666937497008
 30
0.0
 11
-0.05471957312403
 21
0.042691791412705
 31
0.0
210
0.0
220
0.0
230
1.0
 40
0.9600420000005412
 41
0.3752614365549947
 42
0.6500607537665788
  0
ELLIPSE
  5
3F
330
2
100
AcDbEntity
  8
GAIKEI
  6
Continuous
 62
     1
100
AcDbEllipse
 10
-34.59216285944291
 20
3.0297865418446
 30
0.0
 11
0.054719573126713
 21
0.0426917914091056
 31
0.0
210
0.0
220
0.0
230
1.0
 40
0.9600419999976159
 41
2.491531899886615
 42
2.766331217099247
  0
ELLIPSE
  5
40
330
2
100
AcDbEntity
  8
GAIKEI
  6
Continuous
 62
     1
100
AcDbEllipse
 10
2.184721587229887
 20
23.65666937497008
 30
0.0
 11
0.0547195731240741
 21
0.0426917914126376
 31
0.0
210
0.0
220
0.0
230
1.0
 40
0.9600420000007662
 41
-0.6500607537652972
 42
-0.3752614365537126
  0
ELLIPSE
  5
41
330
2
100
AcDbEntity
  8
GAIKEI
  6
Continuous
 62
     1
100
AcDbEllipse
 10
2.184721587229887
 20
3.0297865418446
 30
0.0
 11
-0.0547195731247495
 21
0.0426917914117292
 31
0.0
210
0.0
220
0.0
230
1.0
 40
0.9600419999999962
 41
3.516854090128136
 42
3.791653407339537
  0
ELLIPSE
  5
42
330
2
100
AcDbEntity
  8
GAIKEI
  6
Continuous
 62
     1
100
AcDbEllipse
 10
2.184728887878463
 20
3.031605203420554
 30
0.0
 11
-0.0607808270033003
 21
0.0822184915853297
 31
0.0
210
0.0
220
0.0
230
1.0
 40
0.9776259999984945
 41
2.515781018572056
 42
2.792902427569963
  0
ELLIPSE
  5
43
330
2
100
AcDbEntity
  8
GAIKEI
  6
Continuous
 62
     1
100
AcDbEllipse
 10
-34.59217016009154
 20
3.031605203420554
 30
0.0
 11
0.0607808269967871
 21
0.0822184915900438
 31
0.0
210
0.0
220
0.0
230
1.0
 40
0.977625999995409
 41
3.490282879530687
 42
3.767404288529979
  0
ELLIPSE
  5
44
330
2
100
AcDbEntity
  8
GAIKEI
  6
Continuous
 62
     1
100
AcDbEllipse
 10
-34.59217016009154
 20
23.65485071339418
 30
0.0
 11
-0.0607808270158121
 21
0.082218491576272
 31
0.0
210
0.0
220
0.0
230
1.0
 40
0.9776260000034472
 41
-0.625811635167389
 42
-0.3486902261722637
  0
ELLIPSE
  5
45
330
2
100
AcDbEntity
  8
GAIKEI
  6
Continuous
 62
     1
100
AcDbEllipse
 10
2.184728887878463
 20
23.65485071339418
 30
0.0
 11
0.0607808270141988
 21
0.0822184915774339
 31
0.0
210
0.0
220
0.0
230
1.0
 40
0.9776260000029461
 41
0.3486902261527096
 42
0.6258116351479744
  0
ELLIPSE
  5
46
330
2
100
AcDbEntity
  8
GAIKEI
  6
Continuous
 62
     1
100
AcDbEllipse
 10
-34.59031029485493
 20
3.0297865418446
 30
0.0
 11
0.0823124171870749
 21
0.0606728015078452
 31
0.0
210
0.0
220
0.0
230
1.0
 40
0.9775040000002562
 41
2.517225752813203
 42
2.792025070024934
  0
ELLIPSE
  5
47
330
2
100
AcDbEntity
  8
GAIKEI
  6
Continuous
 62
     1
100
AcDbEllipse
 10
-34.59031029485493
 20
23.65666937497008
 30
0.0
 11
-0.0823124171911972
 21
0.0606728015020962
 31
0.0
210
0.0
220
0.0
230
1.0
 40
0.9775039999983139
 41
0.3495675834948664
 42
0.6243669007078401
  0
ELLIPSE
  5
48
330
2
100
AcDbEntity
  8
GAIKEI
  6
Continuous
 62
     1
100
AcDbEllipse
 10
2.182869022641909
 20
23.65666937497008
 30
0.0
 11
0.0823124171885619
 21
0.0606728015057627
 31
0.0
210
0.0
220
0.0
230
1.0
 40
0.9775039999996579
 41
-0.6243669007516715
 42
-0.349567583539371
  0
ELLIPSE
  5
49
330
2
100
AcDbEntity
  8
GAIKEI
  6
Continuous
 62
     1
100
AcDbEllipse
 10
2.182869022641909
 20
3.0297865418446
 30
0.0
 11
-0.0823124171856117
 21
0.0606728015098772
 31
0.0
210
0.0
220
0.0
230
1.0
 40
0.9775040000007887
 41
3.491160237179388
 42
3.765959554391168
  0
ELLIPSE
  5
4A
330
2
100
AcDbEntity
  8
GAIKEI
  6
Continuous
 62
     1
100
AcDbEllipse
 10
-36.26580658481822
 20
25.30531087906536
 30
0.0
 11
0.3230407423546598
 21
0.0305357091463026
 31
0.0
210
0.0
220
0.0
230
1.0
 40
0.0083089999813824
 41
1.192616585226102
 42
1.279026757979404
  0
ELLIPSE
  5
4B
330
2
100
AcDbEntity
  8
GAIKEI
  6
Continuous
 62
     1
100
AcDbEllipse
 10
-36.26580658481822
 20
25.30531087906536
 30
0.0
 11
0.0305357090498701
 21
0.3230407412646187
 31
0.0
210
0.0
220
0.0
230
1.0
 40
0.0083090000057821
 41
1.862565896623444
 42
1.948976069703653
  0
ELLIPSE
  5
4C
330
2
100
AcDbEntity
  8
GAIKEI
  6
Continuous
 62
     1
100
AcDbEllipse
 10
-36.26580658481822
 20
1.38114503774932
 30
0.0
 11
-0.030535709049866
 21
0.3230407412645781
 31
0.0
210
0.0
220
0.0
230
1.0
 40
0.0083090000057778
 41
1.192616583886016
 42
1.279026756966244
  0
ELLIPSE
  5
4D
330
2
100
AcDbEntity
  8
GAIKEI
  6
Continuous
 62
     1
100
AcDbEllipse
 10
-36.26580658481822
 20
1.38114503774932
 30
0.0
 11
-0.3230407423546608
 21
0.0305357091463026
 31
0.0
210
0.0
220
0.0
230
1.0
 40
0.0083089999813824
 41
1.862565895610391
 42
1.948976068363679
  0
ELLIPSE
  5
4E
330
2
100
AcDbEntity
  8
GAIKEI
  6
Continuous
 62
     1
100
AcDbEllipse
 10
3.858365312605201
 20
25.30531087906536
 30
0.0
 11
-0.030535709066745
 21
0.3230407414557805
 31
0.0
210
0.0
220
0.0
230
1.0
 40
0.0083090000015409
 41
4.33420923771091
 42
4.420619410733783
  0
ELLIPSE
  5
4F
330
2
100
AcDbEntity
  8
GAIKEI
  6
Continuous
 62
     1
100
AcDbEllipse
 10
3.858365312605201
 20
25.30531087906536
 30
0.0
 11
-0.3230407423314022
 21
0.0305357091442352
 31
0.0
210
0.0
220
0.0
230
1.0
 40
0.0083089999819134
 41
-1.279026757957789
 42
-1.192616585197497
  0
ELLIPSE
  5
50
330
2
100
AcDbEntity
  8
GAIKEI
  6
Continuous
 62
     1
100
AcDbEllipse
 10
3.858365312605201
 20
1.38114503774932
 30
0.0
 11
0.3230407423313618
 21
0.0305357091442317
 31
0.0
210
0.0
220
0.0
230
1.0
 40
0.0083089999819143
 41
4.334209238787228
 42
4.420619411547537
  0
ELLIPSE
  5
51
330
2
100
AcDbEntity
  8
GAIKEI
  6
Continuous
 62
     1
100
AcDbEllipse
 10
3.858365312605201
 20
1.38114503774932
 30
0.0
 11
0.0305357090723699
 21
0.3230407415195018
 31
0.0
210
0.0
220
0.0
230
1.0
 40
0.0083090000001242
 41
-1.279026757203155
 42
-1.192616584199406
  0
ELLIPSE
  5
52
330
2
100
AcDbEntity
  8
GAIKEI
  6
Continuous
 62
     1
100
AcDbEllipse
 10
3.290537764928501
 20
1.948972585425963
 30
0.0
 11
-0.3876090726745644
 21
0.3876090726745644
 31
0.0
210
0.0
220
0.0
230
1.0
 40
0.4561099999999687
 41
2.756538952252958
 42
3.526646354926537
  0
ELLIPSE
  5
53
330
2
100
AcDbEntity
  8
GAIKEI
  6
Continuous
 62
     1
100
AcDbEllipse
 10
-35.69797903714152
 20
1.948972585425963
 30
0.0
 11
0.3876090726745644
 21
0.3876090726745644
 31
0.0
210
0.0
220
0.0
230
1.0
 40
0.4561099999999612
 41
2.756538952253047
 42
3.526646354926617
  0
ELLIPSE
  5
54
330
2
100
AcDbEntity
  8
GAIKEI
  6
Continuous
 62
     1
100
AcDbEllipse
 10
3.290537764928501
 20
24.73748333138872
 30
0.0
 11
0.3876090726745562
 21
0.3876090726745562
 31
0.0
210
0.0
220
0.0
230
1.0
 40
0.4561100000000421
 41
5.898131605842833
 42
6.668239008516371
  0
ELLIPSE
  5
55
330
2
100
AcDbEntity
  8
GAIKEI
  6
Continuous
 62
     1
100
AcDbEllipse
 10
-35.69797903714152
 20
24.73748333138872
 30
0.0
 11
-0.3876090726745502
 21
0.3876090726745502
 31
0.0
210
0.0
220
0.0
230
1.0
 40
0.4561100000000735
 41
-0.3850537013367683
 42
0.3850537013367188
  0
ARC
  5
56
330
2
100
AcDbEntity
  8
GAIKEI
  6
Continuous
 62
     1
100
AcDbCircle
 10
-36.23716714039529
 20
25.27667143464242
 30
0.0
 40
0.133345180160005
100
AcDbArc
 50
179.9215319999867
 51
180.0
  0
ARC
  5
57
330
2
100
AcDbEntity
  8
GAIKEI
  6
Continuous
 62
     1
100
AcDbCircle
 10
-36.23716714039529
 20
1.409784482172199
 30
0.0
 40
0.133345180160005
100
AcDbArc
 50
180.0
 51
180.0784680000133
  0
ARC
  5
58
330
2
100
AcDbEntity
  8
GAIKEI
  6
Continuous
 62
     1
100
AcDbCircle
 10
3.829725868182265
 20
1.409784482172199
 30
0.0
 40
0.133345180160005
100
AcDbArc
 50
359.9215319999867
 51
0.0
  0
ARC
  5
59
330
2
100
AcDbEntity
  8
GAIKEI
  6
Continuous
 62
     1
100
AcDbCircle
 10
3.829725868182265
 20
25.27667143464242
 30
0.0
 40
0.133345180160005
100
AcDbArc
 50
0.0
 51
0.0784680000133352
  0
ARC
  5
5A
330
2
100
AcDbEntity
  8
GAIKEI
  6
Continuous
 62
     1
100
AcDbCircle
 10
3.829725868182265
 20
25.27667143464242
 30
0.0
 40
0.133345180160005
100
AcDbArc
 50
89.92153200000025
 51
90.0
  0
ARC
  5
5B
330
2
100
AcDbEntity
  8
GAIKEI
  6
Continuous
 62
     1
100
AcDbCircle
 10
-36.23716714039529
 20
25.27667143464242
 30
0.0
 40
0.133345180160005
100
AcDbArc
 50
90.0
 51
90.07846799999974
  0
ARC
  5
5C
330
2
100
AcDbEntity
  8
GAIKEI
  6
Continuous
 62
     1
100
AcDbCircle
 10
-36.23716714039529
 20
1.409784482172199
 30
0.0
 40
0.133345180160005
100
AcDbArc
 50
269.9215320000003
 51
270.0
  0
ARC
  5
5D
330
2
100
AcDbEntity
  8
GAIKEI
  6
Continuous
 62
     1
100
AcDbCircle
 10
3.829725868182265
 20
1.409784482172199
 30
0.0
 40
0.133345180160005
100
AcDbArc
 50
270.0
 51
270.0784679999998
  0
ARC
  5
5E
330
2
100
AcDbEntity
  8
GAIKEI
  6
Continuous
 62
     7
100
AcDbCircle
 10
-36.23716714039529
 20
1.409784482172199
 30
0.0
 40
0.133345180160005
100
AcDbArc
 50
180.0784680000133
 51
269.9215320000003
  0
ARC
  5
5F
330
2
100
AcDbEntity
  8
GAIKEI
  6
Continuous
 62
     7
100
AcDbCircle
 10
3.829725868182265
 20
1.409784482172199
 30
0.0
 40
0.133345180160005
100
AcDbArc
 50
270.0784679999998
 51
359.9215319999867
  0
ARC
  5
60
330
2
100
AcDbEntity
  8
GAIKEI
  6
Continuous
 62
     7
100
AcDbCircle
 10
-36.23716714039529
 20
25.27667143464242
 30
0.0
 40
0.133345180160005
100
AcDbArc
 50
90.07846799999974
 51
179.9215319999867
  0
ARC
  5
61
330
2
100
AcDbEntity
  8
GAIKEI
  6
Continuous
 62
     7
100
AcDbCircle
 10
3.829725868182265
 20
25.27667143464242
 30
0.0
 40
0.133345180160005
100
AcDbArc
 50
0.0784680000133352
 51
89.92153200000025
  0
ARC
  5
62
330
2
100
AcDbEntity
  8
GAIKEI
  6
Continuous
 62
     1
100
AcDbCircle
 10
-34.59499164409482
 20
23.65949379256733
 30
0.0
 40
0.0655246547603001
100
AcDbArc
 50
105.7493539999939
 51
164.3805440000058
  0
ARC
  5
63
330
2
100
AcDbEntity
  8
GAIKEI
  6
Continuous
 62
     1
100
AcDbCircle
 10
2.187550371881741
 20
23.65949379256733
 30
0.0
 40
0.0655246547603001
100
AcDbArc
 50
15.61945599999415
 51
74.25064600000602
  0
ARC
  5
64
330
2
100
AcDbEntity
  8
GAIKEI
  6
Continuous
 62
     1
100
AcDbCircle
 10
-35.19707473514723
 20
2.446543257916232
 30
0.0
 40
0.0666725900800025
100
AcDbArc
 50
180.0
 51
270.0
  0
ARC
  5
65
330
2
100
AcDbEntity
  8
GAIKEI
  6
Continuous
 62
     1
100
AcDbCircle
 10
2.789633462934204
 20
2.446543257916232
 30
0.0
 40
0.0666725900800025
100
AcDbArc
 50
270.0
 51
0.0
  0
ARC
  5
66
330
2
100
AcDbEntity
  8
GAIKEI
  6
Continuous
 62
     1
100
AcDbCircle
 10
-35.19707473514723
 20
24.23991265889839
 30
0.0
 40
0.0666725900800025
100
AcDbArc
 50
90.0
 51
180.0
  0
ARC
  5
67
330
2
100
AcDbEntity
  8
GAIKEI
  6
Continuous
 62
     1
100
AcDbCircle
 10
2.789633462934204
 20
24.23991265889839
 30
0.0
 40
0.0666725900800025
100
AcDbArc
 50
0.0
 51
90.0
  0
ARC
  5
68
330
2
100
AcDbEntity
  8
GAIKEI
  6
Continuous
 62
     1
100
AcDbCircle
 10
-34.62869090471526
 20
1.824821355420226
 30
0.0
 40
0.0166681475200006
100
AcDbArc
 50
90.0
 51
180.0
  0
ARC
  5
69
330
2
100
AcDbEntity
  8
GAIKEI
  6
Continuous
 62
     1
100
AcDbCircle
 10
-34.42867313447522
 20
1.824821355420226
 30
0.0
 40
0.0166681475200006
100
AcDbArc
 50
0.0
 51
90.0
  0
ARC
  5
6A
330
2
100
AcDbEntity
  8
GAIKEI
  6
Continuous
 62
     1
100
AcDbCircle
 10
-34.62869090471526
 20
1.624803585180188
 30
0.0
 40
0.0166681475200006
100
AcDbArc
 50
180.0
 51
270.0
  0
ARC
  5
6B
330
2
100
AcDbEntity
  8
GAIKEI
  6
Continuous
 62
     1
100
AcDbCircle
 10
-34.42867313447522
 20
1.624803585180188
 30
0.0
 40
0.0166681475200006
100
AcDbArc
 50
270.0
 51
0.0
  0
ARC
  5
6C
330
2
100
AcDbEntity
  8
GAIKEI
  6
Continuous
 62
     1
100
AcDbCircle
 10
2.789633462934204
 20
24.23991265889839
 30
0.0
 40
0.1346545964928812
100
AcDbArc
 50
0.0
 51
90.0
  0
ARC
  5
6D
330
2
100
AcDbEntity
  8
GAIKEI
  6
Continuous
 62
     1
100
AcDbCircle
 10
2.789633462934204
 20
2.446543257916232
 30
0.0
 40
0.1346545964928812
100
AcDbArc
 50
270.0
 51
0.0
  0
ARC
  5
6E
330
2
100
AcDbEntity
  8
GAIKEI
  6
Continuous
 62
     1
100
AcDbCircle
 10
-35.19707473514723
 20
24.23991265889839
 30
0.0
 40
0.1346545964928812
100
AcDbArc
 50
90.0
 51
180.0
  0
ARC
  5
6F
330
2
100
AcDbEntity
  8
GAIKEI
  6
Continuous
 62
     1
100
AcDbCircle
 10
-35.19707473514723
 20
2.446543257916232
 30
0.0
 40
0.1346545964928812
100
AcDbArc
 50
180.0
 51
270.0
  0
LINE
  5
70
330
2
100
AcDbEntity
  8
GAIKEI
  6
Continuous
 62
     7
100
AcDbLine
 10
-36.37051232055529
 20
25.27667143464242
 30
0.0
 11
-36.37051232055529
 21
1.409784482172199
 31
0.0
  0
LINE
  5
71
330
2
100
AcDbEntity
  8
GAIKEI
  6
Continuous
 62
     7
100
AcDbLine
 10
3.963071048342214
 20
25.27667143464242
 30
0.0
 11
3.963071048342214
 21
1.409784482172199
 31
0.0
  0
LINE
  5
72
330
2
100
AcDbEntity
  8
GAIKEI
  6
Continuous
 62
     7
100
AcDbLine
 10
-36.23716714039529
 20
25.41001661480243
 30
0.0
 11
3.829725868182265
 21
25.41001661480243
 31
0.0
  0
LINE
  5
73
330
2
100
AcDbEntity
  8
GAIKEI
  6
Continuous
 62
     7
100
AcDbLine
 10
-36.23716714039529
 20
1.276439302012192
 30
0.0
 11
3.829725868182265
 21
1.276439302012192
 31
0.0
  0
LINE
  5
74
330
2
100
AcDbEntity
  8
GAIKEI
  6
Continuous
 62
     1
100
AcDbLine
 10
-36.30299755565369
 20
1.477116530840703
 30
0.0
 11
-36.37051218721012
 21
1.40960186594799
 31
0.0
  0
LINE
  5
75
330
2
100
AcDbEntity
  8
GAIKEI
  6
Continuous
 62
     1
100
AcDbLine
 10
-36.2373497566195
 20
1.27643943535736
 30
0.0
 11
-36.16983509172684
 21
1.343954066913795
 31
0.0
  0
LINE
  5
76
330
2
100
AcDbEntity
  8
GAIKEI
  6
Continuous
 62
     1
100
AcDbLine
 10
-36.16983509172684
 20
25.34250184990083
 30
0.0
 11
-36.2373497566195
 21
25.41001648145726
 31
0.0
  0
LINE
  5
77
330
2
100
AcDbEntity
  8
GAIKEI
  6
Continuous
 62
     1
100
AcDbLine
 10
-36.37051218721012
 20
25.27685405086663
 30
0.0
 11
-36.30299755565369
 21
25.20933938597392
 31
0.0
  0
LINE
  5
78
330
2
100
AcDbEntity
  8
GAIKEI
  6
Continuous
 62
     1
100
AcDbLine
 10
3.762393819513761
 20
25.34250184990083
 30
0.0
 11
3.829908484406416
 21
25.41001648145726
 31
0.0
  0
LINE
  5
79
330
2
100
AcDbEntity
  8
GAIKEI
  6
Continuous
 62
     1
100
AcDbLine
 10
3.963070914997047
 20
25.27685405086663
 30
0.0
 11
3.895556283440612
 21
25.20933938597392
 31
0.0
  0
LINE
  5
7A
330
2
100
AcDbEntity
  8
GAIKEI
  6
Continuous
 62
     1
100
AcDbLine
 10
-36.30294981807919
 20
25.18627050312478
 30
0.0
 11
-36.30294981807919
 21
1.500185413689848
 31
0.0
  0
LINE
  5
7B
330
2
100
AcDbEntity
  8
GAIKEI
  6
Continuous
 62
     1
100
AcDbLine
 10
3.895508545866107
 20
25.18627050312478
 30
0.0
 11
3.895508545866107
 21
1.500185413689848
 31
0.0
  0
LINE
  5
7C
330
2
100
AcDbEntity
  8
GAIKEI
  6
Continuous
 62
     1
100
AcDbLine
 10
3.739324936664559
 20
25.34245411232632
 30
0.0
 11
-36.14676620887764
 21
25.34245411232632
 31
0.0
  0
LINE
  5
7D
330
2
100
AcDbEntity
  8
GAIKEI
  6
Continuous
 62
     1
100
AcDbLine
 10
-36.14676620887764
 20
1.3440018044883
 30
0.0
 11
3.739324936664559
 21
1.3440018044883
 31
0.0
  0
LINE
  5
7E
330
2
100
AcDbEntity
  8
GAIKEI
  6
Continuous
 62
     1
100
AcDbLine
 10
2.186908648202233
 20
23.72503204853598
 30
0.0
 11
-34.59434992041531
 21
23.72503204853598
 31
0.0
  0
LINE
  5
7F
330
2
100
AcDbEntity
  8
GAIKEI
  6
Continuous
 62
     1
100
AcDbLine
 10
-34.59434992041531
 20
2.961423868278643
 30
0.0
 11
2.186908648202233
 21
2.961423868278643
 31
0.0
  0
LINE
  5
80
330
2
100
AcDbEntity
  8
GAIKEI
  6
Continuous
 62
     1
100
AcDbLine
 10
-34.66052829992134
 20
23.65885920285496
 30
0.0
 11
-34.66052829992134
 21
3.027596713959724
 31
0.0
  0
LINE
  5
81
330
2
100
AcDbEntity
  8
GAIKEI
  6
Continuous
 62
     1
100
AcDbLine
 10
2.253087027708318
 20
23.65885920285496
 30
0.0
 11
2.253087027708318
 21
3.027596713959724
 31
0.0
  0
LINE
  5
82
330
2
100
AcDbEntity
  8
GAIKEI
  6
Continuous
 62
     1
100
AcDbLine
 10
2.186908648202233
 20
2.930161990870089
 30
0.0
 11
-34.59434992041531
 21
2.930161990870089
 31
0.0
  0
LINE
  5
83
330
2
100
AcDbEntity
  8
GAIKEI
  6
Continuous
 62
     1
100
AcDbLine
 10
-34.59434992041531
 20
23.75629392594453
 30
0.0
 11
2.186908648202233
 21
23.75629392594453
 31
0.0
  0
LINE
  5
84
330
2
100
AcDbEntity
  8
GAIKEI
  6
Continuous
 62
     1
100
AcDbLine
 10
-35.19707473514723
 20
24.30658524897836
 30
0.0
 11
2.789633462934204
 21
24.30658524897836
 31
0.0
  0
LINE
  5
85
330
2
100
AcDbEntity
  8
GAIKEI
  6
Continuous
 62
     1
100
AcDbLine
 10
2.789633462934204
 20
2.379870667836257
 30
0.0
 11
-35.19707473514723
 21
2.379870667836257
 31
0.0
  0
LINE
  5
86
330
2
100
AcDbEntity
  8
GAIKEI
  6
Continuous
 62
     1
100
AcDbLine
 10
-35.26374732522726
 20
2.446543257916232
 30
0.0
 11
-35.26374732522726
 21
24.23991265889839
 31
0.0
  0
LINE
  5
87
330
2
100
AcDbEntity
  8
GAIKEI
  6
Continuous
 62
     1
100
AcDbLine
 10
-34.69176354163017
 20
3.027596713959724
 30
0.0
 11
-34.69176354163017
 21
23.65885920285496
 31
0.0
  0
LINE
  5
88
330
2
100
AcDbEntity
  8
GAIKEI
  6
Continuous
 62
     1
100
AcDbLine
 10
2.856306053014179
 20
2.446543257916232
 30
0.0
 11
2.856306053014179
 21
24.23991265889839
 31
0.0
  0
LINE
  5
89
330
2
100
AcDbEntity
  8
GAIKEI
  6
Continuous
 62
     1
100
AcDbLine
 10
2.284322269417089
 20
3.027596713959724
 30
0.0
 11
2.284322269417089
 21
23.65885920285496
 31
0.0
  0
LINE
  5
8A
330
2
100
AcDbEntity
  8
GAIKEI
  6
Continuous
 62
     1
100
AcDbLine
 10
-35.25808298865553
 20
2.421875366339179
 30
0.0
 11
-34.68795697010842
 21
3.000340325745412
 31
0.0
  0
LINE
  5
8B
330
2
100
AcDbEntity
  8
GAIKEI
  6
Continuous
 62
     1
100
AcDbLine
 10
-34.62183042854116
 20
2.934032368060513
 30
0.0
 11
-35.1680035317674
 21
2.379870667836257
 31
0.0
  0
LINE
  5
8C
330
2
100
AcDbEntity
  8
GAIKEI
  6
Continuous
 62
     1
100
AcDbLine
 10
2.850641716442453
 20
2.421875366339179
 30
0.0
 11
2.280515697895395
 21
3.000340325745412
 31
0.0
  0
LINE
  5
8D
330
2
100
AcDbEntity
  8
GAIKEI
  6
Continuous
 62
     1
100
AcDbLine
 10
2.214389156328081
 20
2.934032368060513
 30
0.0
 11
2.760562259554376
 21
2.379870667836257
 31
0.0
  0
LINE
  5
8E
330
2
100
AcDbEntity
  8
GAIKEI
  6
Continuous
 62
     1
100
AcDbLine
 10
-34.68795697010842
 20
23.68611559106927
 30
0.0
 11
-35.25808298865553
 21
24.26458055047544
 31
0.0
  0
LINE
  5
8F
330
2
100
AcDbEntity
  8
GAIKEI
  6
Continuous
 62
     1
100
AcDbLine
 10
-35.1671861797492
 20
24.30575594196671
 30
0.0
 11
-34.62183042854116
 21
23.75242354875411
 31
0.0
  0
LINE
  5
90
330
2
100
AcDbEntity
  8
GAIKEI
  6
Continuous
 62
     1
100
AcDbLine
 10
2.760562259554319
 20
24.30658524897842
 30
0.0
 11
2.214389156328081
 21
23.75242354875411
 31
0.0
  0
LINE
  5
91
330
2
100
AcDbEntity
  8
GAIKEI
  6
Continuous
 62
     1
100
AcDbLine
 10
2.280515697895395
 20
23.68611559106927
 30
0.0
 11
2.850641716442453
 21
24.26458055047544
 31
0.0
  0
LINE
  5
92
330
2
100
AcDbEntity
  8
GAIKEI
  6
Continuous
 62
     1
100
AcDbLine
 10
-36.27957580812154
 20
1.500185413689848
 30
0.0
 11
-36.27957580812154
 21
25.18627050312478
 31
0.0
  0
LINE
  5
93
330
2
100
AcDbEntity
  8
GAIKEI
  6
Continuous
 62
     1
100
AcDbLine
 10
-36.14676620887764
 20
25.31908010236867
 30
0.0
 11
3.739324936664559
 21
25.31908010236867
 31
0.0
  0
LINE
  5
94
330
2
100
AcDbEntity
  8
GAIKEI
  6
Continuous
 62
     1
100
AcDbLine
 10
3.872134535908514
 20
1.500185413689848
 30
0.0
 11
3.872134535908514
 21
25.18627050312478
 31
0.0
  0
LINE
  5
95
330
2
100
AcDbEntity
  8
GAIKEI
  6
Continuous
 62
     1
100
AcDbLine
 10
3.739324936664559
 20
1.367375814445949
 30
0.0
 11
-36.14676620887764
 21
1.367375814445949
 31
0.0
  0
LINE
  5
96
330
2
100
AcDbEntity
  8
GAIKEI
  6
Continuous
 62
     1
100
AcDbLine
 10
-36.27957580812154
 20
25.18627050312478
 30
0.0
 11
-36.12361151840508
 21
25.03030621340832
 31
0.0
  0
LINE
  5
97
330
2
100
AcDbEntity
  8
GAIKEI
  6
Continuous
 62
     1
100
AcDbLine
 10
-35.99080191916119
 20
25.16311581265223
 30
0.0
 11
-36.14676620887764
 21
25.31908010236867
 31
0.0
  0
LINE
  5
98
330
2
100
AcDbEntity
  8
GAIKEI
  6
Continuous
 62
     1
100
AcDbLine
 10
-36.14676620887764
 20
1.367375814445949
 30
0.0
 11
-35.99080191916119
 21
1.523340104162457
 31
0.0
  0
LINE
  5
99
330
2
100
AcDbEntity
  8
GAIKEI
  6
Continuous
 62
     1
100
AcDbLine
 10
-36.12361151840508
 20
1.656149703406299
 30
0.0
 11
-36.27957580812154
 21
1.500185413689848
 31
0.0
  0
LINE
  5
9A
330
2
100
AcDbEntity
  8
GAIKEI
  6
Continuous
 62
     1
100
AcDbLine
 10
3.872134535908514
 20
25.18627050312478
 30
0.0
 11
3.716170246192007
 21
25.03030621340832
 31
0.0
  0
LINE
  5
9B
330
2
100
AcDbEntity
  8
GAIKEI
  6
Continuous
 62
     1
100
AcDbLine
 10
3.583360646948108
 20
25.16311581265223
 30
0.0
 11
3.739324936664559
 21
25.31908010236867
 31
0.0
  0
LINE
  5
9C
330
2
100
AcDbEntity
  8
GAIKEI
  6
Continuous
 62
     1
100
AcDbLine
 10
3.739324936664559
 20
1.367375814445949
 30
0.0
 11
3.583360646948108
 21
1.523340104162457
 31
0.0
  0
LINE
  5
9D
330
2
100
AcDbEntity
  8
GAIKEI
  6
Continuous
 62
     1
100
AcDbLine
 10
3.716170246192007
 20
1.656149703406299
 30
0.0
 11
3.872134535908514
 21
1.500185413689848
 31
0.0
  0
LINE
  5
9E
330
2
100
AcDbEntity
  8
GAIKEI
  6
Continuous
 62
     1
100
AcDbLine
 10
-35.63544701492328
 20
1.68814254575625
 30
0.0
 11
-35.70878686401125
 21
1.68814254575625
 31
0.0
  0
LINE
  5
9F
330
2
100
AcDbEntity
  8
GAIKEI
  6
Continuous
 62
     1
100
AcDbLine
 10
-34.4120049869552
 20
1.824821355420226
 30
0.0
 11
-34.4120049869552
 21
1.624803585180188
 31
0.0
  0
LINE
  5
A0
330
2
100
AcDbEntity
  8
GAIKEI
  6
Continuous
 62
     1
100
AcDbLine
 10
-35.70878686401125
 20
1.68814254575625
 30
0.0
 11
-35.70878686401125
 21
1.761482394844222
 31
0.0
  0
LINE
  5
A1
330
2
100
AcDbEntity
  8
GAIKEI
  6
Continuous
 62
     1
100
AcDbLine
 10
-35.70878686401125
 20
1.761482394844222
 30
0.0
 11
-35.63544701492328
 21
1.761482394844222
 31
0.0
  0
LINE
  5
A2
330
2
100
AcDbEntity
  8
GAIKEI
  6
Continuous
 62
     1
100
AcDbLine
 10
-35.63544701492328
 20
1.761482394844222
 30
0.0
 11
-35.63544701492328
 21
1.68814254575625
 31
0.0
  0
LINE
  5
A3
330
2
100
AcDbEntity
  8
GAIKEI
  6
Continuous
 62
     1
100
AcDbLine
 10
-34.42867313447522
 20
1.608135437660223
 30
0.0
 11
-34.62869090471526
 21
1.608135437660223
 31
0.0
  0
LINE
  5
A4
330
2
100
AcDbEntity
  8
GAIKEI
  6
Continuous
 62
     1
100
AcDbLine
 10
-34.64535905223522
 20
1.624803585180188
 30
0.0
 11
-34.64535905223522
 21
1.824821355420226
 31
0.0
  0
LINE
  5
A5
330
2
100
AcDbEntity
  8
GAIKEI
  6
Continuous
 62
     1
100
AcDbLine
 10
-34.62869090471526
 20
1.841489502940248
 30
0.0
 11
-34.42867313447522
 21
1.841489502940248
 31
0.0
  0
LINE
  5
A6
330
2
100
AcDbEntity
  8
GAIKEI
  6
Continuous
 62
     1
100
AcDbLine
 10
2.789633462934204
 20
24.3745672553913
 30
0.0
 11
-35.19707473514723
 21
24.3745672553913
 31
0.0
  0
LINE
  5
A7
330
2
100
AcDbEntity
  8
GAIKEI
  6
Continuous
 62
     1
100
AcDbLine
 10
-35.19707473514723
 20
2.311888661423381
 30
0.0
 11
2.789633462934204
 21
2.311888661423381
 31
0.0
  0
LINE
  5
A8
330
2
100
AcDbEntity
  8
GAIKEI
  6
Continuous
 62
     1
100
AcDbLine
 10
2.924288059427055
 20
24.23991265889839
 30
0.0
 11
2.924288059427055
 21
2.446543257916232
 31
0.0
  0
LINE
  5
A9
330
2
100
AcDbEntity
  8
GAIKEI
  6
Continuous
 62
     1
100
AcDbLine
 10
-35.33172933164014
 20
24.23991265889839
 30
0.0
 11
-35.33172933164014
 21
2.446543257916232
 31
0.0
  0
LINE
  5
AA
330
2
100
AcDbEntity
  8
GAIKEI
  6
Continuous
 62
     1
100
AcDbLine
 10
-36.12361151840508
 20
25.03030621340832
 30
0.0
 11
-36.12361151840508
 21
1.656149703406299
 31
0.0
  0
LINE
  5
AB
330
2
100
AcDbEntity
  8
GAIKEI
  6
Continuous
 62
     1
100
AcDbLine
 10
3.583360646948108
 20
25.16311581265223
 30
0.0
 11
-35.99080191916119
 21
25.16311581265223
 31
0.0
  0
LINE
  5
AC
330
2
100
AcDbEntity
  8
GAIKEI
  6
Continuous
 62
     1
100
AcDbLine
 10
3.716170246192007
 20
25.03030621340832
 30
0.0
 11
3.716170246192007
 21
1.656149703406299
 31
0.0
  0
LINE
  5
AD
330
2
100
AcDbEntity
  8
GAIKEI
  6
Continuous
 62
     1
100
AcDbLine
 10
-35.99080191916119
 20
1.523340104162457
 30
0.0
 11
3.583360646948108
 21
1.523340104162457
 31
0.0
  0
SPLINE
  5
AE
330
2
100
AcDbEntity
  8
GAIKEI
  6
Continuous
 62
     1
100
AcDbSpline
210
0.0
220
0.0
230
1.0
 70
     8
 71
     3
 72
    21
 73
    17
 74
    15
 42
0.0000000001
 43
0.0000000001
 44
0.000001
 12
-0.0001490760298766
 22
-0.9999999888881687
 32
0.0
 13
0.9999997489039975
 23
0.0007086550233522
 33
0.0
 40
0.0
 40
0.0
 40
0.0
 40
0.0
 40
0.0146800531683859
 40
0.0294098671609954
 40
0.0440944857461044
 40
0.0587961819046843
 40
0.0735433082184002
 40
0.0882452749644761
 40
0.1031289863564943
 40
0.1180596885229814
 40
0.1329432357532119
 40
0.1478756372181282
 40
0.1628556352591586
 40
0.1777879301772695
 40
0.1934470599830033
 40
0.2091023769872341
 40
0.2091023769872341
 40
0.2091023769872341
 40
0.2091023769872341
 10
-36.30299754257624
 20
1.477116515216152
 30
0.0
 10
-36.30299827205758
 20
1.472223164214426
 30
0.0
 10
-36.3024646824353
 20
1.462410921613297
 30
0.0
 10
-36.30004616618925
 20
1.447884695372522
 30
0.0
 10
-36.29605594711501
 20
1.433698921922484
 30
0.0
 10
-36.29048190879277
 20
1.420051364492735
 30
0.0
 10
-36.28344923305028
 20
1.407090775434937
 30
0.0
 10
-36.27500879137591
 20
1.39492337843734
 30
0.0
 10
-36.26520081577519
 20
1.383745939006075
 30
0.0
 10
-36.25417671562596
 20
1.373678919726501
 30
0.0
 10
-36.2420947394485
 20
1.364878308565948
 30
0.0
 10
-36.2290696166385
 20
1.357511446740545
 30
0.0
 10
-36.21529509901623
 20
1.351627661192935
 30
0.0
 10
-36.20071703043141
 20
1.347242768325031
 30
0.0
 10
-36.18550217057637
 20
1.344553726767287
 30
0.0
 10
-36.17505354504241
 20
1.343950381918261
 30
0.0
 10
-36.16983510735134
 20
1.343954079991249
 30
0.0
 11
-36.30299754257624
 21
1.477116515216152
 31
0.0
 11
-36.30219741637677
 21
1.46245771750739
 31
0.0
 11
-36.29978188233122
 21
1.447927303493429
 31
0.0
 11
-36.29579518561139
 21
1.433794194889799
 31
0.0
 11
-36.29024628820002
 21
1.420179851549733
 31
0.0
 11
-36.28321310875015
 21
1.407217877503285
 31
0.0
 11
-36.27482542383939
 21
1.395143309734237
 31
0.0
 11
-36.2650163757267
 21
1.383949199645144
 31
0.0
 11
-36.25399101827645
 21
1.373881031307064
 31
0.0
 11
-36.24195439432606
 21
1.36512658537714
 31
0.0
 11
-36.22896190964866
 21
1.357766385353556
 31
0.0
 11
-36.21518556285747
 21
1.351883085534893
 31
0.0
 11
-36.20088385632437
 21
1.347589444577067
 31
0.0
 11
-36.18546492839107
 21
1.344857155703891
 31
0.0
 11
-36.16983510735134
 21
1.343954079991249
 31
0.0
  0
SPLINE
  5
AF
330
2
100
AcDbEntity
  8
GAIKEI
  6
Continuous
 62
     1
100
AcDbSpline
210
0.0
220
0.0
230
1.0
 70
     8
 71
     3
 72
    21
 73
    17
 74
    15
 42
0.0000000001
 43
0.0000000001
 44
0.000001
 12
0.0001490760298765
 22
-0.9999999888881687
 32
0.0
 13
-0.9999997489039975
 23
0.000708655023352
 33
0.0
 40
0.0
 40
0.0
 40
0.0
 40
0.0
 40
0.0146800531683921
 40
0.0294098671610016
 40
0.0440944857460798
 40
0.0587961819046811
 40
0.0735433082183699
 40
0.0882452749644782
 40
0.1031289863564964
 40
0.1180596885230254
 40
0.13294323575321
 40
0.1478756372181263
 40
0.1628556352591567
 40
0.1777879301772131
 40
0.193447059982947
 40
0.2091023769872345
 40
0.2091023769872345
 40
0.2091023769872345
 40
0.2091023769872345
 10
3.895556270363272
 20
1.477116515216152
 30
0.0
 10
3.895556999844615
 20
1.472223164214369
 30
0.0
 10
3.895023410222108
 20
1.462410921613354
 30
0.0
 10
3.892604893976169
 20
1.447884695372579
 30
0.0
 10
3.888614674902044
 20
1.433698921922427
 30
0.0
 10
3.883040636579778
 20
1.420051364492735
 30
0.0
 10
3.876007960837313
 20
1.407090775434994
 30
0.0
 10
3.867567519162861
 20
1.394923378437397
 30
0.0
 10
3.857759543562167
 20
1.383745939006075
 30
0.0
 10
3.846735443412796
 20
1.373678919726444
 30
0.0
 10
3.834653467235568
 20
1.364878308565948
 30
0.0
 10
3.821628344425363
 20
1.357511446740545
 30
0.0
 10
3.807853826803182
 20
1.351627661192878
 30
0.0
 10
3.793275758218499
 20
1.347242768325088
 30
0.0
 10
3.778060898363349
 20
1.344553726767344
 30
0.0
 10
3.76761227282941
 20
1.343950381918261
 30
0.0
 10
3.762393835138311
 20
1.343954079991249
 30
0.0
 11
3.895556270363272
 21
1.477116515216152
 31
0.0
 11
3.894756144163693
 21
1.46245771750739
 31
0.0
 11
3.892340610118139
 21
1.447927303493429
 31
0.0
 11
3.888353913398418
 21
1.433794194889799
 31
0.0
 11
3.882805015987003
 21
1.420179851549733
 31
0.0
 11
3.875771836537182
 21
1.407217877503285
 31
0.0
 11
3.867384151626367
 21
1.395143309734237
 31
0.0
 11
3.857575103513681
 21
1.383949199645144
 31
0.0
 11
3.846549746063374
 21
1.373881031307064
 31
0.0
 11
3.834513122113037
 21
1.36512658537714
 31
0.0
 11
3.821520637435639
 21
1.357766385353556
 31
0.0
 11
3.80774429064445
 21
1.351883085534893
 31
0.0
 11
3.793442584111403
 21
1.347589444577067
 31
0.0
 11
3.778023656178106
 21
1.344857155703891
 31
0.0
 11
3.762393835138311
 21
1.343954079991249
 31
0.0
  0
SPLINE
  5
B0
330
2
100
AcDbEntity
  8
GAIKEI
  6
Continuous
 62
     1
100
AcDbSpline
210
0.0
220
0.0
230
1.0
 70
     8
 71
     3
 72
    21
 73
    17
 74
    15
 42
0.0000000001
 43
0.0000000001
 44
0.000001
 12
-0.9999999888881687
 22
0.0001490760296198
 32
0.0
 13
0.0007086550231108
 23
-0.9999997489039976
 33
0.0
 40
0.0
 40
0.0
 40
0.0
 40
0.0
 40
0.0146800531684174
 40
0.0294098671609941
 40
0.0440944857461151
 40
0.0587961819046795
 40
0.0735433082183703
 40
0.0882452749644463
 40
0.1031289863564832
 40
0.1180596885229894
 40
0.132943235753174
 40
0.147875637218115
 40
0.1628556352591827
 40
0.1777879301772827
 40
0.1934470599830017
 40
0.2091023769872324
 40
0.2091023769872324
 40
0.2091023769872324
 40
0.2091023769872324
 10
-36.16983510735134
 20
25.34250183682343
 30
0.0
 10
-36.17472845835309
 20
25.3425025663048
 30
0.0
 10
-36.18454070095419
 20
25.34196897668227
 30
0.0
 10
-36.19906692719496
 20
25.33955046043639
 30
0.0
 10
-36.213252700645
 20
25.33556024136226
 30
0.0
 10
-36.22690025807481
 20
25.32998620303994
 30
0.0
 10
-36.23986084713243
 20
25.3229535272975
 30
0.0
 10
-36.25202824413009
 20
25.31451308562305
 30
0.0
 10
-36.26320568356141
 20
25.30470511002238
 30
0.0
 10
-36.27327270284096
 20
25.29368100987307
 30
0.0
 10
-36.28207331400162
 20
25.28159903369573
 30
0.0
 10
-36.28944017582683
 20
25.26857391088561
 30
0.0
 10
-36.29532396137461
 20
25.25479939326334
 30
0.0
 10
-36.29970885424257
 20
25.24022132467866
 30
0.0
 10
-36.30239789580012
 20
25.22500646482348
 30
0.0
 10
-36.30300124064925
 20
25.21455783928963
 30
0.0
 10
-36.30299754257624
 20
25.20933940159853
 30
0.0
 11
-36.16983510735134
 21
25.34250183682343
 31
0.0
 11
-36.1844939050601
 21
25.34170171062391
 31
0.0
 11
-36.19902431907406
 21
25.33928617657835
 31
0.0
 11
-36.21315742767774
 21
25.33529947985858
 31
0.0
 11
-36.22677177101775
 21
25.32975058244722
 31
0.0
 11
-36.2397337450642
 21
25.32271740299734
 31
0.0
 11
-36.25180831283325
 21
25.31432971808659
 31
0.0
 11
-36.26300242292234
 21
25.30452066997384
 31
0.0
 11
-36.27307059126042
 21
25.29349531252359
 31
0.0
 11
-36.28182503719035
 21
25.28145868857325
 31
0.0
 11
-36.28918523721393
 21
25.26846620389586
 31
0.0
 11
-36.29506853703265
 21
25.25468985710461
 31
0.0
 11
-36.29936217799047
 21
25.24038815057156
 31
0.0
 11
-36.3020944668636
 21
25.22496922263826
 31
0.0
 11
-36.30299754257624
 21
25.20933940159853
 31
0.0
  0
SPLINE
  5
B1
330
2
100
AcDbEntity
  8
GAIKEI
  6
Continuous
 62
     1
100
AcDbSpline
210
0.0
220
0.0
230
1.0
 70
     8
 71
     3
 72
    21
 73
    17
 74
    15
 42
0.0000000001
 43
0.0000000001
 44
0.000001
 12
0.9999999888881687
 22
0.00014907602962
 32
0.0
 13
-0.0007086550231109
 23
-0.9999997489039976
 33
0.0
 40
0.0
 40
0.0
 40
0.0
 40
0.0
 40
0.0146800531684741
 40
0.0294098671610509
 40
0.0440944857460625
 40
0.0587961819046794
 40
0.0735433082183703
 40
0.0882452749644462
 40
0.1031289863564404
 40
0.118059688522985
 40
0.1329432357531695
 40
0.1478756372180825
 40
0.1628556352591503
 40
0.1777879301772502
 40
0.1934470599829792
 40
0.2091023769872132
 40
0.2091023769872132
 40
0.2091023769872132
 40
0.2091023769872132
 10
3.762393835138311
 20
25.34250183682343
 30
0.0
 10
3.767287186140094
 20
25.3425025663048
 30
0.0
 10
3.777099428741109
 20
25.34196897668221
 30
0.0
 10
3.791625654981999
 20
25.3395504604365
 30
0.0
 10
3.805811428431979
 20
25.33556024136215
 30
0.0
 10
3.819458985861672
 20
25.32998620303994
 30
0.0
 10
3.83241957491947
 20
25.32295352729739
 30
0.0
 10
3.844586971917124
 20
25.31451308562316
 30
0.0
 10
3.855764411348332
 20
25.30470511002227
 30
0.0
 10
3.865831430627821
 20
25.29368100987313
 30
0.0
 10
3.874632041788686
 20
25.28159903369573
 30
0.0
 10
3.881998903613634
 20
25.26857391088566
 30
0.0
 10
3.887882689161585
 20
25.25479939326334
 30
0.0
 10
3.892267582029518
 20
25.2402213246786
 30
0.0
 10
3.894956623587091
 20
25.2250064648236
 30
0.0
 10
3.895559968436288
 20
25.21455783928963
 30
0.0
 10
3.895556270363272
 20
25.20933940159853
 30
0.0
 11
3.762393835138311
 21
25.34250183682343
 31
0.0
 11
3.77705263284713
 21
25.34170171062391
 31
0.0
 11
3.791583046861092
 21
25.33928617657835
 31
0.0
 11
3.805716155464665
 21
25.33529947985858
 31
0.0
 11
3.819330498804731
 21
25.32975058244722
 31
0.0
 11
3.832292472851179
 21
25.32271740299734
 31
0.0
 11
3.844367040620227
 21
25.31432971808659
 31
0.0
 11
3.855561150709263
 21
25.30452066997384
 31
0.0
 11
3.8656293190474
 21
25.29349531252359
 31
0.0
 11
3.874383764977324
 21
25.28145868857325
 31
0.0
 11
3.88174396500085
 21
25.26846620389586
 31
0.0
 11
3.88762726481957
 21
25.25468985710461
 31
0.0
 11
3.891920905777396
 21
25.24038815057156
 31
0.0
 11
3.894653194650572
 21
25.22496922263826
 31
0.0
 11
3.895556270363272
 21
25.20933940159853
 31
0.0
  0
SPLINE
  5
B2
330
2
100
AcDbEntity
  8
GAIKEI
  6
Continuous
 62
     1
100
AcDbSpline
210
0.0
220
0.0
230
1.0
 70
     8
 71
     3
 72
    14
 73
    10
 74
     8
 42
0.0000000001
 43
0.0000000001
 44
0.000001
 12
0.2697836156325394
 22
-0.962920973255975
 32
0.0
 13
0.9616843088117285
 23
-0.2741592423853476
 33
0.0
 40
0.0
 40
0.0
 40
0.0
 40
0.0
 40
0.0000378405968002
 40
0.0111891984537556
 40
0.0223415869632996
 40
0.0334914632169878
 40
0.0446413298613272
 40
0.0558040986430134
 40
0.066966051962287
 40
0.066966051962287
 40
0.066966051962287
 40
0.066966051962287
 10
-34.65809656868953
 20
3.009319808130385
 30
0.0
 10
-34.6580931657652
 20
3.009307662295611
 30
0.0
 10
-34.65708579154773
 20
3.005716559251311
 30
0.0
 10
-34.65444544217871
 20
2.998708818932357
 30
0.0
 10
-34.6488136657735
 20
2.989024198657261
 30
0.0
 10
-34.64158711831291
 20
2.980460190313863
 30
0.0
 10
-34.63303468479808
 20
2.973215692010057
 30
0.0
 10
-34.62335594835747
 20
2.967557285911254
 30
0.0
 10
-34.61635508328422
 20
2.964917418840798
 30
0.0
 10
-34.61277699149662
 20
2.963897367952256
 30
0.0
 11
-34.65809656868953
 21
3.009319808130385
 31
0.0
 11
-34.65808634927419
 21
3.009283373247058
 31
0.0
 11
-34.6541665107485
 21
2.998843126949282
 31
0.0
 11
-34.64854802426089
 21
2.989209491864812
 31
0.0
 11
-34.64136727069581
 21
2.980679728275504
 31
0.0
 11
-34.63285168907765
 21
2.973482169150315
 31
0.0
 11
-34.6232198787248
 21
2.96783987712638
 31
0.0
 11
-34.61277699149662
 21
2.963897367952256
 31
0.0
  0
SPLINE
  5
B3
330
2
100
AcDbEntity
  8
GAIKEI
  6
Continuous
 62
     1
100
AcDbSpline
210
0.0
220
0.0
230
1.0
 70
     8
 71
     3
 72
    14
 73
    10
 74
     8
 42
0.0000000001
 43
0.0000000001
 44
0.000001
 12
-0.2697836156325397
 22
-0.962920973255975
 32
0.0
 13
-0.9616843088117285
 23
-0.2741592423853476
 33
0.0
 40
0.0
 40
0.0
 40
0.0
 40
0.0
 40
0.0000378405968626
 40
0.0111891984537548
 40
0.0223415869633274
 40
0.0334914632170522
 40
0.0446413298613483
 40
0.0558040986430344
 40
0.0669660519622549
 40
0.0669660519622549
 40
0.0669660519622549
 40
0.0669660519622549
 10
2.250655296476566
 20
3.009319808130385
 30
0.0
 10
2.25065189355223
 20
3.009307662295611
 30
0.0
 10
2.249644519332463
 20
3.005716559255233
 30
0.0
 10
2.247004169966771
 20
2.998708818930424
 30
0.0
 10
2.241372393560197
 20
2.989024198657716
 30
0.0
 10
2.234145846099863
 20
2.980460190313635
 30
0.0
 10
2.225593412585112
 20
2.973215692010228
 30
0.0
 10
2.21591467614445
 20
2.967557285911198
 30
0.0
 10
2.208913811071255
 20
2.964917418840741
 30
0.0
 10
2.205335719283652
 20
2.963897367952256
 30
0.0
 11
2.250655296476566
 21
3.009319808130385
 31
0.0
 11
2.250645077061108
 21
3.009283373247058
 31
0.0
 11
2.246725238535532
 21
2.998843126949282
 31
0.0
 11
2.241106752047869
 21
2.989209491864812
 31
0.0
 11
2.233925998482732
 21
2.980679728275504
 31
0.0
 11
2.225410416864633
 21
2.973482169150315
 31
0.0
 11
2.215778606511776
 21
2.96783987712638
 31
0.0
 11
2.205335719283652
 21
2.963897367952256
 31
0.0
  0
SPLINE
  5
B4
330
2
100
AcDbEntity
  8
GAIKEI
  6
Continuous
 62
     1
100
AcDbSpline
210
0.0
220
0.0
230
1.0
 70
     8
 71
     3
 72
    19
 73
    15
 74
    13
 42
0.0000000001
 43
0.0000000001
 44
0.000001
 12
-0.963993839467831
 22
0.2659245710122877
 32
0.0
 13
-0.26346002757732
 23
0.9646703135625962
 33
0.0
 40
0.0
 40
0.0
 40
0.0
 40
0.0
 40
0.0080455644807538
 40
0.0160915728628438
 40
0.0243810347115332
 40
0.032670617966433
 40
0.0406926484299091
 40
0.0487147353963971
 40
0.0569835490403238
 40
0.0652522942794513
 40
0.073306220283723
 40
0.0813600285367394
 40
0.0896585537563041
 40
0.0979566571400231
 40
0.0979566571400231
 40
0.0979566571400231
 40
0.0979566571400231
 10
-34.6218304189369
 20
2.934032360389608
 30
0.0
 10
-34.62441571046838
 20
2.934745531483997
 30
0.0
 10
-34.62952876550924
 20
2.936390947985728
 30
0.0
 10
-34.63703817566159
 20
2.939522515661963
 30
0.0
 10
-34.64432171226065
 20
2.943330735700044
 30
0.0
 10
-34.65123881458533
 20
2.947754904623593
 30
0.0
 10
-34.65767336158854
 20
2.952709500124512
 30
0.0
 10
-34.66365967580731
 20
2.958187017
 30
0.0
 10
-34.66920211426654
 20
2.9642264628676
 30
0.0
 10
-34.67420230613214
 20
2.970735341702095
 30
0.0
 10
-34.67857780737023
 20
2.977593793152834
 30
0.0
 10
-34.6823616129191
 20
2.984806929467595
 30
0.0
 10
-34.68553786959785
 20
2.992395847732495
 30
0.0
 10
-34.68722824439377
 20
2.997672003379079
 30
0.0
 10
-34.6879569839092
 20
3.000340314710115
 30
0.0
 11
-34.6218304189369
 21
2.934032360389608
 31
0.0
 11
-34.62949008074111
 21
2.936495501435615
 31
0.0
 11
-34.63691539674676
 21
2.939594340955238
 31
0.0
 11
-34.64426180062128
 21
2.943434367611189
 31
0.0
 11
-34.65124419457618
 21
2.947902441177518
 31
0.0
 11
-34.65760100013233
 21
2.952795734901201
 31
0.0
 11
-34.66351847008843
 21
2.958212169427213
 31
0.0
 11
-34.66911048128281
 21
2.964303396985826
 31
0.0
 11
-34.67414689170204
 21
2.970861374964215
 31
0.0
 11
-34.67848006899681
 21
2.977650306239695
 31
0.0
 11
-34.68222057882304
 21
2.984782812754644
 31
0.0
 11
-34.68542664065058
 21
2.992436998285143
 31
0.0
 11
-34.6879569839092
 21
3.000340314710115
 31
0.0
  0
SPLINE
  5
B5
330
2
100
AcDbEntity
  8
GAIKEI
  6
Continuous
 62
     1
100
AcDbSpline
210
0.0
220
0.0
230
1.0
 70
     8
 71
     3
 72
    19
 73
    15
 74
    13
 42
0.0000000001
 43
0.0000000001
 44
0.000001
 12
0.9639938394678312
 22
0.2659245710122878
 32
0.0
 13
0.26346002757732
 23
0.9646703135625962
 33
0.0
 40
0.0
 40
0.0
 40
0.0
 40
0.0
 40
0.0080455644807538
 40
0.0160915728627914
 40
0.0243810347114807
 40
0.0326706179664284
 40
0.0406926484299046
 40
0.0487147353963505
 40
0.0569835490402773
 40
0.0652522942794394
 40
0.0733062202836805
 40
0.0813600285367233
 40
0.0896585537562991
 40
0.0979566571400093
 40
0.0979566571400093
 40
0.0979566571400093
 40
0.0979566571400093
 10
2.214389146723874
 20
2.934032360389608
 30
0.0
 10
2.216974438255363
 20
2.934745531483997
 30
0.0
 10
2.222087493296214
 20
2.936390947985728
 30
0.0
 10
2.229596903448509
 20
2.939522515661963
 30
0.0
 10
2.236880440047542
 20
2.943330735699987
 30
0.0
 10
2.243797542372305
 20
2.947754904623593
 30
0.0
 10
2.250232089375515
 20
2.952709500124569
 30
0.0
 10
2.25621840359426
 20
2.958187017
 30
0.0
 10
2.261760842053462
 20
2.9642264628676
 30
0.0
 10
2.266761033919124
 20
2.970735341701981
 30
0.0
 10
2.271136535157154
 20
2.977593793152834
 30
0.0
 10
2.274920340706131
 20
2.984806929467652
 30
0.0
 10
2.278096597384887
 20
2.992395847732439
 30
0.0
 10
2.279786972180744
 20
2.997672003379079
 30
0.0
 10
2.280515711696182
 20
3.000340314710115
 30
0.0
 11
2.214389146723874
 21
2.934032360389608
 31
0.0
 11
2.222048808528086
 21
2.936495501435615
 31
0.0
 11
2.22947412453368
 21
2.939594340955238
 31
0.0
 11
2.236820528408202
 21
2.943434367611189
 31
0.0
 11
2.243802922363158
 21
2.947902441177518
 31
0.0
 11
2.25015972791931
 21
2.952795734901201
 31
0.0
 11
2.256077197875356
 21
2.958212169427213
 31
0.0
 11
2.261669209069737
 21
2.964303396985826
 31
0.0
 11
2.266705619489016
 21
2.970861374964215
 31
0.0
 11
2.271038796783727
 21
2.977650306239695
 31
0.0
 11
2.274779306610014
 21
2.984782812754644
 31
0.0
 11
2.277985368437612
 21
2.992436998285143
 31
0.0
 11
2.280515711696182
 21
3.000340314710115
 31
0.0
  0
SPLINE
  5
B6
330
2
100
AcDbEntity
  8
GAIKEI
  6
Continuous
 62
     1
100
AcDbSpline
210
0.0
220
0.0
230
1.0
 70
     8
 71
     3
 72
    19
 73
    15
 74
    13
 42
0.0000000001
 43
0.0000000001
 44
0.000001
 12
0.2634414923284026
 22
0.9646753755122933
 32
0.0
 13
0.9639886149825482
 23
0.2659435093850355
 33
0.0
 40
0.0
 40
0.0
 40
0.0
 40
0.0
 40
0.0080469836170213
 40
0.0160943919464995
 40
0.0243850109521246
 40
0.0326757504935733
 40
0.0406967337973684
 40
0.0487177849602294
 40
0.056985458941196
 40
0.0652530764933604
 40
0.0733066642993443
 40
0.0813601339664225
 40
0.0896586163756816
 40
0.097956656864661
 40
0.097956656864661
 40
0.097956656864661
 40
0.097956656864661
 10
-34.68795698390915
 20
23.68611560210468
 30
0.0
 10
-34.68725034745154
 20
23.68870317775219
 30
0.0
 10
-34.68561794465438
 20
23.69382137983928
 30
0.0
 10
-34.68250583259635
 20
23.70134029804018
 30
0.0
 10
-34.67871671625236
 20
23.70863517750962
 30
0.0
 10
-34.67431121919293
 20
23.71556468148629
 30
0.0
 10
-34.6693745798288
 20
23.72201261541523
 30
0.0
 10
-34.66391446827109
 20
23.72801334975282
 30
0.0
 10
-34.65789134742994
 20
23.7335718971699
 30
0.0
 10
-34.6513971447647
 20
23.73858971705755
 30
0.0
 10
-34.64455134793923
 20
23.74298389007293
 30
0.0
 10
-34.6373487873764
 20
23.74678729536646
 30
0.0
 10
-34.62976853352481
 20
23.74998383277108
 30
0.0
 10
-34.62449682445623
 20
23.75168795308884
 30
0.0
 10
-34.6218304189369
 20
23.75242355642507
 30
0.0
 11
-34.68795698390915
 21
23.68611560210468
 31
0.0
 11
-34.68551334361132
 21
23.69378299295158
 31
0.0
 11
-34.68243368307992
 21
23.70121779903298
 31
0.0
 11
-34.67861294662856
 21
23.70857555763621
 31
0.0
 11
-34.6741633109466
 21
23.71557108623807
 31
0.0
 11
-34.6692881869318
 21
23.72194051839932
 31
0.0
 11
-34.66388892359066
 21
23.72787225941352
 31
0.0
 11
-34.65781417217101
 21
23.73348048474174
 31
0.0
 11
-34.65127116509331
 21
23.73853448473761
 31
0.0
 11
-34.6444945456426
 21
23.74288626540647
 31
0.0
 11
-34.63737258367803
 21
23.74664608837099
 31
0.0
 11
-34.62972705001476
 21
23.74987261854392
 31
0.0
 11
-34.6218304189369
 21
23.75242355642507
 31
0.0
  0
SPLINE
  5
B7
330
2
100
AcDbEntity
  8
GAIKEI
  6
Continuous
 62
     1
100
AcDbSpline
210
0.0
220
0.0
230
1.0
 70
     8
 71
     3
 72
    19
 73
    15
 74
    13
 42
0.0000000001
 43
0.0000000001
 44
0.000001
 12
-0.2634414923284028
 22
0.9646753755122933
 32
0.0
 13
-0.9639886149825482
 23
0.2659435093850356
 33
0.0
 40
0.0
 40
0.0
 40
0.0
 40
0.0
 40
0.0080469836170213
 40
0.0160943919464777
 40
0.024385010952129
 40
0.0326757504935777
 40
0.0406967337973728
 40
0.0487177849602338
 40
0.0569854589412004
 40
0.0652530764933649
 40
0.0733066642993488
 40
0.0813601339663767
 40
0.0896586163756882
 40
0.0979566568646675
 40
0.0979566568646675
 40
0.0979566568646675
 40
0.0979566568646675
 10
2.280515711696125
 20
23.68611560210468
 30
0.0
 10
2.279809075238517
 20
23.68870317775219
 30
0.0
 10
2.278176672441361
 20
23.69382137983928
 30
0.0
 10
2.275064560383384
 20
23.70134029804024
 30
0.0
 10
2.271275444039332
 20
23.70863517750956
 30
0.0
 10
2.266869946979909
 20
23.7155646814864
 30
0.0
 10
2.261933307615805
 20
23.72201261541517
 30
0.0
 10
2.256473196058095
 20
23.72801334975287
 30
0.0
 10
2.250450075216946
 20
23.7335718971699
 30
0.0
 10
2.243955872551708
 20
23.73858971705755
 30
0.0
 10
2.23711007572615
 20
23.74298389007299
 30
0.0
 10
2.229907515163404
 20
23.74678729536652
 30
0.0
 10
2.222327261311818
 20
23.74998383277108
 30
0.0
 10
2.217055552243209
 20
23.75168795308884
 30
0.0
 10
2.214389146723874
 20
23.75242355642507
 30
0.0
 11
2.280515711696125
 21
23.68611560210468
 31
0.0
 11
2.278072071398298
 21
23.69378299295158
 31
0.0
 11
2.274992410866957
 21
23.70121779903298
 31
0.0
 11
2.271171674415541
 21
23.70857555763621
 31
0.0
 11
2.266722038733576
 21
23.71557108623807
 31
0.0
 11
2.261846914718773
 21
23.72194051839932
 31
0.0
 11
2.256447651377641
 21
23.72787225941352
 31
0.0
 11
2.250372899957994
 21
23.73348048474174
 31
0.0
 11
2.243829892880285
 21
23.73853448473761
 31
0.0
 11
2.23705327342958
 21
23.74288626540647
 31
0.0
 11
2.229931311465065
 21
23.74664608837099
 31
0.0
 11
2.222285777801744
 21
23.74987261854392
 31
0.0
 11
2.214389146723874
 21
23.75242355642507
 31
0.0
  0
SPLINE
  5
B8
330
2
100
AcDbEntity
  8
GAIKEI
  6
Continuous
 62
     1
100
AcDbSpline
210
0.0
220
0.0
230
1.0
 70
     8
 71
     3
 72
    19
 73
    15
 74
    13
 42
0.0000000001
 43
0.0000000001
 44
0.000001
 12
0.0944471245025448
 22
0.9955298793472755
 32
0.0
 13
0.9955257326591484
 23
0.0944908229060694
 33
0.0
 40
0.0
 40
0.0
 40
0.0
 40
0.0
 40
0.0114746607580177
 40
0.0229538204373449
 40
0.0343591230295722
 40
0.0457936629856766
 40
0.0572035280088695
 40
0.0746287115525872
 40
0.0920556101582195
 40
0.1090656328910296
 40
0.1260693628544319
 40
0.1369222365398637
 40
0.1478018299471542
 40
0.1586464376140014
 40
0.1586464376140014
 40
0.1586464376140014
 40
0.1586464376140014
 10
-36.27716088307205
 20
25.21263202479975
 30
0.0
 10
-36.27679963350096
 20
25.21643981401309
 30
0.0
 10
-36.27566237751572
 20
25.2240249607712
 30
0.0
 10
-36.27270338017314
 20
25.23511168821091
 30
0.0
 10
-36.26861044141265
 20
25.24581506002858
 30
0.0
 10
-36.2634904559049
 20
25.25603949074474
 30
0.0
 10
-36.25635630310024
 20
25.26743169645738
 30
0.0
 10
-36.24664402908022
 20
25.27947887163794
 30
0.0
 10
-36.23400055623029
 20
25.29135014402522
 30
0.0
 10
-36.21994034000252
 20
25.30125823271743
 30
0.0
 10
-36.20658379226572
 20
25.30811046696772
 30
0.0
 10
-36.19443940196578
 20
25.31255112362476
 30
0.0
 10
-36.18390655578699
 20
25.31526813362297
 30
0.0
 10
-36.17672642588355
 20
25.31632360535173
 30
0.0
 10
-36.17312773055255
 20
25.31666517731924
 30
0.0
 11
-36.27716088307205
 21
25.21263202479975
 31
0.0
 11
-36.27545314120818
 21
25.22397978471668
 31
0.0
 11
-36.27250626330994
 21
25.23507436875548
 31
0.0
 11
-36.26844172669769
 21
25.24573089178421
 31
0.0
 11
-36.26332837009579
 21
25.25595841277692
 31
0.0
 11
-36.25727408935586
 21
25.2656294438653
 31
0.0
 11
-36.24635006451518
 21
25.2792047091408
 31
0.0
 11
-36.23363939103615
 21
25.29112580325682
 31
0.0
 11
-36.21973235166525
 21
25.30092011535601
 31
0.0
 11
-36.20458951033447
 21
25.30865455296731
 31
0.0
 11
-36.19439563360254
 21
25.31237882964706
 31
0.0
 11
-36.18385700597781
 21
25.31508166304161
 31
0.0
 11
-36.17312773055255
 21
25.31666517731924
 31
0.0
  0
SPLINE
  5
B9
330
2
100
AcDbEntity
  8
GAIKEI
  6
Continuous
 62
     1
100
AcDbSpline
210
0.0
220
0.0
230
1.0
 70
     8
 71
     3
 72
    19
 73
    15
 74
    13
 42
0.0000000001
 43
0.0000000001
 44
0.000001
 12
-0.995529879347374
 22
0.0944471245015059
 32
0.0
 13
-0.0944908229060039
 23
0.9955257326591544
 33
0.0
 40
0.0
 40
0.0
 40
0.0
 40
0.0
 40
0.0114746607580262
 40
0.0229538204374083
 40
0.034359123029609
 40
0.045793662985688
 40
0.057203528008887
 40
0.0746287115525912
 40
0.0920556101582468
 40
0.1090656328910595
 40
0.1260693628544871
 40
0.1369222365398558
 40
0.1478018299471739
 40
0.1586464376139887
 40
0.1586464376139887
 40
0.1586464376139887
 40
0.1586464376139887
 10
-36.17312773055255
 20
1.369790739495442
 30
0.0
 10
-36.17693551976589
 20
1.370151989066528
 30
0.0
 10
-36.18452066652407
 20
1.371289245051912
 30
0.0
 10
-36.19560739396366
 20
1.374248242394344
 30
0.0
 10
-36.20631076578153
 20
1.378341181154951
 30
0.0
 10
-36.21653519649755
 20
1.383461166662527
 30
0.0
 10
-36.22792740221019
 20
1.390595319467365
 30
0.0
 10
-36.23997457739077
 20
1.400307593487127
 30
0.0
 10
-36.25184584977802
 20
1.412951066337313
 30
0.0
 10
-36.26175393847024
 20
1.427011282565047
 30
0.0
 10
-36.26860617272075
 20
1.440367830301738
 30
0.0
 10
-36.27304682937751
 20
1.452512220601647
 30
0.0
 10
-36.27576383937583
 20
1.463045066780523
 30
0.0
 10
-36.27681931110454
 20
1.470225196683941
 30
0.0
 10
-36.27716088307205
 20
1.473823892014934
 30
0.0
 11
-36.17312773055255
 21
1.369790739495442
 31
0.0
 11
-36.18447549046948
 21
1.371498481359367
 31
0.0
 11
-36.19557007450834
 21
1.374445359257606
 31
0.0
 11
-36.20622659753707
 21
1.378509895869854
 31
0.0
 11
-36.21645411852978
 21
1.383623252471693
 31
0.0
 11
-36.2261251496181
 21
1.389677533211681
 31
0.0
 11
-36.23970041489366
 21
1.400601558052301
 31
0.0
 11
-36.25162150900962
 21
1.413312231531392
 31
0.0
 11
-36.26141582110887
 21
1.427219270902298
 31
0.0
 11
-36.26915025872018
 21
1.44236211223307
 31
0.0
 11
-36.27287453539992
 21
1.452555988964945
 31
0.0
 11
-36.27557736879442
 21
1.463094616589728
 31
0.0
 11
-36.27716088307205
 21
1.473823892014934
 31
0.0
  0
SPLINE
  5
BA
330
2
100
AcDbEntity
  8
GAIKEI
  6
Continuous
 62
     1
100
AcDbSpline
210
0.0
220
0.0
230
1.0
 70
     8
 71
     3
 72
    19
 73
    15
 74
    13
 42
0.0000000001
 43
0.0000000001
 44
0.000001
 12
-0.0944471245025449
 22
0.9955298793472755
 32
0.0
 13
-0.9955257326591484
 23
0.0944908229060694
 33
0.0
 40
0.0
 40
0.0
 40
0.0
 40
0.0
 40
0.0114746607580262
 40
0.0229538204373534
 40
0.0343591230295807
 40
0.0457936629856596
 40
0.0572035280089129
 40
0.0746287115525949
 40
0.0920556101582687
 40
0.1090656328910788
 40
0.1260693628544811
 40
0.1369222365398595
 40
0.14780182994715
 40
0.1586464376139409
 40
0.1586464376139409
 40
0.1586464376139409
 40
0.1586464376139409
 10
3.869719610859078
 20
25.21263202479975
 30
0.0
 10
3.869358361287993
 20
25.21643981401309
 30
0.0
 10
3.868221105302666
 20
25.2240249607712
 30
0.0
 10
3.865262107960177
 20
25.23511168821085
 30
0.0
 10
3.86116916919957
 20
25.24581506002869
 30
0.0
 10
3.856049183691993
 20
25.25603949074474
 30
0.0
 10
3.848915030887098
 20
25.26743169645732
 30
0.0
 10
3.83920275686728
 20
25.27947887163794
 30
0.0
 10
3.82655928401715
 20
25.29135014402533
 30
0.0
 10
3.812499067789445
 20
25.30125823271726
 30
0.0
 10
3.799142520052612
 20
25.30811046696801
 30
0.0
 10
3.78699812975276
 20
25.31255112362453
 30
0.0
 10
3.776465283573998
 20
25.31526813362308
 30
0.0
 10
3.769285153670551
 20
25.31632360535173
 30
0.0
 10
3.765686458339587
 20
25.31666517731924
 30
0.0
 11
3.869719610859078
 21
25.21263202479975
 31
0.0
 11
3.868011868995154
 21
25.22397978471668
 31
0.0
 11
3.865064991096915
 21
25.23507436875548
 31
0.0
 11
3.861000454484667
 21
25.24573089178421
 31
0.0
 11
3.855887097882828
 21
25.25595841277692
 31
0.0
 11
3.849832817142782
 21
25.2656294438653
 31
0.0
 11
3.838908792302163
 21
25.2792047091408
 31
0.0
 11
3.826198118823072
 21
25.29112580325682
 31
0.0
 11
3.812291079452165
 21
25.30092011535601
 31
0.0
 11
3.797148238121394
 21
25.30865455296731
 31
0.0
 11
3.786954361389518
 21
25.31237882964706
 31
0.0
 11
3.776415733764793
 21
25.31508166304161
 31
0.0
 11
3.765686458339587
 21
25.31666517731924
 31
0.0
  0
SPLINE
  5
BB
330
2
100
AcDbEntity
  8
GAIKEI
  6
Continuous
 62
     1
100
AcDbSpline
210
0.0
220
0.0
230
1.0
 70
     8
 71
     3
 72
    19
 73
    15
 74
    13
 42
0.0000000001
 43
0.0000000001
 44
0.000001
 12
0.995529879347374
 22
0.0944471245015057
 32
0.0
 13
0.0944908229060041
 23
0.9955257326591546
 33
0.0
 40
0.0
 40
0.0
 40
0.0
 40
0.0
 40
0.0114746607579699
 40
0.0229538204373521
 40
0.0343591230295528
 40
0.0457936629856318
 40
0.0572035280088308
 40
0.074628711552535
 40
0.0920556101581906
 40
0.1090656328910033
 40
0.1260693628544051
 40
0.136922236539803
 40
0.147801829947114
 40
0.1586464376139372
 40
0.1586464376139372
 40
0.1586464376139372
 40
0.1586464376139372
 10
3.765686458339587
 20
1.369790739495442
 30
0.0
 10
3.769494247552898
 20
1.370151989066528
 30
0.0
 10
3.777079394311101
 20
1.371289245051855
 30
0.0
 10
3.788166121750606
 20
1.374248242394401
 30
0.0
 10
3.798869493568474
 20
1.378341181154894
 30
0.0
 10
3.809093924284553
 20
1.383461166662584
 30
0.0
 10
3.820486129997107
 20
1.390595319467308
 30
0.0
 10
3.832533305177776
 20
1.400307593487241
 30
0.0
 10
3.844404577564972
 20
1.412951066337313
 30
0.0
 10
3.854312666257243
 20
1.42701128256499
 30
0.0
 10
3.861164900507617
 20
1.440367830301966
 30
0.0
 10
3.865605557164514
 20
1.45251222060159
 30
0.0
 10
3.868322567162806
 20
1.463045066780637
 30
0.0
 10
3.869378038891568
 20
1.470225196683941
 30
0.0
 10
3.869719610859078
 20
1.473823892014934
 30
0.0
 11
3.765686458339587
 21
1.369790739495442
 31
0.0
 11
3.77703421825646
 21
1.371498481359367
 31
0.0
 11
3.788128802295318
 21
1.374445359257606
 31
0.0
 11
3.798785325324047
 21
1.378509895869854
 31
0.0
 11
3.809012846316761
 21
1.383623252471693
 31
0.0
 11
3.818683877405078
 21
1.389677533211681
 31
0.0
 11
3.832259142680641
 21
1.400601558052301
 31
0.0
 11
3.844180236796603
 21
1.413312231531392
 31
0.0
 11
3.853974548895848
 21
1.427219270902298
 31
0.0
 11
3.861708986507096
 21
1.44236211223307
 31
0.0
 11
3.865433263186901
 21
1.452555988964945
 31
0.0
 11
3.868136096581395
 21
1.463094616589728
 31
0.0
 11
3.869719610859078
 21
1.473823892014934
 31
0.0
  0
LINE
  5
BC
330
2
100
AcDbEntity
  8
GAIKEI
  6
Continuous
 62
     1
100
AcDbLine
 10
30.35804459293866
 20
24.90373296946717
 30
0.0
 11
30.5265269614693
 21
24.91133217669489
 31
0.0
  0
LINE
  5
BD
330
2
100
AcDbEntity
  8
GAIKEI
  6
Continuous
 62
     1
100
AcDbLine
 10
30.50770888960955
 20
25.04622142736855
 30
0.0
 11
30.3580445929386
 21
25.05104578931412
 31
0.0
  0
LINE
  5
BE
330
2
100
AcDbEntity
  8
GAIKEI
  6
Continuous
 62
     1
100
AcDbLine
 10
31.4403415811147
 20
3.48675910746482
 30
0.0
 11
31.41147151620265
 21
3.470090959944798
 31
0.0
  0
LINE
  5
BF
330
2
100
AcDbEntity
  8
GAIKEI
  6
Continuous
 62
     1
100
AcDbLine
 10
31.51148040132267
 20
3.48675910746482
 30
0.0
 11
31.4403415811147
 21
3.48675910746482
 31
0.0
  0
LINE
  5
C0
330
2
100
AcDbEntity
  8
GAIKEI
  6
Continuous
 62
     1
100
AcDbLine
 10
31.41147151620265
 20
3.371748889576792
 30
0.0
 11
31.51148040132267
 21
3.382999889152813
 31
0.0
  0
LINE
  5
C1
330
2
100
AcDbEntity
  8
GAIKEI
  6
Continuous
 62
     1
100
AcDbLine
 10
31.54481669636272
 20
3.386750222344801
 30
0.0
 11
31.51148040132267
 21
3.382999889152813
 31
0.0
  0
LINE
  5
C2
330
2
100
AcDbEntity
  8
GAIKEI
  6
Continuous
 62
     1
100
AcDbLine
 10
31.54481669636272
 20
3.48675910746482
 30
0.0
 11
31.54481669636272
 21
3.386750222344801
 31
0.0
  0
LINE
  5
C3
330
2
100
AcDbEntity
  8
GAIKEI
  6
Continuous
 62
     1
100
AcDbLine
 10
31.51148040132267
 20
3.48675910746482
 30
0.0
 11
31.54481669636272
 21
3.48675910746482
 31
0.0
  0
LINE
  5
C4
330
2
100
AcDbEntity
  8
GAIKEI
  6
Continuous
 62
     1
100
AcDbLine
 10
31.4448078112427
 20
3.770117615304855
 30
0.0
 11
31.41147151620265
 21
3.803453910344842
 31
0.0
  0
LINE
  5
C5
330
2
100
AcDbEntity
  8
GAIKEI
  6
Continuous
 62
     1
100
AcDbLine
 10
31.41147151620265
 20
3.470090959944798
 30
0.0
 11
31.4448078112427
 21
3.503427254984842
 31
0.0
  0
LINE
  5
C6
330
2
100
AcDbEntity
  8
GAIKEI
  6
Continuous
 62
     1
100
AcDbLine
 10
31.4448078112427
 20
3.503427254984842
 30
0.0
 11
31.4448078112427
 21
3.770117615304855
 31
0.0
  0
LINE
  5
C7
330
2
100
AcDbEntity
  8
GAIKEI
  6
Continuous
 62
     1
100
AcDbLine
 10
31.14478115588264
 20
3.820122057864807
 30
0.0
 11
31.41147151620265
 21
3.820122057864807
 31
0.0
  0
LINE
  5
C8
330
2
100
AcDbEntity
  8
GAIKEI
  6
Continuous
 62
     1
100
AcDbLine
 10
31.41147151620265
 20
3.353413927304814
 30
0.0
 11
31.15225355308849
 21
3.353413927304814
 31
0.0
  0
LINE
  5
C9
330
2
100
AcDbEntity
  8
GAIKEI
  6
Continuous
 62
     1
100
AcDbLine
 10
31.41147151620265
 20
3.820122057864807
 30
0.0
 11
31.41147151620265
 21
3.353413927304814
 31
0.0
  0
LINE
  5
CA
330
2
100
AcDbEntity
  8
GAIKEI
  6
Continuous
 62
     1
100
AcDbLine
 10
28.85452797037186
 20
1.689818261299024
 30
0.0
 11
28.85504438291832
 21
1.689773057282934
 31
0.0
  0
ELLIPSE
  5
CB
330
2
100
AcDbEntity
  8
GAIKEI
  6
Continuous
 62
     7
100
AcDbEllipse
 10
29.2473848397417
 20
25.30531087906536
 30
0.0
 11
-0.2869767173597468
 21
0.0122233693731572
 31
0.0
210
0.0
220
0.0
230
1.0
 40
0.0979550000005576
 41
-0.0556951287901055
 42
0.0307150442121456
  0
ELLIPSE
  5
CC
330
2
100
AcDbEntity
  8
GAIKEI
  6
Continuous
 62
     1
100
AcDbEllipse
 10
29.2473848397417
 20
1.38114503774932
 30
0.0
 11
-0.2001980877510127
 21
0.2902428013319058
 31
0.0
210
0.0
220
0.0
230
1.0
 40
0.7084260000000244
 41
0.7388798675130728
 42
0.8252900405155028
  0
ELLIPSE
  5
CD
330
2
100
AcDbEntity
  8
GAIKEI
  6
Continuous
 62
     1
100
AcDbEllipse
 10
29.2473848397417
 20
25.30531087906536
 30
0.0
 11
0.2001980877512309
 21
0.2902428013316132
 31
0.0
210
0.0
220
0.0
230
1.0
 40
0.7084260000000004
 41
2.316302613075226
 42
2.402712786077776
  0
ELLIPSE
  5
CE
330
2
100
AcDbEntity
  8
GAIKEI
  6
Continuous
 62
     7
100
AcDbEllipse
 10
29.00419683411519
 20
25.29256591342715
 30
0.0
 11
-0.0026170303216906
 21
0.049935913209143
 31
0.0
210
0.0
220
0.0
230
1.0
 40
0.9969939999998402
 41
-0.0000000000786828
 42
1.015719002433118
  0
ELLIPSE
  5
CF
330
2
100
AcDbEntity
  8
GAIKEI
  6
Continuous
 62
     1
100
AcDbEllipse
 10
30.29319696499431
 20
25.27667143464248
 30
0.0
 11
-0.0034917656106537
 21
0.1333451488971089
 31
0.0
210
0.0
220
0.0
230
1.0
 40
0.0261499999999963
 41
0.0006847638988461
 42
1.568742034989258
  0
ELLIPSE
  5
D0
330
2
100
AcDbEntity
  8
GAIKEI
  6
Continuous
 62
     1
100
AcDbEllipse
 10
29.24476780723586
 20
25.30531087906536
 30
0.0
 11
0.1794014869528182
 21
0.2652613547454717
 31
0.0
210
0.0
220
0.0
230
1.0
 40
0.6240159999999813
 41
2.309985920125742
 42
2.396396093127902
  0
ELLIPSE
  5
D1
330
2
100
AcDbEntity
  8
GAIKEI
  6
Continuous
 62
     1
100
AcDbEllipse
 10
29.24476780723586
 20
1.38114503774932
 30
0.0
 11
-0.1794014869538512
 21
0.2652613547436747
 31
0.0
210
0.0
220
0.0
230
1.0
 40
0.6240159999999941
 41
0.7451965604551792
 42
0.8316067334577596
  0
ELLIPSE
  5
D2
330
2
100
AcDbEntity
  8
GAIKEI
  6
Continuous
 62
     1
100
AcDbEllipse
 10
27.7453275705202
 20
25.27595476797581
 30
0.0
 11
2.544377609282683
 21
0.0
 31
0.0
210
0.0
220
0.0
230
1.0
 40
0.052408
 41
0.0
 42
0.0013695278703807
  0
ARC
  5
D3
330
2
100
AcDbEntity
  8
GAIKEI
  6
Continuous
 62
     7
100
AcDbCircle
 10
28.89138094451192
 20
25.14540783941732
 30
0.0
 40
0.0333362950400013
100
AcDbArc
 50
147.9140249999927
 51
180.0
  0
ARC
  5
D4
330
2
100
AcDbEntity
  8
GAIKEI
  6
Continuous
 62
     7
100
AcDbCircle
 10
28.89138094451192
 20
1.541048077397306
 30
0.0
 40
0.0333362950400013
100
AcDbArc
 50
180.0
 51
212.0859750000072
  0
ARC
  5
D5
330
2
100
AcDbEntity
  8
GAIKEI
  6
Continuous
 62
     7
100
AcDbCircle
 10
29.00328611987101
 20
25.29251820918893
 30
0.0
 40
0.0500044425600019
100
AcDbArc
 50
93.00000000000038
 51
147.9140249999927
  0
ARC
  5
D6
330
2
100
AcDbEntity
  8
GAIKEI
  6
Continuous
 62
     7
100
AcDbCircle
 10
29.00328611987101
 20
1.393937707625696
 30
0.0
 40
0.0500044425600019
100
AcDbArc
 50
212.0859750000072
 51
266.9999999999996
  0
ARC
  5
D7
330
2
100
AcDbEntity
  8
GAIKEI
  6
Continuous
 62
     7
100
AcDbCircle
 10
30.32470829789867
 20
1.30977559705218
 30
0.0
 40
0.0333362950400013
100
AcDbArc
 50
270.0
 51
0.0
  0
ARC
  5
D8
330
2
100
AcDbEntity
  8
GAIKEI
  6
Continuous
 62
     7
100
AcDbCircle
 10
30.32470829789867
 20
25.37668031976244
 30
0.0
 40
0.0333362950400013
100
AcDbArc
 50
0.0
 51
90.0
  0
LINE
  5
D9
330
2
100
AcDbEntity
  8
GAIKEI
  6
Continuous
 62
     7
100
AcDbLine
 10
28.85804464947188
 20
25.14540783941732
 30
0.0
 11
28.85804464947188
 21
1.541048077397306
 31
0.0
  0
LINE
  5
DA
330
2
100
AcDbEntity
  8
GAIKEI
  6
Continuous
 62
     7
100
AcDbLine
 10
29.00157980160935
 20
25.34250184990083
 30
0.0
 11
29.00066908736517
 21
25.34245411232632
 31
0.0
  0
LINE
  5
DB
330
2
100
AcDbEntity
  8
GAIKEI
  6
Continuous
 62
     7
100
AcDbLine
 10
29.00066908736517
 20
1.3440018044883
 30
0.0
 11
29.00157980160935
 21
1.343954066913795
 31
0.0
  0
LINE
  5
DC
330
2
100
AcDbEntity
  8
GAIKEI
  6
Continuous
 62
     7
100
AcDbLine
 10
28.96091975590315
 20
1.367375814445949
 30
0.0
 11
28.86313670186666
 21
1.523340104162457
 31
0.0
  0
LINE
  5
DD
330
2
100
AcDbEntity
  8
GAIKEI
  6
Continuous
 62
     1
100
AcDbLine
 10
28.85804464947188
 20
1.664271543563359
 30
0.0
 11
28.96091975590315
 21
1.500185413689848
 31
0.0
  0
LINE
  5
DE
330
2
100
AcDbEntity
  8
GAIKEI
  6
Continuous
 62
     1
100
AcDbLine
 10
28.96091975590315
 20
25.18627050312478
 30
0.0
 11
28.85804464947188
 21
25.02218437325126
 31
0.0
  0
LINE
  5
DF
330
2
100
AcDbEntity
  8
GAIKEI
  6
Continuous
 62
     7
100
AcDbLine
 10
28.86313670186666
 20
25.16311581265223
 30
0.0
 11
28.96091975590315
 21
25.31908010236867
 31
0.0
  0
LINE
  5
E0
330
2
100
AcDbEntity
  8
GAIKEI
  6
Continuous
 62
     1
100
AcDbLine
 10
28.96091975590315
 20
1.500185413689848
 30
0.0
 11
28.96091975590315
 21
25.18627050312478
 31
0.0
  0
LINE
  5
E1
330
2
100
AcDbEntity
  8
GAIKEI
  6
Continuous
 62
     7
100
AcDbLine
 10
29.00157980160935
 20
25.34250184990083
 30
0.0
 11
30.28970278789342
 21
25.41001648145726
 31
0.0
  0
LINE
  5
E2
330
2
100
AcDbEntity
  8
GAIKEI
  6
Continuous
 62
     7
100
AcDbLine
 10
30.28970278789342
 20
1.27643943535736
 30
0.0
 11
29.00157980160935
 21
1.343954066913795
 31
0.0
  0
LINE
  5
E3
330
2
100
AcDbEntity
  8
GAIKEI
  6
Continuous
 62
     7
100
AcDbLine
 10
30.32470829789867
 20
1.276439302012192
 30
0.0
 11
30.28970518810667
 21
1.276439302012192
 31
0.0
  0
LINE
  5
E4
330
2
100
AcDbEntity
  8
GAIKEI
  6
Continuous
 62
     7
100
AcDbLine
 10
30.3580445929386
 20
1.409784482172199
 30
0.0
 11
30.3580445929386
 21
1.30977559705218
 31
0.0
  0
LINE
  5
E5
330
2
100
AcDbEntity
  8
GAIKEI
  6
Continuous
 62
     7
100
AcDbLine
 10
30.28970518810667
 20
25.41001661480243
 30
0.0
 11
30.32470829789867
 21
25.41001661480243
 31
0.0
  0
LINE
  5
E6
330
2
100
AcDbEntity
  8
GAIKEI
  6
Continuous
 62
     7
100
AcDbLine
 10
30.28970518810667
 20
25.41001661480243
 30
0.0
 11
30.28970278789342
 21
25.41001648145726
 31
0.0
  0
LINE
  5
E7
330
2
100
AcDbEntity
  8
GAIKEI
  6
Continuous
 62
     1
100
AcDbLine
 10
30.3580445929386
 20
1.409784482172199
 30
0.0
 11
30.32470829789867
 21
1.409784482172199
 31
0.0
  0
LINE
  5
E8
330
2
100
AcDbEntity
  8
GAIKEI
  6
Continuous
 62
     7
100
AcDbLine
 10
30.3580445929386
 20
1.409784482172199
 30
0.0
 11
30.3580445929386
 21
25.37668031976244
 31
0.0
  0
LINE
  5
E9
330
2
100
AcDbEntity
  8
GAIKEI
  6
Continuous
 62
     1
100
AcDbLine
 10
30.28970518810667
 20
1.409784482172199
 30
0.0
 11
30.32470829789867
 21
1.409784482172199
 31
0.0
  0
LINE
  5
EA
330
2
100
AcDbEntity
  8
GAIKEI
  6
Continuous
 62
     1
100
AcDbLine
 10
30.28970278789342
 20
25.27685405086663
 30
0.0
 11
29.00157980160935
 21
25.20933938597392
 31
0.0
  0
LINE
  5
EB
330
2
100
AcDbEntity
  8
GAIKEI
  6
Continuous
 62
     1
100
AcDbLine
 10
29.00066908736517
 20
25.18627050312478
 30
0.0
 11
29.00066908736517
 21
1.500185413689848
 31
0.0
  0
LINE
  5
EC
330
2
100
AcDbEntity
  8
GAIKEI
  6
Continuous
 62
     1
100
AcDbLine
 10
28.96041702521364
 20
1.479273780925211
 30
0.0
 11
30.28970278789342
 21
1.40960186594799
 31
0.0
  0
LINE
  5
ED
330
2
100
AcDbEntity
  8
GAIKEI
  6
Continuous
 62
     1
100
AcDbLine
 10
30.28970518810667
 20
25.27667143464242
 30
0.0
 11
30.28970518810667
 21
1.276439302012192
 31
0.0
  0
ARC
  5
EE
330
2
100
AcDbEntity
  8
GAIKEI
  6
Continuous
 62
     1
100
AcDbCircle
 10
30.13302460141864
 20
2.929919535996248
 30
0.0
 40
0.3000266553600113
100
AcDbArc
 50
0.0
 51
16.60155000000209
  0
ARC
  5
EF
330
2
100
AcDbEntity
  8
GAIKEI
  6
Continuous
 62
     1
100
AcDbCircle
 10
30.13302460141864
 20
2.929919535996248
 30
0.0
 40
0.3000266553600113
100
AcDbArc
 50
343.3984499999979
 51
0.0
  0
ARC
  5
F0
330
2
100
AcDbEntity
  8
GAIKEI
  6
Continuous
 62
     1
100
AcDbCircle
 10
30.37901392258988
 20
2.856579686908276
 30
0.0
 40
0.0433371835520016
100
AcDbArc
 50
270.0
 51
343.3984499999979
  0
ARC
  5
F1
330
2
100
AcDbEntity
  8
GAIKEI
  6
Continuous
 62
     1
100
AcDbCircle
 10
30.37901392258988
 20
3.003259385084277
 30
0.0
 40
0.0433371835520016
100
AcDbArc
 50
16.60155000000209
 51
90.0
  0
LINE
  5
F2
330
2
100
AcDbEntity
  8
GAIKEI
  6
Continuous
 62
     1
100
AcDbLine
 10
30.3580445929386
 20
2.813242503356264
 30
0.0
 11
30.37901392258988
 21
2.813242503356264
 31
0.0
  0
LINE
  5
F3
330
2
100
AcDbEntity
  8
GAIKEI
  6
Continuous
 62
     1
100
AcDbLine
 10
30.37901392258988
 20
3.046596568636289
 30
0.0
 11
30.3580445929386
 21
3.046596568636289
 31
0.0
  0
ELLIPSE
  5
F4
330
2
100
AcDbEntity
  8
GAIKEI
  6
Continuous
 62
     1
100
AcDbEllipse
 10
31.0453945593822
 20
2.420315961129858
 30
0.0
 11
-0.0174468687851453
 21
0.3329060880623922
 31
0.0
210
0.0
220
0.0
230
1.0
 40
0.765609999999989
 41
3.141592653589826
 42
4.672286563984031
  0
ELLIPSE
  5
F5
330
2
100
AcDbEntity
  8
GAIKEI
  6
Continuous
 62
     1
100
AcDbEllipse
 10
31.61315610119471
 20
7.136959970044472
 30
0.0
 11
0.0
 21
0.2166859177600031
 31
0.0
210
0.0
220
0.0
230
1.0
 40
0.1391730000000056
 41
3.141592653589793
 42
6.283185307179586
  0
ELLIPSE
  5
F6
330
2
100
AcDbEntity
  8
GAIKEI
  6
Continuous
 62
     1
100
AcDbEllipse
 10
31.61315610119471
 20
19.48949061569823
 30
0.0
 11
0.0
 21
0.2166859177600031
 31
0.0
210
0.0
220
0.0
230
1.0
 40
0.1391730000000056
 41
3.141592653589793
 42
6.283185307179586
  0
ELLIPSE
  5
F7
330
2
100
AcDbEntity
  8
GAIKEI
  6
Continuous
 62
     7
100
AcDbEllipse
 10
31.04958096464964
 20
4.515484405817119
 30
0.0
 11
-0.2142815740456751
 21
0.2553708356956748
 31
0.0
210
0.0
220
0.0
230
1.0
 40
0.160711
 41
3.141592653589792
 42
3.14434683352869
  0
ARC
  5
F8
330
2
100
AcDbEntity
  8
GAIKEI
  6
Continuous
 62
     1
100
AcDbCircle
 10
31.99318986465068
 20
4.653787990169178
 30
0.0
 40
0.1666814752000063
100
AcDbArc
 50
131.5352399999965
 51
178.4006089999968
  0
ARC
  5
F9
330
2
100
AcDbEntity
  8
GAIKEI
  6
Continuous
 62
     1
100
AcDbCircle
 10
31.99318986465068
 20
4.653787990169178
 30
0.0
 40
0.1666814752000063
100
AcDbArc
 50
178.4006089999968
 51
179.1867999999953
  0
ARC
  5
FA
330
2
100
AcDbEntity
  8
GAIKEI
  6
Continuous
 62
     7
100
AcDbCircle
 10
31.84484335172266
 20
4.964484893509336
 30
0.0
 40
0.1666814752000063
100
AcDbArc
 50
309.9999999999982
 51
0.0
  0
ARC
  5
FB
330
2
100
AcDbEntity
  8
GAIKEI
  6
Continuous
 62
     1
100
AcDbCircle
 10
31.49314543905069
 20
2.443781579226254
 30
0.0
 40
0.3333629504000126
100
AcDbArc
 50
273.0000000000004
 51
0.0
  0
ARC
  5
FC
330
2
100
AcDbEntity
  8
GAIKEI
  6
Continuous
 62
     1
100
AcDbCircle
 10
31.99318986465068
 20
4.653787990169178
 30
0.0
 40
0.1666814752000063
100
AcDbArc
 50
179.1867999999953
 51
180.0
  0
ARC
  5
FD
330
2
100
AcDbEntity
  8
GAIKEI
  6
Continuous
 62
     7
100
AcDbCircle
 10
31.39933410454154
 20
24.22872396485781
 30
0.0
 40
0.1666814752000063
100
AcDbArc
 50
7.999999999998316
 51
77.99999999999899
  0
ARC
  5
FE
330
2
100
AcDbEntity
  8
GAIKEI
  6
Continuous
 62
     1
100
AcDbCircle
 10
30.49511710424707
 20
2.053674920860942
 30
0.0
 40
0.1666814752000063
100
AcDbArc
 50
285.0000000000029
 51
314.9999999999928
  0
ARC
  5
FF
330
2
100
AcDbEntity
  8
GAIKEI
  6
Continuous
 62
     1
100
AcDbCircle
 10
30.82069802993294
 20
1.907809461691272
 30
0.0
 40
0.1666814752000063
100
AcDbArc
 50
133.2988929999936
 51
134.9999999999928
  0
ARC
  5
100
330
2
100
AcDbEntity
  8
GAIKEI
  6
Continuous
 62
     1
100
AcDbCircle
 10
30.43305125677864
 20
1.691921714843431
 30
0.0
 40
0.1666814752000063
100
AcDbArc
 50
105.0000000000029
 51
116.7436839999979
  0
ARC
  5
101
330
2
100
AcDbEntity
  8
GAIKEI
  6
Continuous
 62
     1
100
AcDbCircle
 10
31.03477138225065
 20
3.553308253244267
 30
0.0
 40
0.2300204357760087
100
AcDbArc
 50
298.5718781421423
 51
0.0
  0
ARC
  5
102
330
2
100
AcDbEntity
  8
GAIKEI
  6
Continuous
 62
     1
100
AcDbCircle
 10
31.03477138225065
 20
3.553308253244267
 30
0.0
 40
0.2300204357760087
100
AcDbArc
 50
0.0
 51
61.42812185785762
  0
ARC
  5
103
330
2
100
AcDbEntity
  8
GAIKEI
  6
Continuous
 62
     7
100
AcDbCircle
 10
30.91142709060267
 20
2.313148873384761
 30
0.0
 40
0.2333540652800088
100
AcDbArc
 50
273.0000000000004
 51
0.0
  0
ARC
  5
104
330
2
100
AcDbEntity
  8
GAIKEI
  6
Continuous
 62
     7
100
AcDbCircle
 10
31.47814410628269
 20
4.004026063171352
 30
0.0
 40
0.3333629504000126
100
AcDbArc
 50
130.5742470000073
 51
180.0
  0
LINE
  5
105
330
2
100
AcDbEntity
  8
GAIKEI
  6
Continuous
 62
     1
100
AcDbLine
 10
32.01152482692271
 20
7.838420723470278
 30
0.0
 11
32.01152482692271
 21
5.295824164118926
 31
0.0
  0
LINE
  5
106
330
2
100
AcDbEntity
  8
GAIKEI
  6
Continuous
 62
     1
100
AcDbLine
 10
32.01152482692271
 20
4.964484893509336
 30
0.0
 11
32.01152482692271
 21
5.295824164118926
 31
0.0
  0
LINE
  5
107
330
2
100
AcDbEntity
  8
GAIKEI
  6
Continuous
 62
     1
100
AcDbLine
 10
32.01152482692271
 20
20.01751552717712
 30
0.0
 11
32.01152482692271
 21
19.39483753973934
 31
0.0
  0
LINE
  5
108
330
2
100
AcDbEntity
  8
GAIKEI
  6
Continuous
 62
     7
100
AcDbLine
 10
31.60805551470839
 20
23.94124975803214
 30
0.0
 11
32.01152482692271
 21
21.07041643704173
 31
0.0
  0
LINE
  5
109
330
2
100
AcDbEntity
  8
GAIKEI
  6
Continuous
 62
     7
100
AcDbLine
 10
31.60805551470839
 20
23.94124975803214
 30
0.0
 11
32.01152482692271
 21
21.07041643704173
 31
0.0
  0
LINE
  5
10A
330
2
100
AcDbEntity
  8
GAIKEI
  6
Continuous
 62
     7
100
AcDbLine
 10
31.60805551470839
 20
23.94124975803214
 30
0.0
 11
32.01152482692271
 21
21.07041643704173
 31
0.0
  0
LINE
  5
10B
330
2
100
AcDbEntity
  8
GAIKEI
  6
Continuous
 62
     7
100
AcDbLine
 10
32.01152482692271
 20
21.07041643704173
 30
0.0
 11
32.01152482692271
 21
4.964484893509336
 31
0.0
  0
LINE
  5
10C
330
2
100
AcDbEntity
  8
GAIKEI
  6
Continuous
 62
     1
100
AcDbLine
 10
31.82650838945068
 20
2.443781579226254
 30
0.0
 11
31.82650838945068
 21
4.653787990169178
 31
0.0
  0
LINE
  5
10D
330
2
100
AcDbEntity
  8
GAIKEI
  6
Continuous
 62
     1
100
AcDbLine
 10
30.93556927148365
 20
2.080739794929968
 30
0.0
 11
31.51059230783585
 21
2.11087550364499
 31
0.0
  0
LINE
  5
10E
330
2
100
AcDbEntity
  8
GAIKEI
  6
Continuous
 62
     1
100
AcDbLine
 10
31.30076538070358
 20
3.820122057864807
 30
0.0
 11
31.30076538070358
 21
3.959022798265834
 31
0.0
  0
LINE
  5
10F
330
2
100
AcDbEntity
  8
GAIKEI
  6
Continuous
 62
     1
100
AcDbLine
 10
31.30076538070358
 20
2.420315961129801
 30
0.0
 11
31.30076538070358
 21
3.353413927304814
 31
0.0
  0
LINE
  5
110
330
2
100
AcDbEntity
  8
GAIKEI
  6
Continuous
 62
     1
100
AcDbLine
 10
31.30076538070358
 20
3.959022798265834
 30
0.0
 11
31.67052416462974
 21
4.269287229850419
 31
0.0
  0
LINE
  5
111
330
2
100
AcDbEntity
  8
GAIKEI
  6
Continuous
 62
     7
100
AcDbLine
 10
31.2638625354661
 20
4.259396884492787
 30
0.0
 11
31.25613674908169
 21
4.252217213293704
 31
0.0
  0
LINE
  5
112
330
2
100
AcDbEntity
  8
GAIKEI
  6
Continuous
 62
     7
100
AcDbLine
 10
32.01152482692271
 20
21.07041643704173
 30
0.0
 11
31.77702169288892
 21
22.73899287888946
 31
0.0
  0
LINE
  5
113
330
2
100
AcDbEntity
  8
GAIKEI
  6
Continuous
 62
     7
100
AcDbLine
 10
31.77702169288892
 20
22.73899287888946
 30
0.0
 11
31.56439344708287
 21
24.25192154263397
 31
0.0
  0
LINE
  5
114
330
2
100
AcDbEntity
  8
GAIKEI
  6
Continuous
 62
     1
100
AcDbLine
 10
30.61297867545869
 20
1.935813316312987
 30
0.0
 11
30.70283642538499
 21
2.025671066239226
 31
0.0
  0
LINE
  5
115
330
2
100
AcDbEntity
  8
GAIKEI
  6
Continuous
 62
     1
100
AcDbLine
 10
30.38991092404882
 20
1.852923652121148
 30
0.0
 11
30.53825743697684
 21
1.892672983583224
 31
0.0
  0
LINE
  5
116
330
2
100
AcDbEntity
  8
GAIKEI
  6
Continuous
 62
     7
100
AcDbLine
 10
31.43398913187838
 20
24.39176304991145
 30
0.0
 11
30.3580445929386
 21
24.62046210319698
 31
0.0
  0
LINE
  5
117
330
2
100
AcDbEntity
  8
GAIKEI
  6
Continuous
 62
     7
100
AcDbLine
 10
31.52786209005939
 20
4.480918831901647
 30
0.0
 11
31.95198413713098
 21
4.836799482848618
 31
0.0
  0
LINE
  5
118
330
2
100
AcDbEntity
  8
GAIKEI
  6
Continuous
 62
     1
100
AcDbLine
 10
31.58973692055724
 20
6.920274052284412
 30
0.0
 11
31.61315610119465
 21
6.920274052284412
 31
0.0
  0
LINE
  5
119
330
2
100
AcDbEntity
  8
GAIKEI
  6
Continuous
 62
     1
100
AcDbLine
 10
31.61315610119465
 20
7.353645887804418
 30
0.0
 11
31.58973692055724
 21
7.353645887804418
 31
0.0
  0
LINE
  5
11A
330
2
100
AcDbEntity
  8
GAIKEI
  6
Continuous
 62
     1
100
AcDbLine
 10
31.61315610119465
 20
19.70617653345823
 30
0.0
 11
31.58973692055724
 21
19.70617653345823
 31
0.0
  0
LINE
  5
11B
330
2
100
AcDbEntity
  8
GAIKEI
  6
Continuous
 62
     1
100
AcDbLine
 10
31.58973692055724
 20
19.27280469793823
 30
0.0
 11
31.61315610119465
 21
19.27280469793823
 31
0.0
  0
LINE
  5
11C
330
2
100
AcDbEntity
  8
GAIKEI
  6
Continuous
 62
     7
100
AcDbLine
 10
31.14478115588264
 20
2.313148873384761
 30
0.0
 11
31.14478115588264
 21
2.493159266103191
 31
0.0
  0
LINE
  5
11D
330
2
100
AcDbEntity
  8
GAIKEI
  6
Continuous
 62
     1
100
AcDbLine
 10
31.45933260167311
 20
6.920274052284412
 30
0.0
 11
31.58973692055724
 21
6.920274052284412
 31
0.0
  0
LINE
  5
11E
330
2
100
AcDbEntity
  8
GAIKEI
  6
Continuous
 62
     1
100
AcDbLine
 10
31.58973692055724
 20
7.353645887804418
 30
0.0
 11
31.45933260167311
 21
7.353645887804418
 31
0.0
  0
LINE
  5
11F
330
2
100
AcDbEntity
  8
GAIKEI
  6
Continuous
 62
     1
100
AcDbLine
 10
31.58973692055724
 20
19.70617653345823
 30
0.0
 11
31.45933260167311
 21
19.70617653345823
 31
0.0
  0
LINE
  5
120
330
2
100
AcDbEntity
  8
GAIKEI
  6
Continuous
 62
     1
100
AcDbLine
 10
31.45933260167311
 20
19.27280469793823
 30
0.0
 11
31.58973692055724
 21
19.27280469793823
 31
0.0
  0
LINE
  5
121
330
2
100
AcDbEntity
  8
GAIKEI
  6
Continuous
 62
     1
100
AcDbLine
 10
31.56439343562494
 20
7.353645887804418
 30
0.0
 11
31.56439343562494
 21
19.27280469793823
 31
0.0
  0
LINE
  5
122
330
2
100
AcDbEntity
  8
GAIKEI
  6
Continuous
 62
     1
100
AcDbLine
 10
31.56439343562494
 20
19.70617653345823
 30
0.0
 11
31.56439343562494
 21
20.79719020039767
 31
0.0
  0
LINE
  5
123
330
2
100
AcDbEntity
  8
GAIKEI
  6
Continuous
 62
     1
100
AcDbLine
 10
31.56439343562494
 20
4.511572270291821
 30
0.0
 11
31.56439343562494
 21
6.920274052284412
 31
0.0
  0
LINE
  5
124
330
2
100
AcDbEntity
  8
GAIKEI
  6
Continuous
 62
     7
100
AcDbLine
 10
31.2638625354661
 20
4.259396884492787
 30
0.0
 11
31.52786209005939
 21
4.480918831901647
 31
0.0
  0
LINE
  5
125
330
2
100
AcDbEntity
  8
GAIKEI
  6
Continuous
 62
     7
100
AcDbLine
 10
31.14478115588264
 20
2.493159266103191
 30
0.0
 11
31.14478115588264
 21
4.004026063171352
 31
0.0
  0
LINE
  5
126
330
2
100
AcDbEntity
  8
GAIKEI
  6
Continuous
 62
     7
100
AcDbLine
 10
31.26131180885113
 20
4.25730649877596
 30
0.0
 11
31.26378686207642
 21
4.259464090463552
 31
0.0
  0
LINE
  5
127
330
2
100
AcDbEntity
  8
GAIKEI
  6
Continuous
 62
     7
100
AcDbLine
 10
30.3580445929386
 20
2.050473019193532
 30
0.0
 11
30.9237460578164
 21
2.080120199549355
 31
0.0
  0
LINE
  5
128
330
2
100
AcDbEntity
  8
GAIKEI
  6
Continuous
 62
     1
100
AcDbLine
 10
31.43398911674075
 20
6.920274052284412
 30
0.0
 11
31.43398911674075
 21
4.779166462540558
 31
0.0
  0
LINE
  5
129
330
2
100
AcDbEntity
  8
GAIKEI
  6
Continuous
 62
     1
100
AcDbLine
 10
31.43398911674075
 20
6.920274052284412
 30
0.0
 11
31.45933260167311
 21
6.920274052284412
 31
0.0
  0
LINE
  5
12A
330
2
100
AcDbEntity
  8
GAIKEI
  6
Continuous
 62
     1
100
AcDbLine
 10
31.45933260167311
 20
7.353645887804418
 30
0.0
 11
31.45933260167311
 21
6.920274052284412
 31
0.0
  0
LINE
  5
12B
330
2
100
AcDbEntity
  8
GAIKEI
  6
Continuous
 62
     1
100
AcDbLine
 10
31.45933260167311
 20
7.353645887804418
 30
0.0
 11
31.43398911674075
 21
7.353645887804418
 31
0.0
  0
LINE
  5
12C
330
2
100
AcDbEntity
  8
GAIKEI
  6
Continuous
 62
     1
100
AcDbLine
 10
31.43398911674075
 20
19.27280469793823
 30
0.0
 11
31.43398911674075
 21
7.353645887804418
 31
0.0
  0
LINE
  5
12D
330
2
100
AcDbEntity
  8
GAIKEI
  6
Continuous
 62
     1
100
AcDbLine
 10
31.43398911674075
 20
19.27280469793823
 30
0.0
 11
31.45933260167311
 21
19.27280469793823
 31
0.0
  0
LINE
  5
12E
330
2
100
AcDbEntity
  8
GAIKEI
  6
Continuous
 62
     1
100
AcDbLine
 10
31.45933260167311
 20
19.70617653345823
 30
0.0
 11
31.45933260167311
 21
19.27280469793823
 31
0.0
  0
LINE
  5
12F
330
2
100
AcDbEntity
  8
GAIKEI
  6
Continuous
 62
     1
100
AcDbLine
 10
31.45933260167311
 20
19.70617653345823
 30
0.0
 11
31.43398911674075
 21
19.70617653345823
 31
0.0
  0
LINE
  5
130
330
2
100
AcDbEntity
  8
GAIKEI
  6
Continuous
 62
     1
100
AcDbLine
 10
31.43398911674075
 20
20.52964323703372
 30
0.0
 11
31.43398911674075
 21
19.70617653345823
 31
0.0
  0
LINE
  5
131
330
2
100
AcDbEntity
  8
GAIKEI
  6
Continuous
 62
     1
100
AcDbLine
 10
30.3580445929386
 20
20.02953859534625
 30
0.0
 11
30.44840068713944
 21
20.02953859534625
 31
0.0
  0
LINE
  5
132
330
2
100
AcDbEntity
  8
GAIKEI
  6
Continuous
 62
     1
100
AcDbLine
 10
30.44840068713944
 20
19.16279492430618
 30
0.0
 11
30.3580445929386
 21
19.16279492430618
 31
0.0
  0
LINE
  5
133
330
2
100
AcDbEntity
  8
GAIKEI
  6
Continuous
 62
     1
100
AcDbLine
 10
30.44840068713944
 20
19.16279492430618
 30
0.0
 11
30.44840068713944
 21
20.02953859534625
 31
0.0
  0
LINE
  5
134
330
2
100
AcDbEntity
  8
GAIKEI
  6
Continuous
 62
     1
100
AcDbLine
 10
30.44840068713944
 20
6.793596131132403
 30
0.0
 11
30.3580445929386
 21
6.793596131132403
 31
0.0
  0
LINE
  5
135
330
2
100
AcDbEntity
  8
GAIKEI
  6
Continuous
 62
     1
100
AcDbLine
 10
30.3580445929386
 20
7.660339802172472
 30
0.0
 11
30.44840068713944
 21
7.660339802172472
 31
0.0
  0
LINE
  5
136
330
2
100
AcDbEntity
  8
GAIKEI
  6
Continuous
 62
     1
100
AcDbLine
 10
30.44840068713944
 20
6.793596131132403
 30
0.0
 11
30.44840068713944
 21
7.660339802172472
 31
0.0
  0
ELLIPSE
  5
137
330
2
100
AcDbEntity
  8
GAIKEI
  6
Continuous
 62
     1
100
AcDbEllipse
 10
30.44123321702438
 20
20.77327640480553
 30
0.0
 11
-0.023564856710522
 21
0.023564856710522
 31
0.0
210
0.0
220
0.0
230
1.0
 40
0.9990757796463732
 41
0.7858604317907339
 42
0.8903589325719298
  0
LINE
  5
138
330
2
100
AcDbEntity
  8
GAIKEI
  6
Continuous
 62
     1
100
AcDbLine
 10
30.40728766785623
 20
20.77197285566058
 30
0.0
 11
30.40790198910122
 21
20.77327640480553
 31
0.0
  0
LINE
  5
139
330
2
100
AcDbEntity
  8
GAIKEI
  6
Continuous
 62
     1
100
AcDbLine
 10
30.40028667919859
 20
20.81090528121263
 30
0.0
 11
30.40133913936927
 21
20.80127392553112
 31
0.0
  0
LINE
  5
13A
330
2
100
AcDbEntity
  8
GAIKEI
  6
Continuous
 62
     1
100
AcDbLine
 10
31.45453117509845
 20
22.64097490398183
 30
0.0
 11
31.45328953145344
 21
22.6591172491411
 31
0.0
  0
LINE
  5
13B
330
2
100
AcDbEntity
  8
GAIKEI
  6
Continuous
 62
     1
100
AcDbLine
 10
31.36901157725464
 20
24.39798063551336
 30
0.0
 11
31.36911698661953
 21
24.39847257921929
 31
0.0
  0
LINE
  5
13C
330
2
100
AcDbEntity
  8
GAIKEI
  6
Continuous
 62
     1
100
AcDbLine
 10
31.36896120611283
 20
24.39774561463333
 30
0.0
 11
31.36901157725464
 21
24.39798063551336
 31
0.0
  0
LINE
  5
13D
330
2
100
AcDbEntity
  8
GAIKEI
  6
Continuous
 62
     1
100
AcDbLine
 10
31.45328953145344
 20
22.24372361086353
 30
0.0
 11
31.45453117509845
 21
22.2618659560228
 31
0.0
  0
LINE
  5
13E
330
2
100
AcDbEntity
  8
GAIKEI
  6
Continuous
 62
     1
100
AcDbLine
 10
31.36901157725464
 20
20.50486022449127
 30
0.0
 11
31.36911698661953
 21
20.50436828078535
 31
0.0
  0
LINE
  5
13F
330
2
100
AcDbEntity
  8
GAIKEI
  6
Continuous
 62
     1
100
AcDbLine
 10
31.36896120611283
 20
20.50509524537131
 30
0.0
 11
31.36901157725464
 21
20.50486022449127
 31
0.0
  0
LINE
  5
140
330
2
100
AcDbEntity
  8
GAIKEI
  6
Continuous
 62
     1
100
AcDbLine
 10
31.55058510884754
 20
20.70047663703343
 30
0.0
 11
31.55108351979464
 21
20.70040809761082
 31
0.0
  0
LINE
  5
141
330
2
100
AcDbEntity
  8
GAIKEI
  6
Continuous
 62
     1
100
AcDbLine
 10
31.55034702102836
 20
20.70050937327517
 30
0.0
 11
31.55058510884754
 21
20.70047663703343
 31
0.0
  0
LINE
  5
142
330
2
100
AcDbEntity
  8
GAIKEI
  6
Continuous
 62
     1
100
AcDbLine
 10
30.35880419375741
 20
24.54678202218719
 30
0.0
 11
30.3580445929386
 21
24.54678202218719
 31
0.0
  0
LINE
  5
143
330
2
100
AcDbEntity
  8
GAIKEI
  6
Continuous
 62
     1
100
AcDbLine
 10
30.3580445929386
 20
20.35605883781745
 30
0.0
 11
30.35880419375741
 21
20.35605883781745
 31
0.0
  0
LINE
  5
144
330
2
100
AcDbEntity
  8
GAIKEI
  6
Continuous
 62
     1
100
AcDbLine
 10
30.35880419375741
 20
20.35605883781745
 30
0.0
 11
31.35514714549271
 21
20.56956090604706
 31
0.0
  0
LINE
  5
145
330
2
100
AcDbEntity
  8
GAIKEI
  6
Continuous
 62
     1
100
AcDbLine
 10
30.3580445929386
 20
20.28770992270893
 30
0.0
 11
31.36911698661953
 21
20.50436828078535
 31
0.0
  0
LINE
  5
146
330
2
100
AcDbEntity
  8
GAIKEI
  6
Continuous
 62
     1
100
AcDbLine
 10
31.45453117509845
 20
22.2618659560228
 30
0.0
 11
31.45453117509845
 21
22.64097490398183
 31
0.0
  0
LINE
  5
147
330
2
100
AcDbEntity
  8
GAIKEI
  6
Continuous
 62
     1
100
AcDbLine
 10
31.26791342869422
 20
24.00706613871034
 30
0.0
 11
31.26337809242665
 21
24.04004466863199
 31
0.0
  0
LINE
  5
148
330
2
100
AcDbEntity
  8
GAIKEI
  6
Continuous
 62
     1
100
AcDbLine
 10
31.37477542266708
 20
23.24417319411219
 30
0.0
 11
31.27897327795444
 21
23.94079145064797
 31
0.0
  0
LINE
  5
149
330
2
100
AcDbEntity
  8
GAIKEI
  6
Continuous
 62
     1
100
AcDbLine
 10
31.45328953145344
 20
22.6591172491411
 30
0.0
 11
31.38204103483474
 21
23.1771955769326
 31
0.0
  0
LINE
  5
14A
330
2
100
AcDbEntity
  8
GAIKEI
  6
Continuous
 62
     1
100
AcDbLine
 10
31.35514714549271
 20
24.33327995395757
 30
0.0
 11
30.35880419375741
 21
24.54678202218719
 31
0.0
  0
LINE
  5
14B
330
2
100
AcDbEntity
  8
GAIKEI
  6
Continuous
 62
     1
100
AcDbLine
 10
31.26337809242665
 20
20.86279619137264
 30
0.0
 11
31.26791342869422
 21
20.89577472129429
 31
0.0
  0
LINE
  5
14C
330
2
100
AcDbEntity
  8
GAIKEI
  6
Continuous
 62
     1
100
AcDbLine
 10
31.3918978105433
 20
21.79731831740804
 30
0.0
 11
31.45328953145344
 21
22.24372361086353
 31
0.0
  0
LINE
  5
14D
330
2
100
AcDbEntity
  8
GAIKEI
  6
Continuous
 62
     1
100
AcDbLine
 10
31.27897327795444
 20
20.96204940935667
 30
0.0
 11
31.38463219837564
 21
21.7303407002284
 31
0.0
  0
LINE
  5
14E
330
2
100
AcDbEntity
  8
GAIKEI
  6
Continuous
 62
     1
100
AcDbLine
 10
31.69500547296349
 20
22.30002177924564
 30
0.0
 11
31.69500547296349
 21
22.60281908075899
 31
0.0
  0
LINE
  5
14F
330
2
100
AcDbEntity
  8
GAIKEI
  6
Continuous
 62
     1
100
AcDbLine
 10
31.68632306825663
 20
22.72968001817077
 30
0.0
 11
31.48503261828086
 21
24.1933491553761
 31
0.0
  0
LINE
  5
150
330
2
100
AcDbEntity
  8
GAIKEI
  6
Continuous
 62
     1
100
AcDbLine
 10
31.48503261828086
 20
20.70949170462853
 30
0.0
 11
31.68632306825663
 21
22.17316084183386
 31
0.0
  0
LINE
  5
151
330
2
100
AcDbEntity
  8
GAIKEI
  6
Continuous
 62
     1
100
AcDbLine
 10
31.55108351979464
 20
20.70040809761082
 30
0.0
 11
31.80452548369607
 21
22.54329324531596
 31
0.0
  0
LINE
  5
152
330
2
100
AcDbEntity
  8
GAIKEI
  6
Continuous
 62
     1
100
AcDbLine
 10
30.40028667919859
 20
24.09193557879201
 30
0.0
 11
30.3580445929386
 21
24.09193557879201
 31
0.0
  0
LINE
  5
153
330
2
100
AcDbEntity
  8
GAIKEI
  6
Continuous
 62
     1
100
AcDbLine
 10
30.3580445929386
 20
20.81090528121263
 30
0.0
 11
30.40028667919859
 21
20.81090528121263
 31
0.0
  0
LINE
  5
154
330
2
100
AcDbEntity
  8
GAIKEI
  6
Continuous
 62
     1
100
AcDbLine
 10
30.40028667919859
 20
24.09193557879201
 30
0.0
 11
30.40028667919859
 21
20.81090528121263
 31
0.0
  0
LINE
  5
155
330
2
100
AcDbEntity
  8
GAIKEI
  6
Continuous
 62
     1
100
AcDbLine
 10
31.13610461836373
 20
24.15498364685749
 30
0.0
 11
30.4722370048367
 21
24.1781664064905
 31
0.0
  0
LINE
  5
156
330
2
100
AcDbEntity
  8
GAIKEI
  6
Continuous
 62
     1
100
AcDbLine
 10
30.4722370048367
 20
20.72467445351413
 30
0.0
 11
31.13610461836373
 21
20.74785721314714
 31
0.0
  0
SPLINE
  5
157
330
2
100
AcDbEntity
  8
GAIKEI
  6
Continuous
 62
     1
100
AcDbSpline
210
0.0
220
0.0
230
1.0
 70
     8
 71
     3
 72
    19
 73
    15
 74
    13
 42
0.0000000001
 43
0.0000000001
 44
0.000001
 12
0.0213842593146391
 22
0.9997713305819308
 32
0.0
 13
-0.1213258174957188
 23
0.9926127371785009
 33
0.0
 40
0.0
 40
0.0
 40
0.0
 40
0.0
 40
0.0113484976343809
 40
0.0224435594540293
 40
0.0331022403675116
 40
0.0433328148777797
 40
0.0530063883185571
 40
0.0665828207561142
 40
0.078504028538085
 40
0.0883020525193253
 40
0.0960449799608715
 40
0.0997746755133989
 40
0.1024788578005233
 40
0.1040675002433343
 40
0.1040675002433343
 40
0.1040675002433343
 40
0.1040675002433343
 10
28.96050669845238
 20
25.21263202479975
 30
0.0
 10
28.96058759152447
 20
25.21641399232641
 30
0.0
 10
28.96067779830728
 20
25.22389542818598
 30
0.0
 10
28.96055000810577
 20
25.23492931816634
 30
0.0
 10
28.96032765649679
 20
25.24558844134038
 30
0.0
 10
28.96006903733445
 20
25.25577277802654
 30
0.0
 10
28.95980011025751
 20
25.26692977287297
 30
0.0
 10
28.95963451727835
 20
25.27865264132874
 30
0.0
 10
28.95966403555542
 20
25.29041894751868
 30
0.0
 10
28.95992832097773
 20
25.30023650008457
 30
0.0
 10
28.96028208664993
 20
25.30731991149128
 30
0.0
 10
28.96052390931513
 20
25.31203615047872
 30
0.0
 10
28.96069932917126
 20
25.31471085380804
 30
0.0
 10
28.96057094623342
 20
25.31613954174475
 30
0.0
 10
28.96050669845238
 20
25.31666517731924
 30
0.0
 11
28.96050669845238
 21
25.21263202479975
 31
0.0
 11
28.96063260082269
 21
25.22397978471668
 31
0.0
 11
28.96052983011907
 21
25.23507436875548
 31
0.0
 11
28.96031546868432
 21
25.24573089178421
 31
0.0
 11
28.9600655834011
 21
25.25595841277698
 31
0.0
 11
28.95984383905852
 21
25.2656294438653
 31
0.0
 11
28.95966580535691
 21
25.2792047091408
 31
0.0
 11
28.95971803498515
 21
25.29112580325682
 31
0.0
 11
28.95998768659774
 21
25.30092011535601
 31
0.0
 11
28.96035006014745
 21
25.30865455296731
 31
0.0
 11
28.96055079947684
 21
25.31237882964706
 31
0.0
 11
28.96063453548845
 21
25.31508166304161
 31
0.0
 11
28.96050669845238
 21
25.31666517731924
 31
0.0
  0
SPLINE
  5
158
330
2
100
AcDbEntity
  8
GAIKEI
  6
Continuous
 62
     1
100
AcDbSpline
210
0.0
220
0.0
230
1.0
 70
     8
 71
     3
 72
    25
 73
    21
 74
    19
 42
0.0000000001
 43
0.0000000001
 44
0.000001
 12
0.5909511587252205
 22
-0.8067073372675615
 32
0.0
 13
-0.0272811889574892
 23
-0.999627799097777
 33
0.0
 40
0.0
 40
0.0
 40
0.0
 40
0.0
 40
0.0004955099168482
 40
0.0018178620006403
 40
0.0040907347726311
 40
0.0072755829690896
 40
0.0112339836522881
 40
0.0160079251330977
 40
0.0217345560386065
 40
0.0282471715097976
 40
0.0353831516206053
 40
0.0431870615596636
 40
0.0518586981817414
 40
0.0611185243132952
 40
0.0706522526823573
 40
0.0806167164363007
 40
0.0912501549405639
 40
0.1021898340907327
 40
0.1174982836899961
 40
0.1332424412969963
 40
0.1332424412969963
 40
0.1332424412969963
 40
0.1332424412969963
 10
29.00157981438116
 20
25.34250183682349
 30
0.0
 10
29.00167742176765
 20
25.34236859299495
 30
0.0
 10
29.0020034078994
 20
25.34184082648244
 30
0.0
 10
29.00191994442656
 20
25.34041623399935
 30
0.0
 10
29.00203857079631
 20
25.33819194092695
 30
0.0
 10
29.00196180618386
 20
25.33503751577911
 30
0.0
 10
29.00191330972584
 20
25.33107162790429
 30
0.0
 10
29.00182856820567
 20
25.32625048749139
 30
0.0
 10
29.0017562449132
 20
25.32058063432458
 30
0.0
 10
29.00169801076501
 20
25.3141222181041
 30
0.0
 10
29.00166937098532
 20
25.30697148998456
 30
0.0
 10
29.00167061585398
 20
25.29910093696356
 30
0.0
 10
29.00170561373867
 20
25.29052254134632
 30
0.0
 10
29.00176654487257
 20
25.28136767300003
 30
0.0
 10
29.0018447628469
 20
25.27178198536887
 30
0.0
 10
29.00192391285916
 20
25.26173842223875
 30
0.0
 10
29.00198772187684
 20
25.25122606568511
 30
0.0
 10
29.00201048801895
 20
25.23893221257038
 30
0.0
 10
29.00193804932954
 20
25.22493461961102
 30
0.0
 10
29.00172298749405
 20
25.21458550080434
 30
0.0
 10
29.00157981438116
 20
25.20933940159853
 30
0.0
 11
29.00157981438116
 21
25.34250183682349
 31
0.0
 11
29.00182732736505
 21
25.34207249860043
 31
0.0
 11
29.00195684350734
 21
25.34075669547338
 31
0.0
 11
29.00199739634303
 21
25.33848421882272
 31
0.0
 11
29.00197296423391
 21
25.33529947985858
 31
0.0
 11
29.00191246527203
 21
25.33134154978467
 31
0.0
 11
29.00183669514593
 21
25.32656821462979
 31
0.0
 11
29.00176197154673
 21
25.32084207449691
 31
0.0
 11
29.00170412347393
 21
25.31432971808659
 31
0.0
 11
29.00167404005862
 21
25.30719380282142
 31
0.0
 11
29.00167444897966
 21
25.29938989392775
 31
0.0
 11
29.00170746101799
 21
25.29071832092598
 31
0.0
 11
29.00176727121118
 21
25.28145868857325
 31
0.0
 11
29.00184220382675
 21
25.27192525515494
 31
0.0
 11
29.00191829248297
 21
25.26196108228493
 31
0.0
 11
29.0019787792541
 21
25.25132781603168
 31
0.0
 11
29.00199615777774
 21
25.24038815057156
 31
0.0
 11
29.0018985992383
 21
25.22508000952348
 31
0.0
 11
29.00157981438116
 21
25.20933940159853
 31
0.0
  0
SPLINE
  5
159
330
2
100
AcDbEntity
  8
GAIKEI
  6
Continuous
 62
     1
100
AcDbSpline
210
0.0
220
0.0
230
1.0
 70
     8
 71
     3
 72
    25
 73
    21
 74
    19
 42
0.0000000001
 43
0.0000000001
 44
0.000001
 12
0.0281905901065335
 22
-0.9996025663379647
 32
0.0
 13
-0.4008655609207862
 23
-0.9161368904632446
 33
0.0
 40
0.0
 40
0.0
 40
0.0
 40
0.0
 40
0.0108642250676759
 40
0.0216568857620597
 40
0.0326063958987586
 40
0.0433262346926789
 40
0.0534690969873035
 40
0.0632547433492164
 40
0.0728733530305173
 40
0.0819780700940561
 40
0.0903746034312981
 40
0.0981541992729033
 40
0.1054556263380812
 40
0.1119952017291717
 40
0.1175898577972302
 40
0.1223753842863807
 40
0.1264164536402065
 40
0.1295339844560163
 40
0.1322586066749778
 40
0.1332252651170569
 40
0.1332252651170569
 40
0.1332252651170569
 40
0.1332252651170569
 10
29.00157981438116
 20
1.477116515216152
 30
0.0
 10
29.00168190401974
 20
1.473496546129865
 30
0.0
 10
29.00184923765716
 20
1.466279335046579
 30
0.0
 10
29.00197265191292
 20
1.455411056635398
 30
0.0
 10
29.00200927658147
 20
1.444590368834724
 30
0.0
 10
29.00198101292253
 20
1.433986293582449
 30
0.0
 10
29.00191731186783
 20
1.423770367067106
 30
0.0
 10
29.00183802566005
 20
1.413921645743243
 30
0.0
 10
29.00176209638011
 20
1.404418957781786
 30
0.0
 10
29.00170207783532
 20
1.395379198586283
 30
0.0
 10
29.00167064811487
 20
1.386952285929908
 30
0.0
 10
29.00166914653414
 20
1.379126439578044
 30
0.0
 10
29.00170177792868
 20
1.371919524271106
 30
0.0
 10
29.00175893312616
 20
1.365441510382254
 30
0.0
 10
29.00184008255718
 20
1.359801206655561
 30
0.0
 10
29.00190551744623
 20
1.354997396379189
 30
0.0
 10
29.00200747548263
 20
1.351009050386437
 30
0.0
 10
29.001937590549
 20
1.347734990975141
 30
0.0
 10
29.00214450056021
 20
1.345415477228414
 30
0.0
 10
29.00170898107402
 20
1.344249277144342
 30
0.0
 10
29.00157981438116
 20
1.343954079991249
 30
0.0
 11
29.00157981438116
 21
1.477116515216152
 31
0.0
 11
29.00182732736505
 21
1.466255325238421
 31
0.0
 11
29.0019568435074
 21
1.455463440212668
 31
0.0
 11
29.00199739634303
 21
1.444514005348537
 31
0.0
 11
29.00197296423391
 21
1.433794194889799
 31
0.0
 11
29.00191246527203
 21
1.423651513591494
 31
0.0
 11
29.00183669514593
 21
1.413866161153634
 31
0.0
 11
29.00176197154673
 21
1.404247842351992
 31
0.0
 11
29.00170412347393
 21
1.395143309734237
 31
0.0
 11
29.00167404005862
 21
1.386746831075925
 31
0.0
 11
29.00167444897972
 21
1.378967236233847
 31
0.0
 11
29.00170746101799
 21
1.37166588520688
 31
0.0
 11
29.00176727121124
 21
1.36512658537714
 31
0.0
 11
29.00184220382675
 21
1.359532434217612
 31
0.0
 11
29.00191829248303
 21
1.354747517574537
 31
0.0
 11
29.00197877925416
 21
1.350706909693656
 31
0.0
 11
29.00199615777774
 21
1.347589444577067
 31
0.0
 11
29.0018985992383
 21
1.344866715078296
 31
0.0
 11
29.00157981438116
 21
1.343954079991249
 31
0.0
  0
SPLINE
  5
15A
330
2
100
AcDbEntity
  8
GAIKEI
  6
Continuous
 62
     1
100
AcDbSpline
210
0.0
220
0.0
230
1.0
 70
     8
 71
     3
 72
    41
 73
    37
 74
    35
 42
0.0000000001
 43
0.0000000001
 44
0.000001
 12
-0.4353819225186907
 22
-0.9002458450578536
 32
0.0
 13
-0.5598877767279204
 23
-0.8285684506850756
 33
0.0
 40
0.0
 40
0.0
 40
0.0
 40
0.0
 40
0.0014188981557056
 40
0.0056448915115627
 40
0.0126413138108251
 40
0.0164792481112114
 40
0.0208170576424766
 40
0.0256522187933588
 40
0.0309822866875077
 40
0.0368048965486523
 40
0.0431177647878326
 40
0.049918689828057
 40
0.0729057058812657
 40
0.1010164645422963
 40
0.1080304895441522
 40
0.1153021852384358
 40
0.1228314347323096
 40
0.1306181176540526
 40
0.138662110476646
 40
0.1469632867771895
 40
0.1555215174959823
 40
0.1642630739514725
 40
0.1739105775431464
 40
0.1844685114552522
 40
0.1959416628115507
 40
0.2083351588240362
 40
0.2238438276836505
 40
0.2405950042822295
 40
0.2556503340563184
 40
0.2671428071198749
 40
0.2750469816947843
 40
0.2819138388210853
 40
0.2964544164855166
 40
0.3382914855718927
 40
0.3781195110425401
 40
0.4161359202117565
 40
0.4161359202117565
 40
0.4161359202117565
 40
0.4161359202117565
 10
31.82650838944989
 20
4.653787982041535
 30
0.0
 10
31.82630246858094
 20
4.653362196318482
 30
0.0
 10
31.825485687993
 20
4.651667061217096
 30
0.0
 10
31.82371825225505
 20
4.647841634284702
 30
0.0
 10
31.82166613503591
 20
4.643259992472621
 30
0.0
 10
31.81964397172666
 20
4.638624434750795
 30
0.0
 10
31.81793416274584
 20
4.634638700533173
 30
0.0
 10
31.81605599409508
 20
4.630184074209182
 30
0.0
 10
31.81401616661822
 20
4.625260591597566
 30
0.0
 10
31.81182119527731
 20
4.619868328784434
 30
0.0
 10
31.80947876669609
 20
4.614006887922641
 30
0.0
 10
31.80507666027711
 20
4.602807265076023
 30
0.0
 10
31.79833671395568
 20
4.584720835787663
 30
0.0
 10
31.79191800434541
 20
4.566443749039081
 30
0.0
 10
31.78734376847411
 20
4.553072352600452
 30
0.0
 10
31.78501204434011
 20
4.546184662247355
 30
0.0
 10
31.78261914424911
 20
4.539045812956601
 30
0.0
 10
31.7801657338284
 20
4.531655770115435
 30
0.0
 10
31.77765238860758
 20
4.524014540096857
 30
0.0
 10
31.77507966960266
 20
4.516122133326121
 30
0.0
 10
31.77245586102979
 20
4.508001846334082
 30
0.0
 10
31.76971475169384
 20
4.499447874348334
 30
0.0
 10
31.76677462973845
 20
4.490257725693709
 30
0.0
 10
31.76354796957966
 20
4.480203255055471
 30
0.0
 10
31.76001950531048
 20
4.469284337066142
 30
0.0
 10
31.75594510059279
 20
4.456807651003373
 30
0.0
 10
31.75127116960255
 20
4.442675931559165
 30
0.0
 10
31.74616085428267
 20
4.427754734186066
 30
0.0
 10
31.74135331780173
 20
4.414145714580513
 30
0.0
 10
31.73743217239581
 20
4.403351805986801
 30
0.0
 10
31.73439497377004
 20
4.395140924539532
 30
0.0
 10
31.7309003875059
 20
4.386016473571316
 30
0.0
 10
31.72305752984647
 20
4.366447263513634
 30
0.0
 10
31.70999156506048
 20
4.337137705044938
 30
0.0
 10
31.69141102999944
 20
4.301798706573947
 30
0.0
 10
31.6776191343111
 20
4.279786976349214
 30
0.0
 10
31.67052416004145
 20
4.269287243933888
 30
0.0
 11
31.82650838944989
 21
4.653787982041535
 31
0.0
 11
31.8258944950664
 21
4.65250875167618
 31
0.0
 11
31.82411215601667
 21
4.648677014381746
 31
0.0
 11
31.82125012270012
 21
4.642292770158178
 31
0.0
 11
31.81971486742924
 21
4.638775285818837
 31
0.0
 11
31.81800435240729
 21
4.634788973676108
 31
0.0
 11
31.81612540266917
 21
4.630333833730105
 31
0.0
 11
31.81408479298653
 21
4.625409865980827
 31
0.0
 11
31.81188924282333
 21
4.620017070428275
 31
0.0
 11
31.80954541158377
 21
4.614155447072391
 31
0.0
 11
31.80705989414668
 21
4.607824995913233
 31
0.0
 11
31.79899568970404
 21
4.586298987455393
 31
0.0
 11
31.78964639808555
 21
4.559788601334616
 31
0.0
 11
31.78737600834711
 21
4.553152223680285
 31
0.0
 11
31.78504394239928
 21
4.546264654981769
 31
0.0
 11
31.782650780354
 21
4.539125895239067
 31
0.0
 11
31.78019710599836
 21
4.531735944452066
 31
0.0
 11
31.77768350666355
 21
4.524094802620822
 31
0.0
 11
31.77511057309494
 21
4.516202469745337
 31
0.0
 11
31.77247889932278
 21
4.508058945825609
 31
0.0
 11
31.76980853676287
 21
4.499735281585685
 31
0.0
 11
31.76686677700264
 21
4.490547261142012
 31
0.0
 11
31.76363893530061
 21
4.480494884494646
 31
0.0
 11
31.76010943656104
 21
4.469578151643474
 31
0.0
 11
31.75626185059912
 21
4.45779706258861
 31
0.0
 11
31.75137734310664
 21
4.443077702902712
 31
0.0
 11
31.74595197516425
 21
4.427229469466567
 31
0.0
 11
31.74093493308845
 21
4.413034681445424
 31
0.0
 11
31.73701229261519
 21
4.402232365457166
 31
0.0
 11
31.73426085498983
 21
4.39482252150168
 31
0.0
 11
31.73180569818129
 21
4.388409562103674
 31
0.0
 11
31.72639923906416
 21
4.374911457496011
 31
0.0
 11
31.70930309962301
 21
4.33672685202049
 31
0.0
 11
31.6906840447515
 21
4.301518780833077
 31
0.0
 11
31.67052416004145
 21
4.269287243933888
 31
0.0
  0
SPLINE
  5
15B
330
2
100
AcDbEntity
  8
GAIKEI
  6
Continuous
 62
     1
100
AcDbSpline
210
0.0
220
0.0
230
1.0
 70
     8
 71
     3
 72
    41
 73
    37
 74
    35
 42
0.0000000001
 43
0.0000000001
 44
0.000001
 12
0.0064747712617763
 22
0.9999790384488605
 32
0.0
 13
0.7486451432179164
 23
0.6629709266146034
 33
0.0
 40
0.0
 40
0.0
 40
0.0
 40
0.0
 40
0.00487972202932
 40
0.0095408573171051
 40
0.0141412567217309
 40
0.0164487246822307
 40
0.018769278778537
 40
0.0223290693966918
 40
0.0263636850181284
 40
0.0309350675743497
 40
0.0370166492812677
 40
0.0438225559119559
 40
0.0592497184656785
 40
0.0737747348064662
 40
0.0806057129627743
 40
0.0867323678927915
 40
0.092102193053617
 40
0.0967157812166504
 40
0.1005724437415716
 40
0.1036696750115085
 40
0.106104346592627
 40
0.1085083068790644
 40
0.1109974520350734
 40
0.1135749438028669
 40
0.1162400271326885
 40
0.1176035175536479
 40
0.1189706962060327
 40
0.1203341254549312
 40
0.1216923397903704
 40
0.1243862356734344
 40
0.1270369830950585
 40
0.1296268378283691
 40
0.1321361840472125
 40
0.1345438299926941
 40
0.1368271714864233
 40
0.1389621751957682
 40
0.1389621751957682
 40
0.1389621751957682
 40
0.1389621751957682
 10
31.8265229677682
 20
4.655992445332287
 30
0.0
 10
31.82653349946284
 20
4.657618985246529
 30
0.0
 10
31.82658695021925
 20
4.660798905490821
 30
0.0
 10
31.82671605185192
 20
4.665511247440349
 30
0.0
 10
31.82695708199705
 20
4.669361167750821
 30
0.0
 10
31.82724220513612
 20
4.672424241180465
 30
0.0
 10
31.82755216986919
 20
4.675136089321881
 30
0.0
 10
31.82801710289562
 20
4.678408621980679
 30
0.0
 10
31.82867340232002
 20
4.682410747958101
 30
0.0
 10
31.82959131574449
 20
4.687220406148242
 30
0.0
 10
31.83086323321774
 20
4.692900748516763
 30
0.0
 10
31.8332789751008
 20
4.702026688482362
 30
0.0
 10
31.83719925760783
 20
4.713655230555445
 30
0.0
 10
31.84214542770931
 20
4.724892096163443
 30
0.0
 10
31.84636455740451
 20
4.733025888579106
 30
0.0
 10
31.84938005597132
 20
4.738340489564279
 30
0.0
 10
31.85218523330878
 20
4.742920596522253
 30
0.0
 10
31.85470739971777
 20
4.746784092877476
 30
0.0
 10
31.85689142237249
 20
4.749962121012231
 30
0.0
 10
31.85871291618676
 20
4.752507045385925
 30
0.0
 10
31.86027568704489
 20
4.754641466411271
 30
0.0
 10
31.86175611742362
 20
4.756584496823279
 30
0.0
 10
31.86330215475261
 20
4.75853681967618
 30
0.0
 10
31.86493987894432
 20
4.760526994121391
 30
0.0
 10
31.8663705003263
 20
4.762201153693411
 30
0.0
 10
31.86755729470827
 20
4.763552633280824
 30
0.0
 10
31.86846730127408
 20
4.764569662549149
 30
0.0
 10
31.86938535951191
 20
4.765577048984027
 30
0.0
 10
31.87061301072254
 20
4.766900535312117
 30
0.0
 10
31.87215329439192
 20
4.768519194370128
 30
0.0
 10
31.87400671436558
 20
4.770406122801148
 30
0.0
 10
31.8758438981564
 20
4.772222363825733
 30
0.0
 10
31.87764727548722
 20
4.77395718250051
 30
0.0
 10
31.87939777457257
 20
4.775599313612929
 30
0.0
 10
31.88107603158718
 20
4.777135794106925
 30
0.0
 10
31.88217231369413
 20
4.778119336128042
 30
0.0
 10
31.88270510041338
 20
4.778591151257217
 30
0.0
 11
31.8265229677682
 21
4.655992445332287
 31
0.0
 11
31.82659598108183
 21
4.660871688528516
 31
0.0
 11
31.82674306810259
 21
4.665530512468649
 31
0.0
 11
31.82703468746093
 21
4.67012168572171
 31
0.0
 11
31.82724881777494
 21
4.67241921192749
 31
0.0
 11
31.82751254170432
 21
4.674724748709024
 31
0.0
 11
31.82800562443458
 21
4.678250254661918
 31
0.0
 11
31.82865964072221
 21
4.682231546336765
 31
0.0
 11
31.82951628395097
 21
4.686721991223464
 31
0.0
 11
31.83084528911246
 21
4.692656640983557
 31
0.0
 11
31.8325869441257
 21
4.699235986457097
 31
0.0
 11
31.83751562722682
 21
4.713854778894301
 31
0.0
 11
31.84336740419678
 21
4.727148958915449
 31
0.0
 11
31.84651152939068
 21
4.733213374111755
 31
0.0
 11
31.84953508822577
 21
4.73854200181853
 31
0.0
 11
31.85233954299014
 21
4.743121330478629
 31
0.0
 11
31.85486106262437
 21
4.746984912416678
 31
0.0
 11
31.85704515947225
 21
4.750163535834303
 31
0.0
 11
31.85884573487243
 21
4.752683617310594
 31
0.0
 11
31.86028721342319
 21
4.754645703863161
 31
0.0
 11
31.86174394624265
 21
4.756558027261917
 31
0.0
 11
31.8632890587499
 21
4.758509566771977
 31
0.0
 11
31.86492657388351
 21
4.760500056811906
 31
0.0
 11
31.86665759289167
 21
4.762526455210149
 31
0.0
 11
31.86755731215669
 21
4.763550966815614
 31
0.0
 11
31.86846892914542
 21
4.7645698606687
 31
0.0
 11
31.86938726014404
 21
4.765577640449691
 31
0.0
 11
31.87031089409777
 21
4.766573461128245
 31
0.0
 11
31.8721676248806
 21
4.76852529969085
 31
0.0
 11
31.87402485524819
 21
4.770416648679542
 31
0.0
 11
31.87586643044961
 21
4.772237633680617
 31
0.0
 11
31.87767467569069
 21
4.773977489534786
 31
0.0
 11
31.87943067216304
 21
4.77562468640508
 31
0.0
 11
31.8811144492513
 21
4.77716694425959
 31
0.0
 11
31.88270510041338
 21
4.778591151257217
 31
0.0
  0
SPLINE
  5
15C
330
2
100
AcDbEntity
  8
GAIKEI
  6
Continuous
 62
     1
100
AcDbSpline
210
0.0
220
0.0
230
1.0
 70
     8
 71
     3
 72
    28
 73
    24
 74
    22
 42
0.0000000001
 43
0.0000000001
 44
0.000001
 12
0.7217480328339719
 22
0.6921558907502644
 32
0.0
 13
0.9952109123015889
 23
0.097750908107491
 33
0.0
 40
0.0
 40
0.0
 40
0.0
 40
0.0
 40
0.0085574556742312
 40
0.0157612278669069
 40
0.0214927938014644
 40
0.0271056634999376
 40
0.0329787390915326
 40
0.0433389756415798
 40
0.054163300731754
 40
0.0646559634913413
 40
0.0722886488914606
 40
0.0796562109044733
 40
0.0829521424257026
 40
0.0858598682482622
 40
0.0883836539143155
 40
0.0905234199420033
 40
0.0914476423481332
 40
0.0930940134123498
 40
0.095031381015321
 40
0.098744002034942
 40
0.1025235815009032
 40
0.1066919450466396
 40
0.1110672556984457
 40
0.1110672556984457
 40
0.1110672556984457
 40
0.1110672556984457
 10
30.70551111960674
 20
2.028286389674008
 30
0.0
 10
30.70756989520638
 20
2.030260754125606
 30
0.0
 10
30.71145422886184
 20
2.033801601669949
 30
0.0
 10
30.71694875790797
 20
2.038402581101138
 30
0.0
 10
30.72186383811629
 20
2.042155931098363
 30
0.0
 10
30.72654472558361
 20
2.045478526482042
 30
0.0
 10
30.73262511694986
 20
2.049488048049397
 30
0.0
 10
30.74039368628849
 20
2.0540827206799
 30
0.0
 10
30.74981219806546
 20
2.058871081759548
 30
0.0
 10
30.7586638462306
 20
2.062728531456627
 30
0.0
 10
30.76661592998551
 20
2.065729568818369
 30
0.0
 10
30.77240000025185
 20
2.067669654609517
 30
0.0
 10
30.77673877693246
 20
2.06895161502166
 30
0.0
 10
30.77954948858883
 20
2.069703209700264
 30
0.0
 10
30.78200286208878
 20
2.070296059325187
 30
0.0
 10
30.78382313100454
 20
2.070691653173184
 30
0.0
 10
30.78536295518265
 20
2.070998792253135
 30
0.0
 10
30.78684154736689
 20
2.071266999988665
 30
0.0
 10
30.78923784243858
 20
2.071682922376112
 30
0.0
 10
30.79234158662397
 20
2.072180336360645
 30
0.0
 10
30.79618861017085
 20
2.072736363247429
 30
0.0
 10
30.80026348254037
 20
2.073256700022284
 30
0.0
 10
30.80309497581766
 20
2.073563964182312
 30
0.0
 10
30.80454642811947
 20
2.073706527712147
 30
0.0
 11
30.70551111960674
 21
2.028286389674008
 31
0.0
 11
30.71183007650706
 21
2.034057404095392
 31
0.0
 11
30.71736210667012
 21
2.038671606843024
 31
0.0
 11
30.72191475413058
 21
2.042153681568038
 31
0.0
 11
30.72649129649722
 21
2.045403324674452
 31
0.0
 11
30.73139452313933
 21
2.048636273336228
 31
0.0
 11
30.74031191910319
 21
2.053910382708806
 31
0.0
 11
30.74995694157355
 21
2.058823729210359
 31
0.0
 11
30.75957560882045
 21
2.063016284871878
 31
0.0
 11
30.76671474204278
 21
2.065716383821154
 31
0.0
 11
30.7737051372194
 21
2.068043451238281
 31
0.0
 11
30.77686678929564
 21
2.068974652807526
 31
0.0
 11
30.77967601555753
 21
2.069725085272068
 31
0.0
 11
30.78212944864925
 21
2.070316856427382
 31
0.0
 11
30.78422061666567
 21
2.070770334561643
 31
0.0
 11
30.78512705395133
 21
2.070950788781885
 31
0.0
 11
30.78674623660362
 21
2.071248783704334
 31
0.0
 11
30.78865510724682
 21
2.071579882939431
 31
0.0
 11
30.79232078502423
 21
2.072168468924132
 31
0.0
 11
30.79606152285601
 21
2.072708996376263
 31
0.0
 11
30.80019641959501
 21
2.0732362187195
 31
0.0
 11
30.80454642811947
 21
2.073706527712147
 31
0.0
  0
SPLINE
  5
15D
330
2
100
AcDbEntity
  8
GAIKEI
  6
Continuous
 62
     1
100
AcDbSpline
210
0.0
220
0.0
230
1.0
 70
     8
 71
     3
 72
    29
 73
    25
 74
    23
 42
0.0000000001
 43
0.0000000001
 44
0.000001
 12
-0.7526510322232209
 22
0.6584196410294276
 32
0.0
 13
-0.2875771477137425
 23
0.9577574766676731
 33
0.0
 40
0.0
 40
0.0
 40
0.0
 40
0.0
 40
0.0006178609696738
 40
0.0025238280919249
 40
0.0057516774460679
 40
0.0103542765095658
 40
0.0162722171498255
 40
0.0234867232101181
 40
0.0319681323428855
 40
0.0417098918669484
 40
0.0526991513234833
 40
0.0647415419930005
 40
0.0778782946105663
 40
0.0920789904186989
 40
0.1103097290039156
 40
0.1297009403755489
 40
0.1502086033981931
 40
0.1717154207143364
 40
0.1940021147980726
 40
0.2166743733353416
 40
0.2399436692024235
 40
0.2637847006266249
 40
0.2881156005156518
 40
0.3127859900064943
 40
0.3127859900064943
 40
0.3127859900064943
 40
0.3127859900064943
 10
31.52786207694465
 20
4.480918819723569
 30
0.0
 10
31.52770706571244
 20
4.481054423656189
 30
0.0
 10
31.52709847362681
 20
4.481650905576145
 30
0.0
 10
31.52649853663286
 20
4.483534647912279
 30
0.0
 10
31.52521711294838
 20
4.486483620977139
 30
0.0
 10
31.52369546314031
 20
4.490824029798943
 30
0.0
 10
31.52172862638804
 20
4.496392107945837
 30
0.0
 10
31.51941962501922
 20
4.503219343395869
 30
0.0
 10
31.51674197491133
 20
4.511263826021149
 30
0.0
 10
31.51371309248919
 20
4.520518574327297
 30
0.0
 10
31.51035168002636
 20
4.530912965084098
 30
0.0
 10
31.50667602271548
 20
4.542395166220615
 30
0.0
 10
31.50270405517222
 20
4.554906420920133
 30
0.0
 10
31.49813769472337
 20
4.569393189093034
 30
0.0
 10
31.49297691597542
 20
4.585878492898132
 30
0.0
 10
31.487221523655
 20
4.604380547618177
 30
0.0
 10
31.48117270575713
 20
4.623934938907837
 30
0.0
 10
31.4748675414665
 20
4.644420293108794
 30
0.0
 10
31.46837713114641
 20
4.665603546267618
 30
0.0
 10
31.46173988880955
 20
4.687356244469583
 30
0.0
 10
31.45497525486317
 20
4.709611752201965
 30
0.0
 10
31.44807304072677
 20
4.7324032844366
 30
0.0
 10
31.44105733839658
 20
4.755648414653876
 30
0.0
 10
31.43635400957024
 20
4.771290364939204
 30
0.0
 10
31.43398912948931
 20
4.779166448268256
 30
0.0
 11
31.52786207694465
 21
4.480918819723569
 31
0.0
 11
31.52743046564774
 21
4.481360995386808
 31
0.0
 11
31.52661788751596
 21
4.483084898394167
 31
0.0
 11
31.52542670563338
 21
4.486084887492381
 31
0.0
 11
31.5238414091317
 21
4.490405840736798
 31
0.0
 11
31.5218840939649
 21
4.495990717548011
 31
0.0
 11
31.51956098471641
 21
4.502820958259462
 31
0.0
 11
31.51688169838684
 21
4.510868048708402
 31
0.0
 11
31.51384838973502
 21
4.520125524882701
 31
0.0
 11
31.5104654454309
 21
4.53058111984086
 31
0.0
 11
31.50679246234711
 21
4.542049699941003
 31
0.0
 11
31.50281632222436
 21
4.554570264824519
 31
0.0
 11
31.49854625226084
 21
4.56811375897314
 31
0.0
 11
31.49309839838168
 21
4.585511479504589
 31
0.0
 11
31.48733764178951
 21
4.604027222249555
 31
0.0
 11
31.48127645425871
 21
4.623618705601813
 31
0.0
 11
31.47494913647222
 21
4.64417371024183
 31
0.0
 11
31.46841970572683
 21
4.665482470072049
 31
0.0
 11
31.46180261862923
 21
4.687167613528345
 31
0.0
 11
31.45503524352034
 21
4.709431098148684
 31
0.0
 11
31.44812474463038
 21
4.732248630201638
 31
0.0
 11
31.44109485214358
 21
4.755541832766311
 31
0.0
 11
31.43398912948931
 21
4.779166448268256
 31
0.0
  0
SPLINE
  5
15E
330
2
100
AcDbEntity
  8
GAIKEI
  6
Continuous
 62
     1
100
AcDbSpline
210
0.0
220
0.0
230
1.0
 70
     8
 71
     3
 72
    11
 73
     7
 74
     5
 42
0.0000000001
 43
0.0000000001
 44
0.000001
 12
0.1117045080192779
 22
-0.9937414668253364
 32
0.0
 13
0.1717596663978053
 23
-0.98513888208664
 33
0.0
 40
0.0
 40
0.0
 40
0.0
 40
0.0
 40
0.000159908622413
 40
0.0092970523466739
 40
0.0172856571480201
 40
0.022356277475746
 40
0.022356277475746
 40
0.022356277475746
 40
0.022356277475746
 10
30.40133914456965
 20
20.80127391772953
 30
0.0
 10
30.40134509874099
 20
20.80122094845319
 30
0.0
 10
30.40169128939292
 20
20.79814132760163
 30
0.0
 10
30.40235921248399
 20
20.79241835295556
 30
0.0
 10
30.40331767258826
 20
20.78508086813616
 30
0.0
 10
30.40402216056734
 20
20.78078462304217
 30
0.0
 10
30.40431246991932
 20
20.77911953462848
 30
0.0
 11
30.40133914456965
 21
20.80127391772953
 31
0.0
 11
30.40135702150599
 21
20.80111501233046
 31
0.0
 11
30.40242668649626
 21
20.79204086700315
 31
0.0
 11
30.40349528021659
 21
20.78412398011142
 31
0.0
 11
30.40431246991932
 21
20.77911953462848
 31
0.0
  0
SPLINE
  5
15F
330
2
100
AcDbEntity
  8
GAIKEI
  6
Continuous
 62
     1
100
AcDbSpline
210
0.0
220
0.0
230
1.0
 70
     8
 71
     3
 72
    15
 73
    11
 74
     9
 42
0.0000000001
 43
0.0000000001
 44
0.000001
 12
0.9994496190759601
 22
0.0331731657958403
 32
0.0
 13
0.134530790036436
 23
0.9909094138881577
 33
0.0
 40
0.0
 40
0.0
 40
0.0
 40
0.0
 40
0.0233153785981896
 40
0.0466018528889784
 40
0.0698679735041517
 40
0.0931236945379194
 40
0.1163794155718389
 40
0.1396455361869386
 40
0.1629320104776406
 40
0.1862473890757375
 40
0.1862473890757375
 40
0.1862473890757375
 40
0.1862473890757375
 10
31.13610461154826
 20
20.74785720546419
 30
0.0
 10
31.14387212696778
 20
20.74811502043747
 30
0.0
 10
31.1593891825818
 20
20.74996540016877
 30
0.0
 10
31.18178157617541
 20
20.7567751555676
 30
0.0
 10
31.20262941920322
 20
20.76738090041096
 30
0.0
 10
31.22128957733318
 20
20.781466043867
 30
0.0
 10
31.2371974510692
 20
20.79859882883682
 30
0.0
 10
31.24986616193536
 20
20.81826143668985
 30
0.0
 10
31.25891542397809
 20
20.83984622105106
 30
0.0
 10
31.26233253375259
 20
20.85509503349221
 30
0.0
 10
31.26337807918685
 20
20.86279617620596
 30
0.0
 11
31.13610461154826
 21
20.74785720546419
 31
0.0
 11
31.15925388830124
 21
20.75063951322977
 31
0.0
 11
31.18153418282208
 21
20.75741072923722
 31
0.0
 11
31.20226989638695
 21
20.76796269698752
 31
0.0
 11
31.22083160186321
 21
20.78197316626239
 31
0.0
 11
31.23665518639177
 21
20.79901559367641
 31
0.0
 11
31.2492590076742
 21
20.81857211508299
 31
0.0
 11
31.25825854209518
 21
20.84004929530658
 31
0.0
 11
31.26337807918685
 21
20.86279617620596
 31
0.0
  0
SPLINE
  5
160
330
2
100
AcDbEntity
  8
GAIKEI
  6
Continuous
 62
     1
100
AcDbSpline
210
0.0
220
0.0
230
1.0
 70
     8
 71
     3
 72
    13
 73
     9
 74
     7
 42
0.0000000001
 43
0.0000000001
 44
0.000001
 12
-0.999877353382941
 22
0.0156613598364006
 32
0.0
 13
-0.9488110788832816
 23
-0.3158441650376698
 33
0.0
 40
0.0
 40
0.0
 40
0.0
 40
0.0
 40
0.0035193495400884
 40
0.0069366593676427
 40
0.0102686576436282
 40
0.0135328649839218
 40
0.0199316755031158
 40
0.0230409896072746
 40
0.0230409896072746
 40
0.0230409896072746
 40
0.0230409896072746
 10
30.47223700500831
 20
24.17816642220151
 30
0.0
 10
30.47106403237374
 20
24.17818479480138
 30
0.0
 10
30.46875116092201
 20
24.17817559128332
 30
0.0
 10
30.46533043347305
 20
24.17803267837826
 30
0.0
 10
30.46200332657733
 20
24.17774963765101
 30
0.0
 10
30.45770829057307
 20
24.17717880870282
 30
0.0
 10
30.45353359874682
 20
24.17629406751252
 30
0.0
 10
30.45049894761459
 20
24.17537461625528
 30
0.0
 10
30.44951556372467
 20
24.1750472633496
 30
0.0
 11
30.47223700500831
 21
24.17816642220151
 31
0.0
 11
30.46871860914365
 21
24.17815260201371
 31
0.0
 11
30.46530437584488
 21
24.17800715587691
 31
0.0
 11
30.46198443912999
 21
24.177722080759
 31
0.0
 11
30.45874893301675
 21
24.17728937362767
 31
0.0
 11
30.45249174866729
 21
24.17594905119569
 31
0.0
 11
30.44951556372467
 21
24.1750472633496
 31
0.0
  0
SPLINE
  5
161
330
2
100
AcDbEntity
  8
GAIKEI
  6
Continuous
 62
     1
100
AcDbSpline
210
0.0
220
0.0
230
1.0
 70
     8
 71
     3
 72
    27
 73
    23
 74
    21
 42
0.0000000001
 43
0.0000000001
 44
0.000001
 12
0.076512265488583
 22
0.9970686401797044
 32
0.0
 13
0.9552657900996008
 23
0.2957486606316001
 33
0.0
 40
0.0
 40
0.0
 40
0.0
 40
0.0
 40
0.0049081096673038
 40
0.0071949186294766
 40
0.0093538447207483
 40
0.0140218595453271
 40
0.016886388785584
 40
0.0201057702735508
 40
0.0249374265709256
 40
0.0303592006904423
 40
0.0363136033730595
 40
0.0449355480795268
 40
0.052621057392702
 40
0.0587210726899839
 40
0.0641083993651844
 40
0.0689597463310587
 40
0.0735065916914207
 40
0.0777817551463541
 40
0.0817588340345144
 40
0.0856007268680649
 40
0.0893264960170647
 40
0.092960275986809
 40
0.092960275986809
 40
0.092960275986809
 40
0.092960275986809
 10
30.40086299024631
 20
24.10210573261418
 30
0.0
 10
30.40098816710961
 20
24.10373697335814
 30
0.0
 10
30.40115890161937
 20
24.106129798903
 30
0.0
 10
30.40127184947773
 20
24.10924590104241
 30
0.0
 10
30.40151851176981
 20
24.11227557042889
 30
0.0
 10
30.40208697788955
 20
24.11546189005765
 30
0.0
 10
30.40288633824156
 20
24.11895557940659
 30
0.0
 10
30.40385488896084
 20
24.12246433760822
 30
0.0
 10
30.405274708392
 20
24.12672769466798
 30
0.0
 10
30.40730160632646
 20
24.13174033422797
 30
0.0
 10
30.41022664515731
 20
24.13773497360689
 30
0.0
 10
30.41389998622288
 20
24.14419027171101
 30
0.0
 10
30.41804375041494
 20
24.15041202211109
 30
0.0
 10
30.42194320070445
 20
24.15548118208937
 30
0.0
 10
30.42553840657447
 20
24.15957672434621
 30
0.0
 10
30.42901402110863
 20
24.16307604863971
 30
0.0
 10
30.43245200097761
 20
24.16607455646971
 30
0.0
 10
30.43585559947599
 20
24.16865146796676
 30
0.0
 10
30.43923559180019
 20
24.17085877973688
 30
0.0
 10
30.4426786622829
 20
24.17259705500385
 30
0.0
 10
30.4461661013624
 20
24.17393838331839
 30
0.0
 10
30.44848802188778
 20
24.1747321256035
 30
0.0
 10
30.44964509711906
 20
24.1750903541232
 30
0.0
 11
30.40086299024631
 21
24.10210573261418
 31
0.0
 11
30.40118108406352
 21
24.10700340760218
 31
0.0
 11
30.40129002703884
 21
24.10928762846874
 31
0.0
 11
30.40147117349056
 21
24.11143893203632
 31
0.0
 11
30.40223715983473
 21
24.1160435899003
 31
0.0
 11
30.40287838174999
 21
24.11883535197865
 31
0.0
 11
30.40373232367045
 21
24.12193930851226
 31
0.0
 11
30.40525646858453
 21
24.12652409427574
 31
0.0
 11
30.40728917734691
 21
24.13155024490919
 31
0.0
 11
30.40988173485744
 21
24.13691059465248
 31
0.0
 11
30.41414522797481
 21
24.14440471279875
 31
0.0
 11
30.41841598034068
 21
24.15079439351763
 31
0.0
 11
30.42214202506591
 21
24.1556241494373
 31
0.0
 11
30.42569877758257
 21
24.15967042380259
 31
0.0
 11
30.42912629681359
 21
24.16310364341553
 31
0.0
 11
30.43255377454466
 21
24.1660911752557
 31
0.0
 11
30.43596404828736
 21
24.16866922761136
 31
0.0
 11
30.43931034290063
 21
24.17081899752088
 31
0.0
 11
30.44273800603946
 21
24.17255496261703
 31
0.0
 11
30.44620174459226
 21
24.17392750464825
 31
0.0
 11
30.44964509711906
 21
24.1750903541232
 31
0.0
  0
SPLINE
  5
162
330
2
100
AcDbEntity
  8
GAIKEI
  6
Continuous
 62
     1
100
AcDbSpline
210
0.0
220
0.0
230
1.0
 70
     8
 71
     3
 72
     9
 73
     5
 74
     3
 42
0.0000000001
 43
0.0000000001
 44
0.000001
 12
-0.1110702931717985
 22
-0.9938125527355401
 32
0.0
 13
-0.0037416002969241
 23
-0.9999930001891105
 33
0.0
 40
0.0
 40
0.0
 40
0.0
 40
0.0
 40
0.0014819459234957
 40
0.0103546008421243
 40
0.0103546008421243
 40
0.0103546008421243
 40
0.0103546008421243
 10
30.40088129027504
 20
24.10227125115909
 30
0.0
 10
30.4008264235523
 20
24.101780325672
 30
0.0
 10
30.40046960589283
 20
24.0983473844903
 30
0.0
 10
30.40029775957731
 20
24.09489310805503
 30
0.0
 10
30.40028669360123
 20
24.0919355771178
 30
0.0
 11
30.40088129027504
 21
24.10227125115909
 31
0.0
 11
30.40072805011164
 21
24.10079740876148
 31
0.0
 11
30.40028669360123
 21
24.0919355771178
 31
0.0
  0
SPLINE
  5
163
330
2
100
AcDbEntity
  8
GAIKEI
  6
Continuous
 62
     1
100
AcDbSpline
210
0.0
220
0.0
230
1.0
 70
     8
 71
     3
 72
     9
 73
     5
 74
     3
 42
0.0000000001
 43
0.0000000001
 44
0.000001
 12
0.0037801567420873
 22
-0.9999928551819785
 32
0.0
 13
0.1113488517851972
 23
-0.993781380991875
 33
0.0
 40
0.0
 40
0.0
 40
0.0
 40
0.0
 40
0.0089265387507516
 40
0.0103706013120063
 40
0.0103706013120063
 40
0.0103706013120063
 40
0.0103706013120063
 10
30.40028669360123
 20
20.81090528288689
 30
0.0
 10
30.40029794150644
 20
20.80792979122947
 30
0.0
 10
30.40047126105881
 20
20.80447013181083
 30
0.0
 10
30.40083025292637
 20
20.80103205944067
 30
0.0
 10
30.40088385116241
 20
20.80055369861191
 30
0.0
 11
30.40028669360123
 21
20.81090528288689
 31
0.0
 11
30.40073385081303
 21
20.80198979468082
 31
0.0
 11
30.40088385116241
 21
20.80055369861191
 31
0.0
  0
SPLINE
  5
164
330
2
100
AcDbEntity
  8
GAIKEI
  6
Continuous
 62
     1
100
AcDbSpline
210
0.0
220
0.0
230
1.0
 70
     8
 71
     3
 72
    27
 73
    23
 74
    21
 42
0.0000000001
 43
0.0000000001
 44
0.000001
 12
-0.9535249561077124
 22
0.3013140522441413
 32
0.0
 13
-0.0768695003212578
 23
0.9970411626008027
 33
0.0
 40
0.0
 40
0.0
 40
0.0
 40
0.0
 40
0.0058739979649093
 40
0.012423620427095
 40
0.0197818398251396
 40
0.0278973743687731
 40
0.0358503791856226
 40
0.0433983327956481
 40
0.0464908188593784
 40
0.0498285563935546
 40
0.053504292279342
 40
0.0575234463291947
 40
0.0618893905707034
 40
0.0664803658392908
 40
0.0707679492522647
 40
0.0742103199826503
 40
0.0773515146809685
 40
0.0801844570514161
 40
0.0827251027315928
 40
0.0852229030852013
 40
0.0877452409019394
 40
0.0928258952680688
 40
0.0928258952680688
 40
0.0928258952680688
 40
0.0928258952680688
 10
30.44964605949275
 20
20.72775210692083
 30
0.0
 10
30.44777905827553
 20
20.72834207963075
 30
0.0
 10
30.44389574869436
 20
20.72980384915002
 30
0.0
 10
30.4379960179906
 20
20.73278713535478
 30
0.0
 10
30.43196893916769
 20
20.73702649194496
 30
0.0
 10
30.42625257679882
 20
20.74237746522761
 30
0.0
 10
30.42112638235725
 20
20.74836930868804
 30
0.0
 10
30.41756600566615
 20
20.75345335704026
 30
0.0
 10
30.41511815288627
 20
20.75741823953894
 30
0.0
 10
30.41340768556148
 20
20.76032066192062
 30
0.0
 10
30.41161540777273
 20
20.76353228180909
 30
0.0
 10
30.40974033004679
 20
20.76708903398298
 30
0.0
 10
30.40781843656393
 20
20.77096411289881
 30
0.0
 10
30.40594823114117
 20
20.77496490389592
 30
0.0
 10
30.40444315326735
 20
20.778789476915
 30
0.0
 10
30.40331766432058
 20
20.78223585683037
 30
0.0
 10
30.4025146040274
 20
20.78527206753751
 30
0.0
 10
30.40194512206369
 20
20.788053995648
 30
0.0
 10
30.40155791026888
 20
20.7906505787293
 30
0.0
 10
30.40133985802527
 20
20.7931626510981
 30
0.0
 10
30.40118084654745
 20
20.79652594201366
 30
0.0
 10
30.40099315932281
 20
20.79905366432837
 30
0.0
 10
30.40086297686867
 20
20.80074220484039
 30
0.0
 11
30.44964605949275
 21
20.72775210692083
 31
0.0
 11
30.44414580610305
 21
20.72981676514746
 31
0.0
 11
30.43831209780899
 21
20.73279426023152
 31
0.0
 11
30.43227938841574
 21
20.73700721494441
 31
0.0
 11
30.42632311583316
 21
20.74251925933777
 31
0.0
 11
30.42114274372773
 21
20.74855353070256
 31
0.0
 11
30.41680054449563
 21
20.75472732102026
 31
0.0
 11
30.41516994109873
 21
20.75735494916296
 31
0.0
 11
30.41347583256391
 21
20.76023077922128
 31
0.0
 11
30.41168358237042
 21
20.76343997505893
 31
0.0
 11
30.40980845972138
 21
20.76699495322129
 31
0.0
 11
30.40786626532662
 21
20.77090521129389
 31
0.0
 11
30.40594998173731
 21
20.7750771257958
 31
0.0
 11
30.40438331071192
 21
20.77906800970743
 31
0.0
 11
30.40331836230183
 21
20.78234134018601
 31
0.0
 11
30.40251771786166
 21
20.78537868085209
 31
0.0
 11
30.40195099598401
 21
20.78815430016215
 31
0.0
 11
30.4015808783015
 21
20.7906678122784
 31
0.0
 11
30.40135584436166
 21
20.79315544679884
 31
0.0
 11
30.40121263874409
 21
20.79567372727308
 31
0.0
 11
30.40086297686867
 21
20.80074220484039
 31
0.0
  0
SPLINE
  5
165
330
2
100
AcDbEntity
  8
GAIKEI
  6
Continuous
 62
     1
100
AcDbSpline
210
0.0
220
0.0
230
1.0
 70
     8
 71
     3
 72
    13
 73
     9
 74
     7
 42
0.0000000001
 43
0.0000000001
 44
0.000001
 12
0.9487139982427795
 22
-0.3161356505334366
 32
0.0
 13
0.9998801064241472
 23
0.0154845980650528
 33
0.0
 40
0.0
 40
0.0
 40
0.0
 40
0.0
 40
0.0032281630019891
 40
0.0096478713636456
 40
0.0129156519903829
 40
0.0162409066153344
 40
0.0196368648975113
 40
0.0231158048284822
 40
0.0231158048284822
 40
0.0231158048284822
 40
0.0231158048284822
 10
30.44944369013064
 20
20.72781940359084
 30
0.0
 10
30.45046455794017
 20
20.72747922445393
 30
0.0
 10
30.45354441668931
 20
20.72654774578848
 30
0.0
 10
30.45776720891595
 20
20.72565970192932
 30
0.0
 10
30.46206838208139
 20
20.72509052830736
 30
0.0
 10
30.46538734566463
 20
20.72480848023196
 30
0.0
 10
30.46878521919194
 20
20.72466572844667
 30
0.0
 10
30.47107749739883
 20
20.72465648114098
 30
0.0
 10
30.47223700500831
 20
20.72467443780317
 30
0.0
 11
30.44944369013064
 21
20.72781940359084
 31
0.0
 11
30.45253416585615
 21
20.7268849265522
 31
0.0
 11
30.45881362340913
 21
20.72554864566882
 31
0.0
 11
30.4620529456538
 21
20.72511750803938
 31
0.0
 11
30.46536618784922
 21
20.72483352021845
 31
0.0
 11
30.46875899322436
 21
20.72468854315628
 31
0.0
 11
30.47223700500831
 21
20.72467443780317
 31
0.0
  0
SPLINE
  5
166
330
2
100
AcDbEntity
  8
GAIKEI
  6
Continuous
 62
     1
100
AcDbSpline
210
0.0
220
0.0
230
1.0
 70
     8
 71
     3
 72
    15
 73
    11
 74
     9
 42
0.0000000001
 43
0.0000000001
 44
0.000001
 12
-0.1345307900367005
 22
0.990909413888122
 32
0.0
 13
-0.9994496190759491
 23
0.0331731657961701
 33
0.0
 40
0.0
 40
0.0
 40
0.0
 40
0.0
 40
0.0233153785982079
 40
0.0466018528890062
 40
0.0698679735041675
 40
0.0931236945380871
 40
0.1163794155718658
 40
0.1396455361869626
 40
0.1629320104776262
 40
0.1862473890756961
 40
0.1862473890756961
 40
0.1862473890756961
 40
0.1862473890756961
 10
31.26337807918685
 20
24.04004468379878
 30
0.0
 10
31.26233253375259
 20
24.04774582651254
 30
0.0
 10
31.25891542397807
 20
24.06299463895374
 30
0.0
 10
31.2498661619353
 20
24.08457942331512
 30
0.0
 10
31.23719745106896
 20
24.10424203116804
 30
0.0
 10
31.22128957733301
 20
24.12137481613786
 30
0.0
 10
31.20262941920291
 20
24.13545995959391
 30
0.0
 10
31.18178157617521
 20
24.14606570443726
 30
0.0
 10
31.15938918258166
 20
24.15287545983591
 30
0.0
 10
31.14387212696775
 20
24.15472583956722
 30
0.0
 10
31.13610461154826
 20
24.1549836545405
 30
0.0
 11
31.26337807918685
 21
24.04004468379878
 31
0.0
 11
31.25825854209518
 21
24.06279156469827
 31
0.0
 11
31.24925900767408
 21
24.08426874492193
 31
0.0
 11
31.23665518639155
 21
24.1038252663285
 31
0.0
 11
31.22083160186298
 21
24.12086769374253
 31
0.0
 11
31.20226989638667
 21
24.13487816301734
 31
0.0
 11
31.18153418282185
 21
24.14543013076758
 31
0.0
 11
31.15925388830112
 21
24.15220134677497
 31
0.0
 11
31.13610461154826
 21
24.1549836545405
 31
0.0
  0
SPLINE
  5
167
330
2
100
AcDbEntity
  8
GAIKEI
  6
Continuous
 62
     1
100
AcDbSpline
210
0.0
220
0.0
230
1.0
 70
     8
 71
     3
 72
    21
 73
    17
 74
    15
 42
0.0000000001
 43
0.0000000001
 44
0.000001
 12
0.978004482629762
 22
0.2085838727133314
 32
0.0
 13
0.1354487900196674
 23
0.9907843485250502
 33
0.0
 40
0.0
 40
0.0
 40
0.0
 40
0.0
 40
0.0199215087762693
 40
0.0395198938738619
 40
0.0588087415335097
 40
0.0777961773045403
 40
0.0964872829742322
 40
0.1148865293641015
 40
0.1329997522067936
 40
0.1508345262551026
 40
0.1741839345165429
 40
0.1970597141137849
 40
0.2194690949709
 40
0.2414165726699513
 40
0.2629089085025964
 40
0.28395803356814
 40
0.28395803356814
 40
0.28395803356814
 40
0.28395803356814
 10
31.36896131851159
 20
20.50509476850823
 30
0.0
 10
31.37545576013958
 20
20.50647987032517
 30
0.0
 10
31.3882281812077
 20
20.50978404828686
 30
0.0
 10
31.40673410382595
 20
20.51631726342396
 30
0.0
 10
31.42434726151476
 20
20.52424162076204
 30
0.0
 10
31.44098862567537
 20
20.53343065241666
 30
0.0
 10
31.45659089264723
 20
20.54376154569713
 30
0.0
 10
31.47109356314877
 20
20.55511848536111
 30
0.0
 10
31.48444551272863
 20
20.56739039798674
 30
0.0
 10
31.49790966233008
 20
20.58188752857757
 30
0.0
 10
31.51099033642527
 20
20.59881409549678
 30
0.0
 10
31.52312929431918
 20
20.61824888680064
 30
0.0
 10
31.53312593501633
 20
20.6383448764841
 30
0.0
 10
31.5410131982108
 20
20.65886328493042
 30
0.0
 10
31.54683729436852
 20
20.67958635565674
 30
0.0
 10
31.54939713069353
 20
20.69355759979822
 30
0.0
 10
31.55034749020058
 20
20.70050931435327
 30
0.0
 11
31.36896131851159
 21
20.50509476850823
 31
0.0
 11
31.38824785762461
 21
20.51008635966059
 31
0.0
 11
31.40673001395851
 21
20.51660607039099
 31
0.0
 11
31.42432099251755
 21
20.52451917099262
 31
0.0
 11
31.44094294080458
 21
20.53369706177244
 31
0.0
 11
31.45652669015618
 21
20.54401715963206
 31
0.0
 11
31.47101148983131
 21
20.55536278359296
 31
0.0
 11
31.48434473414539
 21
20.5676230386689
 31
0.0
 11
31.49648162657638
 21
20.58069114657206
 31
0.0
 11
31.5107654489683
 21
20.59916188183934
 31
0.0
 11
31.52288694077805
 21
20.61856217185033
 31
0.0
 11
31.53286807584959
 21
20.63862600963171
 31
0.0
 11
31.54074173321442
 21
20.65911252797707
 31
0.0
 11
31.54655083318647
 21
20.6798049175265
 31
0.0
 11
31.55034749020058
 21
20.70050931435327
 31
0.0
  0
SPLINE
  5
168
330
2
100
AcDbEntity
  8
GAIKEI
  6
Continuous
 62
     1
100
AcDbSpline
210
0.0
220
0.0
230
1.0
 70
     8
 71
     3
 72
    15
 73
    11
 74
     9
 42
0.0000000001
 43
0.0000000001
 44
0.000001
 12
0.9785263958185264
 22
0.2061215483310866
 32
0.0
 13
0.1327585762537782
 23
0.9911484048471599
 33
0.0
 40
0.0
 40
0.0
 40
0.0
 40
0.0
 40
0.0257301444278622
 40
0.0508393460167754
 40
0.0759402904366868
 40
0.1016467932427871
 40
0.1273459535904309
 40
0.1524442556000544
 40
0.1775562343418462
 40
0.2032949066242213
 40
0.2032949066242213
 40
0.2032949066242213
 40
0.2032949066242213
 10
31.35514714439143
 20
20.5695609144023
 30
0.0
 10
31.36353968622171
 20
20.57132876013838
 30
0.0
 10
31.37987999037475
 20
20.57610531291925
 30
0.0
 10
31.40291075358326
 20
20.58684264613345
 30
0.0
 10
31.42393620989384
 20
20.60112081828862
 30
0.0
 10
31.44263286006091
 20
20.61859818497175
 30
0.0
 10
31.45867527639893
 20
20.63853874850412
 30
0.0
 10
31.47134979173348
 20
20.66056557436929
 30
0.0
 10
31.48034480378857
 20
20.68433409496009
 30
0.0
 10
31.48389361303961
 20
20.70098809795258
 30
0.0
 10
31.48503262286857
 20
20.70949171261111
 30
0.0
 11
31.35514714439143
 21
20.5695609144023
 31
0.0
 11
31.37984407500358
 21
20.57678066346267
 31
0.0
 11
31.4025834445946
 21
20.58742929051835
 31
0.0
 11
31.42336525316466
 21
20.60150679556932
 31
0.0
 11
31.44218950071365
 21
20.6190131786156
 31
0.0
 11
31.45824653250008
 21
20.63907857276206
 31
0.0
 11
31.47073939678802
 21
20.66084679314349
 31
0.0
 11
31.47966809357752
 21
20.68431783975984
 31
0.0
 11
31.48503262286857
 21
20.70949171261111
 31
0.0
  0
SPLINE
  5
169
330
2
100
AcDbEntity
  8
GAIKEI
  6
Continuous
 62
     1
100
AcDbSpline
210
0.0
220
0.0
230
1.0
 70
     8
 71
     3
 72
     9
 73
     5
 74
     3
 42
0.0000000001
 43
0.0000000001
 44
0.000001
 12
0.1362218791743881
 22
0.990678353268203
 32
0.0
 13
0.0000205302016735
 23
0.9999999997892553
 33
0.0
 40
0.0
 40
0.0
 40
0.0
 40
0.0
 40
0.0636160010090356
 40
0.1272320020216339
 40
0.1272320020216339
 40
0.1272320020216339
 40
0.1272320020216339
 10
31.68632307317665
 20
22.17316084413687
 30
0.0
 10
31.68921170357766
 20
22.19416850917725
 30
0.0
 10
31.69355805776445
 20
22.23639325261024
 30
0.0
 10
31.69500502361084
 20
22.27881643073891
 30
0.0
 10
31.69500545896062
 20
22.3000217644053
 30
0.0
 11
31.68632307317665
 21
22.17316084413687
 31
0.0
 11
31.69283420834546
 21
22.23644279300248
 31
0.0
 11
31.69500545896062
 21
22.3000217644053
 31
0.0
  0
SPLINE
  5
16A
330
2
100
AcDbEntity
  8
GAIKEI
  6
Continuous
 62
     1
100
AcDbSpline
210
0.0
220
0.0
230
1.0
 70
     8
 71
     3
 72
     9
 73
     5
 74
     3
 42
0.0000000001
 43
0.0000000001
 44
0.000001
 12
-0.0000205301984769
 22
0.9999999997892555
 32
0.0
 13
-0.1362218791775721
 23
0.990678353267765
 33
0.0
 40
0.0
 40
0.0
 40
0.0
 40
0.0
 40
0.0636160010140754
 40
0.1272320020215843
 40
0.1272320020215843
 40
0.1272320020215843
 40
0.1272320020215843
 10
31.69500545896062
 20
22.60281909559944
 30
0.0
 10
31.69500502361092
 20
22.62402442926634
 30
0.0
 10
31.69355805776457
 20
22.66644760739496
 30
0.0
 10
31.68921170357766
 20
22.70867235082795
 30
0.0
 10
31.68632307317665
 20
22.72968001586781
 30
0.0
 11
31.69500545896062
 21
22.60281909559944
 31
0.0
 11
31.69283420834546
 21
22.66639806700374
 31
0.0
 11
31.68632307317665
 21
22.72968001586781
 31
0.0
  0
SPLINE
  5
16B
330
2
100
AcDbEntity
  8
GAIKEI
  6
Continuous
 62
     1
100
AcDbSpline
210
0.0
220
0.0
230
1.0
 70
     8
 71
     3
 72
    15
 73
    11
 74
     9
 42
0.0000000001
 43
0.0000000001
 44
0.000001
 12
-0.1327902774087838
 22
0.9911441581453722
 32
0.0
 13
-0.9785329879817496
 23
0.2060902506949534
 33
0.0
 40
0.0
 40
0.0
 40
0.0
 40
0.0
 40
0.0257301444274095
 40
0.05083934601627
 40
0.0759402904363015
 40
0.1016467932429319
 40
0.1273459535905735
 40
0.1524442556001977
 40
0.1775562343420387
 40
0.2032949066242655
 40
0.2032949066242655
 40
0.2032949066242655
 40
0.2032949066242655
 10
31.48503262286857
 20
24.19334914739363
 30
0.0
 10
31.4838937185298
 20
24.20184990817279
 30
0.0
 10
31.48034541103394
 20
24.2185001487174
 30
0.0
 10
31.47135030956713
 20
24.24226555483875
 30
0.0
 10
31.45867506204971
 20
24.26429449293266
 30
0.0
 10
31.44263631255149
 20
24.28423895552731
 30
0.0
 10
31.42394382330929
 20
24.30171968897554
 30
0.0
 10
31.40292041893668
 20
24.31599697391522
 30
0.0
 10
31.37988654323235
 20
24.32673444954878
 30
0.0
 10
31.36354252435643
 20
24.33151178246129
 30
0.0
 10
31.35514714439143
 20
24.33327994560239
 30
0.0
 11
31.48503262286857
 21
24.19334914739363
 31
0.0
 11
31.4796692595188
 21
24.21851455006697
 31
0.0
 11
31.4707409513764
 21
24.24198277329072
 31
0.0
 11
31.45824769844137
 21
24.26375381706475
 31
0.0
 11
31.44218950071365
 21
24.28382768138908
 31
0.0
 11
31.42337361319756
 21
24.30133227190203
 31
0.0
 11
31.4025945913051
 21
24.31540917944187
 31
0.0
 11
31.37985243503635
 21
24.32605840400868
 31
0.0
 11
31.35514714439143
 21
24.33327994560239
 31
0.0
  0
SPLINE
  5
16C
330
2
100
AcDbEntity
  8
GAIKEI
  6
Continuous
 62
     1
100
AcDbSpline
210
0.0
220
0.0
230
1.0
 70
     8
 71
     3
 72
    15
 73
    11
 74
     9
 42
0.0000000001
 43
0.0000000001
 44
0.000001
 12
-0.1364008987339492
 22
0.9906537209462097
 32
0.0
 13
-0.1677708966327061
 23
0.9858260121558256
 33
0.0
 40
0.0
 40
0.0
 40
0.0
 40
0.0
 40
0.0088099548289516
 40
0.017520847846353
 40
0.0261353685926152
 40
0.034654666058374
 40
0.0430781984095301
 40
0.0513553481857126
 40
0.0593952990170513
 40
0.0671960523423378
 40
0.0671960523423378
 40
0.0671960523423378
 40
0.0671960523423378
 10
31.27897329276243
 20
23.94079144139027
 30
0.0
 10
31.27857273084359
 20
23.9437006462345
 30
0.0
 10
31.27774499536298
 20
23.94948210460876
 30
0.0
 10
31.27642197788069
 20
23.9580929847624
 30
0.0
 10
31.27503333470119
 20
23.96659534637553
 30
0.0
 10
31.27359467372944
 20
23.9749921731717
 30
0.0
 10
31.27212793108285
 20
23.98326991643023
 30
0.0
 10
31.27066758670458
 20
23.99138645818999
 30
0.0
 10
31.26924601718946
 20
23.9992990880267
 30
0.0
 10
31.26834968675664
 20
24.00450273426236
 30
0.0
 10
31.26791344029669
 20
24.00706612944316
 30
0.0
 11
31.27897329276243
 21
23.94079144139027
 31
0.0
 11
31.27772632610811
 21
23.94951276749509
 31
0.0
 11
31.27640446298261
 21
23.95812278381271
 31
0.0
 11
31.27501810311406
 21
23.96662501786301
 31
0.0
 11
31.27358226548051
 21
23.97502244535951
 31
0.0
 11
31.27211670743162
 21
23.98331750493293
 31
0.0
 11
31.27065491490544
 21
23.99146455125532
 31
0.0
 11
31.26924251443006
 21
23.99937950173762
 31
0.0
 11
31.26791344029669
 21
24.00706612944316
 31
0.0
  0
SPLINE
  5
16D
330
2
100
AcDbEntity
  8
GAIKEI
  6
Continuous
 62
     1
100
AcDbSpline
210
0.0
220
0.0
230
1.0
 70
     8
 71
     3
 72
    13
 73
     9
 74
     7
 42
0.0000000001
 43
0.0000000001
 44
0.000001
 12
-0.1032078770309288
 22
0.9946598082353428
 32
0.0
 13
-0.135947176317206
 23
0.9907160871063812
 33
0.0
 40
0.0
 40
0.0
 40
0.0
 40
0.0
 40
0.010667482179516
 40
0.0213526033888245
 40
0.032380869981266
 40
0.0439032233371567
 40
0.0555872268422808
 40
0.0673754141472291
 40
0.0673754141472291
 40
0.0673754141472291
 40
0.0673754141472291
 10
31.38204102344929
 20
23.17719556051918
 30
0.0
 10
31.38167403405296
 20
23.18073239911218
 30
0.0
 10
31.38095191653304
 20
23.18781327411705
 30
0.0
 10
31.37993938872418
 20
23.19855933451743
 30
0.0
 10
31.37886436457004
 20
23.2095856678643
 30
0.0
 10
31.37767247781539
 20
23.22093497722796
 30
0.0
 10
31.37632111685136
 20
23.23252159004892
 30
0.0
 10
31.37530959869272
 20
23.24028028469712
 30
0.0
 10
31.37477540843338
 20
23.24417320029738
 30
0.0
 11
31.38204102344929
 21
23.17719556051918
 31
0.0
 11
31.38096708079172
 21
23.18780855329408
 31
0.0
 11
31.37994545888683
 21
23.19844496850442
 31
0.0
 11
31.3788680237468
 21
23.20942048249174
 31
0.0
 11
31.37765735759137
 21
23.22087905897126
 31
0.0
 11
31.37630009352023
 21
23.23248396679048
 31
0.0
 11
31.37477540843338
 21
23.24417320029738
 31
0.0
  0
SPLINE
  5
16E
330
2
100
AcDbEntity
  8
GAIKEI
  6
Continuous
 62
     1
100
AcDbSpline
210
0.0
220
0.0
230
1.0
 70
     8
 71
     3
 72
    14
 73
    10
 74
     8
 42
0.0000000001
 43
0.0000000001
 44
0.000001
 12
0.1677588837034731
 22
0.9858280564776825
 32
0.0
 13
0.1366130456583842
 23
0.9906244877631182
 33
0.0
 40
0.0
 40
0.0
 40
0.0
 40
0.0
 40
0.0077805537818923
 40
0.0157593947442482
 40
0.0239337084991444
 40
0.0323033226630862
 40
0.0438356785406566
 40
0.0554749749921042
 40
0.0671959577983711
 40
0.0671959577983711
 40
0.0671959577983711
 40
0.0671959577983711
 10
31.26791344029669
 20
20.89577473056158
 30
0.0
 10
31.26834852596903
 20
20.89833149329928
 30
0.0
 10
31.26924021851511
 20
20.90350843595934
 30
0.0
 10
31.27065070666174
 20
20.91136069121228
 30
0.0
 10
31.27209824359494
 20
20.91940575171532
 30
0.0
 10
31.27373211371344
 20
20.92862080729844
 30
0.0
 10
31.27549895854591
 20
20.9389852055711
 30
0.0
 10
31.27732363243192
 20
20.95047237033026
 30
0.0
 10
31.27843954637601
 20
20.95817905441828
 30
0.0
 10
31.27897329276243
 20
20.96204941861447
 30
0.0
 11
31.26791344029669
 21
20.89577473056158
 31
0.0
 11
31.26923900445763
 21
20.90344147095198
 31
0.0
 11
31.27064054056956
 21
20.91129628119899
 31
0.0
 11
31.2720843241849
 21
20.91934208053158
 31
0.0
 11
31.27354137692572
 21
20.92758388966405
 31
0.0
 11
31.27547257816707
 21
20.93895339692762
 31
0.0
 11
31.27729410246809
 21
20.95044928142931
 31
0.0
 11
31.27897329276243
 21
20.96204941861447
 31
0.0
  0
SPLINE
  5
16F
330
2
100
AcDbEntity
  8
GAIKEI
  6
Continuous
 62
     1
100
AcDbSpline
210
0.0
220
0.0
230
1.0
 70
     8
 71
     3
 72
    14
 73
    10
 74
     8
 42
0.0000000001
 43
0.0000000001
 44
0.000001
 12
0.1359523053525381
 22
0.9907153832808543
 32
0.0
 13
0.1044770653903519
 23
0.9945272961600501
 33
0.0
 40
0.0
 40
0.0
 40
0.0
 40
0.0
 40
0.0117441122318296
 40
0.023314312774415
 40
0.0347515885517257
 40
0.0432002755692024
 40
0.0514996482291304
 40
0.059558132212225
 40
0.0673754410105474
 40
0.0673754410105474
 40
0.0673754410105474
 40
0.0673754410105474
 10
31.38463221079786
 20
21.73034069404332
 30
0.0
 10
31.38516442384193
 20
21.7342190515937
 30
0.0
 10
31.38616934505814
 20
21.74192553224452
 30
0.0
 10
31.38751249512836
 20
21.75343155794292
 30
0.0
 10
31.38861004595134
 20
21.76385951437646
 30
0.0
 10
31.38952939652489
 20
21.7732095600843
 30
0.0
 10
31.39031566388826
 20
21.78144093461026
 30
0.0
 10
31.39108330309824
 20
21.78946270661521
 30
0.0
 10
31.39162558265295
 20
21.79472682482737
 30
0.0
 10
31.39189782581377
 20
21.79731833382152
 30
0.0
 11
31.38463221079786
 21
21.73034069404332
 31
0.0
 11
31.38615149451596
 21
21.74198618016885
 31
0.0
 11
31.38749676095751
 21
21.7534779106407
 31
0.0
 11
31.38870036533308
 21
21.76485167946407
 31
0.0
 11
31.38953133464577
 21
21.77325940116424
 31
0.0
 11
31.39032453780453
 21
21.78152078163453
 31
0.0
 11
31.39110179535851
 21
21.78954171785813
 31
0.0
 11
31.39189782581377
 21
21.79731833382152
 31
0.0
  0
ARC
  5
170
330
2
100
AcDbEntity
  8
GAIKEI
 62
     1
100
AcDbCircle
 10
30.4847204868185
 20
25.00220390493087
 30
0.0
 40
0.1000109124005768
100
AcDbArc
 50
294.6822153763288
 51
359.9992555506058
  0
LINE
  5
171
330
2
100
AcDbEntity
  8
GAIKEI
 62
     1
100
AcDbLine
 10
30.58473139921062
 20
25.00220261659183
 30
0.0
 11
30.58473139921062
 21
25.05089030883409
 31
0.0
  0
ARC
  5
172
330
2
100
AcDbEntity
  8
GAIKEI
 62
     1
100
AcDbCircle
 10
30.50838637989313
 20
25.0558797847778
 30
0.0
 40
0.0096820896984856
100
AcDbArc
 50
265.9875314113305
 51
357.4403055779336
  0
LINE
  5
173
330
2
100
AcDbEntity
  8
GAIKEI
 62
     1
100
AcDbLine
 10
30.51805880913065
 20
25.05544738036605
 30
0.0
 11
30.51805880913065
 21
25.07505482235598
 31
0.0
  0
ARC
  5
174
330
2
100
AcDbEntity
  8
GAIKEI
 62
     1
100
AcDbCircle
 10
30.52805969764262
 20
25.07505482235598
 30
0.0
 40
0.0100008885120045
100
AcDbArc
 50
88.00000000002318
 51
179.9999999998914
  0
LINE
  5
175
330
2
100
AcDbEntity
  8
GAIKEI
 62
     1
100
AcDbLine
 10
30.5284087286517
 20
25.085049610326
 30
0.0
 11
30.55255852408948
 21
25.08420629630382
 31
0.0
  0
ARC
  5
176
330
2
100
AcDbEntity
  8
GAIKEI
 62
     1
100
AcDbCircle
 10
30.55139509493324
 20
25.05089030510186
 30
0.0
 40
0.03333630427746
100
AcDbArc
 50
0.0000064146182766
 51
88.00001314450677
  0
LINE
  5
177
330
2
100
AcDbEntity
  8
GAIKEI
 62
     1
100
AcDbLine
 10
28.9605066877906
 20
1.473823908645101
 30
0.0
 11
28.9605066877906
 21
1.368034659431032
 31
0.0
  0
MTEXT
  5
178
330
2
100
AcDbEntity
  8
SUNPO
  6
Continuous
100
AcDbMText
 10
40.03481989536206
 20
35.1658562595444
 30
0.0
 40
2.5
 41
0.0
 71
     5
 72
     1
  1
21.5
 73
     1
 44
1.0
1001
ACAD
1000
MTEXTBEGIN
1070
    73
1070
     1
1070
    44
1040
1.0
1070
    74
1070
     0
1000
MTEXTEND
  0
LINE
  5
179
330
2
100
AcDbEntity
  8
SUNPO
100
AcDbLine
 10
31.85970306578096
 20
33.19258478167672
 30
0.0
 11
32.16334658806451
 21
33.19258478167672
 31
0.0
  0
LINE
  5
17A
330
2
100
AcDbEntity
  8
SUNPO
100
AcDbLine
 10
31.8044572173329
 20
33.24258478167167
 30
0.0
 11
32.21859243651247
 21
33.24258478167167
 31
0.0
  0
LINE
  5
17B
330
2
100
AcDbEntity
  8
SUNPO
100
AcDbLine
 10
31.77130796088861
 20
33.29258478166668
 30
0.0
 11
32.25174169295687
 21
33.29258478166668
 31
0.0
  0
LINE
  5
17C
330
2
100
AcDbEntity
  8
SUNPO
100
AcDbLine
 10
31.75165699414171
 20
33.34258478166169
 30
0.0
 11
32.27139265970377
 21
33.34258478166169
 31
0.0
  0
LINE
  5
17D
330
2
100
AcDbEntity
  8
SUNPO
100
AcDbLine
 10
31.75265664834248
 20
33.49258478164666
 30
0.0
 11
32.27039300550288
 21
33.49258478164666
 31
0.0
  0
LINE
  5
17E
330
2
100
AcDbEntity
  8
SUNPO
100
AcDbLine
 10
31.77311366595822
 20
33.54258478164172
 30
0.0
 11
32.24993598788726
 21
33.54258478164172
 31
0.0
  0
LINE
  5
17F
330
2
100
AcDbEntity
  8
SUNPO
100
AcDbLine
 10
31.80739979302322
 20
33.59258478163667
 30
0.0
 11
32.21564986082225
 21
33.59258478163667
 31
0.0
  0
LINE
  5
180
330
2
100
AcDbEntity
  8
SUNPO
100
AcDbLine
 10
31.86491590066814
 20
33.64258478163163
 30
0.0
 11
32.15813375317734
 21
33.64258478163163
 31
0.0
  0
LINE
  5
181
330
2
100
AcDbEntity
  8
SUNPO
100
AcDbLine
 10
31.74285107291732
 20
33.4425847816517
 30
0.0
 11
32.28019858092816
 21
33.4425847816517
 31
0.0
  0
LINE
  5
182
330
2
100
AcDbEntity
  8
SUNPO
100
AcDbLine
 10
31.74252958848465
 20
33.39258478165664
 30
0.0
 11
32.28052006536072
 21
33.39258478165664
 31
0.0
  0
CIRCLE
  5
183
330
2
100
AcDbEntity
  8
SUNPO
100
AcDbCircle
 10
32.01152482692268
 20
33.4158562595444
 30
0.0
 40
0.2699999999729999
  0
LINE
  5
184
330
2
100
AcDbEntity
  8
SUNPO
  6
Continuous
100
AcDbLine
 10
32.66152482685752
 20
27.41585625954434
 30
0.0
 11
32.66152482685752
 21
35.41585625954434
 31
0.0
  0
INSERT
  5
185
330
2
100
AcDbEntity
  8
SUNPO
  6
Continuous
100
AcDbBlockReference
  2
_OPEN30
 10
32.66152482685752
 20
33.41585625954434
 30
0.0
 41
2.0
 42
2.0
 43
2.0
 50
180.0
  0
MTEXT
  5
186
330
2
100
AcDbEntity
  8
SUNPO
  6
Continuous
100
AcDbMText
 10
24.3549091973423
 20
35.16585625954446
 30
0.0
 40
2.5
 41
0.0
 71
     5
 72
     1
  1
95
 73
     1
 44
1.0
1001
ACAD
1000
MTEXTBEGIN
1070
    73
1070
     1
1070
    44
1040
1.0
1070
    74
1070
     0
1000
MTEXTEND
  0
INSERT
  5
187
330
2
100
AcDbEntity
  8
SUNPO
  6
Continuous
100
AcDbBlockReference
  2
_OPEN30
 10
28.85804464947188
 20
33.4158562595444
 30
0.0
 41
2.0
 42
2.0
 43
2.0
  0
LINE
  5
188
330
2
100
AcDbEntity
  8
SUNPO
  6
Continuous
100
AcDbLine
 10
28.85804464947188
 20
33.4158562595444
 30
0.0
 11
32.66152482685752
 21
33.41585625954434
 31
0.0
  0
LINE
  5
189
330
2
100
AcDbEntity
  8
SUNPO
  6
Continuous
100
AcDbLine
 10
33.74986137330254
 20
33.41585625954434
 30
0.0
 11
45.09324428425216
 21
33.41585625954434
 31
0.0
  0
LINE
  5
18A
330
2
100
AcDbEntity
  8
SUNPO
  6
Continuous
100
AcDbLine
 10
26.85804464947188
 20
33.4158562595444
 30
0.0
 11
21.45479427201968
 21
33.4158562595444
 31
0.0
  0
LINE
  5
18B
330
2
100
AcDbEntity
  8
SUNPO
  6
Continuous
100
AcDbLine
 10
32.01152482692268
 20
27.4158562595444
 30
0.0
 11
32.01152482692268
 21
35.4158562595444
 31
0.0
  0
LINE
  5
18C
330
2
100
AcDbEntity
  8
SUNPO
  6
Continuous
100
AcDbLine
 10
28.85804464947188
 20
27.41585625954446
 30
0.0
 11
28.85804464947188
 21
35.4158562595444
 31
0.0
  0
LINE
  5
18D
330
2
100
AcDbEntity
  8
GAIKEI
  6
Continuous
 62
   251
100
AcDbLine
 10
-30.57942218762122
 20
1.419616995341471
 30
0.0
 11
-30.5729473457082
 21
1.409616106829446
 31
0.0
  0
LINE
  5
18E
330
2
100
AcDbEntity
  8
GAIKEI
  6
Continuous
 62
   251
100
AcDbLine
 10
-30.41703329378839
 20
1.409616106829446
 30
0.0
 11
-30.4105584185391
 21
1.419616995341471
 31
0.0
  0
LINE
  5
18F
330
2
100
AcDbEntity
  8
GAIKEI
  6
Continuous
 62
   251
100
AcDbLine
 10
-30.41703329378839
 20
1.409616106829446
 30
0.0
 11
-30.5729473457082
 21
1.409616106829446
 31
0.0
  0
LINE
  5
190
330
2
100
AcDbEntity
  8
GAIKEI
  6
Continuous
 62
   251
100
AcDbLine
 10
-30.58044017806287
 20
1.421189368369596
 30
0.0
 11
-30.57942218762122
 21
1.419616995341471
 31
0.0
  0
LINE
  5
191
330
2
100
AcDbEntity
  8
GAIKEI
  6
Continuous
 62
   251
100
AcDbLine
 10
-30.4105584185391
 20
1.419616995341471
 30
0.0
 11
-30.57942218762122
 21
1.419616995341471
 31
0.0
  0
LINE
  5
192
330
2
100
AcDbEntity
  8
GAIKEI
  6
Continuous
 62
   251
100
AcDbLine
 10
-30.4105584185391
 20
1.419616995341471
 30
0.0
 11
-30.40954042809744
 21
1.421189368369596
 31
0.0
  0
ELLIPSE
  5
193
330
2
100
AcDbEntity
  8
GAIKEI
  6
Continuous
 62
   251
100
AcDbEllipse
 10
-29.98396515191643
 20
1.368618966677786
 30
0.0
 11
-0.0072915979467025
 21
0.0833407309954785
 31
0.0
210
0.0
220
0.0
230
1.0
 40
0.00455
 41
0.9054863047435736
 42
1.023000185587124
  0
ELLIPSE
  5
194
330
2
100
AcDbEntity
  8
GAIKEI
  6
Continuous
 62
   251
100
AcDbEllipse
 10
-29.9892403539161
 20
1.424140399385464
 30
0.0
 11
-0.0020416474250767
 21
0.0233354046787341
 31
0.0
210
0.0
220
0.0
230
1.0
 40
0.00455
 41
3.193554418662971
 42
4.16459283917666
  0
ELLIPSE
  5
195
330
2
100
AcDbEntity
  8
GAIKEI
  6
Continuous
 62
   251
100
AcDbEllipse
 10
-30.01581761512785
 20
1.753402318769474
 30
0.0
 11
-0.0291663917868101
 21
0.333362923981915
 31
0.0
210
0.0
220
0.0
230
1.0
 40
0.00455
 41
3.141194541103503
 42
3.193554418658768
  0
LINE
  5
196
330
2
100
AcDbEntity
  8
GAIKEI
  6
Continuous
 62
   251
100
AcDbLine
 10
-30.15779749575648
 20
1.383778144632799
 30
0.0
 11
-30.13735881324971
 21
1.391677513105491
 31
0.0
  0
LINE
  5
197
330
2
100
AcDbEntity
  8
GAIKEI
  6
Continuous
 62
   251
100
AcDbLine
 10
-29.98808638472701
 20
1.413145087022371
 30
0.0
 11
-30.41474852413529
 21
1.413145087022371
 31
0.0
  0
LINE
  5
198
330
2
100
AcDbEntity
  8
GAIKEI
  6
Continuous
 62
   251
100
AcDbLine
 10
-29.98719593895021
 20
1.401986995700667
 30
0.0
 11
-29.98719593895021
 21
1.398906088649368
 31
0.0
  0
LINE
  5
199
330
2
100
AcDbEntity
  8
GAIKEI
  6
Continuous
 62
   251
100
AcDbLine
 10
-29.98719593895021
 20
1.398906088649368
 30
0.0
 11
-29.98661182038853
 21
1.392018743421488
 31
0.0
  0
LINE
  5
19A
330
2
100
AcDbEntity
  8
GAIKEI
  6
Continuous
 62
   251
100
AcDbLine
 10
-29.98661182038853
 20
1.392018743421488
 30
0.0
 11
-29.98661182038853
 21
1.421646208956815
 31
0.0
  0
SPLINE
  5
19B
330
2
100
AcDbEntity
  8
GAIKEI
  6
Continuous
 62
   251
100
AcDbSpline
210
0.0
220
0.0
230
1.0
 70
     8
 71
     3
 72
    22
 73
    18
 74
    16
 42
0.0000000001
 43
0.0000000001
 44
0.000001
 12
0.9999994906187062
 22
0.0010093375690448
 32
0.0
 13
0.8041259435850019
 23
0.5944589698654824
 33
0.0
 40
0.0
 40
0.0
 40
0.0
 40
0.0
 40
0.0097749256622308
 40
0.0193329776068266
 40
0.0320264968871611
 40
0.0442541687435805
 40
0.056015221292067
 40
0.0673086939958937
 40
0.0857801686792169
 40
0.1030785073291561
 40
0.1188648245304567
 40
0.132801076617705
 40
0.1400689952212711
 40
0.1460172719826526
 40
0.1482462515545415
 40
0.1498243040911078
 40
0.1505008193217982
 40
0.1505008193217982
 40
0.1505008193217982
 40
0.1505008193217982
 10
-30.13735880127342
 20
1.391677501741924
 30
0.0
 10
-30.13410049437906
 20
1.391680790475163
 30
0.0
 10
-30.12765613561567
 20
1.391710615388831
 30
0.0
 10
-30.11698156839393
 20
1.391857910808539
 30
0.0
 10
-30.10549057538927
 20
1.392080328858128
 30
0.0
 10
-30.09326704498253
 20
1.392391314926612
 30
0.0
 10
-30.08151181243156
 20
1.392752237776164
 30
0.0
 10
-30.06767828238569
 20
1.393238045541409
 30
0.0
 10
-30.05200305020998
 20
1.393863382135464
 30
0.0
 10
-30.03483584146082
 20
1.394671197510888
 30
0.0
 10
-30.0191891042229
 20
1.395558991272423
 30
0.0
 10
-30.00688107621653
 20
1.396388468863051
 30
0.0
 10
-29.99787369171222
 20
1.397171474714923
 30
0.0
 10
-29.99272805338549
 20
1.397654119029596
 30
0.0
 10
-29.98954475094166
 20
1.39820135939766
 30
0.0
 10
-29.9880209974497
 20
1.398362128527935
 30
0.0
 10
-29.98737727109378
 20
1.398772045883902
 30
0.0
 10
-29.98719593661105
 20
1.398906099399596
 30
0.0
 11
-30.13735880127342
 21
1.391677501741924
 31
0.0
 11
-30.12758434052171
 21
1.391726994806958
 31
0.0
 11
-30.11802710584198
 21
1.391852031313874
 31
0.0
 11
-30.10533596079239
 21
1.392097377670665
 31
0.0
 11
-30.09311221530561
 21
1.392407126277134
 31
0.0
 11
-30.08135666501857
 21
1.392766772625066
 31
0.0
 11
-30.07007010556811
 21
1.393161812206187
 31
0.0
 11
-30.05161349582954
 21
1.393902620367612
 31
0.0
 11
-30.0343347147678
 21
1.394724873797542
 31
0.0
 11
-30.0185740610367
 21
1.395624560852354
 31
0.0
 11
-30.00467183329016
 21
1.396597669888251
 31
0.0
 11
-29.997430626143
 21
1.397220090977953
 31
0.0
 11
-29.99151895366379
 21
1.39787877002044
 31
0.0
 11
-29.98931510664147
 21
1.398212362868946
 31
0.0
 11
-29.98777518639816
 21
1.398556495743946
 31
0.0
 11
-29.98719593661105
 21
1.398906099399596
 31
0.0
  0
SPLINE
  5
19C
330
2
100
AcDbEntity
  8
GAIKEI
  6
Continuous
 62
   251
100
AcDbSpline
210
0.0
220
0.0
230
1.0
 70
     8
 71
     3
 72
    24
 73
    20
 74
    18
 42
0.0000000001
 43
0.0000000001
 44
0.000001
 12
-0.8224684625577651
 22
-0.5688107137685313
 32
0.0
 13
-0.9999995813477761
 23
-0.0009150433173114
 33
0.0
 40
0.0
 40
0.0
 40
0.0
 40
0.0
 40
0.0008458686927702
 40
0.0027838841018114
 40
0.0069226091241031
 40
0.0122085085559175
 40
0.0182924880406481
 40
0.0303451516887313
 40
0.0438192651424036
 40
0.0584527422357463
 40
0.0739828188283625
 40
0.0876197140203444
 40
0.1018875734486786
 40
0.1167818802550445
 40
0.1322982376153465
 40
0.1422258253932333
 40
0.1524600661303257
 40
0.1629539413599961
 40
0.1715674320413582
 40
0.1715674320413582
 40
0.1715674320413582
 40
0.1715674320413582
 10
-29.98661182038848
 20
1.392018737442697
 30
0.0
 10
-29.98684372049624
 20
1.391858357717751
 30
0.0
 10
-29.98765194510776
 20
1.391376828124521
 30
0.0
 10
-29.98999323867784
 20
1.391121524710342
 30
0.0
 10
-29.99370314827905
 20
1.390514101740279
 30
0.0
 10
-29.99886545012271
 20
1.390036112422251
 30
0.0
 10
-30.00663686633368
 20
1.389350150622021
 30
0.0
 10
-30.01715044937285
 20
1.388596398435254
 30
0.0
 10
-30.03051088406448
 20
1.387774191305311
 30
0.0
 10
-30.04503701900629
 20
1.387006569281197
 30
0.0
 10
-30.05962134293338
 20
1.386327736734415
 30
0.0
 10
-30.07408704682089
 20
1.385722773694965
 30
0.0
 10
-30.08834364913048
 20
1.385194003824437
 30
0.0
 10
-30.10322892674555
 20
1.384717241577675
 30
0.0
 10
-30.11667031253921
 20
1.384359264433669
 30
0.0
 10
-30.12856015444496
 20
1.384095799931742
 30
0.0
 10
-30.13877722968874
 20
1.383918819567554
 30
0.0
 10
-30.14855718927646
 20
1.383804619163072
 30
0.0
 10
-30.15492632374517
 20
1.383780763351978
 30
0.0
 10
-30.15779748610362
 20
1.383778136112937
 30
0.0
 11
-29.98661182038848
 21
1.392018737442697
 31
0.0
 11
-29.98734772077967
 21
1.391601553987698
 31
0.0
 11
-29.98924211486167
 21
1.391193349439106
 31
0.0
 11
-29.99334054904677
 21
1.390617493101387
 31
0.0
 11
-29.99859752391813
 21
1.3900654101854
 31
0.0
 11
-30.00465850389224
 21
1.389536989887346
 31
0.0
 11
-30.01667850760703
 21
1.388650415255426
 31
0.0
 11
-30.03012684643551
 21
1.387817481985337
 31
0.0
 11
-30.0447395517794
 21
1.387038135161787
 31
0.0
 11
-30.06025265504042
 21
1.386312319869375
 31
0.0
 11
-30.0738776580879
 21
1.385742987743583
 31
0.0
 11
-30.08813572186557
 21
1.385214438667901
 31
0.0
 11
-30.10302240167755
 21
1.384737927462253
 31
0.0
 11
-30.11853325282806
 21
1.384324708946337
 31
0.0
 11
-30.12845844884987
 21
1.38410688501807
 31
0.0
 11
-30.13869117252511
 21
1.38393076816385
 31
0.0
 11
-30.14918439290921
 21
1.383813480682874
 31
0.0
 11
-30.15779748610362
 21
1.383778136112937
 31
0.0
  0
LINE
  5
19D
330
2
100
AcDbEntity
  8
GAIKEI
  6
HIDDEN2
 62
     1
100
AcDbLine
 10
-4.095387303984068
 20
20.17156084680136
 30
0.0
 11
-4.095387303984068
 21
20.67228268008455
 31
0.0
  0
LINE
  5
19F
330
2
100
AcDbEntity
  8
GAIKEI
  6
HIDDEN2
 62
     1
100
AcDbLine
 10
-3.287053970731619
 20
20.10489418014135
 30
0.0
 11
-3.287053970731619
 21
21.93822751329134
 31
0.0
  0
LINE
  5
1A0
330
2
100
AcDbEntity
  8
GAIKEI
  6
HIDDEN2
 62
     1
100
AcDbLine
 10
-4.187053970641557
 20
20.08822751347634
 30
0.0
 11
-4.120387303981544
 21
20.08822751347634
 31
0.0
  0
LINE
  5
1A1
330
2
100
AcDbEntity
  8
GAIKEI
  6
HIDDEN2
 62
     1
100
AcDbLine
 10
-4.270387303966515
 20
20.02156084681633
 30
0.0
 11
-4.270387303966515
 21
20.08822751347634
 31
0.0
  0
LINE
  5
1A2
330
2
100
AcDbEntity
  8
GAIKEI
  6
HIDDEN2
 62
     1
100
AcDbLine
 10
-4.270387303966515
 20
20.02156084681633
 30
0.0
 11
-4.203720637306503
 21
20.02156084681633
 31
0.0
  0
POINT
  5
1A3
330
2
100
AcDbEntity
  8
GAIKEI
  6
HIDDEN2
 62
     1
100
AcDbPoint
 10
-4.553720637271624
 20
20.02156084681633
 30
0.0
  0
ARC
  5
1A4
330
2
100
AcDbEntity
  8
GAIKEI
  6
HIDDEN2
 62
     1
100
AcDbCircle
 10
-4.620387303931522
 20
20.0522231801466
 30
0.0
 40
0.06666666666
100
AcDbArc
 50
310.6012949999997
 51
0.0
  0
LINE
  5
1A5
330
2
100
AcDbEntity
  8
GAIKEI
  6
HIDDEN2
 62
     1
100
AcDbLine
 10
-4.553720637271624
 20
20.08822751347634
 30
0.0
 11
-4.553720637271624
 21
20.0522231801466
 31
0.0
  0
LINE
  5
1A6
330
2
100
AcDbEntity
  8
GAIKEI
  6
HIDDEN2
 62
     1
100
AcDbLine
 10
-4.537053970606564
 20
20.10489418014135
 30
0.0
 11
-4.537053970606564
 21
20.17156084680136
 31
0.0
  0
LINE
  5
1A7
330
2
100
AcDbEntity
  8
GAIKEI
  6
HIDDEN2
 62
     1
100
AcDbLine
 10
-4.203720637306503
 20
20.10489418014135
 30
0.0
 11
-4.203720637306503
 21
20.02156084681633
 31
0.0
  0
LINE
  5
1A8
330
2
100
AcDbEntity
  8
GAIKEI
  6
HIDDEN2
 62
     1
100
AcDbLine
 10
-4.537053970606564
 20
20.17156084680136
 30
0.0
 11
-3.287053970731619
 21
20.17156084680136
 31
0.0
  0
LINE
  5
1A9
330
2
100
AcDbEntity
  8
GAIKEI
  6
HIDDEN2
 62
     1
100
AcDbLine
 10
-4.120387303981544
 20
19.95489418015631
 30
0.0
 11
-4.203720637306503
 21
19.95489418015631
 31
0.0
  0
LINE
  5
1AA
330
2
100
AcDbEntity
  8
GAIKEI
  6
HIDDEN2
 62
     1
100
AcDbLine
 10
-4.187053970641557
 20
20.08822751347634
 30
0.0
 11
-4.187053970641557
 21
19.95489418015631
 31
0.0
  0
ARC
  5
1AB
330
2
100
AcDbEntity
  8
GAIKEI
  6
HIDDEN2
 62
     1
100
AcDbCircle
 10
-4.203720637306503
 20
20.02156084681633
 30
0.0
 40
0.06666666666
100
AcDbArc
 50
180.0
 51
270.0
  0
LINE
  5
1AC
330
2
100
AcDbEntity
  8
GAIKEI
  6
HIDDEN2
 62
     1
100
AcDbLine
 10
-4.577001303935901
 20
20.00160618015167
 30
0.0
 11
-4.845651137242327
 21
19.77133484684134
 31
0.0
  0
ARC
  5
1AD
330
2
100
AcDbEntity
  8
GAIKEI
  6
HIDDEN2
 62
     1
100
AcDbCircle
 10
-3.787053970681597
 20
21.33822751335134
 30
0.0
 40
0.116666666655
100
AcDbArc
 50
270.0
 51
90.0
  0
ARC
  5
1AE
330
2
100
AcDbEntity
  8
GAIKEI
  6
HIDDEN2
 62
     1
100
AcDbCircle
 10
-3.787053970681597
 20
21.33822751335134
 30
0.0
 40
0.3333333333
100
AcDbArc
 50
270.0
 51
90.0
  0
LINE
  5
1AF
330
2
100
AcDbEntity
  8
GAIKEI
  6
HIDDEN2
 62
     1
100
AcDbLine
 10
-4.200387303973627
 20
20.78156084674032
 30
0.0
 11
-4.200387303973627
 21
20.68156084675036
 31
0.0
  0
LINE
  5
1B0
330
2
100
AcDbEntity
  8
GAIKEI
  6
HIDDEN2
 62
     1
100
AcDbLine
 10
-4.203720637306503
 20
20.75489418007635
 30
0.0
 11
-4.203720637306503
 21
20.68156084675036
 31
0.0
  0
LINE
  5
1B1
330
2
100
AcDbEntity
  8
GAIKEI
  6
HIDDEN2
 62
     1
100
AcDbLine
 10
-4.707053970589583
 20
20.78156084674032
 30
0.0
 11
-4.707053970589583
 21
20.68156084675036
 31
0.0
  0
LINE
  5
1B2
330
2
100
AcDbEntity
  8
GAIKEI
  6
HIDDEN2
 62
     1
100
AcDbLine
 10
-4.703720637256594
 20
20.75489418007635
 30
0.0
 11
-4.703720637256594
 21
20.68156084675036
 31
0.0
  0
LINE
  5
1B3
330
2
100
AcDbEntity
  8
GAIKEI
  6
HIDDEN2
 62
     1
100
AcDbLine
 10
-4.200387303973627
 20
20.78156084674032
 30
0.0
 11
-4.707053970589583
 21
20.78156084674032
 31
0.0
  0
LINE
  5
1B4
330
2
100
AcDbEntity
  8
GAIKEI
  6
HIDDEN2
 62
     1
100
AcDbLine
 10
-4.200387303973627
 20
20.68156084675036
 30
0.0
 11
-4.707053970589583
 21
20.68156084675036
 31
0.0
  0
LINE
  5
1B5
330
2
100
AcDbEntity
  8
GAIKEI
  6
HIDDEN2
 62
     1
100
AcDbLine
 10
-4.203720637306503
 20
20.75489418007635
 30
0.0
 11
-4.703720637256594
 21
20.75489418007635
 31
0.0
  0
LINE
  5
1B6
330
2
100
AcDbEntity
  8
GAIKEI
  6
HIDDEN2
 62
     1
100
AcDbLine
 10
-4.203720637306503
 20
20.68822751341634
 30
0.0
 11
-4.703720637256594
 21
20.68822751341634
 31
0.0
  0
ARC
  5
1B7
330
2
100
AcDbEntity
  8
GAIKEI
  6
HIDDEN2
 62
     1
100
AcDbCircle
 10
-3.762053970684121
 20
20.67228268008455
 30
0.0
 40
0.3333333333
100
AcDbArc
 50
94.30122199999933
 51
180.0
  0
ARC
  5
1B8
330
2
100
AcDbEntity
  8
GAIKEI
  6
HIDDEN2
 62
     1
100
AcDbCircle
 10
-6.645387303729137
 20
20.67156084675133
 30
0.0
 40
0.3333333333
100
AcDbArc
 50
0.0
 51
90.0
  0
ARC
  5
1B9
330
2
100
AcDbEntity
  8
GAIKEI
  6
HIDDEN2
 62
     1
100
AcDbCircle
 10
-7.870387303606605
 20
21.33822751335134
 30
0.0
 40
0.116666666655
100
AcDbArc
 50
270.0
 51
90.0
  0
LINE
  5
1BA
330
2
100
AcDbEntity
  8
GAIKEI
  6
HIDDEN2
 62
     1
100
AcDbLine
 10
-6.312053970429076
 20
20.17156084680136
 30
0.0
 11
-6.312053970429076
 21
20.67156084675133
 31
0.0
  0
LINE
  5
1BB
330
2
100
AcDbEntity
  8
GAIKEI
  6
HIDDEN2
 62
     1
100
AcDbLine
 10
-5.85372063714152
 20
20.08822751347634
 30
0.0
 11
-5.85372063714152
 21
20.0522231801466
 31
0.0
  0
POINT
  5
1BC
330
2
100
AcDbEntity
  8
GAIKEI
  6
HIDDEN2
 62
     1
100
AcDbPoint
 10
-5.85372063714152
 20
20.02156084681633
 30
0.0
  0
ARC
  5
1BD
330
2
100
AcDbEntity
  8
GAIKEI
  6
HIDDEN2
 62
     1
100
AcDbCircle
 10
-5.787053970481508
 20
20.0522231801466
 30
0.0
 40
0.06666666666
100
AcDbArc
 50
180.0
 51
229.3987050000003
  0
LINE
  5
1BE
330
2
100
AcDbEntity
  8
GAIKEI
  6
HIDDEN2
 62
     1
100
AcDbLine
 10
-5.87038730380658
 20
20.10489418014135
 30
0.0
 11
-5.87038730380658
 21
20.17156084680136
 31
0.0
  0
LINE
  5
1BF
330
2
100
AcDbEntity
  8
GAIKEI
  6
HIDDEN2
 62
     1
100
AcDbLine
 10
-4.962053970564113
 20
19.08822751357632
 30
0.0
 11
-4.962053970564113
 21
19.51824918019997
 31
0.0
  0
POINT
  5
1C0
330
2
100
AcDbEntity
  8
GAIKEI
  6
HIDDEN2
 62
     1
100
AcDbPoint
 10
-4.962053970564113
 20
19.67156084685138
 30
0.0
  0
LINE
  5
1C1
330
2
100
AcDbEntity
  8
GAIKEI
  6
HIDDEN2
 62
     1
100
AcDbLine
 10
-5.445387303849145
 20
19.08822751357632
 30
0.0
 11
-5.445387303849145
 21
19.51824918019997
 31
0.0
  0
POINT
  5
1C2
330
2
100
AcDbEntity
  8
GAIKEI
  6
HIDDEN2
 62
     1
100
AcDbPoint
 10
-5.445387303849145
 20
19.67156084685138
 30
0.0
  0
ARC
  5
1C3
330
2
100
AcDbEntity
  8
GAIKEI
  6
HIDDEN2
 62
     1
100
AcDbCircle
 10
-5.778720637149092
 20
19.51824918019997
 30
0.0
 40
0.3333333333
100
AcDbArc
 50
0.0
 51
49.39870500000034
  0
LINE
  5
1C4
330
2
100
AcDbEntity
  8
GAIKEI
  6
HIDDEN2
 62
     1
100
AcDbLine
 10
-5.830440137143966
 20
20.00160618015167
 30
0.0
 11
-5.561790303837426
 21
19.77133484684134
 31
0.0
  0
LINE
  5
1C5
330
2
100
AcDbEntity
  8
GAIKEI
  6
HIDDEN2
 62
     1
100
AcDbLine
 10
-5.178720637209096
 20
18.87156084693134
 30
0.0
 11
-5.228720637204048
 21
18.87156084693134
 31
0.0
  0
ARC
  5
1C6
330
2
100
AcDbEntity
  8
GAIKEI
  6
HIDDEN2
 62
     1
100
AcDbCircle
 10
-5.178720637209096
 20
19.08822751357632
 30
0.0
 40
0.216666666645
100
AcDbArc
 50
270.0
 51
0.0
  0
ARC
  5
1C7
330
2
100
AcDbEntity
  8
GAIKEI
  6
HIDDEN2
 62
     1
100
AcDbCircle
 10
-5.228720637204048
 20
19.08822751357632
 30
0.0
 40
0.216666666645
100
AcDbArc
 50
180.0
 51
270.0
  0
LINE
  5
1C8
330
2
100
AcDbEntity
  8
GAIKEI
  6
HIDDEN2
 62
     1
100
AcDbLine
 10
-6.220387303771587
 20
20.08822751347634
 30
0.0
 11
-6.2870539704316
 21
20.08822751347634
 31
0.0
  0
LINE
  5
1C9
330
2
100
AcDbEntity
  8
GAIKEI
  6
HIDDEN2
 62
     1
100
AcDbLine
 10
-6.137053970446629
 20
20.02156084681633
 30
0.0
 11
-6.137053970446629
 21
20.08822751347634
 31
0.0
  0
LINE
  5
1CA
330
2
100
AcDbEntity
  8
GAIKEI
  6
HIDDEN2
 62
     1
100
AcDbLine
 10
-6.137053970446629
 20
20.02156084681633
 30
0.0
 11
-6.203720637106528
 21
20.02156084681633
 31
0.0
  0
LINE
  5
1CB
330
2
100
AcDbEntity
  8
GAIKEI
  6
HIDDEN2
 62
     1
100
AcDbLine
 10
-6.203720637106528
 20
20.10489418014135
 30
0.0
 11
-6.203720637106528
 21
20.02156084681633
 31
0.0
  0
LINE
  5
1CC
330
2
100
AcDbEntity
  8
GAIKEI
  6
HIDDEN2
 62
     1
100
AcDbLine
 10
-6.2870539704316
 20
19.95489418015631
 30
0.0
 11
-6.203720637106528
 21
19.95489418015631
 31
0.0
  0
LINE
  5
1CD
330
2
100
AcDbEntity
  8
GAIKEI
  6
HIDDEN2
 62
     1
100
AcDbLine
 10
-6.220387303771587
 20
20.08822751347634
 30
0.0
 11
-6.220387303771587
 21
19.95489418015631
 31
0.0
  0
ARC
  5
1CE
330
2
100
AcDbEntity
  8
GAIKEI
  6
HIDDEN2
 62
     1
100
AcDbCircle
 10
-6.203720637106528
 20
20.02156084681633
 30
0.0
 40
0.06666666666
100
AcDbArc
 50
270.0
 51
0.0
  0
ARC
  5
1CF
330
2
100
AcDbEntity
  8
GAIKEI
  6
HIDDEN2
 62
     1
100
AcDbCircle
 10
-5.203720637206572
 20
21.33822751335134
 30
0.0
 40
0.116666666655
100
AcDbArc
 50
90.0
 51
270.0
  0
LINE
  5
1D0
330
2
100
AcDbEntity
  8
GAIKEI
  6
HIDDEN2
 62
     1
100
AcDbLine
 10
-5.700387303823674
 20
20.78156084674032
 30
0.0
 11
-5.700387303823674
 21
20.68156084675036
 31
0.0
  0
LINE
  5
1D1
330
2
100
AcDbEntity
  8
GAIKEI
  6
HIDDEN2
 62
     1
100
AcDbLine
 10
-5.70372063715655
 20
20.75489418007635
 30
0.0
 11
-5.70372063715655
 21
20.68156084675036
 31
0.0
  0
LINE
  5
1D2
330
2
100
AcDbEntity
  8
GAIKEI
  6
HIDDEN2
 62
     1
100
AcDbLine
 10
-6.207053970439631
 20
20.78156084674032
 30
0.0
 11
-6.207053970439631
 21
20.68156084675036
 31
0.0
  0
LINE
  5
1D3
330
2
100
AcDbEntity
  8
GAIKEI
  6
HIDDEN2
 62
     1
100
AcDbLine
 10
-6.203720637106528
 20
20.75489418007635
 30
0.0
 11
-6.203720637106528
 21
20.68156084675036
 31
0.0
  0
LINE
  5
1D4
330
2
100
AcDbEntity
  8
GAIKEI
  6
HIDDEN2
 62
     1
100
AcDbLine
 10
-6.207053970439631
 20
20.78156084674032
 30
0.0
 11
-5.700387303823674
 21
20.78156084674032
 31
0.0
  0
LINE
  5
1D5
330
2
100
AcDbEntity
  8
GAIKEI
  6
HIDDEN2
 62
     1
100
AcDbLine
 10
-6.207053970439631
 20
20.68156084675036
 30
0.0
 11
-5.700387303823674
 21
20.68156084675036
 31
0.0
  0
LINE
  5
1D6
330
2
100
AcDbEntity
  8
GAIKEI
  6
HIDDEN2
 62
     1
100
AcDbLine
 10
-5.70372063715655
 20
20.75489418007635
 30
0.0
 11
-6.203720637106528
 21
20.75489418007635
 31
0.0
  0
LINE
  5
1D7
330
2
100
AcDbEntity
  8
GAIKEI
  6
HIDDEN2
 62
     1
100
AcDbLine
 10
-5.70372063715655
 20
20.68822751341634
 30
0.0
 11
-6.203720637106528
 21
20.68822751341634
 31
0.0
  0
ARC
  5
1D8
330
2
100
AcDbEntity
  8
GAIKEI
  6
HIDDEN2
 62
     1
100
AcDbCircle
 10
-4.628720637264052
 20
19.51824918019997
 30
0.0
 40
0.3333333333
100
AcDbArc
 50
130.6012949999997
 51
180.0
  0
LINE
  5
1D9
330
2
100
AcDbEntity
  8
GAIKEI
  6
HIDDEN2
 62
     1
100
AcDbLine
 10
-4.561190470604117
 20
20.02156084681633
 30
0.0
 11
-5.846250803809027
 21
20.02156084681633
 31
0.0
  0
LINE
  5
1DA
330
2
100
AcDbEntity
  8
GAIKEI
  6
HIDDEN2
 62
     1
100
AcDbLine
 10
-4.203720637306503
 20
20.08822751347634
 30
0.0
 11
-6.203720637106528
 21
20.08822751347634
 31
0.0
  0
LINE
  5
1DB
330
2
100
AcDbEntity
  8
GAIKEI
  6
HIDDEN2
 62
     1
100
AcDbLine
 10
-3.787053970681597
 20
21.22156084669632
 30
0.0
 11
-5.203720637206572
 21
21.22156084669632
 31
0.0
  0
LINE
  5
1DC
330
2
100
AcDbEntity
  8
GAIKEI
  6
HIDDEN2
 62
     1
100
AcDbLine
 10
-3.787053970681597
 20
21.4548941800063
 30
0.0
 11
-5.203720637206572
 21
21.4548941800063
 31
0.0
  0
LINE
  5
1DD
330
2
100
AcDbEntity
  8
GAIKEI
  6
HIDDEN2
 62
     1
100
AcDbLine
 10
-4.637053970596582
 20
18.22989418032881
 30
0.0
 11
-4.637053970596582
 21
18.27989418032376
 31
0.0
  0
ARC
  5
1DE
330
2
100
AcDbEntity
  8
GAIKEI
  6
HIDDEN2
 62
     1
100
AcDbCircle
 10
-4.853720637241565
 20
18.23822751366128
 30
0.0
 40
0.216666666645
100
AcDbArc
 50
270.0
 51
0.0
  0
ARC
  5
1DF
330
2
100
AcDbEntity
  8
GAIKEI
  6
HIDDEN2
 62
     1
100
AcDbCircle
 10
-4.853720637241565
 20
18.27156084699135
 30
0.0
 40
0.216666666645
100
AcDbArc
 50
0.0
 51
90.0
  0
ARC
  5
1E0
330
2
100
AcDbEntity
  8
GAIKEI
  6
HIDDEN2
 62
     1
100
AcDbCircle
 10
-5.074706470552825
 20
18.6548941802863
 30
0.0
 40
0.16666666665
100
AcDbArc
 50
217.9798719999997
 51
270.0
  0
ARC
  5
1E1
330
2
100
AcDbEntity
  8
GAIKEI
  6
HIDDEN2
 62
     1
100
AcDbCircle
 10
-5.587053970501585
 20
18.73805551361136
 30
0.0
 40
0.0668388333266495
100
AcDbArc
 50
355.8873210000002
 51
183.8197659999996
  0
ARC
  5
1E2
330
2
100
AcDbEntity
  8
GAIKEI
  6
HIDDEN2
 62
     1
100
AcDbCircle
 10
-5.587053970501585
 20
18.25489418032634
 30
0.0
 40
0.4833333332849999
100
AcDbArc
 50
37.97987199999973
 51
82.06901600000042
  0
ARC
  5
1E3
330
2
100
AcDbEntity
  8
GAIKEI
  6
HIDDEN2
 62
     1
100
AcDbCircle
 10
-5.074706470552825
 20
17.85489418036633
 30
0.0
 40
0.16666666665
100
AcDbArc
 50
90.0
 51
142.0201280000003
  0
ARC
  5
1E4
330
2
100
AcDbEntity
  8
GAIKEI
  6
HIDDEN2
 62
     1
100
AcDbCircle
 10
-5.587053970501585
 20
17.771733013708
 30
0.0
 40
0.0668388333266495
100
AcDbArc
 50
176.1802340000004
 51
4.112678999999832
  0
ARC
  5
1E5
330
2
100
AcDbEntity
  8
GAIKEI
  6
HIDDEN2
 62
     1
100
AcDbCircle
 10
-5.587053970501585
 20
18.25489418032634
 30
0.0
 40
0.4833333332849999
100
AcDbArc
 50
277.9309839999996
 51
322.0201280000003
  0
ARC
  5
1E6
330
2
100
AcDbEntity
  8
GAIKEI
  6
HIDDEN2
 62
     1
100
AcDbCircle
 10
-6.039411470456286
 20
18.42465134697596
 30
0.0
 40
0.0668388333266495
100
AcDbArc
 50
65.61198600000043
 51
253.2485960000011
  0
ARC
  5
1E7
330
2
100
AcDbEntity
  8
GAIKEI
  6
HIDDEN2
 62
     1
100
AcDbCircle
 10
-5.587053970501585
 20
18.25489418032634
 30
0.0
 40
0.4833333332849999
100
AcDbArc
 50
167.3612749999995
 51
192.6387249999973
  0
ARC
  5
1E8
330
2
100
AcDbEntity
  8
GAIKEI
  6
HIDDEN2
 62
     1
100
AcDbCircle
 10
-6.039411470456286
 20
18.08513718034328
 30
0.0
 40
0.0668388333266495
100
AcDbArc
 50
106.7514039999989
 51
294.6823879999998
  0
ARC
  5
1E9
330
2
100
AcDbEntity
  8
GAIKEI
  6
HIDDEN2
 62
     1
100
AcDbCircle
 10
-5.587053970501585
 20
18.25489418032634
 30
0.0
 40
0.4833333332849999
100
AcDbArc
 50
97.93380099999502
 51
151.4993069999999
  0
ARC
  5
1EA
330
2
100
AcDbEntity
  8
GAIKEI
  6
HIDDEN2
 62
     1
100
AcDbCircle
 10
-5.587053970501585
 20
18.25489418032634
 30
0.0
 40
0.4833333332849999
100
AcDbArc
 50
208.503509999998
 51
262.0661989999984
  0
LINE
  5
1EB
330
2
100
AcDbEntity
  8
GAIKEI
  6
HIDDEN2
 62
     1
100
AcDbLine
 10
-4.853720637241565
 20
18.48822751363627
 30
0.0
 11
-5.074706470552825
 21
18.48822751363627
 31
0.0
  0
LINE
  5
1EC
330
2
100
AcDbEntity
  8
GAIKEI
  6
HIDDEN2
 62
     1
100
AcDbLine
 10
-4.853720637241565
 20
18.02156084701636
 30
0.0
 11
-5.074706470552825
 21
18.02156084701636
 31
0.0
  0
LINE
  5
1ED
330
2
100
AcDbEntity
  8
GAIKEI
  6
HIDDEN2
 62
     1
100
AcDbLine
 10
-4.653720637261642
 20
9.154894181236329
 30
0.0
 11
-4.653720637261642
 21
9.321502181219614
 31
0.0
  0
ARC
  5
1EE
330
2
100
AcDbEntity
  8
GAIKEI
  6
HIDDEN2
 62
     1
100
AcDbCircle
 10
-4.653892803928272
 20
9.388227514546315
 30
0.0
 40
0.0668388333266495
100
AcDbArc
 50
270.1475399999991
 51
93.33963399999893
  0
ARC
  5
1EF
330
2
100
AcDbEntity
  8
GAIKEI
  6
HIDDEN2
 62
     1
100
AcDbCircle
 10
-4.795387303914083
 20
8.565933347961902
 30
0.0
 40
0.16666666665
100
AcDbArc
 50
124.7340099999986
 51
180.0
  0
ARC
  5
1F0
330
2
100
AcDbEntity
  8
GAIKEI
  6
HIDDEN2
 62
     1
100
AcDbCircle
 10
-5.203720637206572
 20
9.154894181236329
 30
0.0
 40
0.5499999999449999
100
AcDbArc
 50
180.0
 51
235.2659900000014
  0
ARC
  5
1F1
330
2
100
AcDbEntity
  8
GAIKEI
  6
HIDDEN2
 62
     1
100
AcDbCircle
 10
-5.612053970499061
 20
8.565933347961902
 30
0.0
 40
0.16666666665
100
AcDbArc
 50
0.0
 51
55.26599000000138
  0
LINE
  5
1F2
330
2
100
AcDbEntity
  8
GAIKEI
  6
HIDDEN2
 62
     1
100
AcDbLine
 10
-5.753720637151616
 20
9.154894181236329
 30
0.0
 11
-5.753720637151616
 21
9.321389014553005
 31
0.0
  0
ARC
  5
1F3
330
2
100
AcDbEntity
  8
GAIKEI
  6
HIDDEN2
 62
     1
100
AcDbCircle
 10
-5.753548637151595
 20
9.388227514546315
 30
0.0
 40
0.0668388333266495
100
AcDbArc
 50
86.66036600000108
 51
269.8524600000009
  0
ARC
  5
1F4
330
2
100
AcDbEntity
  8
GAIKEI
  6
HIDDEN2
 62
     1
100
AcDbCircle
 10
-5.203720637206572
 20
9.388227514546315
 30
0.0
 40
0.5499999999449999
100
AcDbArc
 50
6.973576000000726
 51
173.0689550000008
  0
ARC
  5
1F5
330
2
100
AcDbEntity
  8
GAIKEI
  6
HIDDEN2
 62
     1
100
AcDbCircle
 10
-5.203720637206572
 20
9.154894181236329
 30
0.0
 40
0.5499999999449999
100
AcDbArc
 50
304.7340099999987
 51
0.0
  0
ARC
  5
1F6
330
2
100
AcDbEntity
  8
GAIKEI
  6
HIDDEN2
 62
     1
100
AcDbCircle
 10
-11.20372063660653
 20
21.33822751335134
 30
0.0
 40
0.116666666655
100
AcDbArc
 50
90.0
 51
270.0
  0
ARC
  5
1F7
330
2
100
AcDbEntity
  8
GAIKEI
  6
HIDDEN2
 62
     1
100
AcDbCircle
 10
-14.53705396960657
 20
21.33822751335134
 30
0.0
 40
0.116666666655
100
AcDbArc
 50
270.0
 51
90.0
  0
ARC
  5
1F8
330
2
100
AcDbEntity
  8
GAIKEI
  6
HIDDEN2
 62
     1
100
AcDbCircle
 10
-16.20372063610654
 20
20.67156084675133
 30
0.0
 40
0.3333333333
100
AcDbArc
 50
180.0
 51
0.0
  0
ARC
  5
1F9
330
2
100
AcDbEntity
  8
GAIKEI
  6
HIDDEN2
 62
     1
100
AcDbCircle
 10
-16.20372063610654
 20
20.67156084675133
 30
0.0
 40
0.116666666655
100
AcDbArc
 50
180.0
 51
0.0
  0
LINE
  5
1FA
330
2
100
AcDbEntity
  8
GAIKEI
  6
HIDDEN2
 62
     1
100
AcDbLine
 10
-16.70372063605652
 20
21.22156084669632
 30
0.0
 11
-17.8703873026065
 21
21.22156084669632
 31
0.0
  0
LINE
  5
1FB
330
2
100
AcDbEntity
  8
GAIKEI
  6
HIDDEN2
 62
     1
100
AcDbLine
 10
-16.70372063605652
 20
21.4548941800063
 30
0.0
 11
-17.8703873026065
 21
21.4548941800063
 31
0.0
  0
ARC
  5
1FC
330
2
100
AcDbEntity
  8
GAIKEI
  6
HIDDEN2
 62
     1
100
AcDbCircle
 10
-17.8703873026065
 20
21.33822751335134
 30
0.0
 40
0.116666666655
100
AcDbArc
 50
90.0
 51
270.0
  0
ARC
  5
1FD
330
2
100
AcDbEntity
  8
GAIKEI
  6
HIDDEN2
 62
     1
100
AcDbCircle
 10
-15.70372063615656
 20
21.33822751335134
 30
0.0
 40
0.116666666655
100
AcDbArc
 50
90.0
 51
270.0
  0
LINE
  5
1FE
330
2
100
AcDbEntity
  8
GAIKEI
  6
HIDDEN2
 62
     1
100
AcDbLine
 10
-16.08705396945157
 20
21.21316751336388
 30
0.0
 11
-16.08705396945157
 21
21.33822751335134
 31
0.0
  0
ARC
  5
1FF
330
2
100
AcDbEntity
  8
GAIKEI
  6
HIDDEN2
 62
     1
100
AcDbCircle
 10
-16.05372063612157
 20
21.21316751336388
 30
0.0
 40
0.03333333333
100
AcDbArc
 50
180.0
 51
234.238285999995
  0
ARC
  5
200
330
2
100
AcDbEntity
  8
GAIKEI
  6
HIDDEN2
 62
     1
100
AcDbCircle
 10
-16.70372063605652
 20
21.33822751335134
 30
0.0
 40
0.116666666655
100
AcDbArc
 50
270.0
 51
90.0
  0
LINE
  5
201
330
2
100
AcDbEntity
  8
GAIKEI
  6
HIDDEN2
 62
     1
100
AcDbLine
 10
-16.32038730276162
 20
21.21316751336388
 30
0.0
 11
-16.32038730276162
 21
21.33822751335134
 31
0.0
  0
ARC
  5
202
330
2
100
AcDbEntity
  8
GAIKEI
  6
HIDDEN2
 62
     1
100
AcDbCircle
 10
-16.35372063609151
 20
21.21316751336388
 30
0.0
 40
0.03333333333
100
AcDbArc
 50
305.761714000005
 51
0.0
  0
ARC
  5
203
330
2
100
AcDbEntity
  8
GAIKEI
  6
HIDDEN2
 62
     1
100
AcDbCircle
 10
-16.20372063610654
 20
21.33822751335134
 30
0.0
 40
0.116666666655
100
AcDbArc
 50
0.0
 51
180.0
  0
LINE
  5
204
330
2
100
AcDbEntity
  8
GAIKEI
  6
HIDDEN2
 62
     1
100
AcDbLine
 10
-16.08705396945157
 20
20.67156084675133
 30
0.0
 11
-16.08705396945157
 21
20.79662084673885
 31
0.0
  0
ARC
  5
205
330
2
100
AcDbEntity
  8
GAIKEI
  6
HIDDEN2
 62
     1
100
AcDbCircle
 10
-16.05372063612157
 20
20.79662084673885
 30
0.0
 40
0.03333333333
100
AcDbArc
 50
125.7617140000049
 51
180.0
  0
LINE
  5
206
330
2
100
AcDbEntity
  8
GAIKEI
  6
HIDDEN2
 62
     1
100
AcDbLine
 10
-16.32038730276162
 20
20.67156084675133
 30
0.0
 11
-16.32038730276162
 21
20.79662084673885
 31
0.0
  0
ARC
  5
207
330
2
100
AcDbEntity
  8
GAIKEI
  6
HIDDEN2
 62
     1
100
AcDbCircle
 10
-16.35372063609151
 20
20.79662084673885
 30
0.0
 40
0.03333333333
100
AcDbArc
 50
0.0
 51
54.23828599999502
  0
ARC
  5
208
330
2
100
AcDbEntity
  8
GAIKEI
  6
HIDDEN2
 62
     1
100
AcDbCircle
 10
-16.87038730270655
 20
20.67156084675133
 30
0.0
 40
0.3333333333
100
AcDbArc
 50
0.0
 51
90.0
  0
ARC
  5
209
330
2
100
AcDbEntity
  8
GAIKEI
  6
HIDDEN2
 62
     1
100
AcDbCircle
 10
-15.53705396950653
 20
20.67156084675133
 30
0.0
 40
0.3333333333
100
AcDbArc
 50
90.0
 51
180.0
  0
ARC
  5
20A
330
2
100
AcDbEntity
  8
GAIKEI
  6
HIDDEN2
 62
     1
100
AcDbCircle
 10
-16.20372063610654
 20
21.00489418005134
 30
0.0
 40
0.223333333311
100
AcDbArc
 50
125.7617140000049
 51
234.238285999995
  0
ARC
  5
20B
330
2
100
AcDbEntity
  8
GAIKEI
  6
HIDDEN2
 62
     1
100
AcDbCircle
 10
-16.20372063610654
 20
21.00489418005134
 30
0.0
 40
0.223333333311
100
AcDbArc
 50
305.761714000005
 51
54.23828599999502
  0
ARC
  5
20C
330
2
100
AcDbEntity
  8
GAIKEI
  6
HIDDEN2
 62
     1
100
AcDbCircle
 10
-21.20372063560655
 20
21.33822751335134
 30
0.0
 40
0.116666666655
100
AcDbArc
 50
270.0
 51
90.0
  0
LINE
  5
20D
330
2
100
AcDbEntity
  8
GAIKEI
  6
HIDDEN2
 62
     1
100
AcDbLine
 10
-15.70372063615656
 20
21.22156084669632
 30
0.0
 11
-14.53705396960657
 21
21.22156084669632
 31
0.0
  0
LINE
  5
20E
330
2
100
AcDbEntity
  8
GAIKEI
  6
HIDDEN2
 62
     1
100
AcDbLine
 10
-15.70372063615656
 20
21.4548941800063
 30
0.0
 11
-14.53705396960657
 21
21.4548941800063
 31
0.0
  0
LINE
  5
20F
330
2
100
AcDbEntity
  8
GAIKEI
  6
HIDDEN2
 62
     1
100
AcDbLine
 10
-15.53705396950653
 20
21.00489418005134
 30
0.0
 11
-6.645387303729137
 21
21.00489418005134
 31
0.0
  0
LINE
  5
210
330
2
100
AcDbEntity
  8
GAIKEI
  6
HIDDEN2
 62
     1
100
AcDbLine
 10
-7.870387303606605
 20
21.22156084669632
 30
0.0
 11
-11.20372063660653
 21
21.22156084669632
 31
0.0
  0
LINE
  5
211
330
2
100
AcDbEntity
  8
GAIKEI
  6
HIDDEN2
 62
     1
100
AcDbLine
 10
-7.870387303606605
 20
21.4548941800063
 30
0.0
 11
-11.20372063660653
 21
21.4548941800063
 31
0.0
  0
ARC
  5
212
330
2
100
AcDbEntity
  8
GAIKEI
  6
HIDDEN2
 62
     1
100
AcDbCircle
 10
-24.53705396860659
 20
21.33822751335134
 30
0.0
 40
0.116666666655
100
AcDbArc
 50
90.0
 51
270.0
  0
LINE
  5
213
330
2
100
AcDbEntity
  8
GAIKEI
  6
HIDDEN2
 62
     1
100
AcDbLine
 10
-26.09538730178412
 20
20.17156084680136
 30
0.0
 11
-26.09538730178412
 21
20.67156084675133
 31
0.0
  0
LINE
  5
214
330
2
100
AcDbEntity
  8
GAIKEI
  6
HIDDEN2
 62
     1
100
AcDbLine
 10
-28.31205396822901
 20
20.17156084680136
 30
0.0
 11
-28.31205396822901
 21
20.67228268008455
 31
0.0
  0
LINE
  5
215
330
2
100
AcDbEntity
  8
GAIKEI
  6
HIDDEN2
 62
     1
100
AcDbLine
 10
-29.12038730148157
 20
20.10489418014135
 30
0.0
 11
-29.12038730148157
 21
21.93822751329134
 31
0.0
  0
LINE
  5
216
330
2
100
AcDbEntity
  8
GAIKEI
  6
HIDDEN2
 62
     1
100
AcDbLine
 10
-27.8304401349439
 20
20.00160618015167
 30
0.0
 11
-27.56179030163747
 21
19.77133484684134
 31
0.0
  0
LINE
  5
217
330
2
100
AcDbEntity
  8
GAIKEI
  6
HIDDEN2
 62
     1
100
AcDbLine
 10
-28.20372063490657
 20
20.08822751347634
 30
0.0
 11
-26.20372063510655
 21
20.08822751347634
 31
0.0
  0
LINE
  5
218
330
2
100
AcDbEntity
  8
GAIKEI
  6
HIDDEN2
 62
     1
100
AcDbLine
 10
-27.84625080160896
 20
20.02156084681633
 30
0.0
 11
-26.56119046840416
 21
20.02156084681633
 31
0.0
  0
LINE
  5
219
330
2
100
AcDbEntity
  8
GAIKEI
  6
HIDDEN2
 62
     1
100
AcDbLine
 10
-28.22038730157164
 20
20.08822751347634
 30
0.0
 11
-28.28705396823153
 21
20.08822751347634
 31
0.0
  0
LINE
  5
21A
330
2
100
AcDbEntity
  8
GAIKEI
  6
HIDDEN2
 62
     1
100
AcDbLine
 10
-28.13705396824656
 20
20.02156084681633
 30
0.0
 11
-28.13705396824656
 21
20.08822751347634
 31
0.0
  0
LINE
  5
21B
330
2
100
AcDbEntity
  8
GAIKEI
  6
HIDDEN2
 62
     1
100
AcDbLine
 10
-28.13705396824656
 20
20.02156084681633
 30
0.0
 11
-28.20372063490657
 21
20.02156084681633
 31
0.0
  0
POINT
  5
21C
330
2
100
AcDbEntity
  8
GAIKEI
  6
HIDDEN2
 62
     1
100
AcDbPoint
 10
-27.85372063494157
 20
20.02156084681633
 30
0.0
  0
LINE
  5
21D
330
2
100
AcDbEntity
  8
GAIKEI
  6
HIDDEN2
 62
     1
100
AcDbLine
 10
-27.85372063494157
 20
20.08822751347634
 30
0.0
 11
-27.85372063494157
 21
20.0522231801466
 31
0.0
  0
LINE
  5
21E
330
2
100
AcDbEntity
  8
GAIKEI
  6
HIDDEN2
 62
     1
100
AcDbLine
 10
-27.87038730160651
 20
20.10489418014135
 30
0.0
 11
-27.87038730160651
 21
20.17156084680136
 31
0.0
  0
LINE
  5
21F
330
2
100
AcDbEntity
  8
GAIKEI
  6
HIDDEN2
 62
     1
100
AcDbLine
 10
-28.20372063490657
 20
20.10489418014135
 30
0.0
 11
-28.20372063490657
 21
20.02156084681633
 31
0.0
  0
LINE
  5
220
330
2
100
AcDbEntity
  8
GAIKEI
  6
HIDDEN2
 62
     1
100
AcDbLine
 10
-27.87038730160651
 20
20.17156084680136
 30
0.0
 11
-29.12038730148157
 21
20.17156084680136
 31
0.0
  0
LINE
  5
221
330
2
100
AcDbEntity
  8
GAIKEI
  6
HIDDEN2
 62
     1
100
AcDbLine
 10
-28.28705396823153
 20
19.95489418015631
 30
0.0
 11
-28.20372063490657
 21
19.95489418015631
 31
0.0
  0
LINE
  5
222
330
2
100
AcDbEntity
  8
GAIKEI
  6
HIDDEN2
 62
     1
100
AcDbLine
 10
-28.22038730157164
 20
20.08822751347634
 30
0.0
 11
-28.22038730157164
 21
19.95489418015631
 31
0.0
  0
ARC
  5
223
330
2
100
AcDbEntity
  8
GAIKEI
  6
HIDDEN2
 62
     1
100
AcDbCircle
 10
-28.20372063490657
 20
20.02156084681633
 30
0.0
 40
0.06666666666
100
AcDbArc
 50
270.0
 51
0.0
  0
ARC
  5
224
330
2
100
AcDbEntity
  8
GAIKEI
  6
HIDDEN2
 62
     1
100
AcDbCircle
 10
-27.78705396828156
 20
20.0522231801466
 30
0.0
 40
0.06666666666
100
AcDbArc
 50
180.0
 51
229.3987050000003
  0
LINE
  5
225
330
2
100
AcDbEntity
  8
GAIKEI
  6
HIDDEN2
 62
     1
100
AcDbLine
 10
-26.1870539684416
 20
20.08822751347634
 30
0.0
 11
-26.12038730178159
 21
20.08822751347634
 31
0.0
  0
LINE
  5
226
330
2
100
AcDbEntity
  8
GAIKEI
  6
HIDDEN2
 62
     1
100
AcDbLine
 10
-26.27038730176656
 20
20.02156084681633
 30
0.0
 11
-26.27038730176656
 21
20.08822751347634
 31
0.0
  0
LINE
  5
227
330
2
100
AcDbEntity
  8
GAIKEI
  6
HIDDEN2
 62
     1
100
AcDbLine
 10
-26.27038730176656
 20
20.02156084681633
 30
0.0
 11
-26.20372063510655
 21
20.02156084681633
 31
0.0
  0
LINE
  5
228
330
2
100
AcDbEntity
  8
GAIKEI
  6
HIDDEN2
 62
     1
100
AcDbLine
 10
-26.20372063510655
 20
20.10489418014135
 30
0.0
 11
-26.20372063510655
 21
20.02156084681633
 31
0.0
  0
LINE
  5
229
330
2
100
AcDbEntity
  8
GAIKEI
  6
HIDDEN2
 62
     1
100
AcDbLine
 10
-26.12038730178159
 20
19.95489418015631
 30
0.0
 11
-26.20372063510655
 21
19.95489418015631
 31
0.0
  0
LINE
  5
22A
330
2
100
AcDbEntity
  8
GAIKEI
  6
HIDDEN2
 62
     1
100
AcDbLine
 10
-26.1870539684416
 20
20.08822751347634
 30
0.0
 11
-26.1870539684416
 21
19.95489418015631
 31
0.0
  0
ARC
  5
22B
330
2
100
AcDbEntity
  8
GAIKEI
  6
HIDDEN2
 62
     1
100
AcDbCircle
 10
-26.20372063510655
 20
20.02156084681633
 30
0.0
 40
0.06666666666
100
AcDbArc
 50
180.0
 51
270.0
  0
LINE
  5
22C
330
2
100
AcDbEntity
  8
GAIKEI
  6
HIDDEN2
 62
     1
100
AcDbLine
 10
-26.55372063507156
 20
20.08822751347634
 30
0.0
 11
-26.55372063507156
 21
20.0522231801466
 31
0.0
  0
POINT
  5
22D
330
2
100
AcDbEntity
  8
GAIKEI
  6
HIDDEN2
 62
     1
100
AcDbPoint
 10
-26.55372063507156
 20
20.02156084681633
 30
0.0
  0
ARC
  5
22E
330
2
100
AcDbEntity
  8
GAIKEI
  6
HIDDEN2
 62
     1
100
AcDbCircle
 10
-26.62038730173157
 20
20.0522231801466
 30
0.0
 40
0.06666666666
100
AcDbArc
 50
310.6012949999997
 51
0.0
  0
LINE
  5
22F
330
2
100
AcDbEntity
  8
GAIKEI
  6
HIDDEN2
 62
     1
100
AcDbLine
 10
-26.5370539684065
 20
20.10489418014135
 30
0.0
 11
-26.5370539684065
 21
20.17156084680136
 31
0.0
  0
LINE
  5
230
330
2
100
AcDbEntity
  8
GAIKEI
  6
HIDDEN2
 62
     1
100
AcDbLine
 10
-26.96205396836405
 20
19.08822751357632
 30
0.0
 11
-26.96205396836405
 21
19.51824918019997
 31
0.0
  0
POINT
  5
231
330
2
100
AcDbEntity
  8
GAIKEI
  6
HIDDEN2
 62
     1
100
AcDbPoint
 10
-26.96205396836405
 20
19.67156084685138
 30
0.0
  0
ARC
  5
232
330
2
100
AcDbEntity
  8
GAIKEI
  6
HIDDEN2
 62
     1
100
AcDbCircle
 10
-26.6287206350641
 20
19.51824918019997
 30
0.0
 40
0.3333333333
100
AcDbArc
 50
130.6012949999997
 51
180.0
  0
LINE
  5
233
330
2
100
AcDbEntity
  8
GAIKEI
  6
HIDDEN2
 62
     1
100
AcDbLine
 10
-27.44538730164908
 20
19.08822751357632
 30
0.0
 11
-27.44538730164908
 21
19.51824918019997
 31
0.0
  0
POINT
  5
234
330
2
100
AcDbEntity
  8
GAIKEI
  6
HIDDEN2
 62
     1
100
AcDbPoint
 10
-27.44538730164908
 20
19.67156084685138
 30
0.0
  0
ARC
  5
235
330
2
100
AcDbEntity
  8
GAIKEI
  6
HIDDEN2
 62
     1
100
AcDbCircle
 10
-27.77872063494914
 20
19.51824918019997
 30
0.0
 40
0.3333333333
100
AcDbArc
 50
0.0
 51
49.39870500000034
  0
LINE
  5
236
330
2
100
AcDbEntity
  8
GAIKEI
  6
HIDDEN2
 62
     1
100
AcDbLine
 10
-26.57700130173595
 20
20.00160618015167
 30
0.0
 11
-26.84565113504238
 21
19.77133484684134
 31
0.0
  0
LINE
  5
237
330
2
100
AcDbEntity
  8
GAIKEI
  6
HIDDEN2
 62
     1
100
AcDbLine
 10
-27.17872063500915
 20
18.87156084693134
 30
0.0
 11
-27.2287206350041
 21
18.87156084693134
 31
0.0
  0
ARC
  5
238
330
2
100
AcDbEntity
  8
GAIKEI
  6
HIDDEN2
 62
     1
100
AcDbCircle
 10
-27.2287206350041
 20
19.08822751357632
 30
0.0
 40
0.216666666645
100
AcDbArc
 50
180.0
 51
270.0
  0
ARC
  5
239
330
2
100
AcDbEntity
  8
GAIKEI
  6
HIDDEN2
 62
     1
100
AcDbCircle
 10
-27.17872063500915
 20
19.08822751357632
 30
0.0
 40
0.216666666645
100
AcDbArc
 50
270.0
 51
0.0
  0
LINE
  5
23A
330
2
100
AcDbEntity
  8
GAIKEI
  6
HIDDEN2
 62
     1
100
AcDbLine
 10
-28.62038730153159
 20
21.22156084669632
 30
0.0
 11
-27.20372063500662
 21
21.22156084669632
 31
0.0
  0
LINE
  5
23B
330
2
100
AcDbEntity
  8
GAIKEI
  6
HIDDEN2
 62
     1
100
AcDbLine
 10
-28.62038730153159
 20
21.4548941800063
 30
0.0
 11
-27.20372063500662
 21
21.4548941800063
 31
0.0
  0
LINE
  5
23C
330
2
100
AcDbEntity
  8
GAIKEI
  6
HIDDEN2
 62
     1
100
AcDbLine
 10
-27.70038730162361
 20
20.78156084674032
 30
0.0
 11
-27.70038730162361
 21
20.68156084675036
 31
0.0
  0
LINE
  5
23D
330
2
100
AcDbEntity
  8
GAIKEI
  6
HIDDEN2
 62
     1
100
AcDbLine
 10
-27.7037206349566
 20
20.75489418007635
 30
0.0
 11
-27.7037206349566
 21
20.68156084675036
 31
0.0
  0
ARC
  5
23E
330
2
100
AcDbEntity
  8
GAIKEI
  6
HIDDEN2
 62
     1
100
AcDbCircle
 10
-28.62038730153159
 20
21.33822751335134
 30
0.0
 40
0.116666666655
100
AcDbArc
 50
90.0
 51
270.0
  0
ARC
  5
23F
330
2
100
AcDbEntity
  8
GAIKEI
  6
HIDDEN2
 62
     1
100
AcDbCircle
 10
-28.62038730153159
 20
21.33822751335134
 30
0.0
 40
0.3333333333
100
AcDbArc
 50
90.0
 51
270.0
  0
LINE
  5
240
330
2
100
AcDbEntity
  8
GAIKEI
  6
HIDDEN2
 62
     1
100
AcDbLine
 10
-28.20705396823968
 20
20.78156084674032
 30
0.0
 11
-28.20705396823968
 21
20.68156084675036
 31
0.0
  0
LINE
  5
241
330
2
100
AcDbEntity
  8
GAIKEI
  6
HIDDEN2
 62
     1
100
AcDbLine
 10
-28.20372063490657
 20
20.75489418007635
 30
0.0
 11
-28.20372063490657
 21
20.68156084675036
 31
0.0
  0
ARC
  5
242
330
2
100
AcDbEntity
  8
GAIKEI
  6
HIDDEN2
 62
     1
100
AcDbCircle
 10
-28.64538730152907
 20
20.67228268008455
 30
0.0
 40
0.3333333333
100
AcDbArc
 50
0.0
 51
85.69877800000066
  0
LINE
  5
243
330
2
100
AcDbEntity
  8
GAIKEI
  6
HIDDEN2
 62
     1
100
AcDbLine
 10
-28.20705396823968
 20
20.78156084674032
 30
0.0
 11
-27.70038730162361
 21
20.78156084674032
 31
0.0
  0
LINE
  5
244
330
2
100
AcDbEntity
  8
GAIKEI
  6
HIDDEN2
 62
     1
100
AcDbLine
 10
-28.20705396823968
 20
20.68156084675036
 30
0.0
 11
-27.70038730162361
 21
20.68156084675036
 31
0.0
  0
LINE
  5
245
330
2
100
AcDbEntity
  8
GAIKEI
  6
HIDDEN2
 62
     1
100
AcDbLine
 10
-28.20372063490657
 20
20.75489418007635
 30
0.0
 11
-27.7037206349566
 21
20.75489418007635
 31
0.0
  0
LINE
  5
246
330
2
100
AcDbEntity
  8
GAIKEI
  6
HIDDEN2
 62
     1
100
AcDbLine
 10
-28.20372063490657
 20
20.68822751341634
 30
0.0
 11
-27.7037206349566
 21
20.68822751341634
 31
0.0
  0
ARC
  5
247
330
2
100
AcDbEntity
  8
GAIKEI
  6
HIDDEN2
 62
     1
100
AcDbCircle
 10
-27.20372063500662
 20
21.33822751335134
 30
0.0
 40
0.116666666655
100
AcDbArc
 50
270.0
 51
90.0
  0
LINE
  5
248
330
2
100
AcDbEntity
  8
GAIKEI
  6
HIDDEN2
 62
     1
100
AcDbLine
 10
-26.20038730177367
 20
20.78156084674032
 30
0.0
 11
-26.20038730177367
 21
20.68156084675036
 31
0.0
  0
LINE
  5
249
330
2
100
AcDbEntity
  8
GAIKEI
  6
HIDDEN2
 62
     1
100
AcDbLine
 10
-26.20372063510655
 20
20.75489418007635
 30
0.0
 11
-26.20372063510655
 21
20.68156084675036
 31
0.0
  0
LINE
  5
24A
330
2
100
AcDbEntity
  8
GAIKEI
  6
HIDDEN2
 62
     1
100
AcDbLine
 10
-26.70705396838963
 20
20.78156084674032
 30
0.0
 11
-26.70705396838963
 21
20.68156084675036
 31
0.0
  0
LINE
  5
24B
330
2
100
AcDbEntity
  8
GAIKEI
  6
HIDDEN2
 62
     1
100
AcDbLine
 10
-26.70372063505653
 20
20.75489418007635
 30
0.0
 11
-26.70372063505653
 21
20.68156084675036
 31
0.0
  0
LINE
  5
24C
330
2
100
AcDbEntity
  8
GAIKEI
  6
HIDDEN2
 62
     1
100
AcDbLine
 10
-26.20038730177367
 20
20.78156084674032
 30
0.0
 11
-26.70705396838963
 21
20.78156084674032
 31
0.0
  0
LINE
  5
24D
330
2
100
AcDbEntity
  8
GAIKEI
  6
HIDDEN2
 62
     1
100
AcDbLine
 10
-26.20038730177367
 20
20.68156084675036
 30
0.0
 11
-26.70705396838963
 21
20.68156084675036
 31
0.0
  0
LINE
  5
24E
330
2
100
AcDbEntity
  8
GAIKEI
  6
HIDDEN2
 62
     1
100
AcDbLine
 10
-26.70372063505653
 20
20.75489418007635
 30
0.0
 11
-26.20372063510655
 21
20.75489418007635
 31
0.0
  0
LINE
  5
24F
330
2
100
AcDbEntity
  8
GAIKEI
  6
HIDDEN2
 62
     1
100
AcDbLine
 10
-26.70372063505653
 20
20.68822751341634
 30
0.0
 11
-26.20372063510655
 21
20.68822751341634
 31
0.0
  0
ARC
  5
250
330
2
100
AcDbEntity
  8
GAIKEI
  6
HIDDEN2
 62
     1
100
AcDbCircle
 10
-25.76205396848417
 20
20.67156084675133
 30
0.0
 40
0.3333333333
100
AcDbArc
 50
90.0
 51
180.0
  0
LINE
  5
251
330
2
100
AcDbEntity
  8
GAIKEI
  6
HIDDEN2
 62
     1
100
AcDbLine
 10
-26.85372063504161
 20
18.4965608469688
 30
0.0
 11
-27.60130363496677
 21
18.4965608469688
 31
0.0
  0
LINE
  5
252
330
2
100
AcDbEntity
  8
GAIKEI
  6
HIDDEN2
 62
     1
100
AcDbLine
 10
-26.85372063504161
 20
18.01322751368383
 30
0.0
 11
-27.60130363496677
 21
18.01322751368383
 31
0.0
  0
POINT
  5
253
330
2
100
AcDbEntity
  8
GAIKEI
  6
HIDDEN2
 62
     1
100
AcDbPoint
 10
-27.75372063495155
 20
18.4965608469688
 30
0.0
  0
POINT
  5
254
330
2
100
AcDbEntity
  8
GAIKEI
  6
HIDDEN2
 62
     1
100
AcDbPoint
 10
-27.75372063495155
 20
18.01322751368383
 30
0.0
  0
LINE
  5
255
330
2
100
AcDbEntity
  8
GAIKEI
  6
HIDDEN2
 62
     1
100
AcDbLine
 10
-28.28705396823153
 20
18.80489418027133
 30
0.0
 11
-28.09659596825071
 21
18.80489418027133
 31
0.0
  0
LINE
  5
256
330
2
100
AcDbEntity
  8
GAIKEI
  6
HIDDEN2
 62
     1
100
AcDbLine
 10
-27.85342463494163
 20
18.61184351362391
 30
0.0
 11
-27.97053546826322
 21
18.74725284694375
 31
0.0
  0
ARC
  5
257
330
2
100
AcDbEntity
  8
GAIKEI
  6
HIDDEN2
 62
     1
100
AcDbCircle
 10
-28.09659596825071
 20
18.6382275136213
 30
0.0
 40
0.16666666665
100
AcDbArc
 50
40.85537600000072
 51
90.0
  0
LINE
  5
258
330
2
100
AcDbEntity
  8
GAIKEI
  6
HIDDEN2
 62
     1
100
AcDbLine
 10
-28.28705396823153
 20
17.70489418038136
 30
0.0
 11
-28.09659596825071
 21
17.70489418038136
 31
0.0
  0
LINE
  5
259
330
2
100
AcDbEntity
  8
GAIKEI
  6
HIDDEN2
 62
     1
100
AcDbLine
 10
-27.85342463494163
 20
17.89794484702867
 30
0.0
 11
-27.97053546826322
 21
17.76253551370888
 31
0.0
  0
POINT
  5
25A
330
2
100
AcDbEntity
  8
GAIKEI
  6
HIDDEN2
 62
     1
100
AcDbPoint
 10
-28.0203873015916
 20
17.70489418038136
 30
0.0
  0
ARC
  5
25B
330
2
100
AcDbEntity
  8
GAIKEI
  6
HIDDEN2
 62
     1
100
AcDbCircle
 10
-28.09659596825071
 20
17.87156084703133
 30
0.0
 40
0.16666666665
100
AcDbArc
 50
270.0
 51
319.1446239999992
  0
LINE
  5
25C
330
2
100
AcDbEntity
  8
GAIKEI
  6
HIDDEN2
 62
     1
100
AcDbLine
 10
-28.22038730157164
 20
18.80489418027133
 30
0.0
 11
-28.22038730157164
 21
17.70489418038136
 31
0.0
  0
ARC
  5
25D
330
2
100
AcDbEntity
  8
GAIKEI
  6
HIDDEN2
 62
     1
100
AcDbCircle
 10
-27.60130363496677
 20
17.67989418038382
 30
0.0
 40
0.3333333333
100
AcDbArc
 50
90.0
 51
139.1446239999993
  0
ARC
  5
25E
330
2
100
AcDbEntity
  8
GAIKEI
  6
HIDDEN2
 62
     1
100
AcDbCircle
 10
-27.60130363496677
 20
18.82989418026881
 30
0.0
 40
0.3333333333
100
AcDbArc
 50
220.8553760000007
 51
270.0
  0
LINE
  5
25F
330
2
100
AcDbEntity
  8
GAIKEI
  6
HIDDEN2
 62
     1
100
AcDbLine
 10
-26.63705396839663
 20
18.22989418032881
 30
0.0
 11
-26.63705396839663
 21
18.27989418032376
 31
0.0
  0
ARC
  5
260
330
2
100
AcDbEntity
  8
GAIKEI
  6
HIDDEN2
 62
     1
100
AcDbCircle
 10
-26.85372063504161
 20
18.27989418032376
 30
0.0
 40
0.216666666645
100
AcDbArc
 50
0.0
 51
90.0
  0
ARC
  5
261
330
2
100
AcDbEntity
  8
GAIKEI
  6
HIDDEN2
 62
     1
100
AcDbCircle
 10
-26.85372063504161
 20
18.22989418032881
 30
0.0
 40
0.216666666645
100
AcDbArc
 50
270.0
 51
0.0
  0
ARC
  5
262
330
2
100
AcDbEntity
  8
GAIKEI
  6
HIDDEN2
 62
     1
100
AcDbCircle
 10
-27.20372063500662
 20
9.388227514546315
 30
0.0
 40
0.5499999999449999
100
AcDbArc
 50
6.931044999999164
 51
173.0264239999993
  0
ARC
  5
263
330
2
100
AcDbEntity
  8
GAIKEI
  6
HIDDEN2
 62
     1
100
AcDbCircle
 10
-27.20372063500662
 20
9.154894181236329
 30
0.0
 40
0.5499999999449999
100
AcDbArc
 50
180.0
 51
235.2659900000014
  0
LINE
  5
264
330
2
100
AcDbEntity
  8
GAIKEI
  6
HIDDEN2
 62
     1
100
AcDbLine
 10
-27.75372063495155
 20
9.154894181236329
 30
0.0
 11
-27.75372063495155
 21
9.321502181219614
 31
0.0
  0
ARC
  5
265
330
2
100
AcDbEntity
  8
GAIKEI
  6
HIDDEN2
 62
     1
100
AcDbCircle
 10
-27.75354863495153
 20
9.388227514546315
 30
0.0
 40
0.0668388333266495
100
AcDbArc
 50
86.66036600000108
 51
269.8524600000009
  0
ARC
  5
266
330
2
100
AcDbEntity
  8
GAIKEI
  6
HIDDEN2
 62
     1
100
AcDbCircle
 10
-27.20372063500662
 20
9.154894181236329
 30
0.0
 40
0.5499999999449999
100
AcDbArc
 50
304.7340099999987
 51
0.0
  0
ARC
  5
267
330
2
100
AcDbEntity
  8
GAIKEI
  6
HIDDEN2
 62
     1
100
AcDbCircle
 10
-26.79538730171413
 20
8.565933347961902
 30
0.0
 40
0.16666666665
100
AcDbArc
 50
124.7340099999986
 51
180.0
  0
LINE
  5
268
330
2
100
AcDbEntity
  8
GAIKEI
  6
HIDDEN2
 62
     1
100
AcDbLine
 10
-26.65372063506158
 20
9.154894181236329
 30
0.0
 11
-26.65372063506158
 21
9.321389014553005
 31
0.0
  0
ARC
  5
269
330
2
100
AcDbEntity
  8
GAIKEI
  6
HIDDEN2
 62
     1
100
AcDbCircle
 10
-27.61205396829911
 20
8.565933347961902
 30
0.0
 40
0.16666666665
100
AcDbArc
 50
0.0
 51
55.26599000000138
  0
ARC
  5
26A
330
2
100
AcDbEntity
  8
GAIKEI
  6
HIDDEN2
 62
     1
100
AcDbCircle
 10
-26.65389280172821
 20
9.388227514546315
 30
0.0
 40
0.0668388333266495
100
AcDbArc
 50
270.1475399999991
 51
93.33963399999893
  0
LINE
  5
26B
330
2
100
AcDbEntity
  8
GAIKEI
  6
HIDDEN2
 62
     1
100
AcDbLine
 10
-16.87038730270655
 20
21.00489418005134
 30
0.0
 11
-25.76205396848417
 21
21.00489418005134
 31
0.0
  0
LINE
  5
26C
330
2
100
AcDbEntity
  8
GAIKEI
  6
HIDDEN2
 62
     1
100
AcDbLine
 10
-3.287053970731619
 20
21.93822751329134
 30
0.0
 11
-29.12038730148157
 21
21.93822751329134
 31
0.0
  0
LINE
  5
26D
330
2
100
AcDbEntity
  8
GAIKEI
  6
HIDDEN2
 62
     1
100
AcDbLine
 10
-3.287053970731619
 20
21.87156084663133
 30
0.0
 11
-29.12038730148157
 21
21.87156084663133
 31
0.0
  0
LINE
  5
26E
330
2
100
AcDbEntity
  8
GAIKEI
  6
HIDDEN2
 62
     1
100
AcDbLine
 10
-3.787053970681597
 20
21.67156084665135
 30
0.0
 11
-28.62038730153159
 21
21.67156084665135
 31
0.0
  0
LINE
  5
26F
330
2
100
AcDbEntity
  8
GAIKEI
  6
HIDDEN2
 62
     1
100
AcDbLine
 10
-5.87038730380658
 20
20.17156084680136
 30
0.0
 11
-26.5370539684065
 21
20.17156084680136
 31
0.0
  0
LINE
  5
270
330
2
100
AcDbEntity
  8
GAIKEI
  6
HIDDEN2
 62
     1
100
AcDbLine
 10
-29.12038730148157
 20
20.10489418014135
 30
0.0
 11
-3.287053970731619
 21
20.10489418014135
 31
0.0
  0
LINE
  5
271
330
2
100
AcDbEntity
  8
GAIKEI
  6
HIDDEN2
 62
     1
100
AcDbLine
 10
-24.53705396860659
 20
21.22156084669632
 30
0.0
 11
-21.20372063560655
 21
21.22156084669632
 31
0.0
  0
LINE
  5
272
330
2
100
AcDbEntity
  8
GAIKEI
  6
HIDDEN2
 62
     1
100
AcDbLine
 10
-24.53705396860659
 20
21.4548941800063
 30
0.0
 11
-21.20372063560655
 21
21.4548941800063
 31
0.0
  0
ARC
  5
273
330
2
100
AcDbEntity
  8
GAIKEI
  6
HIDDEN2
 62
     1
100
AcDbCircle
 10
-3.787053970681597
 20
5.33822751495137
 30
0.0
 40
0.3333333333
100
AcDbArc
 50
270.0
 51
90.0
  0
LINE
  5
274
330
2
100
AcDbEntity
  8
GAIKEI
  6
HIDDEN2
 62
     1
100
AcDbLine
 10
-3.287053970731619
 20
6.571560848161254
 30
0.0
 11
-3.287053970731619
 21
4.73822751501126
 31
0.0
  0
LINE
  5
275
330
2
100
AcDbEntity
  8
GAIKEI
  6
HIDDEN2
 62
     1
100
AcDbLine
 10
-4.637053970596582
 20
7.563227514728851
 30
0.0
 11
-4.637053970596582
 21
7.613227514723803
 31
0.0
  0
ARC
  5
276
330
2
100
AcDbEntity
  8
GAIKEI
  6
HIDDEN2
 62
     1
100
AcDbCircle
 10
-4.853720637241565
 20
7.60489418139133
 30
0.0
 40
0.216666666645
100
AcDbArc
 50
2.202598000000039
 51
90.0
  0
LINE
  5
277
330
2
100
AcDbEntity
  8
GAIKEI
  6
HIDDEN2
 62
     1
100
AcDbLine
 10
-4.187053970641557
 20
6.588227514826371
 30
0.0
 11
-4.187053970641557
 21
6.721560848146339
 31
0.0
  0
LINE
  5
278
330
2
100
AcDbEntity
  8
GAIKEI
  6
HIDDEN2
 62
     1
100
AcDbLine
 10
-4.120387303981544
 20
6.721560848146339
 30
0.0
 11
-4.203720637306503
 21
6.721560848146339
 31
0.0
  0
LINE
  5
279
330
2
100
AcDbEntity
  8
GAIKEI
  6
HIDDEN2
 62
     1
100
AcDbLine
 10
-4.187053970641557
 20
6.588227514826371
 30
0.0
 11
-4.120387303981544
 21
6.588227514826371
 31
0.0
  0
ARC
  5
27A
330
2
100
AcDbEntity
  8
GAIKEI
  6
HIDDEN2
 62
     1
100
AcDbCircle
 10
-4.203720637306503
 20
6.654894181486326
 30
0.0
 40
0.06666666666
100
AcDbArc
 50
90.0
 51
180.0
  0
LINE
  5
27B
330
2
100
AcDbEntity
  8
GAIKEI
  6
HIDDEN2
 62
     1
100
AcDbLine
 10
-4.270387303966515
 20
6.654894181486326
 30
0.0
 11
-4.270387303966515
 21
6.588227514826371
 31
0.0
  0
LINE
  5
27C
330
2
100
AcDbEntity
  8
GAIKEI
  6
HIDDEN2
 62
     1
100
AcDbLine
 10
-4.270387303966515
 20
6.654894181486326
 30
0.0
 11
-4.203720637306503
 21
6.654894181486326
 31
0.0
  0
LINE
  5
27D
330
2
100
AcDbEntity
  8
GAIKEI
  6
HIDDEN2
 62
     1
100
AcDbLine
 10
-4.537053970606564
 20
6.571560848161254
 30
0.0
 11
-4.537053970606564
 21
6.504894181501356
 31
0.0
  0
LINE
  5
27E
330
2
100
AcDbEntity
  8
GAIKEI
  6
HIDDEN2
 62
     1
100
AcDbLine
 10
-4.203720637306503
 20
6.571560848161254
 30
0.0
 11
-4.203720637306503
 21
6.654894181486326
 31
0.0
  0
LINE
  5
27F
330
2
100
AcDbEntity
  8
GAIKEI
  6
HIDDEN2
 62
     1
100
AcDbLine
 10
-4.537053970606564
 20
6.504894181501356
 30
0.0
 11
-3.287053970731619
 21
6.504894181501356
 31
0.0
  0
LINE
  5
280
330
2
100
AcDbEntity
  8
GAIKEI
  6
HIDDEN2
 62
     1
100
AcDbLine
 10
-4.200387303973627
 20
5.894894181562278
 30
0.0
 11
-4.200387303973627
 21
5.994894181552297
 31
0.0
  0
LINE
  5
281
330
2
100
AcDbEntity
  8
GAIKEI
  6
HIDDEN2
 62
     1
100
AcDbLine
 10
-4.203720637306503
 20
5.921560848226363
 30
0.0
 11
-4.203720637306503
 21
5.994894181552297
 31
0.0
  0
ARC
  5
282
330
2
100
AcDbEntity
  8
GAIKEI
  6
HIDDEN2
 62
     1
100
AcDbCircle
 10
-3.762053970684121
 20
6.004172514884714
 30
0.0
 40
0.3333333333
100
AcDbArc
 50
180.0
 51
265.6987780000007
  0
LINE
  5
283
330
2
100
AcDbEntity
  8
GAIKEI
  6
HIDDEN2
 62
     1
100
AcDbLine
 10
-4.095387303984068
 20
6.504894181501356
 30
0.0
 11
-4.095387303984068
 21
6.004172514884714
 31
0.0
  0
LINE
  5
284
330
2
100
AcDbEntity
  8
GAIKEI
  6
HIDDEN2
 62
     1
100
AcDbLine
 10
-4.707053970589583
 20
5.894894181562278
 30
0.0
 11
-4.707053970589583
 21
5.994894181552297
 31
0.0
  0
LINE
  5
285
330
2
100
AcDbEntity
  8
GAIKEI
  6
HIDDEN2
 62
     1
100
AcDbLine
 10
-4.703720637256594
 20
5.921560848226363
 30
0.0
 11
-4.703720637256594
 21
5.994894181552297
 31
0.0
  0
LINE
  5
286
330
2
100
AcDbEntity
  8
GAIKEI
  6
HIDDEN2
 62
     1
100
AcDbLine
 10
-4.200387303973627
 20
5.894894181562278
 30
0.0
 11
-4.707053970589583
 21
5.894894181562278
 31
0.0
  0
LINE
  5
287
330
2
100
AcDbEntity
  8
GAIKEI
  6
HIDDEN2
 62
     1
100
AcDbLine
 10
-4.200387303973627
 20
5.994894181552297
 30
0.0
 11
-4.707053970589583
 21
5.994894181552297
 31
0.0
  0
LINE
  5
288
330
2
100
AcDbEntity
  8
GAIKEI
  6
HIDDEN2
 62
     1
100
AcDbLine
 10
-4.703720637256594
 20
5.921560848226363
 30
0.0
 11
-4.203720637306503
 21
5.921560848226363
 31
0.0
  0
LINE
  5
289
330
2
100
AcDbEntity
  8
GAIKEI
  6
HIDDEN2
 62
     1
100
AcDbLine
 10
-4.703720637256594
 20
5.988227514886318
 30
0.0
 11
-4.203720637306503
 21
5.988227514886318
 31
0.0
  0
ARC
  5
28A
330
2
100
AcDbEntity
  8
GAIKEI
  6
HIDDEN2
 62
     1
100
AcDbCircle
 10
-3.787053970681597
 20
5.33822751495137
 30
0.0
 40
0.116666666655
100
AcDbArc
 50
270.0
 51
90.0
  0
ARC
  5
28B
330
2
100
AcDbEntity
  8
GAIKEI
  6
HIDDEN2
 62
     1
100
AcDbCircle
 10
-4.853720637241565
 20
7.571560848061324
 30
0.0
 40
0.216666666645
100
AcDbArc
 50
270.0
 51
357.7974019999999
  0
ARC
  5
28C
330
2
100
AcDbEntity
  8
GAIKEI
  6
HIDDEN2
 62
     1
100
AcDbCircle
 10
-6.645387303729137
 20
6.004894181551378
 30
0.0
 40
0.3333333333
100
AcDbArc
 50
270.0
 51
0.0
  0
ARC
  5
28D
330
2
100
AcDbEntity
  8
GAIKEI
  6
HIDDEN2
 62
     1
100
AcDbCircle
 10
-7.870387303606605
 20
5.33822751495137
 30
0.0
 40
0.116666666655
100
AcDbArc
 50
270.0
 51
90.0
  0
LINE
  5
28E
330
2
100
AcDbEntity
  8
GAIKEI
  6
HIDDEN2
 62
     1
100
AcDbLine
 10
-5.228720637204048
 20
8.204894181331326
 30
0.0
 11
-5.178720637209096
 21
8.204894181331326
 31
0.0
  0
ARC
  5
28F
330
2
100
AcDbEntity
  8
GAIKEI
  6
HIDDEN2
 62
     1
100
AcDbCircle
 10
-5.074706470552825
 20
7.988227514686286
 30
0.0
 40
0.16666666665
100
AcDbArc
 50
217.9798719999997
 51
270.0
  0
ARC
  5
290
330
2
100
AcDbEntity
  8
GAIKEI
  6
HIDDEN2
 62
     1
100
AcDbCircle
 10
-5.587053970501585
 20
8.071388848011395
 30
0.0
 40
0.0668388333266495
100
AcDbArc
 50
355.8873210000002
 51
184.1126789999998
  0
ARC
  5
291
330
2
100
AcDbEntity
  8
GAIKEI
  6
HIDDEN2
 62
     1
100
AcDbCircle
 10
-5.587053970501585
 20
7.588227514726384
 30
0.0
 40
0.4833333332849999
100
AcDbArc
 50
37.97987199999973
 51
82.06901600000042
  0
ARC
  5
292
330
2
100
AcDbEntity
  8
GAIKEI
  6
HIDDEN2
 62
     1
100
AcDbCircle
 10
-5.228720637204048
 20
8.421560847976365
 30
0.0
 40
0.216666666645
100
AcDbArc
 50
180.0
 51
270.0
  0
ARC
  5
293
330
2
100
AcDbEntity
  8
GAIKEI
  6
HIDDEN2
 62
     1
100
AcDbCircle
 10
-5.178720637209096
 20
8.421560847976365
 30
0.0
 40
0.216666666645
100
AcDbArc
 50
270.0
 51
0.0
  0
ARC
  5
294
330
2
100
AcDbEntity
  8
GAIKEI
  6
HIDDEN2
 62
     1
100
AcDbCircle
 10
-5.074706470552825
 20
7.18822751476631
 30
0.0
 40
0.16666666665
100
AcDbArc
 50
90.0
 51
142.0201280000003
  0
LINE
  5
295
330
2
100
AcDbEntity
  8
GAIKEI
  6
HIDDEN2
 62
     1
100
AcDbLine
 10
-5.87038730380658
 20
6.571560848161254
 30
0.0
 11
-5.87038730380658
 21
6.504894181501356
 31
0.0
  0
POINT
  5
296
330
2
100
AcDbEntity
  8
GAIKEI
  6
HIDDEN2
 62
     1
100
AcDbPoint
 10
-5.687053970491604
 20
7.346560848083811
 30
0.0
  0
ARC
  5
297
330
2
100
AcDbEntity
  8
GAIKEI
  6
HIDDEN2
 62
     1
100
AcDbCircle
 10
-5.587053970501585
 20
7.105066348107982
 30
0.0
 40
0.0668388333266495
100
AcDbArc
 50
175.8873210000002
 51
4.112678999999832
  0
ARC
  5
298
330
2
100
AcDbEntity
  8
GAIKEI
  6
HIDDEN2
 62
     1
100
AcDbCircle
 10
-5.587053970501585
 20
7.588227514726384
 30
0.0
 40
0.4833333332849999
100
AcDbArc
 50
277.9309839999996
 51
322.0201280000003
  0
LINE
  5
299
330
2
100
AcDbEntity
  8
GAIKEI
  6
HIDDEN2
 62
     1
100
AcDbLine
 10
-5.700387303823674
 20
5.894894181562278
 30
0.0
 11
-5.700387303823674
 21
5.994894181552297
 31
0.0
  0
LINE
  5
29A
330
2
100
AcDbEntity
  8
GAIKEI
  6
HIDDEN2
 62
     1
100
AcDbLine
 10
-5.70372063715655
 20
5.921560848226363
 30
0.0
 11
-5.70372063715655
 21
5.994894181552297
 31
0.0
  0
ARC
  5
29B
330
2
100
AcDbEntity
  8
GAIKEI
  6
HIDDEN2
 62
     1
100
AcDbCircle
 10
-5.203720637206572
 20
5.33822751495137
 30
0.0
 40
0.116666666655
100
AcDbArc
 50
90.0
 51
270.0
  0
ARC
  5
29C
330
2
100
AcDbEntity
  8
GAIKEI
  6
HIDDEN2
 62
     1
100
AcDbCircle
 10
-6.039411470456286
 20
7.757984681376001
 30
0.0
 40
0.0668388333266495
100
AcDbArc
 50
65.61198600000043
 51
253.2485960000011
  0
ARC
  5
29D
330
2
100
AcDbEntity
  8
GAIKEI
  6
HIDDEN2
 62
     1
100
AcDbCircle
 10
-5.587053970501585
 20
7.588227514726384
 30
0.0
 40
0.4833333332849999
100
AcDbArc
 50
167.3612749999995
 51
192.6387249999973
  0
LINE
  5
29E
330
2
100
AcDbEntity
  8
GAIKEI
  6
HIDDEN2
 62
     1
100
AcDbLine
 10
-6.220387303771587
 20
6.588227514826371
 30
0.0
 11
-6.220387303771587
 21
6.721560848146339
 31
0.0
  0
LINE
  5
29F
330
2
100
AcDbEntity
  8
GAIKEI
  6
HIDDEN2
 62
     1
100
AcDbLine
 10
-6.2870539704316
 20
6.721560848146339
 30
0.0
 11
-6.203720637106528
 21
6.721560848146339
 31
0.0
  0
LINE
  5
2A0
330
2
100
AcDbEntity
  8
GAIKEI
  6
HIDDEN2
 62
     1
100
AcDbLine
 10
-6.220387303771587
 20
6.588227514826371
 30
0.0
 11
-6.2870539704316
 21
6.588227514826371
 31
0.0
  0
ARC
  5
2A1
330
2
100
AcDbEntity
  8
GAIKEI
  6
HIDDEN2
 62
     1
100
AcDbCircle
 10
-6.203720637106528
 20
6.654894181486326
 30
0.0
 40
0.06666666666
100
AcDbArc
 50
0.0
 51
90.0
  0
LINE
  5
2A2
330
2
100
AcDbEntity
  8
GAIKEI
  6
HIDDEN2
 62
     1
100
AcDbLine
 10
-6.137053970446629
 20
6.654894181486326
 30
0.0
 11
-6.137053970446629
 21
6.588227514826371
 31
0.0
  0
LINE
  5
2A3
330
2
100
AcDbEntity
  8
GAIKEI
  6
HIDDEN2
 62
     1
100
AcDbLine
 10
-6.137053970446629
 20
6.654894181486326
 30
0.0
 11
-6.203720637106528
 21
6.654894181486326
 31
0.0
  0
LINE
  5
2A4
330
2
100
AcDbEntity
  8
GAIKEI
  6
HIDDEN2
 62
     1
100
AcDbLine
 10
-6.203720637106528
 20
6.571560848161254
 30
0.0
 11
-6.203720637106528
 21
6.654894181486326
 31
0.0
  0
LINE
  5
2A5
330
2
100
AcDbEntity
  8
GAIKEI
  6
HIDDEN2
 62
     1
100
AcDbLine
 10
-6.207053970439631
 20
5.894894181562278
 30
0.0
 11
-6.207053970439631
 21
5.994894181552297
 31
0.0
  0
LINE
  5
2A6
330
2
100
AcDbEntity
  8
GAIKEI
  6
HIDDEN2
 62
     1
100
AcDbLine
 10
-6.203720637106528
 20
5.921560848226363
 30
0.0
 11
-6.203720637106528
 21
5.994894181552297
 31
0.0
  0
LINE
  5
2A7
330
2
100
AcDbEntity
  8
GAIKEI
  6
HIDDEN2
 62
     1
100
AcDbLine
 10
-6.312053970429076
 20
6.504894181501356
 30
0.0
 11
-6.312053970429076
 21
6.004894181551378
 31
0.0
  0
ARC
  5
2A8
330
2
100
AcDbEntity
  8
GAIKEI
  6
HIDDEN2
 62
     1
100
AcDbCircle
 10
-6.039411470456286
 20
7.418470514743319
 30
0.0
 40
0.0668388333266495
100
AcDbArc
 50
106.7514039999989
 51
294.6823879999998
  0
LINE
  5
2A9
330
2
100
AcDbEntity
  8
GAIKEI
  6
HIDDEN2
 62
     1
100
AcDbLine
 10
-6.207053970439631
 20
5.894894181562278
 30
0.0
 11
-5.700387303823674
 21
5.894894181562278
 31
0.0
  0
LINE
  5
2AA
330
2
100
AcDbEntity
  8
GAIKEI
  6
HIDDEN2
 62
     1
100
AcDbLine
 10
-6.207053970439631
 20
5.994894181552297
 30
0.0
 11
-5.700387303823674
 21
5.994894181552297
 31
0.0
  0
LINE
  5
2AB
330
2
100
AcDbEntity
  8
GAIKEI
  6
HIDDEN2
 62
     1
100
AcDbLine
 10
-6.203720637106528
 20
5.921560848226363
 30
0.0
 11
-5.70372063715655
 21
5.921560848226363
 31
0.0
  0
LINE
  5
2AC
330
2
100
AcDbEntity
  8
GAIKEI
  6
HIDDEN2
 62
     1
100
AcDbLine
 10
-6.203720637106528
 20
5.988227514886318
 30
0.0
 11
-5.70372063715655
 21
5.988227514886318
 31
0.0
  0
ARC
  5
2AD
330
2
100
AcDbEntity
  8
GAIKEI
  6
HIDDEN2
 62
     1
100
AcDbCircle
 10
-5.587053970501585
 20
7.588227514726384
 30
0.0
 40
0.4833333332849999
100
AcDbArc
 50
97.93380099999502
 51
151.4993069999999
  0
ARC
  5
2AE
330
2
100
AcDbEntity
  8
GAIKEI
  6
HIDDEN2
 62
     1
100
AcDbCircle
 10
-5.587053970501585
 20
7.588227514726384
 30
0.0
 40
0.4833333332849999
100
AcDbArc
 50
208.503509999998
 51
262.0661989999984
  0
LINE
  5
2AF
330
2
100
AcDbEntity
  8
GAIKEI
  6
HIDDEN2
 62
     1
100
AcDbLine
 10
-4.853720637241565
 20
7.821560848036313
 30
0.0
 11
-5.074706470552825
 21
7.821560848036313
 31
0.0
  0
LINE
  5
2B0
330
2
100
AcDbEntity
  8
GAIKEI
  6
HIDDEN2
 62
     1
100
AcDbLine
 10
-4.853720637241565
 20
7.354894181416341
 30
0.0
 11
-5.074706470552825
 21
7.354894181416341
 31
0.0
  0
LINE
  5
2B1
330
2
100
AcDbEntity
  8
GAIKEI
  6
HIDDEN2
 62
     1
100
AcDbLine
 10
-3.787053970681597
 20
5.454894181606334
 30
0.0
 11
-5.203720637206572
 21
5.454894181606334
 31
0.0
  0
LINE
  5
2B2
330
2
100
AcDbEntity
  8
GAIKEI
  6
HIDDEN2
 62
     1
100
AcDbLine
 10
-3.787053970681597
 20
5.221560848296292
 30
0.0
 11
-5.203720637206572
 21
5.221560848296292
 31
0.0
  0
LINE
  5
2B3
330
2
100
AcDbEntity
  8
GAIKEI
  6
HIDDEN2
 62
     1
100
AcDbLine
 10
-4.203720637306503
 20
6.588227514826371
 30
0.0
 11
-6.203720637106528
 21
6.588227514826371
 31
0.0
  0
ARC
  5
2B4
330
2
100
AcDbEntity
  8
GAIKEI
  6
HIDDEN2
 62
     1
100
AcDbCircle
 10
-11.20372063660653
 20
5.33822751495137
 30
0.0
 40
0.116666666655
100
AcDbArc
 50
90.0
 51
270.0
  0
ARC
  5
2B5
330
2
100
AcDbEntity
  8
GAIKEI
  6
HIDDEN2
 62
     1
100
AcDbCircle
 10
-14.53705396960657
 20
5.33822751495137
 30
0.0
 40
0.116666666655
100
AcDbArc
 50
270.0
 51
90.0
  0
LINE
  5
2B6
330
2
100
AcDbEntity
  8
GAIKEI
  6
HIDDEN2
 62
     1
100
AcDbLine
 10
-16.70372063605652
 20
5.454894181606334
 30
0.0
 11
-17.8703873026065
 21
5.454894181606334
 31
0.0
  0
LINE
  5
2B7
330
2
100
AcDbEntity
  8
GAIKEI
  6
HIDDEN2
 62
     1
100
AcDbLine
 10
-16.70372063605652
 20
5.221560848296292
 30
0.0
 11
-17.8703873026065
 21
5.221560848296292
 31
0.0
  0
ARC
  5
2B8
330
2
100
AcDbEntity
  8
GAIKEI
  6
HIDDEN2
 62
     1
100
AcDbCircle
 10
-17.8703873026065
 20
5.33822751495137
 30
0.0
 40
0.116666666655
100
AcDbArc
 50
90.0
 51
270.0
  0
LINE
  5
2B9
330
2
100
AcDbEntity
  8
GAIKEI
  6
HIDDEN2
 62
     1
100
AcDbLine
 10
-16.08705396945157
 20
6.004894181551378
 30
0.0
 11
-16.08705396945157
 21
5.879834181563865
 31
0.0
  0
ARC
  5
2BA
330
2
100
AcDbEntity
  8
GAIKEI
  6
HIDDEN2
 62
     1
100
AcDbCircle
 10
-15.53705396950653
 20
6.004894181551378
 30
0.0
 40
0.3333333333
100
AcDbArc
 50
180.0
 51
270.0
  0
ARC
  5
2BB
330
2
100
AcDbEntity
  8
GAIKEI
  6
HIDDEN2
 62
     1
100
AcDbCircle
 10
-16.20372063610654
 20
5.671560848251317
 30
0.0
 40
0.223333333311
100
AcDbArc
 50
305.761714000005
 51
54.23828599999502
  0
ARC
  5
2BC
330
2
100
AcDbEntity
  8
GAIKEI
  6
HIDDEN2
 62
     1
100
AcDbCircle
 10
-16.05372063612157
 20
5.879834181563865
 30
0.0
 40
0.03333333333
100
AcDbArc
 50
180.0
 51
234.238285999995
  0
LINE
  5
2BD
330
2
100
AcDbEntity
  8
GAIKEI
  6
HIDDEN2
 62
     1
100
AcDbLine
 10
-16.32038730276162
 20
6.004894181551378
 30
0.0
 11
-16.32038730276162
 21
5.879834181563865
 31
0.0
  0
ARC
  5
2BE
330
2
100
AcDbEntity
  8
GAIKEI
  6
HIDDEN2
 62
     1
100
AcDbCircle
 10
-16.87038730270655
 20
6.004894181551378
 30
0.0
 40
0.3333333333
100
AcDbArc
 50
270.0
 51
0.0
  0
ARC
  5
2BF
330
2
100
AcDbEntity
  8
GAIKEI
  6
HIDDEN2
 62
     1
100
AcDbCircle
 10
-16.20372063610654
 20
5.671560848251317
 30
0.0
 40
0.223333333311
100
AcDbArc
 50
125.7617140000049
 51
234.238285999995
  0
ARC
  5
2C0
330
2
100
AcDbEntity
  8
GAIKEI
  6
HIDDEN2
 62
     1
100
AcDbCircle
 10
-16.35372063609151
 20
5.879834181563865
 30
0.0
 40
0.03333333333
100
AcDbArc
 50
305.761714000005
 51
0.0
  0
ARC
  5
2C1
330
2
100
AcDbEntity
  8
GAIKEI
  6
HIDDEN2
 62
     1
100
AcDbCircle
 10
-16.20372063610654
 20
6.004894181551378
 30
0.0
 40
0.3333333333
100
AcDbArc
 50
0.0
 51
180.0
  0
ARC
  5
2C2
330
2
100
AcDbEntity
  8
GAIKEI
  6
HIDDEN2
 62
     1
100
AcDbCircle
 10
-16.20372063610654
 20
6.004894181551378
 30
0.0
 40
0.116666666655
100
AcDbArc
 50
0.0
 51
180.0
  0
ARC
  5
2C3
330
2
100
AcDbEntity
  8
GAIKEI
  6
HIDDEN2
 62
     1
100
AcDbCircle
 10
-15.70372063615656
 20
5.33822751495137
 30
0.0
 40
0.116666666655
100
AcDbArc
 50
90.0
 51
270.0
  0
LINE
  5
2C4
330
2
100
AcDbEntity
  8
GAIKEI
  6
HIDDEN2
 62
     1
100
AcDbLine
 10
-16.08705396945157
 20
5.463287514938826
 30
0.0
 11
-16.08705396945157
 21
5.33822751495137
 31
0.0
  0
ARC
  5
2C5
330
2
100
AcDbEntity
  8
GAIKEI
  6
HIDDEN2
 62
     1
100
AcDbCircle
 10
-16.70372063605652
 20
5.33822751495137
 30
0.0
 40
0.116666666655
100
AcDbArc
 50
270.0
 51
90.0
  0
LINE
  5
2C6
330
2
100
AcDbEntity
  8
GAIKEI
  6
HIDDEN2
 62
     1
100
AcDbLine
 10
-16.32038730276162
 20
5.463287514938826
 30
0.0
 11
-16.32038730276162
 21
5.33822751495137
 31
0.0
  0
ARC
  5
2C7
330
2
100
AcDbEntity
  8
GAIKEI
  6
HIDDEN2
 62
     1
100
AcDbCircle
 10
-16.20372063610654
 20
5.33822751495137
 30
0.0
 40
0.116666666655
100
AcDbArc
 50
180.0
 51
0.0
  0
ARC
  5
2C8
330
2
100
AcDbEntity
  8
GAIKEI
  6
HIDDEN2
 62
     1
100
AcDbCircle
 10
-16.35372063609151
 20
5.463287514938826
 30
0.0
 40
0.03333333333
100
AcDbArc
 50
0.0
 51
54.23828599999502
  0
ARC
  5
2C9
330
2
100
AcDbEntity
  8
GAIKEI
  6
HIDDEN2
 62
     1
100
AcDbCircle
 10
-16.05372063612157
 20
5.463287514938826
 30
0.0
 40
0.03333333333
100
AcDbArc
 50
125.7617140000049
 51
180.0
  0
ARC
  5
2CA
330
2
100
AcDbEntity
  8
GAIKEI
  6
HIDDEN2
 62
     1
100
AcDbCircle
 10
-21.20372063560655
 20
5.33822751495137
 30
0.0
 40
0.116666666655
100
AcDbArc
 50
270.0
 51
90.0
  0
LINE
  5
2CB
330
2
100
AcDbEntity
  8
GAIKEI
  6
HIDDEN2
 62
     1
100
AcDbLine
 10
-15.70372063615656
 20
5.454894181606334
 30
0.0
 11
-14.53705396960657
 21
5.454894181606334
 31
0.0
  0
LINE
  5
2CC
330
2
100
AcDbEntity
  8
GAIKEI
  6
HIDDEN2
 62
     1
100
AcDbLine
 10
-15.70372063615656
 20
5.221560848296292
 30
0.0
 11
-14.53705396960657
 21
5.221560848296292
 31
0.0
  0
LINE
  5
2CD
330
2
100
AcDbEntity
  8
GAIKEI
  6
HIDDEN2
 62
     1
100
AcDbLine
 10
-15.53705396950653
 20
5.671560848251317
 30
0.0
 11
-6.645387303729137
 21
5.671560848251317
 31
0.0
  0
LINE
  5
2CE
330
2
100
AcDbEntity
  8
GAIKEI
  6
HIDDEN2
 62
     1
100
AcDbLine
 10
-7.870387303606605
 20
5.454894181606334
 30
0.0
 11
-11.20372063660653
 21
5.454894181606334
 31
0.0
  0
LINE
  5
2CF
330
2
100
AcDbEntity
  8
GAIKEI
  6
HIDDEN2
 62
     1
100
AcDbLine
 10
-7.870387303606605
 20
5.221560848296292
 30
0.0
 11
-11.20372063660653
 21
5.221560848296292
 31
0.0
  0
ARC
  5
2D0
330
2
100
AcDbEntity
  8
GAIKEI
  6
HIDDEN2
 62
     1
100
AcDbCircle
 10
-24.53705396860659
 20
5.33822751495137
 30
0.0
 40
0.116666666655
100
AcDbArc
 50
90.0
 51
270.0
  0
LINE
  5
2D1
330
2
100
AcDbEntity
  8
GAIKEI
  6
HIDDEN2
 62
     1
100
AcDbLine
 10
-26.85372063504161
 20
7.829894181368842
 30
0.0
 11
-27.60130363496677
 21
7.829894181368842
 31
0.0
  0
LINE
  5
2D2
330
2
100
AcDbEntity
  8
GAIKEI
  6
HIDDEN2
 62
     1
100
AcDbLine
 10
-26.85372063504161
 20
7.346560848083811
 30
0.0
 11
-27.60130363496677
 21
7.346560848083811
 31
0.0
  0
LINE
  5
2D3
330
2
100
AcDbEntity
  8
GAIKEI
  6
HIDDEN2
 62
     1
100
AcDbLine
 10
-28.62038730153159
 20
5.454894181606334
 30
0.0
 11
-27.20372063500662
 21
5.454894181606334
 31
0.0
  0
LINE
  5
2D4
330
2
100
AcDbEntity
  8
GAIKEI
  6
HIDDEN2
 62
     1
100
AcDbLine
 10
-28.62038730153159
 20
5.221560848296292
 30
0.0
 11
-27.20372063500662
 21
5.221560848296292
 31
0.0
  0
LINE
  5
2D5
330
2
100
AcDbEntity
  8
GAIKEI
  6
HIDDEN2
 62
     1
100
AcDbLine
 10
-28.20372063490657
 20
6.588227514826371
 30
0.0
 11
-26.20372063510655
 21
6.588227514826371
 31
0.0
  0
ARC
  5
2D6
330
2
100
AcDbEntity
  8
GAIKEI
  6
HIDDEN2
 62
     1
100
AcDbCircle
 10
-28.62038730153159
 20
5.33822751495137
 30
0.0
 40
0.3333333333
100
AcDbArc
 50
90.0
 51
270.0
  0
LINE
  5
2D7
330
2
100
AcDbEntity
  8
GAIKEI
  6
HIDDEN2
 62
     1
100
AcDbLine
 10
-29.12038730148157
 20
6.571560848161254
 30
0.0
 11
-29.12038730148157
 21
4.73822751501126
 31
0.0
  0
POINT
  5
2D8
330
2
100
AcDbEntity
  8
GAIKEI
  6
HIDDEN2
 62
     1
100
AcDbPoint
 10
-27.75372063495155
 20
7.829894181368842
 30
0.0
  0
LINE
  5
2D9
330
2
100
AcDbEntity
  8
GAIKEI
  6
HIDDEN2
 62
     1
100
AcDbLine
 10
-28.28705396823153
 20
8.138227514671314
 30
0.0
 11
-28.09659596825071
 21
8.138227514671314
 31
0.0
  0
LINE
  5
2DA
330
2
100
AcDbEntity
  8
GAIKEI
  6
HIDDEN2
 62
     1
100
AcDbLine
 10
-27.85342463494163
 20
7.945176848023947
 30
0.0
 11
-27.97053546826322
 21
8.080586181343733
 31
0.0
  0
POINT
  5
2DB
330
2
100
AcDbEntity
  8
GAIKEI
  6
HIDDEN2
 62
     1
100
AcDbPoint
 10
-28.0203873015916
 20
8.138227514671314
 30
0.0
  0
ARC
  5
2DC
330
2
100
AcDbEntity
  8
GAIKEI
  6
HIDDEN2
 62
     1
100
AcDbCircle
 10
-28.09659596825071
 20
7.971560848021283
 30
0.0
 40
0.16666666665
100
AcDbArc
 50
40.85537600000072
 51
90.0
  0
ARC
  5
2DD
330
2
100
AcDbEntity
  8
GAIKEI
  6
HIDDEN2
 62
     1
100
AcDbCircle
 10
-27.60130363496677
 20
8.16322751466879
 30
0.0
 40
0.3333333333
100
AcDbArc
 50
220.8553760000007
 51
270.0
  0
POINT
  5
2DE
330
2
100
AcDbEntity
  8
GAIKEI
  6
HIDDEN2
 62
     1
100
AcDbPoint
 10
-27.75372063495155
 20
7.346560848083811
 30
0.0
  0
LINE
  5
2DF
330
2
100
AcDbEntity
  8
GAIKEI
  6
HIDDEN2
 62
     1
100
AcDbLine
 10
-27.70038730162361
 20
5.894894181562278
 30
0.0
 11
-27.70038730162361
 21
5.994894181552297
 31
0.0
  0
LINE
  5
2E0
330
2
100
AcDbEntity
  8
GAIKEI
  6
HIDDEN2
 62
     1
100
AcDbLine
 10
-27.7037206349566
 20
5.921560848226363
 30
0.0
 11
-27.7037206349566
 21
5.994894181552297
 31
0.0
  0
LINE
  5
2E1
330
2
100
AcDbEntity
  8
GAIKEI
  6
HIDDEN2
 62
     1
100
AcDbLine
 10
-28.22038730157164
 20
6.588227514826371
 30
0.0
 11
-28.22038730157164
 21
6.721560848146339
 31
0.0
  0
LINE
  5
2E2
330
2
100
AcDbEntity
  8
GAIKEI
  6
HIDDEN2
 62
     1
100
AcDbLine
 10
-28.28705396823153
 20
6.721560848146339
 30
0.0
 11
-28.20372063490657
 21
6.721560848146339
 31
0.0
  0
LINE
  5
2E3
330
2
100
AcDbEntity
  8
GAIKEI
  6
HIDDEN2
 62
     1
100
AcDbLine
 10
-28.22038730157164
 20
6.588227514826371
 30
0.0
 11
-28.28705396823153
 21
6.588227514826371
 31
0.0
  0
ARC
  5
2E4
330
2
100
AcDbEntity
  8
GAIKEI
  6
HIDDEN2
 62
     1
100
AcDbCircle
 10
-28.20372063490657
 20
6.654894181486326
 30
0.0
 40
0.06666666666
100
AcDbArc
 50
0.0
 51
90.0
  0
LINE
  5
2E5
330
2
100
AcDbEntity
  8
GAIKEI
  6
HIDDEN2
 62
     1
100
AcDbLine
 10
-28.13705396824656
 20
6.654894181486326
 30
0.0
 11
-28.13705396824656
 21
6.588227514826371
 31
0.0
  0
LINE
  5
2E6
330
2
100
AcDbEntity
  8
GAIKEI
  6
HIDDEN2
 62
     1
100
AcDbLine
 10
-28.13705396824656
 20
6.654894181486326
 30
0.0
 11
-28.20372063490657
 21
6.654894181486326
 31
0.0
  0
LINE
  5
2E7
330
2
100
AcDbEntity
  8
GAIKEI
  6
HIDDEN2
 62
     1
100
AcDbLine
 10
-28.28705396823153
 20
7.03822751478134
 30
0.0
 11
-28.09659596825071
 21
7.03822751478134
 31
0.0
  0
LINE
  5
2E8
330
2
100
AcDbEntity
  8
GAIKEI
  6
HIDDEN2
 62
     1
100
AcDbLine
 10
-27.85342463494163
 20
7.231278181428706
 30
0.0
 11
-27.97053546826322
 21
7.095868848108864
 31
0.0
  0
POINT
  5
2E9
330
2
100
AcDbEntity
  8
GAIKEI
  6
HIDDEN2
 62
     1
100
AcDbPoint
 10
-28.0203873015916
 20
7.03822751478134
 30
0.0
  0
ARC
  5
2EA
330
2
100
AcDbEntity
  8
GAIKEI
  6
HIDDEN2
 62
     1
100
AcDbCircle
 10
-28.09659596825071
 20
7.204894181431313
 30
0.0
 40
0.16666666665
100
AcDbArc
 50
270.0
 51
319.1446239999992
  0
LINE
  5
2EB
330
2
100
AcDbEntity
  8
GAIKEI
  6
HIDDEN2
 62
     1
100
AcDbLine
 10
-27.87038730160651
 20
6.571560848161254
 30
0.0
 11
-27.87038730160651
 21
6.504894181501356
 31
0.0
  0
LINE
  5
2EC
330
2
100
AcDbEntity
  8
GAIKEI
  6
HIDDEN2
 62
     1
100
AcDbLine
 10
-28.20372063490657
 20
6.571560848161254
 30
0.0
 11
-28.20372063490657
 21
6.654894181486326
 31
0.0
  0
LINE
  5
2ED
330
2
100
AcDbEntity
  8
GAIKEI
  6
HIDDEN2
 62
     1
100
AcDbLine
 10
-27.87038730160651
 20
6.504894181501356
 30
0.0
 11
-29.12038730148157
 21
6.504894181501356
 31
0.0
  0
LINE
  5
2EE
330
2
100
AcDbEntity
  8
GAIKEI
  6
HIDDEN2
 62
     1
100
AcDbLine
 10
-28.20705396823968
 20
5.894894181562278
 30
0.0
 11
-28.20705396823968
 21
5.994894181552297
 31
0.0
  0
LINE
  5
2EF
330
2
100
AcDbEntity
  8
GAIKEI
  6
HIDDEN2
 62
     1
100
AcDbLine
 10
-28.20372063490657
 20
5.921560848226363
 30
0.0
 11
-28.20372063490657
 21
5.994894181552297
 31
0.0
  0
ARC
  5
2F0
330
2
100
AcDbEntity
  8
GAIKEI
  6
HIDDEN2
 62
     1
100
AcDbCircle
 10
-28.64538730152907
 20
6.004172514884714
 30
0.0
 40
0.3333333333
100
AcDbArc
 50
274.3012219999993
 51
0.0
  0
LINE
  5
2F1
330
2
100
AcDbEntity
  8
GAIKEI
  6
HIDDEN2
 62
     1
100
AcDbLine
 10
-28.31205396822901
 20
6.504894181501356
 30
0.0
 11
-28.31205396822901
 21
6.004172514884714
 31
0.0
  0
ARC
  5
2F2
330
2
100
AcDbEntity
  8
GAIKEI
  6
HIDDEN2
 62
     1
100
AcDbCircle
 10
-28.62038730153159
 20
5.33822751495137
 30
0.0
 40
0.116666666655
100
AcDbArc
 50
90.0
 51
270.0
  0
LINE
  5
2F3
330
2
100
AcDbEntity
  8
GAIKEI
  6
HIDDEN2
 62
     1
100
AcDbLine
 10
-28.20705396823968
 20
5.894894181562278
 30
0.0
 11
-27.70038730162361
 21
5.894894181562278
 31
0.0
  0
LINE
  5
2F4
330
2
100
AcDbEntity
  8
GAIKEI
  6
HIDDEN2
 62
     1
100
AcDbLine
 10
-28.20705396823968
 20
5.994894181552297
 30
0.0
 11
-27.70038730162361
 21
5.994894181552297
 31
0.0
  0
LINE
  5
2F5
330
2
100
AcDbEntity
  8
GAIKEI
  6
HIDDEN2
 62
     1
100
AcDbLine
 10
-27.7037206349566
 20
5.921560848226363
 30
0.0
 11
-28.20372063490657
 21
5.921560848226363
 31
0.0
  0
LINE
  5
2F6
330
2
100
AcDbEntity
  8
GAIKEI
  6
HIDDEN2
 62
     1
100
AcDbLine
 10
-27.7037206349566
 20
5.988227514886318
 30
0.0
 11
-28.20372063490657
 21
5.988227514886318
 31
0.0
  0
ARC
  5
2F7
330
2
100
AcDbEntity
  8
GAIKEI
  6
HIDDEN2
 62
     1
100
AcDbCircle
 10
-27.60130363496677
 20
7.013227514783807
 30
0.0
 40
0.3333333333
100
AcDbArc
 50
90.0
 51
139.1446239999993
  0
LINE
  5
2F8
330
2
100
AcDbEntity
  8
GAIKEI
  6
HIDDEN2
 62
     1
100
AcDbLine
 10
-28.22038730157164
 20
8.138227514671314
 30
0.0
 11
-28.22038730157164
 21
7.03822751478134
 31
0.0
  0
LINE
  5
2F9
330
2
100
AcDbEntity
  8
GAIKEI
  6
HIDDEN2
 62
     1
100
AcDbLine
 10
-26.63705396839663
 20
7.563227514728851
 30
0.0
 11
-26.63705396839663
 21
7.613227514723803
 31
0.0
  0
ARC
  5
2FA
330
2
100
AcDbEntity
  8
GAIKEI
  6
HIDDEN2
 62
     1
100
AcDbCircle
 10
-26.85372063504161
 20
7.613227514723803
 30
0.0
 40
0.216666666645
100
AcDbArc
 50
0.0
 51
90.0
  0
LINE
  5
2FB
330
2
100
AcDbEntity
  8
GAIKEI
  6
HIDDEN2
 62
     1
100
AcDbLine
 10
-27.17872063500915
 20
8.204894181331326
 30
0.0
 11
-27.2287206350041
 21
8.204894181331326
 31
0.0
  0
ARC
  5
2FC
330
2
100
AcDbEntity
  8
GAIKEI
  6
HIDDEN2
 62
     1
100
AcDbCircle
 10
-27.17872063500915
 20
8.421560847976365
 30
0.0
 40
0.216666666645
100
AcDbArc
 50
270.0
 51
0.0
  0
ARC
  5
2FD
330
2
100
AcDbEntity
  8
GAIKEI
  6
HIDDEN2
 62
     1
100
AcDbCircle
 10
-27.2287206350041
 20
8.421560847976365
 30
0.0
 40
0.216666666645
100
AcDbArc
 50
180.0
 51
270.0
  0
LINE
  5
2FE
330
2
100
AcDbEntity
  8
GAIKEI
  6
HIDDEN2
 62
     1
100
AcDbLine
 10
-26.1870539684416
 20
6.588227514826371
 30
0.0
 11
-26.1870539684416
 21
6.721560848146339
 31
0.0
  0
LINE
  5
2FF
330
2
100
AcDbEntity
  8
GAIKEI
  6
HIDDEN2
 62
     1
100
AcDbLine
 10
-26.12038730178159
 20
6.721560848146339
 30
0.0
 11
-26.20372063510655
 21
6.721560848146339
 31
0.0
  0
LINE
  5
300
330
2
100
AcDbEntity
  8
GAIKEI
  6
HIDDEN2
 62
     1
100
AcDbLine
 10
-26.1870539684416
 20
6.588227514826371
 30
0.0
 11
-26.12038730178159
 21
6.588227514826371
 31
0.0
  0
ARC
  5
301
330
2
100
AcDbEntity
  8
GAIKEI
  6
HIDDEN2
 62
     1
100
AcDbCircle
 10
-26.20372063510655
 20
6.654894181486326
 30
0.0
 40
0.06666666666
100
AcDbArc
 50
90.0
 51
180.0
  0
LINE
  5
302
330
2
100
AcDbEntity
  8
GAIKEI
  6
HIDDEN2
 62
     1
100
AcDbLine
 10
-26.27038730176656
 20
6.654894181486326
 30
0.0
 11
-26.27038730176656
 21
6.588227514826371
 31
0.0
  0
LINE
  5
303
330
2
100
AcDbEntity
  8
GAIKEI
  6
HIDDEN2
 62
     1
100
AcDbLine
 10
-26.27038730176656
 20
6.654894181486326
 30
0.0
 11
-26.20372063510655
 21
6.654894181486326
 31
0.0
  0
LINE
  5
304
330
2
100
AcDbEntity
  8
GAIKEI
  6
HIDDEN2
 62
     1
100
AcDbLine
 10
-26.20372063510655
 20
6.571560848161254
 30
0.0
 11
-26.20372063510655
 21
6.654894181486326
 31
0.0
  0
LINE
  5
305
330
2
100
AcDbEntity
  8
GAIKEI
  6
HIDDEN2
 62
     1
100
AcDbLine
 10
-26.20038730177367
 20
5.894894181562278
 30
0.0
 11
-26.20038730177367
 21
5.994894181552297
 31
0.0
  0
LINE
  5
306
330
2
100
AcDbEntity
  8
GAIKEI
  6
HIDDEN2
 62
     1
100
AcDbLine
 10
-26.20372063510655
 20
5.921560848226363
 30
0.0
 11
-26.20372063510655
 21
5.994894181552297
 31
0.0
  0
LINE
  5
307
330
2
100
AcDbEntity
  8
GAIKEI
  6
HIDDEN2
 62
     1
100
AcDbLine
 10
-26.09538730178412
 20
6.504894181501356
 30
0.0
 11
-26.09538730178412
 21
6.004894181551378
 31
0.0
  0
LINE
  5
308
330
2
100
AcDbEntity
  8
GAIKEI
  6
HIDDEN2
 62
     1
100
AcDbLine
 10
-26.5370539684065
 20
6.571560848161254
 30
0.0
 11
-26.5370539684065
 21
6.504894181501356
 31
0.0
  0
LINE
  5
309
330
2
100
AcDbEntity
  8
GAIKEI
  6
HIDDEN2
 62
     1
100
AcDbLine
 10
-26.70705396838963
 20
5.894894181562278
 30
0.0
 11
-26.70705396838963
 21
5.994894181552297
 31
0.0
  0
LINE
  5
30A
330
2
100
AcDbEntity
  8
GAIKEI
  6
HIDDEN2
 62
     1
100
AcDbLine
 10
-26.70372063505653
 20
5.921560848226363
 30
0.0
 11
-26.70372063505653
 21
5.994894181552297
 31
0.0
  0
LINE
  5
30B
330
2
100
AcDbEntity
  8
GAIKEI
  6
HIDDEN2
 62
     1
100
AcDbLine
 10
-26.20038730177367
 20
5.894894181562278
 30
0.0
 11
-26.70705396838963
 21
5.894894181562278
 31
0.0
  0
LINE
  5
30C
330
2
100
AcDbEntity
  8
GAIKEI
  6
HIDDEN2
 62
     1
100
AcDbLine
 10
-26.20038730177367
 20
5.994894181552297
 30
0.0
 11
-26.70705396838963
 21
5.994894181552297
 31
0.0
  0
LINE
  5
30D
330
2
100
AcDbEntity
  8
GAIKEI
  6
HIDDEN2
 62
     1
100
AcDbLine
 10
-26.20372063510655
 20
5.921560848226363
 30
0.0
 11
-26.70372063505653
 21
5.921560848226363
 31
0.0
  0
LINE
  5
30E
330
2
100
AcDbEntity
  8
GAIKEI
  6
HIDDEN2
 62
     1
100
AcDbLine
 10
-26.20372063510655
 20
5.988227514886318
 30
0.0
 11
-26.70372063505653
 21
5.988227514886318
 31
0.0
  0
ARC
  5
30F
330
2
100
AcDbEntity
  8
GAIKEI
  6
HIDDEN2
 62
     1
100
AcDbCircle
 10
-27.20372063500662
 20
5.33822751495137
 30
0.0
 40
0.116666666655
100
AcDbArc
 50
270.0
 51
90.0
  0
ARC
  5
310
330
2
100
AcDbEntity
  8
GAIKEI
  6
HIDDEN2
 62
     1
100
AcDbCircle
 10
-26.85372063504161
 20
7.563227514728851
 30
0.0
 40
0.216666666645
100
AcDbArc
 50
270.0
 51
0.0
  0
ARC
  5
311
330
2
100
AcDbEntity
  8
GAIKEI
  6
HIDDEN2
 62
     1
100
AcDbCircle
 10
-25.76205396848417
 20
6.004894181551378
 30
0.0
 40
0.3333333333
100
AcDbArc
 50
180.0
 51
270.0
  0
LINE
  5
312
330
2
100
AcDbEntity
  8
GAIKEI
  6
HIDDEN2
 62
     1
100
AcDbLine
 10
-16.87038730270655
 20
5.671560848251317
 30
0.0
 11
-25.76205396848417
 21
5.671560848251317
 31
0.0
  0
LINE
  5
313
330
2
100
AcDbEntity
  8
GAIKEI
  6
HIDDEN2
 62
     1
100
AcDbLine
 10
-3.287053970731619
 20
4.73822751501126
 30
0.0
 11
-29.12038730148157
 21
4.73822751501126
 31
0.0
  0
LINE
  5
314
330
2
100
AcDbEntity
  8
GAIKEI
  6
HIDDEN2
 62
     1
100
AcDbLine
 10
-3.287053970731619
 20
4.804894181671272
 30
0.0
 11
-29.12038730148157
 21
4.804894181671272
 31
0.0
  0
LINE
  5
315
330
2
100
AcDbEntity
  8
GAIKEI
  6
HIDDEN2
 62
     1
100
AcDbLine
 10
-3.787053970681597
 20
5.004894181651366
 30
0.0
 11
-28.62038730153159
 21
5.004894181651366
 31
0.0
  0
LINE
  5
316
330
2
100
AcDbEntity
  8
GAIKEI
  6
HIDDEN2
 62
     1
100
AcDbLine
 10
-5.87038730380658
 20
6.504894181501356
 30
0.0
 11
-26.5370539684065
 21
6.504894181501356
 31
0.0
  0
LINE
  5
317
330
2
100
AcDbEntity
  8
GAIKEI
  6
HIDDEN2
 62
     1
100
AcDbLine
 10
-29.12038730148157
 20
6.571560848161254
 30
0.0
 11
-3.287053970731619
 21
6.571560848161254
 31
0.0
  0
LINE
  5
318
330
2
100
AcDbEntity
  8
GAIKEI
  6
HIDDEN2
 62
     1
100
AcDbLine
 10
-24.53705396860659
 20
5.454894181606334
 30
0.0
 11
-21.20372063560655
 21
5.454894181606334
 31
0.0
  0
LINE
  5
319
330
2
100
AcDbEntity
  8
GAIKEI
  6
HIDDEN2
 62
     1
100
AcDbLine
 10
-24.53705396860659
 20
5.221560848296292
 30
0.0
 11
-21.20372063560655
 21
5.221560848296292
 31
0.0
  0
LINE
  5
31A
330
2
100
AcDbEntity
  8
GAIKEI
  6
HIDDEN2
 62
     1
100
AcDbLine
 10
-4.120387303981544
 20
20.08822751347634
 30
0.0
 11
-4.120387303981544
 21
6.588227514826371
 31
0.0
  0
LINE
  5
31B
330
2
100
AcDbEntity
  8
GAIKEI
  6
HIDDEN2
 62
     1
100
AcDbLine
 10
-6.2870539704316
 20
20.08822751347634
 30
0.0
 11
-6.2870539704316
 21
6.588227514826371
 31
0.0
  0
LINE
  5
31C
330
2
100
AcDbEntity
  8
GAIKEI
  6
HIDDEN2
 62
     1
100
AcDbLine
 10
-26.12038730178159
 20
20.08822751347634
 30
0.0
 11
-26.12038730178159
 21
6.588227514826371
 31
0.0
  0
LINE
  5
31D
330
2
100
AcDbEntity
  8
GAIKEI
  6
HIDDEN2
 62
     1
100
AcDbLine
 10
-28.28705396823153
 20
20.08822751347634
 30
0.0
 11
-28.28705396823153
 21
6.588227514826371
 31
0.0
  0
LINE
  5
31E
330
2
100
AcDbEntity
  8
GAIKEI
  6
HIDDEN2
 62
     1
100
AcDbLine
 10
-26.96205396836405
 20
8.421560847976365
 30
0.0
 11
-26.96205396836405
 21
8.565933347961902
 31
0.0
  0
LINE
  5
31F
330
2
100
AcDbEntity
  8
GAIKEI
  6
HIDDEN2
 62
     1
100
AcDbLine
 10
-27.44538730164908
 20
8.421560847976365
 30
0.0
 11
-27.44538730164908
 21
8.565933347961902
 31
0.0
  0
LINE
  5
320
330
2
100
AcDbEntity
  8
GAIKEI
  6
HIDDEN2
 62
     1
100
AcDbLine
 10
-4.962053970564113
 20
8.421560847976365
 30
0.0
 11
-4.962053970564113
 21
8.565933347961902
 31
0.0
  0
LINE
  5
321
330
2
100
AcDbEntity
  8
GAIKEI
  6
HIDDEN2
 62
     1
100
AcDbLine
 10
-5.445387303849145
 20
8.421560847976365
 30
0.0
 11
-5.445387303849145
 21
8.565933347961902
 31
0.0
  0
DIMENSION
  5
322
330
2
100
AcDbEntity
  8
SUNPO
100
AcDbDimension
  2
*D8
 10
-44.38387597569828
 20
21.9382275132914
 30
0.0
 11
-46.13387597569829
 21
13.33822751415135
 31
0.0
 70
    33
  1
516
 71
     5
 42
17.19999999828007
  3
STANDARD
100
AcDbAlignedDimension
 13
-36.38387597569829
 23
4.738227515011317
 33
0.0
 14
-36.38387597569829
 24
21.9382275132914
 34
0.0
1001
ACAD
1000
DSTYLE
1002
{
1070
   287
1070
     3
1070
   287
1070
     3
1070
   287
1070
     3
1070
   287
1070
     3
1070
   287
1070
     3
1070
   287
1070
     3
1070
   287
1070
     3
1070
   287
1070
     3
1070
   287
1070
     3
1070
   287
1070
     3
1070
   287
1070
     3
1070
    40
1040
1.0
1070
   140
1040
2.5
1070
   147
1040
0.5
1070
   172
1070
     1
1070
   279
1070
     0
1070
   288
1070
     0
1002
}
  0
DIMENSION
  5
330
330
2
100
AcDbEntity
  8
SUNPO
100
AcDbDimension
  2
*D7
 10
-3.287053970731563
 20
-6.715347762800092
 30
0.0
 11
-16.20372063610654
 21
-4.965347762800092
 31
0.0
 70
    33
  1
775
 71
     5
 42
25.83333333074995
  3
STANDARD
100
AcDbAlignedDimension
 13
-29.12038730148152
 23
1.284652237199907
 33
0.0
 14
-3.287053970731562
 24
1.284652237199907
 34
0.0
1001
ACAD
1000
DSTYLE
1002
{
1070
   287
1070
     3
1070
   287
1070
     3
1070
   287
1070
     3
1070
   287
1070
     3
1070
   287
1070
     3
1070
   287
1070
     3
1070
   287
1070
     3
1070
   287
1070
     3
1070
   287
1070
     3
1070
   287
1070
     3
1070
   287
1070
     3
1070
    40
1040
1.0
1070
   140
1040
2.5
1070
   147
1040
0.5
1070
   172
1070
     1
1070
   279
1070
     0
1070
   288
1070
     0
1002
}
  0
LINE
  5
33D
330
2
100
AcDbEntity
  8
GAIKEI
  6
Continuous
 62
     1
100
AcDbLine
 10
32.61152482686259
 20
21.87156084653048
 30
0.0
 11
32.61152482686259
 21
20.17156084670109
 31
0.0
  0
LINE
  5
33E
330
2
100
AcDbEntity
  8
GAIKEI
  6
Continuous
 62
     1
100
AcDbLine
 10
32.34485816022266
 20
21.93822751319044
 30
0.0
 11
32.61152482686259
 21
21.93822751319044
 31
0.0
  0
LINE
  5
33F
330
2
100
AcDbEntity
  8
GAIKEI
  6
Continuous
 62
     1
100
AcDbLine
 10
32.34485816022266
 20
21.87156084653048
 30
0.0
 11
32.61152482686259
 21
21.87156084653048
 31
0.0
  0
LINE
  5
340
330
2
100
AcDbEntity
  8
GAIKEI
  6
Continuous
 62
     1
100
AcDbLine
 10
32.34485816022266
 20
20.17156084670109
 30
0.0
 11
32.61152482686259
 21
20.17156084670109
 31
0.0
  0
LINE
  5
341
330
2
100
AcDbEntity
  8
GAIKEI
  6
Continuous
 62
     1
100
AcDbLine
 10
32.34485816022266
 20
21.87156084653048
 30
0.0
 11
32.34485816022266
 21
21.93822751319044
 31
0.0
  0
LINE
  5
342
330
2
100
AcDbEntity
  8
GAIKEI
  6
Continuous
 62
     1
100
AcDbLine
 10
32.34485816022266
 20
20.17156084670109
 30
0.0
 11
32.34485816022266
 21
20.10489418004107
 31
0.0
  0
ARC
  5
343
330
2
100
AcDbEntity
  8
GAIKEI
  6
Continuous
 62
     1
100
AcDbCircle
 10
32.61152482686259
 20
21.87156084653048
 30
0.0
 40
0.0666666666599773
100
AcDbArc
 50
0.0
 51
90.0
  0
ARC
  5
344
330
2
100
AcDbEntity
  8
GAIKEI
  6
Continuous
 62
     1
100
AcDbCircle
 10
32.61152482686259
 20
20.17156084670109
 30
0.0
 40
0.0666666666599773
100
AcDbArc
 50
270.0
 51
0.0
  0
ARC
  5
345
330
2
100
AcDbEntity
  8
GAIKEI
  6
Continuous
 62
     1
100
AcDbCircle
 10
32.61152482686259
 20
21.57156084656055
 30
0.0
 40
0.0666666666599773
100
AcDbArc
 50
138.1896849999924
 51
180.0
  0
LINE
  5
346
330
2
100
AcDbEntity
  8
GAIKEI
  6
Continuous
 62
     1
100
AcDbLine
 10
32.61152482686259
 20
21.67156084655056
 30
0.0
 11
32.56183449353421
 21
21.61600534655617
 31
0.0
  0
ARC
  5
347
330
2
100
AcDbEntity
  8
GAIKEI
  6
Continuous
 62
     1
100
AcDbCircle
 10
32.61152482686259
 20
21.10489417994074
 30
0.0
 40
0.0666666666599773
100
AcDbArc
 50
180.0
 51
221.8103150000076
  0
LINE
  5
348
330
2
100
AcDbEntity
  8
GAIKEI
  6
Continuous
 62
     1
100
AcDbLine
 10
32.61152482686259
 20
21.00489417995078
 30
0.0
 11
32.56183449353421
 21
21.06044984661185
 31
0.0
  0
LINE
  5
349
330
2
100
AcDbEntity
  8
GAIKEI
  6
Continuous
 62
     1
100
AcDbLine
 10
32.54485816020258
 20
21.87156084653048
 30
0.0
 11
32.54485816020258
 21
20.17156084670109
 31
0.0
  0
LINE
  5
34A
330
2
100
AcDbEntity
  8
GAIKEI
  6
Continuous
 62
     1
100
AcDbLine
 10
32.67819149352261
 20
4.804894181576287
 30
0.0
 11
32.67819149352261
 21
6.588227514730704
 31
0.0
  0
LINE
  5
34B
330
2
100
AcDbEntity
  8
GAIKEI
  6
Continuous
 62
     1
100
AcDbLine
 10
32.61152482686259
 20
4.804894181576287
 30
0.0
 11
32.61152482686259
 21
6.504894181405688
 31
0.0
  0
LINE
  5
34C
330
2
100
AcDbEntity
  8
GAIKEI
  6
Continuous
 62
     1
100
AcDbLine
 10
32.34485816022266
 20
4.738227514916331
 30
0.0
 11
32.61152482686259
 21
4.738227514916331
 31
0.0
  0
LINE
  5
34D
330
2
100
AcDbEntity
  8
GAIKEI
  6
Continuous
 62
     1
100
AcDbLine
 10
32.34485816022266
 20
4.804894181576287
 30
0.0
 11
32.61152482686259
 21
4.804894181576287
 31
0.0
  0
LINE
  5
34E
330
2
100
AcDbEntity
  8
GAIKEI
  6
Continuous
 62
     1
100
AcDbLine
 10
32.34485816022266
 20
6.504894181405688
 30
0.0
 11
32.61152482686259
 21
6.504894181405688
 31
0.0
  0
LINE
  5
34F
330
2
100
AcDbEntity
  8
GAIKEI
  6
Continuous
 62
     1
100
AcDbLine
 10
32.34485816022266
 20
4.804894181576287
 30
0.0
 11
32.34485816022266
 21
4.738227514916331
 31
0.0
  0
LINE
  5
350
330
2
100
AcDbEntity
  8
GAIKEI
  6
Continuous
 62
     1
100
AcDbLine
 10
32.34485816022266
 20
6.504894181405688
 30
0.0
 11
32.34485816022266
 21
6.571560848065701
 31
0.0
  0
ARC
  5
351
330
2
100
AcDbEntity
  8
GAIKEI
  6
Continuous
 62
     1
100
AcDbCircle
 10
32.61152482686259
 20
4.804894181576287
 30
0.0
 40
0.0666666666599773
100
AcDbArc
 50
270.0
 51
0.0
  0
ARC
  5
352
330
2
100
AcDbEntity
  8
GAIKEI
  6
Continuous
 62
     1
100
AcDbCircle
 10
32.61152482686259
 20
6.504894181405688
 30
0.0
 40
0.0666666666599773
100
AcDbArc
 50
0.0
 51
90.0
  0
ARC
  5
353
330
2
100
AcDbEntity
  8
GAIKEI
  6
Continuous
 62
     1
100
AcDbCircle
 10
32.61152482686259
 20
5.104894181546228
 30
0.0
 40
0.0666666666599773
100
AcDbArc
 50
180.0
 51
221.8103150000076
  0
LINE
  5
354
330
2
100
AcDbEntity
  8
GAIKEI
  6
Continuous
 62
     1
100
AcDbLine
 10
32.61152482686259
 20
5.00489418155621
 30
0.0
 11
32.56183449353421
 21
5.060449848217331
 31
0.0
  0
ARC
  5
355
330
2
100
AcDbEntity
  8
GAIKEI
  6
Continuous
 62
     1
100
AcDbCircle
 10
32.61152482686259
 20
5.571560848166029
 30
0.0
 40
0.0666666666599773
100
AcDbArc
 50
138.1896849999924
 51
180.0
  0
LINE
  5
356
330
2
100
AcDbEntity
  8
GAIKEI
  6
Continuous
 62
     1
100
AcDbLine
 10
32.61152482686259
 20
5.671560848155991
 30
0.0
 11
32.56183449353421
 21
5.61600534816165
 31
0.0
  0
LINE
  5
357
330
2
100
AcDbEntity
  8
GAIKEI
  6
Continuous
 62
     1
100
AcDbLine
 10
32.54485816020258
 20
4.804894181576287
 30
0.0
 11
32.54485816020258
 21
6.504894181405688
 31
0.0
  0
LINE
  5
358
330
2
100
AcDbEntity
  8
GAIKEI
  6
Continuous
 62
     1
100
AcDbLine
 10
32.67819149352261
 20
21.87156084653048
 30
0.0
 11
32.67819149352261
 21
20.08822751337607
 31
0.0
  0
LINE
  5
359
330
2
100
AcDbEntity
  8
GAIKEI
  6
Continuous
 62
     1
100
AcDbLine
 10
32.01152482692271
 20
20.02156084671611
 30
0.0
 11
32.01152482692271
 21
6.654894181390659
 31
0.0
  0
LINE
  5
35A
330
2
100
AcDbEntity
  8
GAIKEI
  6
Continuous
 62
     1
100
AcDbLine
 10
32.07819149358272
 20
6.588227514730704
 30
0.0
 11
32.59485816019753
 21
6.588227514730704
 31
0.0
  0
LINE
  5
35B
330
2
100
AcDbEntity
  8
GAIKEI
  6
Continuous
 62
     1
100
AcDbLine
 10
32.07819149358272
 20
20.08822751337607
 30
0.0
 11
32.59485816019753
 21
20.08822751337607
 31
0.0
  0
LINE
  5
35C
330
2
100
AcDbEntity
  8
GAIKEI
  6
Continuous
 62
     1
100
AcDbLine
 10
32.07819149358272
 20
20.02156084671611
 30
0.0
 11
32.07819149358272
 21
19.9548941800561
 31
0.0
  0
ARC
  5
35D
330
2
100
AcDbEntity
  8
GAIKEI
  6
Continuous
 62
     1
100
AcDbCircle
 10
32.07819149358272
 20
6.654894181390659
 30
0.0
 40
0.0666666666599773
100
AcDbArc
 50
180.0
 51
270.0
  0
ARC
  5
35E
330
2
100
AcDbEntity
  8
GAIKEI
  6
Continuous
 62
     1
100
AcDbCircle
 10
32.07819149358272
 20
20.02156084671611
 30
0.0
 40
0.0666666666599773
100
AcDbArc
 50
90.0
 51
180.0
  0
CIRCLE
  5
35F
330
2
100
AcDbEntity
  8
GAIKEI
  6
Continuous
 62
     1
100
AcDbCircle
 10
32.27819149356264
 20
8.904894181164877
 30
0.0
 40
0.0683333333264767
  0
CIRCLE
  5
360
330
2
100
AcDbEntity
  8
GAIKEI
  6
Continuous
 62
     1
100
AcDbCircle
 10
32.27819149356264
 20
8.904894181164877
 30
0.0
 40
0.0833333333249716
  0
LINE
  5
361
330
2
100
AcDbEntity
  8
GAIKEI
  6
Continuous
 62
     1
100
AcDbLine
 10
32.01152482692271
 20
19.9548941800561
 30
0.0
 11
32.07819149358272
 21
19.9548941800561
 31
0.0
  0
LINE
  5
362
330
2
100
AcDbEntity
  8
GAIKEI
  6
Continuous
 62
     1
100
AcDbLine
 10
32.07819149358272
 20
20.02156084671611
 30
0.0
 11
32.14485816024274
 21
20.02156084671611
 31
0.0
  0
LINE
  5
363
330
2
100
AcDbEntity
  8
GAIKEI
  6
Continuous
 62
     1
100
AcDbLine
 10
32.01152482692271
 20
6.721560848050614
 30
0.0
 11
32.07819149358272
 21
6.721560848050614
 31
0.0
  0
LINE
  5
364
330
2
100
AcDbEntity
  8
GAIKEI
  6
Continuous
 62
     1
100
AcDbLine
 10
32.07819149358272
 20
6.721560848050614
 30
0.0
 11
32.07819149358272
 21
6.656180014723872
 31
0.0
  0
LINE
  5
365
330
2
100
AcDbEntity
  8
GAIKEI
  6
Continuous
 62
     1
100
AcDbLine
 10
32.07819149358272
 20
6.654894181390659
 30
0.0
 11
32.14485816024274
 21
6.654894181390659
 31
0.0
  0
ARC
  5
366
330
2
100
AcDbEntity
  8
GAIKEI
  6
Continuous
 62
     1
100
AcDbCircle
 10
32.07819149358272
 20
20.02156084671611
 30
0.0
 40
0.0666666666599773
100
AcDbArc
 50
270.0
 51
0.0
  0
ARC
  5
367
330
2
100
AcDbEntity
  8
GAIKEI
  6
Continuous
 62
     1
100
AcDbCircle
 10
32.21152482690263
 20
20.02156084671611
 30
0.0
 40
0.0666666666599773
100
AcDbArc
 50
90.0
 51
180.0
  0
ARC
  5
368
330
2
100
AcDbEntity
  8
GAIKEI
  6
Continuous
 62
     1
100
AcDbCircle
 10
32.07819149358272
 20
6.654894181390659
 30
0.0
 40
0.0666666666599773
100
AcDbArc
 50
0.0
 51
90.0
  0
ARC
  5
369
330
2
100
AcDbEntity
  8
GAIKEI
  6
Continuous
 62
     1
100
AcDbCircle
 10
32.21152482690263
 20
6.654894181390659
 30
0.0
 40
0.0666666666599773
100
AcDbArc
 50
180.0
 51
270.0
  0
ARC
  5
36A
330
2
100
AcDbEntity
  8
GAIKEI
  6
Continuous
 62
     1
100
AcDbCircle
 10
32.59485816019753
 20
20.02156084671611
 30
0.0
 40
0.0666666666599773
100
AcDbArc
 50
0.0
 51
90.0
  0
ARC
  5
36B
330
2
100
AcDbEntity
  8
GAIKEI
  6
Continuous
 62
     1
100
AcDbCircle
 10
32.61152482686259
 20
20.08822751337607
 30
0.0
 40
0.0666666666599773
100
AcDbArc
 50
314.9403499999839
 51
0.0
  0
LINE
  5
36C
330
2
100
AcDbEntity
  8
GAIKEI
  6
Continuous
 62
     1
100
AcDbLine
 10
32.66152482685754
 20
20.02156084671611
 30
0.0
 11
32.66152482685754
 21
6.654894181390659
 31
0.0
  0
LINE
  5
36D
330
2
100
AcDbEntity
  8
GAIKEI
  6
Continuous
 62
     1
100
AcDbLine
 10
32.61152482686259
 20
20.10489418004107
 30
0.0
 11
32.61152482686259
 21
20.08822751337607
 31
0.0
  0
LINE
  5
36E
330
2
100
AcDbEntity
  8
GAIKEI
  6
Continuous
 62
     1
100
AcDbLine
 10
32.54485816020258
 20
20.75489417997585
 30
0.0
 11
32.44485816021256
 21
20.75489417997585
 31
0.0
  0
LINE
  5
36F
330
2
100
AcDbEntity
  8
GAIKEI
  6
Continuous
 62
     1
100
AcDbLine
 10
32.54485816020258
 20
20.68822751331589
 30
0.0
 11
32.44485816021256
 21
20.68822751331589
 31
0.0
  0
LINE
  5
370
330
2
100
AcDbEntity
  8
GAIKEI
  6
Continuous
 62
     1
100
AcDbLine
 10
32.44485816021256
 20
20.68822751331589
 30
0.0
 11
32.44485816021256
 21
20.75489417997585
 31
0.0
  0
ARC
  5
371
330
2
100
AcDbEntity
  8
GAIKEI
  6
Continuous
 62
     1
100
AcDbCircle
 10
32.59485816019753
 20
6.654894181390659
 30
0.0
 40
0.0666666666599773
100
AcDbArc
 50
270.0
 51
0.0
  0
ARC
  5
372
330
2
100
AcDbEntity
  8
GAIKEI
  6
Continuous
 62
     1
100
AcDbCircle
 10
32.61152482686259
 20
6.588227514730704
 30
0.0
 40
0.0666666666599773
100
AcDbArc
 50
0.0
 51
45.05965000001608
  0
LINE
  5
373
330
2
100
AcDbEntity
  8
GAIKEI
  6
Continuous
 62
     1
100
AcDbLine
 10
32.61152482686259
 20
6.571560848065701
 30
0.0
 11
32.61152482686259
 21
6.588227514730704
 31
0.0
  0
LINE
  5
374
330
2
100
AcDbEntity
  8
GAIKEI
  6
Continuous
 62
     1
100
AcDbLine
 10
32.54485816020258
 20
5.921560848130923
 30
0.0
 11
32.44485816021256
 21
5.921560848130923
 31
0.0
  0
LINE
  5
375
330
2
100
AcDbEntity
  8
GAIKEI
  6
Continuous
 62
     1
100
AcDbLine
 10
32.54485816020258
 20
5.988227514790878
 30
0.0
 11
32.44485816021256
 21
5.988227514790878
 31
0.0
  0
LINE
  5
376
330
2
100
AcDbEntity
  8
GAIKEI
  6
Continuous
 62
     1
100
AcDbLine
 10
32.44485816021256
 20
5.988227514790878
 30
0.0
 11
32.44485816021256
 21
5.921560848130923
 31
0.0
  0
LINE
  5
377
330
2
100
AcDbEntity
  8
GAIKEI
  6
Continuous
 62
     1
100
AcDbLine
 10
32.34485816022266
 20
20.10489418004107
 30
0.0
 11
32.61152482686259
 21
20.10489418004107
 31
0.0
  0
LINE
  5
378
330
2
100
AcDbEntity
  8
GAIKEI
  6
Continuous
 62
     1
100
AcDbLine
 10
32.34485816022266
 20
6.571560848065701
 30
0.0
 11
32.61152482686259
 21
6.571560848065701
 31
0.0
  0
POINT
  5
379
330
2
100
AcDbEntity
  8
GAIKEI
  6
Continuous
 62
     1
100
AcDbPoint
 10
32.67819149352261
 20
13.33822751405336
 30
0.0
  0
TEXT
  5
37A
330
2
100
AcDbEntity
  8
TOUROKU
100
AcDbText
 10
10.54008920223818
 20
43.0326155268317
 30
0.0
 40
2.0
  1
ＴＨ５０ＰＨ１１ＫＲ＋ＴＹＷＫ４２ＰＶ７
 72
     2
 11
57.74008920223815
 21
43.0326155268317
 31
0.0
100
AcDbText
  0
TEXT
  5
37C
330
2
100
AcDbEntity
  8
MOJI1
100
AcDbText
 10
-40.2598608306896
 20
49.03261552683182
 30
0.0
 40
4.0
  1
ハイビジョンプラズマディスプレイ壁掛け金具付
 41
0.93
100
AcDbText
  0
DIMENSION
  5
37E
330
2
100
AcDbEntity
  8
SUNPO
100
AcDbDimension
  2
*D6
 10
3.962944926025216
 20
33.4158562595444
 30
0.0
 11
-16.20372063610654
 21
35.1658562595444
 31
0.0
 70
    33
  1
1210
 71
     5
 42
40.3333311242635
  3
STANDARD
100
AcDbAlignedDimension
 13
-36.3703861982383
 23
25.4158562595444
 33
0.0
 14
3.962944926025215
 24
25.4158562595444
 34
0.0
1001
ACAD
1000
DSTYLE
1002
{
1070
    40
1040
1.0
1070
   140
1040
2.5
1070
   147
1040
0.5
1070
   172
1070
     1
1070
   279
1070
     0
1070
   288
1070
     0
1002
}
  0
DIMENSION
  5
38B
330
2
100
AcDbEntity
  8
SUNPO
100
AcDbDimension
  2
*D5
 10
12.01222994765791
 20
25.40489004822973
 30
0.0
 11
10.26222994765791
 21
13.33822737525008
 31
0.0
 70
    33
  1
724
 71
     5
 42
24.13332534595929
  3
STANDARD
100
AcDbAlignedDimension
 13
4.012229947657914
 23
1.271564702270438
 33
0.0
 14
4.012229947657914
 24
25.40489004822973
 34
0.0
1001
ACAD
1000
DSTYLE
1002
{
1070
    40
1040
1.0
1070
   140
1040
2.5
1070
   147
1040
0.5
1070
   172
1070
     1
1070
   279
1070
     0
1070
   288
1070
     0
1002
}
  0
TEXT
  5
398
330
2
100
AcDbEntity
  8
TOUROKU
100
AcDbText
 10
35.79369385417192
 20
0.9451410470700238
 30
0.0
 40
1.5
  1
Ｓ＝１／３０
 41
0.7
 72
     2
 11
42.86369385417191
 21
0.9451410470700238
 31
0.0
100
AcDbText
  0
LINE
  5
399
330
2
100
AcDbEntity
  8
WAKU
 62
     1
100
AcDbLine
 10
-67.25986083068926
 20
-44.96738447316807
 30
0.0
 11
57.74013916931051
 21
-44.96738447316807
 31
0.0
  0
LINE
  5
39B
330
2
100
AcDbEntity
  8
WAKU
 62
     1
100
AcDbLine
 10
-67.25986083068926
 20
-39.96738447316807
 30
0.0
 11
57.74013916931051
 21
-39.96738447316807
 31
0.0
  0
LINE
  5
39C
330
2
100
AcDbEntity
  8
WAKU
 62
     4
100
AcDbLine
 10
57.74013916931051
 20
-14.96738447316807
 30
0.0
 11
57.74013916931051
 21
-59.96738447316807
 31
0.0
  0
TEXT
  5
39D
330
2
100
AcDbEntity
  8
MOJI1
100
AcDbText
 10
-25.75986083068926
 20
-23.96738447316807
 30
0.0
 40
3.0
  1
４４０Ｗ
100
AcDbText
  0
TEXT
  5
39E
330
2
100
AcDbEntity
  8
MOJI1
100
AcDbText
 10
-25.75986083068926
 20
-58.96738447316806
 30
0.0
 40
3.0
  1
シリアル、音声
100
AcDbText
  0
LINE
  5
39F
330
2
100
AcDbEntity
  8
WAKU
 62
     4
100
AcDbLine
 10
-27.25986083068949
 20
-14.96738447316807
 30
0.0
 11
-27.25986083068949
 21
-59.96738447316807
 31
0.0
  0
TEXT
  5
3A0
330
2
100
AcDbEntity
  8
MOJI1
100
AcDbText
 10
-25.75986083068926
 20
-48.96738447316806
 30
0.0
 40
3.0
  1
１６Ｗ（８Ｗ＋８Ｗ）
100
AcDbText
  0
TEXT
  5
3A1
330
2
100
AcDbEntity
  8
MOJI1
100
AcDbText
 10
-25.75986083068926
 20
-28.96738447316807
 30
0.0
 40
3.0
  1
５０Ｖ型（１６：９）
100
AcDbText
  0
LINE
  5
3A2
330
2
100
AcDbEntity
  8
WAKU
 62
     4
100
AcDbLine
 10
-67.25986083068949
 20
-14.96738447316807
 30
0.0
 11
-67.25986083068926
 21
-59.96738447316807
 31
0.0
  0
TEXT
  5
3A3
330
2
100
AcDbEntity
  8
MOJI1
100
AcDbText
 10
-64.75986083068926
 20
-33.96738447316807
 30
0.0
 40
3.0
  1
画素数
100
AcDbText
  0
TEXT
  5
3A4
330
2
100
AcDbEntity
  8
MOJI1
100
AcDbText
 10
-64.75986083068926
 20
-18.96738447316806
 30
0.0
 40
3.0
  1
電  源
100
AcDbText
  0
TEXT
  5
3A5
330
2
100
AcDbEntity
  8
MOJI1
100
AcDbText
 10
-64.75986083068926
 20
-23.96738447316807
 30
0.0
 40
3.0
  1
消費電力
100
AcDbText
  0
TEXT
  5
3A6
330
2
100
AcDbEntity
  8
MOJI1
100
AcDbText
 10
-64.75986083068926
 20
-53.96738447316806
 30
0.0
 40
3.0
  1
接続端子
100
AcDbText
  0
TEXT
  5
3A7
330
2
100
AcDbEntity
  8
MOJI1
100
AcDbText
 10
-64.75986083068926
 20
-48.96738447316806
 30
0.0
 40
3.0
  1
音声最大出力
100
AcDbText
  0
TEXT
  5
3A8
330
2
100
AcDbEntity
  8
MOJI1
100
AcDbText
 10
-64.75986083068926
 20
-28.96738447316807
 30
0.0
 40
3.0
  1
画面サイズ
100
AcDbText
  0
TEXT
  5
3A9
330
2
100
AcDbEntity
  8
MOJI1
100
AcDbText
 10
-25.75986083068926
 20
-18.96738447316806
 30
0.0
 40
3.0
  1
ＡＣ１００Ｖ　５０Ｈｚ／６０Ｈｚ
100
AcDbText
  0
TEXT
  5
3AA
330
2
100
AcDbEntity
  8
MOJI1
100
AcDbText
 10
-25.75986083068926
 20
-53.96738447316806
 30
0.0
 40
3.0
  1
ビデオ／Ｓビデオ／ＰＣ／外部スピーカ
100
AcDbText
  0
TEXT
  5
3AB
330
2
100
AcDbEntity
  8
MOJI1
100
AcDbText
 10
-25.75986083068926
 20
-33.96738447316807
 30
0.0
 40
3.0
  1
１０４９０８８画素（水平１３６６×垂直７６８）
100
AcDbText
  0
LINE
  5
3AC
330
2
100
AcDbEntity
  8
WAKU
 62
     4
100
AcDbLine
 10
57.74013916931051
 20
-59.96738447316807
 30
0.0
 11
-67.25986083068926
 21
-59.96738447316807
 31
0.0
  0
LINE
  5
3AD
330
2
100
AcDbEntity
  8
WAKU
 62
     1
100
AcDbLine
 10
-67.25986083068926
 20
-54.96738447316807
 30
0.0
 11
57.74013916931051
 21
-54.96738447316807
 31
0.0
  0
LINE
  5
3AE
330
2
100
AcDbEntity
  8
WAKU
 62
     1
100
AcDbLine
 10
-67.25986083068926
 20
-49.96738447316807
 30
0.0
 11
57.74013916931051
 21
-49.96738447316807
 31
0.0
  0
LINE
  5
3AF
330
2
100
AcDbEntity
  8
WAKU
 62
     1
100
AcDbLine
 10
-67.25986083068926
 20
-29.96738447316807
 30
0.0
 11
57.74013916931051
 21
-29.96738447316807
 31
0.0
  0
LINE
  5
3B0
330
2
100
AcDbEntity
  8
WAKU
 62
     1
100
AcDbLine
 10
-67.25986083068926
 20
-19.96738447316807
 30
0.0
 11
57.74013916931051
 21
-19.96738447316807
 31
0.0
  0
LINE
  5
3B1
330
2
100
AcDbEntity
  8
WAKU
 62
     4
100
AcDbLine
 10
-67.25986083068926
 20
-14.96738447316807
 30
0.0
 11
57.74013916931051
 21
-14.96738447316807
 31
0.0
  0
LINE
  5
3B2
330
2
100
AcDbEntity
  8
WAKU
 62
     1
100
AcDbLine
 10
-67.25986083068926
 20
-34.96738447316807
 30
0.0
 11
57.74013916931051
 21
-34.96738447316807
 31
0.0
  0
LINE
  5
3B3
330
2
100
AcDbEntity
  8
WAKU
 62
     1
100
AcDbLine
 10
-67.25986083068926
 20
-24.96738447316807
 30
0.0
 11
57.74013916931051
 21
-24.96738447316807
 31
0.0
  0
TEXT
  5
3B4
330
2
100
AcDbEntity
  8
MOJI1
100
AcDbText
 10
-64.75986083068926
 20
-38.96738447316807
 30
0.0
 40
3.0
  1
コントラスト
100
AcDbText
  0
TEXT
  5
3B5
330
2
100
AcDbEntity
  8
MOJI1
100
AcDbText
 10
-64.75986083068926
 20
-43.96738447316806
 30
0.0
 40
3.0
  1
階調数
100
AcDbText
  0
TEXT
  5
3B6
330
2
100
AcDbEntity
  8
MOJI1
100
AcDbText
 10
-25.75986083068926
 20
-38.96738447316807
 30
0.0
 40
3.0
  1
１５０００：１
100
AcDbText
  0
TEXT
  5
3B7
330
2
100
AcDbEntity
  8
MOJI1
100
AcDbText
 10
-25.75986083068926
 20
-43.96738447316806
 30
0.0
 40
3.0
  1
４０９６階調（相当）
100
AcDbText
  0
ENDSEC
  0
SECTION
  2
OBJECTS
  0
DICTIONARY
  5
9
330
0
100
AcDbDictionary
281
     1
  3
ACAD_COLOR
350
2E
  3
ACAD_GROUP
350
2A
  3
ACAD_LAYOUT
350
D
  3
ACAD_MATERIAL
350
2D
  3
ACAD_MLINESTYLE
350
2B
  3
ACAD_PLOTSETTINGS
350
2C
  3
ACAD_PLOTSTYLENAME
350
8
  3
ACDBHEADERROUNDTRIPXREC
350
404
  3
AcDbVariableDictionary
350
3FF
  3
ASE_INDEX_DICTIONARY
350
3C0
  0
DICTIONARY
  5
13
330
12
100
AcDbDictionary
280
     1
281
     1
  3
ACAD_LAYERSTATES
360
14
  0
DICTIONARY
  5
3
330
2
100
AcDbDictionary
280
     1
281
     1
  3
ACAD_SORTENTS
360
4
  0
DICTIONARY
  5
2E
102
{ACAD_REACTORS
330
9
102
}
330
9
100
AcDbDictionary
281
     1
  0
DICTIONARY
  5
2A
102
{ACAD_REACTORS
330
9
102
}
330
9
100
AcDbDictionary
281
     1
  0
DICTIONARY
  5
D
102
{ACAD_REACTORS
330
9
102
}
330
9
100
AcDbDictionary
281
     1
  3
Model
350
C
  3
レイアウト1
350
11
  0
DICTIONARY
  5
2D
102
{ACAD_REACTORS
330
9
102
}
330
9
100
AcDbDictionary
281
     1
  0
DICTIONARY
  5
2B
102
{ACAD_REACTORS
330
9
102
}
330
9
100
AcDbDictionary
281
     1
  3
Standard
350
30
  0
DICTIONARY
  5
2C
102
{ACAD_REACTORS
330
9
102
}
330
9
100
AcDbDictionary
281
     1
  0
ACDBDICTIONARYWDFLT
  5
8
102
{ACAD_REACTORS
330
9
102
}
330
9
100
AcDbDictionary
281
     1
  3
Normal
350
7
100
AcDbDictionaryWithDefault
340
7
  0
DICTIONARY
  5
404
102
{ACAD_REACTORS
330
9
102
}
330
9
100
AcDbDictionary
281
     1
  3
COLORDICT
350
406
  3
MATERIALDICT
350
405
  0
DICTIONARY
  5
3FF
102
{ACAD_REACTORS
330
9
102
}
330
9
100
AcDbDictionary
281
     1
  3
DIMASSOC
350
401
  3
HIDETEXT
350
400
  3
PROJECTNAME
350
402
  0
DICTIONARY
  5
3C0
102
{ACAD_REACTORS
330
9
102
}
330
9
100
AcDbDictionary
281
     1
  3
ASEBlockHierarchyIndexRecord
350
3C2
1001
DCO15
1040
1627816380.634
  0
DICTIONARY
  5
14
102
{ACAD_REACTORS
330
13
102
}
330
13
100
AcDbDictionary
281
     1
  0
SORTENTSTABLE
  5
4
102
{ACAD_REACTORS
330
3
102
}
330
3
100
AcDbSortentsTable
330
2
  0
LAYOUT
  5
C
102
{ACAD_XDICTIONARY
360
407
102
}
102
{ACAD_REACTORS
330
D
102
}
330
D
100
AcDbPlotSettings
  1

  2
Ａ４－縦3FRIM01.pc3
  4
A4
  6

 40
5.873749732971191
 41
5.873747825622558
 42
5.873748779296875
 43
5.873748779296875
 44
209.9733276367187
 45
296.9259948730469
 46
5.429999999999999
 47
0.0
 48
0.0
 49
0.0
140
0.0
141
0.0
142
1.0
143
1.382515366965649
 70
 11956
 72
     1
 73
     0
 74
     1
  7
tmsacad.ctb
 75
     0
147
0.7233192656619828
148
0.0256332569354072
149
0.0240599051811614
100
AcDbLayout
  1
Model
 70
     1
 71
     0
 10
0.0
 20
0.0
 11
12.0
 21
9.0
 12
0.0
 22
0.0
 32
0.0
 14
0.0
 24
0.0
 34
0.0
 15
0.0
 25
0.0
 35
0.0
146
0.0
 13
0.0
 23
0.0
 33
0.0
 16
1.0
 26
0.0
 36
0.0
 17
0.0
 27
1.0
 37
0.0
 76
     0
330
2
  0
LAYOUT
  5
11
102
{ACAD_XDICTIONARY
360
409
102
}
102
{ACAD_REACTORS
330
D
102
}
330
D
100
AcDbPlotSettings
  1

  2
None
  4

  6

 40
0.0
 41
0.0
 42
0.0
 43
0.0
 44
0.0
 45
0.0
 46
0.0
 47
0.0
 48
0.0
 49
0.0
140
0.0
141
0.0
142
1.0
143
1.0
 70
   688
 72
     0
 73
     0
 74
     5
  7
tmsacad.ctb
 75
    16
147
1.0
148
0.0
149
0.0
100
AcDbLayout
  1
レイアウト1
 70
     1
 71
     1
 10
0.0
 20
0.0
 11
12.0
 21
9.0
 12
0.0
 22
0.0
 32
0.0
 14
0.0
 24
0.0
 34
0.0
 15
0.0
 25
0.0
 35
0.0
146
0.0
 13
0.0
 23
0.0
 33
0.0
 16
1.0
 26
0.0
 36
0.0
 17
0.0
 27
1.0
 37
0.0
 76
     0
330
E
  0
MLINESTYLE
  5
30
102
{ACAD_REACTORS
330
2B
102
}
330
2B
100
AcDbMlineStyle
  2
STANDARD
 70
     0
  3

 62
   256
 51
90.0
 52
90.0
 71
     2
 49
0.5
 62
   256
  6
BYLAYER
 49
-0.5
 62
   256
  6
BYLAYER
  0
ACDBPLACEHOLDER
  5
7
102
{ACAD_REACTORS
330
8
102
}
330
8
  0
XRECORD
  5
406
102
{ACAD_REACTORS
330
404
102
}
330
404
100
AcDbXrecord
280
     1
340
2E
  0
XRECORD
  5
405
102
{ACAD_REACTORS
330
404
102
}
330
404
100
AcDbXrecord
280
     1
340
2D
  0
DICTIONARYVAR
  5
401
102
{ACAD_REACTORS
330
3FF
102
}
330
3FF
100
DictionaryVariables
280
     0
  1
1
  0
DICTIONARYVAR
  5
400
102
{ACAD_REACTORS
330
3FF
102
}
330
3FF
100
DictionaryVariables
280
     0
  1
1
  0
DICTIONARYVAR
  5
402
102
{ACAD_REACTORS
330
3FF
102
}
330
3FF
100
DictionaryVariables
280
     0
  1

  0
XRECORD
  5
3C2
102
{ACAD_REACTORS
330
3C0
102
}
330
3C0
100
AcDbXrecord
280
     1
330
185
330
187
330
328
330
329
330
336
330
337
330
384
330
385
330
391
330
392
330
3D3
330
3D4
330
3DF
330
3E0
330
3EB
330
3EC
330
3F7
330
3F8
  0
DICTIONARY
  5
407
330
C
100
AcDbDictionary
280
     1
281
     1
  3
ACAD_XREC_ROUNDTRIP
360
408
  0
DICTIONARY
  5
409
330
11
100
AcDbDictionary
280
     1
281
     1
  3
ACAD_XREC_ROUNDTRIP
360
40A
  0
XRECORD
  5
408
102
{ACAD_REACTORS
330
407
102
}
330
407
100
AcDbXrecord
280
     1
102
SHADEPLOT
 70
     0
102
SHADEPLOTRESLEVEL
 70
     2
102
SHADEPLOTCUSTOMDPI
 70
   300
  0
XRECORD
  5
40A
102
{ACAD_REACTORS
330
409
102
}
330
409
100
AcDbXrecord
280
     1
102
SHADEPLOT
 70
     0
102
SHADEPLOTRESLEVEL
 70
     2
102
SHADEPLOTCUSTOMDPI
 70
   300
  0
ENDSEC
  0
EOF
