  0
SECTION
  2
HEADER
  9
$ACADVER
  1
AC1015
  9
$ACADMAINTVER
 70
    20
  9
$DWGCODEPAGE
  3
ANSI_932
  9
$INSBASE
 10
129.499999944041
 20
120.5008351249346
 30
0.0
  9
$EXTMIN
 10
-66.66320710752995
 20
-60.30546507693998
 30
-0.0015258207003583
  9
$EXTMAX
 10
58.33831842795291
 20
52.71913187685322
 30
0.0000000349246037
  9
$LIMMIN
 10
0.0
 20
0.0
  9
$LIMMAX
 10
420.0
 20
297.0
  9
$ORTHOMODE
 70
     1
  9
$REGENMODE
 70
     0
  9
$FILLMODE
 70
     1
  9
$QTEXTMODE
 70
     0
  9
$MIRRTEXT
 70
     0
  9
$LTSCALE
 40
1.0
  9
$ATTMODE
 70
     1
  9
$TEXTSIZE
 40
2.5
  9
$TRACEWID
 40
1.0
  9
$TEXTSTYLE
  7
Standard
  9
$CLAYER
  8
GAIKEI
  9
$CELTYPE
  6
ByLayer
  9
$CECOLOR
 62
   256
  9
$CELTSCALE
 40
1.0
  9
$DISPSILH
 70
     0
  9
$DIMSCALE
 40
1.0
  9
$DIMASZ
 40
2.0
  9
$DIMEXO
 40
2.0
  9
$DIMDLI
 40
8.0
  9
$DIMRND
 40
0.0
  9
$DIMDLE
 40
0.0
  9
$DIMEXE
 40
2.0
  9
$DIMTP
 40
0.0
  9
$DIMTM
 40
0.0
  9
$DIMTXT
 40
2.5
  9
$DIMCEN
 40
0.0
  9
$DIMTSZ
 40
0.0
  9
$DIMTOL
 70
     0
  9
$DIMLIM
 70
     0
  9
$DIMTIH
 70
     0
  9
$DIMTOH
 70
     0
  9
$DIMSE1
 70
     0
  9
$DIMSE2
 70
     0
  9
$DIMTAD
 70
     3
  9
$DIMZIN
 70
     0
  9
$DIMBLK
  1

  9
$DIMASO
 70
     1
  9
$DIMSHO
 70
     1
  9
$DIMPOST
  1

  9
$DIMAPOST
  1

  9
$DIMALT
 70
     0
  9
$DIMALTD
 70
     2
  9
$DIMALTF
 40
25.4
  9
$DIMLFAC
 40
1.0
  9
$DIMTOFL
 70
     1
  9
$DIMTVP
 40
0.0
  9
$DIMTIX
 70
     0
  9
$DIMSOXD
 70
     0
  9
$DIMSAH
 70
     1
  9
$DIMBLK1
  1
OPEN30
  9
$DIMBLK2
  1
OPEN30
  9
$DIMSTYLE
  2
STANDARD
  9
$DIMCLRD
 70
     0
  9
$DIMCLRE
 70
     0
  9
$DIMCLRT
 70
     0
  9
$DIMTFAC
 40
1.0
  9
$DIMGAP
 40
0.5
  9
$DIMJUST
 70
     0
  9
$DIMSD1
 70
     0
  9
$DIMSD2
 70
     0
  9
$DIMTOLJ
 70
     1
  9
$DIMTZIN
 70
     0
  9
$DIMALTZ
 70
     0
  9
$DIMALTTZ
 70
     0
  9
$DIMUPT
 70
     0
  9
$DIMDEC
 70
     4
  9
$DIMTDEC
 70
     4
  9
$DIMALTU
 70
     2
  9
$DIMALTTD
 70
     2
  9
$DIMTXSTY
  7
Standard
  9
$DIMAUNIT
 70
     0
  9
$DIMADEC
 70
     0
  9
$DIMALTRND
 40
0.0
  9
$DIMAZIN
 70
     0
  9
$DIMDSEP
 70
    46
  9
$DIMATFIT
 70
     3
  9
$DIMFRAC
 70
     0
  9
$DIMLDRBLK
  1
OPEN30
  9
$DIMLUNIT
 70
     2
  9
$DIMLWD
 70
    -2
  9
$DIMLWE
 70
    -2
  9
$DIMTMOVE
 70
     0
  9
$LUNITS
 70
     2
  9
$LUPREC
 70
     4
  9
$SKETCHINC
 40
1.0
  9
$FILLETRAD
 40
0.0
  9
$AUNITS
 70
     0
  9
$AUPREC
 70
     0
  9
$MENU
  1
.
  9
$ELEVATION
 40
0.0
  9
$PELEVATION
 40
0.0
  9
$THICKNESS
 40
0.0
  9
$LIMCHECK
 70
     0
  9
$CHAMFERA
 40
0.0
  9
$CHAMFERB
 40
0.0
  9
$CHAMFERC
 40
0.0
  9
$CHAMFERD
 40
0.0
  9
$SKPOLY
 70
     0
  9
$TDCREATE
 40
2454349.434269746
  9
$TDUCREATE
 40
2454349.059269746
  9
$TDUPDATE
 40
2455042.674232291
  9
$TDUUPDATE
 40
2455042.299232292
  9
$TDINDWG
 40
0.3290525116
  9
$TDUSRTIMER
 40
0.3290525116
  9
$USRTIMER
 70
     1
  9
$ANGBASE
 50
0.0
  9
$ANGDIR
 70
     0
  9
$PDMODE
 70
     0
  9
$PDSIZE
 40
0.0
  9
$PLINEWID
 40
0.0
  9
$SPLFRAME
 70
     0
  9
$SPLINETYPE
 70
     6
  9
$SPLINESEGS
 70
     8
  9
$HANDSEED
  5
3AB
  9
$SURFTAB1
 70
     6
  9
$SURFTAB2
 70
     6
  9
$SURFTYPE
 70
     6
  9
$SURFU
 70
     6
  9
$SURFV
 70
     6
  9
$UCSBASE
  2

  9
$UCSNAME
  2

  9
$UCSORG
 10
0.0
 20
0.0
 30
0.0
  9
$UCSXDIR
 10
1.0
 20
0.0
 30
0.0
  9
$UCSYDIR
 10
0.0
 20
1.0
 30
0.0
  9
$UCSORTHOREF
  2

  9
$UCSORTHOVIEW
 70
     0
  9
$UCSORGTOP
 10
0.0
 20
0.0
 30
0.0
  9
$UCSORGBOTTOM
 10
0.0
 20
0.0
 30
0.0
  9
$UCSORGLEFT
 10
0.0
 20
0.0
 30
0.0
  9
$UCSORGRIGHT
 10
0.0
 20
0.0
 30
0.0
  9
$UCSORGFRONT
 10
0.0
 20
0.0
 30
0.0
  9
$UCSORGBACK
 10
0.0
 20
0.0
 30
0.0
  9
$PUCSBASE
  2

  9
$PUCSNAME
  2

  9
$PUCSORG
 10
0.0
 20
0.0
 30
0.0
  9
$PUCSXDIR
 10
1.0
 20
0.0
 30
0.0
  9
$PUCSYDIR
 10
0.0
 20
1.0
 30
0.0
  9
$PUCSORTHOREF
  2

  9
$PUCSORTHOVIEW
 70
     0
  9
$PUCSORGTOP
 10
0.0
 20
0.0
 30
0.0
  9
$PUCSORGBOTTOM
 10
0.0
 20
0.0
 30
0.0
  9
$PUCSORGLEFT
 10
0.0
 20
0.0
 30
0.0
  9
$PUCSORGRIGHT
 10
0.0
 20
0.0
 30
0.0
  9
$PUCSORGFRONT
 10
0.0
 20
0.0
 30
0.0
  9
$PUCSORGBACK
 10
0.0
 20
0.0
 30
0.0
  9
$USERI1
 70
     0
  9
$USERI2
 70
     0
  9
$USERI3
 70
     0
  9
$USERI4
 70
     0
  9
$USERI5
 70
     0
  9
$USERR1
 40
0.0
  9
$USERR2
 40
0.0
  9
$USERR3
 40
0.0
  9
$USERR4
 40
0.0
  9
$USERR5
 40
0.0
  9
$WORLDVIEW
 70
     1
  9
$SHADEDGE
 70
     3
  9
$SHADEDIF
 70
    70
  9
$TILEMODE
 70
     1
  9
$MAXACTVP
 70
    64
  9
$PINSBASE
 10
0.0
 20
0.0
 30
0.0
  9
$PLIMCHECK
 70
     0
  9
$PEXTMIN
 10
0.0
 20
0.0
 30
0.0
  9
$PEXTMAX
 10
0.0
 20
0.0
 30
0.0
  9
$PLIMMIN
 10
0.0
 20
0.0
  9
$PLIMMAX
 10
12.0
 20
9.0
  9
$UNITMODE
 70
     0
  9
$VISRETAIN
 70
     1
  9
$PLINEGEN
 70
     0
  9
$PSLTSCALE
 70
     1
  9
$TREEDEPTH
 70
  3020
  9
$CMLSTYLE
  2
Standard
  9
$CMLJUST
 70
     0
  9
$CMLSCALE
 40
20.0
  9
$PROXYGRAPHICS
 70
     1
  9
$MEASUREMENT
 70
     1
  9
$CELWEIGHT
370
    -1
  9
$ENDCAPS
280
     0
  9
$JOINSTYLE
280
     0
  9
$LWDISPLAY
290
     0
  9
$INSUNITS
 70
     4
  9
$HYPERLINKBASE
  1

  9
$STYLESHEET
  1

  9
$XEDIT
290
     1
  9
$CEPSNTYPE
380
     0
  9
$PSTYLEMODE
290
     1
  9
$FINGERPRINTGUID
  2
{FDEAD578-A652-11D2-9A35-0060089B3A3F}
  9
$VERSIONGUID
  2
{A14A5D67-165F-42AF-899F-EE58A8847696}
  9
$EXTNAMES
290
     1
  9
$PSVPSCALE
 40
0.0
  9
$OLESTARTUP
290
     0
  0
ENDSEC
  0
SECTION
  2
CLASSES
  0
CLASS
  1
ACDBDICTIONARYWDFLT
  2
AcDbDictionaryWithDefault
  3
ObjectDBX Classes
 90
        0
280
     0
281
     0
  0
CLASS
  1
ACDBPLACEHOLDER
  2
AcDbPlaceHolder
  3
ObjectDBX Classes
 90
        0
280
     0
281
     0
  0
CLASS
  1
LAYOUT
  2
AcDbLayout
  3
ObjectDBX Classes
 90
        0
280
     0
281
     0
  0
CLASS
  1
DICTIONARYVAR
  2
AcDbDictionaryVar
  3
ObjectDBX Classes
 90
        0
280
     0
281
     0
  0
CLASS
  1
DIMASSOC
  2
AcDbDimAssoc
  3
"AcDbDimAssoc|Product Desc:     AcDim ARX App For Dimension|Company:          Autodesk, Inc.|WEB Address:      www.autodesk.com"
 90
    32768
280
     0
281
     0
  0
CLASS
  1
SORTENTSTABLE
  2
AcDbSortentsTable
  3
ObjectDBX Classes
 90
    32768
280
     0
281
     0
  0
ENDSEC
  0
SECTION
  2
TABLES
  0
TABLE
  2
VPORT
  5
1B
330
0
100
AcDbSymbolTable
 70
     3
  0
VPORT
  5
3A3
330
1B
100
AcDbSymbolTableRecord
100
AcDbViewportTableRecord
  2
*Active
 70
     0
 10
0.0
 20
0.0
 11
1.0
 21
1.0
 12
-4.162444339788525
 22
-3.793166600043377
 13
0.0
 23
0.0
 14
10.0
 24
10.0
 15
10.0
 25
10.0
 16
0.0
 26
0.0
 36
1.0
 17
0.0
 27
0.0
 37
0.0
 40
113.8906858193395
 41
1.39386189258312
 42
50.0
 43
0.0
 44
0.0
 50
0.0
 51
0.0
 71
     0
 72
  1000
 73
     1
 74
     2
 75
     0
 76
     0
 77
     0
 78
     0
281
     0
 65
     1
110
0.0
120
0.0
130
0.0
111
1.0
121
0.0
131
0.0
112
0.0
122
1.0
132
0.0
 79
     0
146
0.0
  0
ENDTAB
  0
TABLE
  2
LTYPE
  5
16
330
0
100
AcDbSymbolTable
 70
     2
  0
LTYPE
  5
17
330
16
100
AcDbSymbolTableRecord
100
AcDbLinetypeTableRecord
  2
ByBlock
 70
     0
  3

 72
    65
 73
     0
 40
0.0
  0
LTYPE
  5
18
330
16
100
AcDbSymbolTableRecord
100
AcDbLinetypeTableRecord
  2
ByLayer
 70
     0
  3

 72
    65
 73
     0
 40
0.0
  0
LTYPE
  5
8
330
16
100
AcDbSymbolTableRecord
100
AcDbLinetypeTableRecord
  2
Continuous
 70
     0
  3
Solid line
 72
    65
 73
     0
 40
0.0
  0
LTYPE
  5
1B3
330
16
100
AcDbSymbolTableRecord
100
AcDbLinetypeTableRecord
  2
S10
 70
     0
  3
- - - - - - - - - 1,-1,1,-1
 72
    65
 73
     4
 40
4.0
 49
1.0
 74
     0
 49
-1.0
 74
     0
 49
1.0
 74
     0
 49
-1.0
 74
     0
  0
ENDTAB
  0
TABLE
  2
LAYER
  5
10
102
{ACAD_XDICTIONARY
360
11
102
}
330
0
100
AcDbSymbolTable
 70
     8
  0
LAYER
  5
4
330
10
100
AcDbSymbolTableRecord
100
AcDbLayerTableRecord
  2
0
 70
     0
 62
     7
  6
Continuous
370
    -3
390
5
  0
LAYER
  5
342
330
10
100
AcDbSymbolTableRecord
100
AcDbLayerTableRecord
  2
WAKU
 70
     0
 62
     4
  6
Continuous
370
    -3
390
5
  0
LAYER
  5
31
330
10
100
AcDbSymbolTableRecord
100
AcDbLayerTableRecord
  2
MOJI1
 70
     0
 62
     2
  6
Continuous
370
    -3
390
5
  0
LAYER
  5
34
330
10
100
AcDbSymbolTableRecord
100
AcDbLayerTableRecord
  2
TOUROKU
 70
     0
 62
     1
  6
Continuous
370
    -3
390
5
  0
LAYER
  5
2E
330
10
100
AcDbSymbolTableRecord
100
AcDbLayerTableRecord
  2
GAIKEI
 70
     0
 62
     7
  6
Continuous
370
    -3
390
5
  0
LAYER
  5
41
330
10
100
AcDbSymbolTableRecord
100
AcDbLayerTableRecord
  2
Defpoints
 70
     0
 62
     7
  6
Continuous
290
     0
370
    -3
390
5
  0
LAYER
  5
37
330
10
100
AcDbSymbolTableRecord
100
AcDbLayerTableRecord
  2
SUNPO
 70
     0
 62
     3
  6
Continuous
370
    -3
390
5
  0
LAYER
  5
6D
330
10
100
AcDbSymbolTableRecord
100
AcDbLayerTableRecord
  2
S1
 70
     0
 62
     1
  6
Continuous
370
    -3
390
5
  0
ENDTAB
  0
TABLE
  2
STYLE
  5
13
330
0
100
AcDbSymbolTable
 70
     2
  0
STYLE
  5
14
330
13
100
AcDbSymbolTableRecord
100
AcDbTextStyleTableRecord
  2
Standard
 70
     0
 40
0.0
 41
1.0
 50
0.0
 71
     0
 42
2.5
  3
MONOTXT.shx
  4
BIGFONT.shx
  0
STYLE
  5
32
330
13
100
AcDbSymbolTableRecord
100
AcDbTextStyleTableRecord
  2
KANJI
 70
     0
 40
0.0
 41
1.0
 50
0.0
 71
     0
 42
3.5
  3
MONOTXT
  4
BIGFONT
  0
ENDTAB
  0
TABLE
  2
VIEW
  5
19
330
0
100
AcDbSymbolTable
 70
     0
  0
ENDTAB
  0
TABLE
  2
UCS
  5
1A
330
0
100
AcDbSymbolTable
 70
     0
  0
ENDTAB
  0
TABLE
  2
APPID
  5
1D
330
0
100
AcDbSymbolTable
 70
     1
  0
APPID
  5
1E
330
1D
100
AcDbSymbolTableRecord
100
AcDbRegAppTableRecord
  2
ACAD
 70
     0
  0
ENDTAB
  0
TABLE
  2
DIMSTYLE
  5
1F
330
0
100
AcDbSymbolTable
 70
     2
100
AcDbDimStyleTable
 71
     2
340
20
340
27
  0
DIMSTYLE
105
27
330
1F
100
AcDbSymbolTableRecord
100
AcDbDimStyleTableRecord
  2
ISO-25
 70
     0
 41
2.5
 42
0.625
 43
3.75
 44
1.25
 73
     0
 74
     0
 77
     1
 78
     8
140
2.5
141
2.5
143
0.03937007874016
147
0.625
171
     3
172
     1
271
     2
272
     2
274
     3
278
    44
283
     0
284
     8
340
14
  0
DIMSTYLE
105
20
102
{ACAD_REACTORS
330
5F
330
52
330
45
330
36
102
}
330
1F
100
AcDbSymbolTableRecord
100
AcDbDimStyleTableRecord
  2
STANDARD
 70
     0
 40
0.0
 41
2.0
 42
2.0
 43
8.0
 44
2.0
 73
     0
 74
     0
 77
     3
140
3.0
141
0.0
173
     1
279
     2
288
     1
340
14
341
21
343
21
344
21
  0
ENDTAB
  0
TABLE
  2
BLOCK_RECORD
  5
1
330
0
100
AcDbSymbolTable
 70
     9
  0
BLOCK_RECORD
  5
2
330
1
100
AcDbSymbolTableRecord
100
AcDbBlockTableRecord
  2
*Model_Space
340
A
  0
BLOCK_RECORD
  5
C
330
1
100
AcDbSymbolTableRecord
100
AcDbBlockTableRecord
  2
*Paper_Space
340
F
  0
BLOCK_RECORD
  5
21
330
1
100
AcDbSymbolTableRecord
100
AcDbBlockTableRecord
  2
_OPEN30
340
0
102
{BLKREFS
331
4B
331
4C
331
58
331
59
331
65
331
66
331
3D
331
3E
331
373
331
374
331
37F
331
380
331
38B
331
38C
331
397
331
398
102
}
  0
BLOCK_RECORD
  5
60
330
1
100
AcDbSymbolTableRecord
100
AcDbBlockTableRecord
  2
*D1
340
0
  0
BLOCK_RECORD
  5
53
330
1
100
AcDbSymbolTableRecord
100
AcDbBlockTableRecord
  2
*D2
340
0
  0
BLOCK_RECORD
  5
46
330
1
100
AcDbSymbolTableRecord
100
AcDbBlockTableRecord
  2
*D3
340
0
  0
BLOCK_RECORD
  5
38
330
1
100
AcDbSymbolTableRecord
100
AcDbBlockTableRecord
  2
*D4
340
0
  0
BLOCK_RECORD
  5
36F
330
1
100
AcDbSymbolTableRecord
100
AcDbBlockTableRecord
  2
*D5
340
0
  0
BLOCK_RECORD
  5
37B
330
1
100
AcDbSymbolTableRecord
100
AcDbBlockTableRecord
  2
*D6
340
0
  0
BLOCK_RECORD
  5
387
330
1
100
AcDbSymbolTableRecord
100
AcDbBlockTableRecord
  2
*D7
340
0
  0
BLOCK_RECORD
  5
393
330
1
100
AcDbSymbolTableRecord
100
AcDbBlockTableRecord
  2
*D8
340
0
  0
ENDTAB
  0
ENDSEC
  0
SECTION
  2
BLOCKS
  0
BLOCK
  5
3
330
2
100
AcDbEntity
  8
0
100
AcDbBlockBegin
  2
*Model_Space
 70
     0
 10
0.0
 20
0.0
 30
0.0
  3
*Model_Space
  1

  0
ENDBLK
  5
9
330
2
100
AcDbEntity
  8
0
100
AcDbBlockEnd
  0
BLOCK
  5
D
330
C
100
AcDbEntity
 67
     1
  8
0
100
AcDbBlockBegin
  2
*Paper_Space
 70
     0
 10
0.0
 20
0.0
 30
0.0
  3
*Paper_Space
  1

  0
ENDBLK
  5
E
330
C
100
AcDbEntity
 67
     1
  8
0
100
AcDbBlockEnd
  0
BLOCK
  5
22
330
21
100
AcDbEntity
  8
0
100
AcDbBlockBegin
  2
_OPEN30
 70
     0
 10
0.0
 20
0.0
 30
0.0
  3
_OPEN30
  1

  0
LINE
  5
23
330
21
100
AcDbEntity
  8
0
  6
ByBlock
 62
     0
100
AcDbLine
 10
-1.0
 20
0.26794919
 30
0.0
 11
0.0
 21
0.0
 31
0.0
  0
LINE
  5
24
330
21
100
AcDbEntity
  8
0
  6
ByBlock
 62
     0
100
AcDbLine
 10
0.0
 20
0.0
 30
0.0
 11
-1.0
 21
-0.26794919
 31
0.0
  0
LINE
  5
25
330
21
100
AcDbEntity
  8
0
  6
ByBlock
 62
     0
100
AcDbLine
 10
0.0
 20
0.0
 30
0.0
 11
-1.0
 21
0.0
 31
0.0
  0
ENDBLK
  5
26
330
21
100
AcDbEntity
  8
0
100
AcDbBlockEnd
  0
BLOCK
  5
61
330
60
100
AcDbEntity
  8
0
100
AcDbBlockBegin
  2
*D1
 70
     1
 10
0.0
 20
0.0
 30
0.0
  3
*D1
  1

  0
LINE
  5
62
330
60
100
AcDbEntity
  8
SUNPO
 62
     0
370
    -2
100
AcDbLine
 10
163.1121077977402
 20
91.07051432889241
 30
0.0
 11
163.1121077977402
 21
99.07051432889241
 31
0.0
  0
LINE
  5
63
330
60
100
AcDbEntity
  8
SUNPO
 62
     0
370
    -2
100
AcDbLine
 10
203.4454389220037
 20
91.07051432889241
 30
0.0
 11
203.4454389220037
 21
99.07051432889241
 31
0.0
  0
LINE
  5
64
330
60
100
AcDbEntity
  8
SUNPO
 62
     0
370
    -2
100
AcDbLine
 10
165.1121077977402
 20
97.07051432889242
 30
0.0
 11
201.4454389220037
 21
97.07051432889242
 31
0.0
  0
INSERT
  5
65
330
60
100
AcDbEntity
  8
SUNPO
 62
     0
370
    -2
100
AcDbBlockReference
  2
_OPEN30
 10
163.1121077977402
 20
97.07051432889242
 30
0.0
 41
2.0
 42
2.0
 43
2.0
 50
180.0
  0
INSERT
  5
66
330
60
100
AcDbEntity
  8
SUNPO
 62
     0
370
    -2
100
AcDbBlockReference
  2
_OPEN30
 10
203.4454389220037
 20
97.07051432889242
 30
0.0
 41
2.0
 42
2.0
 43
2.0
  0
MTEXT
  5
67
330
60
100
AcDbEntity
  8
SUNPO
 62
     0
100
AcDbMText
 10
175.2790827276337
 20
98.82051432889241
 30
0.0
 40
2.5
 41
0.0
 71
     5
 72
     1
  1
\A1;1210
 73
     1
 44
1.0
1001
ACAD
1000
MTEXTBEGIN
1070
    73
1070
     1
1070
    44
1040
1.0
1070
    74
1070
     0
1000
MTEXTEND
  0
POINT
  5
68
330
60
100
AcDbEntity
  8
Defpoints
 62
     0
100
AcDbPoint
 10
163.1121077977402
 20
89.0705143288924
 30
0.0
  0
POINT
  5
69
330
60
100
AcDbEntity
  8
Defpoints
 62
     0
100
AcDbPoint
 10
203.4454389220037
 20
89.0705143288924
 30
0.0
  0
POINT
  5
6A
330
60
100
AcDbEntity
  8
Defpoints
 62
     0
100
AcDbPoint
 10
203.4454389220037
 20
97.07051432889242
 30
0.0
  0
ENDBLK
  5
6B
330
60
100
AcDbEntity
  8
0
100
AcDbBlockEnd
  0
BLOCK
  5
54
330
53
100
AcDbEntity
  8
0
100
AcDbBlockBegin
  2
*D2
 70
     1
 10
0.0
 20
0.0
 30
0.0
  3
*D2
  1

  0
LINE
  5
55
330
53
100
AcDbEntity
  8
SUNPO
 62
     0
370
    -2
100
AcDbLine
 10
205.4051784238337
 20
64.93018266184892
 30
0.0
 11
213.4051784238337
 21
64.93018266184892
 31
0.0
  0
LINE
  5
56
330
53
100
AcDbEntity
  8
SUNPO
 62
     0
370
    -2
100
AcDbLine
 10
205.4051784238337
 20
89.0635080078082
 30
0.0
 11
213.4051784238337
 21
89.0635080078082
 31
0.0
  0
LINE
  5
57
330
53
100
AcDbEntity
  8
SUNPO
 62
     0
370
    -2
100
AcDbLine
 10
211.4051784238337
 20
66.93018266184892
 30
0.0
 11
211.4051784238337
 21
87.06350800780821
 31
0.0
  0
INSERT
  5
58
330
53
100
AcDbEntity
  8
SUNPO
 62
     0
370
    -2
100
AcDbBlockReference
  2
_OPEN30
 10
211.4051784238337
 20
64.93018266184892
 30
0.0
 41
2.0
 42
2.0
 43
2.0
 50
270.0
  0
INSERT
  5
59
330
53
100
AcDbEntity
  8
SUNPO
 62
     0
370
    -2
100
AcDbBlockReference
  2
_OPEN30
 10
211.4051784238337
 20
89.0635080078082
 30
0.0
 41
2.0
 42
2.0
 43
2.0
 50
90.0
  0
MTEXT
  5
5A
330
53
100
AcDbEntity
  8
SUNPO
 62
     0
100
AcDbMText
 10
209.6551784238337
 20
76.99684533482859
 30
0.0
 40
2.5
 41
0.0
 71
     5
 72
     1
  1
\A1;724
 11
0.0000000000000001
 21
1.0
 31
0.0
 73
     1
 44
1.0
1001
ACAD
1000
MTEXTBEGIN
1070
    73
1070
     1
1070
    44
1040
1.0
1070
    74
1070
     0
1000
MTEXTEND
  0
POINT
  5
5B
330
53
100
AcDbEntity
  8
Defpoints
 62
     0
100
AcDbPoint
 10
203.4051784238337
 20
64.93018266184892
 30
0.0
  0
POINT
  5
5C
330
53
100
AcDbEntity
  8
Defpoints
 62
     0
100
AcDbPoint
 10
203.4051784238337
 20
89.0635080078082
 30
0.0
  0
POINT
  5
5D
330
53
100
AcDbEntity
  8
Defpoints
 62
     0
100
AcDbPoint
 10
211.4051784238337
 20
89.0635080078082
 30
0.0
  0
ENDBLK
  5
5E
330
53
100
AcDbEntity
  8
0
100
AcDbBlockEnd
  0
BLOCK
  5
47
330
46
100
AcDbEntity
  8
0
100
AcDbBlockBegin
  2
*D3
 70
     1
 10
0.0
 20
0.0
 30
0.0
  3
*D3
  1

  0
LINE
  5
48
330
46
100
AcDbEntity
  8
SUNPO
 62
     0
370
    -2
100
AcDbLine
 10
161.158723851529
 20
65.01751280132018
 30
0.0
 11
153.158723851529
 21
65.01751280132019
 31
0.0
  0
LINE
  5
49
330
46
100
AcDbEntity
  8
SUNPO
 62
     0
370
    -2
100
AcDbLine
 10
161.158723851529
 20
104.5960752027683
 30
0.0
 11
153.158723851529
 21
104.5960752027683
 31
0.0
  0
LINE
  5
4A
330
46
100
AcDbEntity
  8
SUNPO
 62
     0
370
    -2
100
AcDbLine
 10
155.1587238515289
 20
67.01751280132019
 30
0.0
 11
155.1587238515289
 21
102.5960752027683
 31
0.0
  0
INSERT
  5
4B
330
46
100
AcDbEntity
  8
SUNPO
 62
     0
370
    -2
100
AcDbBlockReference
  2
_OPEN30
 10
155.1587238515289
 20
65.01751280132019
 30
0.0
 41
2.0
 42
2.0
 43
2.0
 50
270.0
  0
INSERT
  5
4C
330
46
100
AcDbEntity
  8
SUNPO
 62
     0
370
    -2
100
AcDbBlockReference
  2
_OPEN30
 10
155.1587238515289
 20
104.5960752027683
 30
0.0
 41
2.0
 42
2.0
 43
2.0
 50
90.0
  0
MTEXT
  5
4D
330
46
100
AcDbEntity
  8
SUNPO
 62
     0
100
AcDbMText
 10
153.4087238515289
 20
84.80679400204428
 30
0.0
 40
2.5
 41
0.0
 71
     5
 72
     1
  1
\A1;1187.3～1487.3
 11
0.0000000000000001
 21
1.0
 31
0.0
 73
     1
 44
1.0
1001
ACAD
1000
MTEXTBEGIN
1070
    73
1070
     1
1070
    44
1040
1.0
1070
    74
1070
     0
1000
MTEXTEND
  0
POINT
  5
4E
330
46
100
AcDbEntity
  8
Defpoints
 62
     0
100
AcDbPoint
 10
163.158723851529
 20
65.01751280132018
 30
0.0
  0
POINT
  5
4F
330
46
100
AcDbEntity
  8
Defpoints
 62
     0
100
AcDbPoint
 10
163.158723851529
 20
104.5960752027683
 30
0.0
  0
POINT
  5
50
330
46
100
AcDbEntity
  8
Defpoints
 62
     0
100
AcDbPoint
 10
155.1587238515289
 20
104.5960752027683
 30
0.0
  0
ENDBLK
  5
51
330
46
100
AcDbEntity
  8
0
100
AcDbBlockEnd
  0
BLOCK
  5
39
330
38
100
AcDbEntity
  8
0
100
AcDbBlockBegin
  2
*D4
 70
     1
 10
0.0
 20
0.0
 30
0.0
  3
*D4
  1

  0
LINE
  5
3A
330
38
100
AcDbEntity
  8
SUNPO
 62
     0
370
    -2
100
AcDbLine
 10
171.0454364135252
 20
62.93691736506395
 30
0.0
 11
171.0454364135252
 21
54.93691736506395
 31
0.0
  0
LINE
  5
3B
330
38
100
AcDbEntity
  8
SUNPO
 62
     0
370
    -2
100
AcDbLine
 10
195.4121014210986
 20
62.93691736506395
 30
0.0
 11
195.4121014210986
 21
54.93691736506395
 31
0.0
  0
LINE
  5
3C
330
38
100
AcDbEntity
  8
SUNPO
 62
     0
370
    -2
100
AcDbLine
 10
173.0454364135252
 20
56.93691736506394
 30
0.0
 11
193.4121014210986
 21
56.93691736506394
 31
0.0
  0
INSERT
  5
3D
330
38
100
AcDbEntity
  8
SUNPO
 62
     0
370
    -2
100
AcDbBlockReference
  2
_OPEN30
 10
171.0454364135252
 20
56.93691736506394
 30
0.0
 41
2.0
 42
2.0
 43
2.0
 50
180.0
  0
INSERT
  5
3E
330
38
100
AcDbEntity
  8
SUNPO
 62
     0
370
    -2
100
AcDbBlockReference
  2
_OPEN30
 10
195.4121014210986
 20
56.93691736506394
 30
0.0
 41
2.0
 42
2.0
 43
2.0
  0
MTEXT
  5
3F
330
38
100
AcDbEntity
  8
SUNPO
 62
     0
100
AcDbMText
 10
183.2287689173119
 20
58.68691736506395
 30
0.0
 40
2.5
 41
0.0
 71
     5
 72
     1
  1
\A1;731
 73
     1
 44
1.0
1001
ACAD
1000
MTEXTBEGIN
1070
    73
1070
     1
1070
    44
1040
1.0
1070
    74
1070
     0
1000
MTEXTEND
  0
POINT
  5
40
330
38
100
AcDbEntity
  8
Defpoints
 62
     0
100
AcDbPoint
 10
171.0454364135252
 20
64.93691736506395
 30
0.0
  0
POINT
  5
42
330
38
100
AcDbEntity
  8
Defpoints
 62
     0
100
AcDbPoint
 10
195.4121014210986
 20
64.93691736506395
 30
0.0
  0
POINT
  5
43
330
38
100
AcDbEntity
  8
Defpoints
 62
     0
100
AcDbPoint
 10
195.4121014210986
 20
56.93691736506394
 30
0.0
  0
ENDBLK
  5
44
330
38
100
AcDbEntity
  8
0
100
AcDbBlockEnd
  0
BLOCK
  5
379
330
36F
100
AcDbEntity
  8
0
100
AcDbBlockBegin
  2
*D5
 70
     1
 10
0.0
 20
0.0
 30
0.0
  3
*D5
  1

  0
LINE
  5
370
330
36F
100
AcDbEntity
  8
SUNPO
 62
     0
370
    -2
100
AcDbLine
 10
-35.05034261376795
 20
25.28389762113149
 30
0.0
 11
-35.05034261376795
 21
33.2838976211315
 31
0.0
  0
LINE
  5
371
330
36F
100
AcDbEntity
  8
SUNPO
 62
     0
370
    -2
100
AcDbLine
 10
5.282988510495556
 20
25.28389762113149
 30
0.0
 11
5.282988510495557
 21
33.2838976211315
 31
0.0
  0
LINE
  5
372
330
36F
100
AcDbEntity
  8
SUNPO
 62
     0
370
    -2
100
AcDbLine
 10
-33.05034261376795
 20
31.2838976211315
 30
0.0
 11
3.282988510495557
 21
31.2838976211315
 31
0.0
  0
INSERT
  5
373
330
36F
100
AcDbEntity
  8
SUNPO
 62
     0
370
    -2
100
AcDbBlockReference
  2
_OPEN30
 10
-35.05034261376795
 20
31.2838976211315
 30
0.0
 41
2.0
 42
2.0
 43
2.0
 50
180.0
  0
INSERT
  5
374
330
36F
100
AcDbEntity
  8
SUNPO
 62
     0
370
    -2
100
AcDbBlockReference
  2
_OPEN30
 10
5.282988510495557
 20
31.2838976211315
 30
0.0
 41
2.0
 42
2.0
 43
2.0
  0
MTEXT
  5
375
330
36F
100
AcDbEntity
  8
SUNPO
 62
     0
100
AcDbMText
 10
-22.8833676838745
 20
33.0338976211315
 30
0.0
 40
2.5
 41
0.0
 71
     5
 72
     1
  1
\A1;1210
 73
     1
 44
1.0
1001
ACAD
1000
MTEXTBEGIN
1070
    73
1070
     1
1070
    44
1040
1.0
1070
    74
1070
     0
1000
MTEXTEND
  0
POINT
  5
376
330
36F
100
AcDbEntity
  8
Defpoints
 62
     0
100
AcDbPoint
 10
-35.05034261376795
 20
23.28389762113149
 30
0.0
  0
POINT
  5
377
330
36F
100
AcDbEntity
  8
Defpoints
 62
     0
100
AcDbPoint
 10
5.282988510495556
 20
23.28389762113149
 30
0.0
  0
POINT
  5
378
330
36F
100
AcDbEntity
  8
Defpoints
 62
     0
100
AcDbPoint
 10
5.282988510495557
 20
31.2838976211315
 30
0.0
  0
ENDBLK
  5
37A
330
36F
100
AcDbEntity
  8
0
100
AcDbBlockEnd
  0
BLOCK
  5
385
330
37B
100
AcDbEntity
  8
0
100
AcDbBlockBegin
  2
*D6
 70
     1
 10
0.0
 20
0.0
 30
0.0
  3
*D6
  1

  0
LINE
  5
37C
330
37B
100
AcDbEntity
  8
SUNPO
 62
     0
370
    -2
100
AcDbLine
 10
7.242728012325528
 20
-0.8564340459119966
 30
0.0
 11
15.24272801232552
 21
-0.8564340459119989
 31
0.0
  0
LINE
  5
37D
330
37B
100
AcDbEntity
  8
SUNPO
 62
     0
370
    -2
100
AcDbLine
 10
7.242728012325528
 20
23.27689130004729
 30
0.0
 11
15.24272801232553
 21
23.27689130004729
 31
0.0
  0
LINE
  5
37E
330
37B
100
AcDbEntity
  8
SUNPO
 62
     0
370
    -2
100
AcDbLine
 10
13.24272801232552
 20
1.143565954088001
 30
0.0
 11
13.24272801232553
 21
21.27689130004729
 31
0.0
  0
INSERT
  5
37F
330
37B
100
AcDbEntity
  8
SUNPO
 62
     0
370
    -2
100
AcDbBlockReference
  2
_OPEN30
 10
13.24272801232552
 20
-0.8564340459119982
 30
0.0
 41
2.0
 42
2.0
 43
2.0
 50
270.0
  0
INSERT
  5
380
330
37B
100
AcDbEntity
  8
SUNPO
 62
     0
370
    -2
100
AcDbBlockReference
  2
_OPEN30
 10
13.24272801232553
 20
23.27689130004729
 30
0.0
 41
2.0
 42
2.0
 43
2.0
 50
90.0
  0
MTEXT
  5
381
330
37B
100
AcDbEntity
  8
SUNPO
 62
     0
100
AcDbMText
 10
11.49272801232552
 20
11.21022862706765
 30
0.0
 40
2.5
 41
0.0
 71
     5
 72
     1
  1
\A1;724
 11
0.0000000000000001
 21
1.0
 31
0.0
 73
     1
 44
1.0
1001
ACAD
1000
MTEXTBEGIN
1070
    73
1070
     1
1070
    44
1040
1.0
1070
    74
1070
     0
1000
MTEXTEND
  0
POINT
  5
382
330
37B
100
AcDbEntity
  8
Defpoints
 62
     0
100
AcDbPoint
 10
5.242728012325528
 20
-0.8564340459119961
 30
0.0
  0
POINT
  5
383
330
37B
100
AcDbEntity
  8
Defpoints
 62
     0
100
AcDbPoint
 10
5.242728012325528
 20
23.27689130004729
 30
0.0
  0
POINT
  5
384
330
37B
100
AcDbEntity
  8
Defpoints
 62
     0
100
AcDbPoint
 10
13.24272801232553
 20
23.27689130004729
 30
0.0
  0
ENDBLK
  5
386
330
37B
100
AcDbEntity
  8
0
100
AcDbBlockEnd
  0
BLOCK
  5
391
330
387
100
AcDbEntity
  8
0
100
AcDbBlockBegin
  2
*D7
 70
     1
 10
0.0
 20
0.0
 30
0.0
  3
*D7
  1

  0
LINE
  5
388
330
387
100
AcDbEntity
  8
SUNPO
 62
     0
370
    -2
100
AcDbLine
 10
-37.00372655997921
 20
-0.769103906440733
 30
0.0
 11
-45.00372655997922
 21
-0.7691039064407307
 31
0.0
  0
LINE
  5
389
330
387
100
AcDbEntity
  8
SUNPO
 62
     0
370
    -2
100
AcDbLine
 10
-37.00372655997921
 20
38.80945849500738
 30
0.0
 11
-45.00372655997921
 21
38.80945849500738
 31
0.0
  0
LINE
  5
38A
330
387
100
AcDbEntity
  8
SUNPO
 62
     0
370
    -2
100
AcDbLine
 10
-43.00372655997922
 20
1.230896093559268
 30
0.0
 11
-43.00372655997921
 21
36.80945849500738
 31
0.0
  0
INSERT
  5
38B
330
387
100
AcDbEntity
  8
SUNPO
 62
     0
370
    -2
100
AcDbBlockReference
  2
_OPEN30
 10
-43.00372655997922
 20
-0.7691039064407313
 30
0.0
 41
2.0
 42
2.0
 43
2.0
 50
270.0
  0
INSERT
  5
38C
330
387
100
AcDbEntity
  8
SUNPO
 62
     0
370
    -2
100
AcDbBlockReference
  2
_OPEN30
 10
-43.00372655997921
 20
38.80945849500738
 30
0.0
 41
2.0
 42
2.0
 43
2.0
 50
90.0
  0
MTEXT
  5
38D
330
387
100
AcDbEntity
  8
SUNPO
 62
     0
100
AcDbMText
 10
-44.75372655997921
 20
19.02017729428331
 30
0.0
 40
2.5
 41
0.0
 71
     5
 72
     1
  1
\A1;1187.3～1487.3
 11
0.0000000000000001
 21
1.0
 31
0.0
 73
     1
 44
1.0
1001
ACAD
1000
MTEXTBEGIN
1070
    73
1070
     1
1070
    44
1040
1.0
1070
    74
1070
     0
1000
MTEXTEND
  0
POINT
  5
38E
330
387
100
AcDbEntity
  8
Defpoints
 62
     0
100
AcDbPoint
 10
-35.00372655997921
 20
-0.7691039064407335
 30
0.0
  0
POINT
  5
38F
330
387
100
AcDbEntity
  8
Defpoints
 62
     0
100
AcDbPoint
 10
-35.00372655997921
 20
38.80945849500738
 30
0.0
  0
POINT
  5
390
330
387
100
AcDbEntity
  8
Defpoints
 62
     0
100
AcDbPoint
 10
-43.00372655997921
 20
38.80945849500738
 30
0.0
  0
ENDBLK
  5
392
330
387
100
AcDbEntity
  8
0
100
AcDbBlockEnd
  0
BLOCK
  5
39D
330
393
100
AcDbEntity
  8
0
100
AcDbBlockBegin
  2
*D8
 70
     1
 10
0.0
 20
0.0
 30
0.0
  3
*D8
  1

  0
LINE
  5
394
330
393
100
AcDbEntity
  8
SUNPO
 62
     0
370
    -2
100
AcDbLine
 10
-27.11701399798295
 20
-2.849699342696965
 30
0.0
 11
-27.11701399798295
 21
-10.84969934269696
 31
0.0
  0
LINE
  5
395
330
393
100
AcDbEntity
  8
SUNPO
 62
     0
370
    -2
100
AcDbLine
 10
-2.750348990409577
 20
-2.849699342696965
 30
0.0
 11
-2.750348990409577
 21
-10.84969934269696
 31
0.0
  0
LINE
  5
396
330
393
100
AcDbEntity
  8
SUNPO
 62
     0
370
    -2
100
AcDbLine
 10
-25.11701399798295
 20
-8.849699342696965
 30
0.0
 11
-4.750348990409577
 21
-8.849699342696965
 31
0.0
  0
INSERT
  5
397
330
393
100
AcDbEntity
  8
SUNPO
 62
     0
370
    -2
100
AcDbBlockReference
  2
_OPEN30
 10
-27.11701399798295
 20
-8.849699342696965
 30
0.0
 41
2.0
 42
2.0
 43
2.0
 50
180.0
  0
INSERT
  5
398
330
393
100
AcDbEntity
  8
SUNPO
 62
     0
370
    -2
100
AcDbBlockReference
  2
_OPEN30
 10
-2.750348990409577
 20
-8.849699342696965
 30
0.0
 41
2.0
 42
2.0
 43
2.0
  0
MTEXT
  5
399
330
393
100
AcDbEntity
  8
SUNPO
 62
     0
100
AcDbMText
 10
-14.93368149419626
 20
-7.099699342696965
 30
0.0
 40
2.5
 41
0.0
 71
     5
 72
     1
  1
\A1;731
 73
     1
 44
1.0
1001
ACAD
1000
MTEXTBEGIN
1070
    73
1070
     1
1070
    44
1040
1.0
1070
    74
1070
     0
1000
MTEXTEND
  0
POINT
  5
39A
330
393
100
AcDbEntity
  8
Defpoints
 62
     0
100
AcDbPoint
 10
-27.11701399798295
 20
-0.8496993426969652
 30
0.0
  0
POINT
  5
39B
330
393
100
AcDbEntity
  8
Defpoints
 62
     0
100
AcDbPoint
 10
-2.750348990409577
 20
-0.8496993426969652
 30
0.0
  0
POINT
  5
39C
330
393
100
AcDbEntity
  8
Defpoints
 62
     0
100
AcDbPoint
 10
-2.750348990409577
 20
-8.849699342696965
 30
0.0
  0
ENDBLK
  5
39E
330
393
100
AcDbEntity
  8
0
100
AcDbBlockEnd
  0
ENDSEC
  0
SECTION
  2
ENTITIES
  0
TEXT
  5
30
330
2
100
AcDbEntity
  8
MOJI1
100
AcDbText
 10
-39.66245046746712
 20
48.71421841717375
 30
0.0
 40
4.0
  1
ハイビジョンプラズマディスプレイ天吊り金具付
 41
0.9200000000000001
  7
KANJI
100
AcDbText
  0
TEXT
  5
33
330
2
100
AcDbEntity
  8
TOUROKU
100
AcDbText
 10
11.13749956546063
 20
43.03381093831302
 30
0.0
 40
2.0
  1
ＴＨ５０ＰＨ１２ＫＲ＋ＴＹＣＥ４２ＰＳ７
 72
     2
 11
58.33749956546063
 21
43.03381093831302
 31
0.0
100
AcDbText
  0
TEXT
  5
35
330
2
100
AcDbEntity
  8
TOUROKU
100
AcDbText
 10
32.45665700446591
 20
-0.8503960397646324
 30
0.0
 40
1.5
  1
Ｓ＝１／３０
 41
0.7
 72
     2
 11
39.52665700446591
 21
-0.8503960397646324
 31
0.0
100
AcDbText
  0
DIMENSION
  5
36
330
2
100
AcDbEntity
  8
SUNPO
100
AcDbDimension
  2
*D8
 10
-2.750348990409577
 20
-8.849699342696965
 30
0.0
 11
-14.93368149419626
 21
-7.099699342696965
 31
0.0
 70
    33
  1
731
 71
     5
 42
24.36666500757338
  3
STANDARD
100
AcDbAlignedDimension
 13
-27.11701399798295
 23
-0.8496993426969652
 33
0.0
 14
-2.750348990409577
 24
-0.8496993426969652
 34
0.0
1001
ACAD
1000
DSTYLE
1002
{
1070
    40
1040
1.0
1070
   140
1040
2.5
1070
   147
1040
0.5
1070
   172
1070
     1
1070
   279
1070
     0
1070
   288
1070
     0
1002
}
  0
DIMENSION
  5
45
330
2
100
AcDbEntity
  8
SUNPO
100
AcDbDimension
  2
*D7
 10
-43.00372655997921
 20
38.80945849500738
 30
0.0
 11
-44.75372655997921
 21
19.02017729428331
 31
0.0
 70
    33
  1
1187.3～1487.3
 71
     5
 42
39.57856240144811
  3
STANDARD
100
AcDbAlignedDimension
 13
-35.00372655997921
 23
-0.7691039064407335
 33
0.0
 14
-35.00372655997921
 24
38.80945849500738
 34
0.0
1001
ACAD
1000
DSTYLE
1002
{
1070
    40
1040
1.0
1070
   140
1040
2.5
1070
   147
1040
0.5
1070
   172
1070
     1
1070
   279
1070
     0
1070
   288
1070
     0
1002
}
  0
DIMENSION
  5
52
330
2
100
AcDbEntity
  8
SUNPO
100
AcDbDimension
  2
*D6
 10
13.24272801232553
 20
23.27689130004729
 30
0.0
 11
11.49272801232552
 21
11.21022862706765
 31
0.0
 70
    33
  1
724
 71
     5
 42
24.13332534595929
  3
STANDARD
100
AcDbAlignedDimension
 13
5.242728012325528
 23
-0.8564340459119961
 33
0.0
 14
5.242728012325528
 24
23.27689130004729
 34
0.0
1001
ACAD
1000
DSTYLE
1002
{
1070
    40
1040
1.0
1070
   140
1040
2.5
1070
   147
1040
0.5
1070
   172
1070
     1
1070
   279
1070
     0
1070
   288
1070
     0
1002
}
  0
DIMENSION
  5
5F
330
2
100
AcDbEntity
  8
SUNPO
100
AcDbDimension
  2
*D5
 10
5.282988510495557
 20
31.2838976211315
 30
0.0
 11
-22.8833676838745
 21
31.2838976211315
 31
0.0
 70
   161
  1
1210
 71
     5
 42
40.3333311242635
  3
STANDARD
100
AcDbAlignedDimension
 13
-35.05034261376795
 23
23.28389762113149
 33
0.0
 14
5.282988510495556
 24
23.28389762113149
 34
0.0
1001
ACAD
1000
DSTYLE
1002
{
1070
    40
1040
1.0
1070
   140
1040
2.5
1070
   147
1040
0.5
1070
   172
1070
     1
1070
   279
1070
     0
1070
   288
1070
     0
1002
}
  0
ELLIPSE
  5
6C
330
2
100
AcDbEntity
  8
S1
100
AcDbEllipse
 10
32.77236612509245
 20
15.17924010828051
 30
0.0
 11
-0.0010561492818511
 21
-0.3251459740627804
 31
0.0
210
0.0
220
0.0
230
1.0
 40
0.7373811941899307
 41
0.0
 42
6.283185307179586
  0
LINE
  5
6E
330
2
100
AcDbEntity
  8
GAIKEI
 62
     1
100
AcDbLine
 10
25.25828737289987
 20
-0.6593014061100462
 30
0.0
 11
25.25828737289987
 21
-0.7650906553240873
 31
0.0
  0
ARC
  5
6F
330
2
100
AcDbEntity
  8
GAIKEI
 62
     1
100
AcDbCircle
 10
26.84917578004252
 20
22.91776499034671
 30
0.0
 40
0.03333630427746
100
AcDbArc
 50
0.0000064146184042
 51
88.00001314450822
  0
LINE
  5
70
330
2
100
AcDbEntity
  8
GAIKEI
 62
     1
100
AcDbLine
 10
26.82618941376097
 20
22.95192429557088
 30
0.0
 11
26.85033920919875
 21
22.9510809815487
 31
0.0
  0
ARC
  5
71
330
2
100
AcDbEntity
  8
GAIKEI
 62
     1
100
AcDbCircle
 10
26.82584038275189
 20
22.94192950760083
 30
0.0
 40
0.0100008885120045
100
AcDbArc
 50
88.00000000002242
 51
179.9999999998917
  0
LINE
  5
72
330
2
100
AcDbEntity
  8
GAIKEI
 62
     1
100
AcDbLine
 10
26.81583949423993
 20
22.9223220656109
 30
0.0
 11
26.81583949423993
 21
22.94192950760086
 31
0.0
  0
ARC
  5
73
330
2
100
AcDbEntity
  8
GAIKEI
 62
     1
100
AcDbCircle
 10
26.8061670650024
 20
22.92275447002265
 30
0.0
 40
0.0096820896984856
100
AcDbArc
 50
265.9875314113286
 51
357.4403055779336
  0
LINE
  5
74
330
2
100
AcDbEntity
  8
GAIKEI
 62
     1
100
AcDbLine
 10
26.8825120843199
 20
22.86907730183671
 30
0.0
 11
26.8825120843199
 21
22.91776499407894
 31
0.0
  0
ARC
  5
75
330
2
100
AcDbEntity
  8
GAIKEI
 62
     1
100
AcDbCircle
 10
26.78250117192778
 20
22.86907859017575
 30
0.0
 40
0.1000109124005768
100
AcDbArc
 50
294.6822153763305
 51
359.9992555506062
  0
SPLINE
  5
76
330
2
100
AcDbEntity
  8
GAIKEI
  6
Continuous
 62
     1
100
AcDbSpline
210
0.0
220
0.0
230
1.0
 70
     8
 71
     3
 72
    14
 73
    10
 74
     8
 42
0.0000000001
 43
0.0000000001
 44
0.000001
 12
0.1359523053525381
 22
0.9907153832808543
 32
0.0
 13
0.1044770653903519
 23
0.9945272961600501
 33
0.0
 40
0.0
 40
0.0
 40
0.0
 40
0.0
 40
0.0117441122318229
 40
0.0233143127744365
 40
0.0347515885516765
 40
0.0432002755691816
 40
0.0514996482291378
 40
0.0595581322122607
 40
0.0673754410105548
 40
0.0673754410105548
 40
0.0673754410105548
 40
0.0673754410105548
 10
27.68241289590708
 20
19.59721537928817
 30
0.0
 10
27.68294510895115
 20
19.60109373683852
 30
0.0
 10
27.68395003016741
 20
19.60880021748943
 30
0.0
 10
27.6852931802377
 20
19.62030624318765
 30
0.0
 10
27.68639073106056
 20
19.63073419962134
 30
0.0
 10
27.68731008163423
 20
19.64008424532903
 30
0.0
 10
27.68809634899753
 20
19.64831561985528
 30
0.0
 10
27.68886398820749
 20
19.65633739186002
 30
0.0
 10
27.68940626776223
 20
19.66160151007223
 30
0.0
 10
27.68967851092305
 20
19.66419301906637
 30
0.0
 11
27.68241289590708
 21
19.59721537928817
 31
0.0
 11
27.68393217962523
 21
19.60886086541367
 31
0.0
 11
27.68527744606678
 21
19.62035259588555
 31
0.0
 11
27.68648105044235
 21
19.63172636470889
 31
0.0
 11
27.68731201975504
 21
19.64013408640909
 31
0.0
 11
27.68810522291381
 21
19.64839546687938
 31
0.0
 11
27.68888248046778
 21
19.65641640310298
 31
0.0
 11
27.68967851092305
 21
19.66419301906637
 31
0.0
  0
SPLINE
  5
77
330
2
100
AcDbEntity
  8
GAIKEI
  6
Continuous
 62
     1
100
AcDbSpline
210
0.0
220
0.0
230
1.0
 70
     8
 71
     3
 72
    14
 73
    10
 74
     8
 42
0.0000000001
 43
0.0000000001
 44
0.000001
 12
0.1677588837034731
 22
0.9858280564776825
 32
0.0
 13
0.1366130456583842
 23
0.9906244877631182
 33
0.0
 40
0.0
 40
0.0
 40
0.0
 40
0.0
 40
0.0077805537819203
 40
0.0157593947443002
 40
0.0239337084991824
 40
0.0323033226631423
 40
0.0438356785406941
 40
0.0554749749921558
 40
0.0671959577983806
 40
0.0671959577983806
 40
0.0671959577983806
 40
0.0671959577983806
 10
27.56569412540591
 20
18.76264941580641
 30
0.0
 10
27.56612921107825
 20
18.76520617854412
 30
0.0
 10
27.5670209036243
 20
18.77038312120427
 30
0.0
 10
27.56843139177107
 20
18.7782353764571
 30
0.0
 10
27.56987892870422
 20
18.78628043696022
 30
0.0
 10
27.57151279882263
 20
18.79549549254325
 30
0.0
 10
27.57327964365527
 20
18.80585989081598
 30
0.0
 10
27.57510431754119
 20
18.81734705557515
 30
0.0
 10
27.57622023148528
 20
18.82505373966313
 30
0.0
 10
27.57675397787171
 20
18.82892410385929
 30
0.0
 11
27.56569412540591
 21
18.76264941580641
 31
0.0
 11
27.56701968956685
 21
18.77031615619685
 31
0.0
 11
27.56842122567884
 21
18.77817096644384
 31
0.0
 11
27.56986500929418
 21
18.78621676577643
 31
0.0
 11
27.57132206203494
 21
18.7944585749089
 31
0.0
 11
27.57325326327634
 21
18.80582808217247
 31
0.0
 11
27.57507478757736
 21
18.81732396667416
 31
0.0
 11
27.57675397787171
 21
18.82892410385929
 31
0.0
  0
SPLINE
  5
78
330
2
100
AcDbEntity
  8
GAIKEI
  6
Continuous
 62
     1
100
AcDbSpline
210
0.0
220
0.0
230
1.0
 70
     8
 71
     3
 72
    13
 73
     9
 74
     7
 42
0.0000000001
 43
0.0000000001
 44
0.000001
 12
-0.1032078770309288
 22
0.9946598082353428
 32
0.0
 13
-0.135947176317206
 23
0.9907160871063812
 33
0.0
 40
0.0
 40
0.0
 40
0.0
 40
0.0
 40
0.010667482179516
 40
0.0213526033887962
 40
0.0323808699812575
 40
0.0439032233371563
 40
0.0555872268423086
 40
0.0673754141472287
 40
0.0673754141472287
 40
0.0673754141472287
 40
0.0673754141472287
 10
27.67982170855856
 20
21.04407024576403
 30
0.0
 10
27.67945471916224
 20
21.04760708435704
 30
0.0
 10
27.67873260164222
 20
21.05468795936181
 30
0.0
 10
27.67772007383352
 20
21.06543401976232
 30
0.0
 10
27.6766450496792
 20
21.0764603531091
 30
0.0
 10
27.67545316292473
 20
21.08780966247275
 30
0.0
 10
27.67410180196066
 20
21.09939627529386
 30
0.0
 10
27.673090283802
 20
21.10715496994196
 30
0.0
 10
27.67255609354265
 20
21.11104788554223
 30
0.0
 11
27.67982170855856
 21
21.04407024576403
 31
0.0
 11
27.678747765901
 21
21.05468323853893
 31
0.0
 11
27.6777261439961
 21
21.06531965374927
 31
0.0
 11
27.67664870885602
 21
21.07629516773659
 31
0.0
 11
27.67543804270065
 21
21.08775374421612
 31
0.0
 11
27.6740807786295
 21
21.09935865203536
 31
0.0
 11
27.67255609354265
 21
21.11104788554223
 31
0.0
  0
SPLINE
  5
79
330
2
100
AcDbEntity
  8
GAIKEI
  6
Continuous
 62
     1
100
AcDbSpline
210
0.0
220
0.0
230
1.0
 70
     8
 71
     3
 72
    15
 73
    11
 74
     9
 42
0.0000000001
 43
0.0000000001
 44
0.000001
 12
-0.1364008987339492
 22
0.9906537209462097
 32
0.0
 13
-0.1677708966327061
 23
0.9858260121558256
 33
0.0
 40
0.0
 40
0.0
 40
0.0
 40
0.0
 40
0.0088099548289516
 40
0.0175208478463952
 40
0.0261353685926574
 40
0.0346546660583881
 40
0.0430781984095443
 40
0.0513553481857598
 40
0.0593952990170794
 40
0.0671960523423756
 40
0.0671960523423756
 40
0.0671960523423756
 40
0.0671960523423756
 10
27.57675397787171
 20
21.8076661266351
 30
0.0
 10
27.57635341595287
 20
21.81057533147933
 30
0.0
 10
27.57552568047226
 20
21.8163567898536
 30
0.0
 10
27.57420266298985
 20
21.8249676700072
 30
0.0
 10
27.57281401981055
 20
21.83347003162035
 30
0.0
 10
27.57137535883865
 20
21.84186685841664
 30
0.0
 10
27.56990861619215
 20
21.85014460167503
 30
0.0
 10
27.56844827181374
 20
21.85826114343488
 30
0.0
 10
27.5670267022987
 20
21.86617377327151
 30
0.0
 10
27.56613037186586
 20
21.87137741950718
 30
0.0
 10
27.56569412540591
 20
21.87394081468801
 30
0.0
 11
27.57675397787171
 21
21.8076661266351
 31
0.0
 11
27.57550701121739
 21
21.81638745273994
 31
0.0
 11
27.57418514809188
 21
21.82499746905756
 31
0.0
 11
27.57279878822334
 21
21.83349970310786
 31
0.0
 11
27.57136295058979
 21
21.84189713060437
 31
0.0
 11
27.5698973925409
 21
21.85019219017778
 31
0.0
 11
27.56843560001471
 21
21.85833923650017
 31
0.0
 11
27.56702319953934
 21
21.86625418698247
 31
0.0
 11
27.56569412540591
 21
21.87394081468801
 31
0.0
  0
SPLINE
  5
7A
330
2
100
AcDbEntity
  8
GAIKEI
  6
Continuous
 62
     1
100
AcDbSpline
210
0.0
220
0.0
230
1.0
 70
     8
 71
     3
 72
    15
 73
    11
 74
     9
 42
0.0000000001
 43
0.0000000001
 44
0.000001
 12
-0.1327902774087838
 22
0.9911441581453722
 32
0.0
 13
-0.9785329879817496
 23
0.2060902506949534
 33
0.0
 40
0.0
 40
0.0
 40
0.0
 40
0.0
 40
0.0257301444274651
 40
0.0508393460162794
 40
0.0759402904363073
 40
0.1016467932429376
 40
0.1273459535906403
 40
0.1524442556002645
 40
0.177556234342048
 40
0.2032949066242748
 40
0.2032949066242748
 40
0.2032949066242748
 40
0.2032949066242748
 10
27.78281330797785
 20
22.06022383263846
 30
0.0
 10
27.78167440363907
 20
22.06872459341763
 30
0.0
 10
27.77812609614324
 20
22.08537483396221
 30
0.0
 10
27.76913099467634
 20
22.10914024008352
 30
0.0
 10
27.75645574715898
 20
22.13116917817754
 30
0.0
 10
27.7404169976607
 20
22.15111364077211
 30
0.0
 10
27.7217245084185
 20
22.16859437422036
 30
0.0
 10
27.70070110404589
 20
22.18287165916004
 30
0.0
 10
27.67766722834156
 20
22.19360913479369
 30
0.0
 10
27.66132320946571
 20
22.19838646770617
 30
0.0
 10
27.6529278295007
 20
22.20015463084724
 30
0.0
 11
27.78281330797785
 21
22.06022383263846
 31
0.0
 11
27.77744994462807
 21
22.08538923531182
 31
0.0
 11
27.76852163648562
 21
22.10885745853554
 31
0.0
 11
27.75602838355065
 21
22.13062850230958
 31
0.0
 11
27.73997018582293
 21
22.15070236663394
 31
0.0
 11
27.72115429830677
 21
22.16820695714688
 31
0.0
 11
27.70037527641432
 21
22.18228386468672
 31
0.0
 11
27.67763312014563
 21
22.19293308925353
 31
0.0
 11
27.6529278295007
 21
22.20015463084724
 31
0.0
  0
SPLINE
  5
7B
330
2
100
AcDbEntity
  8
GAIKEI
  6
Continuous
 62
     1
100
AcDbSpline
210
0.0
220
0.0
230
1.0
 70
     8
 71
     3
 72
     9
 73
     5
 74
     3
 42
0.0000000001
 43
0.0000000001
 44
0.000001
 12
-0.0000205301984769
 22
0.9999999997892555
 32
0.0
 13
-0.1362218791775721
 23
0.990678353267765
 33
0.0
 40
0.0
 40
0.0
 40
0.0
 40
0.0
 40
0.063616001014118
 40
0.1272320020216128
 40
0.1272320020216128
 40
0.1272320020216128
 40
0.1272320020216128
 10
27.9927861440699
 20
20.46969378084427
 30
0.0
 10
27.99278570872019
 20
20.49089911451117
 30
0.0
 10
27.99133874287384
 20
20.53332229263984
 30
0.0
 10
27.98699238868693
 20
20.5755470360728
 30
0.0
 10
27.98410375828593
 20
20.59655470111267
 30
0.0
 11
27.9927861440699
 21
20.46969378084427
 31
0.0
 11
27.99061489345473
 21
20.53327275224859
 31
0.0
 11
27.98410375828593
 21
20.59655470111267
 31
0.0
  0
SPLINE
  5
7C
330
2
100
AcDbEntity
  8
GAIKEI
  6
Continuous
 62
     1
100
AcDbSpline
210
0.0
220
0.0
230
1.0
 70
     8
 71
     3
 72
     9
 73
     5
 74
     3
 42
0.0000000001
 43
0.0000000001
 44
0.000001
 12
0.1362218791743881
 22
0.990678353268203
 32
0.0
 13
0.0000205302016735
 23
0.9999999997892553
 33
0.0
 40
0.0
 40
0.0
 40
0.0
 40
0.0
 40
0.0636160010089791
 40
0.1272320020216058
 40
0.1272320020216058
 40
0.1272320020216058
 40
0.1272320020216058
 10
27.98410375828593
 20
20.04003552938176
 30
0.0
 10
27.98699238868693
 20
20.06104319442211
 30
0.0
 10
27.99133874287389
 20
20.10326793785511
 30
0.0
 10
27.99278570872011
 20
20.14569111598375
 30
0.0
 10
27.9927861440699
 20
20.16689644965016
 30
0.0
 11
27.98410375828593
 21
20.04003552938176
 31
0.0
 11
27.99061489345473
 21
20.10331747824734
 31
0.0
 11
27.9927861440699
 21
20.16689644965016
 31
0.0
  0
SPLINE
  5
7D
330
2
100
AcDbEntity
  8
GAIKEI
  6
Continuous
 62
     1
100
AcDbSpline
210
0.0
220
0.0
230
1.0
 70
     8
 71
     3
 72
    15
 73
    11
 74
     9
 42
0.0000000001
 43
0.0000000001
 44
0.000001
 12
0.9785263958185264
 22
0.2061215483310866
 32
0.0
 13
0.1327585762537782
 23
0.9911484048471599
 33
0.0
 40
0.0
 40
0.0
 40
0.0
 40
0.0
 40
0.0257301444278661
 40
0.0508393460167734
 40
0.0759402904366688
 40
0.1016467932427982
 40
0.127345953590442
 40
0.1524442556000162
 40
0.1775562343418478
 40
0.2032949066242228
 40
0.2032949066242228
 40
0.2032949066242228
 40
0.2032949066242228
 10
27.6529278295007
 20
18.43643559964715
 30
0.0
 10
27.66132037133099
 20
18.43820344538324
 30
0.0
 10
27.67766067548399
 20
18.4429799981641
 30
0.0
 10
27.7006914386925
 20
18.4537173313783
 30
0.0
 10
27.72171689500323
 20
18.46799550353356
 30
0.0
 10
27.74041354517021
 20
18.48547287021665
 30
0.0
 10
27.75645596150815
 20
18.50541343374894
 30
0.0
 10
27.76913047684286
 20
18.52744025961415
 30
0.0
 10
27.77812548889782
 20
18.55120878020496
 30
0.0
 10
27.78167429814889
 20
18.56786278319744
 30
0.0
 10
27.78281330797785
 20
18.57636639785596
 30
0.0
 11
27.6529278295007
 21
18.43643559964715
 31
0.0
 11
27.67762476011285
 21
18.44365534870752
 31
0.0
 11
27.70036412970387
 21
18.45430397576319
 31
0.0
 11
27.72114593827394
 21
18.46838148081417
 31
0.0
 11
27.73997018582293
 21
18.48588786386045
 31
0.0
 11
27.75602721760936
 21
18.50595325800691
 31
0.0
 11
27.7685200818973
 21
18.52772147838831
 31
0.0
 11
27.77744877868679
 21
18.55119252500466
 31
0.0
 11
27.78281330797785
 21
18.57636639785596
 31
0.0
  0
SPLINE
  5
7E
330
2
100
AcDbEntity
  8
GAIKEI
  6
Continuous
 62
     1
100
AcDbSpline
210
0.0
220
0.0
230
1.0
 70
     8
 71
     3
 72
    21
 73
    17
 74
    15
 42
0.0000000001
 43
0.0000000001
 44
0.000001
 12
0.978004482629762
 22
0.2085838727133314
 32
0.0
 13
0.1354487900196674
 23
0.9907843485250502
 33
0.0
 40
0.0
 40
0.0
 40
0.0
 40
0.0
 40
0.0199215087763172
 40
0.0395198938739145
 40
0.0588087415335798
 40
0.0777961773045899
 40
0.0964872829742974
 40
0.1148865293641492
 40
0.1329997522067994
 40
0.1508345262551679
 40
0.174183934516597
 40
0.1970597141137968
 40
0.2194690949709245
 40
0.2414165726700155
 40
0.2629089085026607
 40
0.2839580335681903
 40
0.2839580335681903
 40
0.2839580335681903
 40
0.2839580335681903
 10
27.66674200362081
 20
18.37196945375308
 30
0.0
 10
27.67323644524882
 20
18.37335455557003
 30
0.0
 10
27.686008866317
 20
18.37665873353165
 30
0.0
 10
27.70451478893526
 20
18.38319194866871
 30
0.0
 10
27.72212794662397
 20
18.39111630600705
 30
0.0
 10
27.73876931078471
 20
18.40030533766134
 30
0.0
 10
27.75437157775653
 20
18.41063623094209
 30
0.0
 10
27.76887424825801
 20
18.42199317060581
 30
0.0
 10
27.78222619783787
 20
18.43426508323173
 30
0.0
 10
27.79569034743926
 20
18.44876221382232
 30
0.0
 10
27.80877102153457
 20
18.4656887807416
 30
0.0
 10
27.82090997942842
 20
18.48512357204552
 30
0.0
 10
27.83090662012566
 20
18.50521956172892
 30
0.0
 10
27.83879388332002
 20
18.52573797017528
 30
0.0
 10
27.84461797947782
 20
18.54646104090153
 30
0.0
 10
27.84717781580281
 20
18.56043228504309
 30
0.0
 10
27.84812817530986
 20
18.56738399959812
 30
0.0
 11
27.66674200362081
 21
18.37196945375308
 31
0.0
 11
27.68602854273388
 21
18.37696104490541
 31
0.0
 11
27.70451069906779
 21
18.38348075563584
 31
0.0
 11
27.72210167762683
 21
18.39139385623747
 31
0.0
 11
27.73872362591385
 21
18.40057174701729
 31
0.0
 11
27.75430737526546
 21
18.41089184487691
 31
0.0
 11
27.76879217494059
 21
18.42223746883781
 31
0.0
 11
27.78212541925461
 21
18.43449772391375
 31
0.0
 11
27.79426231168566
 21
18.44756583181691
 31
0.0
 11
27.80854613407758
 21
18.46603656708419
 31
0.0
 11
27.82066762588727
 21
18.48543685709518
 31
0.0
 11
27.83064876095887
 21
18.50550069487656
 31
0.0
 11
27.83852241832369
 21
18.52598721322192
 31
0.0
 11
27.84433151829575
 21
18.54667960277135
 31
0.0
 11
27.84812817530986
 21
18.56738399959812
 31
0.0
  0
SPLINE
  5
7F
330
2
100
AcDbEntity
  8
GAIKEI
  6
Continuous
 62
     1
100
AcDbSpline
210
0.0
220
0.0
230
1.0
 70
     8
 71
     3
 72
    15
 73
    11
 74
     9
 42
0.0000000001
 43
0.0000000001
 44
0.000001
 12
-0.1345307900367005
 22
0.990909413888122
 32
0.0
 13
-0.9994496190759491
 23
0.0331731657961701
 33
0.0
 40
0.0
 40
0.0
 40
0.0
 40
0.0
 40
0.0233153785982079
 40
0.0466018528890413
 40
0.0698679735041718
 40
0.0931236945380393
 40
0.1163794155718608
 40
0.1396455361869447
 40
0.1629320104776124
 40
0.1862473890756824
 40
0.1862473890756824
 40
0.1862473890756824
 40
0.1862473890756824
 10
27.56115876429613
 20
21.90691936904364
 30
0.0
 10
27.56011321886186
 20
21.9146205117574
 30
0.0
 10
27.55669610908743
 20
21.92986932419868
 30
0.0
 10
27.54764684704446
 20
21.95145410855989
 30
0.0
 10
27.53497813617827
 20
21.97111671641298
 30
0.0
 10
27.51907026244223
 20
21.98824950138264
 30
0.0
 10
27.50041010431227
 20
22.00233464483881
 30
0.0
 10
27.47956226128446
 20
22.01294038968204
 30
0.0
 10
27.45716986769094
 20
22.01975014508085
 30
0.0
 10
27.44165281207703
 20
22.02160052481207
 30
0.0
 10
27.43388529665754
 20
22.02185833978536
 30
0.0
 11
27.56115876429613
 21
21.90691936904364
 31
0.0
 11
27.55603922720445
 21
21.92966624994312
 31
0.0
 11
27.5470396927833
 21
21.95114343016678
 31
0.0
 11
27.53443587150082
 21
21.97069995157335
 31
0.0
 11
27.51861228697226
 21
21.98774237898735
 31
0.0
 11
27.50005058149594
 21
22.00175284826219
 31
0.0
 11
27.47931486793112
 21
22.01230481601243
 31
0.0
 11
27.4570345734104
 21
22.01907603201982
 31
0.0
 11
27.43388529665754
 21
22.02185833978536
 31
0.0
  0
SPLINE
  5
80
330
2
100
AcDbEntity
  8
GAIKEI
  6
Continuous
 62
     1
100
AcDbSpline
210
0.0
220
0.0
230
1.0
 70
     8
 71
     3
 72
    13
 73
     9
 74
     7
 42
0.0000000001
 43
0.0000000001
 44
0.000001
 12
0.9487139982427795
 22
-0.3161356505334366
 32
0.0
 13
0.9998801064241472
 23
0.0154845980650528
 33
0.0
 40
0.0
 40
0.0
 40
0.0
 40
0.0
 40
0.00322816300206
 40
0.0096478713637194
 40
0.0129156519903947
 40
0.0162409066154065
 40
0.019636864897581
 40
0.023115804828552
 40
0.023115804828552
 40
0.023115804828552
 40
0.023115804828552
 10
26.74722437523985
 20
18.59469408883572
 30
0.0
 10
26.74824524304941
 20
18.59435390969882
 30
0.0
 10
26.75132510179856
 20
18.59342243103325
 30
0.0
 10
26.75554789402526
 20
18.59253438717418
 30
0.0
 10
26.7598490671906
 20
18.59196521355213
 30
0.0
 10
26.76316803077393
 20
18.59168316547676
 30
0.0
 10
26.76656590430122
 20
18.59154041369159
 30
0.0
 10
26.7688581825081
 20
18.59153116638585
 30
0.0
 10
26.77001769011758
 20
18.59154912304802
 30
0.0
 11
26.74722437523985
 21
18.59469408883572
 31
0.0
 11
26.75031485096543
 21
18.59375961179702
 31
0.0
 11
26.7565943085184
 21
18.59242333091365
 31
0.0
 11
26.75983363076301
 21
18.5919921932842
 31
0.0
 11
26.76314687295849
 21
18.59170820546328
 31
0.0
 11
26.76653967833363
 21
18.59156322840113
 31
0.0
 11
26.77001769011758
 21
18.59154912304802
 31
0.0
  0
SPLINE
  5
81
330
2
100
AcDbEntity
  8
GAIKEI
  6
Continuous
 62
     1
100
AcDbSpline
210
0.0
220
0.0
230
1.0
 70
     8
 71
     3
 72
    27
 73
    23
 74
    21
 42
0.0000000001
 43
0.0000000001
 44
0.000001
 12
-0.9535249561077124
 22
0.3013140522441413
 32
0.0
 13
-0.0768695003212578
 23
0.9970411626008027
 33
0.0
 40
0.0
 40
0.0
 40
0.0
 40
0.0
 40
0.0058739979649093
 40
0.0124236204270886
 40
0.0197818398251332
 40
0.0278973743687763
 40
0.0358503791856258
 40
0.0433983327956397
 40
0.0464908188593941
 40
0.0498285563935335
 40
0.0535042922793334
 40
0.0575234463291987
 40
0.0618893905706946
 40
0.066480365839282
 40
0.0707679492522824
 40
0.074210319982668
 40
0.0773515146809725
 40
0.0801844570514453
 40
0.0827251027315997
 40
0.0852229030852224
 40
0.087745240901918
 40
0.0928258952680474
 40
0.0928258952680474
 40
0.0928258952680474
 40
0.0928258952680474
 10
26.74742674460202
 20
18.59462679216568
 30
0.0
 10
26.7455597433848
 20
18.59521676487557
 30
0.0
 10
26.74167643380369
 20
18.59667853439487
 30
0.0
 10
26.73577670309987
 20
18.59966182059963
 30
0.0
 10
26.72974962427688
 20
18.60390117718975
 30
0.0
 10
26.72403326190817
 20
18.60925215047244
 30
0.0
 10
26.71890706746649
 20
18.61524399393286
 30
0.0
 10
26.71534669077545
 20
18.62032804228528
 30
0.0
 10
26.71289883799551
 20
18.62429292478372
 30
0.0
 10
26.71118837067075
 20
18.62719534716544
 30
0.0
 10
26.70939609288206
 20
18.63040696705406
 30
0.0
 10
26.70752101515609
 20
18.63396371922772
 30
0.0
 10
26.70559912167323
 20
18.63783879814369
 30
0.0
 10
26.70372891625039
 20
18.64183958914071
 30
0.0
 10
26.70222383837668
 20
18.64566416215983
 30
0.0
 10
26.70109834942989
 20
18.64911054207533
 30
0.0
 10
26.70029528913662
 20
18.65214675278231
 30
0.0
 10
26.69972580717291
 20
18.65492868089279
 30
0.0
 10
26.69933859537815
 20
18.65752526397421
 30
0.0
 10
26.69912054313454
 20
18.66003733634295
 30
0.0
 10
26.69896153165672
 20
18.66340062725841
 30
0.0
 10
26.69877384443208
 20
18.66592834957322
 30
0.0
 10
26.69864366197794
 20
18.66761689008521
 30
0.0
 11
26.74742674460202
 21
18.59462679216568
 31
0.0
 11
26.74192649121233
 21
18.59669145039234
 31
0.0
 11
26.73609278291826
 21
18.59966894547637
 31
0.0
 11
26.73006007352501
 21
18.60388190018926
 31
0.0
 11
26.72410380094243
 21
18.60939394458262
 31
0.0
 11
26.718923428837
 21
18.61542821594742
 31
0.0
 11
26.71458122960491
 21
18.62160200626511
 31
0.0
 11
26.712950626208
 21
18.62422963440784
 31
0.0
 11
26.71125651767318
 21
18.6271054644661
 31
0.0
 11
26.70946426747969
 21
18.63031466030378
 31
0.0
 11
26.70758914483065
 21
18.63386963846614
 31
0.0
 11
26.70564695043589
 21
18.63777989653872
 31
0.0
 11
26.70373066684658
 21
18.64195181104065
 31
0.0
 11
26.7021639958212
 21
18.64594269495228
 31
0.0
 11
26.7010990474111
 21
18.64921602543089
 31
0.0
 11
26.70029840297093
 21
18.65225336609691
 31
0.0
 11
26.69973168109323
 21
18.655028985407
 31
0.0
 11
26.69936156341078
 21
18.65754249752325
 31
0.0
 11
26.69913652947093
 21
18.66003013204369
 31
0.0
 11
26.69899332385336
 21
18.66254841251793
 31
0.0
 11
26.69864366197794
 21
18.66761689008521
 31
0.0
  0
SPLINE
  5
82
330
2
100
AcDbEntity
  8
GAIKEI
  6
Continuous
 62
     1
100
AcDbSpline
210
0.0
220
0.0
230
1.0
 70
     8
 71
     3
 72
     9
 73
     5
 74
     3
 42
0.0000000001
 43
0.0000000001
 44
0.000001
 12
0.0037801567420873
 22
-0.9999928551819785
 32
0.0
 13
0.1113488517851972
 23
-0.993781380991875
 33
0.0
 40
0.0
 40
0.0
 40
0.0
 40
0.0
 40
0.0089265387507941
 40
0.0103706013120631
 40
0.0103706013120631
 40
0.0103706013120631
 40
0.0103706013120631
 10
26.69806737871051
 20
18.67777996813177
 30
0.0
 10
26.69807862661571
 20
18.67480447647433
 30
0.0
 10
26.69825194616809
 20
18.6713448170556
 30
0.0
 10
26.69861093803564
 20
18.66790674468552
 30
0.0
 10
26.69866453627168
 20
18.66742838385673
 30
0.0
 11
26.69806737871051
 21
18.67777996813177
 31
0.0
 11
26.69851453592225
 21
18.6688644799257
 31
0.0
 11
26.69866453627168
 21
18.66742838385673
 31
0.0
  0
SPLINE
  5
83
330
2
100
AcDbEntity
  8
GAIKEI
  6
Continuous
 62
     1
100
AcDbSpline
210
0.0
220
0.0
230
1.0
 70
     8
 71
     3
 72
     9
 73
     5
 74
     3
 42
0.0000000001
 43
0.0000000001
 44
0.000001
 12
-0.1110702931717985
 22
-0.9938125527355401
 32
0.0
 13
-0.0037416002969241
 23
-0.9999930001891105
 33
0.0
 40
0.0
 40
0.0
 40
0.0
 40
0.0
 40
0.0014819459234957
 40
0.0103546008421527
 40
0.0103546008421527
 40
0.0103546008421527
 40
0.0103546008421527
 10
26.69866197538431
 20
21.96914593640398
 30
0.0
 10
26.69860710866158
 20
21.96865501091689
 30
0.0
 10
26.69825029100215
 20
21.96522206973532
 30
0.0
 10
26.69807844468659
 20
21.9617677932999
 30
0.0
 10
26.69806737871051
 20
21.95881026236265
 30
0.0
 11
26.69866197538431
 21
21.96914593640398
 31
0.0
 11
26.69850873522091
 21
21.96767209400633
 31
0.0
 11
26.69806737871051
 21
21.95881026236265
 31
0.0
  0
SPLINE
  5
84
330
2
100
AcDbEntity
  8
GAIKEI
  6
Continuous
 62
     1
100
AcDbSpline
210
0.0
220
0.0
230
1.0
 70
     8
 71
     3
 72
    27
 73
    23
 74
    21
 42
0.0000000001
 43
0.0000000001
 44
0.000001
 12
0.076512265488583
 22
0.9970686401797044
 32
0.0
 13
0.9552657900996008
 23
0.2957486606316001
 33
0.0
 40
0.0
 40
0.0
 40
0.0
 40
0.0
 40
0.0049081096672613
 40
0.0071949186294767
 40
0.0093538447207483
 40
0.0140218595452991
 40
0.0168863887855699
 40
0.0201057702735778
 40
0.0249374265708986
 40
0.0303592006904417
 40
0.0363136033730588
 40
0.0449355480795138
 40
0.0526210573927009
 40
0.0587210726899715
 40
0.0641083993651827
 40
0.0689597463310068
 40
0.0735065916914116
 40
0.0777817551463168
 40
0.0817588340345096
 40
0.0856007268680729
 40
0.0893264960170779
 40
0.0929602759868131
 40
0.0929602759868131
 40
0.0929602759868131
 40
0.0929602759868131
 10
26.69864367535558
 20
21.96898041785903
 30
0.0
 10
26.69876885221888
 20
21.97061165860296
 30
0.0
 10
26.69893958672858
 20
21.97300448414791
 30
0.0
 10
26.69905253458705
 20
21.97612058628728
 30
0.0
 10
26.69929919687897
 20
21.97915025567367
 30
0.0
 10
26.69986766299885
 20
21.98233657530238
 30
0.0
 10
26.70066702335083
 20
21.98583026465151
 30
0.0
 10
26.70163557407014
 20
21.98933902285313
 30
0.0
 10
26.70305539350119
 20
21.99360237991277
 30
0.0
 10
26.70508229143576
 20
21.9986150194728
 30
0.0
 10
26.70800733026661
 20
22.00460965885179
 30
0.0
 10
26.71168067133215
 20
22.01106495695583
 30
0.0
 10
26.71582443552424
 20
22.01728670735599
 30
0.0
 10
26.71972388581372
 20
22.02235586733416
 30
0.0
 10
26.72331909168372
 20
22.026451409591
 30
0.0
 10
26.72679470621785
 20
22.02995073388465
 30
0.0
 10
26.73023268608694
 20
22.03294924171449
 30
0.0
 10
26.73363628458515
 20
22.03552615321166
 30
0.0
 10
26.7370162769094
 20
22.03773346498164
 30
0.0
 10
26.74045934739223
 20
22.03947174024867
 30
0.0
 10
26.74394678647167
 20
22.04081306856332
 30
0.0
 10
26.74626870699706
 20
22.04160681084836
 30
0.0
 10
26.74742578222833
 20
22.04196503936805
 30
0.0
 11
26.69864367535558
 21
21.96898041785903
 31
0.0
 11
26.6989617691728
 21
21.973878092847
 31
0.0
 11
26.69907071214812
 21
21.97616231371359
 31
0.0
 11
26.69925185859984
 21
21.97831361728117
 31
0.0
 11
26.700017844944
 21
21.98291827514515
 31
0.0
 11
26.70065906685926
 21
21.98571003722347
 31
0.0
 11
26.70151300877973
 21
21.98881399375711
 31
0.0
 11
26.7030371536938
 21
21.99339877952056
 31
0.0
 11
26.70506986245618
 21
21.99842493015404
 31
0.0
 11
26.70766241996671
 21
22.00378527989733
 31
0.0
 11
26.71192591308409
 21
22.0112793980436
 31
0.0
 11
26.71619666544996
 21
22.01766907876248
 31
0.0
 11
26.71992271017519
 21
22.02249883468216
 31
0.0
 11
26.72347946269184
 21
22.02654510904742
 31
0.0
 11
26.72690698192281
 21
22.02997832866038
 31
0.0
 11
26.73033445965393
 21
22.03296586050055
 31
0.0
 11
26.73374473339658
 21
22.03554391285621
 31
0.0
 11
26.7370910280099
 21
22.03769368276573
 31
0.0
 11
26.74051869114874
 21
22.03942964786188
 31
0.0
 11
26.74398242970153
 21
22.0408021898931
 31
0.0
 11
26.74742578222833
 21
22.04196503936805
 31
0.0
  0
SPLINE
  5
85
330
2
100
AcDbEntity
  8
GAIKEI
  6
Continuous
 62
     1
100
AcDbSpline
210
0.0
220
0.0
230
1.0
 70
     8
 71
     3
 72
    13
 73
     9
 74
     7
 42
0.0000000001
 43
0.0000000001
 44
0.000001
 12
-0.999877353382941
 22
0.0156613598364006
 32
0.0
 13
-0.9488110788832816
 23
-0.3158441650376698
 33
0.0
 40
0.0
 40
0.0
 40
0.0
 40
0.0
 40
0.0035193495400885
 40
0.0069366593676421
 40
0.0102686576436301
 40
0.0135328649839161
 40
0.0199316755031191
 40
0.0230409896072655
 40
0.0230409896072655
 40
0.0230409896072655
 40
0.0230409896072655
 10
26.77001769011758
 20
22.04504110744637
 30
0.0
 10
26.76884471748301
 20
22.04505948004621
 30
0.0
 10
26.76653184603123
 20
22.04505027652806
 30
0.0
 10
26.76311111858237
 20
22.04490736362314
 30
0.0
 10
26.75978401168663
 20
22.04462432289574
 30
0.0
 10
26.75548897568226
 20
22.04405349394779
 30
0.0
 10
26.75131428385609
 20
22.04316875275731
 30
0.0
 10
26.74827963272387
 20
22.04224930150016
 30
0.0
 10
26.74729624883395
 20
22.04192194859448
 30
0.0
 11
26.77001769011758
 21
22.04504110744637
 31
0.0
 11
26.76649929425293
 21
22.04502728725856
 31
0.0
 11
26.76308506095415
 21
22.04488184112179
 31
0.0
 11
26.75976512423927
 21
22.04459676600385
 31
0.0
 11
26.75652961812602
 21
22.04416405887252
 31
0.0
 11
26.75027243377656
 21
22.04282373644054
 31
0.0
 11
26.74729624883395
 21
22.04192194859448
 31
0.0
  0
SPLINE
  5
86
330
2
100
AcDbEntity
  8
GAIKEI
  6
Continuous
 62
     1
100
AcDbSpline
210
0.0
220
0.0
230
1.0
 70
     8
 71
     3
 72
    15
 73
    11
 74
     9
 42
0.0000000001
 43
0.0000000001
 44
0.000001
 12
0.9994496190759601
 22
0.0331731657958403
 32
0.0
 13
0.134530790036436
 23
0.9909094138881577
 33
0.0
 40
0.0
 40
0.0
 40
0.0
 40
0.0
 40
0.0233153785981862
 40
0.0466018528889248
 40
0.069867973504098
 40
0.0931236945379368
 40
0.1163794155718251
 40
0.1396455361868939
 40
0.1629320104776048
 40
0.1862473890757017
 40
0.1862473890757017
 40
0.1862473890757017
 40
0.1862473890757017
 10
27.43388529665754
 20
18.61473189070904
 30
0.0
 10
27.44165281207705
 20
18.61498970568232
 30
0.0
 10
27.45716986769108
 20
18.61684008541356
 30
0.0
 10
27.4795622612846
 20
18.62364984081246
 30
0.0
 10
27.50041010431244
 20
18.63425558565573
 30
0.0
 10
27.51907026244243
 20
18.64834072911195
 30
0.0
 10
27.5349781361785
 20
18.66547351408161
 30
0.0
 10
27.54764684704452
 20
18.6851361219347
 30
0.0
 10
27.55669610908737
 20
18.70672090629588
 30
0.0
 10
27.56011321886186
 20
18.72196971873704
 30
0.0
 10
27.56115876429613
 20
18.72967086145078
 30
0.0
 11
27.43388529665754
 21
18.61473189070904
 31
0.0
 11
27.45703457341051
 21
18.61751419847459
 31
0.0
 11
27.4793148679313
 21
18.62428541448204
 31
0.0
 11
27.50005058149617
 21
18.63483738223237
 31
0.0
 11
27.51861228697249
 21
18.64884785150724
 31
0.0
 11
27.53443587150105
 21
18.66589027892127
 31
0.0
 11
27.54703969278342
 21
18.68544680032784
 31
0.0
 11
27.55603922720445
 21
18.70692398055141
 31
0.0
 11
27.56115876429613
 21
18.72967086145078
 31
0.0
  0
SPLINE
  5
87
330
2
100
AcDbEntity
  8
GAIKEI
  6
Continuous
 62
     1
100
AcDbSpline
210
0.0
220
0.0
230
1.0
 70
     8
 71
     3
 72
    11
 73
     7
 74
     5
 42
0.0000000001
 43
0.0000000001
 44
0.000001
 12
0.1117045080192779
 22
-0.9937414668253364
 32
0.0
 13
0.1717596663978053
 23
-0.98513888208664
 33
0.0
 40
0.0
 40
0.0
 40
0.0
 40
0.0
 40
0.0001599086223848
 40
0.0092970523466174
 40
0.017285657148034
 40
0.022356277475746
 40
0.022356277475746
 40
0.022356277475746
 40
0.022356277475746
 10
26.69911982967892
 20
18.66814860297438
 30
0.0
 10
26.69912578385027
 20
18.66809563369806
 30
0.0
 10
26.69947197450134
 20
18.66501601284525
 30
0.0
 10
26.70013989759357
 20
18.65929303820086
 30
0.0
 10
26.70109835769745
 20
18.65195555338098
 30
0.0
 10
26.70180284567661
 20
18.64765930828705
 30
0.0
 10
26.70209315502859
 20
18.64599421987333
 30
0.0
 11
26.69911982967892
 21
18.66814860297438
 31
0.0
 11
26.69913770661526
 21
18.66798969757531
 31
0.0
 11
26.70020737160553
 21
18.65891555224803
 31
0.0
 11
26.70127596532586
 21
18.65099866535627
 31
0.0
 11
26.70209315502859
 21
18.64599421987333
 31
0.0
  0
SPLINE
  5
88
330
2
100
AcDbEntity
  8
GAIKEI
  6
Continuous
 62
     1
100
AcDbSpline
210
0.0
220
0.0
230
1.0
 70
     8
 71
     3
 72
    29
 73
    25
 74
    23
 42
0.0000000001
 43
0.0000000001
 44
0.000001
 12
-0.7526510322232209
 22
0.6584196410294276
 32
0.0
 13
-0.2875771477137425
 23
0.9577574766676731
 33
0.0
 40
0.0
 40
0.0
 40
0.0
 40
0.0
 40
0.0006178609696637
 40
0.0025238280918891
 40
0.0057516774460452
 40
0.0103542765095698
 40
0.0162722171497625
 40
0.023486723210082
 40
0.0319681323428898
 40
0.0417098918669663
 40
0.052699151323447
 40
0.0647415419929913
 40
0.0778782946105572
 40
0.0920789904186662
 40
0.1103097290039202
 40
0.1297009403755263
 40
0.150208603398184
 40
0.1717154207143003
 40
0.19400211479805
 40
0.2166743733353054
 40
0.2399436692024417
 40
0.2637847006266159
 40
0.2881156005156564
 40
0.3127859900064717
 40
0.3127859900064717
 40
0.3127859900064717
 40
0.3127859900064717
 10
27.82564276205392
 20
2.34779350496845
 30
0.0
 10
27.82548775082171
 20
2.34792910890107
 30
0.0
 10
27.82487915873605
 20
2.348525590820983
 30
0.0
 10
27.82427922174222
 20
2.350409333157188
 30
0.0
 10
27.82299779805752
 20
2.353358306221949
 30
0.0
 10
27.82147614824967
 20
2.357698715043866
 30
0.0
 10
27.81950931149714
 20
2.363266793190533
 30
0.0
 10
27.81720031012847
 20
2.37009402864075
 30
0.0
 10
27.8145226600206
 20
2.378138511266001
 30
0.0
 10
27.81149377759846
 20
2.387393259572107
 30
0.0
 10
27.80813236513569
 20
2.397787650328965
 30
0.0
 10
27.8044567078247
 20
2.409269851465381
 30
0.0
 10
27.80048474028158
 20
2.421781106165084
 30
0.0
 10
27.79591837983247
 20
2.436267874337815
 30
0.0
 10
27.79075760108472
 20
2.452753178143041
 30
0.0
 10
27.78500220876419
 20
2.471255232863043
 30
0.0
 10
27.77895339086649
 20
2.490809624152674
 30
0.0
 10
27.77264822657574
 20
2.511294978353674
 30
0.0
 10
27.76615781625571
 20
2.532478231512499
 30
0.0
 10
27.75952057391879
 20
2.554230929714478
 30
0.0
 10
27.75275593997242
 20
2.576486437446803
 30
0.0
 10
27.74585372583607
 20
2.599277969681423
 30
0.0
 10
27.73883802350585
 20
2.622523099898756
 30
0.0
 10
27.73413469467951
 20
2.63816505018407
 30
0.0
 10
27.73176981459858
 20
2.646041133513108
 30
0.0
 11
27.82564276205392
 21
2.34779350496845
 31
0.0
 11
27.82521115075701
 21
2.348235680631688
 31
0.0
 11
27.82439857262523
 21
2.349959583639019
 31
0.0
 11
27.82320739074265
 21
2.352959572737233
 31
0.0
 11
27.82162209424098
 21
2.35728052598165
 31
0.0
 11
27.81966477907417
 21
2.362865402792834
 31
0.0
 11
27.81734166982568
 21
2.369695643504286
 31
0.0
 11
27.81466238349612
 21
2.377742733953255
 31
0.0
 11
27.81162907484429
 21
2.387000210127581
 31
0.0
 11
27.80824613054017
 21
2.397455805085712
 31
0.0
 11
27.80457314745638
 21
2.408924385185883
 31
0.0
 11
27.80059700733364
 21
2.421444950069371
 31
0.0
 11
27.79632693737005
 21
2.434988444217992
 31
0.0
 11
27.79087908349095
 21
2.452386164749441
 31
0.0
 11
27.78511832689878
 21
2.470901907494408
 31
0.0
 11
27.77905713936798
 21
2.490493390846665
 31
0.0
 11
27.77272982158149
 21
2.511048395486682
 31
0.0
 11
27.7662003908361
 21
2.532357155316901
 31
0.0
 11
27.75958330373851
 21
2.554042298773197
 31
0.0
 11
27.75281592862962
 21
2.576305783393564
 31
0.0
 11
27.74590542973965
 21
2.59912331544649
 31
0.0
 11
27.73887553725285
 21
2.622416518011192
 31
0.0
 11
27.73176981459858
 21
2.646041133513108
 31
0.0
  0
SPLINE
  5
89
330
2
100
AcDbEntity
  8
GAIKEI
  6
Continuous
 62
     1
100
AcDbSpline
210
0.0
220
0.0
230
1.0
 70
     8
 71
     3
 72
    28
 73
    24
 74
    22
 42
0.0000000001
 43
0.0000000001
 44
0.000001
 12
0.7217480328339719
 22
0.6921558907502644
 32
0.0
 13
0.9952109123015889
 23
0.097750908107491
 33
0.0
 40
0.0
 40
0.0
 40
0.0
 40
0.0
 40
0.0085574556742827
 40
0.0157612278669675
 40
0.0214927938015424
 40
0.0271056634999198
 40
0.0329787390916014
 40
0.043338975641578
 40
0.0541633007318222
 40
0.0646559634914151
 40
0.0722886488914762
 40
0.0796562109045474
 40
0.0829521424257727
 40
0.0858598682483322
 40
0.0883836539143856
 40
0.0905234199420148
 40
0.091447642348206
 40
0.0930940134124226
 40
0.0950313810153329
 40
0.0987440020350078
 40
0.102523581500969
 40
0.1066919450467036
 40
0.1110672556985158
 40
0.1110672556985158
 40
0.1110672556985158
 40
0.1110672556985158
 10
27.00329180471596
 20
-0.1048389250811681
 30
0.0
 10
27.00535058031562
 20
-0.1028645606295697
 30
0.0
 10
27.00923491397111
 20
-0.0993237130852265
 30
0.0
 10
27.01472944301719
 20
-0.094722733654038
 30
0.0
 10
27.01964452322554
 20
-0.0909693836567698
 30
0.0
 10
27.02432541069283
 20
-0.0876467882732328
 30
0.0
 10
27.03040580205917
 20
-0.0836372667056935
 30
0.0
 10
27.03817437139779
 20
-0.0790425940752755
 30
0.0
 10
27.04759288317467
 20
-0.074254232995628
 30
0.0
 10
27.05644453133985
 20
-0.0703967832983779
 30
0.0
 10
27.06439661509484
 20
-0.0673957459367927
 30
0.0
 10
27.07018068536092
 20
-0.0654556601454885
 30
0.0
 10
27.07451946204182
 20
-0.0641736997335158
 30
0.0
 10
27.07733017369804
 20
-0.0634221050548263
 30
0.0
 10
27.07978354719808
 20
-0.0628292554298753
 30
0.0
 10
27.08160381611376
 20
-0.0624336615820198
 30
0.0
 10
27.08314364029192
 20
-0.0621265225019556
 30
0.0
 10
27.08462223247622
 20
-0.0618583147664111
 30
0.0
 10
27.08701852754774
 20
-0.0614423923791065
 30
0.0
 10
27.09012227173327
 20
-0.0609449783944882
 30
0.0
 10
27.09396929528006
 20
-0.0603889515077469
 30
0.0
 10
27.09804416764965
 20
-0.0598686147329346
 30
0.0
 10
27.10087566092693
 20
-0.0595613505727926
 30
0.0
 10
27.10232711322874
 20
-0.0594187870429721
 30
0.0
 11
27.00329180471596
 21
-0.1048389250811681
 31
0.0
 11
27.00961076161633
 21
-0.0990679106597554
 31
0.0
 11
27.0151427917794
 21
-0.0944537079121233
 31
0.0
 11
27.01969543923985
 21
-0.0909716331870811
 31
0.0
 11
27.02427198160644
 21
-0.0877219900807234
 31
0.0
 11
27.0291752082486
 21
-0.0844890414189195
 31
0.0
 11
27.03809260421241
 21
-0.0792149320463409
 31
0.0
 11
27.04773762668282
 21
-0.074301585544788
 31
0.0
 11
27.05735629392973
 21
-0.0701090298832696
 31
0.0
 11
27.064495427152
 21
-0.067408930933965
 31
0.0
 11
27.07148582232867
 21
-0.0650818635168378
 31
0.0
 11
27.07464747440492
 21
-0.0641506619476218
 31
0.0
 11
27.0774567006668
 21
-0.0634002294830793
 31
0.0
 11
27.07991013375852
 21
-0.0628084583277655
 31
0.0
 11
27.08200130177488
 21
-0.0623549801935042
 31
0.0
 11
27.0829077390606
 21
-0.062174525973262
 31
0.0
 11
27.08452692171289
 21
-0.0618765310508138
 31
0.0
 11
27.08643579235604
 21
-0.0615454318157163
 31
0.0
 11
27.0901014701335
 21
-0.060956845831015
 31
0.0
 11
27.09384220796528
 21
-0.0604163183788842
 31
0.0
 11
27.09797710470429
 21
-0.0598890960356471
 31
0.0
 11
27.10232711322874
 21
-0.0594187870429721
 31
0.0
  0
SPLINE
  5
8A
330
2
100
AcDbEntity
  8
GAIKEI
  6
Continuous
 62
     1
100
AcDbSpline
210
0.0
220
0.0
230
1.0
 70
     8
 71
     3
 72
    41
 73
    37
 74
    35
 42
0.0000000001
 43
0.0000000001
 44
0.000001
 12
0.0064747712617763
 22
0.9999790384488605
 32
0.0
 13
0.7486451432179164
 23
0.6629709266146034
 33
0.0
 40
0.0
 40
0.0
 40
0.0
 40
0.0
 40
0.00487972202932
 40
0.0095408573170909
 40
0.0141412567217166
 40
0.016448724682259
 40
0.0187692787785228
 40
0.0223290693966917
 40
0.0263636850181144
 40
0.0309350675743356
 40
0.037016649281269
 40
0.0438225559119305
 40
0.0592497184656935
 40
0.0737747348064682
 40
0.0806057129628015
 40
0.0867323678927906
 40
0.0921021930536216
 40
0.0967157812166358
 40
0.1005724437415775
 40
0.1036696750115144
 40
0.1061043465926222
 40
0.108508306879094
 40
0.1109974520350473
 40
0.1135749438028627
 40
0.1162400271326736
 40
0.117603517553665
 40
0.1189706962060181
 40
0.120334125454927
 40
0.1216923397903662
 40
0.1243862356734612
 40
0.1270369830950345
 40
0.1296268378283651
 40
0.1321361840472184
 40
0.1345438299926708
 40
0.1368271714864079
 40
0.1389621751957739
 40
0.1389621751957739
 40
0.1389621751957739
 40
0.1389621751957739
 10
28.12430365287747
 20
2.522867130577139
 30
0.0
 10
28.12431418457212
 20
2.524493670491395
 30
0.0
 10
28.1243676353285
 20
2.527673590735645
 30
0.0
 10
28.12449673696119
 20
2.532385932685059
 30
0.0
 10
28.1247377671063
 20
2.536235852995758
 30
0.0
 10
28.12502289024539
 20
2.539298926425274
 30
0.0
 10
28.12533285497835
 20
2.542010774566705
 30
0.0
 10
28.12579778800495
 20
2.545283307225503
 30
0.0
 10
28.12645408742924
 20
2.549285433202896
 30
0.0
 10
28.12737200085379
 20
2.554095091393094
 30
0.0
 10
28.12864391832687
 20
2.559775433761629
 30
0.0
 10
28.13105966021021
 20
2.568901373727172
 30
0.0
 10
28.13497994271711
 20
2.580529915800198
 30
0.0
 10
28.13992611281859
 20
2.591766781408409
 30
0.0
 10
28.14414524251385
 20
2.599900573823902
 30
0.0
 10
28.14716074108054
 20
2.605215174809274
 30
0.0
 10
28.14996591841805
 20
2.609795281767034
 30
0.0
 10
28.15248808482698
 20
2.613658778122356
 30
0.0
 10
28.1546721074817
 20
2.616836806257026
 30
0.0
 10
28.15649360129612
 20
2.619381730630735
 30
0.0
 10
28.15805637215402
 20
2.62151615165618
 30
0.0
 10
28.15953680253299
 20
2.623459182068273
 30
0.0
 10
28.16108283986179
 20
2.625411504920862
 30
0.0
 10
28.1627205640537
 20
2.6274016793663
 30
0.0
 10
28.16415118543546
 20
2.629075838938021
 30
0.0
 10
28.1653379798176
 20
2.63042731852586
 30
0.0
 10
28.16624798638338
 20
2.631444347793973
 30
0.0
 10
28.16716604462119
 20
2.63245173422888
 30
0.0
 10
28.16839369583187
 20
2.633775220556898
 30
0.0
 10
28.16993397950108
 20
2.635393879614966
 30
0.0
 10
28.17178739947483
 20
2.637280808045943
 30
0.0
 10
28.17362458326574
 20
2.639097049070556
 30
0.0
 10
28.17542796059641
 20
2.640831867745362
 30
0.0
 10
28.17717845968193
 20
2.64247399885771
 30
0.0
 10
28.17885671669643
 20
2.644010479351848
 30
0.0
 10
28.1799529988034
 20
2.644994021372895
 30
0.0
 10
28.18048578552265
 20
2.645465836502069
 30
0.0
 11
28.12430365287747
 21
2.522867130577139
 31
0.0
 11
28.1243766661911
 21
2.527746373773368
 31
0.0
 11
28.12452375321186
 21
2.532405197713472
 31
0.0
 11
28.1248153725702
 21
2.536996370966562
 31
0.0
 11
28.12502950288422
 21
2.53929389717237
 31
0.0
 11
28.1252932268136
 21
2.541599433953876
 31
0.0
 11
28.12578630954386
 21
2.54512493990677
 31
0.0
 11
28.12644032583148
 21
2.549106231581617
 31
0.0
 11
28.12729696906024
 21
2.553596676468316
 31
0.0
 11
28.12862597422168
 21
2.559531326228409
 31
0.0
 11
28.13036762923497
 21
2.56611067170192
 31
0.0
 11
28.1352963123361
 21
2.580729464139182
 31
0.0
 11
28.14114808930606
 21
2.59402364416033
 31
0.0
 11
28.14429221449996
 21
2.600088059356636
 31
0.0
 11
28.14731577333498
 21
2.605416687063382
 31
0.0
 11
28.15012022809941
 21
2.609996015723481
 31
0.0
 11
28.15264174773358
 21
2.61385959766153
 31
0.0
 11
28.15482584458152
 21
2.617038221079184
 31
0.0
 11
28.15662641998171
 21
2.619558302555475
 31
0.0
 11
28.15806789853241
 21
2.621520389108042
 31
0.0
 11
28.15952463135193
 21
2.623432712506797
 31
0.0
 11
28.16106974385917
 21
2.6253842520168
 31
0.0
 11
28.16270725899278
 21
2.627374742056758
 31
0.0
 11
28.16443827800095
 21
2.629401140454973
 31
0.0
 11
28.16533799726597
 21
2.630425652060495
 31
0.0
 11
28.1662496142547
 21
2.631444545913552
 31
0.0
 11
28.16716794525331
 21
2.632452325694544
 31
0.0
 11
28.16809157920705
 21
2.633448146373098
 31
0.0
 11
28.16994830998988
 21
2.635399984935702
 31
0.0
 11
28.17180554035747
 21
2.637291333924366
 31
0.0
 11
28.17364711555888
 21
2.639112318925469
 31
0.0
 11
28.17545536079996
 21
2.640852174779638
 31
0.0
 11
28.17721135727231
 21
2.642499371649904
 31
0.0
 11
28.17889513436057
 21
2.644041629504442
 31
0.0
 11
28.18048578552265
 21
2.645465836502069
 31
0.0
  0
SPLINE
  5
8B
330
2
100
AcDbEntity
  8
GAIKEI
  6
Continuous
 62
     1
100
AcDbSpline
210
0.0
220
0.0
230
1.0
 70
     8
 71
     3
 72
    41
 73
    37
 74
    35
 42
0.0000000001
 43
0.0000000001
 44
0.000001
 12
-0.4353819225186907
 22
-0.9002458450578536
 32
0.0
 13
-0.5598877767279204
 23
-0.8285684506850756
 33
0.0
 40
0.0
 40
0.0
 40
0.0
 40
0.0
 40
0.0014188981556681
 40
0.005644891511551
 40
0.0126413138108135
 40
0.0164792481111867
 40
0.0208170576424743
 40
0.0256522187933041
 40
0.0309822866874793
 40
0.0368048965486288
 40
0.0431177647878355
 40
0.0499186898280467
 40
0.0729057058812554
 40
0.1010164645422994
 40
0.1080304895441015
 40
0.1153021852383582
 40
0.1228314347323397
 40
0.1306181176540287
 40
0.1386621104766222
 40
0.1469632867771657
 40
0.1555215174959584
 40
0.1642630739514216
 40
0.1739105775431226
 40
0.184468511455269
 40
0.1959416628115404
 40
0.2083351588239719
 40
0.2238438276836132
 40
0.2405950042822374
 40
0.2556503340562806
 40
0.2671428071198638
 40
0.2750469816947931
 40
0.2819138388210206
 40
0.296454416485539
 40
0.3382914855718762
 40
0.3781195110425613
 40
0.4161359202117536
 40
0.4161359202117536
 40
0.4161359202117536
 40
0.4161359202117536
 10
28.1242890745591
 20
2.520662667286387
 30
0.0
 10
28.12408315369015
 20
2.52023688156332
 30
0.0
 10
28.12326637310224
 20
2.518541746461892
 30
0.0
 10
28.12149893736421
 20
2.514716319529469
 30
0.0
 10
28.11944682014519
 20
2.510134677717601
 30
0.0
 10
28.11742465683591
 20
2.505499119995619
 30
0.0
 10
28.11571484785515
 20
2.501513385778125
 30
0.0
 10
28.11383667920424
 20
2.497058759453949
 30
0.0
 10
28.11179685172744
 20
2.492135276842532
 30
0.0
 10
28.10960188038658
 20
2.486743014029258
 30
0.0
 10
28.10725945180539
 20
2.480881573167494
 30
0.0
 10
28.10285734538638
 20
2.469681950320875
 30
0.0
 10
28.0961173990649
 20
2.451595521032359
 30
0.0
 10
28.08969868945474
 20
2.433318434284103
 30
0.0
 10
28.08512445358335
 20
2.41994703784529
 30
0.0
 10
28.08279272944933
 20
2.41305934749225
 30
0.0
 10
28.08039982935844
 20
2.405920498201467
 30
0.0
 10
28.07794641893762
 20
2.398530455360301
 30
0.0
 10
28.07543307371685
 20
2.390889225341709
 30
0.0
 10
28.07286035471188
 20
2.382996818570887
 30
0.0
 10
28.07023654613912
 20
2.374876531578991
 30
0.0
 10
28.06749543680314
 20
2.3663225595932
 30
0.0
 10
28.06455531484761
 20
2.357132410938518
 30
0.0
 10
28.06132865468894
 20
2.347077940300252
 30
0.0
 10
28.05780019041975
 20
2.336159022311008
 30
0.0
 10
28.05372578570212
 20
2.323682336248396
 30
0.0
 10
28.04905185471179
 20
2.309550616803946
 30
0.0
 10
28.04394153939188
 20
2.294629419431032
 30
0.0
 10
28.039134002911
 20
2.281020399825294
 30
0.0
 10
28.03521285750509
 20
2.27022649123171
 30
0.0
 10
28.03217565887923
 20
2.262015609784285
 30
0.0
 10
28.02868107261517
 20
2.252891158816268
 30
0.0
 10
28.02083821495555
 20
2.233321948758316
 30
0.0
 10
28.00777225016975
 20
2.204012390289804
 30
0.0
 10
27.98919171510872
 20
2.168673391818884
 30
0.0
 10
27.97539981942032
 20
2.146661661594052
 30
0.0
 10
27.96830484515067
 20
2.13616192917874
 30
0.0
 11
28.1242890745591
 21
2.520662667286387
 31
0.0
 11
28.12367518017567
 21
2.519383436921032
 31
0.0
 11
28.12189284112594
 21
2.51555169962657
 31
0.0
 11
28.1190308078094
 21
2.50916745540303
 31
0.0
 11
28.11749555253852
 21
2.505649971063661
 31
0.0
 11
28.1157850375165
 21
2.501663658920961
 31
0.0
 11
28.11390608777839
 21
2.497208518974986
 31
0.0
 11
28.11186547809575
 21
2.492284551225708
 31
0.0
 11
28.1096699279326
 21
2.486891755673127
 31
0.0
 11
28.10732609669305
 21
2.481030132317243
 31
0.0
 11
28.10484057925595
 21
2.474699681158057
 31
0.0
 11
28.09677637481332
 21
2.453173672700245
 31
0.0
 11
28.08742708319483
 21
2.42666328657944
 31
0.0
 11
28.08515669345638
 21
2.420026908925166
 31
0.0
 11
28.08282462750856
 21
2.413139340226649
 31
0.0
 11
28.08043146546328
 21
2.40600058048389
 31
0.0
 11
28.07797779110763
 21
2.398610629696918
 31
0.0
 11
28.07546419177283
 21
2.390969487865675
 31
0.0
 11
28.07289125820421
 21
2.383077154990189
 31
0.0
 11
28.07025958443205
 21
2.37493363107049
 31
0.0
 11
28.06758922187214
 21
2.366609966830537
 31
0.0
 11
28.06464746211191
 21
2.357421946386864
 31
0.0
 11
28.06141962040988
 21
2.34736956973947
 31
0.0
 11
28.05789012167031
 21
2.336452836888327
 31
0.0
 11
28.05404253570839
 21
2.324671747833491
 31
0.0
 11
28.04915802821592
 21
2.309952388147564
 31
0.0
 11
28.04373266027346
 21
2.294104154711419
 31
0.0
 11
28.03871561819773
 21
2.279909366690304
 31
0.0
 11
28.03479297772446
 21
2.26910705070199
 31
0.0
 11
28.03204154009904
 21
2.261697206746532
 31
0.0
 11
28.02958638329057
 21
2.255284247348555
 31
0.0
 11
28.02417992417338
 21
2.241786142740863
 31
0.0
 11
28.00708378473223
 21
2.203601537265342
 31
0.0
 11
27.98846472986071
 21
2.16839346607793
 31
0.0
 11
27.96830484515067
 21
2.13616192917874
 31
0.0
  0
SPLINE
  5
8C
330
2
100
AcDbEntity
  8
GAIKEI
  6
Continuous
 62
     1
100
AcDbSpline
210
0.0
220
0.0
230
1.0
 70
     8
 71
     3
 72
    25
 73
    21
 74
    19
 42
0.0000000001
 43
0.0000000001
 44
0.000001
 12
0.0281905901065335
 22
-0.9996025663379647
 32
0.0
 13
-0.4008655609207862
 23
-0.9161368904632446
 33
0.0
 40
0.0
 40
0.0
 40
0.0
 40
0.0
 40
0.0108642250676617
 40
0.0216568857620733
 40
0.0326063958987582
 40
0.0433262346926784
 40
0.0534690969873172
 40
0.0632547433492301
 40
0.0728733530304742
 40
0.0819780700940557
 40
0.0903746034312835
 40
0.0981541992728602
 40
0.1054556263380665
 40
0.1119952017291992
 40
0.1175898577971874
 40
0.1223753842863795
 40
0.1264164536402339
 40
0.1295339844560013
 40
0.1322586066750055
 40
0.1332252651170845
 40
0.1332252651170845
 40
0.1332252651170845
 40
0.1332252651170845
 10
25.29936049949043
 20
-0.656008799538995
 30
0.0
 10
25.29946258912901
 20
-0.6596287686252964
 30
0.0
 10
25.29962992276643
 20
-0.6668459797086399
 30
0.0
 10
25.29975333702217
 20
-0.6777142581197211
 30
0.0
 10
25.29978996169075
 20
-0.6885349459203951
 30
0.0
 10
25.29976169803172
 20
-0.699139021172698
 30
0.0
 10
25.29969799697716
 20
-0.7093549476880697
 30
0.0
 10
25.29961871076932
 20
-0.719203669011904
 30
0.0
 10
25.29954278148947
 20
-0.7287063569733335
 30
0.0
 10
25.29948276294454
 20
-0.7377461161688501
 30
0.0
 10
25.29945133322423
 20
-0.7461730288252398
 30
0.0
 10
25.29944983164336
 20
-0.7539988751771461
 30
0.0
 10
25.29948246303798
 20
-0.7612057904840129
 30
0.0
 10
25.29953961823532
 20
-0.7676838043728936
 30
0.0
 10
25.29962076766646
 20
-0.7733241080996436
 30
0.0
 10
25.29968620255545
 20
-0.7781279183759154
 30
0.0
 10
25.29978816059179
 20
-0.7821162643687672
 30
0.0
 10
25.29971827565834
 20
-0.7853903237799642
 30
0.0
 10
25.29992518566948
 20
-0.787709837526748
 30
0.0
 10
25.29948966618329
 20
-0.7888760376108337
 30
0.0
 10
25.29936049949043
 20
-0.7891712347639271
 30
0.0
 11
25.29936049949043
 21
-0.656008799538995
 31
0.0
 11
25.29960801247432
 21
-0.6668699895167265
 31
0.0
 11
25.29973752861662
 21
-0.6776618745424799
 31
0.0
 11
25.2997780814523
 21
-0.6886113094066105
 31
0.0
 11
25.29975364934319
 21
-0.6993311198653487
 31
0.0
 11
25.2996931503813
 21
-0.7094738011636821
 31
0.0
 11
25.2996173802552
 21
-0.719259153601513
 31
0.0
 11
25.299542656656
 21
-0.7288774724031271
 31
0.0
 11
25.2994848085832
 21
-0.7379820050209105
 31
0.0
 11
25.29945472516789
 21
-0.7463784836792229
 31
0.0
 11
25.29945513408899
 21
-0.7541580785212716
 31
0.0
 11
25.29948814612726
 21
-0.7614594295482391
 31
0.0
 11
25.29954795632046
 21
-0.7679987293780073
 31
0.0
 11
25.29962288893603
 21
-0.7735928805375068
 31
0.0
 11
25.29969897759225
 21
-0.7783777971806103
 31
0.0
 11
25.29975946436338
 21
-0.7824184050614918
 31
0.0
 11
25.29977684288701
 21
-0.7855358701780802
 31
0.0
 11
25.29967928434758
 21
-0.7882585996768512
 31
0.0
 11
25.29936049949043
 21
-0.7891712347639271
 31
0.0
  0
SPLINE
  5
8D
330
2
100
AcDbEntity
  8
GAIKEI
  6
Continuous
 62
     1
100
AcDbSpline
210
0.0
220
0.0
230
1.0
 70
     8
 71
     3
 72
    25
 73
    21
 74
    19
 42
0.0000000001
 43
0.0000000001
 44
0.000001
 12
0.5909511587252205
 22
-0.8067073372675615
 32
0.0
 13
-0.0272811889574892
 23
-0.999627799097777
 33
0.0
 40
0.0
 40
0.0
 40
0.0
 40
0.0
 40
0.0004955099168236
 40
0.0018178620006157
 40
0.0040907347726492
 40
0.0072755829690934
 40
0.0112339836522919
 40
0.0160079251331016
 40
0.0217345560386104
 40
0.0282471715098582
 40
0.0353831516206092
 40
0.0431870615596816
 40
0.0518586981817737
 40
0.0611185243132706
 40
0.0706522526823895
 40
0.080616716436333
 40
0.0912501549405677
 40
0.1021898340907224
 40
0.1174982836900141
 40
0.1332424412970001
 40
0.1332424412970001
 40
0.1332424412970001
 40
0.1332424412970001
 10
25.29936049949043
 20
23.20937652206834
 30
0.0
 10
25.29945810687693
 20
23.20924327823981
 30
0.0
 10
25.29978409300856
 20
23.20871551172723
 30
0.0
 10
25.29970062953601
 20
23.20729091924443
 30
0.0
 10
25.29981925590553
 20
23.20506662617169
 30
0.0
 10
25.29974249129322
 20
23.2019122010241
 30
0.0
 10
25.29969399483511
 20
23.19794631314916
 30
0.0
 10
25.29960925331489
 20
23.19312517273626
 30
0.0
 10
25.29953693002259
 20
23.18745531956942
 30
0.0
 10
25.29947869587417
 20
23.1809969033489
 30
0.0
 10
25.29945005609466
 20
23.17384617522941
 30
0.0
 10
25.29945130096332
 20
23.16597562220847
 30
0.0
 10
25.29948629884797
 20
23.15739722659111
 30
0.0
 10
25.29954722998176
 20
23.14824235824481
 30
0.0
 10
25.29962544795618
 20
23.13865667061378
 30
0.0
 10
25.29970459796852
 20
23.12861310748361
 30
0.0
 10
25.29976840698609
 20
23.11810075092998
 30
0.0
 10
25.29979117312823
 20
23.10580689781525
 30
0.0
 10
25.29971873443884
 20
23.09180930485581
 30
0.0
 10
25.29950367260332
 20
23.08146018604916
 30
0.0
 10
25.29936049949043
 20
23.07621408684338
 30
0.0
 11
25.29936049949043
 21
23.20937652206834
 31
0.0
 11
25.29960801247432
 21
23.20894718384528
 31
0.0
 11
25.29973752861662
 21
23.20763138071823
 31
0.0
 11
25.2997780814523
 21
23.20535890406757
 31
0.0
 11
25.29975364934319
 21
23.20217416510343
 31
0.0
 11
25.2996931503813
 21
23.19821623502952
 31
0.0
 11
25.2996173802552
 21
23.19344289987464
 31
0.0
 11
25.299542656656
 21
23.18771675974176
 31
0.0
 11
25.2994848085832
 21
23.18120440333141
 31
0.0
 11
25.29945472516789
 21
23.17406848806627
 31
0.0
 11
25.29945513408893
 21
23.1662645791726
 31
0.0
 11
25.29948814612726
 21
23.15759300617083
 31
0.0
 11
25.29954795632046
 21
23.14833337381811
 31
0.0
 11
25.29962288893603
 21
23.13879994039979
 31
0.0
 11
25.29969897759225
 21
23.12883576752978
 31
0.0
 11
25.29975946436338
 21
23.11820250127653
 31
0.0
 11
25.29977684288701
 21
23.10726283581642
 31
0.0
 11
25.29967928434758
 21
23.09195469476833
 31
0.0
 11
25.29936049949043
 21
23.07621408684338
 31
0.0
  0
SPLINE
  5
8E
330
2
100
AcDbEntity
  8
GAIKEI
  6
Continuous
 62
     1
100
AcDbSpline
210
0.0
220
0.0
230
1.0
 70
     8
 71
     3
 72
    19
 73
    15
 74
    13
 42
0.0000000001
 43
0.0000000001
 44
0.000001
 12
0.0213842593146391
 22
0.9997713305819308
 32
0.0
 13
-0.1213258174957188
 23
0.9926127371785009
 33
0.0
 40
0.0
 40
0.0
 40
0.0
 40
0.0
 40
0.0113484976343809
 40
0.0224435594540862
 40
0.0331022403675684
 40
0.0433328148777513
 40
0.0530063883185429
 40
0.0665828207561426
 40
0.0785040285380708
 40
0.0883020525193522
 40
0.0960449799608868
 40
0.0997746755134396
 40
0.1024788578004947
 40
0.104067500243334
 40
0.104067500243334
 40
0.104067500243334
 40
0.104067500243334
 10
25.25828738356165
 20
23.0795067100446
 30
0.0
 10
25.25836827663375
 20
23.08328867757127
 30
0.0
 10
25.25845848341663
 20
23.09077011343092
 30
0.0
 10
25.25833069321502
 20
23.10180400341132
 30
0.0
 10
25.25810834160598
 20
23.11246312658518
 30
0.0
 10
25.25784972244381
 20
23.12264746327143
 30
0.0
 10
25.25758079536667
 20
23.13380445811772
 30
0.0
 10
25.25741520238756
 20
23.14552732657359
 30
0.0
 10
25.25744472066475
 20
23.15729363276361
 30
0.0
 10
25.25770900608689
 20
23.16711118532936
 30
0.0
 10
25.25806277175926
 20
23.17419459673619
 30
0.0
 10
25.25830459442432
 20
23.17891083572357
 30
0.0
 10
25.25848001428048
 20
23.1815855390529
 30
0.0
 10
25.25835163134269
 20
23.18301422698956
 30
0.0
 10
25.25828738356165
 20
23.18353986256409
 30
0.0
 11
25.25828738356165
 21
23.0795067100446
 31
0.0
 11
25.25841328593197
 21
23.09085446996153
 31
0.0
 11
25.25831051522835
 21
23.10194905400036
 31
0.0
 11
25.25809615379359
 21
23.11260557702909
 31
0.0
 11
25.25784626851038
 21
23.1228330980218
 31
0.0
 11
25.2576245241678
 21
23.13250412911015
 31
0.0
 11
25.25744649046618
 21
23.14607939438568
 31
0.0
 11
25.25749872009442
 21
23.15800048850167
 31
0.0
 11
25.25776837170696
 21
23.16779480060086
 31
0.0
 11
25.25813074525672
 21
23.17552923821216
 31
0.0
 11
25.25833148458605
 21
23.17925351489194
 31
0.0
 11
25.25841522059773
 21
23.18195634828646
 31
0.0
 11
25.25828738356165
 21
23.18353986256409
 31
0.0
  0
LINE
  5
8F
330
2
100
AcDbEntity
  8
GAIKEI
  6
Continuous
 62
     1
100
AcDbLine
 10
26.77001768994597
 20
18.59154913875897
 30
0.0
 11
27.43388530347301
 21
18.61473189839199
 31
0.0
  0
LINE
  5
90
330
2
100
AcDbEntity
  8
GAIKEI
  6
Continuous
 62
     1
100
AcDbLine
 10
27.43388530347301
 20
22.02185833210234
 30
0.0
 11
26.77001768994597
 21
22.04504109173536
 31
0.0
  0
LINE
  5
91
330
2
100
AcDbEntity
  8
GAIKEI
  6
Continuous
 62
     1
100
AcDbLine
 10
26.69806736430786
 20
21.95881026403688
 30
0.0
 11
26.69806736430786
 21
18.67777996645748
 31
0.0
  0
LINE
  5
92
330
2
100
AcDbEntity
  8
GAIKEI
  6
Continuous
 62
     1
100
AcDbLine
 10
26.65582527804793
 20
18.67777996645748
 30
0.0
 11
26.69806736430786
 21
18.67777996645748
 31
0.0
  0
LINE
  5
93
330
2
100
AcDbEntity
  8
GAIKEI
  6
Continuous
 62
     1
100
AcDbLine
 10
26.69806736430786
 20
21.95881026403688
 30
0.0
 11
26.65582527804793
 21
21.95881026403688
 31
0.0
  0
LINE
  5
94
330
2
100
AcDbEntity
  8
GAIKEI
  6
Continuous
 62
     1
100
AcDbLine
 10
27.84886420490392
 20
18.5672827828557
 30
0.0
 11
28.10230616880529
 21
20.41016793056082
 31
0.0
  0
LINE
  5
95
330
2
100
AcDbEntity
  8
GAIKEI
  6
Continuous
 62
     1
100
AcDbLine
 10
27.78281330339013
 20
18.57636638987338
 30
0.0
 11
27.98410375336584
 21
20.04003552707871
 31
0.0
  0
LINE
  5
96
330
2
100
AcDbEntity
  8
GAIKEI
  6
Continuous
 62
     1
100
AcDbLine
 10
27.98410375336584
 20
20.59655470341565
 30
0.0
 11
27.78281330339013
 21
22.06022384062098
 31
0.0
  0
LINE
  5
97
330
2
100
AcDbEntity
  8
GAIKEI
  6
Continuous
 62
     1
100
AcDbLine
 10
27.99278615807276
 20
20.16689646449049
 30
0.0
 11
27.99278615807276
 21
20.46969376600387
 31
0.0
  0
LINE
  5
98
330
2
100
AcDbEntity
  8
GAIKEI
  6
Continuous
 62
     1
100
AcDbLine
 10
27.57675396306371
 20
18.82892409460154
 30
0.0
 11
27.68241288348486
 21
19.59721538547327
 31
0.0
  0
LINE
  5
99
330
2
100
AcDbEntity
  8
GAIKEI
  6
Continuous
 62
     1
100
AcDbLine
 10
27.68967849565252
 20
19.66419300265289
 30
0.0
 11
27.75107021656265
 21
20.11059829610841
 31
0.0
  0
LINE
  5
9A
330
2
100
AcDbEntity
  8
GAIKEI
  6
Continuous
 62
     1
100
AcDbLine
 10
27.56115877753587
 20
18.72967087661749
 30
0.0
 11
27.56569411380349
 21
18.76264940653914
 31
0.0
  0
LINE
  5
9B
330
2
100
AcDbEntity
  8
GAIKEI
  6
Continuous
 62
     1
100
AcDbLine
 10
27.65292783060193
 20
22.20015463920242
 30
0.0
 11
26.65658487886668
 21
22.41365670743204
 31
0.0
  0
LINE
  5
9C
330
2
100
AcDbEntity
  8
GAIKEI
  6
Continuous
 62
     1
100
AcDbLine
 10
27.75107021656265
 20
20.52599193438596
 30
0.0
 11
27.67982171994402
 21
21.04407026217746
 31
0.0
  0
LINE
  5
9D
330
2
100
AcDbEntity
  8
GAIKEI
  6
Continuous
 62
     1
100
AcDbLine
 10
27.67255610777636
 20
21.11104787935707
 30
0.0
 11
27.57675396306371
 21
21.80766613589282
 31
0.0
  0
LINE
  5
9E
330
2
100
AcDbEntity
  8
GAIKEI
  6
Continuous
 62
     1
100
AcDbLine
 10
27.56569411380349
 20
21.87394082395522
 30
0.0
 11
27.56115877753587
 21
21.90691935387684
 31
0.0
  0
LINE
  5
9F
330
2
100
AcDbEntity
  8
GAIKEI
  6
Continuous
 62
     1
100
AcDbLine
 10
27.75231186020773
 20
20.12874064126766
 30
0.0
 11
27.75231186020773
 21
20.50784958922668
 31
0.0
  0
LINE
  5
A0
330
2
100
AcDbEntity
  8
GAIKEI
  6
Continuous
 62
     1
100
AcDbLine
 10
26.65582527804793
 20
18.15458460795381
 30
0.0
 11
27.66689767172886
 21
18.37124296603022
 31
0.0
  0
LINE
  5
A1
330
2
100
AcDbEntity
  8
GAIKEI
  6
Continuous
 62
     1
100
AcDbLine
 10
26.65658487886668
 20
18.22293352306229
 30
0.0
 11
27.65292783060193
 21
18.43643559129191
 31
0.0
  0
LINE
  5
A2
330
2
100
AcDbEntity
  8
GAIKEI
  6
Continuous
 62
     1
100
AcDbLine
 10
26.65582527804793
 20
18.22293352306229
 30
0.0
 11
26.65658487886668
 21
18.22293352306229
 31
0.0
  0
LINE
  5
A3
330
2
100
AcDbEntity
  8
GAIKEI
  6
Continuous
 62
     1
100
AcDbLine
 10
26.65658487886668
 20
22.41365670743204
 30
0.0
 11
26.65582527804793
 21
22.41365670743204
 31
0.0
  0
LINE
  5
A4
330
2
100
AcDbEntity
  8
GAIKEI
  6
Continuous
 62
     1
100
AcDbLine
 10
27.84812770613758
 20
18.56738405852002
 30
0.0
 11
27.84836579395676
 21
18.56735132227828
 31
0.0
  0
LINE
  5
A5
330
2
100
AcDbEntity
  8
GAIKEI
  6
Continuous
 62
     1
100
AcDbLine
 10
27.84836579395676
 20
18.56735132227828
 30
0.0
 11
27.84886420490392
 21
18.5672827828557
 31
0.0
  0
LINE
  5
A6
330
2
100
AcDbEntity
  8
GAIKEI
  6
Continuous
 62
     1
100
AcDbLine
 10
27.6667418912221
 20
18.37196993061616
 30
0.0
 11
27.66679226236391
 21
18.37173490973612
 31
0.0
  0
LINE
  5
A7
330
2
100
AcDbEntity
  8
GAIKEI
  6
Continuous
 62
     1
100
AcDbLine
 10
27.66679226236391
 20
18.37173490973612
 30
0.0
 11
27.66689767172886
 21
18.37124296603022
 31
0.0
  0
LINE
  5
A8
330
2
100
AcDbEntity
  8
GAIKEI
  6
Continuous
 62
     1
100
AcDbLine
 10
27.75107021656265
 20
20.11059829610841
 30
0.0
 11
27.75231186020773
 21
20.12874064126766
 31
0.0
  0
LINE
  5
A9
330
2
100
AcDbEntity
  8
GAIKEI
  6
Continuous
 62
     1
100
AcDbLine
 10
27.6667418912221
 20
22.2646202998782
 30
0.0
 11
27.66679226236391
 21
22.26485532075821
 31
0.0
  0
LINE
  5
AA
330
2
100
AcDbEntity
  8
GAIKEI
  6
Continuous
 62
     1
100
AcDbLine
 10
27.66679226236391
 20
22.26485532075821
 30
0.0
 11
27.66689767172886
 21
22.26534726446414
 31
0.0
  0
LINE
  5
AB
330
2
100
AcDbEntity
  8
GAIKEI
  6
Continuous
 62
     1
100
AcDbLine
 10
27.75231186020773
 20
20.50784958922668
 30
0.0
 11
27.75107021656265
 21
20.52599193438596
 31
0.0
  0
LINE
  5
AC
330
2
100
AcDbEntity
  8
GAIKEI
  6
Continuous
 62
     1
100
AcDbLine
 10
26.69806736430786
 20
18.67777996645748
 30
0.0
 11
26.69911982447854
 21
18.668148610776
 31
0.0
  0
LINE
  5
AD
330
2
100
AcDbEntity
  8
GAIKEI
  6
Continuous
 62
     1
100
AcDbLine
 10
26.7050683529655
 20
18.63884754090543
 30
0.0
 11
26.7056826742105
 21
18.64015109005038
 31
0.0
  0
ELLIPSE
  5
AE
330
2
100
AcDbEntity
  8
GAIKEI
  6
Continuous
 62
     1
100
AcDbEllipse
 10
26.73901390213365
 20
18.64015109005038
 30
0.0
 11
-0.023564856710522
 21
0.023564856710522
 31
0.0
210
0.0
220
0.0
230
1.0
 40
0.9990757796463732
 41
0.7858604317907339
 42
0.8903589325719298
  0
LINE
  5
AF
330
2
100
AcDbEntity
  8
GAIKEI
  6
Continuous
 62
     1
100
AcDbLine
 10
26.74618137224872
 20
4.660470816377284
 30
0.0
 11
26.74618137224872
 21
5.527214487417325
 31
0.0
  0
LINE
  5
B0
330
2
100
AcDbEntity
  8
GAIKEI
  6
Continuous
 62
     1
100
AcDbLine
 10
26.65582527804793
 20
5.527214487417325
 30
0.0
 11
26.74618137224872
 21
5.527214487417325
 31
0.0
  0
LINE
  5
B1
330
2
100
AcDbEntity
  8
GAIKEI
  6
Continuous
 62
     1
100
AcDbLine
 10
26.74618137224872
 20
4.660470816377284
 30
0.0
 11
26.65582527804793
 21
4.660470816377284
 31
0.0
  0
LINE
  5
B2
330
2
100
AcDbEntity
  8
GAIKEI
  6
Continuous
 62
     1
100
AcDbLine
 10
26.74618137224872
 20
17.02966960955106
 30
0.0
 11
26.74618137224872
 21
17.8964132805911
 31
0.0
  0
LINE
  5
B3
330
2
100
AcDbEntity
  8
GAIKEI
  6
Continuous
 62
     1
100
AcDbLine
 10
26.74618137224872
 20
17.02966960955106
 30
0.0
 11
26.65582527804793
 21
17.02966960955106
 31
0.0
  0
LINE
  5
B4
330
2
100
AcDbEntity
  8
GAIKEI
  6
Continuous
 62
     1
100
AcDbLine
 10
26.65582527804793
 20
17.8964132805911
 30
0.0
 11
26.74618137224872
 21
17.8964132805911
 31
0.0
  0
LINE
  5
B5
330
2
100
AcDbEntity
  8
GAIKEI
  6
Continuous
 62
     1
100
AcDbLine
 10
27.73176980185002
 20
18.3965179222786
 30
0.0
 11
27.73176980185002
 21
17.57305121870308
 31
0.0
  0
LINE
  5
B6
330
2
100
AcDbEntity
  8
GAIKEI
  6
Continuous
 62
     1
100
AcDbLine
 10
27.75711328678233
 20
17.57305121870308
 30
0.0
 11
27.73176980185002
 21
17.57305121870308
 31
0.0
  0
LINE
  5
B7
330
2
100
AcDbEntity
  8
GAIKEI
  6
Continuous
 62
     1
100
AcDbLine
 10
27.75711328678233
 20
17.57305121870308
 30
0.0
 11
27.75711328678233
 21
17.13967938318308
 31
0.0
  0
LINE
  5
B8
330
2
100
AcDbEntity
  8
GAIKEI
  6
Continuous
 62
     1
100
AcDbLine
 10
27.73176980185002
 20
17.13967938318308
 30
0.0
 11
27.75711328678233
 21
17.13967938318308
 31
0.0
  0
LINE
  5
B9
330
2
100
AcDbEntity
  8
GAIKEI
  6
Continuous
 62
     1
100
AcDbLine
 10
27.73176980185002
 20
17.13967938318308
 30
0.0
 11
27.73176980185002
 21
5.220520573049299
 31
0.0
  0
LINE
  5
BA
330
2
100
AcDbEntity
  8
GAIKEI
  6
Continuous
 62
     1
100
AcDbLine
 10
27.75711328678233
 20
5.220520573049299
 30
0.0
 11
27.73176980185002
 21
5.220520573049299
 31
0.0
  0
LINE
  5
BB
330
2
100
AcDbEntity
  8
GAIKEI
  6
Continuous
 62
     1
100
AcDbLine
 10
27.75711328678233
 20
5.220520573049299
 30
0.0
 11
27.75711328678233
 21
4.787148737529264
 31
0.0
  0
LINE
  5
BC
330
2
100
AcDbEntity
  8
GAIKEI
  6
Continuous
 62
     1
100
AcDbLine
 10
27.73176980185002
 20
4.787148737529264
 30
0.0
 11
27.75711328678233
 21
4.787148737529264
 31
0.0
  0
LINE
  5
BD
330
2
100
AcDbEntity
  8
GAIKEI
  6
Continuous
 62
     1
100
AcDbLine
 10
27.73176980185002
 20
4.787148737529264
 30
0.0
 11
27.73176980185002
 21
2.64604114778541
 31
0.0
  0
LINE
  5
BE
330
2
100
AcDbEntity
  8
GAIKEI
  6
Continuous
 62
     7
100
AcDbLine
 10
26.65582527804793
 20
-0.0826522955616156
 30
0.0
 11
27.22152674292568
 21
-0.0530051152057922
 31
0.0
  0
LINE
  5
BF
330
2
100
AcDbEntity
  8
GAIKEI
  6
Continuous
 62
     7
100
AcDbLine
 10
27.55909249396041
 20
2.124181184020841
 30
0.0
 11
27.56156754718563
 21
2.126338775708433
 31
0.0
  0
LINE
  5
C0
330
2
100
AcDbEntity
  8
GAIKEI
  6
Continuous
 62
     7
100
AcDbLine
 10
27.44256184099191
 20
0.3600339513480719
 30
0.0
 11
27.44256184099191
 21
1.870900748416204
 31
0.0
  0
LINE
  5
C1
330
2
100
AcDbEntity
  8
GAIKEI
  6
Continuous
 62
     7
100
AcDbLine
 10
27.56164322057543
 20
2.126271569737639
 30
0.0
 11
27.82564277516866
 21
2.347793517146499
 31
0.0
  0
LINE
  5
C2
330
2
100
AcDbEntity
  8
GAIKEI
  6
Continuous
 62
     1
100
AcDbLine
 10
27.86217412073415
 20
2.378446955536674
 30
0.0
 11
27.86217412073415
 21
4.787148737529264
 31
0.0
  0
LINE
  5
C3
330
2
100
AcDbEntity
  8
GAIKEI
  6
Continuous
 62
     1
100
AcDbLine
 10
27.86217412073415
 20
17.57305121870308
 30
0.0
 11
27.86217412073415
 21
18.66406488564251
 31
0.0
  0
LINE
  5
C4
330
2
100
AcDbEntity
  8
GAIKEI
  6
Continuous
 62
     1
100
AcDbLine
 10
27.86217412073415
 20
5.220520573049299
 30
0.0
 11
27.86217412073415
 21
17.13967938318308
 31
0.0
  0
LINE
  5
C5
330
2
100
AcDbEntity
  8
GAIKEI
  6
Continuous
 62
     1
100
AcDbLine
 10
27.75711328678233
 20
17.13967938318308
 30
0.0
 11
27.88751760566652
 21
17.13967938318308
 31
0.0
  0
LINE
  5
C6
330
2
100
AcDbEntity
  8
GAIKEI
  6
Continuous
 62
     1
100
AcDbLine
 10
27.88751760566652
 20
17.57305121870308
 30
0.0
 11
27.75711328678233
 21
17.57305121870308
 31
0.0
  0
LINE
  5
C7
330
2
100
AcDbEntity
  8
GAIKEI
  6
Continuous
 62
     1
100
AcDbLine
 10
27.88751760566652
 20
5.220520573049299
 30
0.0
 11
27.75711328678233
 21
5.220520573049299
 31
0.0
  0
LINE
  5
C8
330
2
100
AcDbEntity
  8
GAIKEI
  6
Continuous
 62
     1
100
AcDbLine
 10
27.75711328678233
 20
4.787148737529264
 30
0.0
 11
27.88751760566652
 21
4.787148737529264
 31
0.0
  0
LINE
  5
C9
330
2
100
AcDbEntity
  8
GAIKEI
  6
Continuous
 62
     7
100
AcDbLine
 10
27.44256184099191
 20
0.1800235586296139
 30
0.0
 11
27.44256184099191
 21
0.3600339513480719
 31
0.0
  0
LINE
  5
CA
330
2
100
AcDbEntity
  8
GAIKEI
  6
Continuous
 62
     1
100
AcDbLine
 10
27.88751760566652
 20
17.13967938318308
 30
0.0
 11
27.91093678630398
 21
17.13967938318308
 31
0.0
  0
LINE
  5
CB
330
2
100
AcDbEntity
  8
GAIKEI
  6
Continuous
 62
     1
100
AcDbLine
 10
27.91093678630398
 20
17.57305121870308
 30
0.0
 11
27.88751760566652
 21
17.57305121870308
 31
0.0
  0
LINE
  5
CC
330
2
100
AcDbEntity
  8
GAIKEI
  6
Continuous
 62
     1
100
AcDbLine
 10
27.91093678630398
 20
5.220520573049299
 30
0.0
 11
27.88751760566652
 21
5.220520573049299
 31
0.0
  0
LINE
  5
CD
330
2
100
AcDbEntity
  8
GAIKEI
  6
Continuous
 62
     1
100
AcDbLine
 10
27.88751760566652
 20
4.787148737529264
 30
0.0
 11
27.91093678630398
 21
4.787148737529264
 31
0.0
  0
LINE
  5
CE
330
2
100
AcDbEntity
  8
GAIKEI
  6
Continuous
 62
     7
100
AcDbLine
 10
27.82564277516866
 20
2.347793517146499
 30
0.0
 11
28.2497648222402
 21
2.703674168093471
 31
0.0
  0
LINE
  5
CF
330
2
100
AcDbEntity
  8
GAIKEI
  6
Continuous
 62
     7
100
AcDbLine
 10
27.73176981698765
 20
22.25863773515633
 30
0.0
 11
26.65582527804793
 21
22.48733678844184
 31
0.0
  0
LINE
  5
D0
330
2
100
AcDbEntity
  8
GAIKEI
  6
Continuous
 62
     1
100
AcDbLine
 10
26.6876916091581
 20
-0.2802016626339707
 30
0.0
 11
26.83603812208611
 21
-0.2404523311719231
 31
0.0
  0
LINE
  5
D1
330
2
100
AcDbEntity
  8
GAIKEI
  6
Continuous
 62
     1
100
AcDbLine
 10
26.91075936056802
 20
-0.1973119984421601
 30
0.0
 11
27.00061711049426
 21
-0.1074542485158929
 31
0.0
  0
LINE
  5
D2
330
2
100
AcDbEntity
  8
GAIKEI
  6
Continuous
 62
     7
100
AcDbLine
 10
28.07480237799826
 20
20.60586756413432
 30
0.0
 11
27.86217413219214
 21
22.11879622787884
 31
0.0
  0
LINE
  5
D3
330
2
100
AcDbEntity
  8
GAIKEI
  6
Continuous
 62
     7
100
AcDbLine
 10
28.30930551203199
 20
18.93729112228658
 30
0.0
 11
28.07480237799826
 21
20.60586756413432
 31
0.0
  0
LINE
  5
D4
330
2
100
AcDbEntity
  8
GAIKEI
  6
Continuous
 62
     7
100
AcDbLine
 10
27.56164322057543
 20
2.126271569737639
 30
0.0
 11
27.55391743419102
 21
2.119091898538556
 31
0.0
  0
LINE
  5
D5
330
2
100
AcDbEntity
  8
GAIKEI
  6
Continuous
 62
     1
100
AcDbLine
 10
27.59854606581285
 20
1.825897483510715
 30
0.0
 11
27.96830484973907
 21
2.136161915095271
 31
0.0
  0
LINE
  5
D6
330
2
100
AcDbEntity
  8
GAIKEI
  6
Continuous
 62
     1
100
AcDbLine
 10
27.59854606581285
 20
0.2871906463746825
 30
0.0
 11
27.59854606581285
 21
1.220288612549666
 31
0.0
  0
LINE
  5
D7
330
2
100
AcDbEntity
  8
GAIKEI
  6
Continuous
 62
     1
100
AcDbLine
 10
27.59854606581285
 20
1.686996743109688
 30
0.0
 11
27.59854606581285
 21
1.825897483510715
 31
0.0
  0
LINE
  5
D8
330
2
100
AcDbEntity
  8
GAIKEI
  6
Continuous
 62
     1
100
AcDbLine
 10
27.23334995659292
 20
-0.0523855198251795
 30
0.0
 11
27.80837299294513
 21
-0.0222498111101572
 31
0.0
  0
LINE
  5
D9
330
2
100
AcDbEntity
  8
GAIKEI
  6
Continuous
 62
     1
100
AcDbLine
 10
28.12428907455995
 20
0.3106562644711062
 30
0.0
 11
28.12428907455995
 21
2.520662675414058
 31
0.0
  0
LINE
  5
DA
330
2
100
AcDbEntity
  8
GAIKEI
  6
Continuous
 62
     7
100
AcDbLine
 10
28.30930551203199
 20
18.93729112228658
 30
0.0
 11
28.30930551203199
 21
2.831359578754188
 31
0.0
  0
LINE
  5
DB
330
2
100
AcDbEntity
  8
GAIKEI
  6
Continuous
 62
     7
100
AcDbLine
 10
27.90583619981766
 20
21.80812444327703
 30
0.0
 11
28.30930551203199
 21
18.93729112228658
 31
0.0
  0
LINE
  5
DC
330
2
100
AcDbEntity
  8
GAIKEI
  6
Continuous
 62
     7
100
AcDbLine
 10
27.90583619981766
 20
21.80812444327703
 30
0.0
 11
28.30930551203199
 21
18.93729112228658
 31
0.0
  0
LINE
  5
DD
330
2
100
AcDbEntity
  8
GAIKEI
  6
Continuous
 62
     7
100
AcDbLine
 10
27.90583619981766
 20
21.80812444327703
 30
0.0
 11
28.30930551203199
 21
18.93729112228658
 31
0.0
  0
LINE
  5
DE
330
2
100
AcDbEntity
  8
GAIKEI
  6
Continuous
 62
     1
100
AcDbLine
 10
28.30930551203199
 20
17.88439021242197
 30
0.0
 11
28.30930551203199
 21
17.26171222498419
 31
0.0
  0
ARC
  5
DF
330
2
100
AcDbEntity
  8
GAIKEI
  6
Continuous
 62
     7
100
AcDbCircle
 10
27.77592479139196
 20
1.870900748416204
 30
0.0
 40
0.3333629504000126
100
AcDbArc
 50
130.5742470000072
 51
180.0
  0
ARC
  5
E0
330
2
100
AcDbEntity
  8
GAIKEI
  6
Continuous
 62
     7
100
AcDbCircle
 10
27.20920777571194
 20
0.1800235586296139
 30
0.0
 40
0.2333540652800088
100
AcDbArc
 50
273.0000000000023
 51
0.0
  0
ARC
  5
E1
330
2
100
AcDbEntity
  8
GAIKEI
  6
Continuous
 62
     1
100
AcDbCircle
 10
27.33255206735993
 20
1.420182938489148
 30
0.0
 40
0.2300204357760087
100
AcDbArc
 50
0.0
 51
61.42812185785633
  0
ARC
  5
E2
330
2
100
AcDbEntity
  8
GAIKEI
  6
Continuous
 62
     1
100
AcDbCircle
 10
27.33255206735993
 20
1.420182938489148
 30
0.0
 40
0.2300204357760087
100
AcDbArc
 50
298.5718781421436
 51
0.0
  0
ARC
  5
E3
330
2
100
AcDbEntity
  8
GAIKEI
  6
Continuous
 62
     1
100
AcDbCircle
 10
26.73083194188791
 20
-0.4412035999117166
 30
0.0
 40
0.1666814752000063
100
AcDbArc
 50
105.0000000000045
 51
116.7436839999979
  0
ARC
  5
E4
330
2
100
AcDbEntity
  8
GAIKEI
  6
Continuous
 62
     1
100
AcDbCircle
 10
27.11847871504222
 20
-0.2253158530638473
 30
0.0
 40
0.1666814752000063
100
AcDbArc
 50
133.298892999993
 51
134.9999999999919
  0
ARC
  5
E5
330
2
100
AcDbEntity
  8
GAIKEI
  6
Continuous
 62
     1
100
AcDbCircle
 10
26.79289778935635
 20
-0.0794503938942057
 30
0.0
 40
0.1666814752000063
100
AcDbArc
 50
285.0000000000045
 51
314.9999999999919
  0
ARC
  5
E6
330
2
100
AcDbEntity
  8
GAIKEI
  6
Continuous
 62
     7
100
AcDbCircle
 10
27.69711478965081
 20
22.09559865010266
 30
0.0
 40
0.1666814752000063
100
AcDbArc
 50
7.999999999998456
 51
78.00000000000038
  0
ARC
  5
E7
330
2
100
AcDbEntity
  8
GAIKEI
  6
Continuous
 62
     1
100
AcDbCircle
 10
28.29097054975995
 20
2.520662675414058
 30
0.0
 40
0.1666814752000063
100
AcDbArc
 50
179.1867999999952
 51
180.0
  0
ARC
  5
E8
330
2
100
AcDbEntity
  8
GAIKEI
  6
Continuous
 62
     1
100
AcDbCircle
 10
27.79092612415991
 20
0.3106562644711062
 30
0.0
 40
0.3333629504000126
100
AcDbArc
 50
273.0000000000023
 51
0.0
  0
ARC
  5
E9
330
2
100
AcDbEntity
  8
GAIKEI
  6
Continuous
 62
     7
100
AcDbCircle
 10
28.14262403683199
 20
2.831359578754188
 30
0.0
 40
0.1666814752000063
100
AcDbArc
 50
309.999999999999
 51
0.0
  0
ARC
  5
EA
330
2
100
AcDbEntity
  8
GAIKEI
  6
Continuous
 62
     1
100
AcDbCircle
 10
28.29097054975995
 20
2.520662675414058
 30
0.0
 40
0.1666814752000063
100
AcDbArc
 50
178.400608999997
 51
179.1867999999952
  0
ARC
  5
EB
330
2
100
AcDbEntity
  8
GAIKEI
  6
Continuous
 62
     1
100
AcDbCircle
 10
28.29097054975995
 20
2.520662675414058
 30
0.0
 40
0.1666814752000063
100
AcDbArc
 50
131.5352399999968
 51
178.400608999997
  0
ELLIPSE
  5
EC
330
2
100
AcDbEntity
  8
GAIKEI
  6
Continuous
 62
     7
100
AcDbEllipse
 10
27.34736164975891
 20
2.382359091061999
 30
0.0
 11
-0.2142815740456751
 21
0.2553708356956748
 31
0.0
210
0.0
220
0.0
230
1.0
 40
0.160711
 41
3.141592653589792
 42
3.14434683352869
  0
ELLIPSE
  5
ED
330
2
100
AcDbEntity
  8
GAIKEI
  6
Continuous
 62
     1
100
AcDbEllipse
 10
27.91093678630398
 20
17.35636530094308
 30
0.0
 11
0.0
 21
0.2166859177600031
 31
0.0
210
0.0
220
0.0
230
1.0
 40
0.1391730000000056
 41
3.141592653589793
 42
6.283185307179586
  0
ELLIPSE
  5
EE
330
2
100
AcDbEntity
  8
GAIKEI
  6
Continuous
 62
     1
100
AcDbEllipse
 10
27.91093678630398
 20
5.003834655289324
 30
0.0
 11
0.0
 21
0.2166859177600031
 31
0.0
210
0.0
220
0.0
230
1.0
 40
0.1391730000000056
 41
3.141592653589793
 42
6.283185307179586
  0
ELLIPSE
  5
EF
330
2
100
AcDbEntity
  8
GAIKEI
  6
Continuous
 62
     1
100
AcDbEllipse
 10
27.34317524449148
 20
0.2871906463747109
 30
0.0
 11
-0.0174468687851453
 21
0.3329060880623922
 31
0.0
210
0.0
220
0.0
230
1.0
 40
0.765609999999989
 41
3.141592653589826
 42
4.672286563984031
  0
LINE
  5
F0
330
2
100
AcDbEntity
  8
GAIKEI
  6
Continuous
 62
     1
100
AcDbLine
 10
26.67679460769915
 20
0.9134712538811413
 30
0.0
 11
26.65582527804793
 21
0.9134712538811413
 31
0.0
  0
LINE
  5
F1
330
2
100
AcDbEntity
  8
GAIKEI
  6
Continuous
 62
     1
100
AcDbLine
 10
26.65582527804793
 20
0.6801171886011162
 30
0.0
 11
26.67679460769915
 21
0.6801171886011162
 31
0.0
  0
ARC
  5
F2
330
2
100
AcDbEntity
  8
GAIKEI
  6
Continuous
 62
     1
100
AcDbCircle
 10
26.67679460769915
 20
0.8701340703291293
 30
0.0
 40
0.0433371835520016
100
AcDbArc
 50
16.60155000000191
 51
90.0
  0
ARC
  5
F3
330
2
100
AcDbEntity
  8
GAIKEI
  6
Continuous
 62
     1
100
AcDbCircle
 10
26.67679460769915
 20
0.7234543721531282
 30
0.0
 40
0.0433371835520016
100
AcDbArc
 50
270.0
 51
343.3984499999981
  0
ARC
  5
F4
330
2
100
AcDbEntity
  8
GAIKEI
  6
Continuous
 62
     1
100
AcDbCircle
 10
26.43080528652792
 20
0.7967942212411288
 30
0.0
 40
0.3000266553600113
100
AcDbArc
 50
343.3984499999981
 51
0.0
  0
ARC
  5
F5
330
2
100
AcDbEntity
  8
GAIKEI
  6
Continuous
 62
     1
100
AcDbCircle
 10
26.43080528652792
 20
0.7967942212411288
 30
0.0
 40
0.3000266553600113
100
AcDbArc
 50
0.0
 51
16.60155000000191
  0
LINE
  5
F6
330
2
100
AcDbEntity
  8
GAIKEI
  6
Continuous
 62
     1
100
AcDbLine
 10
26.58748587321588
 20
23.14354611988727
 30
0.0
 11
26.58748587321588
 21
-0.8566860127429265
 31
0.0
  0
LINE
  5
F7
330
2
100
AcDbEntity
  8
GAIKEI
  6
Continuous
 62
     1
100
AcDbLine
 10
25.25819771032292
 20
-0.6538515338299078
 30
0.0
 11
26.58748347300269
 21
-0.7235234488071569
 31
0.0
  0
LINE
  5
F8
330
2
100
AcDbEntity
  8
GAIKEI
  6
Continuous
 62
     1
100
AcDbLine
 10
25.29844977247444
 20
23.05314518836965
 30
0.0
 11
25.29844977247444
 21
-0.6329399010652992
 31
0.0
  0
LINE
  5
F9
330
2
100
AcDbEntity
  8
GAIKEI
  6
Continuous
 62
     1
100
AcDbLine
 10
26.58748347300269
 20
23.14372873611151
 30
0.0
 11
25.29936048671868
 21
23.0762140712188
 31
0.0
  0
LINE
  5
FA
330
2
100
AcDbEntity
  8
GAIKEI
  6
Continuous
 62
     1
100
AcDbLine
 10
26.58748587321588
 20
-0.7233408325829203
 30
0.0
 11
26.62248898300788
 21
-0.7233408325829203
 31
0.0
  0
LINE
  5
FB
330
2
100
AcDbEntity
  8
GAIKEI
  6
Continuous
 62
     7
100
AcDbLine
 10
26.65582527804793
 20
-0.7233408325829203
 30
0.0
 11
26.65582527804793
 21
23.24355500500729
 31
0.0
  0
LINE
  5
FC
330
2
100
AcDbEntity
  8
GAIKEI
  6
Continuous
 62
     1
100
AcDbLine
 10
26.65582527804793
 20
-0.7233408325829203
 30
0.0
 11
26.62248898300788
 21
-0.7233408325829203
 31
0.0
  0
LINE
  5
FD
330
2
100
AcDbEntity
  8
GAIKEI
  6
Continuous
 62
     7
100
AcDbLine
 10
26.58748587321588
 20
23.27689130004728
 30
0.0
 11
26.58748347300269
 21
23.27689116670212
 31
0.0
  0
LINE
  5
FE
330
2
100
AcDbEntity
  8
GAIKEI
  6
Continuous
 62
     7
100
AcDbLine
 10
26.58748587321588
 20
23.27689130004728
 30
0.0
 11
26.62248898300788
 21
23.27689130004728
 31
0.0
  0
LINE
  5
FF
330
2
100
AcDbEntity
  8
GAIKEI
  6
Continuous
 62
     7
100
AcDbLine
 10
26.65582527804793
 20
-0.7233408325829203
 30
0.0
 11
26.65582527804793
 21
-0.8233497177029391
 31
0.0
  0
LINE
  5
100
330
2
100
AcDbEntity
  8
GAIKEI
  6
Continuous
 62
     7
100
AcDbLine
 10
26.62248898300788
 20
-0.8566860127429265
 30
0.0
 11
26.58748587321588
 21
-0.8566860127429265
 31
0.0
  0
LINE
  5
101
330
2
100
AcDbEntity
  8
GAIKEI
  6
Continuous
 62
     7
100
AcDbLine
 10
26.58748347300269
 20
-0.8566858793977587
 30
0.0
 11
25.29936048671868
 21
-0.7891712478413524
 31
0.0
  0
LINE
  5
102
330
2
100
AcDbEntity
  8
GAIKEI
  6
Continuous
 62
     7
100
AcDbLine
 10
25.29936048671868
 20
23.20937653514568
 30
0.0
 11
26.58748347300269
 21
23.27689116670212
 31
0.0
  0
LINE
  5
103
330
2
100
AcDbEntity
  8
GAIKEI
  6
Continuous
 62
     1
100
AcDbLine
 10
25.25870044101242
 20
-0.6329399010652992
 30
0.0
 11
25.25870044101242
 21
23.05314518836965
 31
0.0
  0
LINE
  5
104
330
2
100
AcDbEntity
  8
GAIKEI
  6
Continuous
 62
     7
100
AcDbLine
 10
25.16091738697594
 20
23.02999049789708
 30
0.0
 11
25.25870044101242
 21
23.18595478761352
 31
0.0
  0
LINE
  5
105
330
2
100
AcDbEntity
  8
GAIKEI
  6
Continuous
 62
     1
100
AcDbLine
 10
25.25870044101242
 20
23.05314518836965
 30
0.0
 11
25.15582533458121
 21
22.88905905849615
 31
0.0
  0
LINE
  5
106
330
2
100
AcDbEntity
  8
GAIKEI
  6
Continuous
 62
     1
100
AcDbLine
 10
25.15582533458121
 20
-0.4688537711917889
 30
0.0
 11
25.25870044101242
 21
-0.6329399010652992
 31
0.0
  0
LINE
  5
107
330
2
100
AcDbEntity
  8
GAIKEI
  6
Continuous
 62
     7
100
AcDbLine
 10
25.25870044101242
 20
-0.7657495003091981
 30
0.0
 11
25.16091738697594
 21
-0.6097852105926905
 31
0.0
  0
LINE
  5
108
330
2
100
AcDbEntity
  8
GAIKEI
  6
Continuous
 62
     7
100
AcDbLine
 10
25.29844977247444
 20
-0.7891235102668475
 30
0.0
 11
25.29936048671868
 21
-0.7891712478413524
 31
0.0
  0
LINE
  5
109
330
2
100
AcDbEntity
  8
GAIKEI
  6
Continuous
 62
     7
100
AcDbLine
 10
25.29936048671868
 20
23.20937653514568
 30
0.0
 11
25.29844977247444
 21
23.2093287975712
 31
0.0
  0
LINE
  5
10A
330
2
100
AcDbEntity
  8
GAIKEI
  6
Continuous
 62
     7
100
AcDbLine
 10
25.15582533458121
 20
23.01228252466217
 30
0.0
 11
25.15582533458121
 21
-0.5920772373578132
 31
0.0
  0
ARC
  5
10B
330
2
100
AcDbEntity
  8
GAIKEI
  6
Continuous
 62
     7
100
AcDbCircle
 10
26.62248898300788
 20
23.24355500500729
 30
0.0
 40
0.0333362950400013
100
AcDbArc
 50
0.0
 51
90.0
  0
ARC
  5
10C
330
2
100
AcDbEntity
  8
GAIKEI
  6
Continuous
 62
     7
100
AcDbCircle
 10
26.62248898300788
 20
-0.8233497177029391
 30
0.0
 40
0.0333362950400013
100
AcDbArc
 50
270.0
 51
0.0
  0
ARC
  5
10D
330
2
100
AcDbEntity
  8
GAIKEI
  6
Continuous
 62
     7
100
AcDbCircle
 10
25.30106680498028
 20
-0.7391876071294519
 30
0.0
 40
0.0500044425600019
100
AcDbArc
 50
212.0859750000081
 51
266.9999999999977
  0
ARC
  5
10E
330
2
100
AcDbEntity
  8
GAIKEI
  6
Continuous
 62
     7
100
AcDbCircle
 10
25.30106680498028
 20
23.15939289443378
 30
0.0
 40
0.0500044425600019
100
AcDbArc
 50
92.9999999999991
 51
147.9140249999918
  0
ARC
  5
10F
330
2
100
AcDbEntity
  8
GAIKEI
  6
Continuous
 62
     7
100
AcDbCircle
 10
25.1891616296212
 20
-0.5920772373578132
 30
0.0
 40
0.0333362950400013
100
AcDbArc
 50
180.0
 51
212.0859750000081
  0
ARC
  5
110
330
2
100
AcDbEntity
  8
GAIKEI
  6
Continuous
 62
     7
100
AcDbCircle
 10
25.1891616296212
 20
23.01228252466217
 30
0.0
 40
0.0333362950400013
100
AcDbArc
 50
147.9140249999918
 51
180.0
  0
ELLIPSE
  5
111
330
2
100
AcDbEntity
  8
GAIKEI
  6
Continuous
 62
     1
100
AcDbEllipse
 10
24.04310825562948
 20
23.14282945322066
 30
0.0
 11
2.544377609282683
 21
0.0
 31
0.0
210
0.0
220
0.0
230
1.0
 40
0.052408
 41
0.0
 42
0.0013695278703807
  0
ELLIPSE
  5
112
330
2
100
AcDbEntity
  8
GAIKEI
  6
Continuous
 62
     1
100
AcDbEllipse
 10
25.54254849234514
 20
-0.7519802770058277
 30
0.0
 11
-0.1794014869538512
 21
0.2652613547436747
 31
0.0
210
0.0
220
0.0
230
1.0
 40
0.6240159999999943
 41
0.7451965604551792
 42
0.8316067334577596
  0
ELLIPSE
  5
113
330
2
100
AcDbEntity
  8
GAIKEI
  6
Continuous
 62
     1
100
AcDbEllipse
 10
25.54254849234514
 20
23.17218556431024
 30
0.0
 11
0.1794014869528182
 21
0.2652613547454717
 31
0.0
210
0.0
220
0.0
230
1.0
 40
0.6240159999999813
 41
2.309985920125742
 42
2.396396093127902
  0
ELLIPSE
  5
114
330
2
100
AcDbEntity
  8
GAIKEI
  6
Continuous
 62
     1
100
AcDbEllipse
 10
26.59097765010358
 20
23.14354611988731
 30
0.0
 11
-0.0034917656106537
 21
0.1333451488971089
 31
0.0
210
0.0
220
0.0
230
1.0
 40
0.0261499999999963
 41
0.0006847638988461
 42
1.568742034989258
  0
ELLIPSE
  5
115
330
2
100
AcDbEntity
  8
GAIKEI
  6
Continuous
 62
     7
100
AcDbEllipse
 10
25.30197751922447
 20
23.159440598672
 30
0.0
 11
-0.0026170303216906
 21
0.049935913209143
 31
0.0
210
0.0
220
0.0
230
1.0
 40
0.9969939999998402
 41
-0.0000000000786828
 42
1.015719002433118
  0
ELLIPSE
  5
116
330
2
100
AcDbEntity
  8
GAIKEI
  6
Continuous
 62
     1
100
AcDbEllipse
 10
25.54516552485097
 20
23.17218556431024
 30
0.0
 11
0.2001980877512309
 21
0.2902428013316132
 31
0.0
210
0.0
220
0.0
230
1.0
 40
0.7084260000000006
 41
2.316302613075226
 42
2.402712786077776
  0
ELLIPSE
  5
117
330
2
100
AcDbEntity
  8
GAIKEI
  6
Continuous
 62
     1
100
AcDbEllipse
 10
25.54516552485097
 20
-0.7519802770058277
 30
0.0
 11
-0.2001980877510127
 21
0.2902428013319058
 31
0.0
210
0.0
220
0.0
230
1.0
 40
0.7084260000000244
 41
0.7388798675130728
 42
0.8252900405155028
  0
ELLIPSE
  5
118
330
2
100
AcDbEntity
  8
GAIKEI
  6
Continuous
 62
     7
100
AcDbEllipse
 10
25.54516552485097
 20
23.17218556431024
 30
0.0
 11
-0.2869767173597468
 21
0.0122233693731572
 31
0.0
210
0.0
220
0.0
230
1.0
 40
0.0979550000005576
 41
-0.0556951287901055
 42
0.0307150442121456
  0
LINE
  5
119
330
2
100
AcDbEntity
  8
GAIKEI
  6
Continuous
 62
     1
100
AcDbLine
 10
25.15230865548114
 20
-0.4433070534561239
 30
0.0
 11
25.1528250680276
 21
-0.4433522574722133
 31
0.0
  0
LINE
  5
11A
330
2
100
AcDbEntity
  8
GAIKEI
  6
Continuous
 62
     1
100
AcDbLine
 10
27.70925220131193
 20
1.686996743109688
 30
0.0
 11
27.70925220131193
 21
1.220288612549666
 31
0.0
  0
LINE
  5
11B
330
2
100
AcDbEntity
  8
GAIKEI
  6
Continuous
 62
     1
100
AcDbLine
 10
27.70925220131193
 20
1.220288612549666
 30
0.0
 11
27.45003423819776
 21
1.220288612549666
 31
0.0
  0
LINE
  5
11C
330
2
100
AcDbEntity
  8
GAIKEI
  6
Continuous
 62
     1
100
AcDbLine
 10
27.44256184099191
 20
1.686996743109688
 30
0.0
 11
27.70925220131193
 21
1.686996743109688
 31
0.0
  0
LINE
  5
11D
330
2
100
AcDbEntity
  8
GAIKEI
  6
Continuous
 62
     1
100
AcDbLine
 10
27.74258849635192
 20
1.370301940229694
 30
0.0
 11
27.74258849635192
 21
1.636992300549707
 31
0.0
  0
LINE
  5
11E
330
2
100
AcDbEntity
  8
GAIKEI
  6
Continuous
 62
     1
100
AcDbLine
 10
27.70925220131193
 20
1.336965645189678
 30
0.0
 11
27.74258849635192
 21
1.370301940229694
 31
0.0
  0
LINE
  5
11F
330
2
100
AcDbEntity
  8
GAIKEI
  6
Continuous
 62
     1
100
AcDbLine
 10
27.74258849635192
 20
1.636992300549707
 30
0.0
 11
27.70925220131193
 21
1.670328595589694
 31
0.0
  0
LINE
  5
120
330
2
100
AcDbEntity
  8
GAIKEI
  6
Continuous
 62
     1
100
AcDbLine
 10
27.80926108643195
 20
1.353633792709672
 30
0.0
 11
27.84259738147194
 21
1.353633792709672
 31
0.0
  0
LINE
  5
121
330
2
100
AcDbEntity
  8
GAIKEI
  6
Continuous
 62
     1
100
AcDbLine
 10
27.84259738147194
 20
1.353633792709672
 30
0.0
 11
27.84259738147194
 21
1.253624907589681
 31
0.0
  0
LINE
  5
122
330
2
100
AcDbEntity
  8
GAIKEI
  6
Continuous
 62
     1
100
AcDbLine
 10
27.84259738147194
 20
1.253624907589681
 30
0.0
 11
27.80926108643195
 21
1.249874574397665
 31
0.0
  0
LINE
  5
123
330
2
100
AcDbEntity
  8
GAIKEI
  6
Continuous
 62
     1
100
AcDbLine
 10
27.70925220131193
 20
1.238623574821673
 30
0.0
 11
27.80926108643195
 21
1.249874574397665
 31
0.0
  0
LINE
  5
124
330
2
100
AcDbEntity
  8
GAIKEI
  6
Continuous
 62
     1
100
AcDbLine
 10
27.80926108643195
 20
1.353633792709672
 30
0.0
 11
27.73812226622397
 21
1.353633792709672
 31
0.0
  0
LINE
  5
125
330
2
100
AcDbEntity
  8
GAIKEI
  6
Continuous
 62
     1
100
AcDbLine
 10
27.73812226622397
 20
1.353633792709672
 30
0.0
 11
27.70925220131193
 21
1.336965645189678
 31
0.0
  0
LINE
  5
126
330
2
100
AcDbEntity
  8
GAIKEI
  6
Continuous
 62
     1
100
AcDbLine
 10
26.80548957471882
 20
22.9130961126134
 30
0.0
 11
26.65582527804793
 21
22.917920474559
 31
0.0
  0
LINE
  5
127
330
2
100
AcDbEntity
  8
GAIKEI
  6
Continuous
 62
     1
100
AcDbLine
 10
26.65582527804793
 20
22.77060765471202
 30
0.0
 11
26.82430764657858
 21
22.77820686193974
 31
0.0
  0
SPLINE
  5
128
330
2
100
AcDbEntity
  8
GAIKEI
  6
Continuous
 62
     1
100
AcDbSpline
210
0.0
220
0.0
230
1.0
 70
     8
 71
     3
 72
    19
 73
    15
 74
    13
 42
0.0000000001
 43
0.0000000001
 44
0.000001
 12
0.995529879347374
 22
0.0944471245015057
 32
0.0
 13
0.0944908229060041
 23
0.9955257326591546
 33
0.0
 40
0.0
 40
0.0
 40
0.0
 40
0.0
 40
0.011474660758024
 40
0.0229538204374025
 40
0.0343591230296083
 40
0.0457936629856364
 40
0.0572035280088836
 40
0.0746287115525967
 40
0.092055610158242
 40
0.109065632891078
 40
0.126069362854467
 40
0.136922236539865
 40
0.1478018299471759
 40
0.1586464376139991
 40
0.1586464376139991
 40
0.1586464376139991
 40
0.1586464376139991
 10
5.085730042809871
 20
-0.7633345752597052
 30
0.0
 10
5.089537832023211
 20
-0.762973325688634
 30
0.0
 10
5.097122978781328
 20
-0.7618360697033069
 30
0.0
 10
5.108209706220975
 20
-0.7588770723608321
 30
0.0
 10
5.118913078038787
 20
-0.7547841336002677
 30
0.0
 10
5.129137508754809
 20
-0.7496641480925632
 30
0.0
 10
5.140529714467561
 20
-0.7425299952878391
 30
0.0
 10
5.152576889648059
 20
-0.732817721267935
 30
0.0
 10
5.164448162035341
 20
-0.7201742484177914
 30
0.0
 10
5.174356250727555
 20
-0.7061140321902002
 30
0.0
 10
5.181208484977958
 20
-0.692757484453253
 30
0.0
 10
5.185649141634854
 20
-0.6806130941534861
 30
0.0
 10
5.188366151633147
 20
-0.6700802479746386
 30
0.0
 10
5.189421623361909
 20
-0.6629001180711925
 30
0.0
 10
5.189763195329419
 20
-0.6593014227402137
 30
0.0
 11
5.085730042809871
 21
-0.7633345752597052
 31
0.0
 11
5.097077802726801
 21
-0.761626833395809
 31
0.0
 11
5.108172386765659
 21
-0.7586799554975699
 31
0.0
 11
5.118828909794387
 21
-0.7546154188852939
 31
0.0
 11
5.129056430787045
 21
-0.7495020622834545
 31
0.0
 11
5.138727461875419
 21
-0.7434477815434662
 31
0.0
 11
5.152302727150981
 21
-0.7325237567028467
 31
0.0
 11
5.164223821266944
 21
-0.7198130832237553
 31
0.0
 11
5.174018133366189
 21
-0.7059060438528491
 31
0.0
 11
5.181752570977437
 21
-0.6907632025220778
 31
0.0
 11
5.185476847657241
 21
-0.6805693257902022
 31
0.0
 11
5.188179681051735
 21
-0.6700306981654478
 31
0.0
 11
5.189763195329419
 21
-0.6593014227402137
 31
0.0
  0
SPLINE
  5
129
330
2
100
AcDbEntity
  8
GAIKEI
  6
Continuous
 62
     1
100
AcDbSpline
210
0.0
220
0.0
230
1.0
 70
     8
 71
     3
 72
    19
 73
    15
 74
    13
 42
0.0000000001
 43
0.0000000001
 44
0.000001
 12
-0.0944471245025449
 22
0.9955298793472755
 32
0.0
 13
-0.9955257326591484
 23
0.0944908229060694
 33
0.0
 40
0.0
 40
0.0
 40
0.0
 40
0.0
 40
0.0114746607580262
 40
0.0229538204373808
 40
0.0343591230295949
 40
0.0457936629856738
 40
0.057203528008909
 40
0.074628711552591
 40
0.092055610158255
 40
0.1090656328910897
 40
0.1260693628544791
 40
0.1369222365398624
 40
0.1478018299471529
 40
0.158646437613998
 40
0.158646437613998
 40
0.158646437613998
 40
0.158646437613998
 10
5.189763195329419
 20
23.0795067100446
 30
0.0
 10
5.189401945758334
 20
23.08331449925792
 30
0.0
 10
5.188264689773035
 20
23.09089964601611
 30
0.0
 10
5.185305692430461
 20
23.10198637345566
 30
0.0
 10
5.181212753669967
 20
23.11268974527354
 30
0.0
 10
5.176092768162192
 20
23.12291417598954
 30
0.0
 10
5.168958615357524
 20
23.13430638170228
 30
0.0
 10
5.159246341337535
 20
23.14635355688267
 30
0.0
 10
5.146602868487519
 20
23.15822482927017
 30
0.0
 10
5.132542652259814
 20
23.16813291796224
 30
0.0
 10
5.119186104522839
 20
23.17498515221268
 30
0.0
 10
5.107041714223186
 20
23.17942580886954
 30
0.0
 10
5.09650886804431
 20
23.18214281886786
 30
0.0
 10
5.089328738140864
 20
23.18319829059658
 30
0.0
 10
5.085730042809871
 20
23.18353986256409
 30
0.0
 11
5.189763195329419
 21
23.0795067100446
 31
0.0
 11
5.188055453465494
 21
23.09085446996153
 31
0.0
 11
5.185108575567255
 21
23.10194905400036
 31
0.0
 11
5.181044038955008
 21
23.11260557702909
 31
0.0
 11
5.175930682353111
 21
23.12283309802177
 31
0.0
 11
5.169876401613123
 21
23.13250412911015
 31
0.0
 11
5.158952376772504
 21
23.14607939438568
 31
0.0
 11
5.146241703293412
 21
23.15800048850167
 31
0.0
 11
5.132334663922506
 21
23.16779480060089
 31
0.0
 11
5.117191822591735
 21
23.17552923821216
 31
0.0
 11
5.106997945859859
 21
23.17925351489194
 31
0.0
 11
5.096459318235133
 21
23.18195634828646
 31
0.0
 11
5.085730042809871
 21
23.18353986256409
 31
0.0
  0
SPLINE
  5
12A
330
2
100
AcDbEntity
  8
GAIKEI
  6
Continuous
 62
     1
100
AcDbSpline
210
0.0
220
0.0
230
1.0
 70
     8
 71
     3
 72
    19
 73
    15
 74
    13
 42
0.0000000001
 43
0.0000000001
 44
0.000001
 12
-0.995529879347374
 22
0.0944471245015059
 32
0.0
 13
-0.0944908229060039
 23
0.9955257326591544
 33
0.0
 40
0.0
 40
0.0
 40
0.0
 40
0.0
 40
0.011474660758024
 40
0.0229538204374025
 40
0.0343591230296083
 40
0.0457936629856873
 40
0.0572035280088863
 40
0.0746287115525994
 40
0.0920556101582446
 40
0.1090656328910806
 40
0.1260693628544956
 40
0.1369222365398643
 40
0.1478018299471823
 40
0.1586464376139972
 40
0.1586464376139972
 40
0.1586464376139972
 40
0.1586464376139972
 10
-34.85308414608221
 20
-0.7633345752597052
 30
0.0
 10
-34.85689193529555
 20
-0.762973325688634
 30
0.0
 10
-34.86447708205373
 20
-0.7618360697033069
 30
0.0
 10
-34.87556380949332
 20
-0.7588770723608321
 30
0.0
 10
-34.88626718131115
 20
-0.7547841336002393
 30
0.0
 10
-34.89649161202718
 20
-0.7496641480925917
 30
0.0
 10
-34.90788381773985
 20
-0.7425299952878106
 30
0.0
 10
-34.9199309929204
 20
-0.7328177212679492
 30
0.0
 10
-34.93180226530771
 20
-0.7201742484177914
 30
0.0
 10
-34.9417103539999
 20
-0.7061140321901576
 30
0.0
 10
-34.94856258825036
 20
-0.6927574844532956
 30
0.0
 10
-34.95300324490717
 20
-0.6806130941534719
 30
0.0
 10
-34.95572025490549
 20
-0.6700802479746529
 30
0.0
 10
-34.95677572663419
 20
-0.6629001180711783
 30
0.0
 10
-34.9571172986017
 20
-0.6593014227402137
 30
0.0
 11
-34.85308414608221
 21
-0.7633345752597052
 31
0.0
 11
-34.86443190599914
 21
-0.761626833395809
 31
0.0
 11
-34.875526490038
 21
-0.7586799554975699
 31
0.0
 11
-34.88618301306673
 21
-0.7546154188852939
 31
0.0
 11
-34.89641053405944
 21
-0.7495020622834545
 31
0.0
 11
-34.90608156514776
 21
-0.7434477815434662
 31
0.0
 11
-34.91965683042332
 21
-0.7325237567028467
 31
0.0
 11
-34.93157792453928
 21
-0.7198130832237553
 31
0.0
 11
-34.94137223663853
 21
-0.7059060438528491
 31
0.0
 11
-34.94910667424984
 21
-0.6907632025220778
 31
0.0
 11
-34.95283095092958
 21
-0.6805693257902022
 31
0.0
 11
-34.95553378432408
 21
-0.6700306981654478
 31
0.0
 11
-34.9571172986017
 21
-0.6593014227402137
 31
0.0
  0
SPLINE
  5
12B
330
2
100
AcDbEntity
  8
GAIKEI
  6
Continuous
 62
     1
100
AcDbSpline
210
0.0
220
0.0
230
1.0
 70
     8
 71
     3
 72
    19
 73
    15
 74
    13
 42
0.0000000001
 43
0.0000000001
 44
0.000001
 12
0.0944471245025448
 22
0.9955298793472755
 32
0.0
 13
0.9955257326591484
 23
0.0944908229060694
 33
0.0
 40
0.0
 40
0.0
 40
0.0
 40
0.0
 40
0.0114746607580177
 40
0.0229538204373724
 40
0.0343591230295864
 40
0.0457936629856653
 40
0.0572035280088703
 40
0.0746287115525523
 40
0.0920556101582164
 40
0.1090656328910511
 40
0.1260693628544404
 40
0.1369222365398771
 40
0.1478018299471676
 40
0.1586464376140127
 40
0.1586464376140127
 40
0.1586464376140127
 40
0.1586464376140127
 10
-34.9571172986017
 20
23.0795067100446
 30
0.0
 10
-34.95675604903062
 20
23.08331449925792
 30
0.0
 10
-34.95561879304537
 20
23.09089964601611
 30
0.0
 10
-34.95265979570286
 20
23.10198637345566
 30
0.0
 10
-34.94856685694228
 20
23.11268974527357
 30
0.0
 10
-34.94344687143448
 20
23.12291417598954
 30
0.0
 10
-34.93631271862995
 20
23.13430638170226
 30
0.0
 10
-34.92660044460993
 20
23.14635355688273
 30
0.0
 10
-34.91395697175992
 20
23.15822482927015
 30
0.0
 10
-34.89989675553216
 20
23.16813291796224
 30
0.0
 10
-34.88654020779535
 20
23.17498515221271
 30
0.0
 10
-34.8743958174955
 20
23.17942580886953
 30
0.0
 10
-34.86386297131662
 20
23.18214281886787
 30
0.0
 10
-34.85668284141321
 20
23.18319829059658
 30
0.0
 10
-34.85308414608221
 20
23.18353986256409
 30
0.0
 11
-34.9571172986017
 21
23.0795067100446
 31
0.0
 11
-34.95540955673784
 21
23.09085446996153
 31
0.0
 11
-34.9524626788396
 21
23.10194905400036
 31
0.0
 11
-34.94839814222735
 21
23.11260557702909
 31
0.0
 11
-34.94328478562545
 21
23.12283309802177
 31
0.0
 11
-34.93723050488552
 21
23.13250412911015
 31
0.0
 11
-34.9263064800449
 21
23.14607939438568
 31
0.0
 11
-34.91359580656581
 21
23.15800048850167
 31
0.0
 11
-34.8996887671949
 21
23.16779480060089
 31
0.0
 11
-34.88454592586413
 21
23.17552923821216
 31
0.0
 11
-34.8743520491322
 21
23.17925351489194
 31
0.0
 11
-34.86381342150747
 21
23.18195634828646
 31
0.0
 11
-34.85308414608221
 21
23.18353986256409
 31
0.0
  0
SPLINE
  5
12C
330
2
100
AcDbEntity
  8
GAIKEI
  6
Continuous
 62
     1
100
AcDbSpline
210
0.0
220
0.0
230
1.0
 70
     8
 71
     3
 72
    19
 73
    15
 74
    13
 42
0.0000000001
 43
0.0000000001
 44
0.000001
 12
-0.2634414923284028
 22
0.9646753755122933
 32
0.0
 13
-0.9639886149825482
 23
0.2659435093850356
 33
0.0
 40
0.0
 40
0.0
 40
0.0
 40
0.0
 40
0.0080469836170484
 40
0.0160943919464478
 40
0.0243850109521233
 40
0.032675750493584
 40
0.0406967337973566
 40
0.0487177849602281
 40
0.0569854589412043
 40
0.0652530764933774
 40
0.0733066642993536
 40
0.0813601339663683
 40
0.0896586163757019
 40
0.0979566568646681
 40
0.0979566568646681
 40
0.0979566568646681
 40
0.0979566568646681
 10
3.600559296166466
 20
21.55299028734953
 30
0.0
 10
3.599852659708858
 20
21.55557786299704
 30
0.0
 10
3.59822025691173
 20
21.56069606508415
 30
0.0
 10
3.595108144853611
 20
21.56821498328505
 30
0.0
 10
3.591319028509673
 20
21.57550986275447
 30
0.0
 10
3.586913531450335
 20
21.58243936673121
 30
0.0
 10
3.581976892086061
 20
21.58888730066006
 30
0.0
 10
3.576516780528407
 20
21.59488803499768
 30
0.0
 10
3.570493659687258
 20
21.60044658241473
 30
0.0
 10
3.563999457022106
 20
21.60546440230238
 30
0.0
 10
3.557153660196433
 20
21.60985857531784
 30
0.0
 10
3.549951099633688
 20
21.61366198061137
 30
0.0
 10
3.542370845782215
 20
21.61685851801592
 30
0.0
 10
3.53709913671355
 20
21.6185626383337
 30
0.0
 10
3.534432731194215
 20
21.61929824166993
 30
0.0
 11
3.600559296166466
 21
21.55299028734953
 31
0.0
 11
3.598115655868639
 21
21.56065767819644
 31
0.0
 11
3.595035995337241
 21
21.5680924842778
 31
0.0
 11
3.591215258885881
 21
21.57545024288106
 31
0.0
 11
3.586765623203916
 21
21.58244577148292
 31
0.0
 11
3.581890499189114
 21
21.58881520364417
 31
0.0
 11
3.576491235847981
 21
21.59474694465837
 31
0.0
 11
3.570416484428335
 21
21.60035516998659
 31
0.0
 11
3.563873477350625
 21
21.60540916998247
 31
0.0
 11
3.557096857899921
 21
21.60976095065132
 31
0.0
 11
3.549974895935406
 21
21.61352077361582
 31
0.0
 11
3.542329362272084
 21
21.6167473037888
 31
0.0
 11
3.534432731194215
 21
21.61929824166993
 31
0.0
  0
SPLINE
  5
12D
330
2
100
AcDbEntity
  8
GAIKEI
  6
Continuous
 62
     1
100
AcDbSpline
210
0.0
220
0.0
230
1.0
 70
     8
 71
     3
 72
    19
 73
    15
 74
    13
 42
0.0000000001
 43
0.0000000001
 44
0.000001
 12
0.2634414923284026
 22
0.9646753755122933
 32
0.0
 13
0.9639886149825482
 23
0.2659435093850355
 33
0.0
 40
0.0
 40
0.0
 40
0.0
 40
0.0
 40
0.0080469836170657
 40
0.0160943919464651
 40
0.0243850109521406
 40
0.0326757504936013
 40
0.0406967337973738
 40
0.0487177849602453
 40
0.0569854589412216
 40
0.0652530764933947
 40
0.0733066642993709
 40
0.0813601339663856
 40
0.0896586163757191
 40
0.0979566568646854
 40
0.0979566568646854
 40
0.0979566568646854
 40
0.0979566568646854
 10
-33.36791339943886
 20
21.55299028734953
 30
0.0
 10
-33.36720676298126
 20
21.55557786299704
 30
0.0
 10
-33.36557436018401
 20
21.56069606508415
 30
0.0
 10
-33.36246224812601
 20
21.56821498328503
 30
0.0
 10
-33.35867313178201
 20
21.57550986275446
 30
0.0
 10
-33.35426763472262
 20
21.58243936673118
 30
0.0
 10
-33.34933099535851
 20
21.58888730066006
 30
0.0
 10
-33.34387088380081
 20
21.59488803499768
 30
0.0
 10
-33.3378477629596
 20
21.60044658241471
 30
0.0
 10
-33.33135356029433
 20
21.60546440230242
 30
0.0
 10
-33.32450776346883
 20
21.60985857531783
 30
0.0
 10
-33.31730520290609
 20
21.61366198061137
 30
0.0
 10
-33.3097249490545
 20
21.61685851801592
 30
0.0
 10
-33.30445323998589
 20
21.6185626383337
 30
0.0
 10
-33.30178683446656
 20
21.61929824166993
 30
0.0
 11
-33.36791339943886
 21
21.55299028734953
 31
0.0
 11
-33.36546975914098
 21
21.56065767819644
 31
0.0
 11
-33.36239009860958
 21
21.5680924842778
 31
0.0
 11
-33.35856936215822
 21
21.57545024288106
 31
0.0
 11
-33.35411972647626
 21
21.58244577148292
 31
0.0
 11
-33.34924460246146
 21
21.58881520364417
 31
0.0
 11
-33.34384533912032
 21
21.59474694465837
 31
0.0
 11
-33.33777058770067
 21
21.60035516998659
 31
0.0
 11
-33.33122758062297
 21
21.60540916998247
 31
0.0
 11
-33.32445096117226
 21
21.60976095065132
 31
0.0
 11
-33.31732899920775
 21
21.61352077361582
 31
0.0
 11
-33.30968346554442
 21
21.6167473037888
 31
0.0
 11
-33.30178683446656
 21
21.61929824166993
 31
0.0
  0
SPLINE
  5
12E
330
2
100
AcDbEntity
  8
GAIKEI
  6
Continuous
 62
     1
100
AcDbSpline
210
0.0
220
0.0
230
1.0
 70
     8
 71
     3
 72
    19
 73
    15
 74
    13
 42
0.0000000001
 43
0.0000000001
 44
0.000001
 12
0.9639938394678312
 22
0.2659245710122878
 32
0.0
 13
0.26346002757732
 23
0.9646703135625962
 33
0.0
 40
0.0
 40
0.0
 40
0.0
 40
0.0
 40
0.0080455644807581
 40
0.0160915728627848
 40
0.0243810347115005
 40
0.0326706179664405
 40
0.0406926484298716
 40
0.0487147353963403
 40
0.0569835490402671
 40
0.0652522942794742
 40
0.0733062202836914
 40
0.0813600285367342
 40
0.0896585537562706
 40
0.0979566571399674
 40
0.0979566571399674
 40
0.0979566571399674
 40
0.0979566571399674
 10
3.534432731194215
 20
0.8009070456344602
 30
0.0
 10
3.537018022725703
 20
0.8016202167288213
 30
0.0
 10
3.542131077766555
 20
0.8032656332306373
 30
0.0
 10
3.549640487918878
 20
0.8063972009067583
 30
0.0
 10
3.556924024517883
 20
0.8102054209449391
 30
0.0
 10
3.563841126842703
 20
0.8146295898684456
 30
0.0
 10
3.570275673845742
 20
0.8195841853694787
 30
0.0
 10
3.576261988064629
 20
0.8250617022448238
 30
0.0
 10
3.581804426523802
 20
0.8311011481124239
 30
0.0
 10
3.586804618389464
 20
0.8376100269469333
 30
0.0
 10
3.591180119627495
 20
0.8444684783977436
 30
0.0
 10
3.594963925176443
 20
0.8516816147124472
 30
0.0
 10
3.5981401818552
 20
0.8592705329772627
 30
0.0
 10
3.599830556651085
 20
0.8645466886239034
 30
0.0
 10
3.600559296166522
 20
0.867214999954939
 30
0.0
 11
3.534432731194215
 21
0.8009070456344602
 31
0.0
 11
3.542092392998426
 21
0.803370186680496
 31
0.0
 11
3.549517709004021
 21
0.8064690262000908
 31
0.0
 11
3.556864112878542
 21
0.8103090528560699
 31
0.0
 11
3.563846506833499
 21
0.8147771264223706
 31
0.0
 11
3.570203312389594
 21
0.8196704201460818
 31
0.0
 11
3.576120782345697
 21
0.8250868546720653
 31
0.0
 11
3.581712793540077
 21
0.8311780822306786
 31
0.0
 11
3.586749203959357
 21
0.8377360602090959
 31
0.0
 11
3.591082381254068
 21
0.8445249914845476
 31
0.0
 11
3.594822891080355
 21
0.851657497999497
 31
0.0
 11
3.598028952907952
 21
0.8593116835299667
 31
0.0
 11
3.600559296166522
 21
0.867214999954939
 31
0.0
  0
SPLINE
  5
12F
330
2
100
AcDbEntity
  8
GAIKEI
  6
Continuous
 62
     1
100
AcDbSpline
210
0.0
220
0.0
230
1.0
 70
     8
 71
     3
 72
    19
 73
    15
 74
    13
 42
0.0000000001
 43
0.0000000001
 44
0.000001
 12
-0.963993839467831
 22
0.2659245710122877
 32
0.0
 13
-0.26346002757732
 23
0.9646703135625962
 33
0.0
 40
0.0
 40
0.0
 40
0.0
 40
0.0
 40
0.0080455644807581
 40
0.0160915728628373
 40
0.0243810347115529
 40
0.0326706179664451
 40
0.0406926484299212
 40
0.04871473539639
 40
0.0569835490403167
 40
0.0652522942794892
 40
0.073306220283737
 40
0.0813600285367534
 40
0.0896585537562679
 40
0.0979566571399819
 40
0.0979566571399819
 40
0.0979566571399819
 40
0.0979566571399819
 10
-33.30178683446656
 20
0.8009070456344602
 30
0.0
 10
-33.30437212599804
 20
0.8016202167288213
 30
0.0
 10
-33.3094851810389
 20
0.8032656332306515
 30
0.0
 10
-33.31699459119128
 20
0.8063972009067583
 30
0.0
 10
-33.32427812779025
 20
0.8102054209449249
 30
0.0
 10
-33.33119523011502
 20
0.8146295898684883
 30
0.0
 10
-33.3376297771182
 20
0.8195841853694645
 30
0.0
 10
-33.34361609133697
 20
0.8250617022448238
 30
0.0
 10
-33.3491585297962
 20
0.8311011481124381
 30
0.0
 10
-33.35415872166183
 20
0.8376100269469475
 30
0.0
 10
-33.35853422289986
 20
0.8444684783977436
 30
0.0
 10
-33.36231802844878
 20
0.8516816147124472
 30
0.0
 10
-33.36549428512751
 20
0.8592705329772911
 30
0.0
 10
-33.36718465992343
 20
0.8645466886238892
 30
0.0
 10
-33.36791339943886
 20
0.867214999954939
 30
0.0
 11
-33.30178683446656
 21
0.8009070456344602
 31
0.0
 11
-33.30944649627077
 21
0.803370186680496
 31
0.0
 11
-33.31687181227642
 21
0.8064690262000908
 31
0.0
 11
-33.32421821615094
 21
0.8103090528560699
 31
0.0
 11
-33.33120061010584
 21
0.8147771264223706
 31
0.0
 11
-33.33755741566199
 21
0.8196704201460818
 31
0.0
 11
-33.34347488561809
 21
0.8250868546720653
 31
0.0
 11
-33.34906689681247
 21
0.8311780822306786
 31
0.0
 11
-33.3541033072317
 21
0.8377360602090959
 31
0.0
 11
-33.35843648452647
 21
0.8445249914845476
 31
0.0
 11
-33.3621769943527
 21
0.851657497999497
 31
0.0
 11
-33.36538305618024
 21
0.8593116835299667
 31
0.0
 11
-33.36791339943886
 21
0.867214999954939
 31
0.0
  0
SPLINE
  5
130
330
2
100
AcDbEntity
  8
GAIKEI
  6
Continuous
 62
     1
100
AcDbSpline
210
0.0
220
0.0
230
1.0
 70
     8
 71
     3
 72
    14
 73
    10
 74
     8
 42
0.0000000001
 43
0.0000000001
 44
0.000001
 12
-0.2697836156325397
 22
-0.962920973255975
 32
0.0
 13
-0.9616843088117285
 23
-0.2741592423853476
 33
0.0
 40
0.0
 40
0.0
 40
0.0
 40
0.0
 40
0.0000378405968686
 40
0.0111891984537575
 40
0.0223415869632647
 40
0.0334914632170221
 40
0.0446413298613456
 40
0.055804098643003
 40
0.0669660519622285
 40
0.0669660519622285
 40
0.0669660519622285
 40
0.0669660519622285
 10
3.570698880946849
 20
0.8761944933752374
 30
0.0
 10
3.570695478022514
 20
0.8761823475404497
 30
0.0
 10
3.569688103801695
 20
0.8725912445013079
 30
0.0
 10
3.567047754437538
 20
0.8655835041747366
 30
0.0
 10
3.561415978030424
 20
0.8558988839027392
 30
0.0
 10
3.554189430570261
 20
0.8473348755585305
 30
0.0
 10
3.545636997055453
 20
0.8400903772549384
 30
0.0
 10
3.535958260614705
 20
0.8344319711560927
 30
0.0
 10
3.528957395541596
 20
0.8317921040856219
 30
0.0
 10
3.525379303753993
 20
0.8307720531971085
 30
0.0
 11
3.570698880946849
 21
0.8761944933752374
 31
0.0
 11
3.570688661531448
 21
0.8761580584919101
 31
0.0
 11
3.566768823005816
 21
0.8657178121941342
 31
0.0
 11
3.56115033651821
 21
0.8560841771096932
 31
0.0
 11
3.553969582953072
 21
0.8475544135203563
 31
0.0
 11
3.545454001334974
 21
0.8403568543951394
 31
0.0
 11
3.535822190982116
 21
0.8347145623712322
 31
0.0
 11
3.525379303753993
 21
0.8307720531971085
 31
0.0
  0
SPLINE
  5
131
330
2
100
AcDbEntity
  8
GAIKEI
  6
Continuous
 62
     1
100
AcDbSpline
210
0.0
220
0.0
230
1.0
 70
     8
 71
     3
 72
    14
 73
    10
 74
     8
 42
0.0000000001
 43
0.0000000001
 44
0.000001
 12
0.2697836156325394
 22
-0.962920973255975
 32
0.0
 13
0.9616843088117285
 23
-0.2741592423853476
 33
0.0
 40
0.0
 40
0.0
 40
0.0
 40
0.0
 40
0.0000378405968412
 40
0.0111891984537567
 40
0.0223415869632639
 40
0.0334914632169847
 40
0.0446413298613517
 40
0.0558040986430091
 40
0.0669660519622346
 40
0.0669660519622346
 40
0.0669660519622346
 40
0.0669660519622346
 10
-33.33805298421919
 20
0.8761944933752374
 30
0.0
 10
-33.33804958129486
 20
0.8761823475404639
 30
0.0
 10
-33.33704220708003
 20
0.8725912445002563
 30
0.0
 10
-33.33440185770715
 20
0.8655835041752197
 30
0.0
 10
-33.32877008130345
 20
0.8558988839026397
 30
0.0
 10
-33.32154353384246
 20
0.8473348755585448
 30
0.0
 10
-33.31299110032779
 20
0.8400903772549241
 30
0.0
 10
-33.30331236388707
 20
0.8344319711560927
 30
0.0
 10
-33.29631149881393
 20
0.8317921040856219
 30
0.0
 10
-33.29273340702633
 20
0.8307720531971085
 30
0.0
 11
-33.33805298421919
 21
0.8761944933752374
 31
0.0
 11
-33.33804276480385
 21
0.8761580584919101
 31
0.0
 11
-33.33412292627816
 21
0.8657178121941342
 31
0.0
 11
-33.32850443979055
 21
0.8560841771096932
 31
0.0
 11
-33.32132368622547
 21
0.8475544135203563
 31
0.0
 11
-33.31280810460731
 21
0.8403568543951394
 31
0.0
 11
-33.30317629425446
 21
0.8347145623712322
 31
0.0
 11
-33.29273340702633
 21
0.8307720531971085
 31
0.0
  0
SPLINE
  5
132
330
2
100
AcDbEntity
  8
GAIKEI
  6
Continuous
 62
     1
100
AcDbSpline
210
0.0
220
0.0
230
1.0
 70
     8
 71
     3
 72
    21
 73
    17
 74
    15
 42
0.0000000001
 43
0.0000000001
 44
0.000001
 12
0.9999999888881687
 22
0.00014907602962
 32
0.0
 13
-0.0007086550231109
 23
-0.9999997489039976
 33
0.0
 40
0.0
 40
0.0
 40
0.0
 40
0.0
 40
0.0146800531684757
 40
0.0294098671610548
 40
0.0440944857460664
 40
0.0587961819046414
 40
0.0735433082183551
 40
0.0882452749644473
 40
0.1031289863564415
 40
0.1180596885229477
 40
0.1329432357531772
 40
0.1478756372180655
 40
0.1628556352591332
 40
0.1777879301772468
 40
0.1934470599829757
 40
0.2091023769871955
 40
0.2091023769871955
 40
0.2091023769871955
 40
0.2091023769871955
 10
5.082437419608652
 20
23.20937652206831
 30
0.0
 10
5.087330770610435
 20
23.20937725154966
 30
0.0
 10
5.09714301321145
 20
23.20884366192718
 30
0.0
 10
5.111669239452339
 20
23.20642514568127
 30
0.0
 10
5.125855012902263
 20
23.20243492660706
 30
0.0
 10
5.139502570332012
 20
23.19686088828476
 30
0.0
 10
5.152463159389839
 20
23.18982821254235
 30
0.0
 10
5.164630556387322
 20
23.1813877708679
 30
0.0
 10
5.175807995818786
 20
23.17157979526718
 30
0.0
 10
5.185875015098133
 20
23.16055569511795
 30
0.0
 10
5.194675626259027
 20
23.14847371894058
 30
0.0
 10
5.202042488084032
 20
23.13544859613047
 30
0.0
 10
5.207926273631841
 20
23.12167407850825
 30
0.0
 10
5.212311166499944
 20
23.10709600992347
 30
0.0
 10
5.215000208057347
 20
23.09188115006834
 30
0.0
 10
5.215603552906628
 20
23.08143252453446
 30
0.0
 10
5.215599854833612
 20
23.07621408684338
 30
0.0
 11
5.082437419608652
 21
23.20937652206831
 31
0.0
 11
5.097096217317471
 21
23.20857639586876
 31
0.0
 11
5.111626631331432
 21
23.20616086182321
 31
0.0
 11
5.125759739935006
 21
23.20217416510343
 31
0.0
 11
5.139374083275015
 21
23.19662526769204
 31
0.0
 11
5.15233605732152
 21
23.18959208824219
 31
0.0
 11
5.164410625090567
 21
23.18120440333141
 31
0.0
 11
5.175604735179604
 21
23.17139535521869
 31
0.0
 11
5.185672903517684
 21
23.16036999776844
 31
0.0
 11
5.194427349447664
 21
23.14833337381811
 31
0.0
 11
5.201787549471191
 21
23.13534088914071
 31
0.0
 11
5.207670849289911
 21
23.12156454234949
 31
0.0
 11
5.211964490247737
 21
23.10726283581642
 31
0.0
 11
5.214696779120913
 21
23.09184390788312
 31
0.0
 11
5.215599854833612
 21
23.07621408684338
 31
0.0
  0
SPLINE
  5
133
330
2
100
AcDbEntity
  8
GAIKEI
  6
Continuous
 62
     1
100
AcDbSpline
210
0.0
220
0.0
230
1.0
 70
     8
 71
     3
 72
    21
 73
    17
 74
    15
 42
0.0000000001
 43
0.0000000001
 44
0.000001
 12
-0.9999999888881687
 22
0.0001490760296198
 32
0.0
 13
0.0007086550231108
 23
-0.9999997489039976
 33
0.0
 40
0.0
 40
0.0
 40
0.0
 40
0.0
 40
0.0146800531684757
 40
0.0294098671610548
 40
0.0440944857461211
 40
0.0587961819046961
 40
0.0735433082183599
 40
0.0882452749644987
 40
0.1031289863564929
 40
0.1180596885229991
 40
0.1329432357531952
 40
0.1478756372181115
 40
0.1628556352591792
 40
0.1777879301772928
 40
0.1934470599830118
 40
0.2091023769872316
 40
0.2091023769872316
 40
0.2091023769872316
 40
0.2091023769872316
 10
-34.84979152288099
 20
23.20937652206831
 30
0.0
 10
-34.85468487388278
 20
23.20937725154966
 30
0.0
 10
-34.86449711648385
 20
23.20884366192719
 30
0.0
 10
-34.87902334272462
 20
23.20642514568129
 30
0.0
 10
-34.89320911617472
 20
23.20243492660707
 30
0.0
 10
-34.90685667360441
 20
23.19686088828479
 30
0.0
 10
-34.91981726266218
 20
23.18982821254228
 30
0.0
 10
-34.93198465965975
 20
23.18138777086799
 30
0.0
 10
-34.94316209909107
 20
23.17157979526715
 30
0.0
 10
-34.95322911837059
 20
23.16055569511796
 30
0.0
 10
-34.96202972953131
 20
23.14847371894054
 30
0.0
 10
-34.96939659135648
 20
23.13544859613049
 30
0.0
 10
-34.97528037690427
 20
23.12167407850825
 30
0.0
 10
-34.97966526977223
 20
23.10709600992348
 30
0.0
 10
-34.98235431132974
 20
23.09188115006836
 30
0.0
 10
-34.98295765617897
 20
23.08143252453446
 30
0.0
 10
-34.98295395810596
 20
23.07621408684338
 30
0.0
 11
-34.84979152288099
 21
23.20937652206831
 31
0.0
 11
-34.86445032058981
 21
23.20857639586876
 31
0.0
 11
-34.87898073460377
 21
23.20616086182321
 31
0.0
 11
-34.8931138432074
 21
23.20217416510343
 31
0.0
 11
-34.90672818654741
 21
23.19662526769204
 31
0.0
 11
-34.91969016059386
 21
23.18959208824219
 31
0.0
 11
-34.93176472836296
 21
23.18120440333141
 31
0.0
 11
-34.942958838452
 21
23.17139535521869
 31
0.0
 11
-34.95302700679008
 21
23.16036999776844
 31
0.0
 11
-34.96178145272001
 21
23.14833337381811
 31
0.0
 11
-34.96914165274359
 21
23.13534088914071
 31
0.0
 11
-34.97502495256231
 21
23.12156454234949
 31
0.0
 11
-34.97931859352013
 21
23.10726283581642
 31
0.0
 11
-34.98205088239326
 21
23.09184390788312
 31
0.0
 11
-34.98295395810596
 21
23.07621408684338
 31
0.0
  0
SPLINE
  5
134
330
2
100
AcDbEntity
  8
GAIKEI
  6
Continuous
 62
     1
100
AcDbSpline
210
0.0
220
0.0
230
1.0
 70
     8
 71
     3
 72
    21
 73
    17
 74
    15
 42
0.0000000001
 43
0.0000000001
 44
0.000001
 12
0.0001490760298765
 22
-0.9999999888881687
 32
0.0
 13
-0.9999997489039975
 23
0.000708655023352
 33
0.0
 40
0.0
 40
0.0
 40
0.0
 40
0.0
 40
0.0146800531684205
 40
0.0294098671610019
 40
0.0440944857460682
 40
0.0587961819046349
 40
0.0735433082183362
 40
0.0882452749644445
 40
0.103128986356452
 40
0.1180596885229907
 40
0.1329432357531836
 40
0.1478756372180929
 40
0.1628556352591233
 40
0.1777879301772505
 40
0.1934470599829819
 40
0.2091023769872135
 40
0.2091023769872135
 40
0.2091023769872135
 40
0.2091023769872135
 10
5.215599854833612
 20
-0.656008799538995
 30
0.0
 10
5.215600584314955
 20
-0.660902150540764
 30
0.0
 10
5.215066994692449
 20
-0.6707143931417932
 30
0.0
 10
5.212648478446567
 20
-0.6852406193825687
 30
0.0
 10
5.208658259372271
 20
-0.6994263928326632
 30
0.0
 10
5.203084221050147
 20
-0.7130739502623698
 30
0.0
 10
5.196051545307625
 20
-0.7260345393201675
 30
0.0
 10
5.187611103633173
 20
-0.7382019363177222
 30
0.0
 10
5.177803128032508
 20
-0.7493793757491006
 30
0.0
 10
5.166779027883194
 20
-0.7594463950285189
 30
0.0
 10
5.154697051705852
 20
-0.7682470061892986
 30
0.0
 10
5.141671928895732
 20
-0.7756138680144318
 30
0.0
 10
5.127897411273579
 20
-0.7814976535622265
 30
0.0
 10
5.113319342688754
 20
-0.7858825464301873
 30
0.0
 10
5.09810448283369
 20
-0.7885715879878035
 30
0.0
 10
5.087655857299722
 20
-0.7891749328369429
 30
0.0
 10
5.082437419608652
 20
-0.7891712347639271
 30
0.0
 11
5.215599854833612
 21
-0.656008799538995
 31
0.0
 11
5.214799728634034
 21
-0.670667597247757
 31
0.0
 11
5.21238419458848
 21
-0.6851980112617185
 31
0.0
 11
5.208397497868702
 21
-0.6993311198653487
 31
0.0
 11
5.202848600457343
 21
-0.7129454632053865
 31
0.0
 11
5.195815421007523
 21
-0.7259074372518626
 31
0.0
 11
5.187427736096708
 21
-0.7379820050209105
 31
0.0
 11
5.177618687984022
 21
-0.7491761151099752
 31
0.0
 11
5.166593330533714
 21
-0.7592442834480551
 31
0.0
 11
5.154556706583377
 21
-0.7679987293780073
 31
0.0
 11
5.14156422190598
 21
-0.7753589294015626
 31
0.0
 11
5.12778787511479
 21
-0.7812422292202541
 31
0.0
 11
5.113486168581687
 21
-0.7855358701780802
 31
0.0
 11
5.09806724064839
 21
-0.7882681590512562
 31
0.0
 11
5.082437419608652
 21
-0.7891712347639271
 31
0.0
  0
SPLINE
  5
135
330
2
100
AcDbEntity
  8
GAIKEI
  6
Continuous
 62
     1
100
AcDbSpline
210
0.0
220
0.0
230
1.0
 70
     8
 71
     3
 72
    21
 73
    17
 74
    15
 42
0.0000000001
 43
0.0000000001
 44
0.000001
 12
-0.0001490760298766
 22
-0.9999999888881687
 32
0.0
 13
0.9999997489039975
 23
0.0007086550233522
 33
0.0
 40
0.0
 40
0.0
 40
0.0
 40
0.0
 40
0.0146800531684174
 40
0.0294098671609988
 40
0.0440944857460805
 40
0.0587961819046473
 40
0.0735433082183485
 40
0.0882452749644568
 40
0.1031289863564644
 40
0.118059688522961
 40
0.1329432357531999
 40
0.1478756372181092
 40
0.1628556352591396
 40
0.1777879301772668
 40
0.1934470599829982
 40
0.2091023769872298
 40
0.2091023769872298
 40
0.2091023769872298
 40
0.2091023769872298
 10
-34.98295395810596
 20
-0.656008799538995
 30
0.0
 10
-34.9829546875873
 20
-0.660902150540764
 30
0.0
 10
-34.98242109796485
 20
-0.670714393141779
 30
0.0
 10
-34.98000258171896
 20
-0.6852406193826113
 30
0.0
 10
-34.97601236264458
 20
-0.6994263928326064
 30
0.0
 10
-34.97043832432252
 20
-0.7130739502623982
 30
0.0
 10
-34.96340564857994
 20
-0.7260345393201391
 30
0.0
 10
-34.9549652069056
 20
-0.7382019363177506
 30
0.0
 10
-34.94515723130473
 20
-0.7493793757490579
 30
0.0
 10
-34.93413313115571
 20
-0.7594463950285757
 30
0.0
 10
-34.92205115497811
 20
-0.7682470061892559
 30
0.0
 10
-34.90902603216813
 20
-0.7756138680144318
 30
0.0
 10
-34.89525151454583
 20
-0.7814976535622265
 30
0.0
 10
-34.88067344596109
 20
-0.7858825464302015
 30
0.0
 10
-34.86545858610597
 20
-0.7885715879877893
 30
0.0
 10
-34.85500996057206
 20
-0.7891749328369429
 30
0.0
 10
-34.84979152288099
 20
-0.7891712347639271
 30
0.0
 11
-34.98295395810596
 21
-0.656008799538995
 31
0.0
 11
-34.98215383190643
 21
-0.670667597247757
 31
0.0
 11
-34.97973829786088
 21
-0.6851980112617185
 31
0.0
 11
-34.97575160114104
 21
-0.6993311198653487
 31
0.0
 11
-34.97020270372968
 21
-0.7129454632053865
 31
0.0
 11
-34.96316952427986
 21
-0.7259074372518626
 31
0.0
 11
-34.95478183936905
 21
-0.7379820050209105
 31
0.0
 11
-34.94497279125636
 21
-0.7491761151099752
 31
0.0
 11
-34.93394743380611
 21
-0.7592442834480551
 31
0.0
 11
-34.92191080985572
 21
-0.7679987293780073
 31
0.0
 11
-34.90891832517832
 21
-0.7753589294015626
 31
0.0
 11
-34.89514197838713
 21
-0.7812422292202541
 31
0.0
 11
-34.88084027185403
 21
-0.7855358701780802
 31
0.0
 11
-34.86542134392073
 21
-0.7882681590512562
 31
0.0
 11
-34.84979152288099
 21
-0.7891712347639271
 31
0.0
  0
LINE
  5
136
330
2
100
AcDbEntity
  8
GAIKEI
  6
Continuous
 62
     1
100
AcDbLine
 10
-34.67075833469085
 20
-0.6097852105926905
 30
0.0
 11
4.903404231418448
 21
-0.6097852105926905
 31
0.0
  0
LINE
  5
137
330
2
100
AcDbEntity
  8
GAIKEI
  6
Continuous
 62
     1
100
AcDbLine
 10
5.036213830662347
 20
22.89718089865317
 30
0.0
 11
5.036213830662347
 21
-0.47697561134882
 31
0.0
  0
LINE
  5
138
330
2
100
AcDbEntity
  8
GAIKEI
  6
Continuous
 62
     1
100
AcDbLine
 10
4.903404231418448
 20
23.02999049789708
 30
0.0
 11
-34.67075833469085
 21
23.02999049789708
 31
0.0
  0
LINE
  5
139
330
2
100
AcDbEntity
  8
GAIKEI
  6
Continuous
 62
     1
100
AcDbLine
 10
-34.80356793393474
 20
22.89718089865317
 30
0.0
 11
-34.80356793393474
 21
-0.47697561134882
 31
0.0
  0
LINE
  5
13A
330
2
100
AcDbEntity
  8
GAIKEI
  6
Continuous
 62
     1
100
AcDbLine
 10
-34.01168574716979
 20
22.10678734414324
 30
0.0
 11
-34.01168574716979
 21
0.313417943161113
 31
0.0
  0
LINE
  5
13B
330
2
100
AcDbEntity
  8
GAIKEI
  6
Continuous
 62
     1
100
AcDbLine
 10
4.244331643897396
 20
22.10678734414324
 30
0.0
 11
4.244331643897396
 21
0.313417943161113
 31
0.0
  0
LINE
  5
13C
330
2
100
AcDbEntity
  8
GAIKEI
  6
Continuous
 62
     1
100
AcDbLine
 10
-33.87703115067689
 20
0.1787633466682337
 30
0.0
 11
4.109677047404545
 21
0.1787633466682337
 31
0.0
  0
LINE
  5
13D
330
2
100
AcDbEntity
  8
GAIKEI
  6
Continuous
 62
     1
100
AcDbLine
 10
4.109677047404545
 20
22.24144194063615
 30
0.0
 11
-33.87703115067689
 21
22.24144194063615
 31
0.0
  0
LINE
  5
13E
330
2
100
AcDbEntity
  8
GAIKEI
  6
Continuous
 62
     1
100
AcDbLine
 10
-33.30864732024492
 20
-0.2916358118148992
 30
0.0
 11
-33.10862955000488
 21
-0.2916358118148992
 31
0.0
  0
LINE
  5
13F
330
2
100
AcDbEntity
  8
GAIKEI
  6
Continuous
 62
     1
100
AcDbLine
 10
-33.32531546776488
 20
-0.5083217295749308
 30
0.0
 11
-33.32531546776488
 21
-0.3083039593349213
 31
0.0
  0
LINE
  5
140
330
2
100
AcDbEntity
  8
GAIKEI
  6
Continuous
 62
     1
100
AcDbLine
 10
-33.10862955000488
 20
-0.5249898770949244
 30
0.0
 11
-33.30864732024492
 21
-0.5249898770949244
 31
0.0
  0
LINE
  5
141
330
2
100
AcDbEntity
  8
GAIKEI
  6
Continuous
 62
     1
100
AcDbLine
 10
-34.31540343045293
 20
-0.3716429199109257
 30
0.0
 11
-34.31540343045293
 21
-0.4449827689988979
 31
0.0
  0
LINE
  5
142
330
2
100
AcDbEntity
  8
GAIKEI
  6
Continuous
 62
     1
100
AcDbLine
 10
-34.38874327954091
 20
-0.3716429199109257
 30
0.0
 11
-34.31540343045293
 21
-0.3716429199109257
 31
0.0
  0
LINE
  5
143
330
2
100
AcDbEntity
  8
GAIKEI
  6
Continuous
 62
     1
100
AcDbLine
 10
-34.38874327954091
 20
-0.4449827689988979
 30
0.0
 11
-34.38874327954091
 21
-0.3716429199109257
 31
0.0
  0
LINE
  5
144
330
2
100
AcDbEntity
  8
GAIKEI
  6
Continuous
 62
     1
100
AcDbLine
 10
-33.09196140248486
 20
-0.3083039593349213
 30
0.0
 11
-33.09196140248486
 21
-0.5083217295749308
 31
0.0
  0
LINE
  5
145
330
2
100
AcDbEntity
  8
GAIKEI
  6
Continuous
 62
     1
100
AcDbLine
 10
-34.31540343045293
 20
-0.4449827689988979
 30
0.0
 11
-34.38874327954091
 21
-0.4449827689988979
 31
0.0
  0
LINE
  5
146
330
2
100
AcDbEntity
  8
GAIKEI
  6
Continuous
 62
     1
100
AcDbLine
 10
5.036213830662347
 20
-0.47697561134882
 30
0.0
 11
5.192178120378798
 21
-0.6329399010652992
 31
0.0
  0
LINE
  5
147
330
2
100
AcDbEntity
  8
GAIKEI
  6
Continuous
 62
     1
100
AcDbLine
 10
5.059368521134899
 20
-0.7657495003091981
 30
0.0
 11
4.903404231418448
 21
-0.6097852105926905
 31
0.0
  0
LINE
  5
148
330
2
100
AcDbEntity
  8
GAIKEI
  6
Continuous
 62
     1
100
AcDbLine
 10
4.903404231418448
 20
23.02999049789708
 30
0.0
 11
5.059368521134899
 21
23.18595478761352
 31
0.0
  0
LINE
  5
149
330
2
100
AcDbEntity
  8
GAIKEI
  6
Continuous
 62
     1
100
AcDbLine
 10
5.192178120378798
 20
23.05314518836963
 30
0.0
 11
5.036213830662347
 21
22.89718089865317
 31
0.0
  0
LINE
  5
14A
330
2
100
AcDbEntity
  8
GAIKEI
  6
Continuous
 62
     1
100
AcDbLine
 10
-34.80356793393474
 20
-0.47697561134882
 30
0.0
 11
-34.9595322236512
 21
-0.6329399010652992
 31
0.0
  0
LINE
  5
14B
330
2
100
AcDbEntity
  8
GAIKEI
  6
Continuous
 62
     1
100
AcDbLine
 10
-34.8267226244073
 20
-0.7657495003091981
 30
0.0
 11
-34.67075833469085
 21
-0.6097852105926905
 31
0.0
  0
LINE
  5
14C
330
2
100
AcDbEntity
  8
GAIKEI
  6
Continuous
 62
     1
100
AcDbLine
 10
-34.67075833469085
 20
23.02999049789708
 30
0.0
 11
-34.8267226244073
 21
23.18595478761352
 31
0.0
  0
LINE
  5
14D
330
2
100
AcDbEntity
  8
GAIKEI
  6
Continuous
 62
     1
100
AcDbLine
 10
-34.9595322236512
 20
23.05314518836963
 30
0.0
 11
-34.80356793393474
 21
22.89718089865317
 31
0.0
  0
LINE
  5
14E
330
2
100
AcDbEntity
  8
GAIKEI
  6
Continuous
 62
     1
100
AcDbLine
 10
5.059368521134899
 20
-0.7657495003091981
 30
0.0
 11
-34.8267226244073
 21
-0.7657495003091981
 31
0.0
  0
LINE
  5
14F
330
2
100
AcDbEntity
  8
GAIKEI
  6
Continuous
 62
     1
100
AcDbLine
 10
5.192178120378798
 20
-0.6329399010652992
 30
0.0
 11
5.192178120378798
 21
23.05314518836963
 31
0.0
  0
LINE
  5
150
330
2
100
AcDbEntity
  8
GAIKEI
  6
Continuous
 62
     1
100
AcDbLine
 10
-34.8267226244073
 20
23.18595478761352
 30
0.0
 11
5.059368521134899
 21
23.18595478761352
 31
0.0
  0
LINE
  5
151
330
2
100
AcDbEntity
  8
GAIKEI
  6
Continuous
 62
     1
100
AcDbLine
 10
-34.9595322236512
 20
-0.6329399010652992
 30
0.0
 11
-34.9595322236512
 21
23.05314518836963
 31
0.0
  0
LINE
  5
152
330
2
100
AcDbEntity
  8
GAIKEI
  6
Continuous
 62
     1
100
AcDbLine
 10
3.600559282365679
 20
21.55299027631412
 30
0.0
 11
4.170685300912793
 21
22.1314552357203
 31
0.0
  0
LINE
  5
153
330
2
100
AcDbEntity
  8
GAIKEI
  6
Continuous
 62
     1
100
AcDbLine
 10
4.080605844024717
 20
22.17345993422327
 30
0.0
 11
3.534432740798479
 21
21.61929823399896
 31
0.0
  0
LINE
  5
154
330
2
100
AcDbEntity
  8
GAIKEI
  6
Continuous
 62
     1
100
AcDbLine
 10
-33.84714259527886
 20
22.17263062721156
 30
0.0
 11
-33.30178684407082
 21
21.61929823399896
 31
0.0
  0
LINE
  5
155
330
2
100
AcDbEntity
  8
GAIKEI
  6
Continuous
 62
     1
100
AcDbLine
 10
-33.36791338563808
 20
21.55299027631412
 30
0.0
 11
-33.93803940418519
 21
22.1314552357203
 31
0.0
  0
LINE
  5
156
330
2
100
AcDbEntity
  8
GAIKEI
  6
Continuous
 62
     1
100
AcDbLine
 10
3.534432740798479
 20
0.8009070533053943
 30
0.0
 11
4.080605844024717
 21
0.2467453530811099
 31
0.0
  0
LINE
  5
157
330
2
100
AcDbEntity
  8
GAIKEI
  6
Continuous
 62
     1
100
AcDbLine
 10
4.170685300912793
 20
0.28875005158406
 30
0.0
 11
3.600559282365679
 21
0.8672150109902645
 31
0.0
  0
LINE
  5
158
330
2
100
AcDbEntity
  8
GAIKEI
  6
Continuous
 62
     1
100
AcDbLine
 10
-33.30178684407082
 20
0.8009070533053943
 30
0.0
 11
-33.84795994729706
 21
0.2467453530811099
 31
0.0
  0
LINE
  5
159
330
2
100
AcDbEntity
  8
GAIKEI
  6
Continuous
 62
     1
100
AcDbLine
 10
-33.93803940418519
 20
0.28875005158406
 30
0.0
 11
-33.36791338563808
 21
0.8672150109902645
 31
0.0
  0
LINE
  5
15A
330
2
100
AcDbEntity
  8
GAIKEI
  6
Continuous
 62
     1
100
AcDbLine
 10
3.604365853887429
 20
0.8944713992045763
 30
0.0
 11
3.604365853887429
 21
21.52573388809981
 31
0.0
  0
LINE
  5
15B
330
2
100
AcDbEntity
  8
GAIKEI
  6
Continuous
 62
     1
100
AcDbLine
 10
4.17634963748452
 20
0.313417943161113
 30
0.0
 11
4.17634963748452
 21
22.10678734414324
 31
0.0
  0
LINE
  5
15C
330
2
100
AcDbEntity
  8
GAIKEI
  6
Continuous
 62
     1
100
AcDbLine
 10
-33.37171995715983
 20
0.8944713992045763
 30
0.0
 11
-33.37171995715983
 21
21.52573388809981
 31
0.0
  0
LINE
  5
15D
330
2
100
AcDbEntity
  8
GAIKEI
  6
Continuous
 62
     1
100
AcDbLine
 10
-33.94370374075692
 20
0.313417943161113
 30
0.0
 11
-33.94370374075692
 21
22.10678734414324
 31
0.0
  0
LINE
  5
15E
330
2
100
AcDbEntity
  8
GAIKEI
  6
Continuous
 62
     1
100
AcDbLine
 10
4.109677047404545
 20
0.2467453530811099
 30
0.0
 11
-33.87703115067689
 21
0.2467453530811099
 31
0.0
  0
LINE
  5
15F
330
2
100
AcDbEntity
  8
GAIKEI
  6
Continuous
 62
     1
100
AcDbLine
 10
-33.87703115067689
 20
22.17345993422325
 30
0.0
 11
4.109677047404545
 21
22.17345993422325
 31
0.0
  0
LINE
  5
160
330
2
100
AcDbEntity
  8
GAIKEI
  6
Continuous
 62
     1
100
AcDbLine
 10
-33.27430633594497
 20
21.62316861118942
 30
0.0
 11
3.506952232672574
 21
21.62316861118942
 31
0.0
  0
LINE
  5
161
330
2
100
AcDbEntity
  8
GAIKEI
  6
Continuous
 62
     1
100
AcDbLine
 10
3.506952232672574
 20
0.7970366761149421
 30
0.0
 11
-33.27430633594497
 21
0.7970366761149421
 31
0.0
  0
LINE
  5
162
330
2
100
AcDbEntity
  8
GAIKEI
  6
Continuous
 62
     1
100
AcDbLine
 10
3.573130612178601
 20
21.52573388809981
 30
0.0
 11
3.573130612178601
 21
0.8944713992045763
 31
0.0
  0
LINE
  5
163
330
2
100
AcDbEntity
  8
GAIKEI
  6
Continuous
 62
     1
100
AcDbLine
 10
-33.340484715451
 20
21.52573388809981
 30
0.0
 11
-33.340484715451
 21
0.8944713992045763
 31
0.0
  0
LINE
  5
164
330
2
100
AcDbEntity
  8
GAIKEI
  6
Continuous
 62
     1
100
AcDbLine
 10
-33.27430633594497
 20
0.8282985535234956
 30
0.0
 11
3.506952232672574
 21
0.8282985535234956
 31
0.0
  0
LINE
  5
165
330
2
100
AcDbEntity
  8
GAIKEI
  6
Continuous
 62
     1
100
AcDbLine
 10
3.506952232672574
 20
21.59190673378083
 30
0.0
 11
-33.27430633594497
 21
21.59190673378083
 31
0.0
  0
LINE
  5
166
330
2
100
AcDbEntity
  8
GAIKEI
  6
Continuous
 62
     1
100
AcDbLine
 10
-34.8267226244073
 20
-0.7891235102668475
 30
0.0
 11
5.059368521134899
 21
-0.7891235102668475
 31
0.0
  0
LINE
  5
167
330
2
100
AcDbEntity
  8
GAIKEI
  6
Continuous
 62
     1
100
AcDbLine
 10
5.059368521134899
 20
23.20932879757117
 30
0.0
 11
-34.8267226244073
 21
23.20932879757117
 31
0.0
  0
LINE
  5
168
330
2
100
AcDbEntity
  8
GAIKEI
  6
Continuous
 62
     1
100
AcDbLine
 10
5.215552130336448
 20
23.05314518836963
 30
0.0
 11
5.215552130336448
 21
-0.6329399010652992
 31
0.0
  0
LINE
  5
169
330
2
100
AcDbEntity
  8
GAIKEI
  6
Continuous
 62
     1
100
AcDbLine
 10
-34.98290623360885
 20
23.05314518836963
 30
0.0
 11
-34.98290623360885
 21
-0.6329399010652992
 31
0.0
  0
LINE
  5
16A
330
2
100
AcDbEntity
  8
GAIKEI
  6
Continuous
 62
     1
100
AcDbLine
 10
5.283114499467387
 20
23.14372873611151
 30
0.0
 11
5.215599867910952
 21
23.0762140712188
 31
0.0
  0
LINE
  5
16B
330
2
100
AcDbEntity
  8
GAIKEI
  6
Continuous
 62
     1
100
AcDbLine
 10
5.082437403984101
 20
23.20937653514568
 30
0.0
 11
5.149952068876814
 21
23.27689116670212
 31
0.0
  0
LINE
  5
16C
330
2
100
AcDbEntity
  8
GAIKEI
  6
Continuous
 62
     1
100
AcDbLine
 10
-35.05046860273978
 20
23.14372873611151
 30
0.0
 11
-34.98295397118335
 21
23.0762140712188
 31
0.0
  0
LINE
  5
16D
330
2
100
AcDbEntity
  8
GAIKEI
  6
Continuous
 62
     1
100
AcDbLine
 10
-34.8497915072565
 20
23.20937653514568
 30
0.0
 11
-34.91730617214916
 21
23.27689116670212
 31
0.0
  0
LINE
  5
16E
330
2
100
AcDbEntity
  8
GAIKEI
  6
Continuous
 62
     1
100
AcDbLine
 10
-34.91730617214916
 20
-0.8566858793977587
 30
0.0
 11
-34.8497915072565
 21
-0.7891712478413524
 31
0.0
  0
LINE
  5
16F
330
2
100
AcDbEntity
  8
GAIKEI
  6
Continuous
 62
     1
100
AcDbLine
 10
-34.98295397118335
 20
-0.6560087839144444
 30
0.0
 11
-35.05046860273978
 21
-0.7235234488071569
 31
0.0
  0
LINE
  5
170
330
2
100
AcDbEntity
  8
GAIKEI
  6
Continuous
 62
     7
100
AcDbLine
 10
-34.91712355592495
 20
-0.8566860127429549
 30
0.0
 11
5.149769452652549
 21
-0.8566860127429549
 31
0.0
  0
LINE
  5
171
330
2
100
AcDbEntity
  8
GAIKEI
  6
Continuous
 62
     7
100
AcDbLine
 10
-34.91712355592495
 20
23.27689130004728
 30
0.0
 11
5.149769452652549
 21
23.27689130004728
 31
0.0
  0
LINE
  5
172
330
2
100
AcDbEntity
  8
GAIKEI
  6
Continuous
 62
     7
100
AcDbLine
 10
5.283114632812555
 20
23.14354611988727
 30
0.0
 11
5.283114632812555
 21
-0.7233408325829487
 31
0.0
  0
LINE
  5
173
330
2
100
AcDbEntity
  8
GAIKEI
  6
Continuous
 62
     7
100
AcDbLine
 10
-35.05046873608495
 20
23.14354611988727
 30
0.0
 11
-35.05046873608495
 21
-0.7233408325829487
 31
0.0
  0
ARC
  5
174
330
2
100
AcDbEntity
  8
GAIKEI
  6
Continuous
 62
     1
100
AcDbCircle
 10
-33.87703115067689
 20
0.313417943161113
 30
0.0
 40
0.1346545964928812
100
AcDbArc
 50
180.0
 51
270.0
  0
ARC
  5
175
330
2
100
AcDbEntity
  8
GAIKEI
  6
Continuous
 62
     1
100
AcDbCircle
 10
-33.87703115067689
 20
22.10678734414324
 30
0.0
 40
0.1346545964928812
100
AcDbArc
 50
90.0
 51
180.0
  0
ARC
  5
176
330
2
100
AcDbEntity
  8
GAIKEI
  6
Continuous
 62
     1
100
AcDbCircle
 10
4.109677047404545
 20
0.313417943161113
 30
0.0
 40
0.1346545964928812
100
AcDbArc
 50
270.0
 51
0.0
  0
ARC
  5
177
330
2
100
AcDbEntity
  8
GAIKEI
  6
Continuous
 62
     1
100
AcDbCircle
 10
4.109677047404545
 20
22.10678734414324
 30
0.0
 40
0.1346545964928812
100
AcDbArc
 50
0.0
 51
90.0
  0
ARC
  5
178
330
2
100
AcDbEntity
  8
GAIKEI
  6
Continuous
 62
     1
100
AcDbCircle
 10
-33.10862955000488
 20
-0.5083217295749308
 30
0.0
 40
0.0166681475200006
100
AcDbArc
 50
270.0
 51
0.0
  0
ARC
  5
179
330
2
100
AcDbEntity
  8
GAIKEI
  6
Continuous
 62
     1
100
AcDbCircle
 10
-33.30864732024492
 20
-0.5083217295749308
 30
0.0
 40
0.0166681475200006
100
AcDbArc
 50
180.0
 51
270.0
  0
ARC
  5
17A
330
2
100
AcDbEntity
  8
GAIKEI
  6
Continuous
 62
     1
100
AcDbCircle
 10
-33.10862955000488
 20
-0.3083039593349213
 30
0.0
 40
0.0166681475200006
100
AcDbArc
 50
0.0
 51
90.0
  0
ARC
  5
17B
330
2
100
AcDbEntity
  8
GAIKEI
  6
Continuous
 62
     1
100
AcDbCircle
 10
-33.30864732024492
 20
-0.3083039593349213
 30
0.0
 40
0.0166681475200006
100
AcDbArc
 50
90.0
 51
180.0
  0
ARC
  5
17C
330
2
100
AcDbEntity
  8
GAIKEI
  6
Continuous
 62
     1
100
AcDbCircle
 10
4.109677047404545
 20
22.10678734414324
 30
0.0
 40
0.0666725900800025
100
AcDbArc
 50
0.0
 51
90.0
  0
ARC
  5
17D
330
2
100
AcDbEntity
  8
GAIKEI
  6
Continuous
 62
     1
100
AcDbCircle
 10
-33.87703115067689
 20
22.10678734414324
 30
0.0
 40
0.0666725900800025
100
AcDbArc
 50
90.0
 51
180.0
  0
ARC
  5
17E
330
2
100
AcDbEntity
  8
GAIKEI
  6
Continuous
 62
     1
100
AcDbCircle
 10
4.109677047404545
 20
0.313417943161113
 30
0.0
 40
0.0666725900800025
100
AcDbArc
 50
270.0
 51
0.0
  0
ARC
  5
17F
330
2
100
AcDbEntity
  8
GAIKEI
  6
Continuous
 62
     1
100
AcDbCircle
 10
-33.87703115067689
 20
0.313417943161113
 30
0.0
 40
0.0666725900800025
100
AcDbArc
 50
180.0
 51
270.0
  0
ARC
  5
180
330
2
100
AcDbEntity
  8
GAIKEI
  6
Continuous
 62
     1
100
AcDbCircle
 10
3.507593956352081
 20
21.52636847781218
 30
0.0
 40
0.0655246547603001
100
AcDbArc
 50
15.61945599999471
 51
74.25064600000692
  0
ARC
  5
181
330
2
100
AcDbEntity
  8
GAIKEI
  6
Continuous
 62
     1
100
AcDbCircle
 10
-33.27494805962448
 20
21.52636847781218
 30
0.0
 40
0.0655246547603001
100
AcDbArc
 50
105.7493539999931
 51
164.3805440000052
  0
ARC
  5
182
330
2
100
AcDbEntity
  8
GAIKEI
  6
Continuous
 62
     7
100
AcDbCircle
 10
5.149769452652549
 20
23.14354611988727
 30
0.0
 40
0.133345180160005
100
AcDbArc
 50
0.0784680000136074
 51
89.9215319999986
  0
ARC
  5
183
330
2
100
AcDbEntity
  8
GAIKEI
  6
Continuous
 62
     7
100
AcDbCircle
 10
-34.91712355592495
 20
23.14354611988727
 30
0.0
 40
0.133345180160005
100
AcDbArc
 50
90.07846799999812
 51
179.9215319999864
  0
ARC
  5
184
330
2
100
AcDbEntity
  8
GAIKEI
  6
Continuous
 62
     7
100
AcDbCircle
 10
5.149769452652549
 20
-0.7233408325829487
 30
0.0
 40
0.133345180160005
100
AcDbArc
 50
270.0784679999981
 51
359.9215319999864
  0
ARC
  5
185
330
2
100
AcDbEntity
  8
GAIKEI
  6
Continuous
 62
     7
100
AcDbCircle
 10
-34.91712355592495
 20
-0.7233408325829487
 30
0.0
 40
0.133345180160005
100
AcDbArc
 50
180.0784680000136
 51
269.9215320000019
  0
ARC
  5
186
330
2
100
AcDbEntity
  8
GAIKEI
  6
Continuous
 62
     1
100
AcDbCircle
 10
5.149769452652549
 20
-0.7233408325829487
 30
0.0
 40
0.133345180160005
100
AcDbArc
 50
270.0
 51
270.0784679999981
  0
ARC
  5
187
330
2
100
AcDbEntity
  8
GAIKEI
  6
Continuous
 62
     1
100
AcDbCircle
 10
-34.91712355592495
 20
-0.7233408325829487
 30
0.0
 40
0.133345180160005
100
AcDbArc
 50
269.9215320000019
 51
270.0
  0
ARC
  5
188
330
2
100
AcDbEntity
  8
GAIKEI
  6
Continuous
 62
     1
100
AcDbCircle
 10
-34.91712355592495
 20
23.14354611988727
 30
0.0
 40
0.133345180160005
100
AcDbArc
 50
90.0
 51
90.07846799999812
  0
ARC
  5
189
330
2
100
AcDbEntity
  8
GAIKEI
  6
Continuous
 62
     1
100
AcDbCircle
 10
5.149769452652549
 20
23.14354611988727
 30
0.0
 40
0.133345180160005
100
AcDbArc
 50
89.9215319999986
 51
90.0
  0
ARC
  5
18A
330
2
100
AcDbEntity
  8
GAIKEI
  6
Continuous
 62
     1
100
AcDbCircle
 10
5.149769452652549
 20
23.14354611988727
 30
0.0
 40
0.133345180160005
100
AcDbArc
 50
0.0
 51
0.0784680000136074
  0
ARC
  5
18B
330
2
100
AcDbEntity
  8
GAIKEI
  6
Continuous
 62
     1
100
AcDbCircle
 10
5.149769452652549
 20
-0.7233408325829487
 30
0.0
 40
0.133345180160005
100
AcDbArc
 50
359.9215319999864
 51
0.0
  0
ARC
  5
18C
330
2
100
AcDbEntity
  8
GAIKEI
  6
Continuous
 62
     1
100
AcDbCircle
 10
-34.91712355592495
 20
-0.7233408325829487
 30
0.0
 40
0.133345180160005
100
AcDbArc
 50
180.0
 51
180.0784680000136
  0
ARC
  5
18D
330
2
100
AcDbEntity
  8
GAIKEI
  6
Continuous
 62
     1
100
AcDbCircle
 10
-34.91712355592495
 20
23.14354611988727
 30
0.0
 40
0.133345180160005
100
AcDbArc
 50
179.9215319999864
 51
180.0
  0
ELLIPSE
  5
18E
330
2
100
AcDbEntity
  8
GAIKEI
  6
Continuous
 62
     1
100
AcDbEllipse
 10
-34.37793545267118
 20
22.60435801663354
 30
0.0
 11
-0.3876090726745502
 21
0.3876090726745502
 31
0.0
210
0.0
220
0.0
230
1.0
 40
0.4561100000000735
 41
-0.3850537013367683
 42
0.3850537013367188
  0
ELLIPSE
  5
18F
330
2
100
AcDbEntity
  8
GAIKEI
  6
Continuous
 62
     1
100
AcDbEllipse
 10
4.610581349398785
 20
22.60435801663354
 30
0.0
 11
0.3876090726745562
 21
0.3876090726745562
 31
0.0
210
0.0
220
0.0
230
1.0
 40
0.4561100000000421
 41
5.898131605842833
 42
6.668239008516371
  0
ELLIPSE
  5
190
330
2
100
AcDbEntity
  8
GAIKEI
  6
Continuous
 62
     1
100
AcDbEllipse
 10
-34.37793545267118
 20
-0.1841527293291563
 30
0.0
 11
0.3876090726745644
 21
0.3876090726745644
 31
0.0
210
0.0
220
0.0
230
1.0
 40
0.4561099999999612
 41
2.756538952253047
 42
3.526646354926617
  0
ELLIPSE
  5
191
330
2
100
AcDbEntity
  8
GAIKEI
  6
Continuous
 62
     1
100
AcDbEllipse
 10
4.610581349398785
 20
-0.1841527293291563
 30
0.0
 11
-0.3876090726745644
 21
0.3876090726745644
 31
0.0
210
0.0
220
0.0
230
1.0
 40
0.4561099999999687
 41
2.756538952252958
 42
3.526646354926537
  0
ELLIPSE
  5
192
330
2
100
AcDbEntity
  8
GAIKEI
  6
Continuous
 62
     1
100
AcDbEllipse
 10
5.178408897075541
 20
-0.7519802770058277
 30
0.0
 11
0.0305357090723699
 21
0.3230407415195018
 31
0.0
210
0.0
220
0.0
230
1.0
 40
0.0083090000001242
 41
-1.279026757203155
 42
-1.192616584199406
  0
ELLIPSE
  5
193
330
2
100
AcDbEntity
  8
GAIKEI
  6
Continuous
 62
     1
100
AcDbEllipse
 10
5.178408897075541
 20
-0.7519802770058277
 30
0.0
 11
0.3230407423313618
 21
0.0305357091442317
 31
0.0
210
0.0
220
0.0
230
1.0
 40
0.0083089999819143
 41
4.334209238787228
 42
4.420619411547537
  0
ELLIPSE
  5
194
330
2
100
AcDbEntity
  8
GAIKEI
  6
Continuous
 62
     1
100
AcDbEllipse
 10
5.178408897075541
 20
23.17218556431021
 30
0.0
 11
-0.3230407423314021
 21
0.0305357091442352
 31
0.0
210
0.0
220
0.0
230
1.0
 40
0.0083089999819134
 41
-1.279026757957789
 42
-1.192616585197497
  0
ELLIPSE
  5
195
330
2
100
AcDbEntity
  8
GAIKEI
  6
Continuous
 62
     1
100
AcDbEllipse
 10
5.178408897075541
 20
23.17218556431021
 30
0.0
 11
-0.030535709066745
 21
0.3230407414557805
 31
0.0
210
0.0
220
0.0
230
1.0
 40
0.0083090000015409
 41
4.33420923771091
 42
4.420619410733783
  0
ELLIPSE
  5
196
330
2
100
AcDbEntity
  8
GAIKEI
  6
Continuous
 62
     1
100
AcDbEllipse
 10
-34.94576300034788
 20
-0.7519802770058277
 30
0.0
 11
-0.3230407423546608
 21
0.0305357091463026
 31
0.0
210
0.0
220
0.0
230
1.0
 40
0.0083089999813824
 41
1.862565895610391
 42
1.948976068363679
  0
ELLIPSE
  5
197
330
2
100
AcDbEntity
  8
GAIKEI
  6
Continuous
 62
     1
100
AcDbEllipse
 10
-34.94576300034788
 20
-0.7519802770058277
 30
0.0
 11
-0.030535709049866
 21
0.3230407412645781
 31
0.0
210
0.0
220
0.0
230
1.0
 40
0.0083090000057778
 41
1.192616583886016
 42
1.279026756966244
  0
ELLIPSE
  5
198
330
2
100
AcDbEntity
  8
GAIKEI
  6
Continuous
 62
     1
100
AcDbEllipse
 10
-34.94576300034788
 20
23.17218556431021
 30
0.0
 11
0.0305357090498701
 21
0.3230407412646187
 31
0.0
210
0.0
220
0.0
230
1.0
 40
0.0083090000057821
 41
1.862565896623444
 42
1.948976069703653
  0
ELLIPSE
  5
199
330
2
100
AcDbEntity
  8
GAIKEI
  6
Continuous
 62
     1
100
AcDbEllipse
 10
-34.94576300034788
 20
23.17218556431021
 30
0.0
 11
0.3230407423546598
 21
0.0305357091463026
 31
0.0
210
0.0
220
0.0
230
1.0
 40
0.0083089999813824
 41
1.192616585226102
 42
1.279026757979404
  0
ELLIPSE
  5
19A
330
2
100
AcDbEntity
  8
GAIKEI
  6
Continuous
 62
     1
100
AcDbEllipse
 10
3.50291260711225
 20
0.8966612270894529
 30
0.0
 11
-0.0823124171856116
 21
0.0606728015098772
 31
0.0
210
0.0
220
0.0
230
1.0
 40
0.9775040000007887
 41
3.491160237179388
 42
3.765959554391168
  0
ELLIPSE
  5
19B
330
2
100
AcDbEntity
  8
GAIKEI
  6
Continuous
 62
     1
100
AcDbEllipse
 10
3.50291260711225
 20
21.52354406021493
 30
0.0
 11
0.0823124171885619
 21
0.0606728015057627
 31
0.0
210
0.0
220
0.0
230
1.0
 40
0.9775039999996579
 41
-0.6243669007516715
 42
-0.349567583539371
  0
ELLIPSE
  5
19C
330
2
100
AcDbEntity
  8
GAIKEI
  6
Continuous
 62
     1
100
AcDbEllipse
 10
-33.27026671038459
 20
21.52354406021493
 30
0.0
 11
-0.0823124171911972
 21
0.0606728015020962
 31
0.0
210
0.0
220
0.0
230
1.0
 40
0.9775039999983139
 41
0.3495675834948664
 42
0.6243669007078401
  0
ELLIPSE
  5
19D
330
2
100
AcDbEntity
  8
GAIKEI
  6
Continuous
 62
     1
100
AcDbEllipse
 10
-33.27026671038459
 20
0.8966612270894529
 30
0.0
 11
0.0823124171870749
 21
0.0606728015078452
 31
0.0
210
0.0
220
0.0
230
1.0
 40
0.9775040000002562
 41
2.517225752813203
 42
2.792025070024934
  0
ELLIPSE
  5
19E
330
2
100
AcDbEntity
  8
GAIKEI
  6
Continuous
 62
     1
100
AcDbEllipse
 10
3.504772472348804
 20
21.52172539863903
 30
0.0
 11
0.0607808270141988
 21
0.0822184915774339
 31
0.0
210
0.0
220
0.0
230
1.0
 40
0.9776260000029461
 41
0.3486902261527096
 42
0.6258116351479744
  0
ELLIPSE
  5
19F
330
2
100
AcDbEntity
  8
GAIKEI
  6
Continuous
 62
     1
100
AcDbEllipse
 10
-33.2721265756212
 20
21.52172539863903
 30
0.0
 11
-0.0607808270158121
 21
0.082218491576272
 31
0.0
210
0.0
220
0.0
230
0.9999999999999998
 40
0.9776260000034472
 41
-0.625811635167389
 42
-0.3486902261722637
  0
ELLIPSE
  5
1A0
330
2
100
AcDbEntity
  8
GAIKEI
  6
Continuous
 62
     1
100
AcDbEllipse
 10
-33.2721265756212
 20
0.8984798886653777
 30
0.0
 11
0.0607808269967871
 21
0.0822184915900438
 31
0.0
210
0.0
220
0.0
230
1.0
 40
0.977625999995409
 41
3.490282879530687
 42
3.767404288529979
  0
ELLIPSE
  5
1A1
330
2
100
AcDbEntity
  8
GAIKEI
  6
Continuous
 62
     1
100
AcDbEllipse
 10
3.504772472348804
 20
0.8984798886653777
 30
0.0
 11
-0.0607808270033003
 21
0.0822184915853297
 31
0.0
210
0.0
220
0.0
230
1.0
 40
0.9776259999984945
 41
2.515781018572056
 42
2.792902427569963
  0
ELLIPSE
  5
1A2
330
2
100
AcDbEntity
  8
GAIKEI
  6
Continuous
 62
     1
100
AcDbEllipse
 10
3.504765171700228
 20
0.8966612270894529
 30
0.0
 11
-0.0547195731247495
 21
0.0426917914117292
 31
0.0
210
0.0
220
0.0
230
1.0
 40
0.9600419999999962
 41
3.516854090128136
 42
3.791653407339537
  0
ELLIPSE
  5
1A3
330
2
100
AcDbEntity
  8
GAIKEI
  6
Continuous
 62
     1
100
AcDbEllipse
 10
3.504765171700228
 20
21.52354406021493
 30
0.0
 11
0.0547195731240741
 21
0.0426917914126376
 31
0.0
210
0.0
220
0.0
230
1.0
 40
0.9600420000007662
 41
-0.6500607537652972
 42
-0.3752614365537126
  0
ELLIPSE
  5
1A4
330
2
100
AcDbEntity
  8
GAIKEI
  6
Continuous
 62
     1
100
AcDbEllipse
 10
-33.27211927497257
 20
0.8966612270894529
 30
0.0
 11
0.054719573126713
 21
0.0426917914091056
 31
0.0
210
0.0
220
0.0
230
1.0
 40
0.9600419999976159
 41
2.491531899886615
 42
2.766331217099247
  0
ELLIPSE
  5
1A5
330
2
100
AcDbEntity
  8
GAIKEI
  6
Continuous
 62
     1
100
AcDbEllipse
 10
-33.27211927497257
 20
21.52354406021493
 30
0.0
 11
-0.05471957312403
 21
0.042691791412705
 31
0.0
210
0.0
220
0.0
230
1.0
 40
0.9600420000005415
 41
0.3752614365549947
 42
0.6500607537665788
  0
ELLIPSE
  5
1A6
330
2
100
AcDbEntity
  8
GAIKEI
  6
Continuous
 62
     1
100
AcDbEllipse
 10
3.504772472348804
 20
0.8966539264408481
 30
0.0
 11
-0.042753784866503
 21
0.0546568828102033
 31
0.0
210
0.0
220
0.0
230
0.9999999999999996
 40
0.9602120000078178
 41
2.490198768239826
 42
2.767320177232909
  0
ELLIPSE
  5
1A7
330
2
100
AcDbEntity
  8
GAIKEI
  6
Continuous
 62
     1
100
AcDbEllipse
 10
-33.2721265756212
 20
0.8966539264408481
 30
0.0
 11
0.0427537848582486
 21
0.0546568828163674
 31
0.0
210
0.0
220
0.0
230
1.0
 40
0.9602120000005857
 41
3.515865129796059
 42
3.792986538793065
  0
ELLIPSE
  5
1A8
330
2
100
AcDbEntity
  8
GAIKEI
  6
Continuous
 62
     1
100
AcDbEllipse
 10
3.504772472348804
 20
21.52355136086354
 30
0.0
 11
0.0427537848527262
 21
0.0546568828205145
 31
0.0
210
0.0
220
0.0
230
1.0
 40
0.9602119999955242
 41
0.3742724761062375
 42
0.6513938851051569
  0
ELLIPSE
  5
1A9
330
2
100
AcDbEntity
  8
GAIKEI
  6
Continuous
 62
     1
100
AcDbEllipse
 10
-33.2721265756212
 20
21.52355136086354
 30
0.0
 11
-0.0427537848529118
 21
0.0546568828203793
 31
0.0
210
0.0
220
0.0
230
1.0
 40
0.960211999995565
 41
-0.6513938851084821
 42
-0.3742724761095297
  0
ELLIPSE
  5
1AA
330
2
100
AcDbEntity
  8
GAIKEI
  6
Continuous
 62
     1
100
AcDbEllipse
 10
5.178408897075541
 20
-0.8019161801432233
 30
0.0
 11
-0.2879170138799422
 21
0.0052978427250903
 31
0.0
210
0.0
220
0.0
230
1.0
 40
0.0404429999981349
 41
-1.230218566717536
 42
-1.143808393720374
  0
ELLIPSE
  5
1AB
330
2
100
AcDbEntity
  8
GAIKEI
  6
Continuous
 62
     1
100
AcDbEllipse
 10
5.178408897075541
 20
23.22212146744761
 30
0.0
 11
0.2879170138798924
 21
0.005297842725091
 31
0.0
210
0.0
220
0.0
230
1.0
 40
0.0404429999981408
 41
4.285401047310096
 42
4.371811220307267
  0
ELLIPSE
  5
1AC
330
2
100
AcDbEntity
  8
GAIKEI
  6
Continuous
 62
     1
100
AcDbEllipse
 10
5.22834480021288
 20
23.17218556431021
 30
0.0
 11
0.0052978427250493
 21
0.2879170138793219
 31
0.0
210
0.0
220
0.0
230
1.0
 40
0.0404429999982778
 41
1.911374086873103
 42
1.997784259870286
  0
ELLIPSE
  5
1AD
330
2
100
AcDbEntity
  8
GAIKEI
  6
Continuous
 62
     1
100
AcDbEllipse
 10
5.22834480021288
 20
-0.7519802770058277
 30
0.0
 11
-0.0052978427254085
 21
0.2879170138543368
 31
0.0
210
0.0
220
0.0
230
1.0
 40
0.0404430000012197
 41
1.14380839367993
 42
1.230218566685839
  0
ELLIPSE
  5
1AE
330
2
100
AcDbEntity
  8
GAIKEI
  6
Continuous
 62
     1
100
AcDbEllipse
 10
-34.94576300034788
 20
-0.8019161801432233
 30
0.0
 11
0.2879170138799391
 21
0.0052978427250901
 31
0.0
210
0.0
220
0.0
230
1.0
 40
0.0404429999981356
 41
1.143808393720369
 42
1.23021856671755
  0
ELLIPSE
  5
1AF
330
2
100
AcDbEntity
  8
GAIKEI
  6
Continuous
 62
     1
100
AcDbEllipse
 10
-34.94576300034788
 20
23.22212146744761
 30
0.0
 11
-0.2879170138797297
 21
0.0052978427250935
 31
0.0
210
0.0
220
0.0
230
1.0
 40
0.0404429999981596
 41
1.911374086872534
 42
1.997784259869754
  0
ELLIPSE
  5
1B0
330
2
100
AcDbEntity
  8
GAIKEI
  6
Continuous
 62
     1
100
AcDbEllipse
 10
-34.99569890348528
 20
-0.7519802770058277
 30
0.0
 11
0.0052978427251001
 21
0.2879170138793289
 31
0.0
210
0.0
220
0.0
230
1.0
 40
0.0404429999982055
 41
-1.230218566716693
 42
-1.143808393719511
  0
ELLIPSE
  5
1B1
330
2
100
AcDbEntity
  8
GAIKEI
  6
Continuous
 62
     1
100
AcDbEllipse
 10
-34.99569890348528
 20
23.17218556431021
 30
0.0
 11
-0.0052978427251001
 21
0.2879170138793281
 31
0.0
210
0.0
220
0.0
230
1.0
 40
0.0404429999982056
 41
4.285401047309302
 42
4.371811220306485
  0
LINE
  5
1B2
330
2
100
AcDbEntity
  8
GAIKEI
  6
S10
 62
     1
100
AcDbLine
 10
-13.44854955016376
 20
18.42102628595
 30
0.0
 11
-13.44854955016376
 21
17.82097297523
 31
0.0
  0
LINE
  5
1B4
330
2
100
AcDbEntity
  8
GAIKEI
  6
S10
 62
     1
100
AcDbLine
 10
-16.4188134382278
 20
18.42102628595
 30
0.0
 11
-16.4188134382278
 21
17.82097297523
 31
0.0
  0
LINE
  5
1B5
330
2
100
AcDbEntity
  8
GAIKEI
  6
S10
 62
     1
100
AcDbLine
 10
-13.19186007835577
 20
18.37120685982748
 30
0.0
 11
-13.19186007835577
 21
17.87079206798958
 31
0.0
  0
LINE
  5
1B6
330
2
100
AcDbEntity
  8
GAIKEI
  6
S10
 62
     1
100
AcDbLine
 10
-13.40854599611577
 20
17.82097297523
 30
0.0
 11
-13.44854955016376
 21
17.82097297523
 31
0.0
  0
LINE
  5
1B7
330
2
100
AcDbEntity
  8
GAIKEI
  6
S10
 62
     1
100
AcDbLine
 10
-13.44854955016376
 20
18.42102628595
 30
0.0
 11
-13.40854599611577
 21
18.42102628595
 31
0.0
  0
LINE
  5
1B8
330
2
100
AcDbEntity
  8
GAIKEI
  6
S10
 62
     1
100
AcDbLine
 10
-13.40854599611577
 20
18.42102628595
 30
0.0
 11
-13.40854599611577
 21
17.82097297523
 31
0.0
  0
LINE
  5
1B9
330
2
100
AcDbEntity
  8
GAIKEI
  6
S10
 62
     1
100
AcDbLine
 10
-13.19186007835577
 20
17.87079206798958
 30
0.0
 11
-13.40854599611577
 21
17.87079206798958
 31
0.0
  0
LINE
  5
1BA
330
2
100
AcDbEntity
  8
GAIKEI
  6
S10
 62
     1
100
AcDbLine
 10
-13.19186007835577
 20
17.98765445043
 30
0.0
 11
-13.40854599611577
 21
17.98765445043
 31
0.0
  0
LINE
  5
1BB
330
2
100
AcDbEntity
  8
GAIKEI
  6
S10
 62
     1
100
AcDbLine
 10
-13.40854599611577
 20
18.25434481075001
 30
0.0
 11
-13.19186007835577
 21
18.25434481075001
 31
0.0
  0
LINE
  5
1BC
330
2
100
AcDbEntity
  8
GAIKEI
  6
S10
 62
     1
100
AcDbLine
 10
-13.19186007835577
 20
18.37120685982748
 30
0.0
 11
-13.40854599611577
 21
18.37120685982748
 31
0.0
  0
LINE
  5
1BD
330
2
100
AcDbEntity
  8
GAIKEI
  6
S10
 62
     1
100
AcDbLine
 10
-16.67550291003584
 20
18.37120685982748
 30
0.0
 11
-16.67550291003584
 21
17.87079206798958
 31
0.0
  0
LINE
  5
1BE
330
2
100
AcDbEntity
  8
GAIKEI
  6
S10
 62
     1
100
AcDbLine
 10
-16.45881699227578
 20
17.82097297523
 30
0.0
 11
-16.4188134382278
 21
17.82097297523
 31
0.0
  0
LINE
  5
1BF
330
2
100
AcDbEntity
  8
GAIKEI
  6
S10
 62
     1
100
AcDbLine
 10
-16.4188134382278
 20
18.42102628595
 30
0.0
 11
-16.45881699227578
 21
18.42102628595
 31
0.0
  0
LINE
  5
1C0
330
2
100
AcDbEntity
  8
GAIKEI
  6
S10
 62
     1
100
AcDbLine
 10
-16.45881699227578
 20
18.42102628595
 30
0.0
 11
-16.45881699227578
 21
17.82097297523
 31
0.0
  0
LINE
  5
1C1
330
2
100
AcDbEntity
  8
GAIKEI
  6
S10
 62
     1
100
AcDbLine
 10
-16.67550291003584
 20
17.87079206798958
 30
0.0
 11
-16.45881699227578
 21
17.87079206798958
 31
0.0
  0
LINE
  5
1C2
330
2
100
AcDbEntity
  8
GAIKEI
  6
S10
 62
     1
100
AcDbLine
 10
-16.67550291003584
 20
17.98765445043
 30
0.0
 11
-16.45881699227578
 21
17.98765445043
 31
0.0
  0
LINE
  5
1C3
330
2
100
AcDbEntity
  8
GAIKEI
  6
S10
 62
     1
100
AcDbLine
 10
-16.45881699227578
 20
18.25434481075001
 30
0.0
 11
-16.67550291003584
 21
18.25434481075001
 31
0.0
  0
LINE
  5
1C4
330
2
100
AcDbEntity
  8
GAIKEI
  6
S10
 62
     1
100
AcDbLine
 10
-16.67550291003584
 20
18.37120685982748
 30
0.0
 11
-16.45881699227578
 21
18.37120685982748
 31
0.0
  0
LINE
  5
1C5
330
2
100
AcDbEntity
  8
GAIKEI
  6
S10
 62
     1
100
AcDbLine
 10
-16.75050957387583
 20
15.52076861746997
 30
0.0
 11
-16.45048291851583
 21
15.52076861746997
 31
0.0
  0
LINE
  5
1C6
330
2
100
AcDbEntity
  8
GAIKEI
  6
S10
 62
     1
100
AcDbLine
 10
-13.41688006987579
 20
15.52076861746997
 30
0.0
 11
-13.11685341451579
 21
15.52076861746997
 31
0.0
  0
ARC
  5
1C7
330
2
100
AcDbEntity
  8
GAIKEI
  6
S10
 62
     1
100
AcDbCircle
 10
-26.68364216246266
 20
17.897646453822
 30
0.0
 40
0.1000088851200014
100
AcDbArc
 50
0.0
 51
90.0
  0
ARC
  5
1C8
330
2
100
AcDbEntity
  8
GAIKEI
  6
S10
 62
     1
100
AcDbCircle
 10
-25.1835088856626
 20
17.897646453822
 30
0.0
 40
0.1000088851200014
100
AcDbArc
 50
90.0
 51
180.0
  0
ARC
  5
1C9
330
2
100
AcDbEntity
  8
GAIKEI
  6
S10
 62
     1
100
AcDbCircle
 10
-26.41695180214265
 20
17.79196806500454
 30
0.0
 40
0.1666814752000023
100
AcDbArc
 50
180.0
 51
229.9697410000002
  0
ARC
  5
1CA
330
2
100
AcDbEntity
  8
GAIKEI
  6
S10
 62
     1
100
AcDbCircle
 10
-25.45019924598262
 20
17.79196806500454
 30
0.0
 40
0.1666814752000023
100
AcDbArc
 50
310.0302589999997
 51
0.0
  0
ARC
  5
1CB
330
2
100
AcDbEntity
  8
GAIKEI
  6
S10
 62
     1
100
AcDbCircle
 10
-26.50029253974265
 20
17.20892293201396
 30
0.0
 40
0.3333629504000047
100
AcDbArc
 50
0.0
 51
49.96974100000024
  0
ARC
  5
1CC
330
2
100
AcDbEntity
  8
GAIKEI
  6
S10
 62
     1
100
AcDbCircle
 10
-25.36685850838262
 20
17.20892293201396
 30
0.0
 40
0.3333629504000047
100
AcDbArc
 50
130.0302589999997
 51
180.0
  0
LINE
  5
1CD
330
2
100
AcDbEntity
  8
GAIKEI
  6
S10
 62
     1
100
AcDbLine
 10
-26.28587615694897
 20
17.46418060995
 30
0.0
 11
-26.52415999353946
 21
17.66433905935506
 31
0.0
  0
LINE
  5
1CE
330
2
100
AcDbEntity
  8
GAIKEI
  6
S10
 62
     1
100
AcDbLine
 10
-25.34299105458575
 20
17.66433905935506
 30
0.0
 11
-25.58127489117629
 21
17.46418060995
 31
0.0
  0
ARC
  5
1CF
330
2
100
AcDbEntity
  8
GAIKEI
  6
S10
 62
     1
100
AcDbCircle
 10
-26.33361106454265
 20
6.101946151475118
 30
0.0
 40
0.1666814752000023
100
AcDbArc
 50
0.0
 51
56.07276800000096
  0
ARC
  5
1D0
330
2
100
AcDbEntity
  8
GAIKEI
  6
S10
 62
     1
100
AcDbCircle
 10
-25.53353998358261
 20
6.101946151475118
 30
0.0
 40
0.1666814752000023
100
AcDbArc
 50
123.927231999999
 51
180.0
  0
LINE
  5
1D1
330
2
100
AcDbEntity
  8
GAIKEI
  6
S10
 62
     1
100
AcDbLine
 10
-26.48362439222263
 20
6.696651320381846
 30
0.0
 11
-26.48362439222263
 21
6.863160780299438
 31
0.0
  0
LINE
  5
1D2
330
2
100
AcDbEntity
  8
GAIKEI
  6
S10
 62
     1
100
AcDbLine
 10
-25.38352665590264
 20
6.696651320381846
 30
0.0
 11
-25.38352665590264
 21
6.863273790339633
 31
0.0
  0
ARC
  5
1D3
330
2
100
AcDbEntity
  8
GAIKEI
  6
S10
 62
     1
100
AcDbCircle
 10
-26.48345237694025
 20
6.930005385661843
 30
0.0
 40
0.0668446053624074
100
AcDbArc
 50
86.66036600000108
 51
269.8524600000009
  0
ARC
  5
1D4
330
2
100
AcDbEntity
  8
GAIKEI
  6
S10
 62
     1
100
AcDbCircle
 10
-25.93357552406263
 20
6.696651320381846
 30
0.0
 40
0.5500488681600077
100
AcDbArc
 50
180.0
 51
236.072768000001
  0
ARC
  5
1D5
330
2
100
AcDbEntity
  8
GAIKEI
  6
S10
 62
     1
100
AcDbCircle
 10
-25.93357552406263
 20
6.696651320381846
 30
0.0
 40
0.5500488681600077
100
AcDbArc
 50
303.927231999999
 51
0.0
  0
ARC
  5
1D6
330
2
100
AcDbEntity
  8
GAIKEI
  6
S10
 62
     1
100
AcDbCircle
 10
-25.93357552406263
 20
6.930005385661843
 30
0.0
 40
0.5500488681600077
100
AcDbArc
 50
6.973575999999504
 51
173.0689550000004
  0
ARC
  5
1D7
330
2
100
AcDbEntity
  8
GAIKEI
  6
S10
 62
     1
100
AcDbCircle
 10
-25.38369900454796
 20
6.930005385661843
 30
0.0
 40
0.0668446053624074
100
AcDbArc
 50
270.1475399999991
 51
93.33963399999893
  0
ARC
  5
1D8
330
2
100
AcDbEntity
  8
GAIKEI
  6
S10
 62
     1
100
AcDbCircle
 10
-25.91690737654261
 20
5.96325282950184
 30
0.0
 40
0.2166859177600031
100
AcDbArc
 50
270.0
 51
0.0
  0
ARC
  5
1D9
330
2
100
AcDbEntity
  8
GAIKEI
  6
S10
 62
     1
100
AcDbCircle
 10
-25.95024367158266
 20
5.96325282950184
 30
0.0
 40
0.2166859177600031
100
AcDbArc
 50
180.0
 51
270.0
  0
LINE
  5
1DA
330
2
100
AcDbEntity
  8
GAIKEI
  6
S10
 62
     1
100
AcDbLine
 10
-25.95024367158266
 20
5.746566911741837
 30
0.0
 11
-25.91690737654261
 21
5.746566911741837
 31
0.0
  0
LINE
  5
1DB
330
2
100
AcDbEntity
  8
GAIKEI
  6
S10
 62
     1
100
AcDbLine
 10
-26.1669295893426
 20
5.96325282950184
 30
0.0
 11
-26.1669295893426
 21
6.101946151475118
 31
0.0
  0
LINE
  5
1DC
330
2
100
AcDbEntity
  8
GAIKEI
  6
S10
 62
     1
100
AcDbLine
 10
-25.70022145878261
 20
5.96325282950184
 30
0.0
 11
-25.70022145878261
 21
6.101946151475118
 31
0.0
  0
LINE
  5
1DD
330
2
100
AcDbEntity
  8
GAIKEI
  6
S10
 62
     1
100
AcDbLine
 10
-26.58363327734264
 20
17.897646453822
 30
0.0
 11
-26.58363327734264
 21
17.79196806500454
 31
0.0
  0
LINE
  5
1DE
330
2
100
AcDbEntity
  8
GAIKEI
  6
S10
 62
     1
100
AcDbLine
 10
-25.28351777078262
 20
17.897646453822
 30
0.0
 11
-25.28351777078262
 21
17.79196806500454
 31
0.0
  0
ARC
  5
1DF
330
2
100
AcDbEntity
  8
GAIKEI
  6
S10
 62
     1
100
AcDbCircle
 10
-25.95024367158266
 20
16.63086724230197
 30
0.0
 40
0.2166859177600031
100
AcDbArc
 50
180.0
 51
270.0
  0
ARC
  5
1E0
330
2
100
AcDbEntity
  8
GAIKEI
  6
S10
 62
     1
100
AcDbCircle
 10
-25.91690737654261
 20
16.63086724230197
 30
0.0
 40
0.2166859177600031
100
AcDbArc
 50
270.0
 51
0.0
  0
LINE
  5
1E1
330
2
100
AcDbEntity
  8
GAIKEI
  6
S10
 62
     1
100
AcDbLine
 10
-25.95024367158266
 20
16.414181324542
 30
0.0
 11
-25.91690737654261
 21
16.414181324542
 31
0.0
  0
LINE
  5
1E2
330
2
100
AcDbEntity
  8
GAIKEI
  6
S10
 62
     1
100
AcDbLine
 10
-26.1669295893426
 20
16.63086724230197
 30
0.0
 11
-26.1669295893426
 21
17.20892293201396
 31
0.0
  0
LINE
  5
1E3
330
2
100
AcDbEntity
  8
GAIKEI
  6
S10
 62
     1
100
AcDbLine
 10
-25.70022145878261
 20
16.63086724230197
 30
0.0
 11
-25.70022145878261
 21
17.20892293201396
 31
0.0
  0
LINE
  5
1E4
330
2
100
AcDbEntity
  8
GAIKEI
  6
S10
 62
     1
100
AcDbLine
 10
-25.1835088856626
 20
17.99765533894202
 30
0.0
 11
-24.93348667286261
 21
17.99765533894202
 31
0.0
  0
LINE
  5
1E5
330
2
100
AcDbEntity
  8
GAIKEI
  6
S10
 62
     1
100
AcDbLine
 10
-26.68364216246266
 20
17.99765533894202
 30
0.0
 11
-26.93366437526265
 21
17.99765533894202
 31
0.0
  0
LINE
  5
1E6
330
2
100
AcDbEntity
  8
GAIKEI
  6
S10
 62
     1
100
AcDbLine
 10
-24.93348667286261
 20
3.629712176701787
 30
0.0
 11
-24.93348667286261
 21
17.99765533894202
 31
0.0
  0
LINE
  5
1E7
330
2
100
AcDbEntity
  8
GAIKEI
  6
S10
 62
     1
100
AcDbLine
 10
-24.93348667286261
 20
3.629712176701787
 30
0.0
 11
-26.93366437526265
 21
3.629712176701787
 31
0.0
  0
LINE
  5
1E8
330
2
100
AcDbEntity
  8
GAIKEI
  6
S10
 62
     1
100
AcDbLine
 10
-26.93366437526265
 20
17.99765533894202
 30
0.0
 11
-26.93366437526265
 21
3.629712176701787
 31
0.0
  0
ARC
  5
1E9
330
2
100
AcDbEntity
  8
GAIKEI
  6
S10
 62
     1
100
AcDbCircle
 10
-3.183720825928958
 20
17.897646453822
 30
0.0
 40
0.1000088851200014
100
AcDbArc
 50
90.0
 51
180.0
  0
ARC
  5
1EA
330
2
100
AcDbEntity
  8
GAIKEI
  6
S10
 62
     1
100
AcDbCircle
 10
-4.683854102728957
 20
17.897646453822
 30
0.0
 40
0.1000088851200014
100
AcDbArc
 50
0.0
 51
90.0
  0
ARC
  5
1EB
330
2
100
AcDbEntity
  8
GAIKEI
  6
S10
 62
     1
100
AcDbCircle
 10
-3.45041118624897
 20
17.79196806500454
 30
0.0
 40
0.1666814752000023
100
AcDbArc
 50
310.0302589999997
 51
0.0
  0
ARC
  5
1EC
330
2
100
AcDbEntity
  8
GAIKEI
  6
S10
 62
     1
100
AcDbCircle
 10
-4.417163742408945
 20
17.79196806500454
 30
0.0
 40
0.1666814752000023
100
AcDbArc
 50
180.0
 51
229.9697410000002
  0
ARC
  5
1ED
330
2
100
AcDbEntity
  8
GAIKEI
  6
S10
 62
     1
100
AcDbCircle
 10
-3.367070448648973
 20
17.20892293201396
 30
0.0
 40
0.3333629504000047
100
AcDbArc
 50
130.0302589999997
 51
180.0
  0
ARC
  5
1EE
330
2
100
AcDbEntity
  8
GAIKEI
  6
S10
 62
     1
100
AcDbCircle
 10
-4.500504480008999
 20
17.20892293201396
 30
0.0
 40
0.3333629504000047
100
AcDbArc
 50
0.0
 51
49.96974100000024
  0
LINE
  5
1EF
330
2
100
AcDbEntity
  8
GAIKEI
  6
S10
 62
     1
100
AcDbLine
 10
-3.581486831442646
 20
17.46418060995
 30
0.0
 11
-3.343202994852106
 21
17.66433905935506
 31
0.0
  0
LINE
  5
1F0
330
2
100
AcDbEntity
  8
GAIKEI
  6
S10
 62
     1
100
AcDbLine
 10
-4.524371933805809
 20
17.66433905935506
 30
0.0
 11
-4.286088097215326
 21
17.46418060995
 31
0.0
  0
ARC
  5
1F1
330
2
100
AcDbEntity
  8
GAIKEI
  6
S10
 62
     1
100
AcDbCircle
 10
-3.533751923848967
 20
6.101946151475118
 30
0.0
 40
0.1666814752000023
100
AcDbArc
 50
123.927231999999
 51
180.0
  0
ARC
  5
1F2
330
2
100
AcDbEntity
  8
GAIKEI
  6
S10
 62
     1
100
AcDbCircle
 10
-4.333823004808948
 20
6.101946151475118
 30
0.0
 40
0.1666814752000023
100
AcDbArc
 50
0.0
 51
56.07276800000096
  0
LINE
  5
1F3
330
2
100
AcDbEntity
  8
GAIKEI
  6
S10
 62
     1
100
AcDbLine
 10
-3.383738596168939
 20
6.696651320381846
 30
0.0
 11
-3.383738596168939
 21
6.863160780299438
 31
0.0
  0
LINE
  5
1F4
330
2
100
AcDbEntity
  8
GAIKEI
  6
S10
 62
     1
100
AcDbLine
 10
-4.483836332488976
 20
6.696651320381846
 30
0.0
 11
-4.483836332488976
 21
6.863273790339633
 31
0.0
  0
ARC
  5
1F5
330
2
100
AcDbEntity
  8
GAIKEI
  6
S10
 62
     1
100
AcDbCircle
 10
-3.383910944814317
 20
6.930005385661843
 30
0.0
 40
0.0668446053624074
100
AcDbArc
 50
270.1475399999991
 51
93.33963399999893
  0
ARC
  5
1F6
330
2
100
AcDbEntity
  8
GAIKEI
  6
S10
 62
     1
100
AcDbCircle
 10
-3.933787464328986
 20
6.696651320381846
 30
0.0
 40
0.5500488681600077
100
AcDbArc
 50
303.927231999999
 51
0.0
  0
ARC
  5
1F7
330
2
100
AcDbEntity
  8
GAIKEI
  6
S10
 62
     1
100
AcDbCircle
 10
-3.933787464328986
 20
6.696651320381846
 30
0.0
 40
0.5500488681600077
100
AcDbArc
 50
180.0
 51
236.072768000001
  0
ARC
  5
1F8
330
2
100
AcDbEntity
  8
GAIKEI
  6
S10
 62
     1
100
AcDbCircle
 10
-3.933787464328986
 20
6.930005385661843
 30
0.0
 40
0.5500488681600077
100
AcDbArc
 50
6.93104499999958
 51
173.0264240000005
  0
ARC
  5
1F9
330
2
100
AcDbEntity
  8
GAIKEI
  6
S10
 62
     1
100
AcDbCircle
 10
-4.483664317206603
 20
6.930005385661843
 30
0.0
 40
0.0668446053624074
100
AcDbArc
 50
86.66036600000108
 51
269.8524600000009
  0
ARC
  5
1FA
330
2
100
AcDbEntity
  8
GAIKEI
  6
S10
 62
     1
100
AcDbCircle
 10
-3.950455611848951
 20
5.96325282950184
 30
0.0
 40
0.2166859177600031
100
AcDbArc
 50
180.0
 51
270.0
  0
ARC
  5
1FB
330
2
100
AcDbEntity
  8
GAIKEI
  6
S10
 62
     1
100
AcDbCircle
 10
-3.917119316808964
 20
5.96325282950184
 30
0.0
 40
0.2166859177600031
100
AcDbArc
 50
270.0
 51
0.0
  0
LINE
  5
1FC
330
2
100
AcDbEntity
  8
GAIKEI
  6
S10
 62
     1
100
AcDbLine
 10
-3.917119316808964
 20
5.746566911741837
 30
0.0
 11
-3.950455611848951
 21
5.746566911741837
 31
0.0
  0
LINE
  5
1FD
330
2
100
AcDbEntity
  8
GAIKEI
  6
S10
 62
     1
100
AcDbLine
 10
-3.700433399048961
 20
5.96325282950184
 30
0.0
 11
-3.700433399048961
 21
6.101946151475118
 31
0.0
  0
LINE
  5
1FE
330
2
100
AcDbEntity
  8
GAIKEI
  6
S10
 62
     1
100
AcDbLine
 10
-4.167141529608954
 20
5.96325282950184
 30
0.0
 11
-4.167141529608954
 21
6.101946151475118
 31
0.0
  0
LINE
  5
1FF
330
2
100
AcDbEntity
  8
GAIKEI
  6
S10
 62
     1
100
AcDbLine
 10
-3.283729711048977
 20
17.897646453822
 30
0.0
 11
-3.283729711048977
 21
17.79196806500454
 31
0.0
  0
LINE
  5
200
330
2
100
AcDbEntity
  8
GAIKEI
  6
S10
 62
     1
100
AcDbLine
 10
-4.583845217608995
 20
17.897646453822
 30
0.0
 11
-4.583845217608995
 21
17.79196806500454
 31
0.0
  0
ARC
  5
201
330
2
100
AcDbEntity
  8
GAIKEI
  6
S10
 62
     1
100
AcDbCircle
 10
-3.917119316808964
 20
16.63086724230197
 30
0.0
 40
0.2166859177600031
100
AcDbArc
 50
270.0
 51
0.0
  0
ARC
  5
202
330
2
100
AcDbEntity
  8
GAIKEI
  6
S10
 62
     1
100
AcDbCircle
 10
-3.950455611848951
 20
16.63086724230197
 30
0.0
 40
0.2166859177600031
100
AcDbArc
 50
180.0
 51
270.0
  0
LINE
  5
203
330
2
100
AcDbEntity
  8
GAIKEI
  6
S10
 62
     1
100
AcDbLine
 10
-3.917119316808964
 20
16.414181324542
 30
0.0
 11
-3.950455611848951
 21
16.414181324542
 31
0.0
  0
LINE
  5
204
330
2
100
AcDbEntity
  8
GAIKEI
  6
S10
 62
     1
100
AcDbLine
 10
-3.700433399048961
 20
16.63086724230197
 30
0.0
 11
-3.700433399048961
 21
17.20892293201396
 31
0.0
  0
LINE
  5
205
330
2
100
AcDbEntity
  8
GAIKEI
  6
S10
 62
     1
100
AcDbLine
 10
-4.167141529608954
 20
16.63086724230197
 30
0.0
 11
-4.167141529608954
 21
17.20892293201396
 31
0.0
  0
LINE
  5
206
330
2
100
AcDbEntity
  8
GAIKEI
  6
S10
 62
     1
100
AcDbLine
 10
-4.683854102728957
 20
17.99765533894202
 30
0.0
 11
-4.933876315528948
 21
17.99765533894202
 31
0.0
  0
LINE
  5
207
330
2
100
AcDbEntity
  8
GAIKEI
  6
S10
 62
     1
100
AcDbLine
 10
-3.183720825928958
 20
17.99765533894202
 30
0.0
 11
-2.933698613128967
 21
17.99765533894202
 31
0.0
  0
LINE
  5
208
330
2
100
AcDbEntity
  8
GAIKEI
  6
S10
 62
     1
100
AcDbLine
 10
-4.933876315528948
 20
3.629712176701787
 30
0.0
 11
-4.933876315528948
 21
17.99765533894202
 31
0.0
  0
LINE
  5
209
330
2
100
AcDbEntity
  8
GAIKEI
  6
S10
 62
     1
100
AcDbLine
 10
-4.933876315528948
 20
3.629712176701787
 30
0.0
 11
-2.933698613128967
 21
3.629712176701787
 31
0.0
  0
LINE
  5
20A
330
2
100
AcDbEntity
  8
GAIKEI
  6
S10
 62
     1
100
AcDbLine
 10
-2.933698613128967
 20
17.99765533894202
 30
0.0
 11
-2.933698613128967
 21
3.629712176701787
 31
0.0
  0
ARC
  5
20B
330
2
100
AcDbEntity
  8
GAIKEI
  6
Continuous
 62
     1
100
AcDbCircle
 10
-16.43921958451068
 20
34.93916047827025
 30
0.0
 40
0.1000088851200014
100
AcDbArc
 50
208.6286379999997
 51
270.0
  0
ARC
  5
20C
330
2
100
AcDbEntity
  8
GAIKEI
  6
Continuous
 62
     1
100
AcDbCircle
 10
-16.43921958451068
 20
35.40586860883025
 30
0.0
 40
0.1000088851200014
100
AcDbArc
 50
90.0
 51
151.3713620000002
  0
LINE
  5
20D
330
2
100
AcDbEntity
  8
GAIKEI
  6
Continuous
 62
     1
100
AcDbLine
 10
-16.5270017166988
 20
34.89124288777976
 30
0.0
 11
-16.62045501939923
 21
35.0624450979501
 31
0.0
  0
LINE
  5
20E
330
2
100
AcDbEntity
  8
GAIKEI
  6
Continuous
 62
     1
100
AcDbLine
 10
-16.5270017166988
 20
35.4537858659578
 30
0.0
 11
-16.62045501939923
 21
35.28258365578745
 31
0.0
  0
ARC
  5
20F
330
2
100
AcDbEntity
  8
GAIKEI
  6
Continuous
 62
     1
100
AcDbCircle
 10
-16.4188134382278
 20
35.17251454355025
 30
0.0
 40
0.2297270763796512
100
AcDbArc
 50
151.3713620000002
 51
208.6286379999997
  0
LINE
  5
210
330
2
100
AcDbEntity
  8
GAIKEI
  6
Continuous
 62
     1
100
AcDbLine
 10
-16.4188134382278
 20
34.83915159315023
 30
0.0
 11
-16.43921958451068
 21
34.83915159315023
 31
0.0
  0
LINE
  5
211
330
2
100
AcDbEntity
  8
GAIKEI
  6
Continuous
 62
     1
100
AcDbLine
 10
-16.4188134382278
 20
35.50587749395027
 30
0.0
 11
-16.43921958451068
 21
35.50587749395027
 31
0.0
  0
ARC
  5
212
330
2
100
AcDbEntity
  8
GAIKEI
  6
Continuous
 62
     1
100
AcDbCircle
 10
-13.42814373724388
 20
34.93916047827025
 30
0.0
 40
0.1000088851200014
100
AcDbArc
 50
270.0
 51
331.3713620000003
  0
ARC
  5
213
330
2
100
AcDbEntity
  8
GAIKEI
  6
Continuous
 62
     1
100
AcDbCircle
 10
-13.42814373724388
 20
35.40586860883025
 30
0.0
 40
0.1000088851200014
100
AcDbArc
 50
28.62863799999976
 51
90.0
  0
LINE
  5
214
330
2
100
AcDbEntity
  8
GAIKEI
  6
Continuous
 62
     1
100
AcDbLine
 10
-13.3403616050557
 20
34.89124288777976
 30
0.0
 11
-13.24690796899239
 21
35.0624450979501
 31
0.0
  0
LINE
  5
215
330
2
100
AcDbEntity
  8
GAIKEI
  6
Continuous
 62
     1
100
AcDbLine
 10
-13.3403616050557
 20
35.4537858659578
 30
0.0
 11
-13.24690796899239
 21
35.28258365578745
 31
0.0
  0
ARC
  5
216
330
2
100
AcDbEntity
  8
GAIKEI
  6
Continuous
 62
     1
100
AcDbCircle
 10
-13.44854955016376
 20
35.17251454355025
 30
0.0
 40
0.2297270763796512
100
AcDbArc
 50
331.3713620000003
 51
28.62863799999976
  0
LINE
  5
217
330
2
100
AcDbEntity
  8
GAIKEI
  6
Continuous
 62
     1
100
AcDbLine
 10
-13.44854955016376
 20
34.83915159315023
 30
0.0
 11
-13.42814373724388
 21
34.83915159315023
 31
0.0
  0
LINE
  5
218
330
2
100
AcDbEntity
  8
GAIKEI
  6
Continuous
 62
     1
100
AcDbLine
 10
-13.44854955016376
 20
35.50587749395027
 30
0.0
 11
-13.42814373724388
 21
35.50587749395027
 31
0.0
  0
LINE
  5
219
330
2
100
AcDbEntity
  8
GAIKEI
  6
Continuous
 62
     7
100
AcDbLine
 10
30.31781722152016
 20
37.23936483603029
 30
0.0
 11
33.28808110958414
 21
37.23936483603029
 31
0.0
  0
LINE
  5
21A
330
2
100
AcDbEntity
  8
GAIKEI
  6
Continuous
 62
     7
100
AcDbLine
 10
30.31781722152016
 20
17.62095520499
 30
0.0
 11
33.28808110958414
 21
17.62095520499
 31
0.0
  0
LINE
  5
21B
330
2
100
AcDbEntity
  8
GAIKEI
  6
Continuous
 62
     7
100
AcDbLine
 10
33.28808110958414
 20
37.23936483603029
 30
0.0
 11
33.28808110958414
 21
17.62095520499
 31
0.0
  0
LINE
  5
21C
330
2
100
AcDbEntity
  8
GAIKEI
  6
Continuous
 62
     7
100
AcDbLine
 10
30.31781722152016
 20
37.23936483603029
 30
0.0
 11
30.31781722152016
 21
17.62095520499
 31
0.0
  0
ARC
  5
21D
330
2
100
AcDbEntity
  8
GAIKEI
  6
Continuous
 62
     1
100
AcDbCircle
 10
30.29741140860023
 20
36.27261227987029
 30
0.0
 40
0.1000088851200014
100
AcDbArc
 50
208.6286379999997
 51
270.0
  0
ARC
  5
21E
330
2
100
AcDbEntity
  8
GAIKEI
  6
Continuous
 62
     1
100
AcDbCircle
 10
30.29741140860023
 20
36.73932041043026
 30
0.0
 40
0.1000088851200014
100
AcDbArc
 50
90.0
 51
151.3713620000002
  0
LINE
  5
21F
330
2
100
AcDbEntity
  8
GAIKEI
  6
Continuous
 62
     1
100
AcDbLine
 10
30.2096292764121
 20
36.22469468937976
 30
0.0
 11
30.11617564034873
 21
36.39589689955014
 31
0.0
  0
LINE
  5
220
330
2
100
AcDbEntity
  8
GAIKEI
  6
Continuous
 62
     1
100
AcDbLine
 10
30.2096292764121
 20
36.7872376675578
 30
0.0
 11
30.11617564034873
 21
36.61603545738746
 31
0.0
  0
ARC
  5
221
330
2
100
AcDbEntity
  8
GAIKEI
  6
Continuous
 62
     1
100
AcDbCircle
 10
30.31781722152016
 20
36.50596634515029
 30
0.0
 40
0.2297270763796512
100
AcDbArc
 50
151.3713620000002
 51
208.6286379999997
  0
LINE
  5
222
330
2
100
AcDbEntity
  8
GAIKEI
  6
Continuous
 62
     1
100
AcDbLine
 10
30.31781722152016
 20
36.17260339475027
 30
0.0
 11
30.29741140860023
 21
36.17260339475027
 31
0.0
  0
LINE
  5
223
330
2
100
AcDbEntity
  8
GAIKEI
  6
Continuous
 62
     1
100
AcDbLine
 10
30.31781722152016
 20
36.83932929555027
 30
0.0
 11
30.29741140860023
 21
36.83932929555027
 31
0.0
  0
ARC
  5
224
330
2
100
AcDbEntity
  8
GAIKEI
  6
Continuous
 62
     1
100
AcDbCircle
 10
33.30848725586702
 20
36.27261227987029
 30
0.0
 40
0.1000088851200014
100
AcDbArc
 50
270.0
 51
331.3713620000003
  0
ARC
  5
225
330
2
100
AcDbEntity
  8
GAIKEI
  6
Continuous
 62
     1
100
AcDbCircle
 10
33.30848725586702
 20
36.73932041043026
 30
0.0
 40
0.1000088851200014
100
AcDbArc
 50
28.62863799999976
 51
90.0
  0
LINE
  5
226
330
2
100
AcDbEntity
  8
GAIKEI
  6
Continuous
 62
     1
100
AcDbLine
 10
33.3962693880552
 20
36.22469468937976
 30
0.0
 11
33.48972269075557
 21
36.39589689955014
 31
0.0
  0
LINE
  5
227
330
2
100
AcDbEntity
  8
GAIKEI
  6
Continuous
 62
     1
100
AcDbLine
 10
33.3962693880552
 20
36.7872376675578
 30
0.0
 11
33.48972269075557
 21
36.61603545738746
 31
0.0
  0
ARC
  5
228
330
2
100
AcDbEntity
  8
GAIKEI
  6
Continuous
 62
     1
100
AcDbCircle
 10
33.28808110958414
 20
36.50596634515029
 30
0.0
 40
0.2297270763796512
100
AcDbArc
 50
331.3713620000003
 51
28.62863799999976
  0
LINE
  5
229
330
2
100
AcDbEntity
  8
GAIKEI
  6
Continuous
 62
     1
100
AcDbLine
 10
33.28808110958414
 20
36.17260339475027
 30
0.0
 11
33.30848725586702
 21
36.17260339475027
 31
0.0
  0
LINE
  5
22A
330
2
100
AcDbEntity
  8
GAIKEI
  6
Continuous
 62
     1
100
AcDbLine
 10
33.28808110958414
 20
36.83932929555027
 30
0.0
 11
33.30848725586702
 21
36.83932929555027
 31
0.0
  0
LINE
  5
22B
330
2
100
AcDbEntity
  8
GAIKEI
  6
S10
 62
     1
100
AcDbLine
 10
-13.48355265995576
 20
15.50410046994997
 30
0.0
 11
-13.50022080747578
 21
15.52076861746997
 31
0.0
  0
LINE
  5
22C
330
2
100
AcDbEntity
  8
GAIKEI
  6
S10
 62
     1
100
AcDbLine
 10
-16.20546114997182
 20
14.83737456914997
 30
0.0
 11
-16.20546114997182
 21
14.85404271666996
 31
0.0
  0
LINE
  5
22D
330
2
100
AcDbEntity
  8
GAIKEI
  6
S10
 62
     1
100
AcDbLine
 10
-13.66190183841979
 20
14.83737456914997
 30
0.0
 11
-13.66190183841979
 21
14.85404271666996
 31
0.0
  0
LINE
  5
22E
330
2
100
AcDbEntity
  8
GAIKEI
  6
S10
 62
     1
100
AcDbLine
 10
-16.20546114997182
 20
17.62095520499
 30
0.0
 11
-16.20546114997182
 21
17.14091255641398
 31
0.0
  0
LINE
  5
22F
330
2
100
AcDbEntity
  8
GAIKEI
  6
S10
 62
     1
100
AcDbLine
 10
-13.66190183841979
 20
17.62095520499
 30
0.0
 11
-13.66190183841979
 21
17.14091255641398
 31
0.0
  0
LINE
  5
230
330
2
100
AcDbEntity
  8
GAIKEI
  6
S10
 62
     1
100
AcDbLine
 10
-16.36714218091583
 20
14.85404271666996
 30
0.0
 11
-13.50022080747578
 21
14.85404271666996
 31
0.0
  0
LINE
  5
231
330
2
100
AcDbEntity
  8
GAIKEI
  6
S10
 62
     1
100
AcDbLine
 10
-13.48355265995576
 20
14.87071086418996
 30
0.0
 11
-13.50022080747578
 21
14.85404271666996
 31
0.0
  0
LINE
  5
232
330
2
100
AcDbEntity
  8
GAIKEI
  6
S10
 62
     1
100
AcDbLine
 10
-16.3838103284358
 20
14.87071086418996
 30
0.0
 11
-16.36714218091583
 21
14.85404271666996
 31
0.0
  0
LINE
  5
233
330
2
100
AcDbEntity
  8
GAIKEI
  6
S10
 62
     1
100
AcDbLine
 10
-16.3838103284358
 20
15.50410046994997
 30
0.0
 11
-16.36714218091583
 21
15.52076861746997
 31
0.0
  0
LINE
  5
234
330
2
100
AcDbEntity
  8
GAIKEI
  6
S10
 62
     1
100
AcDbLine
 10
-16.3838103284358
 20
15.50410046994997
 30
0.0
 11
-16.3838103284358
 21
14.87071086418996
 31
0.0
  0
LINE
  5
235
330
2
100
AcDbEntity
  8
GAIKEI
  6
S10
 62
     1
100
AcDbLine
 10
-13.48355265995576
 20
15.50410046994997
 30
0.0
 11
-13.48355265995576
 21
14.87071086418996
 31
0.0
  0
LINE
  5
236
330
2
100
AcDbEntity
  8
GAIKEI
  6
S10
 62
     1
100
AcDbLine
 10
-16.20546114997182
 20
14.83737456914997
 30
0.0
 11
-13.66190183841979
 21
14.83737456914997
 31
0.0
  0
LINE
  5
237
330
2
100
AcDbEntity
  8
GAIKEI
  6
Continuous
 62
     7
100
AcDbLine
 10
33.2530779997922
 20
15.50410046994997
 30
0.0
 11
33.23640985227218
 21
15.52076861746997
 31
0.0
  0
LINE
  5
238
330
2
100
AcDbEntity
  8
GAIKEI
  6
Continuous
 62
     7
100
AcDbLine
 10
30.53116950977614
 20
14.83737456914997
 30
0.0
 11
30.53116950977614
 21
14.85404271666996
 31
0.0
  0
LINE
  5
239
330
2
100
AcDbEntity
  8
GAIKEI
  6
Continuous
 62
     1
100
AcDbLine
 10
33.07472882132817
 20
14.83737456914997
 30
0.0
 11
33.07472882132817
 21
14.85404271666996
 31
0.0
  0
LINE
  5
23A
330
2
100
AcDbEntity
  8
GAIKEI
  6
Continuous
 62
     7
100
AcDbLine
 10
30.53116950977614
 20
17.62095520499
 30
0.0
 11
30.53116950977614
 21
17.14091255641398
 31
0.0
  0
LINE
  5
23B
330
2
100
AcDbEntity
  8
GAIKEI
  6
Continuous
 62
     7
100
AcDbLine
 10
33.07472882132817
 20
17.62095520499
 30
0.0
 11
33.07472882132817
 21
17.14091255641398
 31
0.0
  0
LINE
  5
23C
330
2
100
AcDbEntity
  8
GAIKEI
  6
Continuous
 62
     7
100
AcDbLine
 10
30.36948847883213
 20
14.85404271666996
 30
0.0
 11
33.23640985227218
 21
14.85404271666996
 31
0.0
  0
LINE
  5
23D
330
2
100
AcDbEntity
  8
GAIKEI
  6
Continuous
 62
     7
100
AcDbLine
 10
33.2530779997922
 20
14.87071086418996
 30
0.0
 11
33.23640985227218
 21
14.85404271666996
 31
0.0
  0
LINE
  5
23E
330
2
100
AcDbEntity
  8
GAIKEI
  6
Continuous
 62
     7
100
AcDbLine
 10
30.35282033131216
 20
14.87071086418996
 30
0.0
 11
30.36948847883213
 21
14.85404271666996
 31
0.0
  0
LINE
  5
23F
330
2
100
AcDbEntity
  8
GAIKEI
  6
Continuous
 62
     7
100
AcDbLine
 10
30.35282033131216
 20
15.33838808084678
 30
0.0
 11
30.35282033131216
 21
14.87071086418996
 31
0.0
  0
LINE
  5
240
330
2
100
AcDbEntity
  8
GAIKEI
  6
Continuous
 62
     7
100
AcDbLine
 10
33.2530779997922
 20
15.50410046994997
 30
0.0
 11
33.2530779997922
 21
14.87071086418996
 31
0.0
  0
LINE
  5
241
330
2
100
AcDbEntity
  8
GAIKEI
  6
Continuous
 62
     7
100
AcDbLine
 10
30.53116950977614
 20
14.83737456914997
 30
0.0
 11
33.07472882132817
 21
14.83737456914997
 31
0.0
  0
LWPOLYLINE
  5
242
330
2
100
AcDbEntity
  8
GAIKEI
  6
Continuous
 62
     1
100
AcDbPolyline
 90
       72
 70
     1
 43
0.0
 10
32.89336304152602
 20
16.46418576710201
 10
32.88448258589028
 20
16.46367805532856
 10
32.8756694695706
 20
16.46215992045242
 10
32.86699136524578
 20
16.45964203008805
 10
32.85851361205414
 20
16.4561440526495
 10
32.85030121577108
 20
16.45169232380988
 10
32.84241651526816
 20
16.44632084659008
 10
32.83491984923955
 20
16.44007029127007
 10
32.82786755602387
 20
16.43298866211472
 10
32.82131397378197
 20
16.42512963055904
 10
32.81530877359347
 20
16.4165532019341
 10
32.80989729281964
 20
16.40732404865227
 10
32.80512120182925
 20
16.397513177022
 10
32.80101683718391
 20
16.38719459361826
 10
32.79761520163805
 20
16.37644730546034
 10
32.79494196413879
 20
16.36535265310806
 10
32.79301812655206
 20
16.35399564411384
 10
32.79185802348462
 20
16.34246228611886
 10
32.7914703223733
 20
16.330840586942
 10
32.79185802348462
 20
16.3192185544022
 10
32.79301812655206
 20
16.30768519640722
 10
32.79494196413879
 20
16.29632818741299
 10
32.79761520163805
 20
16.28523386842369
 10
32.80101683718391
 20
16.27448624690279
 10
32.80512120182925
 20
16.264167996862
 10
32.80989729281964
 20
16.25435679186878
 10
32.81530877359347
 20
16.24512797194993
 10
32.82131397378197
 20
16.23655120996201
 10
32.82786755602387
 20
16.22869217840633
 10
32.83491984923955
 20
16.22161054925098
 10
32.84241651526816
 20
16.215359993931
 10
32.85030121577108
 20
16.2099885167112
 10
32.85851361205414
 20
16.2055371212345
 10
32.86699136524578
 20
16.20203881043301
 10
32.8756694695706
 20
16.19952092006863
 10
32.88448258589028
 20
16.1980027851925
 10
32.89336304152602
 20
16.19749540678199
 10
32.90224349716175
 20
16.1980027851925
 10
32.91105661348144
 20
16.19952092006863
 10
32.9197350511692
 20
16.20203881043301
 10
32.92821247099789
 20
16.2055371212345
 10
32.93642486728101
 20
16.2099885167112
 10
32.94430956778388
 20
16.215359993931
 10
32.95180656717537
 20
16.22161054925098
 10
32.95885852702816
 20
16.22869217840633
 10
32.96541210927006
 20
16.23655120996201
 10
32.97141764282151
 20
16.24512797194993
 10
32.97682879023239
 20
16.25435679186878
 10
32.98160488122278
 20
16.264167996862
 10
32.98570957923107
 20
16.27448624690279
 10
32.98911121477693
 20
16.28523386842369
 10
32.99178411891324
 20
16.29632818741299
 10
32.99370795650003
 20
16.30768519640722
 10
32.99486839293036
 20
16.3192185544022
 10
32.99525609404168
 20
16.330840586942
 10
32.99486839293036
 20
16.34246228611886
 10
32.99370795650003
 20
16.35399564411384
 10
32.99178411891324
 20
16.36535265310806
 10
32.98911121477693
 20
16.37644730546034
 10
32.98570957923107
 20
16.38719459361826
 10
32.98160488122278
 20
16.397513177022
 10
32.97682879023239
 20
16.40732404865227
 10
32.97141764282151
 20
16.4165532019341
 10
32.96541210927006
 20
16.42512963055904
 10
32.95885852702816
 20
16.43298866211472
 10
32.95180656717537
 20
16.44007029127007
 10
32.94430956778388
 20
16.44632084659008
 10
32.93642486728101
 20
16.45169232380988
 10
32.92821247099789
 20
16.4561440526495
 10
32.9197350511692
 20
16.45964203008805
 10
32.91105661348144
 20
16.46215992045242
 10
32.90224349716175
 20
16.46367805532856
  0
LINE
  5
243
330
2
100
AcDbEntity
  8
GAIKEI
  6
Continuous
 62
     7
100
AcDbLine
 10
33.23462569376165
 20
16.94315198671114
 30
0.0
 11
33.23462569376165
 21
15.71869053484082
 31
0.0
  0
ARC
  5
244
330
2
100
AcDbEntity
  8
GAIKEI
  6
Continuous
 62
     7
100
AcDbCircle
 10
34.24636891370767
 20
16.55586057846199
 30
0.0
 40
0.5000444256000071
100
AcDbArc
 50
55.17770999999992
 51
90.0
  0
ARC
  5
245
330
2
100
AcDbEntity
  8
GAIKEI
  6
Continuous
 62
     7
100
AcDbCircle
 10
34.24636891370767
 20
16.10582059542199
 30
0.0
 40
0.5000444256000071
100
AcDbArc
 50
270.0
 51
304.8222900000001
  0
LINE
  5
246
330
2
100
AcDbEntity
  8
GAIKEI
  6
Continuous
 62
     7
100
AcDbLine
 10
34.53191094887273
 20
15.69532045856596
 30
0.0
 11
34.8554036890373
 21
15.92034045008597
 31
0.0
  0
LINE
  5
247
330
2
100
AcDbEntity
  8
GAIKEI
  6
Continuous
 62
     7
100
AcDbLine
 10
34.53191094887273
 20
16.96636038195504
 30
0.0
 11
34.8554036890373
 21
16.74134039043505
 31
0.0
  0
ARC
  5
248
330
2
100
AcDbEntity
  8
GAIKEI
  6
Continuous
 62
     7
100
AcDbCircle
 10
34.56986165387218
 20
16.33084058694197
 30
0.0
 40
0.5000444256000071
100
AcDbArc
 50
304.8222900000001
 51
55.17770999999992
  0
LINE
  5
249
330
2
100
AcDbEntity
  8
GAIKEI
  6
Continuous
 62
     7
100
AcDbLine
 10
30.65667932714996
 20
15.60577616982198
 30
0.0
 11
34.24636891370767
 21
15.60577616982198
 31
0.0
  0
LINE
  5
24A
330
2
100
AcDbEntity
  8
GAIKEI
  6
Continuous
 62
     7
100
AcDbLine
 10
30.60271853309462
 20
17.055905004062
 30
0.0
 11
34.24636891370767
 21
17.055905004062
 31
0.0
  0
LINE
  5
24B
330
2
100
AcDbEntity
  8
GAIKEI
  6
Continuous
 62
     7
100
AcDbLine
 10
30.42616018040013
 20
17.40760291673399
 30
0.0
 11
30.50283365899213
 21
17.40760291673399
 31
0.0
  0
LINE
  5
24C
330
2
100
AcDbEntity
  8
GAIKEI
  6
Continuous
 62
     7
100
AcDbLine
 10
30.42616018040013
 20
17.20211932755922
 30
0.0
 11
30.42616018040013
 21
17.40760291673399
 31
0.0
  0
LINE
  5
24D
330
2
100
AcDbEntity
  8
GAIKEI
  6
Continuous
 62
     7
100
AcDbLine
 10
30.50283365899213
 20
17.14814719916359
 30
0.0
 11
30.50283365899213
 21
17.40760291673399
 31
0.0
  0
LINE
  5
24E
330
2
100
AcDbEntity
  8
GAIKEI
  6
Continuous
 62
     7
100
AcDbLine
 10
30.58906965381635
 20
15.52076861746997
 30
0.0
 11
33.49636594763115
 21
15.52076861746997
 31
0.0
  0
LINE
  5
24F
330
2
100
AcDbEntity
  8
GAIKEI
  6
Continuous
 62
     7
100
AcDbLine
 10
30.6510031561935
 20
15.59744209606197
 30
0.0
 11
33.49636594763115
 21
15.59744209606197
 31
0.0
  0
LINE
  5
250
330
2
100
AcDbEntity
  8
GAIKEI
  6
Continuous
 62
     7
100
AcDbLine
 10
33.49636594763115
 20
15.52076861746997
 30
0.0
 11
33.49636594763115
 21
15.59744209606197
 31
0.0
  0
LINE
  5
251
330
2
100
AcDbEntity
  8
GAIKEI
  6
Continuous
 62
     7
100
AcDbLine
 10
30.53116950977614
 20
17.14091255641398
 30
0.0
 11
33.49636594763115
 21
17.14091255641398
 31
0.0
  0
LINE
  5
252
330
2
100
AcDbEntity
  8
GAIKEI
  6
Continuous
 62
     7
100
AcDbLine
 10
30.59523886857647
 20
17.06423907782198
 30
0.0
 11
33.49636594763115
 21
17.06423907782198
 31
0.0
  0
LINE
  5
253
330
2
100
AcDbEntity
  8
GAIKEI
  6
Continuous
 62
     7
100
AcDbLine
 10
33.49636594763115
 20
17.14091255641398
 30
0.0
 11
33.49636594763115
 21
17.06423907782198
 31
0.0
  0
CIRCLE
  5
254
330
2
100
AcDbEntity
  8
GAIKEI
  6
Continuous
 62
     1
100
AcDbCircle
 10
28.56932854667213
 20
6.446629107581856
 30
0.0
 40
0.0833407376000012
  0
CIRCLE
  5
255
330
2
100
AcDbEntity
  8
GAIKEI
  6
Continuous
 62
     1
100
AcDbCircle
 10
29.00270038219213
 20
17.49761091334201
 30
0.0
 40
0.1083429588800015
  0
LINE
  5
256
330
2
100
AcDbEntity
  8
GAIKEI
  6
Continuous
 62
     7
100
AcDbLine
 10
28.3359744813921
 20
17.99765533894202
 30
0.0
 11
28.3359744813921
 21
3.629712176701815
 31
0.0
  0
CIRCLE
  5
257
330
2
100
AcDbEntity
  8
GAIKEI
  6
Continuous
 62
     1
100
AcDbCircle
 10
29.33606333259212
 20
5.963252829501868
 30
0.0
 40
0.1083429588800015
  0
ARC
  5
258
330
2
100
AcDbEntity
  8
GAIKEI
  6
Continuous
 62
     7
100
AcDbCircle
 10
30.00278923339215
 20
14.31622893551554
 30
0.0
 40
0.6667259008000094
100
AcDbArc
 50
124.9024960000008
 51
180.0
  0
LINE
  5
259
330
2
100
AcDbEntity
  8
GAIKEI
  6
Continuous
 62
     7
100
AcDbLine
 10
29.33606333259212
 20
14.31622893551554
 30
0.0
 11
29.33606333259212
 21
6.721825890307229
 31
0.0
  0
LINE
  5
25A
330
2
100
AcDbEntity
  8
GAIKEI
  6
Continuous
 62
     7
100
AcDbLine
 10
28.3359744813921
 20
17.99765533894202
 30
0.0
 11
29.12646904487599
 21
17.99765533894202
 31
0.0
  0
LINE
  5
25B
330
2
100
AcDbEntity
  8
GAIKEI
  6
Continuous
 62
     7
100
AcDbLine
 10
28.3359744813921
 20
3.629712176701815
 30
0.0
 11
29.18859623112723
 21
3.629712176701815
 31
0.0
  0
ARC
  5
25C
330
2
100
AcDbEntity
  8
GAIKEI
  6
Continuous
 62
     7
100
AcDbCircle
 10
30.10279811851217
 20
16.01191158556841
 30
0.0
 40
0.6667259008000094
100
AcDbArc
 50
304.9024960000008
 51
0.0
  0
ARC
  5
25D
330
2
100
AcDbEntity
  8
GAIKEI
  6
Continuous
 62
     7
100
AcDbCircle
 10
30.10279811851217
 20
16.64976958831556
 30
0.0
 40
0.6667259008000094
100
AcDbArc
 50
0.0
 51
55.09750399999923
  0
ARC
  5
25E
330
2
100
AcDbEntity
  8
GAIKEI
  6
Continuous
 62
     7
100
AcDbCircle
 10
29.12646904487599
 20
17.33092943814199
 30
0.0
 40
0.6667259008000094
100
AcDbArc
 50
55.09750399999923
 51
90.0
  0
LINE
  5
25F
330
2
100
AcDbEntity
  8
GAIKEI
  6
Continuous
 62
     7
100
AcDbLine
 10
29.62130100738352
 20
14.863028514998
 30
0.0
 11
30.48428634452074
 21
15.46511167272299
 31
0.0
  0
LINE
  5
260
330
2
100
AcDbEntity
  8
GAIKEI
  6
Continuous
 62
     7
100
AcDbLine
 10
29.50795727088456
 20
17.87772901762446
 30
0.0
 11
30.48428634452074
 21
17.19656916779803
 31
0.0
  0
LINE
  5
261
330
2
100
AcDbEntity
  8
GAIKEI
  6
Continuous
 62
     7
100
AcDbLine
 10
30.76952401931214
 20
16.64976958831556
 30
0.0
 11
30.76952401931214
 21
16.01191158556841
 31
0.0
  0
ARC
  5
262
330
2
100
AcDbEntity
  8
GAIKEI
  6
Continuous
 62
     7
100
AcDbCircle
 10
29.18859623112723
 20
4.296438077501818
 30
0.0
 40
0.6667259008000094
100
AcDbArc
 50
270.0
 51
294.9439050000001
  0
ARC
  5
263
330
2
100
AcDbEntity
  8
GAIKEI
  6
Continuous
 62
     7
100
AcDbCircle
 10
30.10279811851217
 20
4.721648187907192
 30
0.0
 40
0.6667259008000094
100
AcDbArc
 50
294.9439050000001
 51
0.0
  0
ARC
  5
264
330
2
100
AcDbEntity
  8
GAIKEI
  6
Continuous
 62
     7
100
AcDbCircle
 10
30.10279811851217
 20
5.204679435333531
 30
0.0
 40
0.6667259008000094
100
AcDbArc
 50
0.0
 51
65.0560949999999
  0
ARC
  5
265
330
2
100
AcDbEntity
  8
GAIKEI
  6
Continuous
 62
     7
100
AcDbCircle
 10
30.00278923339215
 20
6.721825890307229
 30
0.0
 40
0.6667259008000094
100
AcDbArc
 50
180.0
 51
245.0560949999999
  0
LINE
  5
266
330
2
100
AcDbEntity
  8
GAIKEI
  6
Continuous
 62
     7
100
AcDbLine
 10
29.46977487863461
 20
3.6919033686396
 30
0.0
 11
30.38397709938243
 21
4.117113812407893
 31
0.0
  0
LINE
  5
267
330
2
100
AcDbEntity
  8
GAIKEI
  6
Continuous
 62
     7
100
AcDbLine
 10
29.72161058588478
 20
6.117291514807931
 30
0.0
 11
30.38397709938243
 21
5.809213810832829
 31
0.0
  0
LINE
  5
268
330
2
100
AcDbEntity
  8
GAIKEI
  6
Continuous
 62
     7
100
AcDbLine
 10
30.76952401931214
 20
5.204679435333531
 30
0.0
 11
30.76952401931214
 21
4.721648187907192
 31
0.0
  0
LINE
  5
269
330
2
100
AcDbEntity
  8
GAIKEI
  6
Continuous
 62
     7
100
AcDbLine
 10
35.35075503102161
 20
16.4867367706077
 30
0.0
 11
34.95338906104837
 21
16.65170075988723
 31
0.0
  0
LINE
  5
26A
330
2
100
AcDbEntity
  8
GAIKEI
  6
Continuous
 62
     7
100
AcDbLine
 10
32.48765533044491
 20
9.590094050066852
 30
0.0
 11
31.60710176582166
 21
9.955650527312911
 31
0.0
  0
LINE
  5
26B
330
2
100
AcDbEntity
  8
GAIKEI
  6
Continuous
 62
     7
100
AcDbLine
 10
35.35075503102161
 20
16.4867367706077
 30
0.0
 11
32.48765533044491
 21
9.590094050066852
 31
0.0
  0
LINE
  5
26C
330
2
100
AcDbEntity
  8
GAIKEI
  6
Continuous
 62
     7
100
AcDbLine
 10
33.95271749141108
 20
15.60577616982198
 30
0.0
 11
31.60710176582166
 21
9.955650527312911
 31
0.0
  0
CIRCLE
  5
26D
330
2
100
AcDbEntity
  8
GAIKEI
  6
Continuous
 62
     1
100
AcDbCircle
 10
31.16091479176237
 20
7.637555913456708
 30
0.0
 40
0.1166770326400016
  0
CIRCLE
  5
26E
330
2
100
AcDbEntity
  8
GAIKEI
  6
Continuous
 62
     1
100
AcDbCircle
 10
31.35264015861117
 20
8.099384610511691
 30
0.0
 40
0.1166770326400016
  0
CIRCLE
  5
26F
330
2
100
AcDbEntity
  8
GAIKEI
  6
Continuous
 62
     1
100
AcDbCircle
 10
31.54436552545997
 20
8.561213640929679
 30
0.0
 40
0.1166770326400016
  0
CIRCLE
  5
270
330
2
100
AcDbEntity
  8
GAIKEI
  6
Continuous
 62
     1
100
AcDbCircle
 10
31.73609089230877
 20
9.023042337984662
 30
0.0
 40
0.1166770326400016
  0
CIRCLE
  5
271
330
2
100
AcDbEntity
  8
GAIKEI
  6
Continuous
 62
     1
100
AcDbCircle
 10
31.92781659252057
 20
9.484871035039645
 30
0.0
 40
0.1166770326400016
  0
LINE
  5
272
330
2
100
AcDbEntity
  8
GAIKEI
  6
Continuous
 62
     7
100
AcDbLine
 10
32.43839362053842
 20
9.610544866985037
 30
0.0
 11
30.70953602311357
 21
5.446068214444068
 31
0.0
  0
LINE
  5
273
330
2
100
AcDbEntity
  8
GAIKEI
  6
Continuous
 62
     7
100
AcDbLine
 10
31.65636347572814
 20
9.935199710394726
 30
0.0
 11
30.01477450219522
 21
5.980936091662584
 31
0.0
  0
CIRCLE
  5
274
330
2
100
AcDbEntity
  8
GAIKEI
  6
Continuous
 62
     1
100
AcDbCircle
 10
30.03612552843214
 20
4.92816086850982
 30
0.0
 40
0.4233709470080061
  0
CIRCLE
  5
275
330
2
100
AcDbEntity
  8
GAIKEI
  6
Continuous
 62
     1
100
AcDbCircle
 10
30.03612552843214
 20
4.92816086850982
 30
0.0
 40
0.356698356928005
  0
POINT
  5
276
330
2
100
AcDbEntity
  8
GAIKEI
  6
Continuous
 62
     1
100
AcDbPoint
 10
30.03612552843214
 20
4.92816086850982
 30
0.0
  0
LINE
  5
277
330
2
100
AcDbEntity
  8
GAIKEI
  6
S10
 62
     1
100
AcDbLine
 10
-16.74217550011582
 20
15.49409958143798
 30
0.0
 11
-16.74217550011582
 21
15.45076239788597
 31
0.0
  0
LINE
  5
278
330
2
100
AcDbEntity
  8
GAIKEI
  6
S10
 62
     1
100
AcDbLine
 10
-16.45881699227578
 20
15.49409958143798
 30
0.0
 11
-16.45881699227578
 21
15.45076239788597
 31
0.0
  0
LINE
  5
279
330
2
100
AcDbEntity
  8
GAIKEI
  6
S10
 62
     1
100
AcDbLine
 10
-16.80051401643584
 20
15.49409958143798
 30
0.0
 11
-16.80051401643584
 21
15.52076861746997
 31
0.0
  0
LINE
  5
27A
330
2
100
AcDbEntity
  8
GAIKEI
  6
S10
 62
     1
100
AcDbLine
 10
-16.40047847595582
 20
15.49409958143798
 30
0.0
 11
-16.40047847595582
 21
15.52076861746997
 31
0.0
  0
LINE
  5
27B
330
2
100
AcDbEntity
  8
GAIKEI
  6
S10
 62
     1
100
AcDbLine
 10
-16.40047847595582
 20
15.49409958143798
 30
0.0
 11
-16.80051401643584
 21
15.49409958143798
 31
0.0
  0
LINE
  5
27C
330
2
100
AcDbEntity
  8
GAIKEI
  6
S10
 62
     1
100
AcDbLine
 10
-16.40047847595582
 20
15.52076861746997
 30
0.0
 11
-16.80051401643584
 21
15.52076861746997
 31
0.0
  0
ARC
  5
27D
330
2
100
AcDbEntity
  8
GAIKEI
  6
S10
 62
     1
100
AcDbCircle
 10
-16.5171555085958
 20
15.40742521433395
 30
0.0
 40
0.0666725900800009
100
AcDbArc
 50
270.0
 51
0.0
  0
ARC
  5
27E
330
2
100
AcDbEntity
  8
GAIKEI
  6
S10
 62
     1
100
AcDbCircle
 10
-16.68383698379585
 20
15.40742521433395
 30
0.0
 40
0.0666725900800009
100
AcDbArc
 50
180.0
 51
270.0
  0
LINE
  5
27F
330
2
100
AcDbEntity
  8
GAIKEI
  6
S10
 62
     1
100
AcDbLine
 10
-16.5171555085958
 20
15.34075262425398
 30
0.0
 11
-16.68383698379585
 21
15.34075262425398
 31
0.0
  0
LINE
  5
280
330
2
100
AcDbEntity
  8
GAIKEI
  6
S10
 62
     1
100
AcDbLine
 10
-16.45048291851583
 20
15.45076239788597
 30
0.0
 11
-16.75050957387583
 21
15.45076239788597
 31
0.0
  0
LINE
  5
281
330
2
100
AcDbEntity
  8
GAIKEI
  6
S10
 62
     1
100
AcDbLine
 10
-16.45048291851583
 20
15.45076239788597
 30
0.0
 11
-16.45048291851583
 21
15.40742521433395
 31
0.0
  0
LINE
  5
282
330
2
100
AcDbEntity
  8
GAIKEI
  6
S10
 62
     1
100
AcDbLine
 10
-16.75050957387583
 20
15.45076239788597
 30
0.0
 11
-16.75050957387583
 21
15.40742521433395
 31
0.0
  0
LINE
  5
283
330
2
100
AcDbEntity
  8
GAIKEI
  6
S10
 62
     1
100
AcDbLine
 10
-16.66716883627583
 20
15.49409958143798
 30
0.0
 11
-16.74217550011582
 21
15.49409958143798
 31
0.0
  0
LINE
  5
284
330
2
100
AcDbEntity
  8
GAIKEI
  6
S10
 62
     1
100
AcDbLine
 10
-13.40854599611577
 20
15.49409958143798
 30
0.0
 11
-13.40854599611577
 21
15.45076239788597
 31
0.0
  0
LINE
  5
285
330
2
100
AcDbEntity
  8
GAIKEI
  6
S10
 62
     1
100
AcDbLine
 10
-13.1251874882758
 20
15.49409958143798
 30
0.0
 11
-13.1251874882758
 21
15.45076239788597
 31
0.0
  0
LINE
  5
286
330
2
100
AcDbEntity
  8
GAIKEI
  6
S10
 62
     1
100
AcDbLine
 10
-13.40854599611577
 20
15.49409958143798
 30
0.0
 11
-13.1251874882758
 21
15.49409958143798
 31
0.0
  0
LINE
  5
287
330
2
100
AcDbEntity
  8
GAIKEI
  6
S10
 62
     1
100
AcDbLine
 10
-13.46688451243579
 20
15.49409958143798
 30
0.0
 11
-13.46688451243579
 21
15.52076861746997
 31
0.0
  0
LINE
  5
288
330
2
100
AcDbEntity
  8
GAIKEI
  6
S10
 62
     1
100
AcDbLine
 10
-13.06684897195578
 20
15.49409958143798
 30
0.0
 11
-13.06684897195578
 21
15.52076861746997
 31
0.0
  0
LINE
  5
289
330
2
100
AcDbEntity
  8
GAIKEI
  6
S10
 62
     1
100
AcDbLine
 10
-13.06684897195578
 20
15.49409958143798
 30
0.0
 11
-13.46688451243579
 21
15.49409958143798
 31
0.0
  0
LINE
  5
28A
330
2
100
AcDbEntity
  8
GAIKEI
  6
S10
 62
     1
100
AcDbLine
 10
-13.06684897195578
 20
15.52076861746997
 30
0.0
 11
-13.46688451243579
 21
15.52076861746997
 31
0.0
  0
ARC
  5
28B
330
2
100
AcDbEntity
  8
GAIKEI
  6
S10
 62
     1
100
AcDbCircle
 10
-13.18352600459576
 20
15.40742521433395
 30
0.0
 40
0.0666725900800009
100
AcDbArc
 50
270.0
 51
0.0
  0
ARC
  5
28C
330
2
100
AcDbEntity
  8
GAIKEI
  6
S10
 62
     1
100
AcDbCircle
 10
-13.35020747979575
 20
15.40742521433395
 30
0.0
 40
0.0666725900800009
100
AcDbArc
 50
180.0
 51
270.0
  0
LINE
  5
28D
330
2
100
AcDbEntity
  8
GAIKEI
  6
S10
 62
     1
100
AcDbLine
 10
-13.18352600459576
 20
15.34075262425398
 30
0.0
 11
-13.35020747979575
 21
15.34075262425398
 31
0.0
  0
LINE
  5
28E
330
2
100
AcDbEntity
  8
GAIKEI
  6
S10
 62
     1
100
AcDbLine
 10
-13.11685341451579
 20
15.45076239788597
 30
0.0
 11
-13.41688006987579
 21
15.45076239788597
 31
0.0
  0
LINE
  5
28F
330
2
100
AcDbEntity
  8
GAIKEI
  6
S10
 62
     1
100
AcDbLine
 10
-13.11685341451579
 20
15.45076239788597
 30
0.0
 11
-13.11685341451579
 21
15.40742521433395
 31
0.0
  0
LINE
  5
290
330
2
100
AcDbEntity
  8
GAIKEI
  6
S10
 62
     1
100
AcDbLine
 10
-13.41688006987579
 20
15.45076239788597
 30
0.0
 11
-13.41688006987579
 21
15.40742521433395
 31
0.0
  0
LINE
  5
291
330
2
100
AcDbEntity
  8
GAIKEI
  6
S10
 62
     1
100
AcDbLine
 10
-13.33353933227579
 20
15.49409958143798
 30
0.0
 11
-13.40854599611577
 21
15.49409958143798
 31
0.0
  0
CIRCLE
  5
292
330
2
100
AcDbEntity
  8
GAIKEI
  6
Continuous
 62
     1
100
AcDbCircle
 10
34.76987942411222
 20
16.33084058694197
 30
0.0
 40
0.0800071080960011
  0
LINE
  5
293
330
2
100
AcDbEntity
  8
GAIKEI
  6
Continuous
 62
     1
100
AcDbLine
 10
34.86611297381893
 20
16.16415911174198
 30
0.0
 11
34.96234652352564
 21
16.33084058694197
 31
0.0
  0
LINE
  5
294
330
2
100
AcDbEntity
  8
GAIKEI
  6
Continuous
 62
     1
100
AcDbLine
 10
34.67364587440545
 20
16.16415911174198
 30
0.0
 11
34.86611297381893
 21
16.16415911174198
 31
0.0
  0
LINE
  5
295
330
2
100
AcDbEntity
  8
GAIKEI
  6
Continuous
 62
     1
100
AcDbLine
 10
34.57741232469874
 20
16.33084058694197
 30
0.0
 11
34.67364587440545
 21
16.16415911174198
 31
0.0
  0
LINE
  5
296
330
2
100
AcDbEntity
  8
GAIKEI
  6
Continuous
 62
     1
100
AcDbLine
 10
34.67364587440545
 20
16.497522062142
 30
0.0
 11
34.57741232469874
 21
16.33084058694197
 31
0.0
  0
LINE
  5
297
330
2
100
AcDbEntity
  8
GAIKEI
  6
Continuous
 62
     1
100
AcDbLine
 10
34.86611297381893
 20
16.497522062142
 30
0.0
 11
34.67364587440545
 21
16.497522062142
 31
0.0
  0
LINE
  5
298
330
2
100
AcDbEntity
  8
GAIKEI
  6
Continuous
 62
     1
100
AcDbLine
 10
34.96234652352564
 20
16.33084058694197
 30
0.0
 11
34.86611297381893
 21
16.497522062142
 31
0.0
  0
CIRCLE
  5
299
330
2
100
AcDbEntity
  8
GAIKEI
  6
Continuous
 62
     1
100
AcDbCircle
 10
34.76987942411222
 20
16.33084058694197
 30
0.0
 40
0.2333540652800033
  0
LINE
  5
29A
330
2
100
AcDbEntity
  8
GAIKEI
  6
Continuous
 62
     1
100
AcDbLine
 10
33.10806511636815
 20
17.57928483619
 30
0.0
 11
33.07472882132817
 21
17.57928483619
 31
0.0
  0
LINE
  5
29B
330
2
100
AcDbEntity
  8
GAIKEI
  6
Continuous
 62
     1
100
AcDbLine
 10
33.10806511636815
 20
17.19591744323
 30
0.0
 11
33.07472882132817
 21
17.19591744323
 31
0.0
  0
ARC
  5
29C
330
2
100
AcDbEntity
  8
GAIKEI
  6
Continuous
 62
     1
100
AcDbCircle
 10
32.77136853646414
 20
17.38760113971
 30
0.0
 40
0.4667081305600066
100
AcDbArc
 50
344.3400829999992
 51
15.65991700000082
  0
ARC
  5
29D
330
2
100
AcDbEntity
  8
GAIKEI
  6
Continuous
 62
     1
100
AcDbCircle
 10
33.15976504289392
 20
17.27872079975395
 30
0.0
 40
0.0633389605760009
100
AcDbArc
 50
273.0000000000023
 51
344.3400829999992
  0
ARC
  5
29E
330
2
100
AcDbEntity
  8
GAIKEI
  6
Continuous
 62
     1
100
AcDbCircle
 10
33.15976504289392
 20
17.4964811463031
 30
0.0
 40
0.0633389605760009
100
AcDbArc
 50
15.65991700000082
 51
86.99999999999766
  0
LINE
  5
29F
330
2
100
AcDbEntity
  8
GAIKEI
  6
Continuous
 62
     1
100
AcDbLine
 10
33.10806511636815
 20
17.57928483619
 30
0.0
 11
33.10806511636815
 21
17.19591744323
 31
0.0
  0
LINE
  5
2A0
330
2
100
AcDbEntity
  8
GAIKEI
  6
Continuous
 62
     1
100
AcDbLine
 10
33.10806511636815
 20
17.21258559074999
 30
0.0
 11
33.1630800040727
 21
17.21546851354503
 31
0.0
  0
LINE
  5
2A1
330
2
100
AcDbEntity
  8
GAIKEI
  6
Continuous
 62
     1
100
AcDbLine
 10
33.10806511636815
 20
17.56261668867
 30
0.0
 11
33.1630800040727
 21
17.55973343251199
 31
0.0
  0
ARC
  5
2A2
330
2
100
AcDbEntity
  8
GAIKEI
  6
S10
 62
     1
100
AcDbCircle
 10
-3.167052678408936
 20
15.26407914566198
 30
0.0
 40
0.0666725900800009
100
AcDbArc
 50
0.0
 51
90.0
  0
ARC
  5
2A3
330
2
100
AcDbEntity
  8
GAIKEI
  6
S10
 62
     1
100
AcDbCircle
 10
-4.70052225024898
 20
15.26407914566198
 30
0.0
 40
0.0666725900800009
100
AcDbArc
 50
90.0
 51
180.0
  0
ARC
  5
2A4
330
2
100
AcDbEntity
  8
GAIKEI
  6
S10
 62
     1
100
AcDbCircle
 10
-3.167052678408936
 20
8.730165317821871
 30
0.0
 40
0.0666725900800009
100
AcDbArc
 50
270.0
 51
0.0
  0
ARC
  5
2A5
330
2
100
AcDbEntity
  8
GAIKEI
  6
S10
 62
     1
100
AcDbCircle
 10
-4.70052225024898
 20
8.730165317821871
 30
0.0
 40
0.0666725900800009
100
AcDbArc
 50
180.0
 51
270.0
  0
LINE
  5
2A6
330
2
100
AcDbEntity
  8
GAIKEI
  6
S10
 62
     1
100
AcDbLine
 10
-4.70052225024898
 20
8.663492727741868
 30
0.0
 11
-3.167052678408936
 21
8.663492727741868
 31
0.0
  0
LINE
  5
2A7
330
2
100
AcDbEntity
  8
GAIKEI
  6
S10
 62
     1
100
AcDbLine
 10
-4.70052225024898
 20
15.33075173574198
 30
0.0
 11
-3.167052678408936
 21
15.33075173574198
 31
0.0
  0
LINE
  5
2A8
330
2
100
AcDbEntity
  8
GAIKEI
  6
S10
 62
     1
100
AcDbLine
 10
-3.100380088328961
 20
8.730165317821871
 30
0.0
 11
-3.100380088328961
 21
15.26407914566198
 31
0.0
  0
LINE
  5
2A9
330
2
100
AcDbEntity
  8
GAIKEI
  6
S10
 62
     1
100
AcDbLine
 10
-4.767194840328954
 20
8.730165317821871
 30
0.0
 11
-4.767194840328954
 21
15.26407914566198
 31
0.0
  0
LINE
  5
2AA
330
2
100
AcDbEntity
  8
GAIKEI
  6
S10
 62
     1
100
AcDbLine
 10
-14.26362196389181
 20
9.888318545317019
 30
0.0
 11
-14.26362196389181
 21
10.12167261059701
 31
0.0
  0
LINE
  5
2AB
330
2
100
AcDbEntity
  8
GAIKEI
  6
S10
 62
     1
100
AcDbLine
 10
-15.46372858533181
 20
9.813311881477005
 30
0.0
 11
-15.46372858533181
 21
10.196679274437
 31
0.0
  0
LINE
  5
2AC
330
2
100
AcDbEntity
  8
GAIKEI
  6
S10
 62
     1
100
AcDbLine
 10
-14.18028122629175
 20
9.904986692836985
 30
0.0
 11
-14.18028122629175
 21
10.10500446307702
 31
0.0
  0
ARC
  5
2AD
330
2
100
AcDbEntity
  8
GAIKEI
  6
S10
 62
     1
100
AcDbCircle
 10
-15.32168829933653
 20
10.004995577957
 30
0.0
 40
0.3253899087152878
100
AcDbArc
 50
162.8697630000006
 51
197.1302369999994
  0
ARC
  5
2AE
330
2
100
AcDbEntity
  8
GAIKEI
  6
S10
 62
     1
100
AcDbCircle
 10
-15.56031783330661
 20
9.861232805597012
 30
0.0
 40
0.0867607081081548
100
AcDbArc
 50
146.4726420000019
 51
213.5273579999981
  0
ARC
  5
2AF
330
2
100
AcDbEntity
  8
GAIKEI
  6
S10
 62
     1
100
AcDbCircle
 10
-15.56031783330661
 20
10.14875835031702
 30
0.0
 40
0.0867607081081548
100
AcDbArc
 50
146.4726420000019
 51
213.5273579999981
  0
LINE
  5
2B0
330
2
100
AcDbEntity
  8
GAIKEI
  6
S10
 62
     1
100
AcDbLine
 10
-14.18028122629175
 20
10.10500446307702
 30
0.0
 11
-14.19694937381177
 21
10.12167261059701
 31
0.0
  0
LINE
  5
2B1
330
2
100
AcDbEntity
  8
GAIKEI
  6
S10
 62
     1
100
AcDbLine
 10
-14.19694937381177
 20
9.888318545317019
 30
0.0
 11
-14.18028122629175
 21
9.904986692836985
 31
0.0
  0
LINE
  5
2B2
330
2
100
AcDbEntity
  8
GAIKEI
  6
S10
 62
     1
100
AcDbLine
 10
-14.45697247512379
 20
10.12167261059701
 30
0.0
 11
-14.19694937381177
 21
10.12167261059701
 31
0.0
  0
LINE
  5
2B3
330
2
100
AcDbEntity
  8
GAIKEI
  6
S10
 62
     1
100
AcDbLine
 10
-14.19694937381177
 20
9.888318545317019
 30
0.0
 11
-14.45697247512379
 21
9.888318545317019
 31
0.0
  0
LINE
  5
2B4
330
2
100
AcDbEntity
  8
GAIKEI
  6
S10
 62
     1
100
AcDbLine
 10
-15.46372858533181
 20
10.21334742195699
 30
0.0
 11
-15.46372858533181
 21
9.796643733957012
 31
0.0
  0
LINE
  5
2B5
330
2
100
AcDbEntity
  8
GAIKEI
  6
S10
 62
     1
100
AcDbLine
 10
-15.41039051326783
 20
10.21334742195699
 30
0.0
 11
-15.41039051326783
 21
9.796643733957012
 31
0.0
  0
LINE
  5
2B6
330
2
100
AcDbEntity
  8
GAIKEI
  6
S10
 62
     1
100
AcDbLine
 10
-15.46372858533181
 20
9.796643733957012
 30
0.0
 11
-15.41039051326783
 21
9.796643733957012
 31
0.0
  0
LINE
  5
2B7
330
2
100
AcDbEntity
  8
GAIKEI
  6
S10
 62
     1
100
AcDbLine
 10
-15.46372858533181
 20
10.21334742195699
 30
0.0
 11
-15.41039051326783
 21
10.21334742195699
 31
0.0
  0
LINE
  5
2B8
330
2
100
AcDbEntity
  8
GAIKEI
  6
S10
 62
     1
100
AcDbLine
 10
-15.63264325893652
 20
9.909153729717019
 30
0.0
 11
-15.51373302789182
 21
9.909153729717019
 31
0.0
  0
LINE
  5
2B9
330
2
100
AcDbEntity
  8
GAIKEI
  6
S10
 62
     1
100
AcDbLine
 10
-15.63264325893652
 20
10.10083742619702
 30
0.0
 11
-15.51373302789182
 21
10.10083742619702
 31
0.0
  0
LINE
  5
2BA
330
2
100
AcDbEntity
  8
GAIKEI
  6
S10
 62
     1
100
AcDbLine
 10
-15.51373302789182
 20
9.813311881477005
 30
0.0
 11
-15.51373302789182
 21
10.196679274437
 31
0.0
  0
LINE
  5
2BB
330
2
100
AcDbEntity
  8
GAIKEI
  6
S10
 62
     1
100
AcDbLine
 10
-15.64707820805182
 20
9.861232805597012
 30
0.0
 11
-15.64707820805182
 21
10.14875835031702
 31
0.0
  0
LINE
  5
2BC
330
2
100
AcDbEntity
  8
GAIKEI
  6
S10
 62
     1
100
AcDbLine
 10
-15.63264325893652
 20
9.813311881477005
 30
0.0
 11
-15.46372858533181
 21
9.813311881477005
 31
0.0
  0
LINE
  5
2BD
330
2
100
AcDbEntity
  8
GAIKEI
  6
S10
 62
     1
100
AcDbLine
 10
-15.63264325893652
 20
10.196679274437
 30
0.0
 11
-15.46372858533181
 21
10.196679274437
 31
0.0
  0
LINE
  5
2BE
330
2
100
AcDbEntity
  8
GAIKEI
  6
S10
 62
     1
100
AcDbLine
 10
-14.30695914744376
 20
10.221681495717
 30
0.0
 11
-14.30695914744376
 21
9.788309660197
 31
0.0
  0
LINE
  5
2BF
330
2
100
AcDbEntity
  8
GAIKEI
  6
S10
 62
     1
100
AcDbLine
 10
-14.45697247512379
 20
9.788309660197
 30
0.0
 11
-14.30695914744376
 21
9.788309660197
 31
0.0
  0
LINE
  5
2C0
330
2
100
AcDbEntity
  8
GAIKEI
  6
S10
 62
     1
100
AcDbLine
 10
-14.45697247512379
 20
10.221681495717
 30
0.0
 11
-14.30695914744376
 21
10.221681495717
 31
0.0
  0
LINE
  5
2C1
330
2
100
AcDbEntity
  8
GAIKEI
  6
S10
 62
     1
100
AcDbLine
 10
-16.4188134382278
 20
23.36300601443483
 30
0.0
 11
-16.4188134382278
 21
17.62095520499
 31
0.0
  0
LINE
  5
2C2
330
2
100
AcDbEntity
  8
GAIKEI
  6
S10
 62
     1
100
AcDbLine
 10
-13.44854955016376
 20
23.36300601443483
 30
0.0
 11
-13.44854955016376
 21
17.62095520499
 31
0.0
  0
LINE
  5
2C3
330
2
100
AcDbEntity
  8
GAIKEI
  6
Continuous
 62
     7
100
AcDbLine
 10
-16.4188134382278
 20
37.23936483603029
 30
0.0
 11
-13.44854955016376
 21
37.23936483603029
 31
0.0
  0
LINE
  5
2C4
330
2
100
AcDbEntity
  8
GAIKEI
  6
S10
 62
     1
100
AcDbLine
 10
-16.4188134382278
 20
17.62095520499
 30
0.0
 11
-13.44854955016376
 21
17.62095520499
 31
0.0
  0
LINE
  5
2C5
330
2
100
AcDbEntity
  8
GAIKEI
  6
Continuous
 62
     7
100
AcDbLine
 10
-13.44854955016376
 20
37.23936483603029
 30
0.0
 11
-13.44854955016376
 21
23.36300601443483
 31
0.0
  0
LINE
  5
2C6
330
2
100
AcDbEntity
  8
GAIKEI
  6
Continuous
 62
     7
100
AcDbLine
 10
-16.4188134382278
 20
37.23936483603029
 30
0.0
 11
-16.4188134382278
 21
23.36300601443483
 31
0.0
  0
POINT
  5
2C7
330
2
100
AcDbEntity
  8
GAIKEI
  6
Continuous
 62
     7
100
AcDbPoint
 10
29.46940851275133
 20
16.34417510495706
 30
0.0
  0
CIRCLE
  5
2C8
330
2
100
AcDbEntity
  8
GAIKEI
  6
Continuous
 62
     1
100
AcDbCircle
 10
31.80294916555136
 20
21.45462913458908
 30
0.0
 40
0.15834740144
  0
CIRCLE
  5
2C9
330
2
100
AcDbEntity
  8
GAIKEI
  6
Continuous
 62
     1
100
AcDbCircle
 10
31.81211264633191
 20
18.12099963058907
 30
0.0
 40
0.3000266553599999
  0
LINE
  5
2CA
330
2
100
AcDbEntity
  8
GAIKEI
  6
Continuous
 62
     1
100
AcDbLine
 10
31.59542672857197
 20
17.99589584928884
 30
0.0
 11
31.81211264633191
 21
17.87079206798864
 31
0.0
  0
LINE
  5
2CB
330
2
100
AcDbEntity
  8
GAIKEI
  6
Continuous
 62
     1
100
AcDbLine
 10
31.81211264633191
 20
18.37120685982654
 30
0.0
 11
32.02879856409197
 21
18.24610307852634
 31
0.0
  0
LINE
  5
2CC
330
2
100
AcDbEntity
  8
GAIKEI
  6
Continuous
 62
     1
100
AcDbLine
 10
31.81211264633191
 20
17.87079206798864
 30
0.0
 11
32.02879856409197
 21
17.99589584928884
 31
0.0
  0
LINE
  5
2CD
330
2
100
AcDbEntity
  8
GAIKEI
  6
Continuous
 62
     1
100
AcDbLine
 10
31.59542672857197
 20
18.24610307852634
 30
0.0
 11
31.81211264633191
 21
18.37120685982654
 31
0.0
  0
LINE
  5
2CE
330
2
100
AcDbEntity
  8
GAIKEI
  6
Continuous
 62
     1
100
AcDbLine
 10
31.59542672857197
 20
18.24610307852634
 30
0.0
 11
31.59542672857197
 21
17.99589584928884
 31
0.0
  0
LINE
  5
2CF
330
2
100
AcDbEntity
  8
GAIKEI
  6
Continuous
 62
     1
100
AcDbLine
 10
32.02879856409197
 20
18.24610307852634
 30
0.0
 11
32.02879856409197
 21
17.99589584928884
 31
0.0
  0
CIRCLE
  5
2D0
330
2
100
AcDbEntity
  8
GAIKEI
  6
Continuous
 62
     1
100
AcDbCircle
 10
31.80294916555136
 20
35.17251454354909
 30
0.0
 40
0.0833407376
  0
CIRCLE
  5
2D1
330
2
100
AcDbEntity
  8
GAIKEI
  6
Continuous
 62
     1
100
AcDbCircle
 10
32.22786391638266
 20
10.21064018143599
 30
0.0
 40
0.3000266553599999
  0
LINE
  5
2D2
330
2
100
AcDbEntity
  8
GAIKEI
  6
Continuous
 62
     1
100
AcDbLine
 10
31.9887080023139
 20
10.13709998121479
 30
0.0
 11
32.17197361757042
 21
9.966755180552866
 31
0.0
  0
LINE
  5
2D3
330
2
100
AcDbEntity
  8
GAIKEI
  6
Continuous
 62
     1
100
AcDbLine
 10
32.28375421519491
 20
10.45452551568206
 30
0.0
 11
32.46701983045142
 21
10.28418038165716
 31
0.0
  0
LINE
  5
2D4
330
2
100
AcDbEntity
  8
GAIKEI
  6
Continuous
 62
     1
100
AcDbLine
 10
32.17197361757042
 20
9.966755180552866
 30
0.0
 11
32.41112953163918
 21
10.04029504741109
 31
0.0
  0
LINE
  5
2D5
330
2
100
AcDbEntity
  8
GAIKEI
  6
Continuous
 62
     1
100
AcDbLine
 10
32.04459830112615
 20
10.38098531546089
 30
0.0
 11
32.28375421519491
 21
10.45452551568206
 31
0.0
  0
LINE
  5
2D6
330
2
100
AcDbEntity
  8
GAIKEI
  6
Continuous
 62
     1
100
AcDbLine
 10
32.04459830112615
 20
10.38098531546089
 30
0.0
 11
31.9887080023139
 21
10.13709998121479
 31
0.0
  0
LINE
  5
2D7
330
2
100
AcDbEntity
  8
GAIKEI
  6
Continuous
 62
     1
100
AcDbLine
 10
32.46701983045142
 20
10.28418038165716
 30
0.0
 11
32.41112953163918
 21
10.04029504741109
 31
0.0
  0
CIRCLE
  5
2D8
330
2
100
AcDbEntity
  8
GAIKEI
  6
Continuous
 62
     1
100
AcDbCircle
 10
29.46940851275133
 20
16.34417510495706
 30
0.0
 40
0.635056420512
  0
CIRCLE
  5
2D9
330
2
100
AcDbEntity
  8
GAIKEI
  6
Continuous
 62
     1
100
AcDbCircle
 10
29.46940851275133
 20
16.34417510495706
 30
0.0
 40
0.7117298991040001
  0
LINE
  5
2DA
330
2
100
AcDbEntity
  8
GAIKEI
  6
Continuous
 62
     7
100
AcDbLine
 10
32.25249443797293
 20
15.52076861746906
 30
0.0
 11
32.25249443797293
 21
14.85404271666908
 31
0.0
  0
CIRCLE
  5
2DB
330
2
100
AcDbEntity
  8
GAIKEI
  6
Continuous
 62
     1
100
AcDbCircle
 10
31.80294916555136
 20
35.17251454354909
 30
0.0
 40
0.3333629504
  0
LINE
  5
2DC
330
2
100
AcDbEntity
  8
GAIKEI
  6
Continuous
 62
     1
100
AcDbLine
 10
31.96963064075135
 20
35.2687480932558
 30
0.0
 11
31.96963064075135
 21
35.0762806604794
 31
0.0
  0
LINE
  5
2DD
330
2
100
AcDbEntity
  8
GAIKEI
  6
Continuous
 62
     1
100
AcDbLine
 10
31.80294916555136
 20
34.98004711077266
 30
0.0
 11
31.96963064075135
 21
35.0762806604794
 31
0.0
  0
LINE
  5
2DE
330
2
100
AcDbEntity
  8
GAIKEI
  6
Continuous
 62
     1
100
AcDbLine
 10
31.63626769035136
 20
35.0762806604794
 30
0.0
 11
31.80294916555136
 21
34.98004711077266
 31
0.0
  0
LINE
  5
2DF
330
2
100
AcDbEntity
  8
GAIKEI
  6
Continuous
 62
     1
100
AcDbLine
 10
31.63626769035136
 20
35.2687480932558
 30
0.0
 11
31.63626769035136
 21
35.0762806604794
 31
0.0
  0
LINE
  5
2E0
330
2
100
AcDbEntity
  8
GAIKEI
  6
Continuous
 62
     1
100
AcDbLine
 10
31.63626769035136
 20
35.2687480932558
 30
0.0
 11
31.80294916555136
 21
35.36498164296251
 31
0.0
  0
LINE
  5
2E1
330
2
100
AcDbEntity
  8
GAIKEI
  6
Continuous
 62
     1
100
AcDbLine
 10
31.80294916555136
 20
35.36498164296251
 30
0.0
 11
31.96963064075135
 21
35.2687480932558
 31
0.0
  0
LINE
  5
2E2
330
2
100
AcDbEntity
  8
GAIKEI
  6
Continuous
 62
     7
100
AcDbLine
 10
30.41949292139134
 20
37.2759887564859
 30
0.0
 11
30.41949292139134
 21
37.23936483602907
 31
0.0
  0
LINE
  5
2E3
330
2
100
AcDbEntity
  8
GAIKEI
  6
Continuous
 62
     7
100
AcDbLine
 10
33.18640540971137
 20
37.2759887564859
 30
0.0
 11
33.18640540971137
 21
37.23936483602907
 31
0.0
  0
ARC
  5
2E4
330
2
100
AcDbEntity
  8
GAIKEI
  6
Continuous
 62
     7
100
AcDbCircle
 10
34.90844340125989
 20
37.07597098624592
 30
0.0
 40
0.6667259008
100
AcDbArc
 50
90.0
 51
136.9367999999798
  0
ARC
  5
2E5
330
2
100
AcDbEntity
  8
GAIKEI
  6
Continuous
 62
     7
100
AcDbCircle
 10
35.75940533686497
 20
38.14273242752591
 30
0.0
 40
0.560049756672
100
AcDbArc
 50
90.0
 51
136.9367999999798
  0
ARC
  5
2E6
330
2
100
AcDbEntity
  8
GAIKEI
  6
Continuous
 62
     7
100
AcDbCircle
 10
27.84649332760068
 20
38.14273242752591
 30
0.0
 40
0.560049756672
100
AcDbArc
 50
43.0632000000196
 51
90.0
  0
ARC
  5
2E7
330
2
100
AcDbEntity
  8
GAIKEI
  6
Continuous
 62
     7
100
AcDbCircle
 10
33.89334054949973
 20
37.9427146572859
 30
0.0
 40
0.6667259008
100
AcDbArc
 50
270.0
 51
316.9367999999798
  0
LINE
  5
2E8
330
2
100
AcDbEntity
  8
GAIKEI
  6
Continuous
 62
     7
100
AcDbLine
 10
34.38045115935012
 20
37.48747121195311
 30
0.0
 11
35.35023231791451
 21
38.52513706828515
 31
0.0
  0
ARC
  5
2E9
330
2
100
AcDbEntity
  8
GAIKEI
  6
Continuous
 62
     7
100
AcDbCircle
 10
29.71255811496587
 20
37.9427146572859
 30
0.0
 40
0.6667259008
100
AcDbArc
 50
223.0632000000196
 51
270.0
  0
LINE
  5
2EA
330
2
100
AcDbEntity
  8
GAIKEI
  6
Continuous
 62
     7
100
AcDbLine
 10
29.22544750511554
 20
37.48747121195311
 30
0.0
 11
28.25566601318821
 21
38.52513706828515
 31
0.0
  0
LINE
  5
2EB
330
2
100
AcDbEntity
  8
GAIKEI
  6
Continuous
 62
     7
100
AcDbLine
 10
25.96909753355135
 20
38.80945832832592
 30
0.0
 11
35.73829879502336
 21
38.80945832832592
 31
0.0
  0
LINE
  5
2EC
330
2
100
AcDbEntity
  8
GAIKEI
  6
Continuous
 62
     7
100
AcDbLine
 10
29.71255811496587
 20
37.2759887564859
 30
0.0
 11
33.89334054949973
 21
37.2759887564859
 31
0.0
  0
LINE
  5
2ED
330
2
100
AcDbEntity
  8
GAIKEI
  6
Continuous
 62
     7
100
AcDbLine
 10
34.90844340125989
 20
37.7426968870459
 30
0.0
 11
37.63680079755136
 21
37.7426968870459
 31
0.0
  0
LINE
  5
2EE
330
2
100
AcDbEntity
  8
GAIKEI
  6
Continuous
 62
     7
100
AcDbLine
 10
25.96909753355135
 20
38.7027821841979
 30
0.0
 11
37.63680079755136
 21
38.7027821841979
 31
0.0
  0
LINE
  5
2EF
330
2
100
AcDbEntity
  8
GAIKEI
  6
Continuous
 62
     7
100
AcDbLine
 10
37.63680079755136
 20
38.80945832832592
 30
0.0
 11
37.63680079755136
 21
37.7426968870459
 31
0.0
  0
LINE
  5
2F0
330
2
100
AcDbEntity
  8
GAIKEI
  6
Continuous
 62
     7
100
AcDbLine
 10
25.96909753355135
 20
38.80945832832592
 30
0.0
 11
25.96909753355135
 21
38.7027821841979
 31
0.0
  0
LINE
  5
2F1
330
2
100
AcDbEntity
  8
GAIKEI
  6
Continuous
 62
     7
100
AcDbLine
 10
35.75940533686497
 20
38.80945832832592
 30
0.0
 11
37.63680079755136
 21
38.80945832832592
 31
0.0
  0
LINE
  5
2F2
330
2
100
AcDbEntity
  8
GAIKEI
  6
S10
 62
     1
100
AcDbLine
 10
-4.167141529609523
 20
17.04257048604506
 30
0.0
 11
-3.700433399049529
 21
17.04257048604506
 31
0.0
  0
LINE
  5
2F3
330
2
100
AcDbEntity
  8
GAIKEI
  6
S10
 62
     1
100
AcDbLine
 10
-25.70022145878289
 20
17.04257048604506
 30
0.0
 11
-26.16692958934289
 21
17.04257048604506
 31
0.0
  0
ARC
  5
2F4
330
2
100
AcDbEntity
  8
GAIKEI
  6
S10
 62
     1
100
AcDbCircle
 10
-15.08369482187623
 20
9.638296332516176
 30
0.0
 40
0.10000888512
100
AcDbArc
 50
270.0
 51
0.0
  0
ARC
  5
2F5
330
2
100
AcDbEntity
  8
GAIKEI
  6
S10
 62
     1
100
AcDbCircle
 10
-14.78366816651623
 20
9.638296332516176
 30
0.0
 40
0.10000888512
100
AcDbArc
 50
180.0
 51
270.0
  0
LINE
  5
2F6
330
2
100
AcDbEntity
  8
GAIKEI
  6
S10
 62
     1
100
AcDbLine
 10
-15.08369482187623
 20
9.538287447396186
 30
0.0
 11
-15.41039051326817
 21
9.538287447396186
 31
0.0
  0
LINE
  5
2F7
330
2
100
AcDbEntity
  8
GAIKEI
  6
S10
 62
     1
100
AcDbLine
 10
-14.98368593675621
 20
11.20510219939618
 30
0.0
 11
-14.98368593675621
 21
9.638296332516176
 31
0.0
  0
LINE
  5
2F8
330
2
100
AcDbEntity
  8
GAIKEI
  6
S10
 62
     1
100
AcDbLine
 10
-14.8836770516362
 20
11.20510219939618
 30
0.0
 11
-14.8836770516362
 21
9.638296332516176
 31
0.0
  0
LINE
  5
2F9
330
2
100
AcDbEntity
  8
GAIKEI
  6
S10
 62
     1
100
AcDbLine
 10
-14.8836770516362
 20
11.20510219939618
 30
0.0
 11
-14.98368593675621
 21
11.20510219939618
 31
0.0
  0
LINE
  5
2FA
330
2
100
AcDbEntity
  8
GAIKEI
  6
S10
 62
     1
100
AcDbLine
 10
-14.45697247512424
 20
9.538287447396186
 30
0.0
 11
-14.78366816651623
 21
9.538287447396186
 31
0.0
  0
LINE
  5
2FB
330
2
100
AcDbEntity
  8
GAIKEI
  6
S10
 62
     1
100
AcDbLine
 10
-14.45697247512424
 20
14.83737456914906
 30
0.0
 11
-14.45697247512424
 21
9.538287447396186
 31
0.0
  0
LINE
  5
2FC
330
2
100
AcDbEntity
  8
GAIKEI
  6
S10
 62
     1
100
AcDbLine
 10
-15.41039051326817
 20
14.83737456914906
 30
0.0
 11
-15.41039051326817
 21
9.538287447396186
 31
0.0
  0
LINE
  5
2FD
330
2
100
AcDbEntity
  8
GAIKEI
  6
S10
 62
     1
100
AcDbLine
 10
-4.933876315529516
 20
4.539793031293072
 30
0.0
 11
-24.9334866728629
 21
4.539793031293072
 31
0.0
  0
LINE
  5
2FE
330
2
100
AcDbEntity
  8
GAIKEI
  6
S10
 62
     1
100
AcDbLine
 10
-4.933876315529516
 20
5.386534925309064
 30
0.0
 11
-14.51031054718822
 21
5.386534925309064
 31
0.0
  0
LINE
  5
2FF
330
2
100
AcDbEntity
  8
GAIKEI
  6
S10
 62
     1
100
AcDbLine
 10
-26.93366437526288
 20
4.539793031293072
 30
0.0
 11
-27.11701399798284
 21
4.539793031293072
 31
0.0
  0
LINE
  5
300
330
2
100
AcDbEntity
  8
GAIKEI
  6
S10
 62
     1
100
AcDbLine
 10
-24.9334866728629
 20
5.386534925309064
 30
0.0
 11
-15.35705244120419
 21
5.386534925309064
 31
0.0
  0
LINE
  5
301
330
2
100
AcDbEntity
  8
GAIKEI
  6
S10
 62
     1
100
AcDbLine
 10
-26.93366437526288
 20
15.61911068783706
 30
0.0
 11
-27.11701399798284
 21
15.61911068783706
 31
0.0
  0
LINE
  5
302
330
2
100
AcDbEntity
  8
GAIKEI
  6
S10
 62
     1
100
AcDbLine
 10
-26.93366437526288
 20
17.04257048604506
 30
0.0
 11
-27.11701399798284
 21
17.04257048604506
 31
0.0
  0
LINE
  5
303
330
2
100
AcDbEntity
  8
GAIKEI
  6
S10
 62
     1
100
AcDbLine
 10
-4.933876315529516
 20
15.61911068783706
 30
0.0
 11
-12.26677789099625
 21
15.61911068783706
 31
0.0
  0
LINE
  5
304
330
2
100
AcDbEntity
  8
GAIKEI
  6
S10
 62
     1
100
AcDbLine
 10
-4.933876315529516
 20
17.04257048604506
 30
0.0
 11
-12.26677789099625
 21
17.04257048604506
 31
0.0
  0
LINE
  5
305
330
2
100
AcDbEntity
  8
GAIKEI
  6
S10
 62
     1
100
AcDbLine
 10
-17.60058509739622
 20
15.61911068783706
 30
0.0
 11
-24.9334866728629
 21
15.61911068783706
 31
0.0
  0
LINE
  5
306
330
2
100
AcDbEntity
  8
GAIKEI
  6
S10
 62
     1
100
AcDbLine
 10
-17.60058509739622
 20
17.04257048604506
 30
0.0
 11
-24.9334866728629
 21
17.04257048604506
 31
0.0
  0
LINE
  5
307
330
2
100
AcDbEntity
  8
GAIKEI
  6
S10
 62
     1
100
AcDbLine
 10
-15.23370814955621
 20
15.33271491015597
 30
0.0
 11
-15.23370814955621
 21
15.52076861746906
 31
0.0
  0
LINE
  5
308
330
2
100
AcDbEntity
  8
GAIKEI
  6
S10
 62
     1
100
AcDbLine
 10
-14.63365483883626
 20
15.33271491015597
 30
0.0
 11
-14.63365483883626
 21
15.52076861746906
 31
0.0
  0
CIRCLE
  5
309
330
2
100
AcDbEntity
  8
GAIKEI
  6
S10
 62
     1
100
AcDbCircle
 10
-14.93368149419621
 20
15.18740566706907
 30
0.0
 40
0.3333629504
  0
LINE
  5
30A
330
2
100
AcDbEntity
  8
GAIKEI
  6
S10
 62
     1
100
AcDbLine
 10
-14.76700001899627
 20
15.28363921677578
 30
0.0
 11
-14.76700001899627
 21
15.09117178399941
 31
0.0
  0
LINE
  5
30B
330
2
100
AcDbEntity
  8
GAIKEI
  6
S10
 62
     1
100
AcDbLine
 10
-14.93368149419621
 20
14.99493823429267
 30
0.0
 11
-14.76700001899627
 21
15.09117178399941
 31
0.0
  0
LINE
  5
30C
330
2
100
AcDbEntity
  8
GAIKEI
  6
S10
 62
     1
100
AcDbLine
 10
-15.1003629693962
 20
15.09117178399941
 30
0.0
 11
-14.93368149419621
 21
14.99493823429267
 31
0.0
  0
LINE
  5
30D
330
2
100
AcDbEntity
  8
GAIKEI
  6
S10
 62
     1
100
AcDbLine
 10
-15.1003629693962
 20
15.28363921677578
 30
0.0
 11
-15.1003629693962
 21
15.09117178399941
 31
0.0
  0
LINE
  5
30E
330
2
100
AcDbEntity
  8
GAIKEI
  6
S10
 62
     1
100
AcDbLine
 10
-15.1003629693962
 20
15.28363921677578
 30
0.0
 11
-14.93368149419621
 21
15.37987276648252
 31
0.0
  0
LINE
  5
30F
330
2
100
AcDbEntity
  8
GAIKEI
  6
S10
 62
     1
100
AcDbLine
 10
-14.93368149419621
 20
15.37987276648252
 30
0.0
 11
-14.76700001899627
 21
15.28363921677578
 31
0.0
  0
LINE
  5
310
330
2
100
AcDbEntity
  8
GAIKEI
  6
S10
 62
     1
100
AcDbLine
 10
-27.11701399798284
 20
5.386534925309064
 30
0.0
 11
-26.93366437526288
 21
5.386534925309064
 31
0.0
  0
LINE
  5
311
330
2
100
AcDbEntity
  8
GAIKEI
  6
S10
 62
     1
100
AcDbLine
 10
-27.11701399798284
 20
4.539793031293072
 30
0.0
 11
-27.11701399798284
 21
5.386534925309064
 31
0.0
  0
LINE
  5
312
330
2
100
AcDbEntity
  8
GAIKEI
  6
S10
 62
     1
100
AcDbLine
 10
-2.750348990409577
 20
4.539793031293072
 30
0.0
 11
-2.933698613129536
 21
4.539793031293072
 31
0.0
  0
ARC
  5
313
330
2
100
AcDbEntity
  8
GAIKEI
  6
S10
 62
     1
100
AcDbCircle
 10
-14.93368149419621
 20
5.386534925309064
 30
0.0
 40
0.4233709470079999
100
AcDbArc
 50
180.0
 51
0.0
  0
LINE
  5
314
330
2
100
AcDbEntity
  8
GAIKEI
  6
S10
 62
     1
100
AcDbLine
 10
-14.51031054718822
 20
9.538287447396186
 30
0.0
 11
-14.51031054718822
 21
5.386534925309064
 31
0.0
  0
LINE
  5
315
330
2
100
AcDbEntity
  8
GAIKEI
  6
S10
 62
     1
100
AcDbLine
 10
-15.35705244120419
 20
9.538287447396186
 30
0.0
 11
-15.35705244120419
 21
5.386534925309064
 31
0.0
  0
LINE
  5
316
330
2
100
AcDbEntity
  8
GAIKEI
  6
S10
 62
     1
100
AcDbLine
 10
-2.750348990409577
 20
5.386534925309064
 30
0.0
 11
-2.933698613129536
 21
5.386534925309064
 31
0.0
  0
LINE
  5
317
330
2
100
AcDbEntity
  8
GAIKEI
  6
S10
 62
     1
100
AcDbLine
 10
-2.750348990409577
 20
4.539793031293072
 30
0.0
 11
-2.750348990409577
 21
5.386534925309064
 31
0.0
  0
LINE
  5
318
330
2
100
AcDbEntity
  8
GAIKEI
  6
S10
 62
     1
100
AcDbLine
 10
-27.11701399798284
 20
15.61911068783706
 30
0.0
 11
-27.11701399798284
 21
17.04257048604506
 31
0.0
  0
LINE
  5
319
330
2
100
AcDbEntity
  8
GAIKEI
  6
S10
 62
     1
100
AcDbLine
 10
-2.750348990409577
 20
15.61911068783706
 30
0.0
 11
-2.750348990409577
 21
17.04257048604506
 31
0.0
  0
LINE
  5
31A
330
2
100
AcDbEntity
  8
GAIKEI
  6
S10
 62
     1
100
AcDbLine
 10
-2.750348990409577
 20
15.61911068783706
 30
0.0
 11
-2.933698613129536
 21
15.61911068783706
 31
0.0
  0
LINE
  5
31B
330
2
100
AcDbEntity
  8
GAIKEI
  6
S10
 62
     1
100
AcDbLine
 10
-2.750348990409577
 20
17.04257048604506
 30
0.0
 11
-2.933698613129536
 21
17.04257048604506
 31
0.0
  0
ARC
  5
31C
330
2
100
AcDbEntity
  8
GAIKEI
  6
S10
 62
     1
100
AcDbCircle
 10
-15.03369037931617
 20
17.34093032665308
 30
0.0
 40
0.06667259008
100
AcDbArc
 50
90.0
 51
180.0
  0
ARC
  5
31D
330
2
100
AcDbEntity
  8
GAIKEI
  6
S10
 62
     1
100
AcDbCircle
 10
-14.83367260907624
 20
17.34093032665308
 30
0.0
 40
0.06667259008
100
AcDbArc
 50
0.0
 51
90.0
  0
LINE
  5
31E
330
2
100
AcDbEntity
  8
GAIKEI
  6
S10
 62
     1
100
AcDbLine
 10
-14.83367260907624
 20
17.40760291673308
 30
0.0
 11
-15.03369037931617
 21
17.40760291673308
 31
0.0
  0
LINE
  5
31F
330
2
100
AcDbEntity
  8
GAIKEI
  6
S10
 62
     1
100
AcDbLine
 10
-15.1003629693962
 20
17.34093032665308
 30
0.0
 11
-15.1003629693962
 21
17.14091255641307
 31
0.0
  0
LINE
  5
320
330
2
100
AcDbEntity
  8
GAIKEI
  6
S10
 62
     1
100
AcDbLine
 10
-14.76700001899627
 20
17.34093032665308
 30
0.0
 11
-14.76700001899627
 21
17.14091255641307
 31
0.0
  0
LINE
  5
321
330
2
100
AcDbEntity
  8
GAIKEI
  6
S10
 62
     1
100
AcDbLine
 10
-12.26677789099625
 20
17.14091255641307
 30
0.0
 11
-12.26677789099625
 21
15.52076861746906
 31
0.0
  0
LINE
  5
322
330
2
100
AcDbEntity
  8
GAIKEI
  6
S10
 62
     1
100
AcDbLine
 10
-17.60058509739622
 20
17.14091255641307
 30
0.0
 11
-17.60058509739622
 21
15.52076861746906
 31
0.0
  0
LINE
  5
323
330
2
100
AcDbEntity
  8
GAIKEI
  6
S10
 62
     1
100
AcDbLine
 10
-12.26677789099625
 20
17.14091255641307
 30
0.0
 11
-17.60058509739622
 21
17.14091255641307
 31
0.0
  0
LINE
  5
324
330
2
100
AcDbEntity
  8
GAIKEI
  6
S10
 62
     1
100
AcDbLine
 10
-14.63365483883626
 20
14.85404271666908
 30
0.0
 11
-14.63365483883626
 21
15.04209609061922
 31
0.0
  0
LINE
  5
325
330
2
100
AcDbEntity
  8
GAIKEI
  6
S10
 62
     1
100
AcDbLine
 10
-15.23370814955621
 20
14.85404271666908
 30
0.0
 11
-15.23370814955621
 21
15.04209609061922
 31
0.0
  0
LINE
  5
326
330
2
100
AcDbEntity
  8
GAIKEI
  6
S10
 62
     1
100
AcDbLine
 10
-12.26677789099625
 20
15.52076861746906
 30
0.0
 11
-17.60058509739622
 21
15.52076861746906
 31
0.0
  0
LINE
  5
327
330
2
100
AcDbEntity
  8
GAIKEI
  6
S10
 62
     1
100
AcDbLine
 10
-16.4188134382282
 20
17.62095520498906
 30
0.0
 11
-13.44854955016421
 21
17.62095520498906
 31
0.0
  0
LINE
  5
328
330
2
100
AcDbEntity
  8
GAIKEI
  6
Continuous
 62
     7
100
AcDbLine
 10
-16.4188134382282
 20
37.23936483602907
 30
0.0
 11
-13.44854955016421
 21
37.23936483602907
 31
0.0
  0
CIRCLE
  5
329
330
2
100
AcDbEntity
  8
GAIKEI
  6
Continuous
 62
     1
100
AcDbCircle
 10
-14.93368149419621
 20
36.50596634514907
 30
0.0
 40
0.3333629504
  0
LINE
  5
32A
330
2
100
AcDbEntity
  8
GAIKEI
  6
Continuous
 62
     1
100
AcDbLine
 10
-14.76700001899627
 20
36.6021998948558
 30
0.0
 11
-14.76700001899627
 21
36.40973246207938
 31
0.0
  0
LINE
  5
32B
330
2
100
AcDbEntity
  8
GAIKEI
  6
Continuous
 62
     1
100
AcDbLine
 10
-14.93368149419621
 20
36.31349891237267
 30
0.0
 11
-14.76700001899627
 21
36.40973246207938
 31
0.0
  0
LINE
  5
32C
330
2
100
AcDbEntity
  8
GAIKEI
  6
Continuous
 62
     1
100
AcDbLine
 10
-15.1003629693962
 20
36.40973246207938
 30
0.0
 11
-14.93368149419621
 21
36.31349891237267
 31
0.0
  0
LINE
  5
32D
330
2
100
AcDbEntity
  8
GAIKEI
  6
Continuous
 62
     1
100
AcDbLine
 10
-15.1003629693962
 20
36.6021998948558
 30
0.0
 11
-15.1003629693962
 21
36.40973246207938
 31
0.0
  0
LINE
  5
32E
330
2
100
AcDbEntity
  8
GAIKEI
  6
Continuous
 62
     1
100
AcDbLine
 10
-15.1003629693962
 20
36.6021998948558
 30
0.0
 11
-14.93368149419621
 21
36.69843344456251
 31
0.0
  0
LINE
  5
32F
330
2
100
AcDbEntity
  8
GAIKEI
  6
Continuous
 62
     1
100
AcDbLine
 10
-14.93368149419621
 20
36.69843344456251
 30
0.0
 11
-14.76700001899627
 21
36.6021998948558
 31
0.0
  0
LINE
  5
330
330
2
100
AcDbEntity
  8
GAIKEI
  6
Continuous
 62
     7
100
AcDbLine
 10
-16.31713773835622
 20
37.2759887564859
 30
0.0
 11
-16.31713773835622
 21
37.23936483602907
 31
0.0
  0
LINE
  5
331
330
2
100
AcDbEntity
  8
GAIKEI
  6
Continuous
 62
     7
100
AcDbLine
 10
-13.55022525003619
 20
37.2759887564859
 30
0.0
 11
-13.55022525003619
 21
37.23936483602907
 31
0.0
  0
ARC
  5
332
330
2
100
AcDbEntity
  8
GAIKEI
  6
Continuous
 62
     7
100
AcDbCircle
 10
-10.97722565624559
 20
38.14273242752591
 30
0.0
 40
0.560049756672
100
AcDbArc
 50
90.0
 51
136.9367999999798
  0
ARC
  5
333
330
2
100
AcDbEntity
  8
GAIKEI
  6
Continuous
 62
     7
100
AcDbCircle
 10
-18.89013766550982
 20
38.14273242752591
 30
0.0
 40
0.560049756672
100
AcDbArc
 50
43.0632000000196
 51
90.0
  0
ARC
  5
334
330
2
100
AcDbEntity
  8
GAIKEI
  6
Continuous
 62
     7
100
AcDbCircle
 10
-12.84329044361072
 20
37.9427146572859
 30
0.0
 40
0.6667259008
100
AcDbArc
 50
270.0
 51
316.9367999999798
  0
LINE
  5
335
330
2
100
AcDbEntity
  8
GAIKEI
  6
Continuous
 62
     7
100
AcDbLine
 10
-12.35617983376039
 20
37.48747121195311
 30
0.0
 11
-11.38639834183305
 21
38.52513706828515
 31
0.0
  0
ARC
  5
336
330
2
100
AcDbEntity
  8
GAIKEI
  6
Continuous
 62
     7
100
AcDbCircle
 10
-17.02407287814458
 20
37.9427146572859
 30
0.0
 40
0.6667259008
100
AcDbArc
 50
223.0632000000196
 51
270.0
  0
LINE
  5
337
330
2
100
AcDbEntity
  8
GAIKEI
  6
Continuous
 62
     7
100
AcDbLine
 10
-17.51118348799497
 20
37.48747121195311
 30
0.0
 11
-18.48096464655936
 21
38.52513706828515
 31
0.0
  0
LINE
  5
338
330
2
100
AcDbEntity
  8
GAIKEI
  6
Continuous
 62
     7
100
AcDbLine
 10
-17.02407287814458
 20
37.2759887564859
 30
0.0
 11
-12.84329044361072
 21
37.2759887564859
 31
0.0
  0
LINE
  5
339
330
2
100
AcDbEntity
  8
GAIKEI
  6
Continuous
 62
     7
100
AcDbLine
 10
-20.76753312619621
 20
38.7027821841979
 30
0.0
 11
-9.099829862196202
 21
38.7027821841979
 31
0.0
  0
LINE
  5
33A
330
2
100
AcDbEntity
  8
GAIKEI
  6
Continuous
 62
     7
100
AcDbLine
 10
-9.099829862196202
 20
38.80945832832592
 30
0.0
 11
-9.099829862196202
 21
38.7027821841979
 31
0.0
  0
LINE
  5
33B
330
2
100
AcDbEntity
  8
GAIKEI
  6
Continuous
 62
     7
100
AcDbLine
 10
-20.76753312619621
 20
38.80945832832592
 30
0.0
 11
-20.76753312619621
 21
38.7027821841979
 31
0.0
  0
LINE
  5
33C
330
2
100
AcDbEntity
  8
GAIKEI
  6
Continuous
 62
     7
100
AcDbLine
 10
-20.76753312619621
 20
38.80945832832592
 30
0.0
 11
-9.099829862196202
 21
38.80945832832592
 31
0.0
  0
TEXT
  5
33D
330
2
100
AcDbEntity
  8
MOJI1
100
AcDbText
 10
-25.16245046746704
 20
-59.28578158282626
 30
0.0
 40
3.0
  1
シリアル／ＰＣ／拡張スロット２、３
100
AcDbText
  0
TEXT
  5
33E
330
2
100
AcDbEntity
  8
MOJI1
100
AcDbText
 10
-25.16245046746704
 20
-54.28578158282626
 30
0.0
 40
3.0
  1
ビデオ・音声／Ｓ映像・音声／外部スピーカ
100
AcDbText
  0
TEXT
  5
33F
330
2
100
AcDbEntity
  8
MOJI1
100
AcDbText
 10
-64.16245046746704
 20
-44.28578158282626
 30
0.0
 40
3.0
  1
階調数
100
AcDbText
  0
TEXT
  5
340
330
2
100
AcDbEntity
  8
MOJI1
100
AcDbText
 10
-64.16245046746704
 20
-39.28578158282626
 30
0.0
 40
3.0
  1
コントラスト
100
AcDbText
  0
LINE
  5
341
330
2
100
AcDbEntity
  8
WAKU
 62
     1
100
AcDbLine
 10
-66.66245046746704
 20
-45.28578158282626
 30
0.0
 11
58.33754953253276
 21
-45.28578158282626
 31
0.0
  0
LINE
  5
343
330
2
100
AcDbEntity
  8
WAKU
 62
     1
100
AcDbLine
 10
-66.66245046746704
 20
-40.28578158282626
 30
0.0
 11
58.33754953253276
 21
-40.28578158282626
 31
0.0
  0
TEXT
  5
344
330
2
100
AcDbEntity
  8
MOJI1
100
AcDbText
 10
-64.16245046746704
 20
-19.28578158282626
 30
0.0
 40
3.0
  1
電  源
100
AcDbText
  0
TEXT
  5
345
330
2
100
AcDbEntity
  8
MOJI1
100
AcDbText
 10
-64.16245046746704
 20
-24.28578158282626
 30
0.0
 40
3.0
  1
消費電力
100
AcDbText
  0
TEXT
  5
346
330
2
100
AcDbEntity
  8
MOJI1
100
AcDbText
 10
-64.16245046746704
 20
-29.28578158282626
 30
0.0
 40
3.0
  1
画面サイズ
100
AcDbText
  0
TEXT
  5
347
330
2
100
AcDbEntity
  8
MOJI1
100
AcDbText
 10
-25.16245046746704
 20
-24.28578158282626
 30
0.0
 40
3.0
  1
３３５Ｗ
100
AcDbText
  0
TEXT
  5
348
330
2
100
AcDbEntity
  8
MOJI1
100
AcDbText
 10
-25.16245046746704
 20
-29.28578158282626
 30
0.0
 40
3.0
  1
５０型（１６：９）
100
AcDbText
  0
TEXT
  5
349
330
2
100
AcDbEntity
  8
MOJI1
100
AcDbText
 10
-25.16245046746704
 20
-19.28578158282626
 30
0.0
 40
3.0
  1
ＡＣ１００Ｖ±１０％　５０Ｈｚ／６０Ｈｚ
100
AcDbText
  0
TEXT
  5
34A
330
2
100
AcDbEntity
  8
MOJI1
100
AcDbText
 10
-64.16245046746704
 20
-54.28578158282626
 30
0.0
 40
3.0
  1
接続端子
100
AcDbText
  0
TEXT
  5
34B
330
2
100
AcDbEntity
  8
MOJI1
100
AcDbText
 10
-64.16245046746704
 20
-49.28578158282626
 30
0.0
 40
3.0
  1
音声最大出力
100
AcDbText
  0
TEXT
  5
34C
330
2
100
AcDbEntity
  8
MOJI1
100
AcDbText
 10
-25.16245046746704
 20
-49.28578158282626
 30
0.0
 40
3.0
  1
１６Ｗ（８Ｗ＋８Ｗ）
100
AcDbText
  0
TEXT
  5
34D
330
2
100
AcDbEntity
  8
MOJI1
100
AcDbText
 10
-25.16245046746704
 20
-34.28578158282626
 30
0.0
 40
3.0
  1
水平１３６６×垂直７６８　画素
100
AcDbText
  0
LINE
  5
34E
330
2
100
AcDbEntity
  8
WAKU
 62
     4
100
AcDbLine
 10
-26.66245046746727
 20
-15.28578158282626
 30
0.0
 11
-26.66245046746727
 21
-60.28578158282626
 31
0.0
  0
TEXT
  5
34F
330
2
100
AcDbEntity
  8
MOJI1
100
AcDbText
 10
-64.16245046746704
 20
-34.28578158282626
 30
0.0
 40
3.0
  1
画素数
100
AcDbText
  0
LINE
  5
350
330
2
100
AcDbEntity
  8
WAKU
 62
     4
100
AcDbLine
 10
58.33754953253276
 20
-15.28578158282626
 30
0.0
 11
58.33754953253276
 21
-60.28578158282626
 31
0.0
  0
LINE
  5
351
330
2
100
AcDbEntity
  8
WAKU
 62
     4
100
AcDbLine
 10
-66.66245046746727
 20
-15.28578158282626
 30
0.0
 11
-66.66245046746704
 21
-60.28578158282626
 31
0.0
  0
LINE
  5
352
330
2
100
AcDbEntity
  8
WAKU
 62
     4
100
AcDbLine
 10
58.33754953253276
 20
-60.28578158282626
 30
0.0
 11
-66.66245046746704
 21
-60.28578158282626
 31
0.0
  0
LINE
  5
353
330
2
100
AcDbEntity
  8
WAKU
 62
     1
100
AcDbLine
 10
-66.66245046746704
 20
-55.28578158282626
 30
0.0
 11
58.33754953253276
 21
-55.28578158282626
 31
0.0
  0
LINE
  5
354
330
2
100
AcDbEntity
  8
WAKU
 62
     1
100
AcDbLine
 10
-66.66245046746704
 20
-50.28578158282626
 30
0.0
 11
58.33754953253276
 21
-50.28578158282626
 31
0.0
  0
LINE
  5
355
330
2
100
AcDbEntity
  8
WAKU
 62
     1
100
AcDbLine
 10
-66.66245046746704
 20
-30.28578158282626
 30
0.0
 11
58.33754953253276
 21
-30.28578158282626
 31
0.0
  0
LINE
  5
356
330
2
100
AcDbEntity
  8
WAKU
 62
     1
100
AcDbLine
 10
-66.66245046746704
 20
-20.28578158282626
 30
0.0
 11
58.33754953253276
 21
-20.28578158282626
 31
0.0
  0
LINE
  5
357
330
2
100
AcDbEntity
  8
WAKU
 62
     4
100
AcDbLine
 10
-66.66245046746704
 20
-15.28578158282626
 30
0.0
 11
58.33754953253276
 21
-15.28578158282626
 31
0.0
  0
LINE
  5
358
330
2
100
AcDbEntity
  8
WAKU
 62
     1
100
AcDbLine
 10
-66.66245046746704
 20
-35.28578158282626
 30
0.0
 11
58.33754953253276
 21
-35.28578158282626
 31
0.0
  0
LINE
  5
359
330
2
100
AcDbEntity
  8
WAKU
 62
     1
100
AcDbLine
 10
-66.66245046746704
 20
-25.28578158282626
 30
0.0
 11
58.33754953253276
 21
-25.28578158282626
 31
0.0
  0
TEXT
  5
35A
330
2
100
AcDbEntity
  8
MOJI1
100
AcDbText
 10
-25.16245046746704
 20
-44.28578158282626
 30
0.0
 40
3.0
  1
５１２０階調（相当）
100
AcDbText
  0
TEXT
  5
35B
330
2
100
AcDbEntity
  8
MOJI1
100
AcDbText
 10
-25.16245046746704
 20
-39.28578158282626
 30
0.0
 40
3.0
  1
３００００：１
100
AcDbText
  0
ENDSEC
  0
SECTION
  2
OBJECTS
  0
DICTIONARY
  5
7
330
0
100
AcDbDictionary
281
     1
  3
ACAD_COLOR
350
2D
  3
ACAD_GROUP
350
29
  3
ACAD_LAYOUT
350
B
  3
ACAD_MATERIAL
350
2C
  3
ACAD_MLINESTYLE
350
2A
  3
ACAD_PLOTSETTINGS
350
2B
  3
ACAD_PLOTSTYLENAME
350
6
  3
ACDBHEADERROUNDTRIPXREC
350
3A4
  3
AcDbVariableDictionary
350
39F
  0
DICTIONARY
  5
11
330
10
100
AcDbDictionary
280
     1
281
     1
  3
ACAD_LAYERSTATES
360
12
  0
DICTIONARY
  5
2D
102
{ACAD_REACTORS
330
7
102
}
330
7
100
AcDbDictionary
281
     1
  0
DICTIONARY
  5
29
102
{ACAD_REACTORS
330
7
102
}
330
7
100
AcDbDictionary
281
     1
  0
DICTIONARY
  5
B
102
{ACAD_REACTORS
330
7
102
}
330
7
100
AcDbDictionary
281
     1
  3
Model
350
A
  3
レイアウト1
350
F
  0
DICTIONARY
  5
2C
102
{ACAD_REACTORS
330
7
102
}
330
7
100
AcDbDictionary
281
     1
  0
DICTIONARY
  5
2A
102
{ACAD_REACTORS
330
7
102
}
330
7
100
AcDbDictionary
281
     1
  3
Standard
350
2F
  0
DICTIONARY
  5
2B
102
{ACAD_REACTORS
330
7
102
}
330
7
100
AcDbDictionary
281
     1
  0
ACDBDICTIONARYWDFLT
  5
6
102
{ACAD_REACTORS
330
7
102
}
330
7
100
AcDbDictionary
281
     1
  3
Normal
350
5
100
AcDbDictionaryWithDefault
340
5
  0
DICTIONARY
  5
3A4
102
{ACAD_REACTORS
330
7
102
}
330
7
100
AcDbDictionary
281
     1
  3
COLORDICT
350
3A6
  3
MATERIALDICT
350
3A5
  0
DICTIONARY
  5
39F
102
{ACAD_REACTORS
330
7
102
}
330
7
100
AcDbDictionary
281
     1
  3
DIMASSOC
350
3A1
  3
HIDETEXT
350
3A0
  3
PROJECTNAME
350
3A2
  0
DICTIONARY
  5
12
102
{ACAD_REACTORS
330
11
102
}
330
11
100
AcDbDictionary
281
     1
  0
LAYOUT
  5
A
102
{ACAD_XDICTIONARY
360
3A7
102
}
102
{ACAD_REACTORS
330
B
102
}
330
B
100
AcDbPlotSettings
  1

  2
Ａ４－縦3FRIM01.pc3
  4
A4
  6

 40
5.873749732971191
 41
5.873747825622558
 42
5.873748779296875
 43
5.873748779296875
 44
209.9733276367187
 45
296.9259948730469
 46
5.419999999999999
 47
0.0
 48
0.0
 49
0.0
140
0.0
141
0.0
142
1.0
143
1.382430925642159
 70
 11956
 72
     1
 73
     0
 74
     1
  7
tmsacad.ctb
 75
     0
147
0.7233634472807279
148
0.0137509953462995
149
0.0199638970806291
100
AcDbLayout
  1
Model
 70
     1
 71
     0
 10
0.0
 20
0.0
 11
12.0
 21
9.0
 12
0.0
 22
0.0
 32
0.0
 14
0.0
 24
0.0
 34
0.0
 15
0.0
 25
0.0
 35
0.0
146
0.0
 13
0.0
 23
0.0
 33
0.0
 16
1.0
 26
0.0
 36
0.0
 17
0.0
 27
1.0
 37
0.0
 76
     0
330
2
  0
LAYOUT
  5
F
102
{ACAD_XDICTIONARY
360
3A9
102
}
102
{ACAD_REACTORS
330
B
102
}
330
B
100
AcDbPlotSettings
  1

  2
None
  4

  6

 40
0.0
 41
0.0
 42
0.0
 43
0.0
 44
0.0
 45
0.0
 46
0.0
 47
0.0
 48
0.0
 49
0.0
140
0.0
141
0.0
142
1.0
143
1.0
 70
   688
 72
     0
 73
     0
 74
     5
  7
tmsacad.ctb
 75
    16
147
1.0
148
0.0
149
0.0
100
AcDbLayout
  1
レイアウト1
 70
     1
 71
     1
 10
0.0
 20
0.0
 11
12.0
 21
9.0
 12
0.0
 22
0.0
 32
0.0
 14
0.0
 24
0.0
 34
0.0
 15
0.0
 25
0.0
 35
0.0
146
0.0
 13
0.0
 23
0.0
 33
0.0
 16
1.0
 26
0.0
 36
0.0
 17
0.0
 27
1.0
 37
0.0
 76
     0
330
C
  0
MLINESTYLE
  5
2F
102
{ACAD_REACTORS
330
2A
102
}
330
2A
100
AcDbMlineStyle
  2
STANDARD
 70
     0
  3

 62
   256
 51
90.0
 52
90.0
 71
     2
 49
0.5
 62
   256
  6
BYLAYER
 49
-0.5
 62
   256
  6
BYLAYER
  0
ACDBPLACEHOLDER
  5
5
102
{ACAD_REACTORS
330
6
102
}
330
6
  0
XRECORD
  5
3A6
102
{ACAD_REACTORS
330
3A4
102
}
330
3A4
100
AcDbXrecord
280
     1
340
2D
  0
XRECORD
  5
3A5
102
{ACAD_REACTORS
330
3A4
102
}
330
3A4
100
AcDbXrecord
280
     1
340
2C
  0
DICTIONARYVAR
  5
3A1
102
{ACAD_REACTORS
330
39F
102
}
330
39F
100
DictionaryVariables
280
     0
  1
1
  0
DICTIONARYVAR
  5
3A0
102
{ACAD_REACTORS
330
39F
102
}
330
39F
100
DictionaryVariables
280
     0
  1
1
  0
DICTIONARYVAR
  5
3A2
102
{ACAD_REACTORS
330
39F
102
}
330
39F
100
DictionaryVariables
280
     0
  1

  0
DICTIONARY
  5
3A7
330
A
100
AcDbDictionary
280
     1
281
     1
  3
ACAD_XREC_ROUNDTRIP
360
3A8
  0
DICTIONARY
  5
3A9
330
F
100
AcDbDictionary
280
     1
281
     1
  3
ACAD_XREC_ROUNDTRIP
360
3AA
  0
XRECORD
  5
3A8
102
{ACAD_REACTORS
330
3A7
102
}
330
3A7
100
AcDbXrecord
280
     1
102
SHADEPLOT
 70
     0
102
SHADEPLOTRESLEVEL
 70
     2
102
SHADEPLOTCUSTOMDPI
 70
   300
  0
XRECORD
  5
3AA
102
{ACAD_REACTORS
330
3A9
102
}
330
3A9
100
AcDbXrecord
280
     1
102
SHADEPLOT
 70
     0
102
SHADEPLOTRESLEVEL
 70
     2
102
SHADEPLOTCUSTOMDPI
 70
   300
  0
ENDSEC
  0
EOF
