  0
SECTION
  2
HEADER
  9
$ACADVER
  1
AC1015
  9
$ACADMAINTVER
 70
    20
  9
$DWGCODEPAGE
  3
ANSI_932
  9
$INSBASE
 10
0.4999999440410648
 20
120.5008351249346
 30
0.0
  9
$EXTMIN
 10
-61.37603669121858
 20
-75.48719727234822
 30
-0.0015258207003583
  9
$EXTMAX
 10
63.65753230133271
 20
37.5147403796608
 30
0.0000000349246037
  9
$LIMMIN
 10
0.0
 20
0.0
  9
$LIMMAX
 10
420.0
 20
297.0
  9
$ORTHOMODE
 70
     1
  9
$REGENMODE
 70
     0
  9
$FILLMODE
 70
     1
  9
$QTEXTMODE
 70
     0
  9
$MIRRTEXT
 70
     0
  9
$LTSCALE
 40
1.0
  9
$ATTMODE
 70
     1
  9
$TEXTSIZE
 40
2.5
  9
$TRACEWID
 40
1.0
  9
$TEXTSTYLE
  7
Standard
  9
$CLAYER
  8
GAIKEI
  9
$CELTYPE
  6
ByLayer
  9
$CECOLOR
 62
   256
  9
$CELTSCALE
 40
1.0
  9
$DISPSILH
 70
     0
  9
$DIMSCALE
 40
1.0
  9
$DIMASZ
 40
2.0
  9
$DIMEXO
 40
2.0
  9
$DIMDLI
 40
8.0
  9
$DIMRND
 40
0.0
  9
$DIMDLE
 40
0.0
  9
$DIMEXE
 40
2.0
  9
$DIMTP
 40
0.0
  9
$DIMTM
 40
0.0
  9
$DIMTXT
 40
2.5
  9
$DIMCEN
 40
0.0
  9
$DIMTSZ
 40
0.0
  9
$DIMTOL
 70
     0
  9
$DIMLIM
 70
     0
  9
$DIMTIH
 70
     0
  9
$DIMTOH
 70
     0
  9
$DIMSE1
 70
     0
  9
$DIMSE2
 70
     0
  9
$DIMTAD
 70
     3
  9
$DIMZIN
 70
     0
  9
$DIMBLK
  1

  9
$DIMASO
 70
     1
  9
$DIMSHO
 70
     1
  9
$DIMPOST
  1

  9
$DIMAPOST
  1

  9
$DIMALT
 70
     0
  9
$DIMALTD
 70
     2
  9
$DIMALTF
 40
25.4
  9
$DIMLFAC
 40
1.0
  9
$DIMTOFL
 70
     1
  9
$DIMTVP
 40
0.0
  9
$DIMTIX
 70
     0
  9
$DIMSOXD
 70
     0
  9
$DIMSAH
 70
     1
  9
$DIMBLK1
  1
OPEN30
  9
$DIMBLK2
  1
OPEN30
  9
$DIMSTYLE
  2
STANDARD
  9
$DIMCLRD
 70
     0
  9
$DIMCLRE
 70
     0
  9
$DIMCLRT
 70
     0
  9
$DIMTFAC
 40
1.0
  9
$DIMGAP
 40
0.5
  9
$DIMJUST
 70
     0
  9
$DIMSD1
 70
     0
  9
$DIMSD2
 70
     0
  9
$DIMTOLJ
 70
     1
  9
$DIMTZIN
 70
     0
  9
$DIMALTZ
 70
     0
  9
$DIMALTTZ
 70
     0
  9
$DIMUPT
 70
     0
  9
$DIMDEC
 70
     4
  9
$DIMTDEC
 70
     4
  9
$DIMALTU
 70
     2
  9
$DIMALTTD
 70
     2
  9
$DIMTXSTY
  7
Standard
  9
$DIMAUNIT
 70
     0
  9
$DIMADEC
 70
     0
  9
$DIMALTRND
 40
0.0
  9
$DIMAZIN
 70
     0
  9
$DIMDSEP
 70
    46
  9
$DIMATFIT
 70
     3
  9
$DIMFRAC
 70
     0
  9
$DIMLDRBLK
  1
OPEN30
  9
$DIMLUNIT
 70
     2
  9
$DIMLWD
 70
    -2
  9
$DIMLWE
 70
    -2
  9
$DIMTMOVE
 70
     0
  9
$LUNITS
 70
     2
  9
$LUPREC
 70
     4
  9
$SKETCHINC
 40
1.0
  9
$FILLETRAD
 40
0.0
  9
$AUNITS
 70
     0
  9
$AUPREC
 70
     0
  9
$MENU
  1
.
  9
$ELEVATION
 40
0.0
  9
$PELEVATION
 40
0.0
  9
$THICKNESS
 40
0.0
  9
$LIMCHECK
 70
     0
  9
$CHAMFERA
 40
0.0
  9
$CHAMFERB
 40
0.0
  9
$CHAMFERC
 40
0.0
  9
$CHAMFERD
 40
0.0
  9
$SKPOLY
 70
     0
  9
$TDCREATE
 40
2454349.434269746
  9
$TDUCREATE
 40
2454349.059269746
  9
$TDUPDATE
 40
2455042.673864815
  9
$TDUUPDATE
 40
2455042.298864815
  9
$TDINDWG
 40
0.3267941782
  9
$TDUSRTIMER
 40
0.3267941782
  9
$USRTIMER
 70
     1
  9
$ANGBASE
 50
0.0
  9
$ANGDIR
 70
     0
  9
$PDMODE
 70
     0
  9
$PDSIZE
 40
0.0
  9
$PLINEWID
 40
0.0
  9
$SPLFRAME
 70
     0
  9
$SPLINETYPE
 70
     6
  9
$SPLINESEGS
 70
     8
  9
$HANDSEED
  5
2AA
  9
$SURFTAB1
 70
     6
  9
$SURFTAB2
 70
     6
  9
$SURFTYPE
 70
     6
  9
$SURFU
 70
     6
  9
$SURFV
 70
     6
  9
$UCSBASE
  2

  9
$UCSNAME
  2

  9
$UCSORG
 10
0.0
 20
0.0
 30
0.0
  9
$UCSXDIR
 10
1.0
 20
0.0
 30
0.0
  9
$UCSYDIR
 10
0.0
 20
1.0
 30
0.0
  9
$UCSORTHOREF
  2

  9
$UCSORTHOVIEW
 70
     0
  9
$UCSORGTOP
 10
0.0
 20
0.0
 30
0.0
  9
$UCSORGBOTTOM
 10
0.0
 20
0.0
 30
0.0
  9
$UCSORGLEFT
 10
0.0
 20
0.0
 30
0.0
  9
$UCSORGRIGHT
 10
0.0
 20
0.0
 30
0.0
  9
$UCSORGFRONT
 10
0.0
 20
0.0
 30
0.0
  9
$UCSORGBACK
 10
0.0
 20
0.0
 30
0.0
  9
$PUCSBASE
  2

  9
$PUCSNAME
  2

  9
$PUCSORG
 10
0.0
 20
0.0
 30
0.0
  9
$PUCSXDIR
 10
1.0
 20
0.0
 30
0.0
  9
$PUCSYDIR
 10
0.0
 20
1.0
 30
0.0
  9
$PUCSORTHOREF
  2

  9
$PUCSORTHOVIEW
 70
     0
  9
$PUCSORGTOP
 10
0.0
 20
0.0
 30
0.0
  9
$PUCSORGBOTTOM
 10
0.0
 20
0.0
 30
0.0
  9
$PUCSORGLEFT
 10
0.0
 20
0.0
 30
0.0
  9
$PUCSORGRIGHT
 10
0.0
 20
0.0
 30
0.0
  9
$PUCSORGFRONT
 10
0.0
 20
0.0
 30
0.0
  9
$PUCSORGBACK
 10
0.0
 20
0.0
 30
0.0
  9
$USERI1
 70
     0
  9
$USERI2
 70
     0
  9
$USERI3
 70
     0
  9
$USERI4
 70
     0
  9
$USERI5
 70
     0
  9
$USERR1
 40
0.0
  9
$USERR2
 40
0.0
  9
$USERR3
 40
0.0
  9
$USERR4
 40
0.0
  9
$USERR5
 40
0.0
  9
$WORLDVIEW
 70
     1
  9
$SHADEDGE
 70
     3
  9
$SHADEDIF
 70
    70
  9
$TILEMODE
 70
     1
  9
$MAXACTVP
 70
    64
  9
$PINSBASE
 10
0.0
 20
0.0
 30
0.0
  9
$PLIMCHECK
 70
     0
  9
$PEXTMIN
 10
0.0
 20
0.0
 30
0.0
  9
$PEXTMAX
 10
0.0
 20
0.0
 30
0.0
  9
$PLIMMIN
 10
0.0
 20
0.0
  9
$PLIMMAX
 10
12.0
 20
9.0
  9
$UNITMODE
 70
     0
  9
$VISRETAIN
 70
     1
  9
$PLINEGEN
 70
     0
  9
$PSLTSCALE
 70
     1
  9
$TREEDEPTH
 70
  3020
  9
$CMLSTYLE
  2
Standard
  9
$CMLJUST
 70
     0
  9
$CMLSCALE
 40
20.0
  9
$PROXYGRAPHICS
 70
     1
  9
$MEASUREMENT
 70
     1
  9
$CELWEIGHT
370
    -1
  9
$ENDCAPS
280
     0
  9
$JOINSTYLE
280
     0
  9
$LWDISPLAY
290
     0
  9
$INSUNITS
 70
     4
  9
$HYPERLINKBASE
  1

  9
$STYLESHEET
  1

  9
$XEDIT
290
     1
  9
$CEPSNTYPE
380
     0
  9
$PSTYLEMODE
290
     1
  9
$FINGERPRINTGUID
  2
{FDEAD578-A652-11D2-9A35-0060089B3A3F}
  9
$VERSIONGUID
  2
{F675A0F7-48A8-41CA-A62D-CE975CFF3085}
  9
$EXTNAMES
290
     1
  9
$PSVPSCALE
 40
0.0
  9
$OLESTARTUP
290
     0
  0
ENDSEC
  0
SECTION
  2
CLASSES
  0
CLASS
  1
ACDBDICTIONARYWDFLT
  2
AcDbDictionaryWithDefault
  3
ObjectDBX Classes
 90
        0
280
     0
281
     0
  0
CLASS
  1
ACDBPLACEHOLDER
  2
AcDbPlaceHolder
  3
ObjectDBX Classes
 90
        0
280
     0
281
     0
  0
CLASS
  1
LAYOUT
  2
AcDbLayout
  3
ObjectDBX Classes
 90
        0
280
     0
281
     0
  0
CLASS
  1
DICTIONARYVAR
  2
AcDbDictionaryVar
  3
ObjectDBX Classes
 90
        0
280
     0
281
     0
  0
CLASS
  1
DIMASSOC
  2
AcDbDimAssoc
  3
"AcDbDimAssoc|Product Desc:     AcDim ARX App For Dimension|Company:          Autodesk, Inc.|WEB Address:      www.autodesk.com"
 90
    32768
280
     0
281
     0
  0
CLASS
  1
SORTENTSTABLE
  2
AcDbSortentsTable
  3
ObjectDBX Classes
 90
    32768
280
     0
281
     0
  0
ENDSEC
  0
SECTION
  2
TABLES
  0
TABLE
  2
VPORT
  5
1B
330
0
100
AcDbSymbolTable
 70
     3
  0
VPORT
  5
2A2
330
1B
100
AcDbSymbolTableRecord
100
AcDbViewportTableRecord
  2
*Active
 70
     0
 10
0.0
 20
0.0
 11
1.0
 21
1.0
 12
1.140747805057067
 22
-18.98622844634371
 13
0.0
 23
0.0
 14
10.0
 24
10.0
 15
10.0
 25
10.0
 16
0.0
 26
0.0
 36
1.0
 17
0.0
 27
0.0
 37
0.0
 40
113.8678528830589
 41
1.39386189258312
 42
50.0
 43
0.0
 44
0.0
 50
0.0
 51
0.0
 71
     0
 72
  1000
 73
     1
 74
     2
 75
     0
 76
     0
 77
     0
 78
     0
281
     0
 65
     1
110
0.0
120
0.0
130
0.0
111
1.0
121
0.0
131
0.0
112
0.0
122
1.0
132
0.0
 79
     0
146
0.0
  0
ENDTAB
  0
TABLE
  2
LTYPE
  5
16
330
0
100
AcDbSymbolTable
 70
     1
  0
LTYPE
  5
17
330
16
100
AcDbSymbolTableRecord
100
AcDbLinetypeTableRecord
  2
ByBlock
 70
     0
  3

 72
    65
 73
     0
 40
0.0
  0
LTYPE
  5
18
330
16
100
AcDbSymbolTableRecord
100
AcDbLinetypeTableRecord
  2
ByLayer
 70
     0
  3

 72
    65
 73
     0
 40
0.0
  0
LTYPE
  5
8
330
16
100
AcDbSymbolTableRecord
100
AcDbLinetypeTableRecord
  2
Continuous
 70
     0
  3
Solid line
 72
    65
 73
     0
 40
0.0
  0
ENDTAB
  0
TABLE
  2
LAYER
  5
10
102
{ACAD_XDICTIONARY
360
11
102
}
330
0
100
AcDbSymbolTable
 70
     7
  0
LAYER
  5
4
330
10
100
AcDbSymbolTableRecord
100
AcDbLayerTableRecord
  2
0
 70
     0
 62
     7
  6
Continuous
370
    -3
390
5
  0
LAYER
  5
39
330
10
100
AcDbSymbolTableRecord
100
AcDbLayerTableRecord
  2
WAKU
 70
     0
 62
     4
  6
Continuous
370
    -3
390
5
  0
LAYER
  5
31
330
10
100
AcDbSymbolTableRecord
100
AcDbLayerTableRecord
  2
MOJI1
 70
     0
 62
     2
  6
Continuous
370
    -3
390
5
  0
LAYER
  5
33
330
10
100
AcDbSymbolTableRecord
100
AcDbLayerTableRecord
  2
TOUROKU
 70
     0
 62
     1
  6
Continuous
370
    -3
390
5
  0
LAYER
  5
2E
330
10
100
AcDbSymbolTableRecord
100
AcDbLayerTableRecord
  2
GAIKEI
 70
     0
 62
     7
  6
Continuous
370
    -3
390
5
  0
LAYER
  5
1F9
330
10
100
AcDbSymbolTableRecord
100
AcDbLayerTableRecord
  2
Defpoints
 70
     0
 62
     7
  6
Continuous
290
     0
370
    -3
390
5
  0
LAYER
  5
1EF
330
10
100
AcDbSymbolTableRecord
100
AcDbLayerTableRecord
  2
SUNPO
 70
     0
 62
     3
  6
Continuous
370
    -3
390
5
  0
ENDTAB
  0
TABLE
  2
STYLE
  5
13
330
0
100
AcDbSymbolTable
 70
     1
  0
STYLE
  5
14
330
13
100
AcDbSymbolTableRecord
100
AcDbTextStyleTableRecord
  2
Standard
 70
     0
 40
0.0
 41
1.0
 50
0.0
 71
     0
 42
2.5
  3
MONOTXT.shx
  4
BIGFONT.shx
  0
ENDTAB
  0
TABLE
  2
VIEW
  5
19
330
0
100
AcDbSymbolTable
 70
     0
  0
ENDTAB
  0
TABLE
  2
UCS
  5
1A
330
0
100
AcDbSymbolTable
 70
     0
  0
ENDTAB
  0
TABLE
  2
APPID
  5
1D
330
0
100
AcDbSymbolTable
 70
     1
  0
APPID
  5
1E
330
1D
100
AcDbSymbolTableRecord
100
AcDbRegAppTableRecord
  2
ACAD
 70
     0
  0
ENDTAB
  0
TABLE
  2
DIMSTYLE
  5
1F
330
0
100
AcDbSymbolTable
 70
     2
100
AcDbDimStyleTable
 71
     2
340
20
340
27
  0
DIMSTYLE
105
27
330
1F
100
AcDbSymbolTableRecord
100
AcDbDimStyleTableRecord
  2
ISO-25
 70
     0
 41
2.5
 42
0.625
 43
3.75
 44
1.25
 73
     0
 74
     0
 77
     1
 78
     8
140
2.5
141
2.5
143
0.03937007874016
147
0.625
171
     3
172
     1
271
     2
272
     2
274
     3
278
    44
283
     0
284
     8
340
14
  0
DIMSTYLE
105
20
102
{ACAD_REACTORS
330
233
330
226
330
219
330
20A
330
1FD
330
1EE
102
}
330
1F
100
AcDbSymbolTableRecord
100
AcDbDimStyleTableRecord
  2
STANDARD
 70
     0
 40
0.0
 41
2.0
 42
2.0
 43
8.0
 44
2.0
 73
     0
 74
     0
 77
     3
140
3.0
141
0.0
173
     1
279
     2
288
     1
340
14
341
21
343
21
344
21
  0
ENDTAB
  0
TABLE
  2
BLOCK_RECORD
  5
1
330
0
100
AcDbSymbolTable
 70
    13
  0
BLOCK_RECORD
  5
2
330
1
100
AcDbSymbolTableRecord
100
AcDbBlockTableRecord
  2
*Model_Space
340
A
  0
BLOCK_RECORD
  5
C
330
1
100
AcDbSymbolTableRecord
100
AcDbBlockTableRecord
  2
*Paper_Space
340
F
  0
BLOCK_RECORD
  5
21
330
1
100
AcDbSymbolTableRecord
100
AcDbBlockTableRecord
  2
_OPEN30
340
0
102
{BLKREFS
331
239
331
23A
331
22C
331
22D
331
21F
331
220
331
212
331
213
331
203
331
204
331
1F5
331
1F6
331
258
331
259
331
264
331
265
331
270
331
271
331
27E
331
27F
331
28A
331
28B
331
296
331
297
102
}
  0
BLOCK_RECORD
  5
234
330
1
100
AcDbSymbolTableRecord
100
AcDbBlockTableRecord
  2
*D1
340
0
  0
BLOCK_RECORD
  5
227
330
1
100
AcDbSymbolTableRecord
100
AcDbBlockTableRecord
  2
*D2
340
0
  0
BLOCK_RECORD
  5
21A
330
1
100
AcDbSymbolTableRecord
100
AcDbBlockTableRecord
  2
*D3
340
0
  0
BLOCK_RECORD
  5
20B
330
1
100
AcDbSymbolTableRecord
100
AcDbBlockTableRecord
  2
*D4
340
0
  0
BLOCK_RECORD
  5
1FE
330
1
100
AcDbSymbolTableRecord
100
AcDbBlockTableRecord
  2
*D5
340
0
  0
BLOCK_RECORD
  5
1F0
330
1
100
AcDbSymbolTableRecord
100
AcDbBlockTableRecord
  2
*D6
340
0
  0
BLOCK_RECORD
  5
254
330
1
100
AcDbSymbolTableRecord
100
AcDbBlockTableRecord
  2
*D7
340
0
  0
BLOCK_RECORD
  5
260
330
1
100
AcDbSymbolTableRecord
100
AcDbBlockTableRecord
  2
*D8
340
0
  0
BLOCK_RECORD
  5
26C
330
1
100
AcDbSymbolTableRecord
100
AcDbBlockTableRecord
  2
*D9
340
0
  0
BLOCK_RECORD
  5
278
330
1
100
AcDbSymbolTableRecord
100
AcDbBlockTableRecord
  2
*D10
340
0
  0
BLOCK_RECORD
  5
286
330
1
100
AcDbSymbolTableRecord
100
AcDbBlockTableRecord
  2
*D11
340
0
  0
BLOCK_RECORD
  5
292
330
1
100
AcDbSymbolTableRecord
100
AcDbBlockTableRecord
  2
*D12
340
0
  0
ENDTAB
  0
ENDSEC
  0
SECTION
  2
BLOCKS
  0
BLOCK
  5
3
330
2
100
AcDbEntity
  8
0
100
AcDbBlockBegin
  2
*Model_Space
 70
     0
 10
0.0
 20
0.0
 30
0.0
  3
*Model_Space
  1

  0
ENDBLK
  5
9
330
2
100
AcDbEntity
  8
0
100
AcDbBlockEnd
  0
BLOCK
  5
D
330
C
100
AcDbEntity
 67
     1
  8
0
100
AcDbBlockBegin
  2
*Paper_Space
 70
     0
 10
0.0
 20
0.0
 30
0.0
  3
*Paper_Space
  1

  0
ENDBLK
  5
E
330
C
100
AcDbEntity
 67
     1
  8
0
100
AcDbBlockEnd
  0
BLOCK
  5
22
330
21
100
AcDbEntity
  8
0
100
AcDbBlockBegin
  2
_OPEN30
 70
     0
 10
0.0
 20
0.0
 30
0.0
  3
_OPEN30
  1

  0
LINE
  5
23
330
21
100
AcDbEntity
  8
0
  6
ByBlock
 62
     0
100
AcDbLine
 10
-1.0
 20
0.26794919
 30
0.0
 11
0.0
 21
0.0
 31
0.0
  0
LINE
  5
24
330
21
100
AcDbEntity
  8
0
  6
ByBlock
 62
     0
100
AcDbLine
 10
0.0
 20
0.0
 30
0.0
 11
-1.0
 21
-0.26794919
 31
0.0
  0
LINE
  5
25
330
21
100
AcDbEntity
  8
0
  6
ByBlock
 62
     0
100
AcDbLine
 10
0.0
 20
0.0
 30
0.0
 11
-1.0
 21
0.0
 31
0.0
  0
ENDBLK
  5
26
330
21
100
AcDbEntity
  8
0
100
AcDbBlockEnd
  0
BLOCK
  5
235
330
234
100
AcDbEntity
  8
0
100
AcDbBlockBegin
  2
*D1
 70
     1
 10
0.0
 20
0.0
 30
0.0
  3
*D1
  1

  0
LINE
  5
236
330
234
100
AcDbEntity
  8
SUNPO
 62
     0
370
    -2
100
AcDbLine
 10
93.6292771764779
 20
65.35912217369792
 30
0.0
 11
93.6292771764779
 21
57.35912217369793
 31
0.0
  0
LINE
  5
237
330
234
100
AcDbEntity
  8
SUNPO
 62
     0
370
    -2
100
AcDbLine
 10
104.5267559097516
 20
65.35912217369792
 30
0.0
 11
104.5267559097516
 21
57.35912217369793
 31
0.0
  0
LINE
  5
238
330
234
100
AcDbEntity
  8
SUNPO
 62
     0
370
    -2
100
AcDbLine
 10
95.6292771764779
 20
59.35912217369793
 30
0.0
 11
102.5267559097516
 21
59.35912217369793
 31
0.0
  0
INSERT
  5
239
330
234
100
AcDbEntity
  8
SUNPO
 62
     0
370
    -2
100
AcDbBlockReference
  2
_OPEN30
 10
93.6292771764779
 20
59.35912217369793
 30
0.0
 41
2.0
 42
2.0
 43
2.0
 50
180.0
  0
INSERT
  5
23A
330
234
100
AcDbEntity
  8
SUNPO
 62
     0
370
    -2
100
AcDbBlockReference
  2
_OPEN30
 10
104.5267559097516
 20
59.35912217369793
 30
0.0
 41
2.0
 42
2.0
 43
2.0
  0
MTEXT
  5
23B
330
234
100
AcDbEntity
  8
SUNPO
 62
     0
100
AcDbMText
 10
99.07801654311477
 20
61.10912217369793
 30
0.0
 40
2.5
 41
0.0
 71
     5
 72
     1
  1
\A1;327
 73
     1
 44
1.0
1001
ACAD
1000
MTEXTBEGIN
1070
    73
1070
     1
1070
    44
1040
1.0
1070
    74
1070
     0
1000
MTEXTEND
  0
POINT
  5
23C
330
234
100
AcDbEntity
  8
Defpoints
 62
     0
100
AcDbPoint
 10
93.6292771764779
 20
67.35912217369793
 30
0.0
  0
POINT
  5
23D
330
234
100
AcDbEntity
  8
Defpoints
 62
     0
100
AcDbPoint
 10
104.5267559097516
 20
67.35912217369793
 30
0.0
  0
POINT
  5
23E
330
234
100
AcDbEntity
  8
Defpoints
 62
     0
100
AcDbPoint
 10
104.5267559097516
 20
59.35912217369793
 30
0.0
  0
ENDBLK
  5
23F
330
234
100
AcDbEntity
  8
0
100
AcDbBlockEnd
  0
BLOCK
  5
228
330
227
100
AcDbEntity
  8
0
100
AcDbBlockBegin
  2
*D2
 70
     1
 10
0.0
 20
0.0
 30
0.0
  3
*D2
  1

  0
LINE
  5
229
330
227
100
AcDbEntity
  8
SUNPO
 62
     0
370
    -2
100
AcDbLine
 10
37.05706140303124
 20
65.35912217369792
 30
0.0
 11
37.05706140303124
 21
57.35912217369793
 31
0.0
  0
LINE
  5
22A
330
227
100
AcDbEntity
  8
SUNPO
 62
     0
370
    -2
100
AcDbLine
 10
56.33363999310893
 20
65.35912217369792
 30
0.0
 11
56.33363999310893
 21
57.35912217369793
 31
0.0
  0
LINE
  5
22B
330
227
100
AcDbEntity
  8
SUNPO
 62
     0
370
    -2
100
AcDbLine
 10
39.05706140303124
 20
59.35912217369793
 30
0.0
 11
54.33363999310893
 21
59.35912217369793
 31
0.0
  0
INSERT
  5
22C
330
227
100
AcDbEntity
  8
SUNPO
 62
     0
370
    -2
100
AcDbBlockReference
  2
_OPEN30
 10
37.05706140303124
 20
59.35912217369793
 30
0.0
 41
2.0
 42
2.0
 43
2.0
 50
180.0
  0
INSERT
  5
22D
330
227
100
AcDbEntity
  8
SUNPO
 62
     0
370
    -2
100
AcDbBlockReference
  2
_OPEN30
 10
56.33363999310893
 20
59.35912217369793
 30
0.0
 41
2.0
 42
2.0
 43
2.0
  0
MTEXT
  5
22E
330
227
100
AcDbEntity
  8
SUNPO
 62
     0
100
AcDbMText
 10
46.69535069807008
 20
61.10912217369793
 30
0.0
 40
2.5
 41
0.0
 71
     5
 72
     1
  1
\A1;578
 73
     1
 44
1.0
1001
ACAD
1000
MTEXTBEGIN
1070
    73
1070
     1
1070
    44
1040
1.0
1070
    74
1070
     0
1000
MTEXTEND
  0
POINT
  5
22F
330
227
100
AcDbEntity
  8
Defpoints
 62
     0
100
AcDbPoint
 10
37.05706140303124
 20
67.35912217369793
 30
0.0
  0
POINT
  5
230
330
227
100
AcDbEntity
  8
Defpoints
 62
     0
100
AcDbPoint
 10
56.33363999310893
 20
67.35912217369793
 30
0.0
  0
POINT
  5
231
330
227
100
AcDbEntity
  8
Defpoints
 62
     0
100
AcDbPoint
 10
56.33363999310893
 20
59.35912217369793
 30
0.0
  0
ENDBLK
  5
232
330
227
100
AcDbEntity
  8
0
100
AcDbBlockEnd
  0
BLOCK
  5
21B
330
21A
100
AcDbEntity
  8
0
100
AcDbBlockBegin
  2
*D3
 70
     1
 10
0.0
 20
0.0
 30
0.0
  3
*D3
  1

  0
LINE
  5
21C
330
21A
100
AcDbEntity
  8
SUNPO
 62
     0
370
    -2
100
AcDbLine
 10
70.8625128056857
 20
93.48332819281479
 30
0.0
 11
81.86251280568569
 21
93.48332819281479
 31
0.0
  0
LINE
  5
21D
330
21A
100
AcDbEntity
  8
SUNPO
 62
     0
370
    -2
100
AcDbLine
 10
58.36975890167491
 20
67.37195086677428
 30
0.0
 11
81.86251280568569
 21
67.37195086677428
 31
0.0
  0
LINE
  5
21E
330
21A
100
AcDbEntity
  8
SUNPO
 62
     0
370
    -2
100
AcDbLine
 10
79.8625128056857
 20
91.48332819281479
 30
0.0
 11
79.8625128056857
 21
69.37195086677428
 31
0.0
  0
INSERT
  5
21F
330
21A
100
AcDbEntity
  8
SUNPO
 62
     0
370
    -2
100
AcDbBlockReference
  2
_OPEN30
 10
79.8625128056857
 20
93.48332819281479
 30
0.0
 41
2.0
 42
2.0
 43
2.0
 50
90.0
  0
INSERT
  5
220
330
21A
100
AcDbEntity
  8
SUNPO
 62
     0
370
    -2
100
AcDbBlockReference
  2
_OPEN30
 10
79.8625128056857
 20
67.37195086677428
 30
0.0
 41
2.0
 42
2.0
 43
2.0
 50
270.0
  0
MTEXT
  5
221
330
21A
100
AcDbEntity
  8
SUNPO
 62
     0
100
AcDbMText
 10
78.11251280568568
 20
80.42763952979456
 30
0.0
 40
2.5
 41
0.0
 71
     5
 72
     1
  1
\A1;783
 11
0.0000000000000001
 21
1.0
 31
0.0
 73
     1
 44
1.0
1001
ACAD
1000
MTEXTBEGIN
1070
    73
1070
     1
1070
    44
1040
1.0
1070
    74
1070
     0
1000
MTEXTEND
  0
POINT
  5
222
330
21A
100
AcDbEntity
  8
Defpoints
 62
     0
100
AcDbPoint
 10
68.86251280568569
 20
93.48332819281479
 30
0.0
  0
POINT
  5
223
330
21A
100
AcDbEntity
  8
Defpoints
 62
     0
100
AcDbPoint
 10
56.36975890167491
 20
67.37195086677428
 30
0.0
  0
POINT
  5
224
330
21A
100
AcDbEntity
  8
Defpoints
 62
     0
100
AcDbPoint
 10
79.8625128056857
 20
67.37195086677428
 30
0.0
  0
ENDBLK
  5
225
330
21A
100
AcDbEntity
  8
0
100
AcDbBlockEnd
  0
BLOCK
  5
20C
330
20B
100
AcDbEntity
  8
0
100
AcDbBlockBegin
  2
*D4
 70
     1
 10
0.0
 20
0.0
 30
0.0
  3
*D4
  1

  0
LINE
  5
20D
330
20B
100
AcDbEntity
  8
SUNPO
 62
     0
370
    -2
100
AcDbLine
 10
97.86021878198596
 20
94.34993754711165
 30
0.0
 11
97.86021878198596
 21
102.3499375471116
 31
0.0
  0
LINE
  5
20E
330
20B
100
AcDbEntity
  8
SUNPO
 62
     0
370
    -2
100
AcDbLine
 10
101.0136989594367
 20
94.34993754711165
 30
0.0
 11
101.0136989594367
 21
102.3499375471116
 31
0.0
  0
LINE
  5
20F
330
20B
100
AcDbEntity
  8
SUNPO
 62
     0
370
    -2
100
AcDbLine
 10
95.86021878198597
 20
100.3499375471116
 30
0.0
 11
93.86021878198596
 21
100.3499375471116
 31
0.0
  0
LINE
  5
210
330
20B
100
AcDbEntity
  8
SUNPO
 62
     0
370
    -2
100
AcDbLine
 10
103.0136989594367
 20
100.3499375471116
 30
0.0
 11
110.1803656261034
 21
100.3499375471116
 31
0.0
  0
LINE
  5
211
330
20B
100
AcDbEntity
  8
SUNPO
 62
     0
370
    -2
100
AcDbLine
 10
97.86021878198596
 20
100.3499375471116
 30
0.0
 11
101.0136989594367
 21
100.3499375471116
 31
0.0
  0
INSERT
  5
212
330
20B
100
AcDbEntity
  8
SUNPO
 62
     0
370
    -2
100
AcDbBlockReference
  2
_OPEN30
 10
97.86021878198596
 20
100.3499375471116
 30
0.0
 41
2.0
 42
2.0
 43
2.0
  0
INSERT
  5
213
330
20B
100
AcDbEntity
  8
SUNPO
 62
     0
370
    -2
100
AcDbBlockReference
  2
_OPEN30
 10
101.0136989594367
 20
100.3499375471116
 30
0.0
 41
2.0
 42
2.0
 43
2.0
 50
180.0
  0
MTEXT
  5
214
330
20B
100
AcDbEntity
  8
SUNPO
 62
     0
100
AcDbMText
 10
107.59703229277
 20
102.0999375471116
 30
0.0
 40
2.5
 41
0.0
 71
     5
 72
     1
  1
\A1;95
 73
     1
 44
1.0
1001
ACAD
1000
MTEXTBEGIN
1070
    73
1070
     1
1070
    44
1040
1.0
1070
    74
1070
     0
1000
MTEXTEND
  0
POINT
  5
215
330
20B
100
AcDbEntity
  8
Defpoints
 62
     0
100
AcDbPoint
 10
97.86021878198596
 20
92.34993754711165
 30
0.0
  0
POINT
  5
216
330
20B
100
AcDbEntity
  8
Defpoints
 62
     0
100
AcDbPoint
 10
101.0136989594367
 20
92.34993754711165
 30
0.0
  0
POINT
  5
217
330
20B
100
AcDbEntity
  8
Defpoints
 62
     0
100
AcDbPoint
 10
101.0136989594367
 20
100.3499375471116
 30
0.0
  0
ENDBLK
  5
218
330
20B
100
AcDbEntity
  8
0
100
AcDbBlockEnd
  0
BLOCK
  5
1FF
330
1FE
100
AcDbEntity
  8
0
100
AcDbBlockBegin
  2
*D5
 70
     1
 10
0.0
 20
0.0
 30
0.0
  3
*D5
  1

  0
LINE
  5
200
330
1FE
100
AcDbEntity
  8
SUNPO
 62
     0
370
    -2
100
AcDbLine
 10
68.86251280568569
 20
69.3500028468555
 30
0.0
 11
76.86251280568569
 21
69.3500028468555
 31
0.0
  0
LINE
  5
201
330
1FE
100
AcDbEntity
  8
SUNPO
 62
     0
370
    -2
100
AcDbLine
 10
68.86251280568569
 20
93.48332819281479
 30
0.0
 11
76.86251280568569
 21
93.48332819281479
 31
0.0
  0
LINE
  5
202
330
1FE
100
AcDbEntity
  8
SUNPO
 62
     0
370
    -2
100
AcDbLine
 10
74.8625128056857
 20
71.3500028468555
 30
0.0
 11
74.8625128056857
 21
91.48332819281479
 31
0.0
  0
INSERT
  5
203
330
1FE
100
AcDbEntity
  8
SUNPO
 62
     0
370
    -2
100
AcDbBlockReference
  2
_OPEN30
 10
74.8625128056857
 20
69.3500028468555
 30
0.0
 41
2.0
 42
2.0
 43
2.0
 50
270.0
  0
INSERT
  5
204
330
1FE
100
AcDbEntity
  8
SUNPO
 62
     0
370
    -2
100
AcDbBlockReference
  2
_OPEN30
 10
74.8625128056857
 20
93.48332819281479
 30
0.0
 41
2.0
 42
2.0
 43
2.0
 50
90.0
  0
MTEXT
  5
205
330
1FE
100
AcDbEntity
  8
SUNPO
 62
     0
100
AcDbMText
 10
73.11251280568568
 20
81.41666551983517
 30
0.0
 40
2.5
 41
0.0
 71
     5
 72
     1
  1
\A1;724
 11
0.0000000000000001
 21
1.0
 31
0.0
 73
     1
 44
1.0
1001
ACAD
1000
MTEXTBEGIN
1070
    73
1070
     1
1070
    44
1040
1.0
1070
    74
1070
     0
1000
MTEXTEND
  0
POINT
  5
206
330
1FE
100
AcDbEntity
  8
Defpoints
 62
     0
100
AcDbPoint
 10
66.86251280568569
 20
69.3500028468555
 30
0.0
  0
POINT
  5
207
330
1FE
100
AcDbEntity
  8
Defpoints
 62
     0
100
AcDbPoint
 10
66.86251280568569
 20
93.48332819281479
 30
0.0
  0
POINT
  5
208
330
1FE
100
AcDbEntity
  8
Defpoints
 62
     0
100
AcDbPoint
 10
74.8625128056857
 20
93.48332819281479
 30
0.0
  0
ENDBLK
  5
209
330
1FE
100
AcDbEntity
  8
0
100
AcDbBlockEnd
  0
BLOCK
  5
1F1
330
1F0
100
AcDbEntity
  8
0
100
AcDbBlockBegin
  2
*D6
 70
     1
 10
0.0
 20
0.0
 30
0.0
  3
*D6
  1

  0
LINE
  5
1F2
330
1F0
100
AcDbEntity
  8
SUNPO
 62
     0
370
    -2
100
AcDbLine
 10
26.52867041123386
 20
94.34993754711165
 30
0.0
 11
26.52867041123386
 21
102.3499375471116
 31
0.0
  0
LINE
  5
1F3
330
1F0
100
AcDbEntity
  8
SUNPO
 62
     0
370
    -2
100
AcDbLine
 10
66.86200153549737
 20
94.34993754711165
 30
0.0
 11
66.86200153549737
 21
102.3499375471116
 31
0.0
  0
LINE
  5
1F4
330
1F0
100
AcDbEntity
  8
SUNPO
 62
     0
370
    -2
100
AcDbLine
 10
28.52867041123386
 20
100.3499375471116
 30
0.0
 11
64.86200153549737
 21
100.3499375471116
 31
0.0
  0
INSERT
  5
1F5
330
1F0
100
AcDbEntity
  8
SUNPO
 62
     0
370
    -2
100
AcDbBlockReference
  2
_OPEN30
 10
26.52867041123386
 20
100.3499375471116
 30
0.0
 41
2.0
 42
2.0
 43
2.0
 50
180.0
  0
INSERT
  5
1F6
330
1F0
100
AcDbEntity
  8
SUNPO
 62
     0
370
    -2
100
AcDbBlockReference
  2
_OPEN30
 10
66.86200153549737
 20
100.3499375471116
 30
0.0
 41
2.0
 42
2.0
 43
2.0
  0
MTEXT
  5
1F7
330
1F0
100
AcDbEntity
  8
SUNPO
 62
     0
100
AcDbMText
 10
46.69533597336561
 20
102.0999375471116
 30
0.0
 40
2.5
 41
0.0
 71
     5
 72
     1
  1
\A1;1210
 73
     1
 44
1.0
1001
ACAD
1000
MTEXTBEGIN
1070
    73
1070
     1
1070
    44
1040
1.0
1070
    74
1070
     0
1000
MTEXTEND
  0
POINT
  5
1F8
330
1F0
100
AcDbEntity
  8
Defpoints
 62
     0
100
AcDbPoint
 10
26.52867041123386
 20
92.34993754711165
 30
0.0
  0
POINT
  5
1FA
330
1F0
100
AcDbEntity
  8
Defpoints
 62
     0
100
AcDbPoint
 10
66.86200153549737
 20
92.34993754711165
 30
0.0
  0
POINT
  5
1FB
330
1F0
100
AcDbEntity
  8
Defpoints
 62
     0
100
AcDbPoint
 10
66.86200153549737
 20
100.3499375471116
 30
0.0
  0
ENDBLK
  5
1FC
330
1F0
100
AcDbEntity
  8
0
100
AcDbBlockEnd
  0
BLOCK
  5
25E
330
254
100
AcDbEntity
  8
0
100
AcDbBlockBegin
  2
*D7
 70
     1
 10
0.0
 20
0.0
 30
0.0
  3
*D7
  1

  0
LINE
  5
255
330
254
100
AcDbEntity
  8
SUNPO
 62
     0
370
    -2
100
AcDbLine
 10
29.77377138878012
 20
-15.62724823104344
 30
0.0
 11
29.77377138878012
 21
-23.62724823104344
 31
0.0
  0
LINE
  5
256
330
254
100
AcDbEntity
  8
SUNPO
 62
     0
370
    -2
100
AcDbLine
 10
40.67125012205383
 20
-15.62724823104344
 30
0.0
 11
40.67125012205383
 21
-23.62724823104344
 31
0.0
  0
LINE
  5
257
330
254
100
AcDbEntity
  8
SUNPO
 62
     0
370
    -2
100
AcDbLine
 10
31.77377138878012
 20
-21.62724823104344
 30
0.0
 11
38.67125012205383
 21
-21.62724823104344
 31
0.0
  0
INSERT
  5
258
330
254
100
AcDbEntity
  8
SUNPO
 62
     0
370
    -2
100
AcDbBlockReference
  2
_OPEN30
 10
29.77377138878012
 20
-21.62724823104344
 30
0.0
 41
2.0
 42
2.0
 43
2.0
 50
180.0
  0
INSERT
  5
259
330
254
100
AcDbEntity
  8
SUNPO
 62
     0
370
    -2
100
AcDbBlockReference
  2
_OPEN30
 10
40.67125012205383
 20
-21.62724823104344
 30
0.0
 41
2.0
 42
2.0
 43
2.0
  0
MTEXT
  5
25A
330
254
100
AcDbEntity
  8
SUNPO
 62
     0
100
AcDbMText
 10
35.22251075541698
 20
-19.87724823104344
 30
0.0
 40
2.5
 41
0.0
 71
     5
 72
     1
  1
\A1;327
 73
     1
 44
1.0
1001
ACAD
1000
MTEXTBEGIN
1070
    73
1070
     1
1070
    44
1040
1.0
1070
    74
1070
     0
1000
MTEXTEND
  0
POINT
  5
25B
330
254
100
AcDbEntity
  8
Defpoints
 62
     0
100
AcDbPoint
 10
29.77377138878012
 20
-13.62724823104344
 30
0.0
  0
POINT
  5
25C
330
254
100
AcDbEntity
  8
Defpoints
 62
     0
100
AcDbPoint
 10
40.67125012205383
 20
-13.62724823104344
 30
0.0
  0
POINT
  5
25D
330
254
100
AcDbEntity
  8
Defpoints
 62
     0
100
AcDbPoint
 10
40.67125012205383
 20
-21.62724823104344
 30
0.0
  0
ENDBLK
  5
25F
330
254
100
AcDbEntity
  8
0
100
AcDbBlockEnd
  0
BLOCK
  5
26A
330
260
100
AcDbEntity
  8
0
100
AcDbBlockBegin
  2
*D8
 70
     1
 10
0.0
 20
0.0
 30
0.0
  3
*D8
  1

  0
LINE
  5
261
330
260
100
AcDbEntity
  8
SUNPO
 62
     0
370
    -2
100
AcDbLine
 10
-26.79844438466654
 20
-15.62724823104344
 30
0.0
 11
-26.79844438466654
 21
-23.62724823104344
 31
0.0
  0
LINE
  5
262
330
260
100
AcDbEntity
  8
SUNPO
 62
     0
370
    -2
100
AcDbLine
 10
-7.521865794588848
 20
-15.62724823104344
 30
0.0
 11
-7.521865794588848
 21
-23.62724823104344
 31
0.0
  0
LINE
  5
263
330
260
100
AcDbEntity
  8
SUNPO
 62
     0
370
    -2
100
AcDbLine
 10
-24.79844438466654
 20
-21.62724823104344
 30
0.0
 11
-9.521865794588848
 21
-21.62724823104344
 31
0.0
  0
INSERT
  5
264
330
260
100
AcDbEntity
  8
SUNPO
 62
     0
370
    -2
100
AcDbBlockReference
  2
_OPEN30
 10
-26.79844438466654
 20
-21.62724823104344
 30
0.0
 41
2.0
 42
2.0
 43
2.0
 50
180.0
  0
INSERT
  5
265
330
260
100
AcDbEntity
  8
SUNPO
 62
     0
370
    -2
100
AcDbBlockReference
  2
_OPEN30
 10
-7.521865794588848
 20
-21.62724823104344
 30
0.0
 41
2.0
 42
2.0
 43
2.0
  0
MTEXT
  5
266
330
260
100
AcDbEntity
  8
SUNPO
 62
     0
100
AcDbMText
 10
-17.16015508962769
 20
-19.87724823104344
 30
0.0
 40
2.5
 41
0.0
 71
     5
 72
     1
  1
\A1;578
 73
     1
 44
1.0
1001
ACAD
1000
MTEXTBEGIN
1070
    73
1070
     1
1070
    44
1040
1.0
1070
    74
1070
     0
1000
MTEXTEND
  0
POINT
  5
267
330
260
100
AcDbEntity
  8
Defpoints
 62
     0
100
AcDbPoint
 10
-26.79844438466654
 20
-13.62724823104344
 30
0.0
  0
POINT
  5
268
330
260
100
AcDbEntity
  8
Defpoints
 62
     0
100
AcDbPoint
 10
-7.521865794588848
 20
-13.62724823104344
 30
0.0
  0
POINT
  5
269
330
260
100
AcDbEntity
  8
Defpoints
 62
     0
100
AcDbPoint
 10
-7.521865794588848
 20
-21.62724823104344
 30
0.0
  0
ENDBLK
  5
26B
330
260
100
AcDbEntity
  8
0
100
AcDbBlockEnd
  0
BLOCK
  5
276
330
26C
100
AcDbEntity
  8
0
100
AcDbBlockBegin
  2
*D9
 70
     1
 10
0.0
 20
0.0
 30
0.0
  3
*D9
  1

  0
LINE
  5
26D
330
26C
100
AcDbEntity
  8
SUNPO
 62
     0
370
    -2
100
AcDbLine
 10
7.007007017987916
 20
12.49695778807343
 30
0.0
 11
18.00700701798792
 21
12.49695778807343
 31
0.0
  0
LINE
  5
26E
330
26C
100
AcDbEntity
  8
SUNPO
 62
     0
370
    -2
100
AcDbLine
 10
-5.485746886022866
 20
-13.61441953796708
 30
0.0
 11
18.00700701798792
 21
-13.61441953796709
 31
0.0
  0
LINE
  5
26F
330
26C
100
AcDbEntity
  8
SUNPO
 62
     0
370
    -2
100
AcDbLine
 10
16.00700701798792
 20
10.49695778807343
 30
0.0
 11
16.00700701798792
 21
-11.61441953796709
 31
0.0
  0
INSERT
  5
270
330
26C
100
AcDbEntity
  8
SUNPO
 62
     0
370
    -2
100
AcDbBlockReference
  2
_OPEN30
 10
16.00700701798792
 20
12.49695778807343
 30
0.0
 41
2.0
 42
2.0
 43
2.0
 50
90.0
  0
INSERT
  5
271
330
26C
100
AcDbEntity
  8
SUNPO
 62
     0
370
    -2
100
AcDbBlockReference
  2
_OPEN30
 10
16.00700701798792
 20
-13.61441953796709
 30
0.0
 41
2.0
 42
2.0
 43
2.0
 50
270.0
  0
MTEXT
  5
272
330
26C
100
AcDbEntity
  8
SUNPO
 62
     0
100
AcDbMText
 10
14.25700701798792
 20
-0.5587308749468267
 30
0.0
 40
2.5
 41
0.0
 71
     5
 72
     1
  1
\A1;783
 11
0.0000000000000001
 21
1.0
 31
0.0
 73
     1
 44
1.0
1001
ACAD
1000
MTEXTBEGIN
1070
    73
1070
     1
1070
    44
1040
1.0
1070
    74
1070
     0
1000
MTEXTEND
  0
POINT
  5
273
330
26C
100
AcDbEntity
  8
Defpoints
 62
     0
100
AcDbPoint
 10
5.007007017987916
 20
12.49695778807343
 30
0.0
  0
POINT
  5
274
330
26C
100
AcDbEntity
  8
Defpoints
 62
     0
100
AcDbPoint
 10
-7.485746886022866
 20
-13.61441953796708
 30
0.0
  0
POINT
  5
275
330
26C
100
AcDbEntity
  8
Defpoints
 62
     0
100
AcDbPoint
 10
16.00700701798792
 20
-13.61441953796709
 30
0.0
  0
ENDBLK
  5
277
330
26C
100
AcDbEntity
  8
0
100
AcDbBlockEnd
  0
BLOCK
  5
284
330
278
100
AcDbEntity
  8
0
100
AcDbBlockBegin
  2
*D10
 70
     1
 10
0.0
 20
0.0
 30
0.0
  3
*D10
  1

  0
LINE
  5
279
330
278
100
AcDbEntity
  8
SUNPO
 62
     0
370
    -2
100
AcDbLine
 10
34.00471299428819
 20
13.36356714237028
 30
0.0
 11
34.00471299428819
 21
21.36356714237029
 31
0.0
  0
LINE
  5
27A
330
278
100
AcDbEntity
  8
SUNPO
 62
     0
370
    -2
100
AcDbLine
 10
37.15819317173896
 20
13.36356714237028
 30
0.0
 11
37.15819317173896
 21
21.36356714237029
 31
0.0
  0
LINE
  5
27B
330
278
100
AcDbEntity
  8
SUNPO
 62
     0
370
    -2
100
AcDbLine
 10
32.00471299428818
 20
19.36356714237028
 30
0.0
 11
30.00471299428819
 21
19.36356714237028
 31
0.0
  0
LINE
  5
27C
330
278
100
AcDbEntity
  8
SUNPO
 62
     0
370
    -2
100
AcDbLine
 10
39.15819317173896
 20
19.36356714237028
 30
0.0
 11
46.32485983840562
 21
19.36356714237028
 31
0.0
  0
LINE
  5
27D
330
278
100
AcDbEntity
  8
SUNPO
 62
     0
370
    -2
100
AcDbLine
 10
34.00471299428819
 20
19.36356714237028
 30
0.0
 11
37.15819317173896
 21
19.36356714237028
 31
0.0
  0
INSERT
  5
27E
330
278
100
AcDbEntity
  8
SUNPO
 62
     0
370
    -2
100
AcDbBlockReference
  2
_OPEN30
 10
34.00471299428819
 20
19.36356714237028
 30
0.0
 41
2.0
 42
2.0
 43
2.0
  0
INSERT
  5
27F
330
278
100
AcDbEntity
  8
SUNPO
 62
     0
370
    -2
100
AcDbBlockReference
  2
_OPEN30
 10
37.15819317173896
 20
19.36356714237028
 30
0.0
 41
2.0
 42
2.0
 43
2.0
 50
180.0
  0
MTEXT
  5
280
330
278
100
AcDbEntity
  8
SUNPO
 62
     0
100
AcDbMText
 10
43.74152650507229
 20
21.11356714237029
 30
0.0
 40
2.5
 41
0.0
 71
     5
 72
     1
  1
\A1;95
 73
     1
 44
1.0
1001
ACAD
1000
MTEXTBEGIN
1070
    73
1070
     1
1070
    44
1040
1.0
1070
    74
1070
     0
1000
MTEXTEND
  0
POINT
  5
281
330
278
100
AcDbEntity
  8
Defpoints
 62
     0
100
AcDbPoint
 10
34.00471299428819
 20
11.36356714237028
 30
0.0
  0
POINT
  5
282
330
278
100
AcDbEntity
  8
Defpoints
 62
     0
100
AcDbPoint
 10
37.15819317173896
 20
11.36356714237028
 30
0.0
  0
POINT
  5
283
330
278
100
AcDbEntity
  8
Defpoints
 62
     0
100
AcDbPoint
 10
37.15819317173896
 20
19.36356714237028
 30
0.0
  0
ENDBLK
  5
285
330
278
100
AcDbEntity
  8
0
100
AcDbBlockEnd
  0
BLOCK
  5
290
330
286
100
AcDbEntity
  8
0
100
AcDbBlockBegin
  2
*D11
 70
     1
 10
0.0
 20
0.0
 30
0.0
  3
*D11
  1

  0
LINE
  5
287
330
286
100
AcDbEntity
  8
SUNPO
 62
     0
370
    -2
100
AcDbLine
 10
5.007007017987916
 20
-11.63636755788586
 30
0.0
 11
13.00700701798791
 21
-11.63636755788586
 31
0.0
  0
LINE
  5
288
330
286
100
AcDbEntity
  8
SUNPO
 62
     0
370
    -2
100
AcDbLine
 10
5.007007017987916
 20
12.49695778807343
 30
0.0
 11
13.00700701798791
 21
12.49695778807343
 31
0.0
  0
LINE
  5
289
330
286
100
AcDbEntity
  8
SUNPO
 62
     0
370
    -2
100
AcDbLine
 10
11.00700701798791
 20
-9.636367557885863
 30
0.0
 11
11.00700701798791
 21
10.49695778807343
 31
0.0
  0
INSERT
  5
28A
330
286
100
AcDbEntity
  8
SUNPO
 62
     0
370
    -2
100
AcDbBlockReference
  2
_OPEN30
 10
11.00700701798791
 20
-11.63636755788586
 30
0.0
 41
2.0
 42
2.0
 43
2.0
 50
270.0
  0
INSERT
  5
28B
330
286
100
AcDbEntity
  8
SUNPO
 62
     0
370
    -2
100
AcDbBlockReference
  2
_OPEN30
 10
11.00700701798791
 20
12.49695778807343
 30
0.0
 41
2.0
 42
2.0
 43
2.0
 50
90.0
  0
MTEXT
  5
28C
330
286
100
AcDbEntity
  8
SUNPO
 62
     0
100
AcDbMText
 10
9.257007017987913
 20
0.430295115093784
 30
0.0
 40
2.5
 41
0.0
 71
     5
 72
     1
  1
\A1;724
 11
0.0000000000000001
 21
1.0
 31
0.0
 73
     1
 44
1.0
1001
ACAD
1000
MTEXTBEGIN
1070
    73
1070
     1
1070
    44
1040
1.0
1070
    74
1070
     0
1000
MTEXTEND
  0
POINT
  5
28D
330
286
100
AcDbEntity
  8
Defpoints
 62
     0
100
AcDbPoint
 10
3.007007017987916
 20
-11.63636755788586
 30
0.0
  0
POINT
  5
28E
330
286
100
AcDbEntity
  8
Defpoints
 62
     0
100
AcDbPoint
 10
3.007007017987916
 20
12.49695778807343
 30
0.0
  0
POINT
  5
28F
330
286
100
AcDbEntity
  8
Defpoints
 62
     0
100
AcDbPoint
 10
11.00700701798791
 20
12.49695778807343
 30
0.0
  0
ENDBLK
  5
291
330
286
100
AcDbEntity
  8
0
100
AcDbBlockEnd
  0
BLOCK
  5
29C
330
292
100
AcDbEntity
  8
0
100
AcDbBlockBegin
  2
*D12
 70
     1
 10
0.0
 20
0.0
 30
0.0
  3
*D12
  1

  0
LINE
  5
293
330
292
100
AcDbEntity
  8
SUNPO
 62
     0
370
    -2
100
AcDbLine
 10
-37.32683537646392
 20
13.36356714237028
 30
0.0
 11
-37.32683537646392
 21
21.36356714237029
 31
0.0
  0
LINE
  5
294
330
292
100
AcDbEntity
  8
SUNPO
 62
     0
370
    -2
100
AcDbLine
 10
3.00649574779959
 20
13.36356714237028
 30
0.0
 11
3.00649574779959
 21
21.36356714237029
 31
0.0
  0
LINE
  5
295
330
292
100
AcDbEntity
  8
SUNPO
 62
     0
370
    -2
100
AcDbLine
 10
-35.32683537646392
 20
19.36356714237028
 30
0.0
 11
1.00649574779959
 21
19.36356714237028
 31
0.0
  0
INSERT
  5
296
330
292
100
AcDbEntity
  8
SUNPO
 62
     0
370
    -2
100
AcDbBlockReference
  2
_OPEN30
 10
-37.32683537646392
 20
19.36356714237028
 30
0.0
 41
2.0
 42
2.0
 43
2.0
 50
180.0
  0
INSERT
  5
297
330
292
100
AcDbEntity
  8
SUNPO
 62
     0
370
    -2
100
AcDbBlockReference
  2
_OPEN30
 10
3.00649574779959
 20
19.36356714237028
 30
0.0
 41
2.0
 42
2.0
 43
2.0
  0
MTEXT
  5
298
330
292
100
AcDbEntity
  8
SUNPO
 62
     0
100
AcDbMText
 10
-17.16016981433216
 20
21.11356714237029
 30
0.0
 40
2.5
 41
0.0
 71
     5
 72
     1
  1
\A1;1210
 73
     1
 44
1.0
1001
ACAD
1000
MTEXTBEGIN
1070
    73
1070
     1
1070
    44
1040
1.0
1070
    74
1070
     0
1000
MTEXTEND
  0
POINT
  5
299
330
292
100
AcDbEntity
  8
Defpoints
 62
     0
100
AcDbPoint
 10
-37.32683537646392
 20
11.36356714237028
 30
0.0
  0
POINT
  5
29A
330
292
100
AcDbEntity
  8
Defpoints
 62
     0
100
AcDbPoint
 10
3.00649574779959
 20
11.36356714237028
 30
0.0
  0
POINT
  5
29B
330
292
100
AcDbEntity
  8
Defpoints
 62
     0
100
AcDbPoint
 10
3.00649574779959
 20
19.36356714237028
 30
0.0
  0
ENDBLK
  5
29D
330
292
100
AcDbEntity
  8
0
100
AcDbBlockEnd
  0
ENDSEC
  0
SECTION
  2
ENTITIES
  0
TEXT
  5
30
330
2
100
AcDbEntity
  8
MOJI1
100
AcDbText
 10
-34.35550584365649
 20
33.51446472019335
 30
0.0
 40
4.0
  1
ハイビジョンプラズマディスプレイ据置きスタンド付
 41
0.85
100
AcDbText
  0
TEXT
  5
32
330
2
100
AcDbEntity
  8
TOUROKU
100
AcDbText
 10
21.24444418927104
 20
27.51446472019312
 30
0.0
 40
2.0
  1
ＴＨ５０ＰＨ１２ＫＲ＋ＴＹＳＴ０８Ｋ
 72
     2
 11
63.64444418927104
 21
27.51446472019312
 31
0.0
100
AcDbText
  0
TEXT
  5
34
330
2
100
AcDbEntity
  8
MOJI1
100
AcDbText
 10
-19.8555058436566
 20
-74.48553527980696
 30
0.0
 40
3.0
  1
シリアル／ＰＣ／拡張スロット２、３
100
AcDbText
  0
TEXT
  5
35
330
2
100
AcDbEntity
  8
MOJI1
100
AcDbText
 10
-19.8555058436566
 20
-69.48553527980696
 30
0.0
 40
3.0
  1
ビデオ・音声／Ｓ映像・音声／外部スピーカ
100
AcDbText
  0
TEXT
  5
36
330
2
100
AcDbEntity
  8
MOJI1
100
AcDbText
 10
-19.8555058436566
 20
-54.48553527980696
 30
0.0
 40
3.0
  1
３００００：１
100
AcDbText
  0
TEXT
  5
37
330
2
100
AcDbEntity
  8
MOJI1
100
AcDbText
 10
-19.8555058436566
 20
-59.48553527980696
 30
0.0
 40
3.0
  1
５１２０階調（相当）
100
AcDbText
  0
LINE
  5
38
330
2
100
AcDbEntity
  8
WAKU
 62
     1
100
AcDbLine
 10
-61.3555058436566
 20
-40.48553527980695
 30
0.0
 11
63.64449415634317
 21
-40.48553527980695
 31
0.0
  0
LINE
  5
3A
330
2
100
AcDbEntity
  8
WAKU
 62
     1
100
AcDbLine
 10
-61.3555058436566
 20
-50.48553527980695
 30
0.0
 11
63.64449415634317
 21
-50.48553527980695
 31
0.0
  0
LINE
  5
3B
330
2
100
AcDbEntity
  8
WAKU
 62
     4
100
AcDbLine
 10
-61.3555058436566
 20
-30.48553527980696
 30
0.0
 11
63.64449415634317
 21
-30.48553527980696
 31
0.0
  0
LINE
  5
3C
330
2
100
AcDbEntity
  8
WAKU
 62
     1
100
AcDbLine
 10
-61.3555058436566
 20
-35.48553527980696
 30
0.0
 11
63.64449415634317
 21
-35.48553527980696
 31
0.0
  0
LINE
  5
3D
330
2
100
AcDbEntity
  8
WAKU
 62
     1
100
AcDbLine
 10
-61.3555058436566
 20
-45.48553527980695
 30
0.0
 11
63.64449415634317
 21
-45.48553527980695
 31
0.0
  0
LINE
  5
3E
330
2
100
AcDbEntity
  8
WAKU
 62
     1
100
AcDbLine
 10
-61.3555058436566
 20
-65.48553527980695
 30
0.0
 11
63.64449415634317
 21
-65.48553527980695
 31
0.0
  0
LINE
  5
3F
330
2
100
AcDbEntity
  8
WAKU
 62
     1
100
AcDbLine
 10
-61.3555058436566
 20
-70.48553527980695
 30
0.0
 11
63.64449415634317
 21
-70.48553527980695
 31
0.0
  0
LINE
  5
40
330
2
100
AcDbEntity
  8
WAKU
 62
     4
100
AcDbLine
 10
63.64449415634317
 20
-75.48553527980695
 30
0.0
 11
-61.3555058436566
 21
-75.48553527980695
 31
0.0
  0
LINE
  5
41
330
2
100
AcDbEntity
  8
WAKU
 62
     4
100
AcDbLine
 10
-61.35550584365683
 20
-30.48553527980696
 30
0.0
 11
-61.3555058436566
 21
-75.48553527980695
 31
0.0
  0
LINE
  5
42
330
2
100
AcDbEntity
  8
WAKU
 62
     4
100
AcDbLine
 10
63.64449415634317
 20
-30.48553527980696
 30
0.0
 11
63.64449415634317
 21
-75.48553527980695
 31
0.0
  0
TEXT
  5
43
330
2
100
AcDbEntity
  8
MOJI1
100
AcDbText
 10
-58.8555058436566
 20
-49.48553527980696
 30
0.0
 40
3.0
  1
画素数
100
AcDbText
  0
LINE
  5
44
330
2
100
AcDbEntity
  8
WAKU
 62
     4
100
AcDbLine
 10
-21.35550584365683
 20
-30.48553527980696
 30
0.0
 11
-21.35550584365683
 21
-75.48553527980695
 31
0.0
  0
TEXT
  5
45
330
2
100
AcDbEntity
  8
MOJI1
100
AcDbText
 10
-19.8555058436566
 20
-49.48553527980696
 30
0.0
 40
3.0
  1
水平１３６６×垂直７６８　画素
100
AcDbText
  0
TEXT
  5
46
330
2
100
AcDbEntity
  8
MOJI1
100
AcDbText
 10
-19.8555058436566
 20
-64.48553527980696
 30
0.0
 40
3.0
  1
１６Ｗ（８Ｗ＋８Ｗ）
100
AcDbText
  0
TEXT
  5
47
330
2
100
AcDbEntity
  8
MOJI1
100
AcDbText
 10
-58.8555058436566
 20
-64.48553527980696
 30
0.0
 40
3.0
  1
音声最大出力
100
AcDbText
  0
TEXT
  5
48
330
2
100
AcDbEntity
  8
MOJI1
100
AcDbText
 10
-58.8555058436566
 20
-69.48553527980696
 30
0.0
 40
3.0
  1
接続端子
100
AcDbText
  0
TEXT
  5
49
330
2
100
AcDbEntity
  8
MOJI1
100
AcDbText
 10
-19.8555058436566
 20
-34.48553527980696
 30
0.0
 40
3.0
  1
ＡＣ１００Ｖ±１０％　５０Ｈｚ／６０Ｈｚ
100
AcDbText
  0
TEXT
  5
4A
330
2
100
AcDbEntity
  8
MOJI1
100
AcDbText
 10
-19.8555058436566
 20
-44.48553527980695
 30
0.0
 40
3.0
  1
５０型（１６：９）
100
AcDbText
  0
TEXT
  5
4B
330
2
100
AcDbEntity
  8
MOJI1
100
AcDbText
 10
-19.8555058436566
 20
-39.48553527980696
 30
0.0
 40
3.0
  1
３３５Ｗ
100
AcDbText
  0
TEXT
  5
4C
330
2
100
AcDbEntity
  8
MOJI1
100
AcDbText
 10
-58.8555058436566
 20
-44.48553527980695
 30
0.0
 40
3.0
  1
画面サイズ
100
AcDbText
  0
TEXT
  5
4D
330
2
100
AcDbEntity
  8
MOJI1
100
AcDbText
 10
-58.8555058436566
 20
-39.48553527980696
 30
0.0
 40
3.0
  1
消費電力
100
AcDbText
  0
TEXT
  5
4E
330
2
100
AcDbEntity
  8
MOJI1
100
AcDbText
 10
-58.8555058436566
 20
-34.48553527980696
 30
0.0
 40
3.0
  1
電  源
100
AcDbText
  0
LINE
  5
4F
330
2
100
AcDbEntity
  8
WAKU
 62
     1
100
AcDbLine
 10
-61.3555058436566
 20
-55.48553527980695
 30
0.0
 11
63.64449415634317
 21
-55.48553527980695
 31
0.0
  0
LINE
  5
50
330
2
100
AcDbEntity
  8
WAKU
 62
     1
100
AcDbLine
 10
-61.3555058436566
 20
-60.48553527980695
 30
0.0
 11
63.64449415634317
 21
-60.48553527980695
 31
0.0
  0
TEXT
  5
51
330
2
100
AcDbEntity
  8
MOJI1
100
AcDbText
 10
-58.8555058436566
 20
-54.48553527980696
 30
0.0
 40
3.0
  1
コントラスト
100
AcDbText
  0
TEXT
  5
52
330
2
100
AcDbEntity
  8
MOJI1
100
AcDbText
 10
-58.8555058436566
 20
-59.48553527980696
 30
0.0
 40
3.0
  1
階調数
100
AcDbText
  0
LINE
  5
53
330
2
100
AcDbEntity
  8
GAIKEI
  6
Continuous
 62
     7
100
AcDbLine
 10
39.127927826943
 20
-11.42629295707722
 30
0.0
 11
39.127927826943
 21
-11.62631100283722
 31
0.0
  0
LINE
  5
54
330
2
100
AcDbEntity
  8
GAIKEI
  6
Continuous
 62
     7
100
AcDbLine
 10
36.12765714054302
 20
-11.42629295707722
 30
0.0
 11
36.12765714054302
 21
-11.62631100283722
 31
0.0
  0
LINE
  5
55
330
2
100
AcDbEntity
  8
GAIKEI
  6
Continuous
 62
     1
100
AcDbLine
 10
36.12765714054302
 20
-11.42629295707722
 30
0.0
 11
39.127927826943
 21
-11.42629295707722
 31
0.0
  0
LINE
  5
56
330
2
100
AcDbEntity
  8
GAIKEI
  6
Continuous
 62
     7
100
AcDbLine
 10
36.12765714054302
 20
-11.22627491131722
 30
0.0
 11
39.127927826943
 21
-11.22627491131722
 31
0.0
  0
LINE
  5
57
330
2
100
AcDbEntity
  8
GAIKEI
  6
Continuous
 62
     7
100
AcDbLine
 10
39.127927826943
 20
-11.22627491131722
 30
0.0
 11
39.127927826943
 21
-11.42629295707722
 31
0.0
  0
LINE
  5
58
330
2
100
AcDbEntity
  8
GAIKEI
  6
Continuous
 62
     7
100
AcDbLine
 10
36.12765714054302
 20
-11.22627491131722
 30
0.0
 11
36.12765714054302
 21
-11.42629295707722
 31
0.0
  0
ARC
  5
59
330
2
100
AcDbEntity
  8
GAIKEI
  6
Continuous
 62
     7
100
AcDbCircle
 10
35.9919893449495
 20
-11.3381369480284
 30
0.0
 40
0.03333634096
100
AcDbArc
 50
179.0000000000015
 51
270.0
  0
LINE
  5
5A
330
2
100
AcDbEntity
  8
GAIKEI
  6
Continuous
 62
     7
100
AcDbLine
 10
35.96097543574297
 20
-11.2047915841884
 30
0.0
 11
35.96745239778829
 21
-10.83372521542772
 31
0.0
  0
LINE
  5
5B
330
2
100
AcDbEntity
  8
GAIKEI
  6
Continuous
 62
     7
100
AcDbLine
 10
35.9919893449495
 20
-11.3714732889884
 30
0.0
 11
36.12765714054302
 21
-11.3714732889884
 31
0.0
  0
ARC
  5
5C
330
2
100
AcDbEntity
  8
GAIKEI
  6
Continuous
 62
     7
100
AcDbCircle
 10
36.76086649133049
 20
-10.7714191517084
 30
0.0
 40
0.1666817048
100
AcDbArc
 50
190.1327320881873
 51
270.0
  0
LINE
  5
5D
330
2
100
AcDbEntity
  8
GAIKEI
  6
Continuous
 62
     7
100
AcDbLine
 10
35.95865800444062
 20
-11.3375549510758
 30
0.0
 11
35.96097543574297
 21
-11.2047915841884
 31
0.0
  0
LINE
  5
5E
330
2
100
AcDbEntity
  8
GAIKEI
  6
Continuous
 62
     7
100
AcDbLine
 10
37.4612271783335
 20
-11.2114588523804
 30
0.0
 11
37.45645563673077
 21
-10.9381008565084
 31
0.0
  0
LINE
  5
5F
330
2
100
AcDbEntity
  8
GAIKEI
  6
Continuous
 62
     7
100
AcDbLine
 10
35.96563057795527
 20
-10.9381008565084
 30
0.0
 11
37.45645563673077
 21
-10.9381008565084
 31
0.0
  0
ELLIPSE
  5
60
330
2
100
AcDbEntity
  8
GAIKEI
  6
Continuous
 62
     1
100
AcDbEllipse
 10
-37.27217388564554
 20
12.3973786650054
 30
0.0
 11
-0.0052978427251001
 21
0.2879170138793282
 31
0.0
210
0.0
220
0.0
230
0.9999999999999998
 40
0.0404429999982056
 41
4.285401047309302
 42
4.371811220306485
  0
ELLIPSE
  5
61
330
2
100
AcDbEntity
  8
GAIKEI
  6
Continuous
 62
     1
100
AcDbEllipse
 10
-37.27217388564554
 20
-11.52678717631065
 30
0.0
 11
0.0052978427251001
 21
0.2879170138793289
 31
0.0
210
0.0
220
0.0
230
1.0
 40
0.0404429999982055
 41
-1.230218566716693
 42
-1.143808393719511
  0
ELLIPSE
  5
62
330
2
100
AcDbEntity
  8
GAIKEI
  6
Continuous
 62
     1
100
AcDbEllipse
 10
-37.22223798250815
 20
12.4473145681428
 30
0.0
 11
-0.2879170138797297
 21
0.0052978427250935
 31
0.0
210
0.0
220
0.0
230
1.0
 40
0.0404429999981596
 41
1.911374086872534
 42
1.997784259869754
  0
ELLIPSE
  5
63
330
2
100
AcDbEntity
  8
GAIKEI
  6
Continuous
 62
     1
100
AcDbEllipse
 10
-37.22223798250815
 20
-11.57672307944804
 30
0.0
 11
0.2879170138799391
 21
0.0052978427250901
 31
0.0
210
0.0
220
0.0
230
1.0
 40
0.0404429999981356
 41
1.143808393720369
 42
1.23021856671755
  0
ELLIPSE
  5
64
330
2
100
AcDbEntity
  8
GAIKEI
  6
Continuous
 62
     1
100
AcDbEllipse
 10
2.951869818052614
 20
-11.52678717631065
 30
0.0
 11
-0.0052978427254085
 21
0.2879170138543368
 31
0.0
210
0.0
220
0.0
230
1.0
 40
0.0404430000012197
 41
1.14380839367993
 42
1.230218566685839
  0
ELLIPSE
  5
65
330
2
100
AcDbEntity
  8
GAIKEI
  6
Continuous
 62
     1
100
AcDbEllipse
 10
2.951869818052614
 20
12.3973786650054
 30
0.0
 11
0.0052978427250493
 21
0.2879170138793218
 31
0.0
210
0.0
220
0.0
230
1.0
 40
0.0404429999982778
 41
1.911374086873103
 42
1.997784259870286
  0
ELLIPSE
  5
66
330
2
100
AcDbEntity
  8
GAIKEI
  6
Continuous
 62
     1
100
AcDbEllipse
 10
2.901933914915275
 20
12.4473145681428
 30
0.0
 11
0.2879170138798923
 21
0.005297842725091
 31
0.0
210
0.0
220
0.0
230
1.0
 40
0.0404429999981408
 41
4.285401047310096
 42
4.371811220307267
  0
ELLIPSE
  5
67
330
2
100
AcDbEntity
  8
GAIKEI
  6
Continuous
 62
     1
100
AcDbEllipse
 10
2.901933914915275
 20
-11.57672307944804
 30
0.0
 11
-0.2879170138799422
 21
0.0052978427250903
 31
0.0
210
0.0
220
0.0
230
1.0
 40
0.0404429999981349
 41
-1.230218566717536
 42
-1.143808393720374
  0
ELLIPSE
  5
68
330
2
100
AcDbEntity
  8
GAIKEI
  6
Continuous
 62
     1
100
AcDbEllipse
 10
-35.54860155778147
 20
10.74874446155873
 30
0.0
 11
-0.0427537848529118
 21
0.0546568828203793
 31
0.0
210
0.0
220
0.0
230
1.0
 40
0.960211999995565
 41
-0.6513938851084821
 42
-0.3742724761095297
  0
ELLIPSE
  5
69
330
2
100
AcDbEntity
  8
GAIKEI
  6
Continuous
 62
     1
100
AcDbEllipse
 10
1.228297490188538
 20
10.74874446155873
 30
0.0
 11
0.0427537848527262
 21
0.0546568828205145
 31
0.0
210
0.0
220
0.0
230
1.0
 40
0.9602119999955242
 41
0.3742724761062375
 42
0.6513938851051569
  0
ELLIPSE
  5
6A
330
2
100
AcDbEntity
  8
GAIKEI
  6
Continuous
 62
     1
100
AcDbEllipse
 10
-35.54860155778147
 20
-9.878152972863958
 30
0.0
 11
0.0427537848582486
 21
0.0546568828163674
 31
0.0
210
0.0
220
0.0
230
1.0
 40
0.9602120000005857
 41
3.515865129796059
 42
3.792986538793065
  0
ELLIPSE
  5
6B
330
2
100
AcDbEntity
  8
GAIKEI
  6
Continuous
 62
     1
100
AcDbEllipse
 10
1.228297490188538
 20
-9.878152972863958
 30
0.0
 11
-0.042753784866503
 21
0.0546568828102033
 31
0.0
210
0.0
220
0.0
230
0.9999999999999996
 40
0.9602120000078178
 41
2.490198768239826
 42
2.767320177232909
  0
ELLIPSE
  5
6C
330
2
100
AcDbEntity
  8
GAIKEI
  6
Continuous
 62
     1
100
AcDbEllipse
 10
-35.54859425713284
 20
10.74873716091012
 30
0.0
 11
-0.05471957312403
 21
0.042691791412705
 31
0.0
210
0.0
220
0.0
230
1.0
 40
0.9600420000005412
 41
0.3752614365549947
 42
0.6500607537665788
  0
ELLIPSE
  5
6D
330
2
100
AcDbEntity
  8
GAIKEI
  6
Continuous
 62
     1
100
AcDbEllipse
 10
-35.54859425713284
 20
-9.878145672215367
 30
0.0
 11
0.054719573126713
 21
0.0426917914091056
 31
0.0
210
0.0
220
0.0
230
1.0
 40
0.9600419999976159
 41
2.491531899886615
 42
2.766331217099247
  0
ELLIPSE
  5
6E
330
2
100
AcDbEntity
  8
GAIKEI
  6
Continuous
 62
     1
100
AcDbEllipse
 10
1.228290189539961
 20
10.74873716091012
 30
0.0
 11
0.0547195731240741
 21
0.0426917914126376
 31
0.0
210
0.0
220
0.0
230
1.0
 40
0.9600420000007662
 41
-0.6500607537652972
 42
-0.3752614365537126
  0
ELLIPSE
  5
6F
330
2
100
AcDbEntity
  8
GAIKEI
  6
Continuous
 62
     1
100
AcDbEllipse
 10
1.228290189539961
 20
-9.878145672215367
 30
0.0
 11
-0.0547195731247495
 21
0.0426917914117292
 31
0.0
210
0.0
220
0.0
230
1.0
 40
0.9600419999999962
 41
3.516854090128136
 42
3.791653407339537
  0
ELLIPSE
  5
70
330
2
100
AcDbEntity
  8
GAIKEI
  6
Continuous
 62
     1
100
AcDbEllipse
 10
1.228297490188538
 20
-9.876327010639428
 30
0.0
 11
-0.0607808270033003
 21
0.0822184915853297
 31
0.0
210
0.0
220
0.0
230
1.0
 40
0.9776259999984945
 41
2.515781018572056
 42
2.792902427569963
  0
ELLIPSE
  5
71
330
2
100
AcDbEntity
  8
GAIKEI
  6
Continuous
 62
     1
100
AcDbEllipse
 10
-35.54860155778147
 20
-9.876327010639428
 30
0.0
 11
0.0607808269967871
 21
0.0822184915900438
 31
0.0
210
0.0
220
0.0
230
1.0
 40
0.977625999995409
 41
3.490282879530687
 42
3.767404288529979
  0
ELLIPSE
  5
72
330
2
100
AcDbEntity
  8
GAIKEI
  6
Continuous
 62
     1
100
AcDbEllipse
 10
-35.54860155778147
 20
10.74691849933421
 30
0.0
 11
-0.0607808270158121
 21
0.082218491576272
 31
0.0
210
0.0
220
0.0
230
0.9999999999999998
 40
0.9776260000034472
 41
-0.625811635167389
 42
-0.3486902261722637
  0
ELLIPSE
  5
73
330
2
100
AcDbEntity
  8
GAIKEI
  6
Continuous
 62
     1
100
AcDbEllipse
 10
1.228297490188538
 20
10.74691849933421
 30
0.0
 11
0.0607808270141988
 21
0.0822184915774339
 31
0.0
210
0.0
220
0.0
230
1.0
 40
0.9776260000029461
 41
0.3486902261527096
 42
0.6258116351479744
  0
ELLIPSE
  5
74
330
2
100
AcDbEntity
  8
GAIKEI
  6
Continuous
 62
     1
100
AcDbEllipse
 10
-35.54674169254486
 20
-9.878145672215367
 30
0.0
 11
0.0823124171870749
 21
0.0606728015078452
 31
0.0
210
0.0
220
0.0
230
1.0
 40
0.9775040000002562
 41
2.517225752813203
 42
2.792025070024934
  0
ELLIPSE
  5
75
330
2
100
AcDbEntity
  8
GAIKEI
  6
Continuous
 62
     1
100
AcDbEllipse
 10
-35.54674169254486
 20
10.74873716091012
 30
0.0
 11
-0.0823124171911972
 21
0.0606728015020962
 31
0.0
210
0.0
220
0.0
230
1.0
 40
0.9775039999983139
 41
0.3495675834948664
 42
0.6243669007078401
  0
ELLIPSE
  5
76
330
2
100
AcDbEntity
  8
GAIKEI
  6
Continuous
 62
     1
100
AcDbEllipse
 10
1.226437624951984
 20
10.74873716091012
 30
0.0
 11
0.0823124171885619
 21
0.0606728015057627
 31
0.0
210
0.0
220
0.0
230
1.0
 40
0.9775039999996579
 41
-0.6243669007516715
 42
-0.349567583539371
  0
ELLIPSE
  5
77
330
2
100
AcDbEntity
  8
GAIKEI
  6
Continuous
 62
     1
100
AcDbEllipse
 10
1.226437624951984
 20
-9.878145672215367
 30
0.0
 11
-0.0823124171856117
 21
0.0606728015098772
 31
0.0
210
0.0
220
0.0
230
0.9999999999999998
 40
0.9775040000007887
 41
3.491160237179388
 42
3.765959554391168
  0
ELLIPSE
  5
78
330
2
100
AcDbEntity
  8
GAIKEI
  6
Continuous
 62
     1
100
AcDbEllipse
 10
-37.22223798250815
 20
12.3973786650054
 30
0.0
 11
0.3230407423546598
 21
0.0305357091463026
 31
0.0
210
0.0
220
0.0
230
1.0
 40
0.0083089999813824
 41
1.192616585226102
 42
1.279026757979404
  0
ELLIPSE
  5
79
330
2
100
AcDbEntity
  8
GAIKEI
  6
Continuous
 62
     1
100
AcDbEllipse
 10
-37.22223798250815
 20
12.3973786650054
 30
0.0
 11
0.0305357090498701
 21
0.3230407412646187
 31
0.0
210
0.0
220
0.0
230
1.0
 40
0.0083090000057821
 41
1.862565896623444
 42
1.948976069703653
  0
ELLIPSE
  5
7A
330
2
100
AcDbEntity
  8
GAIKEI
  6
Continuous
 62
     1
100
AcDbEllipse
 10
-37.22223798250815
 20
-11.52678717631065
 30
0.0
 11
-0.030535709049866
 21
0.3230407412645781
 31
0.0
210
0.0
220
0.0
230
1.0
 40
0.0083090000057778
 41
1.192616583886016
 42
1.279026756966244
  0
ELLIPSE
  5
7B
330
2
100
AcDbEntity
  8
GAIKEI
  6
Continuous
 62
     1
100
AcDbEllipse
 10
-37.22223798250815
 20
-11.52678717631065
 30
0.0
 11
-0.3230407423546608
 21
0.0305357091463026
 31
0.0
210
0.0
220
0.0
230
1.0
 40
0.0083089999813824
 41
1.862565895610391
 42
1.948976068363679
  0
ELLIPSE
  5
7C
330
2
100
AcDbEntity
  8
GAIKEI
  6
Continuous
 62
     1
100
AcDbEllipse
 10
2.901933914915275
 20
12.3973786650054
 30
0.0
 11
-0.030535709066745
 21
0.3230407414557805
 31
0.0
210
0.0
220
0.0
230
1.0
 40
0.0083090000015408
 41
4.33420923771091
 42
4.420619410733783
  0
ELLIPSE
  5
7D
330
2
100
AcDbEntity
  8
GAIKEI
  6
Continuous
 62
     1
100
AcDbEllipse
 10
2.901933914915275
 20
12.3973786650054
 30
0.0
 11
-0.3230407423314023
 21
0.0305357091442352
 31
0.0
210
0.0
220
0.0
230
1.0
 40
0.0083089999819134
 41
-1.279026757957789
 42
-1.192616585197497
  0
ELLIPSE
  5
7E
330
2
100
AcDbEntity
  8
GAIKEI
  6
Continuous
 62
     1
100
AcDbEllipse
 10
2.901933914915275
 20
-11.52678717631065
 30
0.0
 11
0.3230407423313618
 21
0.0305357091442317
 31
0.0
210
0.0
220
0.0
230
1.0
 40
0.0083089999819143
 41
4.334209238787228
 42
4.420619411547537
  0
ELLIPSE
  5
7F
330
2
100
AcDbEntity
  8
GAIKEI
  6
Continuous
 62
     1
100
AcDbEllipse
 10
2.901933914915275
 20
-11.52678717631065
 30
0.0
 11
0.0305357090723699
 21
0.3230407415195017
 31
0.0
210
0.0
220
0.0
230
1.0
 40
0.0083090000001242
 41
-1.279026757203155
 42
-1.192616584199406
  0
ELLIPSE
  5
80
330
2
100
AcDbEntity
  8
GAIKEI
  6
Continuous
 62
     1
100
AcDbEllipse
 10
2.334106367238518
 20
-10.95895962863396
 30
0.0
 11
-0.3876090726745644
 21
0.3876090726745644
 31
0.0
210
0.0
220
0.0
230
1.0
 40
0.4561099999999687
 41
2.756538952252958
 42
3.526646354926537
  0
ELLIPSE
  5
81
330
2
100
AcDbEntity
  8
GAIKEI
  6
Continuous
 62
     1
100
AcDbEllipse
 10
-36.65441043483145
 20
-10.95895962863396
 30
0.0
 11
0.3876090726745644
 21
0.3876090726745644
 31
0.0
210
0.0
220
0.0
230
1.0
 40
0.4561099999999612
 41
2.756538952253047
 42
3.526646354926617
  0
ELLIPSE
  5
82
330
2
100
AcDbEntity
  8
GAIKEI
  6
Continuous
 62
     1
100
AcDbEllipse
 10
2.334106367238518
 20
11.82955111732873
 30
0.0
 11
0.3876090726745562
 21
0.3876090726745562
 31
0.0
210
0.0
220
0.0
230
1.0
 40
0.4561100000000421
 41
5.898131605842833
 42
6.668239008516371
  0
ELLIPSE
  5
83
330
2
100
AcDbEntity
  8
GAIKEI
  6
Continuous
 62
     1
100
AcDbEllipse
 10
-36.65441043483145
 20
11.82955111732873
 30
0.0
 11
-0.3876090726745502
 21
0.3876090726745502
 31
0.0
210
0.0
220
0.0
230
1.0
 40
0.4561100000000735
 41
-0.3850537013367683
 42
0.3850537013367188
  0
ARC
  5
84
330
2
100
AcDbEntity
  8
GAIKEI
  6
Continuous
 62
     1
100
AcDbCircle
 10
-37.19359853808521
 20
12.36873922058248
 30
0.0
 40
0.133345180160005
100
AcDbArc
 50
179.9215319999864
 51
180.0
  0
ARC
  5
85
330
2
100
AcDbEntity
  8
GAIKEI
  6
Continuous
 62
     1
100
AcDbCircle
 10
-37.19359853808521
 20
-11.49814773188772
 30
0.0
 40
0.133345180160005
100
AcDbArc
 50
180.0
 51
180.0784680000136
  0
ARC
  5
86
330
2
100
AcDbEntity
  8
GAIKEI
  6
Continuous
 62
     1
100
AcDbCircle
 10
2.873294470492282
 20
-11.49814773188772
 30
0.0
 40
0.133345180160005
100
AcDbArc
 50
359.9215319999864
 51
0.0
  0
ARC
  5
87
330
2
100
AcDbEntity
  8
GAIKEI
  6
Continuous
 62
     1
100
AcDbCircle
 10
2.873294470492282
 20
12.36873922058248
 30
0.0
 40
0.133345180160005
100
AcDbArc
 50
0.0
 51
0.0784680000136086
  0
ARC
  5
88
330
2
100
AcDbEntity
  8
GAIKEI
  6
Continuous
 62
     1
100
AcDbCircle
 10
2.873294470492282
 20
12.36873922058248
 30
0.0
 40
0.133345180160005
100
AcDbArc
 50
89.92153200000187
 51
90.0
  0
ARC
  5
89
330
2
100
AcDbEntity
  8
GAIKEI
  6
Continuous
 62
     1
100
AcDbCircle
 10
-37.19359853808521
 20
12.36873922058248
 30
0.0
 40
0.133345180160005
100
AcDbArc
 50
90.0
 51
90.07846799999811
  0
ARC
  5
8A
330
2
100
AcDbEntity
  8
GAIKEI
  6
Continuous
 62
     1
100
AcDbCircle
 10
-37.19359853808521
 20
-11.49814773188772
 30
0.0
 40
0.133345180160005
100
AcDbArc
 50
269.9215320000019
 51
270.0
  0
ARC
  5
8B
330
2
100
AcDbEntity
  8
GAIKEI
  6
Continuous
 62
     1
100
AcDbCircle
 10
2.873294470492282
 20
-11.49814773188772
 30
0.0
 40
0.133345180160005
100
AcDbArc
 50
270.0
 51
270.0784679999981
  0
ARC
  5
8C
330
2
100
AcDbEntity
  8
GAIKEI
  6
Continuous
 62
     7
100
AcDbCircle
 10
-37.19359853808521
 20
-11.49814773188772
 30
0.0
 40
0.133345180160005
100
AcDbArc
 50
180.0784680000136
 51
269.9215320000019
  0
ARC
  5
8D
330
2
100
AcDbEntity
  8
GAIKEI
  6
Continuous
 62
     7
100
AcDbCircle
 10
2.873294470492282
 20
-11.49814773188772
 30
0.0
 40
0.133345180160005
100
AcDbArc
 50
270.0784679999981
 51
359.9215319999864
  0
ARC
  5
8E
330
2
100
AcDbEntity
  8
GAIKEI
  6
Continuous
 62
     7
100
AcDbCircle
 10
-37.19359853808521
 20
12.36873922058248
 30
0.0
 40
0.133345180160005
100
AcDbArc
 50
90.07846799999811
 51
179.9215319999864
  0
ARC
  5
8F
330
2
100
AcDbEntity
  8
GAIKEI
  6
Continuous
 62
     7
100
AcDbCircle
 10
2.873294470492282
 20
12.36873922058248
 30
0.0
 40
0.133345180160005
100
AcDbArc
 50
0.0784680000136086
 51
89.92153200000187
  0
ARC
  5
90
330
2
100
AcDbEntity
  8
GAIKEI
  6
Continuous
 62
     1
100
AcDbCircle
 10
-35.55142304178469
 20
10.75156157850738
 30
0.0
 40
0.0655246547603001
100
AcDbArc
 50
105.7493539999931
 51
164.3805440000056
  0
ARC
  5
91
330
2
100
AcDbEntity
  8
GAIKEI
  6
Continuous
 62
     1
100
AcDbCircle
 10
1.231118974191872
 20
10.75156157850738
 30
0.0
 40
0.0655246547603001
100
AcDbArc
 50
15.61945599999437
 51
74.25064600000691
  0
ARC
  5
92
330
2
100
AcDbEntity
  8
GAIKEI
  6
Continuous
 62
     1
100
AcDbCircle
 10
-36.15350613283715
 20
-10.46138895614368
 30
0.0
 40
0.0666725900800025
100
AcDbArc
 50
180.0
 51
270.0
  0
ARC
  5
93
330
2
100
AcDbEntity
  8
GAIKEI
  6
Continuous
 62
     1
100
AcDbCircle
 10
1.833202065244279
 20
-10.46138895614368
 30
0.0
 40
0.0666725900800025
100
AcDbArc
 50
270.0
 51
0.0
  0
ARC
  5
94
330
2
100
AcDbEntity
  8
GAIKEI
  6
Continuous
 62
     1
100
AcDbCircle
 10
-36.15350613283715
 20
11.33198044483845
 30
0.0
 40
0.0666725900800025
100
AcDbArc
 50
90.0
 51
180.0
  0
ARC
  5
95
330
2
100
AcDbEntity
  8
GAIKEI
  6
Continuous
 62
     1
100
AcDbCircle
 10
1.833202065244279
 20
11.33198044483845
 30
0.0
 40
0.0666725900800025
100
AcDbArc
 50
0.0
 51
90.0
  0
ARC
  5
96
330
2
100
AcDbEntity
  8
GAIKEI
  6
Continuous
 62
     1
100
AcDbCircle
 10
-35.58512230240513
 20
-11.08311085863973
 30
0.0
 40
0.0166681475200006
100
AcDbArc
 50
90.0
 51
180.0
  0
ARC
  5
97
330
2
100
AcDbEntity
  8
GAIKEI
  6
Continuous
 62
     1
100
AcDbCircle
 10
-35.38510453216509
 20
-11.08311085863973
 30
0.0
 40
0.0166681475200006
100
AcDbArc
 50
0.0
 51
90.0
  0
ARC
  5
98
330
2
100
AcDbEntity
  8
GAIKEI
  6
Continuous
 62
     1
100
AcDbCircle
 10
-35.58512230240513
 20
-11.28312862887972
 30
0.0
 40
0.0166681475200006
100
AcDbArc
 50
180.0
 51
270.0
  0
ARC
  5
99
330
2
100
AcDbEntity
  8
GAIKEI
  6
Continuous
 62
     1
100
AcDbCircle
 10
-35.38510453216509
 20
-11.28312862887972
 30
0.0
 40
0.0166681475200006
100
AcDbArc
 50
270.0
 51
0.0
  0
ARC
  5
9A
330
2
100
AcDbEntity
  8
GAIKEI
  6
Continuous
 62
     1
100
AcDbCircle
 10
1.833202065244279
 20
11.33198044483845
 30
0.0
 40
0.1346545964928812
100
AcDbArc
 50
0.0
 51
90.0
  0
ARC
  5
9B
330
2
100
AcDbEntity
  8
GAIKEI
  6
Continuous
 62
     1
100
AcDbCircle
 10
1.833202065244279
 20
-10.46138895614368
 30
0.0
 40
0.1346545964928812
100
AcDbArc
 50
270.0
 51
0.0
  0
ARC
  5
9C
330
2
100
AcDbEntity
  8
GAIKEI
  6
Continuous
 62
     1
100
AcDbCircle
 10
-36.15350613283715
 20
11.33198044483845
 30
0.0
 40
0.1346545964928812
100
AcDbArc
 50
90.0
 51
180.0
  0
ARC
  5
9D
330
2
100
AcDbEntity
  8
GAIKEI
  6
Continuous
 62
     1
100
AcDbCircle
 10
-36.15350613283715
 20
-10.46138895614368
 30
0.0
 40
0.1346545964928812
100
AcDbArc
 50
180.0
 51
270.0
  0
LINE
  5
9E
330
2
100
AcDbEntity
  8
GAIKEI
  6
Continuous
 62
     7
100
AcDbLine
 10
-37.32694371824516
 20
12.36873922058248
 30
0.0
 11
-37.32694371824516
 21
-11.49814773188772
 31
0.0
  0
LINE
  5
9F
330
2
100
AcDbEntity
  8
GAIKEI
  6
Continuous
 62
     7
100
AcDbLine
 10
3.006639650652346
 20
12.36873922058248
 30
0.0
 11
3.006639650652346
 21
-11.49814773188772
 31
0.0
  0
LINE
  5
A0
330
2
100
AcDbEntity
  8
GAIKEI
  6
Continuous
 62
     7
100
AcDbLine
 10
-37.19359853808521
 20
12.50208440074249
 30
0.0
 11
2.873294470492282
 21
12.50208440074249
 31
0.0
  0
LINE
  5
A1
330
2
100
AcDbEntity
  8
GAIKEI
  6
Continuous
 62
     7
100
AcDbLine
 10
-37.19359853808521
 20
-11.63149291204773
 30
0.0
 11
2.873294470492282
 21
-11.63149291204773
 31
0.0
  0
LINE
  5
A2
330
2
100
AcDbEntity
  8
GAIKEI
  6
Continuous
 62
     1
100
AcDbLine
 10
-37.25942895334356
 20
-11.43081568321922
 30
0.0
 11
-37.32694358490005
 21
-11.49833034811196
 31
0.0
  0
LINE
  5
A3
330
2
100
AcDbEntity
  8
GAIKEI
  6
Continuous
 62
     1
100
AcDbLine
 10
-37.19378115430942
 20
-11.63149277870255
 30
0.0
 11
-37.12626648941671
 21
-11.56397814714613
 31
0.0
  0
LINE
  5
A4
330
2
100
AcDbEntity
  8
GAIKEI
  6
Continuous
 62
     1
100
AcDbLine
 10
-37.12626648941671
 20
12.43456963584089
 30
0.0
 11
-37.19378115430942
 21
12.50208426739732
 31
0.0
  0
LINE
  5
A5
330
2
100
AcDbEntity
  8
GAIKEI
  6
Continuous
 62
     1
100
AcDbLine
 10
-37.32694358490005
 20
12.36892183680672
 30
0.0
 11
-37.25942895334356
 21
12.30140717191401
 31
0.0
  0
LINE
  5
A6
330
2
100
AcDbEntity
  8
GAIKEI
  6
Continuous
 62
     1
100
AcDbLine
 10
2.805962421823835
 20
12.43456963584089
 30
0.0
 11
2.873477086716548
 21
12.50208426739732
 31
0.0
  0
LINE
  5
A7
330
2
100
AcDbEntity
  8
GAIKEI
  6
Continuous
 62
     1
100
AcDbLine
 10
3.006639517307121
 20
12.36892183680672
 30
0.0
 11
2.939124885750743
 21
12.30140717191401
 31
0.0
  0
LINE
  5
A8
330
2
100
AcDbEntity
  8
GAIKEI
  6
Continuous
 62
     1
100
AcDbLine
 10
-37.25938121576911
 20
12.27833828906483
 30
0.0
 11
-37.25938121576911
 21
-11.40774680037007
 31
0.0
  0
LINE
  5
A9
330
2
100
AcDbEntity
  8
GAIKEI
  6
Continuous
 62
     1
100
AcDbLine
 10
2.939077148176238
 20
12.27833828906483
 30
0.0
 11
2.939077148176238
 21
-11.40774680037007
 31
0.0
  0
LINE
  5
AA
330
2
100
AcDbEntity
  8
GAIKEI
  6
Continuous
 62
     1
100
AcDbLine
 10
2.78289353897469
 20
12.43452189826638
 30
0.0
 11
-37.10319760656751
 21
12.43452189826638
 31
0.0
  0
LINE
  5
AB
330
2
100
AcDbEntity
  8
GAIKEI
  6
Continuous
 62
     1
100
AcDbLine
 10
-37.10319760656751
 20
-11.56393040957162
 30
0.0
 11
2.78289353897469
 21
-11.56393040957162
 31
0.0
  0
LINE
  5
AC
330
2
100
AcDbEntity
  8
GAIKEI
  6
Continuous
 62
     1
100
AcDbLine
 10
1.230477250512308
 20
10.81709983447604
 30
0.0
 11
-35.55078131810524
 21
10.81709983447604
 31
0.0
  0
LINE
  5
AD
330
2
100
AcDbEntity
  8
GAIKEI
  6
Continuous
 62
     1
100
AcDbLine
 10
-35.55078131810524
 20
-9.946508345781282
 30
0.0
 11
1.230477250512308
 21
-9.946508345781282
 31
0.0
  0
LINE
  5
AE
330
2
100
AcDbEntity
  8
GAIKEI
  6
Continuous
 62
     1
100
AcDbLine
 10
-35.61695969761127
 20
10.750926988795
 30
0.0
 11
-35.61695969761127
 21
-9.88033550010023
 31
0.0
  0
LINE
  5
AF
330
2
100
AcDbEntity
  8
GAIKEI
  6
Continuous
 62
     1
100
AcDbLine
 10
1.296655630018335
 20
10.750926988795
 30
0.0
 11
1.296655630018335
 21
-9.88033550010023
 31
0.0
  0
LINE
  5
B0
330
2
100
AcDbEntity
  8
GAIKEI
  6
Continuous
 62
     1
100
AcDbLine
 10
1.230477250512308
 20
-9.977770223189835
 30
0.0
 11
-35.55078131810524
 21
-9.977770223189835
 31
0.0
  0
LINE
  5
B1
330
2
100
AcDbEntity
  8
GAIKEI
  6
Continuous
 62
     1
100
AcDbLine
 10
-35.55078131810524
 20
10.8483617118846
 30
0.0
 11
1.230477250512308
 21
10.8483617118846
 31
0.0
  0
LINE
  5
B2
330
2
100
AcDbEntity
  8
GAIKEI
  6
Continuous
 62
     1
100
AcDbLine
 10
-36.15350613283715
 20
11.39865303491844
 30
0.0
 11
1.833202065244279
 21
11.39865303491844
 31
0.0
  0
LINE
  5
B3
330
2
100
AcDbEntity
  8
GAIKEI
  6
Continuous
 62
     1
100
AcDbLine
 10
1.833202065244279
 20
-10.52806154622369
 30
0.0
 11
-36.15350613283715
 21
-10.52806154622369
 31
0.0
  0
LINE
  5
B4
330
2
100
AcDbEntity
  8
GAIKEI
  6
Continuous
 62
     1
100
AcDbLine
 10
-36.22017872291713
 20
-10.46138895614368
 30
0.0
 11
-36.22017872291713
 21
11.33198044483845
 31
0.0
  0
LINE
  5
B5
330
2
100
AcDbEntity
  8
GAIKEI
  6
Continuous
 62
     1
100
AcDbLine
 10
-35.64819493932009
 20
-9.88033550010023
 30
0.0
 11
-35.64819493932009
 21
10.750926988795
 31
0.0
  0
LINE
  5
B6
330
2
100
AcDbEntity
  8
GAIKEI
  6
Continuous
 62
     1
100
AcDbLine
 10
1.89987465532431
 20
-10.46138895614368
 30
0.0
 11
1.89987465532431
 21
11.33198044483845
 31
0.0
  0
LINE
  5
B7
330
2
100
AcDbEntity
  8
GAIKEI
  6
Continuous
 62
     1
100
AcDbLine
 10
1.327890871727163
 20
-9.88033550010023
 30
0.0
 11
1.327890871727163
 21
10.750926988795
 31
0.0
  0
LINE
  5
B8
330
2
100
AcDbEntity
  8
GAIKEI
  6
Continuous
 62
     1
100
AcDbLine
 10
-36.2145143863454
 20
-10.48605684772073
 30
0.0
 11
-35.64438836779834
 21
-9.907591888314541
 31
0.0
  0
LINE
  5
B9
330
2
100
AcDbEntity
  8
GAIKEI
  6
Continuous
 62
     1
100
AcDbLine
 10
-35.57826182623103
 20
-9.973899845999397
 30
0.0
 11
-36.12443492945732
 21
-10.52806154622369
 31
0.0
  0
LINE
  5
BA
330
2
100
AcDbEntity
  8
GAIKEI
  6
Continuous
 62
     1
100
AcDbLine
 10
1.894210318752584
 20
-10.48605684772073
 30
0.0
 11
1.324084300205413
 21
-9.907591888314541
 31
0.0
  0
LINE
  5
BB
330
2
100
AcDbEntity
  8
GAIKEI
  6
Continuous
 62
     1
100
AcDbLine
 10
1.257957758638212
 20
-9.973899845999397
 30
0.0
 11
1.80413086186445
 21
-10.52806154622369
 31
0.0
  0
LINE
  5
BC
330
2
100
AcDbEntity
  8
GAIKEI
  6
Continuous
 62
     1
100
AcDbLine
 10
-35.64438836779834
 20
10.77818337700931
 30
0.0
 11
-36.2145143863454
 21
11.35664833641549
 31
0.0
  0
LINE
  5
BD
330
2
100
AcDbEntity
  8
GAIKEI
  6
Continuous
 62
     1
100
AcDbLine
 10
-36.12361757743907
 20
11.39782372790675
 30
0.0
 11
-35.57826182623103
 21
10.84449133469417
 31
0.0
  0
LINE
  5
BE
330
2
100
AcDbEntity
  8
GAIKEI
  6
Continuous
 62
     1
100
AcDbLine
 10
1.80413086186445
 20
11.39865303491847
 30
0.0
 11
1.257957758638212
 21
10.84449133469417
 31
0.0
  0
LINE
  5
BF
330
2
100
AcDbEntity
  8
GAIKEI
  6
Continuous
 62
     1
100
AcDbLine
 10
1.324084300205413
 20
10.77818337700931
 30
0.0
 11
1.894210318752584
 21
11.35664833641549
 31
0.0
  0
LINE
  5
C0
330
2
100
AcDbEntity
  8
GAIKEI
  6
Continuous
 62
     1
100
AcDbLine
 10
-37.23600720581146
 20
-11.40774680037007
 30
0.0
 11
-37.23600720581146
 21
12.27833828906483
 31
0.0
  0
LINE
  5
C1
330
2
100
AcDbEntity
  8
GAIKEI
  6
Continuous
 62
     1
100
AcDbLine
 10
-37.10319760656751
 20
12.41114788830873
 30
0.0
 11
2.78289353897469
 21
12.41114788830873
 31
0.0
  0
LINE
  5
C2
330
2
100
AcDbEntity
  8
GAIKEI
  6
Continuous
 62
     1
100
AcDbLine
 10
2.915703138218532
 20
-11.40774680037007
 30
0.0
 11
2.915703138218532
 21
12.27833828906483
 31
0.0
  0
LINE
  5
C3
330
2
100
AcDbEntity
  8
GAIKEI
  6
Continuous
 62
     1
100
AcDbLine
 10
2.78289353897469
 20
-11.54055639961397
 30
0.0
 11
-37.10319760656751
 21
-11.54055639961397
 31
0.0
  0
LINE
  5
C4
330
2
100
AcDbEntity
  8
GAIKEI
  6
Continuous
 62
     1
100
AcDbLine
 10
-37.23600720581146
 20
12.27833828906483
 30
0.0
 11
-37.08004291609495
 21
12.12237399934837
 31
0.0
  0
LINE
  5
C5
330
2
100
AcDbEntity
  8
GAIKEI
  6
Continuous
 62
     1
100
AcDbLine
 10
-36.94723331685111
 20
12.25518359859227
 30
0.0
 11
-37.10319760656751
 21
12.41114788830873
 31
0.0
  0
LINE
  5
C6
330
2
100
AcDbEntity
  8
GAIKEI
  6
Continuous
 62
     1
100
AcDbLine
 10
-37.10319760656751
 20
-11.54055639961397
 30
0.0
 11
-36.94723331685111
 21
-11.3845921098975
 31
0.0
  0
LINE
  5
C7
330
2
100
AcDbEntity
  8
GAIKEI
  6
Continuous
 62
     1
100
AcDbLine
 10
-37.08004291609495
 20
-11.25178251065361
 30
0.0
 11
-37.23600720581146
 21
-11.40774680037007
 31
0.0
  0
LINE
  5
C8
330
2
100
AcDbEntity
  8
GAIKEI
  6
Continuous
 62
     1
100
AcDbLine
 10
2.915703138218532
 20
12.27833828906483
 30
0.0
 11
2.759738848502081
 21
12.12237399934837
 31
0.0
  0
LINE
  5
C9
330
2
100
AcDbEntity
  8
GAIKEI
  6
Continuous
 62
     1
100
AcDbLine
 10
2.626929249258182
 20
12.25518359859227
 30
0.0
 11
2.78289353897469
 21
12.41114788830873
 31
0.0
  0
LINE
  5
CA
330
2
100
AcDbEntity
  8
GAIKEI
  6
Continuous
 62
     1
100
AcDbLine
 10
2.78289353897469
 20
-11.54055639961397
 30
0.0
 11
2.626929249258182
 21
-11.3845921098975
 31
0.0
  0
LINE
  5
CB
330
2
100
AcDbEntity
  8
GAIKEI
  6
Continuous
 62
     1
100
AcDbLine
 10
2.759738848502081
 20
-11.25178251065361
 30
0.0
 11
2.915703138218532
 21
-11.40774680037007
 31
0.0
  0
LINE
  5
CC
330
2
100
AcDbEntity
  8
GAIKEI
  6
Continuous
 62
     1
100
AcDbLine
 10
-36.59187841261314
 20
-11.2197896683037
 30
0.0
 11
-36.66521826170117
 21
-11.2197896683037
 31
0.0
  0
LINE
  5
CD
330
2
100
AcDbEntity
  8
GAIKEI
  6
Continuous
 62
     1
100
AcDbLine
 10
-35.36843638464512
 20
-11.08311085863973
 30
0.0
 11
-35.36843638464512
 21
-11.28312862887972
 31
0.0
  0
LINE
  5
CE
330
2
100
AcDbEntity
  8
GAIKEI
  6
Continuous
 62
     1
100
AcDbLine
 10
-36.66521826170117
 20
-11.2197896683037
 30
0.0
 11
-36.66521826170117
 21
-11.1464498192157
 31
0.0
  0
LINE
  5
CF
330
2
100
AcDbEntity
  8
GAIKEI
  6
Continuous
 62
     1
100
AcDbLine
 10
-36.66521826170117
 20
-11.1464498192157
 30
0.0
 11
-36.59187841261314
 21
-11.1464498192157
 31
0.0
  0
LINE
  5
D0
330
2
100
AcDbEntity
  8
GAIKEI
  6
Continuous
 62
     1
100
AcDbLine
 10
-36.59187841261314
 20
-11.1464498192157
 30
0.0
 11
-36.59187841261314
 21
-11.2197896683037
 31
0.0
  0
LINE
  5
D1
330
2
100
AcDbEntity
  8
GAIKEI
  6
Continuous
 62
     1
100
AcDbLine
 10
-35.38510453216509
 20
-11.2997967763997
 30
0.0
 11
-35.58512230240513
 21
-11.2997967763997
 31
0.0
  0
LINE
  5
D2
330
2
100
AcDbEntity
  8
GAIKEI
  6
Continuous
 62
     1
100
AcDbLine
 10
-35.60179044992515
 20
-11.28312862887972
 30
0.0
 11
-35.60179044992515
 21
-11.08311085863973
 31
0.0
  0
LINE
  5
D3
330
2
100
AcDbEntity
  8
GAIKEI
  6
Continuous
 62
     1
100
AcDbLine
 10
-35.58512230240513
 20
-11.0664427111197
 30
0.0
 11
-35.38510453216509
 21
-11.0664427111197
 31
0.0
  0
LINE
  5
D4
330
2
100
AcDbEntity
  8
GAIKEI
  6
Continuous
 62
     1
100
AcDbLine
 10
1.833202065244279
 20
11.46663504133134
 30
0.0
 11
-36.15350613283715
 21
11.46663504133134
 31
0.0
  0
LINE
  5
D5
330
2
100
AcDbEntity
  8
GAIKEI
  6
Continuous
 62
     1
100
AcDbLine
 10
-36.15350613283715
 20
-10.59604355263657
 30
0.0
 11
1.833202065244279
 21
-10.59604355263657
 31
0.0
  0
LINE
  5
D6
330
2
100
AcDbEntity
  8
GAIKEI
  6
Continuous
 62
     1
100
AcDbLine
 10
1.967856661737187
 20
11.33198044483845
 30
0.0
 11
1.967856661737187
 21
-10.46138895614368
 31
0.0
  0
LINE
  5
D7
330
2
100
AcDbEntity
  8
GAIKEI
  6
Continuous
 62
     1
100
AcDbLine
 10
-36.28816072933001
 20
11.33198044483845
 30
0.0
 11
-36.28816072933001
 21
-10.46138895614368
 31
0.0
  0
LINE
  5
D8
330
2
100
AcDbEntity
  8
GAIKEI
  6
Continuous
 62
     1
100
AcDbLine
 10
-37.08004291609495
 20
12.12237399934837
 30
0.0
 11
-37.08004291609495
 21
-11.25178251065361
 31
0.0
  0
LINE
  5
D9
330
2
100
AcDbEntity
  8
GAIKEI
  6
Continuous
 62
     1
100
AcDbLine
 10
2.626929249258182
 20
12.25518359859227
 30
0.0
 11
-36.94723331685111
 21
12.25518359859227
 31
0.0
  0
LINE
  5
DA
330
2
100
AcDbEntity
  8
GAIKEI
  6
Continuous
 62
     1
100
AcDbLine
 10
2.759738848502081
 20
12.12237399934837
 30
0.0
 11
2.759738848502081
 21
-11.25178251065361
 31
0.0
  0
LINE
  5
DB
330
2
100
AcDbEntity
  8
GAIKEI
  6
Continuous
 62
     1
100
AcDbLine
 10
-36.94723331685111
 20
-11.3845921098975
 30
0.0
 11
2.626929249258182
 21
-11.3845921098975
 31
0.0
  0
SPLINE
  5
DC
330
2
100
AcDbEntity
  8
GAIKEI
  6
Continuous
 62
     1
100
AcDbSpline
210
0.0
220
0.0
230
1.0
 70
     8
 71
     3
 72
    21
 73
    17
 74
    15
 42
0.0000000001
 43
0.0000000001
 44
0.000001
 12
-0.0001490760298766
 22
-0.9999999888881687
 32
0.0
 13
0.9999997489039975
 23
0.0007086550233522
 33
0.0
 40
0.0
 40
0.0
 40
0.0
 40
0.0
 40
0.014680053168432
 40
0.0294098671610105
 40
0.0440944857460631
 40
0.058796181904658
 40
0.0735433082183632
 40
0.0882452749644736
 40
0.1031289863564681
 40
0.1180596885229621
 40
0.1329432357532096
 40
0.1478756372181189
 40
0.1628556352591549
 40
0.1777879301772406
 40
0.193447059982972
 40
0.2091023769872461
 40
0.2091023769872461
 40
0.2091023769872461
 40
0.2091023769872461
 10
-37.25942894026622
 20
-11.4308156988438
 30
0.0
 10
-37.25942966974757
 20
-11.43570904984557
 30
0.0
 10
-37.25889608012513
 20
-11.44552129244661
 30
0.0
 10
-37.2564775638792
 20
-11.46004751868739
 30
0.0
 10
-37.25248734480502
 20
-11.4742332921375
 30
0.0
 10
-37.24691330648268
 20
-11.48788084956715
 30
0.0
 10
-37.23988063074026
 20
-11.50084143862497
 30
0.0
 10
-37.23144018906583
 20
-11.51300883562254
 30
0.0
 10
-37.22163221346509
 20
-11.52418627505389
 30
0.0
 10
-37.21060811331592
 20
-11.53425329433338
 30
0.0
 10
-37.19852613713843
 20
-11.54305390549406
 30
0.0
 10
-37.18550101432839
 20
-11.55042076731926
 30
0.0
 10
-37.17172649670616
 20
-11.55630455286704
 30
0.0
 10
-37.15714842812139
 20
-11.56068944573502
 30
0.0
 10
-37.14193356826629
 20
-11.56337848729261
 30
0.0
 10
-37.13148494273236
 20
-11.56398183214175
 30
0.0
 10
-37.12626650504126
 20
-11.56397813406873
 30
0.0
 11
-37.25942894026622
 21
-11.4308156988438
 31
0.0
 11
-37.2586288140667
 21
-11.44547449655258
 31
0.0
 11
-37.25621328002115
 21
-11.46000491056654
 31
0.0
 11
-37.25222658330137
 21
-11.47413801917015
 31
0.0
 11
-37.24667768588995
 21
-11.48775236251019
 31
0.0
 11
-37.23964450644013
 21
-11.50071433655668
 31
0.0
 11
-37.23125682152931
 21
-11.51278890432573
 31
0.0
 11
-37.22144777341663
 21
-11.52398301441478
 31
0.0
 11
-37.21042241596638
 21
-11.53405118275286
 31
0.0
 11
-37.19838579201598
 21
-11.54280562868281
 31
0.0
 11
-37.18539330733859
 21
-11.55016582870637
 31
0.0
 11
-37.1716169605474
 21
-11.55604912852507
 31
0.0
 11
-37.15731525401435
 21
-11.56034276948288
 31
0.0
 11
-37.14189632608106
 21
-11.56307505835606
 31
0.0
 11
-37.12626650504126
 21
-11.56397813406873
 31
0.0
  0
SPLINE
  5
DD
330
2
100
AcDbEntity
  8
GAIKEI
  6
Continuous
 62
     1
100
AcDbSpline
210
0.0
220
0.0
230
1.0
 70
     8
 71
     3
 72
    21
 73
    17
 74
    15
 42
0.0000000001
 43
0.0000000001
 44
0.000001
 12
0.0001490760298765
 22
-0.9999999888881687
 32
0.0
 13
-0.9999997489039975
 23
0.000708655023352
 33
0.0
 40
0.0
 40
0.0
 40
0.0
 40
0.0
 40
0.0146800531684347
 40
0.0294098671610138
 40
0.0440944857460664
 40
0.0587961819046439
 40
0.073543308218344
 40
0.0882452749644524
 40
0.1031289863564492
 40
0.1180596885229878
 40
0.1329432357531922
 40
0.1478756372181015
 40
0.1628556352591375
 40
0.1777879301772742
 40
0.1934470599830056
 40
0.209102376987223
 40
0.209102376987223
 40
0.209102376987223
 40
0.209102376987223
 10
2.939124872673346
 20
-11.4308156988438
 30
0.0
 10
2.939125602154689
 20
-11.43570904984557
 30
0.0
 10
2.938592012532183
 20
-11.44552129244661
 30
0.0
 10
2.936173496286272
 20
-11.46004751868741
 30
0.0
 10
2.932183277212075
 20
-11.47423329213747
 30
0.0
 10
2.926609238889824
 20
-11.48788084956717
 30
0.0
 10
2.919576563147387
 20
-11.500841438625
 30
0.0
 10
2.911136121472964
 20
-11.51300883562254
 30
0.0
 10
2.901328145872213
 20
-11.52418627505392
 30
0.0
 10
2.890304045722984
 20
-11.53425329433331
 30
0.0
 10
2.878222069545586
 20
-11.54305390549407
 30
0.0
 10
2.865196946735494
 20
-11.55042076731925
 30
0.0
 10
2.851422429113256
 20
-11.55630455286707
 30
0.0
 10
2.836844360528459
 20
-11.56068944573499
 30
0.0
 10
2.821629500673395
 20
-11.56337848729261
 30
0.0
 10
2.811180875139456
 20
-11.56398183214175
 30
0.0
 10
2.805962437448386
 20
-11.56397813406873
 30
0.0
 11
2.939124872673346
 21
-11.4308156988438
 31
0.0
 11
2.938324746473767
 21
-11.44547449655258
 31
0.0
 11
2.935909212428214
 21
-11.46000491056654
 31
0.0
 11
2.931922515708436
 21
-11.47413801917015
 31
0.0
 11
2.926373618297077
 21
-11.48775236251019
 31
0.0
 11
2.919340438847257
 21
-11.50071433655668
 31
0.0
 11
2.910952753936442
 21
-11.51278890432573
 31
0.0
 11
2.901143705823756
 21
-11.52398301441478
 31
0.0
 11
2.890118348373448
 21
-11.53405118275286
 31
0.0
 11
2.878081724423111
 21
-11.54280562868281
 31
0.0
 11
2.865089239745714
 21
-11.55016582870637
 31
0.0
 11
2.851312892954524
 21
-11.55604912852507
 31
0.0
 11
2.83701118642142
 21
-11.56034276948288
 31
0.0
 11
2.821592258488124
 21
-11.56307505835606
 31
0.0
 11
2.805962437448386
 21
-11.56397813406873
 31
0.0
  0
SPLINE
  5
DE
330
2
100
AcDbEntity
  8
GAIKEI
  6
Continuous
 62
     1
100
AcDbSpline
210
0.0
220
0.0
230
1.0
 70
     8
 71
     3
 72
    21
 73
    17
 74
    15
 42
0.0000000001
 43
0.0000000001
 44
0.000001
 12
-0.9999999888881687
 22
0.0001490760296198
 32
0.0
 13
0.0007086550231108
 23
-0.9999997489039976
 33
0.0
 40
0.0
 40
0.0
 40
0.0
 40
0.0
 40
0.0146800531684722
 40
0.0294098671610641
 40
0.0440944857461269
 40
0.0587961819046802
 40
0.0735433082183595
 40
0.0882452749644984
 40
0.1031289863564979
 40
0.1180596885229993
 40
0.1329432357531985
 40
0.1478756372181184
 40
0.1628556352591758
 40
0.1777879301773009
 40
0.193447059983019
 40
0.2091023769872489
 40
0.2091023769872489
 40
0.2091023769872489
 40
0.2091023769872489
 10
-37.12626650504126
 20
12.4345696227635
 30
0.0
 10
-37.13115985604304
 20
12.43457035224485
 30
0.0
 10
-37.1409720986441
 20
12.43403676262237
 30
0.0
 10
-37.15549832488492
 20
12.43161824637644
 30
0.0
 10
-37.16968409833498
 20
12.42762802730223
 30
0.0
 10
-37.18333165576466
 20
12.42205398897999
 30
0.0
 10
-37.19629224482243
 20
12.41502131323747
 30
0.0
 10
-37.20845964182005
 20
12.40658087156319
 30
0.0
 10
-37.21963708125136
 20
12.3967728959623
 30
0.0
 10
-37.22970410053085
 20
12.38574879581321
 30
0.0
 10
-37.23850471169155
 20
12.3736668196357
 30
0.0
 10
-37.24587157351673
 20
12.36064169682571
 30
0.0
 10
-37.25175535906457
 20
12.34686717920343
 30
0.0
 10
-37.25614025193249
 20
12.33228911061866
 30
0.0
 10
-37.25882929349014
 20
12.31707425076354
 30
0.0
 10
-37.25943263833924
 20
12.30662562522964
 30
0.0
 10
-37.25942894026622
 20
12.30140718753856
 30
0.0
 11
-37.12626650504126
 21
12.4345696227635
 31
0.0
 11
-37.14092530275008
 21
12.43376949656395
 31
0.0
 11
-37.15545571676404
 21
12.43135396251838
 31
0.0
 11
-37.16958882536767
 21
12.42736726579861
 31
0.0
 11
-37.18320316870768
 21
12.42181836838723
 31
0.0
 11
-37.19616514275413
 21
12.41478518893738
 31
0.0
 11
-37.20823971052323
 21
12.4063975040266
 31
0.0
 11
-37.21943382061227
 21
12.39658845591388
 31
0.0
 11
-37.22950198895035
 21
12.38556309846363
 31
0.0
 11
-37.23825643488027
 21
12.37352647451328
 31
0.0
 11
-37.24561663490386
 21
12.36053398983588
 31
0.0
 11
-37.25149993472257
 21
12.34675764304468
 31
0.0
 11
-37.2557935756804
 21
12.33245593651159
 31
0.0
 11
-37.25852586455358
 21
12.31703700857831
 31
0.0
 11
-37.25942894026622
 21
12.30140718753856
 31
0.0
  0
SPLINE
  5
DF
330
2
100
AcDbEntity
  8
GAIKEI
  6
Continuous
 62
     1
100
AcDbSpline
210
0.0
220
0.0
230
1.0
 70
     8
 71
     3
 72
    21
 73
    17
 74
    15
 42
0.0000000001
 43
0.0000000001
 44
0.000001
 12
0.9999999888881687
 22
0.00014907602962
 32
0.0
 13
-0.0007086550231109
 23
-0.9999997489039976
 33
0.0
 40
0.0
 40
0.0
 40
0.0
 40
0.0
 40
0.0146800531684757
 40
0.0294098671610571
 40
0.0440944857460687
 40
0.0587961819046252
 40
0.0735433082183514
 40
0.0882452749644436
 40
0.1031289863564484
 40
0.1180596885229451
 40
0.1329432357531777
 40
0.147875637218073
 40
0.1628556352591276
 40
0.1777879301772548
 40
0.1934470599829722
 40
0.2091023769872054
 40
0.2091023769872054
 40
0.2091023769872054
 40
0.2091023769872054
 10
2.805962437448386
 20
12.4345696227635
 30
0.0
 10
2.810855788450169
 20
12.43457035224485
 30
0.0
 10
2.820668031051241
 20
12.4340367626224
 30
0.0
 10
2.83519425729203
 20
12.43161824637647
 30
0.0
 10
2.849380030742054
 20
12.42762802730223
 30
0.0
 10
2.863027588171718
 20
12.42205398897995
 30
0.0
 10
2.875988177229558
 20
12.41502131323754
 30
0.0
 10
2.888155574227113
 20
12.40658087156313
 30
0.0
 10
2.899333013658434
 20
12.39677289596236
 30
0.0
 10
2.909400032937924
 20
12.38574879581316
 30
0.0
 10
2.918200644098675
 20
12.37366681963576
 30
0.0
 10
2.925567505923808
 20
12.36064169682569
 30
0.0
 10
2.931451291471617
 20
12.3468671792034
 30
0.0
 10
2.935836184339578
 20
12.33228911061863
 30
0.0
 10
2.93852522589718
 20
12.31707425076355
 30
0.0
 10
2.939128570746362
 20
12.30662562522964
 30
0.0
 10
2.939124872673346
 20
12.30140718753856
 30
0.0
 11
2.805962437448386
 21
12.4345696227635
 31
0.0
 11
2.820621235157204
 21
12.43376949656395
 31
0.0
 11
2.835151649171166
 21
12.43135396251838
 31
0.0
 11
2.849284757774739
 21
12.42736726579861
 31
0.0
 11
2.862899101114749
 21
12.42181836838723
 31
0.0
 11
2.875861075161253
 21
12.41478518893738
 31
0.0
 11
2.887935642930301
 21
12.4063975040266
 31
0.0
 11
2.899129753019337
 21
12.39658845591388
 31
0.0
 11
2.909197921357417
 21
12.38556309846363
 31
0.0
 11
2.917952367287398
 21
12.37352647451328
 31
0.0
 11
2.925312567310925
 21
12.36053398983588
 31
0.0
 11
2.931195867129645
 21
12.34675764304468
 31
0.0
 11
2.935489508087471
 21
12.33245593651159
 31
0.0
 11
2.938221796960647
 21
12.31703700857831
 31
0.0
 11
2.939124872673346
 21
12.30140718753856
 31
0.0
  0
SPLINE
  5
E0
330
2
100
AcDbEntity
  8
GAIKEI
  6
Continuous
 62
     1
100
AcDbSpline
210
0.0
220
0.0
230
1.0
 70
     8
 71
     3
 72
    14
 73
    10
 74
     8
 42
0.0000000001
 43
0.0000000001
 44
0.000001
 12
0.2697836156325394
 22
-0.962920973255975
 32
0.0
 13
0.9616843088117285
 23
-0.2741592423853476
 33
0.0
 40
0.0
 40
0.0
 40
0.0
 40
0.0
 40
0.0000378405968295
 40
0.0111891984537408
 40
0.0223415869632536
 40
0.0334914632169789
 40
0.0446413298613378
 40
0.0558040986429921
 40
0.0669660519622309
 40
0.0669660519622309
 40
0.0669660519622309
 40
0.0669660519622309
 10
-35.61452796637946
 20
-9.898612405929583
 30
0.0
 10
-35.61452456345512
 20
-9.898624551764356
 30
0.0
 10
-35.6135171892368
 20
-9.902215654804791
 30
0.0
 10
-35.6108768398691
 20
-9.909223395129501
 30
0.0
 10
-35.60524506346329
 20
-9.918908015402209
 30
0.0
 10
-35.59801851600289
 20
-9.927472023746247
 30
0.0
 10
-35.58946608248803
 20
-9.934716522049882
 30
0.0
 10
-35.57978734604738
 20
-9.940374928148713
 30
0.0
 10
-35.5727864809742
 20
-9.943014795219184
 30
0.0
 10
-35.5692083891866
 20
-9.944034846107697
 30
0.0
 11
-35.61452796637946
 21
-9.898612405929583
 31
0.0
 11
-35.61451774696411
 21
-9.898648840812896
 31
0.0
 11
-35.61059790843848
 21
-9.909089087110686
 31
0.0
 11
-35.60497942195082
 21
-9.918722722195113
 31
0.0
 11
-35.59779866838574
 21
-9.92725248578445
 31
0.0
 11
-35.58928308676758
 21
-9.934450044909667
 31
0.0
 11
-35.57965127641472
 21
-9.940092336933574
 31
0.0
 11
-35.5692083891866
 21
-9.944034846107697
 31
0.0
  0
SPLINE
  5
E1
330
2
100
AcDbEntity
  8
GAIKEI
  6
Continuous
 62
     1
100
AcDbSpline
210
0.0
220
0.0
230
1.0
 70
     8
 71
     3
 72
    14
 73
    10
 74
     8
 42
0.0000000001
 43
0.0000000001
 44
0.000001
 12
-0.2697836156325397
 22
-0.962920973255975
 32
0.0
 13
-0.9616843088117285
 23
-0.2741592423853476
 33
0.0
 40
0.0
 40
0.0
 40
0.0
 40
0.0
 40
0.0000378405968451
 40
0.0111891984537606
 40
0.0223415869632412
 40
0.0334914632170077
 40
0.0446413298613204
 40
0.0558040986429778
 40
0.0669660519622166
 40
0.0669660519622166
 40
0.0669660519622166
 40
0.0669660519622166
 10
1.294223898786583
 20
-9.898612405929583
 30
0.0
 10
1.294220495862234
 20
-9.89862455176437
 30
0.0
 10
1.29321312164464
 20
-9.90221565480202
 30
0.0
 10
1.290572772275794
 20
-9.909223395130737
 30
0.0
 10
1.284940995870556
 20
-9.918908015401896
 30
0.0
 10
1.277714448409923
 20
-9.927472023746304
 30
0.0
 10
1.269162014895172
 20
-9.934716522049882
 30
0.0
 10
1.259483278454496
 20
-9.940374928148727
 30
0.0
 10
1.252482413381329
 20
-9.943014795219184
 30
0.0
 10
1.248904321593727
 20
-9.944034846107697
 30
0.0
 11
1.294223898786583
 21
-9.898612405929583
 31
0.0
 11
1.294213679371182
 21
-9.898648840812896
 31
0.0
 11
1.290293840845549
 21
-9.909089087110686
 31
0.0
 11
1.284675354357943
 21
-9.918722722195113
 31
0.0
 11
1.277494600792806
 21
-9.92725248578445
 31
0.0
 11
1.268979019174707
 21
-9.934450044909667
 31
0.0
 11
1.25934720882185
 21
-9.940092336933574
 31
0.0
 11
1.248904321593727
 21
-9.944034846107697
 31
0.0
  0
SPLINE
  5
E2
330
2
100
AcDbEntity
  8
GAIKEI
  6
Continuous
 62
     1
100
AcDbSpline
210
0.0
220
0.0
230
1.0
 70
     8
 71
     3
 72
    19
 73
    15
 74
    13
 42
0.0000000001
 43
0.0000000001
 44
0.000001
 12
-0.963993839467831
 22
0.2659245710122877
 32
0.0
 13
-0.26346002757732
 23
0.9646703135625962
 33
0.0
 40
0.0
 40
0.0
 40
0.0
 40
0.0
 40
0.0080455644807151
 40
0.0160915728627779
 40
0.0243810347114967
 40
0.0326706179663752
 40
0.0406926484298825
 40
0.0487147353963364
 40
0.0569835490402688
 40
0.0652522942794414
 40
0.073306220283691
 40
0.0813600285366981
 40
0.0896585537562491
 40
0.0979566571399414
 40
0.0979566571399414
 40
0.0979566571399414
 40
0.0979566571399414
 10
-35.57826181662688
 20
-9.97389985367036
 30
0.0
 10
-35.58084710815837
 20
-9.973186682575999
 30
0.0
 10
-35.58596016319917
 20
-9.971541266074154
 30
0.0
 10
-35.59346957335152
 20
-9.968409698398062
 30
0.0
 10
-35.60075310995055
 20
-9.964601478359895
 30
0.0
 10
-35.60767021227525
 20
-9.960177309436332
 30
0.0
 10
-35.61410475927843
 20
-9.955222713935341
 30
0.0
 10
-35.62009107349729
 20
-9.949745197060011
 30
0.0
 10
-35.62563351195649
 20
-9.943705751192368
 30
0.0
 10
-35.63063370382203
 20
-9.937196872357844
 30
0.0
 10
-35.6350092050602
 20
-9.930338420907091
 30
0.0
 10
-35.63879301060902
 20
-9.923125284592344
 30
0.0
 10
-35.64196926728788
 20
-9.915536366327543
 30
0.0
 10
-35.64365964208369
 20
-9.910260210680903
 30
0.0
 10
-35.64438838159913
 20
-9.907591899349867
 30
0.0
 11
-35.57826181662688
 21
-9.97389985367036
 31
0.0
 11
-35.58592147843103
 21
-9.97143671262431
 31
0.0
 11
-35.59334679443669
 21
-9.968337873104715
 31
0.0
 11
-35.60069319831121
 21
-9.964497846448736
 31
0.0
 11
-35.60767559226611
 21
-9.96002977288245
 31
0.0
 11
-35.61403239782226
 21
-9.955136479158724
 31
0.0
 11
-35.61994986777836
 21
-9.949720044632755
 31
0.0
 11
-35.62554187897274
 21
-9.943628817074127
 31
0.0
 11
-35.63057828939196
 21
-9.93707083909571
 31
0.0
 11
-35.63491146668673
 21
-9.930281907820258
 31
0.0
 11
-35.63865197651296
 21
-9.923149401305323
 31
0.0
 11
-35.64185803834056
 21
-9.915495215774839
 31
0.0
 11
-35.64438838159913
 21
-9.907591899349867
 31
0.0
  0
SPLINE
  5
E3
330
2
100
AcDbEntity
  8
GAIKEI
  6
Continuous
 62
     1
100
AcDbSpline
210
0.0
220
0.0
230
1.0
 70
     8
 71
     3
 72
    19
 73
    15
 74
    13
 42
0.0000000001
 43
0.0000000001
 44
0.000001
 12
0.9639938394678312
 22
0.2659245710122878
 32
0.0
 13
0.26346002757732
 23
0.9646703135625962
 33
0.0
 40
0.0
 40
0.0
 40
0.0
 40
0.0
 40
0.008045564480776
 40
0.0160915728627764
 40
0.0243810347114921
 40
0.0326706179664245
 40
0.0406926484298868
 40
0.0487147353963459
 40
0.0569835490402735
 40
0.0652522942794807
 40
0.0733062202836979
 40
0.0813600285367347
 40
0.0896585537562842
 40
0.0979566571399766
 40
0.0979566571399766
 40
0.0979566571399766
 40
0.0979566571399766
 10
1.257957749033948
 20
-9.97389985367036
 30
0.0
 10
1.260543040565451
 20
-9.973186682575999
 30
0.0
 10
1.265656095606274
 20
-9.971541266074183
 30
0.0
 10
1.273165505758598
 20
-9.968409698398033
 30
0.0
 10
1.280449042357588
 20
-9.964601478359881
 30
0.0
 10
1.287366144682366
 20
-9.960177309436375
 30
0.0
 10
1.29380069168549
 20
-9.955222713935327
 30
0.0
 10
1.299787005904363
 20
-9.949745197060011
 30
0.0
 10
1.305329444363565
 20
-9.943705751192354
 30
0.0
 10
1.310329636229155
 20
-9.937196872357873
 30
0.0
 10
1.314705137467257
 20
-9.930338420907048
 30
0.0
 10
1.318488943016163
 20
-9.923125284592359
 30
0.0
 10
1.32166519969499
 20
-9.915536366327557
 30
0.0
 10
1.323355574490818
 20
-9.910260210680903
 30
0.0
 10
1.324084314006256
 20
-9.907591899349867
 30
0.0
 11
1.257957749033948
 21
-9.97389985367036
 31
0.0
 11
1.26561741083816
 21
-9.97143671262431
 31
0.0
 11
1.273042726843755
 21
-9.968337873104715
 31
0.0
 11
1.280389130718276
 21
-9.964497846448736
 31
0.0
 11
1.287371524673233
 21
-9.96002977288245
 31
0.0
 11
1.293728330229328
 21
-9.955136479158724
 31
0.0
 11
1.29964580018543
 21
-9.949720044632755
 31
0.0
 11
1.305237811379811
 21
-9.943628817074127
 31
0.0
 11
1.31027422179909
 21
-9.93707083909571
 31
0.0
 11
1.314607399093802
 21
-9.930281907820258
 31
0.0
 11
1.318347908920088
 21
-9.923149401305323
 31
0.0
 11
1.321553970747686
 21
-9.915495215774839
 31
0.0
 11
1.324084314006256
 21
-9.907591899349867
 31
0.0
  0
SPLINE
  5
E4
330
2
100
AcDbEntity
  8
GAIKEI
  6
Continuous
 62
     1
100
AcDbSpline
210
0.0
220
0.0
230
1.0
 70
     8
 71
     3
 72
    19
 73
    15
 74
    13
 42
0.0000000001
 43
0.0000000001
 44
0.000001
 12
0.2634414923284027
 22
0.9646753755122933
 32
0.0
 13
0.9639886149825482
 23
0.2659435093850355
 33
0.0
 40
0.0
 40
0.0
 40
0.0
 40
0.0
 40
0.0080469836170792
 40
0.0160943919464827
 40
0.0243850109521374
 40
0.0326757504935962
 40
0.0406967337973865
 40
0.048717784960258
 40
0.0569854589412264
 40
0.0652530764933936
 40
0.0733066642993758
 40
0.081360133966394
 40
0.089658616375721
 40
0.0979566568646434
 40
0.0979566568646434
 40
0.0979566568646434
 40
0.0979566568646434
 10
-35.64438838159913
 20
10.77818338804471
 30
0.0
 10
-35.64368174514152
 20
10.78077096369222
 30
0.0
 10
-35.64204934234428
 20
10.78588916577931
 30
0.0
 10
-35.63893723028622
 20
10.79340808398021
 30
0.0
 10
-35.6351481139423
 20
10.80070296344966
 30
0.0
 10
-35.63074261688289
 20
10.80763246742634
 30
0.0
 10
-35.62580597751874
 20
10.81408040135532
 30
0.0
 10
-35.62034586596103
 20
10.82008113569284
 30
0.0
 10
-35.61432274511989
 20
10.82563968310991
 30
0.0
 10
-35.60782854245466
 20
10.83065750299756
 30
0.0
 10
-35.60098274562907
 20
10.83505167601302
 30
0.0
 10
-35.59378018506636
 20
10.83885508130657
 30
0.0
 10
-35.58619993121479
 20
10.84205161871112
 30
0.0
 10
-35.58092822214621
 20
10.84375573902891
 30
0.0
 10
-35.57826181662688
 20
10.84449134236511
 30
0.0
 11
-35.64438838159913
 21
10.77818338804471
 31
0.0
 11
-35.64194474130125
 21
10.78585077889163
 31
0.0
 11
-35.63886508076985
 21
10.79328558497299
 31
0.0
 11
-35.63504434431849
 21
10.80064334357624
 31
0.0
 11
-35.63059470863652
 21
10.8076388721781
 31
0.0
 11
-35.62571958462172
 21
10.81400830433937
 31
0.0
 11
-35.62032032128059
 21
10.81994004535356
 31
0.0
 11
-35.61424556986094
 21
10.82554827068178
 31
0.0
 11
-35.60770256278323
 21
10.83060227067764
 31
0.0
 11
-35.60092594333253
 21
10.8349540513465
 31
0.0
 11
-35.59380398136801
 21
10.83871387431101
 31
0.0
 11
-35.58615844770469
 21
10.84194040448399
 31
0.0
 11
-35.57826181662688
 21
10.84449134236511
 31
0.0
  0
SPLINE
  5
E5
330
2
100
AcDbEntity
  8
GAIKEI
  6
Continuous
 62
     1
100
AcDbSpline
210
0.0
220
0.0
230
1.0
 70
     8
 71
     3
 72
    19
 73
    15
 74
    13
 42
0.0000000001
 43
0.0000000001
 44
0.000001
 12
-0.2634414923284028
 22
0.9646753755122933
 32
0.0
 13
-0.9639886149825482
 23
0.2659435093850356
 33
0.0
 40
0.0
 40
0.0
 40
0.0
 40
0.0
 40
0.008046983617062
 40
0.0160943919464668
 40
0.0243850109521231
 40
0.0326757504935762
 40
0.0406967337973687
 40
0.0487177849602402
 40
0.056985458941206
 40
0.0652530764933704
 40
0.0733066642993586
 40
0.0813601339663799
 40
0.0896586163757004
 40
0.0979566568646801
 40
0.0979566568646801
 40
0.0979566568646801
 40
0.0979566568646801
 10
1.324084314006199
 20
10.77818338804471
 30
0.0
 10
1.323377677548592
 20
10.78077096369222
 30
0.0
 10
1.321745274751435
 20
10.78588916577934
 30
0.0
 10
1.318633162693316
 20
10.79340808398021
 30
0.0
 10
1.314844046349449
 20
10.80070296344968
 30
0.0
 10
1.310438549290012
 20
10.80763246742637
 30
0.0
 10
1.305501909925865
 20
10.81408040135528
 30
0.0
 10
1.300041798368155
 20
10.82008113569287
 30
0.0
 10
1.29401867752702
 20
10.82563968310989
 30
0.0
 10
1.287524474861783
 20
10.83065750299761
 30
0.0
 10
1.280678678036196
 20
10.83505167601301
 30
0.0
 10
1.273476117473478
 20
10.83885508130656
 30
0.0
 10
1.265895863621921
 20
10.84205161871112
 30
0.0
 10
1.260624154553298
 20
10.84375573902889
 30
0.0
 10
1.257957749033948
 20
10.84449134236511
 30
0.0
 11
1.324084314006199
 21
10.77818338804471
 31
0.0
 11
1.321640673708373
 21
10.78585077889163
 31
0.0
 11
1.318561013176974
 21
10.79328558497299
 31
0.0
 11
1.314740276725615
 21
10.80064334357624
 31
0.0
 11
1.31029064104365
 21
10.8076388721781
 31
0.0
 11
1.305415517028848
 21
10.81400830433937
 31
0.0
 11
1.300016253687715
 21
10.81994004535356
 31
0.0
 11
1.293941502268069
 21
10.82554827068178
 31
0.0
 11
1.287398495190359
 21
10.83060227067764
 31
0.0
 11
1.280621875739655
 21
10.8349540513465
 31
0.0
 11
1.27349991377514
 21
10.83871387431101
 31
0.0
 11
1.265854380111818
 21
10.84194040448399
 31
0.0
 11
1.257957749033948
 21
10.84449134236511
 31
0.0
  0
SPLINE
  5
E6
330
2
100
AcDbEntity
  8
GAIKEI
  6
Continuous
 62
     1
100
AcDbSpline
210
0.0
220
0.0
230
1.0
 70
     8
 71
     3
 72
    19
 73
    15
 74
    13
 42
0.0000000001
 43
0.0000000001
 44
0.000001
 12
0.0944471245025448
 22
0.9955298793472755
 32
0.0
 13
0.9955257326591484
 23
0.0944908229060694
 33
0.0
 40
0.0
 40
0.0
 40
0.0
 40
0.0
 40
0.0114746607580132
 40
0.0229538204373807
 40
0.0343591230295883
 40
0.045793662985645
 40
0.0572035280088663
 40
0.0746287115525683
 40
0.0920556101582375
 40
0.1090656328910547
 40
0.1260693628544471
 40
0.1369222365398854
 40
0.1478018299471758
 40
0.1586464376139667
 40
0.1586464376139667
 40
0.1586464376139667
 40
0.1586464376139667
 10
-37.23359228076203
 20
12.30469981073979
 30
0.0
 10
-37.23323103119095
 20
12.30850759995312
 30
0.0
 10
-37.23209377520559
 20
12.3160927467113
 30
0.0
 10
-37.2291347778631
 20
12.32717947415088
 30
0.0
 10
-37.22504183910259
 20
12.33788284596872
 30
0.0
 10
-37.21992185359488
 20
12.34810727668476
 30
0.0
 10
-37.21278770079016
 20
12.35949948239742
 30
0.0
 10
-37.20307542677024
 20
12.37154665757791
 30
0.0
 10
-37.19043195392014
 20
12.38341792996533
 30
0.0
 10
-37.17637173769249
 20
12.39332601865746
 30
0.0
 10
-37.16301518995557
 20
12.40017825290785
 30
0.0
 10
-37.15087079965576
 20
12.40461890956473
 30
0.0
 10
-37.14033795347694
 20
12.40733591956302
 30
0.0
 10
-37.1331578235735
 20
12.40839139129177
 30
0.0
 10
-37.12955912824253
 20
12.40873296325928
 30
0.0
 11
-37.23359228076203
 21
12.30469981073979
 31
0.0
 11
-37.2318845388981
 21
12.3160475706567
 31
0.0
 11
-37.22893766099986
 21
12.32714215469555
 31
0.0
 11
-37.22487312438762
 21
12.33779867772428
 31
0.0
 11
-37.21975976778578
 21
12.34802619871696
 31
0.0
 11
-37.21370548704579
 21
12.35769722980532
 31
0.0
 11
-37.20278146220517
 21
12.37127249508087
 31
0.0
 11
-37.19007078872607
 21
12.38319358919686
 31
0.0
 11
-37.17616374935517
 21
12.39298790129608
 31
0.0
 11
-37.1610209080244
 21
12.40072233890734
 31
0.0
 11
-37.15082703129247
 21
12.40444661558713
 31
0.0
 11
-37.14028840366774
 21
12.40714944898164
 31
0.0
 11
-37.12955912824253
 21
12.40873296325928
 31
0.0
  0
SPLINE
  5
E7
330
2
100
AcDbEntity
  8
GAIKEI
  6
Continuous
 62
     1
100
AcDbSpline
210
0.0
220
0.0
230
1.0
 70
     8
 71
     3
 72
    19
 73
    15
 74
    13
 42
0.0000000001
 43
0.0000000001
 44
0.000001
 12
-0.995529879347374
 22
0.0944471245015059
 32
0.0
 13
-0.0944908229060039
 23
0.9955257326591544
 33
0.0
 40
0.0
 40
0.0
 40
0.0
 40
0.0
 40
0.0114746607579749
 40
0.0229538204373533
 40
0.0343591230295607
 40
0.045793662985646
 40
0.0572035280088812
 40
0.0746287115525527
 40
0.0920556101581925
 40
0.1090656328910203
 40
0.1260693628544401
 40
0.1369222365398112
 40
0.1478018299471377
 40
0.1586464376139478
 40
0.1586464376139478
 40
0.1586464376139478
 40
0.1586464376139478
 10
-37.12955912824253
 20
-11.53814147456451
 30
0.0
 10
-37.13336691745585
 20
-11.53778022499344
 30
0.0
 10
-37.14095206421402
 20
-11.5366429690081
 30
0.0
 10
-37.15203879165358
 20
-11.53368397166561
 30
0.0
 10
-37.16274216347145
 20
-11.52959103290509
 30
0.0
 10
-37.1729665941875
 20
-11.52447104739738
 30
0.0
 10
-37.18435879990017
 20
-11.51733689459266
 30
0.0
 10
-37.19640597508064
 20
-11.50762462057272
 30
0.0
 10
-37.20827724746801
 20
-11.49498114772262
 30
0.0
 10
-37.21818533616015
 20
-11.48092093149498
 30
0.0
 10
-37.22503757041064
 20
-11.46756438375813
 30
0.0
 10
-37.22947822706745
 20
-11.45541999345825
 30
0.0
 10
-37.23219523706571
 20
-11.44488714727947
 30
0.0
 10
-37.23325070879452
 20
-11.437707017376
 30
0.0
 10
-37.23359228076203
 20
-11.43410832204503
 30
0.0
 11
-37.12955912824253
 21
-11.53814147456451
 31
0.0
 11
-37.14090688815941
 21
-11.53643373270061
 31
0.0
 11
-37.15200147219827
 21
-11.53348685480237
 31
0.0
 11
-37.16265799522699
 21
-11.52942231819011
 31
0.0
 11
-37.17288551621971
 21
-11.52430896158826
 31
0.0
 11
-37.18255654730808
 21
-11.51825468084827
 31
0.0
 11
-37.19613181258359
 21
-11.50733065600765
 31
0.0
 11
-37.20805290669955
 21
-11.49461998252857
 31
0.0
 11
-37.2178472187988
 21
-11.48071294315767
 31
0.0
 11
-37.2255816564101
 21
-11.4655701018269
 31
0.0
 11
-37.22930593308985
 21
-11.45537622509502
 31
0.0
 11
-37.23200876648434
 21
-11.44483759747025
 31
0.0
 11
-37.23359228076203
 21
-11.43410832204503
 31
0.0
  0
SPLINE
  5
E8
330
2
100
AcDbEntity
  8
GAIKEI
  6
Continuous
 62
     1
100
AcDbSpline
210
0.0
220
0.0
230
1.0
 70
     8
 71
     3
 72
    19
 73
    15
 74
    13
 42
0.0000000001
 43
0.0000000001
 44
0.000001
 12
-0.0944471245025449
 22
0.9955298793472755
 32
0.0
 13
-0.9955257326591484
 23
0.0944908229060694
 33
0.0
 40
0.0
 40
0.0
 40
0.0
 40
0.0
 40
0.0114746607580121
 40
0.0229538204373805
 40
0.0343591230295895
 40
0.0457936629856684
 40
0.0572035280088915
 40
0.0746287115525935
 40
0.092055610158268
 40
0.1090656328910794
 40
0.1260693628544749
 40
0.1369222365398631
 40
0.1478018299471501
 40
0.1586464376139973
 40
0.1586464376139973
 40
0.1586464376139973
 40
0.1586464376139973
 10
2.913288213169153
 20
12.30469981073979
 30
0.0
 10
2.912926963598067
 20
12.30850759995312
 30
0.0
 10
2.911789707612726
 20
12.31609274671129
 30
0.0
 10
2.908830710270223
 20
12.32717947415082
 30
0.0
 10
2.904737771509701
 20
12.33788284596873
 30
0.0
 10
2.899617786001968
 20
12.34810727668476
 30
0.0
 10
2.89248363319723
 20
12.35949948239741
 30
0.0
 10
2.882771359177326
 20
12.37154665757794
 30
0.0
 10
2.87012788632721
 20
12.38341792996532
 30
0.0
 10
2.856067670099548
 20
12.39332601865745
 30
0.0
 10
2.842711122362658
 20
12.40017825290786
 30
0.0
 10
2.830566732062877
 20
12.40461890956476
 30
0.0
 10
2.820033885884058
 20
12.40733591956304
 30
0.0
 10
2.812853755980583
 20
12.40839139129177
 30
0.0
 10
2.809255060649604
 20
12.40873296325928
 30
0.0
 11
2.913288213169153
 21
12.30469981073979
 31
0.0
 11
2.911580471305228
 21
12.3160475706567
 31
0.0
 11
2.908633593406989
 21
12.32714215469555
 31
0.0
 11
2.904569056794741
 21
12.33779867772428
 31
0.0
 11
2.899455700192845
 21
12.34802619871696
 31
0.0
 11
2.893401419452857
 21
12.35769722980532
 31
0.0
 11
2.882477394612237
 21
12.37127249508087
 31
0.0
 11
2.869766721133146
 21
12.38319358919686
 31
0.0
 11
2.85585968176224
 21
12.39298790129608
 31
0.0
 11
2.840716840431468
 21
12.40072233890734
 31
0.0
 11
2.830522963699593
 21
12.40444661558713
 31
0.0
 11
2.819984336074867
 21
12.40714944898164
 31
0.0
 11
2.809255060649604
 21
12.40873296325928
 31
0.0
  0
SPLINE
  5
E9
330
2
100
AcDbEntity
  8
GAIKEI
  6
Continuous
 62
     1
100
AcDbSpline
210
0.0
220
0.0
230
1.0
 70
     8
 71
     3
 72
    19
 73
    15
 74
    13
 42
0.0000000001
 43
0.0000000001
 44
0.000001
 12
0.995529879347374
 22
0.0944471245015057
 32
0.0
 13
0.0944908229060041
 23
0.9955257326591546
 33
0.0
 40
0.0
 40
0.0
 40
0.0
 40
0.0
 40
0.011474660758024
 40
0.0229538204374025
 40
0.0343591230296166
 40
0.045793662985651
 40
0.0572035280088862
 40
0.0746287115525992
 40
0.0920556101582439
 40
0.1090656328910717
 40
0.1260693628544607
 40
0.1369222365398538
 40
0.1478018299471785
 40
0.1586464376139897
 40
0.1586464376139897
 40
0.1586464376139897
 40
0.1586464376139897
 10
2.809255060649604
 20
-11.53814147456451
 30
0.0
 10
2.81306284986293
 20
-11.53778022499344
 30
0.0
 10
2.820647996621119
 20
-11.53664296900811
 30
0.0
 10
2.831734724060709
 20
-11.53368397166561
 30
0.0
 10
2.842438095878549
 20
-11.52959103290509
 30
0.0
 10
2.852662526594599
 20
-11.52447104739735
 30
0.0
 10
2.864054732307252
 20
-11.51733689459266
 30
0.0
 10
2.876101907487765
 20
-11.50762462057274
 30
0.0
 10
2.887973179875132
 20
-11.49498114772261
 30
0.0
 10
2.897881268567317
 20
-11.48092093149499
 30
0.0
 10
2.904733502817677
 20
-11.46756438375807
 30
0.0
 10
2.909174159474588
 20
-11.4554199934583
 30
0.0
 10
2.911891169472824
 20
-11.44488714727944
 30
0.0
 10
2.912946641201642
 20
-11.437707017376
 30
0.0
 10
2.913288213169153
 20
-11.43410832204503
 30
0.0
 11
2.809255060649604
 21
-11.53814147456451
 31
0.0
 11
2.820602820566534
 21
-11.53643373270061
 31
0.0
 11
2.831697404605392
 21
-11.53348685480237
 31
0.0
 11
2.842353927634121
 21
-11.52942231819011
 31
0.0
 11
2.852581448626779
 21
-11.52430896158826
 31
0.0
 11
2.862252479715152
 21
-11.51825468084827
 31
0.0
 11
2.875827744990715
 21
-11.50733065600765
 31
0.0
 11
2.887748839106677
 21
-11.49461998252857
 31
0.0
 11
2.897543151205923
 21
-11.48071294315767
 31
0.0
 11
2.90527758881717
 21
-11.4655701018269
 31
0.0
 11
2.909001865496975
 21
-11.45537622509502
 31
0.0
 11
2.911704698891469
 21
-11.44483759747025
 31
0.0
 11
2.913288213169153
 21
-11.43410832204503
 31
0.0
  0
LINE
  5
EA
330
2
100
AcDbEntity
  8
GAIKEI
  6
Continuous
 62
     1
100
AcDbLine
 10
35.51458144093164
 20
11.99580075540721
 30
0.0
 11
35.68306380946228
 21
12.00339996263493
 31
0.0
  0
LINE
  5
EB
330
2
100
AcDbEntity
  8
GAIKEI
  6
Continuous
 62
     1
100
AcDbLine
 10
35.66424573760258
 20
12.13828921330859
 30
0.0
 11
35.51458144093164
 21
12.1431135752542
 31
0.0
  0
LINE
  5
EC
330
2
100
AcDbEntity
  8
GAIKEI
  6
Continuous
 62
     1
100
AcDbLine
 10
36.59687842910768
 20
-9.421173106595105
 30
0.0
 11
36.56800836419563
 21
-9.437841254115113
 31
0.0
  0
LINE
  5
ED
330
2
100
AcDbEntity
  8
GAIKEI
  6
Continuous
 62
     1
100
AcDbLine
 10
36.66801724931565
 20
-9.421173106595105
 30
0.0
 11
36.59687842910768
 21
-9.421173106595105
 31
0.0
  0
LINE
  5
EE
330
2
100
AcDbEntity
  8
GAIKEI
  6
Continuous
 62
     1
100
AcDbLine
 10
36.56800836419563
 20
-9.536183324483118
 30
0.0
 11
36.66801724931565
 21
-9.524932324907112
 31
0.0
  0
LINE
  5
EF
330
2
100
AcDbEntity
  8
GAIKEI
  6
Continuous
 62
     1
100
AcDbLine
 10
36.7013535443557
 20
-9.52118199171511
 30
0.0
 11
36.66801724931565
 21
-9.524932324907112
 31
0.0
  0
LINE
  5
F0
330
2
100
AcDbEntity
  8
GAIKEI
  6
Continuous
 62
     1
100
AcDbLine
 10
36.7013535443557
 20
-9.421173106595105
 30
0.0
 11
36.7013535443557
 21
-9.52118199171511
 31
0.0
  0
LINE
  5
F1
330
2
100
AcDbEntity
  8
GAIKEI
  6
Continuous
 62
     1
100
AcDbLine
 10
36.66801724931565
 20
-9.421173106595105
 30
0.0
 11
36.7013535443557
 21
-9.421173106595105
 31
0.0
  0
LINE
  5
F2
330
2
100
AcDbEntity
  8
GAIKEI
  6
Continuous
 62
     1
100
AcDbLine
 10
36.60134465923568
 20
-9.137814598755099
 30
0.0
 11
36.56800836419563
 21
-9.104478303715112
 31
0.0
  0
LINE
  5
F3
330
2
100
AcDbEntity
  8
GAIKEI
  6
Continuous
 62
     1
100
AcDbLine
 10
36.56800836419563
 20
-9.437841254115113
 30
0.0
 11
36.60134465923568
 21
-9.404504959075111
 31
0.0
  0
LINE
  5
F4
330
2
100
AcDbEntity
  8
GAIKEI
  6
Continuous
 62
     1
100
AcDbLine
 10
36.60134465923568
 20
-9.404504959075111
 30
0.0
 11
36.60134465923568
 21
-9.137814598755099
 31
0.0
  0
LINE
  5
F5
330
2
100
AcDbEntity
  8
GAIKEI
  6
Continuous
 62
     1
100
AcDbLine
 10
36.30131800387568
 20
-9.087810156195104
 30
0.0
 11
36.56800836419563
 21
-9.087810156195104
 31
0.0
  0
LINE
  5
F6
330
2
100
AcDbEntity
  8
GAIKEI
  6
Continuous
 62
     1
100
AcDbLine
 10
36.56800836419563
 20
-9.554518286755111
 30
0.0
 11
36.30879040108147
 21
-9.554518286755111
 31
0.0
  0
LINE
  5
F7
330
2
100
AcDbEntity
  8
GAIKEI
  6
Continuous
 62
     1
100
AcDbLine
 10
36.56800836419563
 20
-9.087810156195104
 30
0.0
 11
36.56800836419563
 21
-9.554518286755111
 31
0.0
  0
LINE
  5
F8
330
2
100
AcDbEntity
  8
GAIKEI
  6
Continuous
 62
     1
100
AcDbLine
 10
34.01106481836484
 20
-11.21811395276093
 30
0.0
 11
34.01158123091131
 21
-11.21815915677702
 31
0.0
  0
ELLIPSE
  5
F9
330
2
100
AcDbEntity
  8
GAIKEI
  6
Continuous
 62
     7
100
AcDbEllipse
 10
34.40392168773462
 20
12.39737866500543
 30
0.0
 11
-0.2869767173597468
 21
0.0122233693731572
 31
0.0
210
0.0
220
0.0
230
1.0
 40
0.0979550000005576
 41
-0.0556951287901055
 42
0.0307150442121456
  0
ELLIPSE
  5
FA
330
2
100
AcDbEntity
  8
GAIKEI
  6
Continuous
 62
     1
100
AcDbEllipse
 10
34.40392168773462
 20
-11.52678717631065
 30
0.0
 11
-0.2001980877510127
 21
0.2902428013319058
 31
0.0
210
0.0
220
0.0
230
1.0
 40
0.7084260000000246
 41
0.7388798675130728
 42
0.8252900405155028
  0
ELLIPSE
  5
FB
330
2
100
AcDbEntity
  8
GAIKEI
  6
Continuous
 62
     1
100
AcDbEllipse
 10
34.40392168773462
 20
12.39737866500543
 30
0.0
 11
0.2001980877512309
 21
0.2902428013316132
 31
0.0
210
0.0
220
0.0
230
1.0
 40
0.7084260000000004
 41
2.316302613075226
 42
2.402712786077776
  0
ELLIPSE
  5
FC
330
2
100
AcDbEntity
  8
GAIKEI
  6
Continuous
 62
     7
100
AcDbEllipse
 10
34.16073368210817
 20
12.3846336993672
 30
0.0
 11
-0.0026170303216906
 21
0.049935913209143
 31
0.0
210
0.0
220
0.0
230
1.0
 40
0.9969939999998402
 41
-0.0000000000786828
 42
1.015719002433118
  0
ELLIPSE
  5
FD
330
2
100
AcDbEntity
  8
GAIKEI
  6
Continuous
 62
     1
100
AcDbEllipse
 10
35.44973381298729
 20
12.3687392205825
 30
0.0
 11
-0.0034917656106537
 21
0.1333451488971089
 31
0.0
210
0.0
220
0.0
230
1.0
 40
0.0261499999999963
 41
0.0006847638988461
 42
1.568742034989258
  0
ELLIPSE
  5
FE
330
2
100
AcDbEntity
  8
GAIKEI
  6
Continuous
 62
     1
100
AcDbEllipse
 10
34.40130465522884
 20
12.39737866500543
 30
0.0
 11
0.1794014869528182
 21
0.2652613547454717
 31
0.0
210
0.0
220
0.0
230
1.0
 40
0.6240159999999813
 41
2.309985920125742
 42
2.396396093127902
  0
ELLIPSE
  5
FF
330
2
100
AcDbEntity
  8
GAIKEI
  6
Continuous
 62
     1
100
AcDbEllipse
 10
34.40130465522884
 20
-11.52678717631065
 30
0.0
 11
-0.1794014869538512
 21
0.2652613547436748
 31
0.0
210
0.0
220
0.0
230
1.0
 40
0.6240159999999943
 41
0.7451965604551792
 42
0.8316067334577596
  0
ELLIPSE
  5
100
330
2
100
AcDbEntity
  8
GAIKEI
  6
Continuous
 62
     1
100
AcDbEllipse
 10
32.90186441851318
 20
12.36802255391583
 30
0.0
 11
2.544377609282683
 21
0.0
 31
0.0
210
0.0
220
0.0
230
1.0
 40
0.052408
 41
0.0
 42
0.0013695278703807
  0
ARC
  5
101
330
2
100
AcDbEntity
  8
GAIKEI
  6
Continuous
 62
     7
100
AcDbCircle
 10
34.04791779250491
 20
12.23747562535737
 30
0.0
 40
0.0333362950400013
100
AcDbArc
 50
147.9140249999915
 51
180.0
  0
ARC
  5
102
330
2
100
AcDbEntity
  8
GAIKEI
  6
Continuous
 62
     7
100
AcDbCircle
 10
34.04791779250491
 20
-11.3668841366626
 30
0.0
 40
0.0333362950400013
100
AcDbArc
 50
180.0
 51
212.0859750000085
  0
ARC
  5
103
330
2
100
AcDbEntity
  8
GAIKEI
  6
Continuous
 62
     7
100
AcDbCircle
 10
34.15982296786399
 20
12.38458599512898
 30
0.0
 40
0.0500044425600019
100
AcDbArc
 50
92.9999999999991
 51
147.9140249999915
  0
ARC
  5
104
330
2
100
AcDbEntity
  8
GAIKEI
  6
Continuous
 62
     7
100
AcDbCircle
 10
34.15982296786399
 20
-11.51399450643423
 30
0.0
 40
0.0500044425600019
100
AcDbArc
 50
212.0859750000085
 51
267.0000000000009
  0
ARC
  5
105
330
2
100
AcDbEntity
  8
GAIKEI
  6
Continuous
 62
     7
100
AcDbCircle
 10
35.48124514589165
 20
-11.59815661700773
 30
0.0
 40
0.0333362950400013
100
AcDbArc
 50
270.0
 51
0.0
  0
ARC
  5
106
330
2
100
AcDbEntity
  8
GAIKEI
  6
Continuous
 62
     7
100
AcDbCircle
 10
35.48124514589165
 20
12.46874810570249
 30
0.0
 40
0.0333362950400013
100
AcDbArc
 50
0.0
 51
90.0
  0
LINE
  5
107
330
2
100
AcDbEntity
  8
GAIKEI
  6
Continuous
 62
     7
100
AcDbLine
 10
34.01458149746492
 20
12.23747562535737
 30
0.0
 11
34.01458149746492
 21
-11.3668841366626
 31
0.0
  0
LINE
  5
108
330
2
100
AcDbEntity
  8
GAIKEI
  6
Continuous
 62
     7
100
AcDbLine
 10
34.15811664960239
 20
12.43456963584089
 30
0.0
 11
34.15720593535821
 21
12.43452189826641
 31
0.0
  0
LINE
  5
109
330
2
100
AcDbEntity
  8
GAIKEI
  6
Continuous
 62
     7
100
AcDbLine
 10
34.15720593535821
 20
-11.56393040957162
 30
0.0
 11
34.15811664960239
 21
-11.56397814714613
 31
0.0
  0
LINE
  5
10A
330
2
100
AcDbEntity
  8
GAIKEI
  6
Continuous
 62
     7
100
AcDbLine
 10
34.11745660389613
 20
-11.54055639961397
 30
0.0
 11
34.0196735498597
 21
-11.3845921098975
 31
0.0
  0
LINE
  5
10B
330
2
100
AcDbEntity
  8
GAIKEI
  6
Continuous
 62
     1
100
AcDbLine
 10
34.01458149746492
 20
-11.24366067049659
 30
0.0
 11
34.11745660389613
 21
-11.40774680037007
 31
0.0
  0
LINE
  5
10C
330
2
100
AcDbEntity
  8
GAIKEI
  6
Continuous
 62
     1
100
AcDbLine
 10
34.11745660389613
 20
12.27833828906486
 30
0.0
 11
34.01458149746492
 21
12.11425215919135
 31
0.0
  0
LINE
  5
10D
330
2
100
AcDbEntity
  8
GAIKEI
  6
Continuous
 62
     7
100
AcDbLine
 10
34.0196735498597
 20
12.25518359859227
 30
0.0
 11
34.11745660389613
 21
12.41114788830873
 31
0.0
  0
LINE
  5
10E
330
2
100
AcDbEntity
  8
GAIKEI
  6
Continuous
 62
     1
100
AcDbLine
 10
34.11745660389613
 20
-11.40774680037007
 30
0.0
 11
34.11745660389613
 21
12.27833828906486
 31
0.0
  0
LINE
  5
10F
330
2
100
AcDbEntity
  8
GAIKEI
  6
Continuous
 62
     7
100
AcDbLine
 10
34.15811664960239
 20
12.43456963584089
 30
0.0
 11
35.4462396358864
 21
12.50208426739731
 31
0.0
  0
LINE
  5
110
330
2
100
AcDbEntity
  8
GAIKEI
  6
Continuous
 62
     7
100
AcDbLine
 10
35.4462396358864
 20
-11.63149277870255
 30
0.0
 11
34.15811664960239
 21
-11.56397814714613
 31
0.0
  0
LINE
  5
111
330
2
100
AcDbEntity
  8
GAIKEI
  6
Continuous
 62
     7
100
AcDbLine
 10
35.48124514589165
 20
-11.63149291204772
 30
0.0
 11
35.44624203609965
 21
-11.63149291204772
 31
0.0
  0
LINE
  5
112
330
2
100
AcDbEntity
  8
GAIKEI
  6
Continuous
 62
     7
100
AcDbLine
 10
35.51458144093164
 20
-11.49814773188771
 30
0.0
 11
35.51458144093164
 21
-11.59815661700773
 31
0.0
  0
LINE
  5
113
330
2
100
AcDbEntity
  8
GAIKEI
  6
Continuous
 62
     7
100
AcDbLine
 10
35.44624203609965
 20
12.50208440074249
 30
0.0
 11
35.48124514589165
 21
12.50208440074249
 31
0.0
  0
LINE
  5
114
330
2
100
AcDbEntity
  8
GAIKEI
  6
Continuous
 62
     7
100
AcDbLine
 10
35.44624203609965
 20
12.50208440074249
 30
0.0
 11
35.4462396358864
 21
12.50208426739731
 31
0.0
  0
LINE
  5
115
330
2
100
AcDbEntity
  8
GAIKEI
  6
Continuous
 62
     1
100
AcDbLine
 10
35.51458144093164
 20
-11.49814773188771
 30
0.0
 11
35.48124514589165
 21
-11.49814773188771
 31
0.0
  0
LINE
  5
116
330
2
100
AcDbEntity
  8
GAIKEI
  6
Continuous
 62
     7
100
AcDbLine
 10
35.51458144093164
 20
-11.49814773188771
 30
0.0
 11
35.51458144093164
 21
12.46874810570249
 31
0.0
  0
LINE
  5
117
330
2
100
AcDbEntity
  8
GAIKEI
  6
Continuous
 62
     1
100
AcDbLine
 10
35.44624203609965
 20
-11.49814773188771
 30
0.0
 11
35.48124514589165
 21
-11.49814773188771
 31
0.0
  0
LINE
  5
118
330
2
100
AcDbEntity
  8
GAIKEI
  6
Continuous
 62
     1
100
AcDbLine
 10
35.4462396358864
 20
12.36892183680672
 30
0.0
 11
34.15811664960239
 21
12.30140717191401
 31
0.0
  0
LINE
  5
119
330
2
100
AcDbEntity
  8
GAIKEI
  6
Continuous
 62
     1
100
AcDbLine
 10
34.15720593535821
 20
12.27833828906486
 30
0.0
 11
34.15720593535821
 21
-11.40774680037007
 31
0.0
  0
LINE
  5
11A
330
2
100
AcDbEntity
  8
GAIKEI
  6
Continuous
 62
     1
100
AcDbLine
 10
34.11695387320663
 20
-11.4286584331347
 30
0.0
 11
35.4462396358864
 21
-11.49833034811193
 31
0.0
  0
LINE
  5
11B
330
2
100
AcDbEntity
  8
GAIKEI
  6
Continuous
 62
     1
100
AcDbLine
 10
35.44624203609965
 20
12.36873922058248
 30
0.0
 11
35.44624203609965
 21
-11.63149291204772
 31
0.0
  0
ARC
  5
11C
330
2
100
AcDbEntity
  8
GAIKEI
  6
Continuous
 62
     1
100
AcDbCircle
 10
35.28956144941162
 20
-9.978012678063663
 30
0.0
 40
0.3000266553600113
100
AcDbArc
 50
0.0
 51
16.60155000000194
  0
ARC
  5
11D
330
2
100
AcDbEntity
  8
GAIKEI
  6
Continuous
 62
     1
100
AcDbCircle
 10
35.28956144941162
 20
-9.978012678063663
 30
0.0
 40
0.3000266553600113
100
AcDbArc
 50
343.398449999998
 51
0.0
  0
ARC
  5
11E
330
2
100
AcDbEntity
  8
GAIKEI
  6
Continuous
 62
     1
100
AcDbCircle
 10
35.53555077058286
 20
-10.05135252715168
 30
0.0
 40
0.0433371835520016
100
AcDbArc
 50
270.0
 51
343.398449999998
  0
ARC
  5
11F
330
2
100
AcDbEntity
  8
GAIKEI
  6
Continuous
 62
     1
100
AcDbCircle
 10
35.53555077058286
 20
-9.904672828975648
 30
0.0
 40
0.0433371835520016
100
AcDbArc
 50
16.60155000000194
 51
90.0
  0
LINE
  5
120
330
2
100
AcDbEntity
  8
GAIKEI
  6
Continuous
 62
     1
100
AcDbLine
 10
35.51458144093164
 20
-10.09468971070366
 30
0.0
 11
35.53555077058286
 21
-10.09468971070366
 31
0.0
  0
LINE
  5
121
330
2
100
AcDbEntity
  8
GAIKEI
  6
Continuous
 62
     1
100
AcDbLine
 10
35.53555077058286
 20
-9.861335645423665
 30
0.0
 11
35.51458144093164
 21
-9.861335645423665
 31
0.0
  0
ELLIPSE
  5
122
330
2
100
AcDbEntity
  8
GAIKEI
  6
Continuous
 62
     1
100
AcDbEllipse
 10
36.20193140737513
 20
-10.48761625293011
 30
0.0
 11
-0.0174468687851453
 21
0.3329060880623922
 31
0.0
210
0.0
220
0.0
230
1.0
 40
0.765609999999989
 41
3.141592653589826
 42
4.672286563984031
  0
ELLIPSE
  5
123
330
2
100
AcDbEntity
  8
GAIKEI
  6
Continuous
 62
     1
100
AcDbEllipse
 10
36.76969294918769
 20
-5.770972244015496
 30
0.0
 11
0.0
 21
0.2166859177600031
 31
0.0
210
0.0
220
0.0
230
1.0
 40
0.1391730000000056
 41
3.141592653589793
 42
6.283185307179586
  0
ELLIPSE
  5
124
330
2
100
AcDbEntity
  8
GAIKEI
  6
Continuous
 62
     1
100
AcDbEllipse
 10
36.76969294918769
 20
6.581558401638275
 30
0.0
 11
0.0
 21
0.2166859177600031
 31
0.0
210
0.0
220
0.0
230
1.0
 40
0.1391730000000056
 41
3.141592653589793
 42
6.283185307179586
  0
ELLIPSE
  5
125
330
2
100
AcDbEntity
  8
GAIKEI
  6
Continuous
 62
     7
100
AcDbEllipse
 10
36.20611781264256
 20
-8.392447808242806
 30
0.0
 11
-0.2142815740456751
 21
0.2553708356956748
 31
0.0
210
0.0
220
0.0
230
1.0
 40
0.1607110000000001
 41
3.141592653589792
 42
3.14434683352869
  0
ARC
  5
126
330
2
100
AcDbEntity
  8
GAIKEI
  6
Continuous
 62
     1
100
AcDbCircle
 10
37.14972671264366
 20
-8.254144223890733
 30
0.0
 40
0.1666814752000063
100
AcDbArc
 50
131.5352399999967
 51
178.400608999997
  0
ARC
  5
127
330
2
100
AcDbEntity
  8
GAIKEI
  6
Continuous
 62
     1
100
AcDbCircle
 10
37.14972671264366
 20
-8.254144223890733
 30
0.0
 40
0.1666814752000063
100
AcDbArc
 50
178.400608999997
 51
179.1867999999952
  0
ARC
  5
128
330
2
100
AcDbEntity
  8
GAIKEI
  6
Continuous
 62
     7
100
AcDbCircle
 10
37.0013801997157
 20
-7.943447320550617
 30
0.0
 40
0.1666814752000063
100
AcDbArc
 50
309.9999999999992
 51
0.0
  0
ARC
  5
129
330
2
100
AcDbEntity
  8
GAIKEI
  6
Continuous
 62
     1
100
AcDbCircle
 10
36.64968228704367
 20
-10.46415063483367
 30
0.0
 40
0.3333629504000126
100
AcDbArc
 50
272.9999999999991
 51
0.0
  0
ARC
  5
12A
330
2
100
AcDbEntity
  8
GAIKEI
  6
Continuous
 62
     1
100
AcDbCircle
 10
37.14972671264366
 20
-8.254144223890733
 30
0.0
 40
0.1666814752000063
100
AcDbArc
 50
179.1867999999952
 51
180.0
  0
ARC
  5
12B
330
2
100
AcDbEntity
  8
GAIKEI
  6
Continuous
 62
     7
100
AcDbCircle
 10
36.55587095253452
 20
11.32079175079786
 30
0.0
 40
0.1666814752000063
100
AcDbArc
 50
7.999999999998316
 51
78.00000000000037
  0
ARC
  5
12C
330
2
100
AcDbEntity
  8
GAIKEI
  6
Continuous
 62
     1
100
AcDbCircle
 10
35.65165395224005
 20
-10.85425729319898
 30
0.0
 40
0.1666814752000063
100
AcDbArc
 50
285.0000000000044
 51
314.9999999999916
  0
ARC
  5
12D
330
2
100
AcDbEntity
  8
GAIKEI
  6
Continuous
 62
     1
100
AcDbCircle
 10
35.97723487792592
 20
-11.00012275236864
 30
0.0
 40
0.1666814752000063
100
AcDbArc
 50
133.2988929999933
 51
134.9999999999916
  0
ARC
  5
12E
330
2
100
AcDbEntity
  8
GAIKEI
  6
Continuous
 62
     1
100
AcDbCircle
 10
35.58958810477162
 20
-11.21601049921649
 30
0.0
 40
0.1666814752000063
100
AcDbArc
 50
105.0000000000044
 51
116.7436839999978
  0
ARC
  5
12F
330
2
100
AcDbEntity
  8
GAIKEI
  6
Continuous
 62
     1
100
AcDbCircle
 10
36.19130823024363
 20
-9.354623960815644
 30
0.0
 40
0.2300204357760087
100
AcDbArc
 50
298.5718781421433
 51
0.0
  0
ARC
  5
130
330
2
100
AcDbEntity
  8
GAIKEI
  6
Continuous
 62
     1
100
AcDbCircle
 10
36.19130823024363
 20
-9.354623960815644
 30
0.0
 40
0.2300204357760087
100
AcDbArc
 50
0.0
 51
61.42812185785666
  0
ARC
  5
131
330
2
100
AcDbEntity
  8
GAIKEI
  6
Continuous
 62
     7
100
AcDbCircle
 10
36.06796393859565
 20
-10.59478334067516
 30
0.0
 40
0.2333540652800088
100
AcDbArc
 50
272.9999999999991
 51
0.0
  0
ARC
  5
132
330
2
100
AcDbEntity
  8
GAIKEI
  6
Continuous
 62
     7
100
AcDbCircle
 10
36.63468095427567
 20
-8.903906150888573
 30
0.0
 40
0.3333629504000126
100
AcDbArc
 50
130.574247000007
 51
180.0
  0
LINE
  5
133
330
2
100
AcDbEntity
  8
GAIKEI
  6
Continuous
 62
     1
100
AcDbLine
 10
37.16806167491569
 20
-5.069511490589675
 30
0.0
 11
37.16806167491569
 21
-7.612108049940999
 31
0.0
  0
LINE
  5
134
330
2
100
AcDbEntity
  8
GAIKEI
  6
Continuous
 62
     1
100
AcDbLine
 10
37.16806167491569
 20
-7.943447320550617
 30
0.0
 11
37.16806167491569
 21
-7.612108049940999
 31
0.0
  0
LINE
  5
135
330
2
100
AcDbEntity
  8
GAIKEI
  6
Continuous
 62
     1
100
AcDbLine
 10
37.16806167491569
 20
7.10958331311717
 30
0.0
 11
37.16806167491569
 21
6.486905325679387
 31
0.0
  0
LINE
  5
136
330
2
100
AcDbEntity
  8
GAIKEI
  6
Continuous
 62
     7
100
AcDbLine
 10
36.76459236270137
 20
11.03331754397221
 30
0.0
 11
37.16806167491569
 21
8.162484222981774
 31
0.0
  0
LINE
  5
137
330
2
100
AcDbEntity
  8
GAIKEI
  6
Continuous
 62
     7
100
AcDbLine
 10
36.76459236270137
 20
11.03331754397221
 30
0.0
 11
37.16806167491569
 21
8.162484222981774
 31
0.0
  0
LINE
  5
138
330
2
100
AcDbEntity
  8
GAIKEI
  6
Continuous
 62
     7
100
AcDbLine
 10
36.76459236270137
 20
11.03331754397221
 30
0.0
 11
37.16806167491569
 21
8.162484222981774
 31
0.0
  0
LINE
  5
139
330
2
100
AcDbEntity
  8
GAIKEI
  6
Continuous
 62
     7
100
AcDbLine
 10
37.16806167491569
 20
8.162484222981774
 30
0.0
 11
37.16806167491569
 21
-7.943447320550617
 31
0.0
  0
LINE
  5
13A
330
2
100
AcDbEntity
  8
GAIKEI
  6
Continuous
 62
     1
100
AcDbLine
 10
36.98304523744366
 20
-10.46415063483367
 30
0.0
 11
36.98304523744366
 21
-8.254144223890733
 31
0.0
  0
LINE
  5
13B
330
2
100
AcDbEntity
  8
GAIKEI
  6
Continuous
 62
     1
100
AcDbLine
 10
36.09210611947663
 20
-10.82719241912996
 30
0.0
 11
36.66712915582883
 21
-10.79705671041493
 31
0.0
  0
LINE
  5
13C
330
2
100
AcDbEntity
  8
GAIKEI
  6
Continuous
 62
     1
100
AcDbLine
 10
36.45730222869656
 20
-9.087810156195104
 30
0.0
 11
36.45730222869656
 21
-8.948909415794076
 31
0.0
  0
LINE
  5
13D
330
2
100
AcDbEntity
  8
GAIKEI
  6
Continuous
 62
     1
100
AcDbLine
 10
36.45730222869656
 20
-10.48761625293011
 30
0.0
 11
36.45730222869656
 21
-9.554518286755111
 31
0.0
  0
LINE
  5
13E
330
2
100
AcDbEntity
  8
GAIKEI
  6
Continuous
 62
     1
100
AcDbLine
 10
36.45730222869656
 20
-8.948909415794076
 30
0.0
 11
36.82706101262278
 21
-8.638644984209506
 31
0.0
  0
LINE
  5
13F
330
2
100
AcDbEntity
  8
GAIKEI
  6
Continuous
 62
     7
100
AcDbLine
 10
36.42039938345914
 20
-8.648535329567167
 30
0.0
 11
36.41267359707473
 21
-8.655715000766221
 31
0.0
  0
LINE
  5
140
330
2
100
AcDbEntity
  8
GAIKEI
  6
Continuous
 62
     7
100
AcDbLine
 10
37.16806167491569
 20
8.162484222981774
 30
0.0
 11
36.93355854088196
 21
9.831060664829507
 31
0.0
  0
LINE
  5
141
330
2
100
AcDbEntity
  8
GAIKEI
  6
Continuous
 62
     7
100
AcDbLine
 10
36.93355854088196
 20
9.831060664829507
 30
0.0
 11
36.72093029507585
 21
11.34398932857404
 31
0.0
  0
LINE
  5
142
330
2
100
AcDbEntity
  8
GAIKEI
  6
Continuous
 62
     1
100
AcDbLine
 10
35.76951552345173
 20
-10.97211889774694
 30
0.0
 11
35.85937327337797
 21
-10.88226114782068
 31
0.0
  0
LINE
  5
143
330
2
100
AcDbEntity
  8
GAIKEI
  6
Continuous
 62
     1
100
AcDbLine
 10
35.54644777204186
 20
-11.05500856193876
 30
0.0
 11
35.69479428496982
 21
-11.01525923047673
 31
0.0
  0
LINE
  5
144
330
2
100
AcDbEntity
  8
GAIKEI
  6
Continuous
 62
     7
100
AcDbLine
 10
36.59052597987136
 20
11.48383083585153
 30
0.0
 11
35.51458144093164
 21
11.71252988913703
 31
0.0
  0
LINE
  5
145
330
2
100
AcDbEntity
  8
GAIKEI
  6
Continuous
 62
     7
100
AcDbLine
 10
36.68439893805237
 20
-8.427013382158307
 30
0.0
 11
37.10852098512396
 21
-8.071132731211307
 31
0.0
  0
LINE
  5
146
330
2
100
AcDbEntity
  8
GAIKEI
  6
Continuous
 62
     1
100
AcDbLine
 10
36.74627376855023
 20
-5.987658161775513
 30
0.0
 11
36.76969294918769
 21
-5.987658161775513
 31
0.0
  0
LINE
  5
147
330
2
100
AcDbEntity
  8
GAIKEI
  6
Continuous
 62
     1
100
AcDbLine
 10
36.76969294918769
 20
-5.554286326255507
 30
0.0
 11
36.74627376855023
 21
-5.554286326255507
 31
0.0
  0
LINE
  5
148
330
2
100
AcDbEntity
  8
GAIKEI
  6
Continuous
 62
     1
100
AcDbLine
 10
36.76969294918769
 20
6.798244319398278
 30
0.0
 11
36.74627376855023
 21
6.798244319398278
 31
0.0
  0
LINE
  5
149
330
2
100
AcDbEntity
  8
GAIKEI
  6
Continuous
 62
     1
100
AcDbLine
 10
36.74627376855023
 20
6.364872483878272
 30
0.0
 11
36.76969294918769
 21
6.364872483878272
 31
0.0
  0
LINE
  5
14A
330
2
100
AcDbEntity
  8
GAIKEI
  6
Continuous
 62
     7
100
AcDbLine
 10
36.30131800387568
 20
-10.59478334067516
 30
0.0
 11
36.30131800387568
 21
-10.41477294795672
 31
0.0
  0
LINE
  5
14B
330
2
100
AcDbEntity
  8
GAIKEI
  6
Continuous
 62
     1
100
AcDbLine
 10
36.6158694496661
 20
-5.987658161775513
 30
0.0
 11
36.74627376855023
 21
-5.987658161775513
 31
0.0
  0
LINE
  5
14C
330
2
100
AcDbEntity
  8
GAIKEI
  6
Continuous
 62
     1
100
AcDbLine
 10
36.74627376855023
 20
-5.554286326255507
 30
0.0
 11
36.6158694496661
 21
-5.554286326255507
 31
0.0
  0
LINE
  5
14D
330
2
100
AcDbEntity
  8
GAIKEI
  6
Continuous
 62
     1
100
AcDbLine
 10
36.74627376855023
 20
6.798244319398278
 30
0.0
 11
36.6158694496661
 21
6.798244319398278
 31
0.0
  0
LINE
  5
14E
330
2
100
AcDbEntity
  8
GAIKEI
  6
Continuous
 62
     1
100
AcDbLine
 10
36.6158694496661
 20
6.364872483878272
 30
0.0
 11
36.74627376855023
 21
6.364872483878272
 31
0.0
  0
LINE
  5
14F
330
2
100
AcDbEntity
  8
GAIKEI
  6
Continuous
 62
     1
100
AcDbLine
 10
36.72093028361792
 20
-5.554286326255507
 30
0.0
 11
36.72093028361792
 21
6.364872483878272
 31
0.0
  0
LINE
  5
150
330
2
100
AcDbEntity
  8
GAIKEI
  6
Continuous
 62
     1
100
AcDbLine
 10
36.72093028361792
 20
6.798244319398278
 30
0.0
 11
36.72093028361792
 21
7.88925798633771
 31
0.0
  0
LINE
  5
151
330
2
100
AcDbEntity
  8
GAIKEI
  6
Continuous
 62
     1
100
AcDbLine
 10
36.72093028361792
 20
-8.396359943768104
 30
0.0
 11
36.72093028361792
 21
-5.987658161775513
 31
0.0
  0
LINE
  5
152
330
2
100
AcDbEntity
  8
GAIKEI
  6
Continuous
 62
     7
100
AcDbLine
 10
36.42039938345914
 20
-8.648535329567167
 30
0.0
 11
36.68439893805237
 21
-8.427013382158307
 31
0.0
  0
LINE
  5
153
330
2
100
AcDbEntity
  8
GAIKEI
  6
Continuous
 62
     7
100
AcDbLine
 10
36.30131800387568
 20
-10.41477294795672
 30
0.0
 11
36.30131800387568
 21
-8.903906150888573
 31
0.0
  0
LINE
  5
154
330
2
100
AcDbEntity
  8
GAIKEI
  6
Continuous
 62
     7
100
AcDbLine
 10
36.41784865684417
 20
-8.65062571528395
 30
0.0
 11
36.4203237100694
 21
-8.648468123596359
 31
0.0
  0
LINE
  5
155
330
2
100
AcDbEntity
  8
GAIKEI
  6
Continuous
 62
     7
100
AcDbLine
 10
35.51458144093164
 20
-10.85745919486639
 30
0.0
 11
36.08028290580938
 21
-10.8278120145106
 31
0.0
  0
LINE
  5
156
330
2
100
AcDbEntity
  8
GAIKEI
  6
Continuous
 62
     1
100
AcDbLine
 10
36.59052596473373
 20
-5.987658161775513
 30
0.0
 11
36.59052596473373
 21
-8.128765751519395
 31
0.0
  0
LINE
  5
157
330
2
100
AcDbEntity
  8
GAIKEI
  6
Continuous
 62
     1
100
AcDbLine
 10
36.59052596473373
 20
-5.987658161775513
 30
0.0
 11
36.6158694496661
 21
-5.987658161775513
 31
0.0
  0
LINE
  5
158
330
2
100
AcDbEntity
  8
GAIKEI
  6
Continuous
 62
     1
100
AcDbLine
 10
36.6158694496661
 20
-5.554286326255507
 30
0.0
 11
36.6158694496661
 21
-5.987658161775513
 31
0.0
  0
LINE
  5
159
330
2
100
AcDbEntity
  8
GAIKEI
  6
Continuous
 62
     1
100
AcDbLine
 10
36.6158694496661
 20
-5.554286326255507
 30
0.0
 11
36.59052596473373
 21
-5.554286326255507
 31
0.0
  0
LINE
  5
15A
330
2
100
AcDbEntity
  8
GAIKEI
  6
Continuous
 62
     1
100
AcDbLine
 10
36.59052596473373
 20
6.364872483878272
 30
0.0
 11
36.59052596473373
 21
-5.554286326255507
 31
0.0
  0
LINE
  5
15B
330
2
100
AcDbEntity
  8
GAIKEI
  6
Continuous
 62
     1
100
AcDbLine
 10
36.59052596473373
 20
6.364872483878272
 30
0.0
 11
36.6158694496661
 21
6.364872483878272
 31
0.0
  0
LINE
  5
15C
330
2
100
AcDbEntity
  8
GAIKEI
  6
Continuous
 62
     1
100
AcDbLine
 10
36.6158694496661
 20
6.798244319398278
 30
0.0
 11
36.6158694496661
 21
6.364872483878272
 31
0.0
  0
LINE
  5
15D
330
2
100
AcDbEntity
  8
GAIKEI
  6
Continuous
 62
     1
100
AcDbLine
 10
36.6158694496661
 20
6.798244319398278
 30
0.0
 11
36.59052596473373
 21
6.798244319398278
 31
0.0
  0
LINE
  5
15E
330
2
100
AcDbEntity
  8
GAIKEI
  6
Continuous
 62
     1
100
AcDbLine
 10
36.59052596473373
 20
7.621711022973798
 30
0.0
 11
36.59052596473373
 21
6.798244319398278
 31
0.0
  0
LINE
  5
15F
330
2
100
AcDbEntity
  8
GAIKEI
  6
Continuous
 62
     1
100
AcDbLine
 10
35.51458144093164
 20
7.121606381286298
 30
0.0
 11
35.60493753513242
 21
7.121606381286298
 31
0.0
  0
LINE
  5
160
330
2
100
AcDbEntity
  8
GAIKEI
  6
Continuous
 62
     1
100
AcDbLine
 10
35.60493753513242
 20
6.254862710246257
 30
0.0
 11
35.51458144093164
 21
6.254862710246257
 31
0.0
  0
LINE
  5
161
330
2
100
AcDbEntity
  8
GAIKEI
  6
Continuous
 62
     1
100
AcDbLine
 10
35.60493753513242
 20
6.254862710246257
 30
0.0
 11
35.60493753513242
 21
7.121606381286298
 31
0.0
  0
LINE
  5
162
330
2
100
AcDbEntity
  8
GAIKEI
  6
Continuous
 62
     1
100
AcDbLine
 10
35.60493753513242
 20
-6.114336082927522
 30
0.0
 11
35.51458144093164
 21
-6.114336082927522
 31
0.0
  0
LINE
  5
163
330
2
100
AcDbEntity
  8
GAIKEI
  6
Continuous
 62
     1
100
AcDbLine
 10
35.51458144093164
 20
-5.247592411887481
 30
0.0
 11
35.60493753513242
 21
-5.247592411887481
 31
0.0
  0
LINE
  5
164
330
2
100
AcDbEntity
  8
GAIKEI
  6
Continuous
 62
     1
100
AcDbLine
 10
35.60493753513242
 20
-6.114336082927522
 30
0.0
 11
35.60493753513242
 21
-5.247592411887481
 31
0.0
  0
ELLIPSE
  5
165
330
2
100
AcDbEntity
  8
GAIKEI
  6
Continuous
 62
     1
100
AcDbEllipse
 10
35.59777006501736
 20
7.865344190745574
 30
0.0
 11
-0.023564856710522
 21
0.023564856710522
 31
0.0
210
0.0
220
0.0
230
1.0
 40
0.9990757796463732
 41
0.7858604317907339
 42
0.8903589325719298
  0
LINE
  5
166
330
2
100
AcDbEntity
  8
GAIKEI
  6
Continuous
 62
     1
100
AcDbLine
 10
35.56382451584921
 20
7.864040641600624
 30
0.0
 11
35.5644388370942
 21
7.865344190745574
 31
0.0
  0
LINE
  5
167
330
2
100
AcDbEntity
  8
GAIKEI
  6
Continuous
 62
     1
100
AcDbLine
 10
35.55682352719157
 20
7.9029730671527
 30
0.0
 11
35.55787598736231
 21
7.893341711471194
 31
0.0
  0
LINE
  5
168
330
2
100
AcDbEntity
  8
GAIKEI
  6
Continuous
 62
     1
100
AcDbLine
 10
36.61106802309144
 20
9.733042689921887
 30
0.0
 11
36.60982637944642
 21
9.751185035081149
 31
0.0
  0
LINE
  5
169
330
2
100
AcDbEntity
  8
GAIKEI
  6
Continuous
 62
     1
100
AcDbLine
 10
36.52554842524762
 20
11.49004842145342
 30
0.0
 11
36.52565383461257
 21
11.49054036515933
 31
0.0
  0
LINE
  5
16A
330
2
100
AcDbEntity
  8
GAIKEI
  6
Continuous
 62
     1
100
AcDbLine
 10
36.52549805410581
 20
11.48981340057341
 30
0.0
 11
36.52554842524762
 21
11.49004842145342
 31
0.0
  0
LINE
  5
16B
330
2
100
AcDbEntity
  8
GAIKEI
  6
Continuous
 62
     1
100
AcDbLine
 10
36.60982637944642
 20
9.3357913968036
 30
0.0
 11
36.61106802309144
 21
9.353933741962862
 31
0.0
  0
LINE
  5
16C
330
2
100
AcDbEntity
  8
GAIKEI
  6
Continuous
 62
     1
100
AcDbLine
 10
36.52554842524762
 20
7.596928010431341
 30
0.0
 11
36.52565383461257
 21
7.596436066725416
 31
0.0
  0
LINE
  5
16D
330
2
100
AcDbEntity
  8
GAIKEI
  6
Continuous
 62
     1
100
AcDbLine
 10
36.52549805410581
 20
7.597163031311382
 30
0.0
 11
36.52554842524762
 21
7.596928010431341
 31
0.0
  0
LINE
  5
16E
330
2
100
AcDbEntity
  8
GAIKEI
  6
Continuous
 62
     1
100
AcDbLine
 10
36.70712195684052
 20
7.792544422973506
 30
0.0
 11
36.70762036778763
 21
7.792475883550892
 31
0.0
  0
LINE
  5
16F
330
2
100
AcDbEntity
  8
GAIKEI
  6
Continuous
 62
     1
100
AcDbLine
 10
36.70688386902134
 20
7.792577159215241
 30
0.0
 11
36.70712195684052
 21
7.792544422973506
 31
0.0
  0
LINE
  5
170
330
2
100
AcDbEntity
  8
GAIKEI
  6
Continuous
 62
     1
100
AcDbLine
 10
35.51534104175039
 20
11.63884980812724
 30
0.0
 11
35.51458144093164
 21
11.63884980812724
 31
0.0
  0
LINE
  5
171
330
2
100
AcDbEntity
  8
GAIKEI
  6
Continuous
 62
     1
100
AcDbLine
 10
35.51458144093164
 20
7.448126623757516
 30
0.0
 11
35.51534104175039
 21
7.448126623757516
 31
0.0
  0
LINE
  5
172
330
2
100
AcDbEntity
  8
GAIKEI
  6
Continuous
 62
     1
100
AcDbLine
 10
35.51534104175039
 20
7.448126623757516
 30
0.0
 11
36.51168399348569
 21
7.661628691987132
 31
0.0
  0
LINE
  5
173
330
2
100
AcDbEntity
  8
GAIKEI
  6
Continuous
 62
     1
100
AcDbLine
 10
35.51458144093164
 20
7.379777708649001
 30
0.0
 11
36.52565383461257
 21
7.596436066725416
 31
0.0
  0
LINE
  5
174
330
2
100
AcDbEntity
  8
GAIKEI
  6
Continuous
 62
     1
100
AcDbLine
 10
36.61106802309144
 20
9.353933741962862
 30
0.0
 11
36.61106802309144
 21
9.733042689921887
 31
0.0
  0
LINE
  5
175
330
2
100
AcDbEntity
  8
GAIKEI
  6
Continuous
 62
     1
100
AcDbLine
 10
36.4244502766872
 20
11.09913392465041
 30
0.0
 11
36.41991494041963
 21
11.13211245457205
 31
0.0
  0
LINE
  5
176
330
2
100
AcDbEntity
  8
GAIKEI
  6
Continuous
 62
     1
100
AcDbLine
 10
36.53131227066007
 20
10.33624098005226
 30
0.0
 11
36.43551012594742
 21
11.03285923658802
 31
0.0
  0
LINE
  5
177
330
2
100
AcDbEntity
  8
GAIKEI
  6
Continuous
 62
     1
100
AcDbLine
 10
36.60982637944642
 20
9.751185035081149
 30
0.0
 11
36.53857788282773
 21
10.26926336287266
 31
0.0
  0
LINE
  5
178
330
2
100
AcDbEntity
  8
GAIKEI
  6
Continuous
 62
     1
100
AcDbLine
 10
36.51168399348569
 20
11.42534773989763
 30
0.0
 11
35.51534104175039
 21
11.63884980812724
 31
0.0
  0
LINE
  5
179
330
2
100
AcDbEntity
  8
GAIKEI
  6
Continuous
 62
     1
100
AcDbLine
 10
36.41991494041963
 20
7.954863977312712
 30
0.0
 11
36.4244502766872
 21
7.987842507234333
 31
0.0
  0
LINE
  5
17A
330
2
100
AcDbEntity
  8
GAIKEI
  6
Continuous
 62
     1
100
AcDbLine
 10
36.54843465853628
 20
8.889386103348101
 30
0.0
 11
36.60982637944642
 21
9.3357913968036
 31
0.0
  0
LINE
  5
17B
330
2
100
AcDbEntity
  8
GAIKEI
  6
Continuous
 62
     1
100
AcDbLine
 10
36.43551012594742
 20
8.05411719529674
 30
0.0
 11
36.54116904636862
 21
8.82240848616847
 31
0.0
  0
LINE
  5
17C
330
2
100
AcDbEntity
  8
GAIKEI
  6
Continuous
 62
     1
100
AcDbLine
 10
36.85154232095647
 20
9.392089565185699
 30
0.0
 11
36.85154232095647
 21
9.694886866699064
 31
0.0
  0
LINE
  5
17D
330
2
100
AcDbEntity
  8
GAIKEI
  6
Continuous
 62
     1
100
AcDbLine
 10
36.84285991624961
 20
9.821747804110842
 30
0.0
 11
36.64156946627384
 21
11.28541694131617
 31
0.0
  0
LINE
  5
17E
330
2
100
AcDbEntity
  8
GAIKEI
  6
Continuous
 62
     1
100
AcDbLine
 10
36.64156946627384
 20
7.801559490568578
 30
0.0
 11
36.84285991624961
 21
9.265228627773922
 31
0.0
  0
LINE
  5
17F
330
2
100
AcDbEntity
  8
GAIKEI
  6
Continuous
 62
     1
100
AcDbLine
 10
36.70762036778763
 20
7.792475883550892
 30
0.0
 11
36.96106233168905
 21
9.63536103125601
 31
0.0
  0
LINE
  5
180
330
2
100
AcDbEntity
  8
GAIKEI
  6
Continuous
 62
     1
100
AcDbLine
 10
35.55682352719157
 20
11.18400336473208
 30
0.0
 11
35.51458144093164
 21
11.18400336473208
 31
0.0
  0
LINE
  5
181
330
2
100
AcDbEntity
  8
GAIKEI
  6
Continuous
 62
     1
100
AcDbLine
 10
35.51458144093164
 20
7.902973067152672
 30
0.0
 11
35.55682352719157
 21
7.9029730671527
 31
0.0
  0
LINE
  5
182
330
2
100
AcDbEntity
  8
GAIKEI
  6
Continuous
 62
     1
100
AcDbLine
 10
35.55682352719157
 20
11.18400336473208
 30
0.0
 11
35.55682352719157
 21
7.9029730671527
 31
0.0
  0
LINE
  5
183
330
2
100
AcDbEntity
  8
GAIKEI
  6
Continuous
 62
     1
100
AcDbLine
 10
36.29264146635672
 20
11.24705143279755
 30
0.0
 11
35.62877385282968
 21
11.27023419243056
 31
0.0
  0
LINE
  5
184
330
2
100
AcDbEntity
  8
GAIKEI
  6
Continuous
 62
     1
100
AcDbLine
 10
35.62877385282968
 20
7.8167422394542
 30
0.0
 11
36.29264146635672
 21
7.839924999087216
 31
0.0
  0
SPLINE
  5
185
330
2
100
AcDbEntity
  8
GAIKEI
  6
Continuous
 62
     1
100
AcDbSpline
210
0.0
220
0.0
230
1.0
 70
     8
 71
     3
 72
    19
 73
    15
 74
    13
 42
0.0000000001
 43
0.0000000001
 44
0.000001
 12
0.0213842593146391
 22
0.9997713305819308
 32
0.0
 13
-0.1213258174957188
 23
0.9926127371785009
 33
0.0
 40
0.0
 40
0.0
 40
0.0
 40
0.0
 40
0.0113484976343809
 40
0.0224435594540862
 40
0.033102240367567
 40
0.0433328148777498
 40
0.0530063883185259
 40
0.0665828207561407
 40
0.0785040285380688
 40
0.0883020525193501
 40
0.0960449799608706
 40
0.0997746755134398
 40
0.1024788578004776
 40
0.1040675002433311
 40
0.1040675002433311
 40
0.1040675002433311
 40
0.1040675002433311
 10
34.1170435464453
 20
12.30469981073979
 30
0.0
 10
34.11712443951739
 20
12.30848177826647
 30
0.0
 10
34.11721464630023
 20
12.31596321412607
 30
0.0
 10
34.11708685609867
 20
12.32699710410654
 30
0.0
 10
34.11686450448981
 20
12.33765622728038
 30
0.0
 10
34.11660588532742
 20
12.34784056396662
 30
0.0
 10
34.11633695825055
 20
12.35899755881291
 30
0.0
 10
34.11617136527133
 20
12.37072042726881
 30
0.0
 10
34.11620088354833
 20
12.38248673345873
 30
0.0
 10
34.11646516897065
 20
12.39230428602458
 30
0.0
 10
34.11681893464287
 20
12.39938769743135
 30
0.0
 10
34.11706075730811
 20
12.40410393641875
 30
0.0
 10
34.11723617716416
 20
12.40677863974809
 30
0.0
 10
34.11710779422633
 20
12.40820732768475
 30
0.0
 10
34.1170435464453
 20
12.40873296325928
 30
0.0
 11
34.1170435464453
 21
12.30469981073979
 31
0.0
 11
34.11716944881562
 21
12.31604757065672
 31
0.0
 11
34.117066678112
 21
12.32714215469555
 31
0.0
 11
34.1168523166773
 21
12.33779867772428
 31
0.0
 11
34.11660243139408
 21
12.34802619871699
 31
0.0
 11
34.11638068705156
 21
12.35769722980532
 31
0.0
 11
34.11620265334989
 21
12.37127249508087
 31
0.0
 11
34.11625488297813
 21
12.38319358919686
 31
0.0
 11
34.11652453459067
 21
12.39298790129605
 31
0.0
 11
34.11688690814043
 21
12.40072233890734
 31
0.0
 11
34.11708764746982
 21
12.40444661558713
 31
0.0
 11
34.11717138348138
 21
12.40714944898164
 31
0.0
 11
34.1170435464453
 21
12.40873296325928
 31
0.0
  0
SPLINE
  5
186
330
2
100
AcDbEntity
  8
GAIKEI
  6
Continuous
 62
     1
100
AcDbSpline
210
0.0
220
0.0
230
1.0
 70
     8
 71
     3
 72
    25
 73
    21
 74
    19
 42
0.0000000001
 43
0.0000000001
 44
0.000001
 12
0.5909511587252205
 22
-0.8067073372675615
 32
0.0
 13
-0.0272811889574892
 23
-0.999627799097777
 33
0.0
 40
0.0
 40
0.0
 40
0.0
 40
0.0
 40
0.0004955099168165
 40
0.0018178620005972
 40
0.0040907347726304
 40
0.0072755829690747
 40
0.011233983652273
 40
0.016007925133084
 40
0.0217345560385918
 40
0.0282471715098402
 40
0.0353831516205908
 40
0.0431870615596633
 40
0.0518586981817552
 40
0.0611185243132524
 40
0.0706522526823847
 40
0.0806167164363144
 40
0.0912501549405491
 40
0.1021898340907037
 40
0.1174982836900096
 40
0.1332424412969959
 40
0.1332424412969959
 40
0.1332424412969959
 40
0.1332424412969959
 10
34.15811666237414
 20
12.43456962276352
 30
0.0
 10
34.15821426976065
 20
12.43443637893499
 30
0.0
 10
34.15854025589231
 20
12.43390861242244
 30
0.0
 10
34.15845679241966
 20
12.43248401993959
 30
0.0
 10
34.15857541878928
 20
12.43025972686691
 30
0.0
 10
34.15849865417687
 20
12.42710530171926
 30
0.0
 10
34.15845015771885
 20
12.42313941384437
 30
0.0
 10
34.15836541619853
 20
12.41831827343147
 30
0.0
 10
34.15829309290625
 20
12.41264842026463
 30
0.0
 10
34.15823485875785
 20
12.4061900040441
 30
0.0
 10
34.15820621897834
 20
12.39903927592459
 30
0.0
 10
34.15820746384709
 20
12.39116872290363
 30
0.0
 10
34.15824246173152
 20
12.38259032728629
 30
0.0
 10
34.15830339286572
 20
12.37343545894004
 30
0.0
 10
34.1583816108397
 20
12.36384977130892
 30
0.0
 10
34.15846076085228
 20
12.35380620817884
 30
0.0
 10
34.1585245698698
 20
12.34329385162516
 30
0.0
 10
34.15854733601193
 20
12.33099999851045
 30
0.0
 10
34.15847489732255
 20
12.31700240555098
 30
0.0
 10
34.15825983548703
 20
12.30665328674433
 30
0.0
 10
34.15811666237414
 20
12.30140718753856
 30
0.0
 11
34.15811666237414
 21
12.43456962276352
 31
0.0
 11
34.15836417535803
 21
12.43414028454046
 31
0.0
 11
34.15849369150033
 21
12.43282448141342
 31
0.0
 11
34.15853424433601
 21
12.43055200476276
 31
0.0
 11
34.1585098122269
 21
12.42736726579862
 31
0.0
 11
34.15844931326501
 21
12.42340933572471
 31
0.0
 11
34.15837354313885
 21
12.41863600056983
 31
0.0
 11
34.15829881953971
 21
12.41290986043695
 31
0.0
 11
34.15824097146686
 21
12.4063975040266
 31
0.0
 11
34.1582108880516
 21
12.39926158876146
 31
0.0
 11
34.1582112969727
 21
12.3914576798678
 31
0.0
 11
34.15824430901097
 21
12.38278610686602
 31
0.0
 11
34.15830411920422
 21
12.3735264745133
 31
0.0
 11
34.15837905181968
 21
12.36399304109497
 31
0.0
 11
34.15845514047595
 21
12.35402886822497
 31
0.0
 11
34.15851562724709
 21
12.34339560197172
 31
0.0
 11
34.15853300577072
 21
12.33245593651161
 31
0.0
 11
34.15843544723129
 21
12.31714779546351
 31
0.0
 11
34.15811666237414
 21
12.30140718753856
 31
0.0
  0
SPLINE
  5
187
330
2
100
AcDbEntity
  8
GAIKEI
  6
Continuous
 62
     1
100
AcDbSpline
210
0.0
220
0.0
230
1.0
 70
     8
 71
     3
 72
    25
 73
    21
 74
    19
 42
0.0000000001
 43
0.0000000001
 44
0.000001
 12
0.0281905901065335
 22
-0.9996025663379647
 32
0.0
 13
-0.4008655609207862
 23
-0.9161368904632446
 33
0.0
 40
0.0
 40
0.0
 40
0.0
 40
0.0
 40
0.010864225067662
 40
0.0216568857620734
 40
0.0326063958987584
 40
0.0433262346926929
 40
0.0534690969873175
 40
0.0632547433492304
 40
0.0728733530304744
 40
0.0819780700940702
 40
0.0903746034312837
 40
0.0981541992728604
 40
0.1054556263380668
 40
0.1119952017292001
 40
0.1175898577971866
 40
0.1223753842863808
 40
0.1264164536402482
 40
0.1295339844560157
 40
0.1322586066750178
 40
0.1332252651170974
 40
0.1332252651170974
 40
0.1332252651170974
 40
0.1332252651170974
 10
34.15811666237414
 20
-11.4308156988438
 30
0.0
 10
34.15821875201272
 20
-11.4344356679301
 30
0.0
 10
34.15838608565016
 20
-11.44165287901344
 30
0.0
 10
34.15850949990585
 20
-11.45252115742451
 30
0.0
 10
34.15854612457451
 20
-11.46334184522521
 30
0.0
 10
34.15851786091546
 20
-11.47394592047749
 30
0.0
 10
34.15845415986084
 20
-11.48416184699287
 30
0.0
 10
34.158374873653
 20
-11.49401056831671
 30
0.0
 10
34.15829894437309
 20
-11.50351325627817
 30
0.0
 10
34.15823892582829
 20
-11.51255301547365
 30
0.0
 10
34.15820749610791
 20
-11.52097992813006
 30
0.0
 10
34.15820599452705
 20
-11.52880577448196
 30
0.0
 10
34.15823862592167
 20
-11.5360126897888
 30
0.0
 10
34.1582957811192
 20
-11.54249070367771
 30
0.0
 10
34.15837693054998
 20
-11.54813100740443
 30
0.0
 10
34.1584423654393
 20
-11.55293481768073
 30
0.0
 10
34.15854432347551
 20
-11.55692316367356
 30
0.0
 10
34.15847443854193
 20
-11.5601972230848
 30
0.0
 10
34.15868134855327
 20
-11.5625167368316
 30
0.0
 10
34.15824582906701
 20
-11.56368293691564
 30
0.0
 10
34.15811666237414
 20
-11.56397813406873
 30
0.0
 11
34.15811666237414
 21
-11.4308156988438
 31
0.0
 11
34.15836417535803
 21
-11.44167688882153
 31
0.0
 11
34.15849369150033
 21
-11.45246877384728
 31
0.0
 11
34.15853424433601
 21
-11.46341820871142
 31
0.0
 11
34.1585098122269
 21
-11.47413801917017
 31
0.0
 11
34.15844931326501
 21
-11.48428070046849
 31
0.0
 11
34.15837354313891
 21
-11.49406605290632
 31
0.0
 11
34.15829881953971
 21
-11.50368437170793
 31
0.0
 11
34.15824097146691
 21
-11.51278890432573
 31
0.0
 11
34.1582108880516
 21
-11.52118538298403
 31
0.0
 11
34.1582112969727
 21
-11.52896497782608
 31
0.0
 11
34.15824430901097
 21
-11.53626632885304
 31
0.0
 11
34.15830411920422
 21
-11.54280562868281
 31
0.0
 11
34.15837905181968
 21
-11.54839977984231
 31
0.0
 11
34.15845514047601
 21
-11.55318469648541
 31
0.0
 11
34.15851562724709
 21
-11.55722530436631
 31
0.0
 11
34.15853300577072
 21
-11.5603427694829
 31
0.0
 11
34.15843544723134
 21
-11.56306549898167
 31
0.0
 11
34.15811666237414
 21
-11.56397813406873
 31
0.0
  0
SPLINE
  5
188
330
2
100
AcDbEntity
  8
GAIKEI
  6
Continuous
 62
     1
100
AcDbSpline
210
0.0
220
0.0
230
1.0
 70
     8
 71
     3
 72
    41
 73
    37
 74
    35
 42
0.0000000001
 43
0.0000000001
 44
0.000001
 12
-0.4353819225186907
 22
-0.9002458450578536
 32
0.0
 13
-0.5598877767279204
 23
-0.8285684506850756
 33
0.0
 40
0.0
 40
0.0
 40
0.0
 40
0.0
 40
0.0014188981557122
 40
0.0056448915115813
 40
0.0126413138108321
 40
0.0164792481112111
 40
0.0208170576424763
 40
0.0256522187933282
 40
0.0309822866874761
 40
0.036804896548687
 40
0.0431177647878726
 40
0.0499186898280706
 40
0.0729057058812843
 40
0.1010164645423424
 40
0.1080304895441492
 40
0.1153021852384059
 40
0.1228314347323648
 40
0.1306181176540897
 40
0.1386621104766565
 40
0.1469632867771909
 40
0.1555215174960055
 40
0.1642630739514914
 40
0.1739105775431485
 40
0.1844685114552901
 40
0.1959416628115658
 40
0.2083351588240105
 40
0.2238438276836475
 40
0.2405950042822398
 40
0.2556503340563067
 40
0.2671428071198656
 40
0.2750469816948181
 40
0.2819138388210476
 40
0.2964544164855449
 40
0.3382914855718893
 40
0.378119511042595
 40
0.4161359202117693
 40
0.4161359202117693
 40
0.4161359202117693
 40
0.4161359202117693
 10
36.98304523744287
 20
-8.254144232018418
 30
0.0
 10
36.9828393165739
 20
-8.2545700177415
 30
0.0
 10
36.98202253598595
 20
-8.2562651528429
 30
0.0
 10
36.98025510024795
 20
-8.260090579775322
 30
0.0
 10
36.97820298302892
 20
-8.264672221587233
 30
0.0
 10
36.97618081971962
 20
-8.269307779309173
 30
0.0
 10
36.9744710107389
 20
-8.273293513526738
 30
0.0
 10
36.97259284208789
 20
-8.277748139850828
 30
0.0
 10
36.97055301461126
 20
-8.282671622462359
 30
0.0
 10
36.96835804327013
 20
-8.288063885275505
 30
0.0
 10
36.96601561468916
 20
-8.293925326137326
 30
0.0
 10
36.96161350827003
 20
-8.30512494898393
 30
0.0
 10
36.9548735619486
 20
-8.323211378272418
 30
0.0
 10
36.94845485233843
 20
-8.341488465020702
 30
0.0
 10
36.94388061646697
 20
-8.354859861459544
 30
0.0
 10
36.94154889233296
 20
-8.361747551812499
 30
0.0
 10
36.93915599224221
 20
-8.368886401103367
 30
0.0
 10
36.93670258182127
 20
-8.376276443944462
 30
0.0
 10
36.93418923660056
 20
-8.383917673963139
 30
0.0
 10
36.93161651759559
 20
-8.391810080733932
 30
0.0
 10
36.9289927090227
 20
-8.399930367725829
 30
0.0
 10
36.92625159968682
 20
-8.408484339711606
 30
0.0
 10
36.92331147773146
 20
-8.417674488366316
 30
0.0
 10
36.92008481757265
 20
-8.427728959004525
 30
0.0
 10
36.91655635330342
 20
-8.438647876993826
 30
0.0
 10
36.91248194858582
 20
-8.451124563056382
 30
0.0
 10
36.90780801759553
 20
-8.46525628250086
 30
0.0
 10
36.90269770227569
 20
-8.480177479873816
 30
0.0
 10
36.89789016579459
 20
-8.493786499479483
 30
0.0
 10
36.89396902038895
 20
-8.50458040807311
 30
0.0
 10
36.89093182176296
 20
-8.512791289520535
 30
0.0
 10
36.88743723549884
 20
-8.521915740488537
 30
0.0
 10
36.87959437783945
 20
-8.54148495054649
 30
0.0
 10
36.86652841305348
 20
-8.570794509015016
 30
0.0
 10
36.84794787799238
 20
-8.606133507485907
 30
0.0
 10
36.83415598230407
 20
-8.628145237710782
 30
0.0
 10
36.82706100803443
 20
-8.63864497012608
 30
0.0
 11
36.98304523744287
 21
-8.254144232018418
 31
0.0
 11
36.98243134305938
 21
-8.255423462383788
 31
0.0
 11
36.98064900400965
 21
-8.259255199678236
 31
0.0
 11
36.9777869706931
 21
-8.265639443901775
 31
0.0
 11
36.97625171542223
 21
-8.269156928241145
 31
0.0
 11
36.97454120040027
 21
-8.273143240383845
 31
0.0
 11
36.9726622506621
 21
-8.27759838032982
 31
0.0
 11
36.97062164097952
 21
-8.282522348079098
 31
0.0
 11
36.96842609081625
 21
-8.287915143631693
 31
0.0
 11
36.96608225957675
 21
-8.293776766987576
 31
0.0
 11
36.96359674213966
 21
-8.300107218146749
 31
0.0
 11
36.95553253769702
 21
-8.321633226604561
 31
0.0
 11
36.94618324607848
 21
-8.348143612725365
 31
0.0
 11
36.94391285634003
 21
-8.35477999037964
 31
0.0
 11
36.94158079039221
 21
-8.361667559078156
 31
0.0
 11
36.93918762834698
 21
-8.368806318820915
 31
0.0
 11
36.93673395399128
 21
-8.376196269607902
 31
0.0
 11
36.93422035465653
 21
-8.383837411439145
 31
0.0
 11
36.93164742108792
 21
-8.391729744314616
 31
0.0
 11
36.9290157473157
 21
-8.399873268234316
 31
0.0
 11
36.92634538475579
 21
-8.408196932474282
 31
0.0
 11
36.92340362499567
 21
-8.417384952917956
 31
0.0
 11
36.92017578329359
 21
-8.427437329565336
 31
0.0
 11
36.91664628455402
 21
-8.438354062416479
 31
0.0
 11
36.91279869859204
 21
-8.450135151471314
 31
0.0
 11
36.90791419109962
 21
-8.464854511157255
 31
0.0
 11
36.90248882315723
 21
-8.480702744593386
 31
0.0
 11
36.89747178108144
 21
-8.494897532614501
 31
0.0
 11
36.89354914060823
 21
-8.505699848602816
 31
0.0
 11
36.89079770298281
 21
-8.513109692558288
 31
0.0
 11
36.88834254617427
 21
-8.519522651956251
 31
0.0
 11
36.88293608705715
 21
-8.533020756563942
 31
0.0
 11
36.865839947616
 21
-8.571205362039478
 31
0.0
 11
36.84722089274442
 21
-8.606413433226876
 31
0.0
 11
36.82706100803443
 21
-8.63864497012608
 31
0.0
  0
SPLINE
  5
189
330
2
100
AcDbEntity
  8
GAIKEI
  6
Continuous
 62
     1
100
AcDbSpline
210
0.0
220
0.0
230
1.0
 70
     8
 71
     3
 72
    41
 73
    37
 74
    35
 42
0.0000000001
 43
0.0000000001
 44
0.000001
 12
0.0064747712617763
 22
0.9999790384488605
 32
0.0
 13
0.7486451432179164
 23
0.6629709266146034
 33
0.0
 40
0.0
 40
0.0
 40
0.0
 40
0.0
 40
0.0048797220293058
 40
0.0095408573170904
 40
0.0141412567217135
 40
0.0164487246822611
 40
0.0187692787785185
 40
0.0223290693966894
 40
0.0263636850181072
 40
0.0309350675743398
 40
0.0370166492812824
 40
0.043822555911933
 40
0.059249718465696
 40
0.0737747348064993
 40
0.0806057129628064
 40
0.0867323678928043
 40
0.0921021930535982
 40
0.0967157812166631
 40
0.1005724437415485
 40
0.1036696750115101
 40
0.1061043465926431
 40
0.1085083068790461
 40
0.1109974520350435
 40
0.113574943802886
 40
0.116240027132623
 40
0.1176035175536331
 40
0.1189706962059946
 40
0.1203341254549131
 40
0.1216923397903233
 40
0.1243862356734574
 40
0.1270369830950708
 40
0.1296268378283609
 40
0.1321361840472143
 40
0.134543829992677
 40
0.1368271714864141
 40
0.1389621751957601
 40
0.1389621751957601
 40
0.1389621751957601
 40
0.1389621751957601
 10
36.98305981576118
 20
-8.251939768727666
 30
0.0
 10
36.98307034745584
 20
-8.250313228813411
 30
0.0
 10
36.98312379821216
 20
-8.247133308569189
 30
0.0
 10
36.98325289984487
 20
-8.242420966619718
 30
0.0
 10
36.98349392998998
 20
-8.238571046309033
 30
0.0
 10
36.98377905312907
 20
-8.23550797287956
 30
0.0
 10
36.98408901786208
 20
-8.232796124738086
 30
0.0
 10
36.98455395088855
 20
-8.229523592079317
 30
0.0
 10
36.985210250313
 20
-8.225521466101938
 30
0.0
 10
36.98612816373748
 20
-8.220711807911683
 30
0.0
 10
36.98740008121069
 20
-8.215031465543177
 30
0.0
 10
36.98981582309381
 20
-8.205905525577634
 30
0.0
 10
36.99373610560075
 20
-8.194276983504565
 30
0.0
 10
36.99868227570242
 20
-8.183040117896467
 30
0.0
 10
37.00290140539753
 20
-8.174906325480861
 30
0.0
 10
37.00591690396432
 20
-8.169591724495575
 30
0.0
 10
37.00872208130173
 20
-8.165011617537729
 30
0.0
 10
37.01124424771081
 20
-8.161148121182492
 30
0.0
 10
37.01342827036532
 20
-8.157970093047765
 30
0.0
 10
37.01524976417974
 20
-8.155425168674071
 30
0.0
 10
37.01681253503784
 20
-8.153290747648682
 30
0.0
 10
37.01829296541655
 20
-8.151347717236475
 30
0.0
 10
37.01983900274557
 20
-8.14939539438393
 30
0.0
 10
37.02147672693739
 20
-8.147405219938548
 30
0.0
 10
37.02290734831908
 20
-8.145731060366756
 30
0.0
 10
37.02409414270123
 20
-8.144379580778945
 30
0.0
 10
37.02500414926712
 20
-8.143362551510833
 30
0.0
 10
37.02592220750486
 20
-8.142355165075969
 30
0.0
 10
37.0271498587155
 20
-8.141031678747864
 30
0.0
 10
37.02869014238485
 20
-8.139413019689868
 30
0.0
 10
37.03054356235859
 20
-8.137526091258862
 30
0.0
 10
37.03238074614939
 20
-8.135709850234235
 30
0.0
 10
37.03418412348013
 20
-8.133975031559458
 30
0.0
 10
37.03593462256565
 20
-8.132332900447096
 30
0.0
 10
37.03761287958008
 20
-8.130796419952986
 30
0.0
 10
37.03870916168711
 20
-8.129812877931925
 30
0.0
 10
37.03924194840636
 20
-8.129341062802751
 30
0.0
 11
36.98305981576118
 21
-8.251939768727666
 31
0.0
 11
36.98313282907481
 21
-8.247060525531452
 31
0.0
 11
36.98327991609557
 21
-8.242401701591333
 31
0.0
 11
36.98357153545385
 21
-8.237810528338243
 31
0.0
 11
36.98378566576792
 21
-8.235513002132435
 31
0.0
 11
36.98404938969725
 21
-8.233207465350929
 31
0.0
 11
36.98454247242751
 21
-8.229681959398035
 31
0.0
 11
36.98519648871519
 21
-8.225700667723202
 31
0.0
 11
36.98605313194395
 21
-8.221210222836489
 31
0.0
 11
36.98738213710544
 21
-8.215275573076397
 31
0.0
 11
36.98912379211868
 21
-8.208696227602885
 31
0.0
 11
36.9940524752198
 21
-8.194077435165624
 31
0.0
 11
36.99990425218982
 21
-8.180783255144476
 31
0.0
 11
37.00304837738367
 21
-8.17471883994817
 31
0.0
 11
37.00607193621875
 21
-8.169390212241438
 31
0.0
 11
37.00887639098312
 21
-8.164810883581338
 31
0.0
 11
37.01139791061735
 21
-8.160947301643275
 31
0.0
 11
37.01358200746518
 21
-8.157768678225622
 31
0.0
 11
37.01538258286542
 21
-8.155248596749331
 31
0.0
 11
37.01682406141618
 21
-8.153286510196764
 31
0.0
 11
37.01828079423558
 21
-8.151374186798008
 31
0.0
 11
37.01982590674288
 21
-8.149422647288005
 31
0.0
 11
37.02146342187655
 21
-8.147432157248047
 31
0.0
 11
37.02319444088459
 21
-8.145405758849832
 31
0.0
 11
37.02409416014962
 21
-8.144381247244311
 31
0.0
 11
37.0250057771384
 21
-8.143362353391268
 31
0.0
 11
37.02592410813702
 21
-8.142354573610276
 31
0.0
 11
37.0268477420907
 21
-8.141358752931722
 31
0.0
 11
37.02870447287359
 21
-8.139406914369118
 31
0.0
 11
37.03056170324123
 21
-8.137515565380439
 31
0.0
 11
37.03240327844259
 21
-8.135694580379336
 31
0.0
 11
37.03421152368367
 21
-8.133954724525167
 31
0.0
 11
37.03596752015602
 21
-8.132307527654901
 31
0.0
 11
37.03765129724428
 21
-8.130765269800363
 31
0.0
 11
37.03924194840636
 21
-8.129341062802751
 31
0.0
  0
SPLINE
  5
18A
330
2
100
AcDbEntity
  8
GAIKEI
  6
Continuous
 62
     1
100
AcDbSpline
210
0.0
220
0.0
230
1.0
 70
     8
 71
     3
 72
    28
 73
    24
 74
    22
 42
0.0000000001
 43
0.0000000001
 44
0.000001
 12
0.7217480328339719
 22
0.6921558907502644
 32
0.0
 13
0.9952109123015889
 23
0.097750908107491
 33
0.0
 40
0.0
 40
0.0
 40
0.0
 40
0.0
 40
0.0085574556742722
 40
0.015761227866957
 40
0.0214927938015432
 40
0.0271056634999206
 40
0.0329787390915903
 40
0.0433389756415669
 40
0.0541633007318046
 40
0.0646559634913642
 40
0.0722886488915316
 40
0.0796562109044949
 40
0.0829521424257707
 40
0.0858598682483339
 40
0.0883836539144425
 40
0.0905234199420717
 40
0.0914476423481348
 40
0.0930940134124213
 40
0.0950313810153736
 40
0.0987440020349525
 40
0.1025235815009277
 40
0.1066919450467047
 40
0.1110672556985169
 40
0.1110672556985169
 40
0.1110672556985169
 40
0.1110672556985169
 10
35.86204796759967
 20
-10.87964582438597
 30
0.0
 10
35.86410674319932
 20
-10.87767145993437
 30
0.0
 10
35.86799107685485
 20
-10.87413061239
 30
0.0
 10
35.87348560590084
 20
-10.86952963295886
 30
0.0
 10
35.87840068610927
 20
-10.86577628296157
 30
0.0
 10
35.88308157357659
 20
-10.86245368757804
 30
0.0
 10
35.88916196494276
 20
-10.85844416601048
 30
0.0
 10
35.89693053428151
 20
-10.85384949338006
 30
0.0
 10
35.90634904605833
 20
-10.84906113230047
 30
0.0
 10
35.91520069422357
 20
-10.84520368260314
 30
0.0
 10
35.92315277797851
 20
-10.84220264524164
 30
0.0
 10
35.92893684824475
 20
-10.84026255945022
 30
0.0
 10
35.93327562492544
 20
-10.83898059903838
 30
0.0
 10
35.9360863365818
 20
-10.8382290043596
 30
0.0
 10
35.93853971008178
 20
-10.83763615473467
 30
0.0
 10
35.94035997899749
 20
-10.83724056088687
 30
0.0
 10
35.9418998031756
 20
-10.83693342180673
 30
0.0
 10
35.94337839535993
 20
-10.83666521407124
 30
0.0
 10
35.94577469043145
 20
-10.83624929168394
 30
0.0
 10
35.94887843461691
 20
-10.83575187769929
 30
0.0
 10
35.95272545816378
 20
-10.83519585081255
 30
0.0
 10
35.95680033053333
 20
-10.83467551403775
 30
0.0
 10
35.95963182381066
 20
-10.8343682498776
 30
0.0
 10
35.96108327611245
 20
-10.83422568634778
 30
0.0
 11
35.86204796759967
 21
-10.87964582438597
 31
0.0
 11
35.86836692450004
 21
-10.87387480996456
 31
0.0
 11
35.87389895466311
 21
-10.86926060721693
 31
0.0
 11
35.87845160212356
 21
-10.86577853249188
 31
0.0
 11
35.88302814449014
 21
-10.86252888938553
 31
0.0
 11
35.88793137113231
 21
-10.85929594072372
 31
0.0
 11
35.89684876709612
 21
-10.85402183135115
 31
0.0
 11
35.90649378956653
 21
-10.84910848484961
 31
0.0
 11
35.91611245681338
 21
-10.84491592918807
 31
0.0
 11
35.92325159003576
 21
-10.84221583023877
 31
0.0
 11
35.93024198521232
 21
-10.83988876282164
 31
0.0
 11
35.93340363728862
 21
-10.83895756125244
 31
0.0
 11
35.93621286355051
 21
-10.83820712878788
 31
0.0
 11
35.93866629664228
 21
-10.83761535763257
 31
0.0
 11
35.94075746465865
 21
-10.83716187949831
 31
0.0
 11
35.94166390194426
 21
-10.83698142527808
 31
0.0
 11
35.9432830845966
 21
-10.83668343035563
 31
0.0
 11
35.94519195523981
 21
-10.83635233112054
 31
0.0
 11
35.94885763301716
 21
-10.83576374513582
 31
0.0
 11
35.95259837084893
 21
-10.83522321768369
 31
0.0
 11
35.95673326758799
 21
-10.83469599534045
 31
0.0
 11
35.96108327611245
 21
-10.83422568634778
 31
0.0
  0
SPLINE
  5
18B
330
2
100
AcDbEntity
  8
GAIKEI
  6
Continuous
 62
     1
100
AcDbSpline
210
0.0
220
0.0
230
1.0
 70
     8
 71
     3
 72
    29
 73
    25
 74
    23
 42
0.0000000001
 43
0.0000000001
 44
0.000001
 12
-0.7526510322232209
 22
0.6584196410294276
 32
0.0
 13
-0.2875771477137425
 23
0.9577574766676731
 33
0.0
 40
0.0
 40
0.0
 40
0.0
 40
0.0
 40
0.0006178609697034
 40
0.0025238280918978
 40
0.0057516774460672
 40
0.0103542765095918
 40
0.0162722171497844
 40
0.023486723210104
 40
0.0319681323429118
 40
0.0417098918670015
 40
0.0526991513234866
 40
0.0647415419930092
 40
0.0778782946105966
 40
0.0920789904186579
 40
0.1103097290039382
 40
0.1297009403755307
 40
0.1502086033981852
 40
0.1717154207143391
 40
0.1940021147980679
 40
0.2166743733353234
 40
0.2399436692024597
 40
0.2637847006266244
 40
0.2881156005156702
 40
0.312785990006476
 40
0.312785990006476
 40
0.312785990006476
 40
0.312785990006476
 10
36.68439892493763
 20
-8.427013394336356
 30
0.0
 10
36.68424391370542
 20
-8.426877790403736
 30
0.0
 10
36.68363532161968
 20
-8.426281308483865
 30
0.0
 10
36.68303538462597
 20
-8.424397566147575
 30
0.0
 10
36.68175396094124
 20
-8.421448593082885
 30
0.0
 10
36.68023231113334
 20
-8.417108184260925
 30
0.0
 10
36.67826547438088
 20
-8.411540106114259
 30
0.0
 10
36.67595647301224
 20
-8.404712870664056
 30
0.0
 10
36.67327882290431
 20
-8.39666838803879
 30
0.0
 10
36.67024994048205
 20
-8.387413639732727
 30
0.0
 10
36.66688852801926
 20
-8.377019248975841
 30
0.0
 10
36.66321287070841
 20
-8.365537047839424
 30
0.0
 10
36.65924090316516
 20
-8.353025793139735
 30
0.0
 10
36.65467454271635
 20
-8.338539024966948
 30
0.0
 10
36.64951376396843
 20
-8.322053721161779
 30
0.0
 10
36.64375837164792
 20
-8.303551666441762
 30
0.0
 10
36.63770955375023
 20
-8.283997275152131
 30
0.0
 10
36.63140438945939
 20
-8.263511920951145
 30
0.0
 10
36.62491397913944
 20
-8.242328667792278
 30
0.0
 10
36.61827673680254
 20
-8.220575969590328
 30
0.0
 10
36.6115121028562
 20
-8.198320461857989
 30
0.0
 10
36.60460988871971
 20
-8.175528929623411
 30
0.0
 10
36.59759418638965
 20
-8.152283799406035
 30
0.0
 10
36.5928908575632
 20
-8.136641849120749
 30
0.0
 10
36.59052597748229
 20
-8.128765765791712
 30
0.0
 11
36.68439892493763
 21
-8.427013394336356
 31
0.0
 11
36.68396731364067
 21
-8.426571218673117
 31
0.0
 11
36.68315473550894
 21
-8.4248473156658
 31
0.0
 11
36.68196355362636
 21
-8.421847326567572
 31
0.0
 11
36.68037825712469
 21
-8.417526373323156
 31
0.0
 11
36.67842094195788
 21
-8.411941496511971
 31
0.0
 11
36.67609783270939
 21
-8.40511125580052
 31
0.0
 11
36.67341854637982
 21
-8.397064165351551
 31
0.0
 11
36.67038523772794
 21
-8.387806689177224
 31
0.0
 11
36.66700229342382
 21
-8.377351094219093
 31
0.0
 11
36.66332931034009
 21
-8.365882514118922
 31
0.0
 11
36.65935317021729
 21
-8.353361949235434
 31
0.0
 11
36.65508310025382
 21
-8.339818455086827
 31
0.0
 11
36.64963524637466
 21
-8.322420734555365
 31
0.0
 11
36.64387448978249
 21
-8.303904991810412
 31
0.0
 11
36.63781330225174
 21
-8.28431350845814
 31
0.0
 11
36.63148598446515
 21
-8.263758503818124
 31
0.0
 11
36.62495655371981
 21
-8.242449743987904
 31
0.0
 11
36.61833946662222
 21
-8.220764600531609
 31
0.0
 11
36.61157209151332
 21
-8.198501115911241
 31
0.0
 11
36.60466159262336
 21
-8.175683583858329
 31
0.0
 11
36.59763170013656
 21
-8.152390381293614
 31
0.0
 11
36.59052597748229
 21
-8.128765765791712
 31
0.0
  0
SPLINE
  5
18C
330
2
100
AcDbEntity
  8
GAIKEI
  6
Continuous
 62
     1
100
AcDbSpline
210
0.0
220
0.0
230
1.0
 70
     8
 71
     3
 72
    11
 73
     7
 74
     5
 42
0.0000000001
 43
0.0000000001
 44
0.000001
 12
0.1117045080192779
 22
-0.9937414668253364
 32
0.0
 13
0.1717596663978053
 23
-0.98513888208664
 33
0.0
 40
0.0
 40
0.0
 40
0.0
 40
0.0
 40
0.0001599086223832
 40
0.0092970523466117
 40
0.0172856571480047
 40
0.0223562774757398
 40
0.0223562774757398
 40
0.0223562774757398
 40
0.0223562774757398
 10
35.55787599256257
 20
7.893341703669563
 30
0.0
 10
35.5578819467339
 20
7.893288734393237
 30
0.0
 10
35.55822813738477
 20
7.89020911354035
 30
0.0
 10
35.55889606047745
 20
7.884486138896107
 30
0.0
 10
35.55985452058103
 20
7.877148654076151
 30
0.0
 10
35.56055900856033
 20
7.87285240898224
 30
0.0
 10
35.5608493179123
 20
7.871187320568523
 30
0.0
 11
35.55787599256257
 21
7.893341703669563
 31
0.0
 11
35.55789386949897
 21
7.893182798270487
 31
0.0
 11
35.55896353448924
 21
7.884108652943226
 31
0.0
 11
35.56003212820951
 21
7.876191766051462
 31
0.0
 11
35.5608493179123
 21
7.871187320568523
 31
0.0
  0
SPLINE
  5
18D
330
2
100
AcDbEntity
  8
GAIKEI
  6
Continuous
 62
     1
100
AcDbSpline
210
0.0
220
0.0
230
1.0
 70
     8
 71
     3
 72
    15
 73
    11
 74
     9
 42
0.0000000001
 43
0.0000000001
 44
0.000001
 12
0.9994496190759601
 22
0.0331731657958403
 32
0.0
 13
0.134530790036436
 23
0.9909094138881577
 33
0.0
 40
0.0
 40
0.0
 40
0.0
 40
0.0
 40
0.0233153785982003
 40
0.0466018528889797
 40
0.0698679735041085
 40
0.0931236945379898
 40
0.1163794155718
 40
0.1396455361869228
 40
0.1629320104776303
 40
0.1862473890757241
 40
0.1862473890757241
 40
0.1862473890757241
 40
0.1862473890757241
 10
36.29264145954124
 20
7.839924991404231
 30
0.0
 10
36.30040897496078
 20
7.840182806377512
 30
0.0
 10
36.31592603057476
 20
7.84203318610875
 30
0.0
 10
36.33831842416839
 20
7.848842941507641
 30
0.0
 10
36.35916626719615
 20
7.85944868635093
 30
0.0
 10
36.37782642532625
 20
7.873533829807101
 30
0.0
 10
36.39373429906215
 20
7.890666614776861
 30
0.0
 10
36.40640300992833
 20
7.910329222629826
 30
0.0
 10
36.41545227197111
 20
7.931914006991107
 30
0.0
 10
36.41886938174557
 20
7.947162819432236
 30
0.0
 10
36.41991492717983
 20
7.954863962145978
 30
0.0
 11
36.29264145954124
 21
7.839924991404231
 31
0.0
 11
36.31579073629422
 21
7.842707299169788
 31
0.0
 11
36.33807103081506
 21
7.849478515177239
 31
0.0
 11
36.35880674437988
 21
7.860030482927555
 31
0.0
 11
36.37736844985625
 21
7.874040952202435
 31
0.0
 11
36.3931920343847
 21
7.891083379616446
 31
0.0
 11
36.40579585566718
 21
7.910639901023017
 31
0.0
 11
36.41479539008816
 21
7.932117081246602
 31
0.0
 11
36.41991492717983
 21
7.954863962145978
 31
0.0
  0
SPLINE
  5
18E
330
2
100
AcDbEntity
  8
GAIKEI
  6
Continuous
 62
     1
100
AcDbSpline
210
0.0
220
0.0
230
1.0
 70
     8
 71
     3
 72
    13
 73
     9
 74
     7
 42
0.0000000001
 43
0.0000000001
 44
0.000001
 12
-0.999877353382941
 22
0.0156613598364006
 32
0.0
 13
-0.9488110788832816
 23
-0.3158441650376698
 33
0.0
 40
0.0
 40
0.0
 40
0.0
 40
0.0
 40
0.0035193495400317
 40
0.0069366593675705
 40
0.0102686576436151
 40
0.0135328649838608
 40
0.0199316755030469
 40
0.0230409896072069
 40
0.0230409896072069
 40
0.0230409896072069
 40
0.0230409896072069
 10
35.62877385300124
 20
11.27023420814156
 30
0.0
 10
35.62760088036666
 20
11.2702525807414
 30
0.0
 10
35.62528800891499
 20
11.27024337722325
 30
0.0
 10
35.62186728146603
 20
11.2701004643183
 30
0.0
 10
35.6185401745703
 20
11.26981742359095
 30
0.0
 10
35.61424513856599
 20
11.26924659464292
 30
0.0
 10
35.61007044673983
 20
11.26836185345253
 30
0.0
 10
35.60703579560757
 20
11.26744240219536
 30
0.0
 10
35.60605241171766
 20
11.26711504928967
 30
0.0
 11
35.62877385300124
 21
11.27023420814156
 31
0.0
 11
35.62525545713663
 21
11.27022038795374
 31
0.0
 11
35.62184122383786
 21
11.27007494181698
 31
0.0
 11
35.61852128712292
 21
11.26978986669904
 31
0.0
 11
35.61528578100973
 21
11.2693571595677
 31
0.0
 11
35.60902859666027
 21
11.26801683713573
 31
0.0
 11
35.60605241171766
 21
11.26711504928967
 31
0.0
  0
SPLINE
  5
18F
330
2
100
AcDbEntity
  8
GAIKEI
  6
Continuous
 62
     1
100
AcDbSpline
210
0.0
220
0.0
230
1.0
 70
     8
 71
     3
 72
    27
 73
    23
 74
    21
 42
0.0000000001
 43
0.0000000001
 44
0.000001
 12
0.076512265488583
 22
0.9970686401797044
 32
0.0
 13
0.9552657900996008
 23
0.2957486606316001
 33
0.0
 40
0.0
 40
0.0
 40
0.0
 40
0.0
 40
0.0049081096672613
 40
0.0071949186294733
 40
0.0093538447207367
 40
0.0140218595452852
 40
0.0168863887855698
 40
0.020105770273564
 40
0.0249374265709028
 40
0.0303592006904299
 40
0.0363136033730347
 40
0.0449355480795178
 40
0.0526210573927009
 40
0.0587210726899715
 40
0.0641083993651934
 40
0.0689597463310175
 40
0.0735065916913701
 40
0.0777817551463206
 40
0.0817588340344733
 40
0.0856007268680302
 40
0.0893264960170881
 40
0.0929602759867694
 40
0.0929602759867694
 40
0.0929602759867694
 40
0.0929602759867694
 10
35.55739983823929
 20
11.19417351855422
 30
0.0
 10
35.5575250151026
 20
11.19580475929815
 30
0.0
 10
35.55769574961245
 20
11.19819758484308
 30
0.0
 10
35.55780869747058
 20
11.20131368698247
 30
0.0
 10
35.5580553597629
 20
11.20434335636888
 30
0.0
 10
35.55862382588248
 20
11.20752967599759
 30
0.0
 10
35.55942318623457
 20
11.2110233653467
 30
0.0
 10
35.56039173695376
 20
11.21453212354828
 30
0.0
 10
35.56181155638494
 20
11.21879548060796
 30
0.0
 10
35.56383845431941
 20
11.22380812016799
 30
0.0
 10
35.56676349315026
 20
11.22980275954702
 30
0.0
 10
35.57043683421583
 20
11.236258057651
 30
0.0
 10
35.57458059840794
 20
11.24247980805117
 30
0.0
 10
35.5784800486974
 20
11.2475489680293
 30
0.0
 10
35.58207525456747
 20
11.25164451028621
 30
0.0
 10
35.58555086910156
 20
11.25514383457979
 30
0.0
 10
35.58898884897052
 20
11.25814234240972
 30
0.0
 10
35.59239244746893
 20
11.26071925390677
 30
0.0
 10
35.59577243979305
 20
11.26292656567688
 30
0.0
 10
35.59921551027591
 20
11.26466484094386
 30
0.0
 10
35.60270294935538
 20
11.26600616925847
 30
0.0
 10
35.60502486988073
 20
11.26679991154354
 30
0.0
 10
35.60618194511198
 20
11.26715814006323
 30
0.0
 11
35.55739983823929
 21
11.19417351855422
 31
0.0
 11
35.5577179320565
 21
11.19907119354219
 31
0.0
 11
35.55782687503177
 21
11.20135541440878
 31
0.0
 11
35.55800802148354
 21
11.20350671797635
 31
0.0
 11
35.55877400782771
 21
11.20811137584033
 31
0.0
 11
35.55941522974297
 21
11.21090313791866
 31
0.0
 11
35.56026917166344
 21
11.21400709445228
 31
0.0
 11
35.56179331657751
 21
11.21859188021575
 31
0.0
 11
35.56382602533984
 21
11.22361803084924
 31
0.0
 11
35.56641858285036
 21
11.22897838059252
 31
0.0
 11
35.5706820759678
 21
11.23647249873879
 31
0.0
 11
35.57495282833367
 21
11.24286217945766
 31
0.0
 11
35.57867887305889
 21
11.24769193537733
 31
0.0
 11
35.58223562557555
 21
11.25173820974261
 31
0.0
 11
35.58566314480652
 21
11.25517142935557
 31
0.0
 11
35.58909062253758
 21
11.25815896119573
 31
0.0
 11
35.59250089628029
 21
11.26073701355139
 31
0.0
 11
35.59584719089355
 21
11.26288678346093
 31
0.0
 11
35.59927485403239
 21
11.26462274855706
 31
0.0
 11
35.60273859258524
 21
11.26599529058828
 31
0.0
 11
35.60618194511198
 21
11.26715814006323
 31
0.0
  0
SPLINE
  5
190
330
2
100
AcDbEntity
  8
GAIKEI
  6
Continuous
 62
     1
100
AcDbSpline
210
0.0
220
0.0
230
1.0
 70
     8
 71
     3
 72
     9
 73
     5
 74
     3
 42
0.0000000001
 43
0.0000000001
 44
0.000001
 12
-0.1110702931717985
 22
-0.9938125527355401
 32
0.0
 13
-0.0037416002969241
 23
-0.9999930001891105
 33
0.0
 40
0.0
 40
0.0
 40
0.0
 40
0.0
 40
0.0014819459234942
 40
0.0103546008421519
 40
0.0103546008421519
 40
0.0103546008421519
 40
0.0103546008421519
 10
35.55741813826802
 20
11.19433903709917
 30
0.0
 10
35.55736327154529
 20
11.19384811161208
 30
0.0
 10
35.55700645388601
 20
11.19041517043051
 30
0.0
 10
35.55683460757031
 20
11.18696089399509
 30
0.0
 10
35.55682354159421
 20
11.18400336305784
 30
0.0
 11
35.55741813826802
 21
11.19433903709917
 31
0.0
 11
35.55726489810457
 21
11.19286519470152
 31
0.0
 11
35.55682354159421
 21
11.18400336305784
 31
0.0
  0
SPLINE
  5
191
330
2
100
AcDbEntity
  8
GAIKEI
  6
Continuous
 62
     1
100
AcDbSpline
210
0.0
220
0.0
230
1.0
 70
     8
 71
     3
 72
     9
 73
     5
 74
     3
 42
0.0000000001
 43
0.0000000001
 44
0.000001
 12
0.0037801567420873
 22
-0.9999928551819785
 32
0.0
 13
0.1113488517851972
 23
-0.993781380991875
 33
0.0
 40
0.0
 40
0.0
 40
0.0
 40
0.0
 40
0.0089265387507941
 40
0.0103706013120631
 40
0.0103706013120631
 40
0.0103706013120631
 40
0.0103706013120631
 10
35.55682354159421
 20
7.902973068826966
 30
0.0
 10
35.55683478949943
 20
7.899997577169528
 30
0.0
 10
35.55700810905179
 20
7.896537917750777
 30
0.0
 10
35.55736710091935
 20
7.893099845380717
 30
0.0
 10
35.55742069915539
 20
7.892621484551924
 30
0.0
 11
35.55682354159421
 21
7.902973068826966
 31
0.0
 11
35.55727069880595
 21
7.894057580620895
 31
0.0
 11
35.55742069915539
 21
7.892621484551924
 31
0.0
  0
SPLINE
  5
192
330
2
100
AcDbEntity
  8
GAIKEI
  6
Continuous
 62
     1
100
AcDbSpline
210
0.0
220
0.0
230
1.0
 70
     8
 71
     3
 72
    27
 73
    23
 74
    21
 42
0.0000000001
 43
0.0000000001
 44
0.000001
 12
-0.9535249561077124
 22
0.3013140522441413
 32
0.0
 13
-0.0768695003212578
 23
0.9970411626008027
 33
0.0
 40
0.0
 40
0.0
 40
0.0
 40
0.0
 40
0.005873997964856
 40
0.0124236204270289
 40
0.0197818398251748
 40
0.0278973743687762
 40
0.0358503791856628
 40
0.0433983327956522
 40
0.046490818859399
 40
0.0498285563935457
 40
0.0535042922793262
 40
0.057523446329224
 40
0.061889390570701
 40
0.0664803658392943
 40
0.0707679492522895
 40
0.0742103199826795
 40
0.0773515146809984
 40
0.0801844570514346
 40
0.0827251027315931
 40
0.0852229030852235
 40
0.0877452409019292
 40
0.0928258952680586
 40
0.0928258952680586
 40
0.0928258952680586
 40
0.0928258952680586
 10
35.60618290748573
 20
7.819819892860877
 30
0.0
 10
35.60431590626853
 20
7.820409865570766
 30
0.0
 10
35.60043259668749
 20
7.821871635090076
 30
0.0
 10
35.5945328659836
 20
7.824854921294814
 30
0.0
 10
35.58850578716057
 20
7.829094277884934
 30
0.0
 10
35.58278942479188
 20
7.834445251167664
 30
0.0
 10
35.57766323035017
 20
7.840437094628043
 30
0.0
 10
35.57410285365914
 20
7.845521142980459
 30
0.0
 10
35.57165500087922
 20
7.849486025478938
 30
0.0
 10
35.56994453355441
 20
7.85238844786059
 30
0.0
 10
35.56815225576578
 20
7.855600067749264
 30
0.0
 10
35.56627717803972
 20
7.859156819922887
 30
0.0
 10
35.56435528455696
 20
7.863031898838912
 30
0.0
 10
35.56248507913409
 20
7.867032689835909
 30
0.0
 10
35.56098000126038
 20
7.870857262855025
 30
0.0
 10
35.55985451231355
 20
7.874303642770527
 30
0.0
 10
35.55905145202027
 20
7.877339853477451
 30
0.0
 10
35.55848197005665
 20
7.880121781588016
 30
0.0
 10
35.55809475826197
 20
7.882718364669386
 30
0.0
 10
35.55787670601809
 20
7.885230437038131
 30
0.0
 10
35.55771769454047
 20
7.88859372795359
 30
0.0
 10
35.55753000731579
 20
7.891121450268414
 30
0.0
 10
35.55739982486165
 20
7.892809990780406
 30
0.0
 11
35.60618290748573
 21
7.819819892860877
 31
0.0
 11
35.60068265409609
 21
7.821884551087535
 31
0.0
 11
35.59484894580203
 21
7.824862046171546
 31
0.0
 11
35.58881623640866
 21
7.829075000884458
 31
0.0
 11
35.58285996382614
 21
7.834587045277814
 31
0.0
 11
35.57767959172065
 21
7.840621316642611
 31
0.0
 11
35.57333739248861
 21
7.8467951069603
 31
0.0
 11
35.57170678909171
 21
7.849422735103033
 31
0.0
 11
35.57001268055689
 21
7.852298565161291
 31
0.0
 11
35.5682204303634
 21
7.85550776099896
 31
0.0
 11
35.5663453077143
 21
7.859062739161331
 31
0.0
 11
35.5644031133196
 21
7.86297299723391
 31
0.0
 11
35.56248682973029
 21
7.867144911735849
 31
0.0
 11
35.5609201587049
 21
7.871135795647475
 31
0.0
 11
35.55985521029481
 21
7.874409126126082
 31
0.0
 11
35.55905456585458
 21
7.877446466792108
 31
0.0
 11
35.55848784397699
 21
7.880222086102179
 31
0.0
 11
35.55811772629449
 21
7.882735598218431
 31
0.0
 11
35.55789269235459
 21
7.885223232738866
 31
0.0
 11
35.55774948673707
 21
7.887741513213128
 31
0.0
 11
35.55739982486165
 21
7.892809990780406
 31
0.0
  0
SPLINE
  5
193
330
2
100
AcDbEntity
  8
GAIKEI
  6
Continuous
 62
     1
100
AcDbSpline
210
0.0
220
0.0
230
1.0
 70
     8
 71
     3
 72
    13
 73
     9
 74
     7
 42
0.0000000001
 43
0.0000000001
 44
0.000001
 12
0.9487139982427795
 22
-0.3161356505334366
 32
0.0
 13
0.9998801064241472
 23
0.0154845980650528
 33
0.0
 40
0.0
 40
0.0
 40
0.0
 40
0.0
 40
0.0032281630020056
 40
0.0096478713636233
 40
0.0129156519903408
 40
0.016240906615296
 40
0.0196368648975131
 40
0.0231158048284983
 40
0.0231158048284983
 40
0.0231158048284983
 40
0.0231158048284983
 10
35.60598053812362
 20
7.819887189530916
 30
0.0
 10
35.60700140593316
 20
7.819547010394032
 30
0.0
 10
35.61008126468225
 20
7.818615531728411
 30
0.0
 10
35.61430405690894
 20
7.817727487869376
 30
0.0
 10
35.61860523007428
 20
7.817158314247308
 30
0.0
 10
35.62192419365758
 20
7.816876266171973
 30
0.0
 10
35.6253220671849
 20
7.816733514386754
 30
0.0
 10
35.62761434539182
 20
7.816724267081042
 30
0.0
 10
35.62877385300129
 20
7.816742223743219
 30
0.0
 11
35.60598053812362
 21
7.819887189530916
 31
0.0
 11
35.60907101384913
 21
7.818952712492219
 31
0.0
 11
35.61535047140206
 21
7.81761643160884
 31
0.0
 11
35.61858979364672
 21
7.817185293979392
 31
0.0
 11
35.62190303584214
 21
7.81690130615847
 31
0.0
 11
35.62529584121734
 21
7.816756329096321
 31
0.0
 11
35.62877385300129
 21
7.816742223743219
 31
0.0
  0
SPLINE
  5
194
330
2
100
AcDbEntity
  8
GAIKEI
  6
Continuous
 62
     1
100
AcDbSpline
210
0.0
220
0.0
230
1.0
 70
     8
 71
     3
 72
    15
 73
    11
 74
     9
 42
0.0000000001
 43
0.0000000001
 44
0.000001
 12
-0.1345307900367005
 22
0.990909413888122
 32
0.0
 13
-0.9994496190759491
 23
0.0331731657961701
 33
0.0
 40
0.0
 40
0.0
 40
0.0
 40
0.0
 40
0.0233153785982172
 40
0.0466018528890122
 40
0.0698679735041777
 40
0.0931236945380549
 40
0.1163794155718566
 40
0.1396455361869596
 40
0.162932010477668
 40
0.1862473890756957
 40
0.1862473890756957
 40
0.1862473890756957
 40
0.1862473890756957
 10
36.41991492717983
 20
11.13211246973881
 30
0.0
 10
36.41886938174555
 20
11.1398136124526
 30
0.0
 10
36.41545227197105
 20
11.15506242489381
 30
0.0
 10
36.40640300992826
 20
11.17664720925512
 30
0.0
 10
36.39373429906199
 20
11.19630981710814
 30
0.0
 10
36.37782642532598
 20
11.21344260207783
 30
0.0
 10
36.3591662671959
 20
11.22752774553394
 30
0.0
 10
36.33831842416815
 20
11.23813349037725
 30
0.0
 10
36.31592603057463
 20
11.24494324577604
 30
0.0
 10
36.30040897496072
 20
11.24679362550726
 30
0.0
 10
36.29264145954124
 20
11.24705144048054
 30
0.0
 11
36.41991492717983
 21
11.13211246973881
 31
0.0
 11
36.4147953900881
 21
11.1548593506383
 31
0.0
 11
36.40579585566707
 21
11.17633653086196
 31
0.0
 11
36.39319203438453
 21
11.19589305226854
 31
0.0
 11
36.37736844985596
 21
11.21293547968254
 31
0.0
 11
36.35880674437965
 21
11.22694594895736
 31
0.0
 11
36.33807103081483
 21
11.23749791670762
 31
0.0
 11
36.31579073629405
 21
11.24426913271502
 31
0.0
 11
36.29264145954124
 21
11.24705144048054
 31
0.0
  0
SPLINE
  5
195
330
2
100
AcDbEntity
  8
GAIKEI
  6
Continuous
 62
     1
100
AcDbSpline
210
0.0
220
0.0
230
1.0
 70
     8
 71
     3
 72
    21
 73
    17
 74
    15
 42
0.0000000001
 43
0.0000000001
 44
0.000001
 12
0.978004482629762
 22
0.2085838727133314
 32
0.0
 13
0.1354487900196674
 23
0.9907843485250502
 33
0.0
 40
0.0
 40
0.0
 40
0.0
 40
0.0
 40
0.0199215087762622
 40
0.0395198938738548
 40
0.0588087415334682
 40
0.0777961773045349
 40
0.0964872829742425
 40
0.1148865293641054
 40
0.132999752206787
 40
0.1508345262550968
 40
0.1741839345165545
 40
0.1970597141137573
 40
0.219469094970885
 40
0.2414165726699689
 40
0.2629089085026179
 40
0.2839580335681233
 40
0.2839580335681233
 40
0.2839580335681233
 40
0.2839580335681233
 10
36.52549816650458
 20
7.597162554448274
 30
0.0
 10
36.53199260813256
 20
7.598547656265225
 30
0.0
 10
36.54476502920071
 20
7.601851834226891
 30
0.0
 10
36.56327095181892
 20
7.60838504936386
 30
0.0
 10
36.58088410950768
 20
7.616309406702256
 30
0.0
 10
36.59752547366835
 20
7.625498438356515
 30
0.0
 10
36.61312774064025
 20
7.635829331637282
 30
0.0
 10
36.62763041114174
 20
7.647186271301023
 30
0.0
 10
36.64098236072168
 20
7.659458183926886
 30
0.0
 10
36.65444651032295
 20
7.67395531451757
 30
0.0
 10
36.66752718441829
 20
7.690881881436766
 30
0.0
 10
36.67966614231217
 20
7.710316672740731
 30
0.0
 10
36.68966278300942
 20
7.730412662424072
 30
0.0
 10
36.69755004620369
 20
7.750931070870535
 30
0.0
 10
36.70337414236151
 20
7.771654141596712
 30
0.0
 10
36.70593397868648
 20
7.785625385738285
 30
0.0
 10
36.7068843381935
 20
7.7925771002933
 30
0.0
 11
36.52549816650458
 21
7.597162554448274
 31
0.0
 11
36.54478470561759
 21
7.602154145600607
 31
0.0
 11
36.56326686195149
 21
7.608673856331023
 31
0.0
 11
36.58085784051048
 21
7.61658695693265
 31
0.0
 11
36.59747978879756
 21
7.625764847712488
 31
0.0
 11
36.61306353814917
 21
7.636084945572108
 31
0.0
 11
36.62754833782429
 21
7.647430569533
 31
0.0
 11
36.64088158213838
 21
7.659690824608944
 31
0.0
 11
36.65301847456936
 21
7.672758932512095
 31
0.0
 11
36.66730229696128
 21
7.691229667779381
 31
0.0
 11
36.67942378877103
 21
7.710629957790359
 31
0.0
 11
36.68940492384263
 21
7.730693795571738
 31
0.0
 11
36.6972785812074
 21
7.751180313917117
 31
0.0
 11
36.70308768117946
 21
7.771872703466542
 31
0.0
 11
36.7068843381935
 21
7.7925771002933
 31
0.0
  0
SPLINE
  5
196
330
2
100
AcDbEntity
  8
GAIKEI
  6
Continuous
 62
     1
100
AcDbSpline
210
0.0
220
0.0
230
1.0
 70
     8
 71
     3
 72
    15
 73
    11
 74
     9
 42
0.0000000001
 43
0.0000000001
 44
0.000001
 12
0.9785263958185264
 22
0.2061215483310866
 32
0.0
 13
0.1327585762537782
 23
0.9911484048471599
 33
0.0
 40
0.0
 40
0.0
 40
0.0
 40
0.0
 40
0.0257301444278292
 40
0.0508393460168265
 40
0.0759402904366867
 40
0.1016467932428272
 40
0.1273459535904554
 40
0.1524442556000225
 40
0.1775562343418642
 40
0.2032949066242225
 40
0.2032949066242225
 40
0.2032949066242225
 40
0.2032949066242225
 10
36.51168399238441
 20
7.661628700342333
 30
0.0
 10
36.5200765342147
 20
7.663396546078416
 30
0.0
 10
36.5364168383677
 20
7.668173098859369
 30
0.0
 10
36.55944760157628
 20
7.678910432073479
 30
0.0
 10
36.58047305788687
 20
7.693188604228737
 30
0.0
 10
36.59916970805394
 20
7.710665970911776
 30
0.0
 10
36.61521212439189
 20
7.730606534444163
 30
0.0
 10
36.62788663972654
 20
7.752633360309346
 30
0.0
 10
36.63688165178156
 20
7.776401880900166
 30
0.0
 10
36.64043046103259
 20
7.793055883892634
 30
0.0
 10
36.64156947086155
 20
7.801559498551142
 30
0.0
 11
36.51168399238441
 21
7.661628700342333
 31
0.0
 11
36.5363809229965
 21
7.668848449402716
 31
0.0
 11
36.55912029258764
 21
7.679497076458389
 31
0.0
 11
36.57990210115765
 21
7.693574581509366
 31
0.0
 11
36.59872634870669
 21
7.711080964555634
 31
0.0
 11
36.61478338049307
 21
7.731146358702105
 31
0.0
 11
36.627276244781
 21
7.752914579083508
 31
0.0
 11
36.6362049415705
 21
7.776385625699859
 31
0.0
 11
36.64156947086155
 21
7.801559498551142
 31
0.0
  0
SPLINE
  5
197
330
2
100
AcDbEntity
  8
GAIKEI
  6
Continuous
 62
     1
100
AcDbSpline
210
0.0
220
0.0
230
1.0
 70
     8
 71
     3
 72
     9
 73
     5
 74
     3
 42
0.0000000001
 43
0.0000000001
 44
0.000001
 12
0.1362218791743881
 22
0.990678353268203
 32
0.0
 13
0.0000205302016735
 23
0.9999999997892553
 33
0.0
 40
0.0
 40
0.0
 40
0.0
 40
0.0
 40
0.0636160010089664
 40
0.1272320020215907
 40
0.1272320020215907
 40
0.1272320020215907
 40
0.1272320020215907
 10
36.84285992116964
 20
9.265228630076947
 30
0.0
 10
36.84574855157064
 20
9.286236295117305
 30
0.0
 10
36.85009490575752
 20
9.328461038550273
 30
0.0
 10
36.85154187160377
 20
9.370884216678931
 30
0.0
 10
36.85154230695355
 20
9.392089550345332
 30
0.0
 11
36.84285992116964
 21
9.265228630076947
 31
0.0
 11
36.84937105633844
 21
9.328510578942513
 31
0.0
 11
36.85154230695355
 21
9.392089550345332
 31
0.0
  0
SPLINE
  5
198
330
2
100
AcDbEntity
  8
GAIKEI
  6
Continuous
 62
     1
100
AcDbSpline
210
0.0
220
0.0
230
1.0
 70
     8
 71
     3
 72
     9
 73
     5
 74
     3
 42
0.0000000001
 43
0.0000000001
 44
0.000001
 12
-0.0000205301984769
 22
0.9999999997892555
 32
0.0
 13
-0.1362218791775721
 23
0.990678353267765
 33
0.0
 40
0.0
 40
0.0
 40
0.0
 40
0.0
 40
0.0636160010141014
 40
0.1272320020215976
 40
0.1272320020215976
 40
0.1272320020215976
 40
0.1272320020215976
 10
36.85154230695355
 20
9.69488688153946
 30
0.0
 10
36.85154187160384
 20
9.716092215206359
 30
0.0
 10
36.85009490575763
 20
9.758515393335045
 30
0.0
 10
36.84574855157064
 20
9.800740136767984
 30
0.0
 10
36.84285992116964
 20
9.821747801807845
 30
0.0
 11
36.85154230695355
 21
9.69488688153946
 31
0.0
 11
36.84937105633844
 21
9.758465852943771
 31
0.0
 11
36.84285992116964
 21
9.821747801807845
 31
0.0
  0
SPLINE
  5
199
330
2
100
AcDbEntity
  8
GAIKEI
  6
Continuous
 62
     1
100
AcDbSpline
210
0.0
220
0.0
230
1.0
 70
     8
 71
     3
 72
    15
 73
    11
 74
     9
 42
0.0000000001
 43
0.0000000001
 44
0.000001
 12
-0.1327902774087838
 22
0.9911441581453722
 32
0.0
 13
-0.9785329879817496
 23
0.2060902506949534
 33
0.0
 40
0.0
 40
0.0
 40
0.0
 40
0.0
 40
0.0257301444274621
 40
0.0508393460162663
 40
0.0759402904363437
 40
0.1016467932428942
 40
0.1273459535906392
 40
0.1524442556002125
 40
0.1775562343420029
 40
0.2032949066242882
 40
0.2032949066242882
 40
0.2032949066242882
 40
0.2032949066242882
 10
36.64156947086155
 20
11.28541693333365
 30
0.0
 10
36.6404305665228
 20
11.29391769411282
 30
0.0
 10
36.63688225902696
 20
11.31056793465737
 30
0.0
 10
36.62788715756003
 20
11.33433334077875
 30
0.0
 10
36.61521191004265
 20
11.35636227887266
 30
0.0
 10
36.5991731605445
 20
11.37630674146737
 30
0.0
 10
36.58048067130221
 20
11.39378747491548
 30
0.0
 10
36.55945726692966
 20
11.40806475985529
 30
0.0
 10
36.53642339122527
 20
11.41880223548881
 30
0.0
 10
36.52007937234943
 20
11.42357956840136
 30
0.0
 10
36.51168399238441
 20
11.42534773154243
 30
0.0
 11
36.64156947086155
 21
11.28541693333365
 31
0.0
 11
36.63620610751178
 21
11.31058233600701
 31
0.0
 11
36.62727779936938
 21
11.33405055923073
 31
0.0
 11
36.61478454643429
 21
11.35582160300477
 31
0.0
 11
36.59872634870669
 21
11.37589546732913
 31
0.0
 11
36.57991046119048
 21
11.39340005784206
 31
0.0
 11
36.55913143929808
 21
11.40747696538191
 31
0.0
 11
36.53638928302939
 21
11.41812618994871
 31
0.0
 11
36.51168399238441
 21
11.42534773154243
 31
0.0
  0
SPLINE
  5
19A
330
2
100
AcDbEntity
  8
GAIKEI
  6
Continuous
 62
     1
100
AcDbSpline
210
0.0
220
0.0
230
1.0
 70
     8
 71
     3
 72
    15
 73
    11
 74
     9
 42
0.0000000001
 43
0.0000000001
 44
0.000001
 12
-0.1364008987339492
 22
0.9906537209462097
 32
0.0
 13
-0.1677708966327061
 23
0.9858260121558256
 33
0.0
 40
0.0
 40
0.0
 40
0.0
 40
0.0
 40
0.0088099548289456
 40
0.0175208478463827
 40
0.0261353685926566
 40
0.0346546660583849
 40
0.0430781984095411
 40
0.0513553481857326
 40
0.0593952990170722
 40
0.0671960523423515
 40
0.0671960523423515
 40
0.0671960523423515
 40
0.0671960523423515
 10
36.43551014075541
 20
11.03285922733029
 30
0.0
 10
36.43510957883659
 20
11.0357684321745
 30
0.0
 10
36.4342818433559
 20
11.04154989054876
 30
0.0
 10
36.4329588258736
 20
11.05016077070242
 30
0.0
 10
36.43157018269422
 20
11.05866313231554
 30
0.0
 10
36.43013152172243
 20
11.06705995911181
 30
0.0
 10
36.42866477907586
 20
11.07533770237025
 30
0.0
 10
36.42720443469759
 20
11.08345424413008
 30
0.0
 10
36.4257828651823
 20
11.09136687396667
 30
0.0
 10
36.4248865347496
 20
11.09657052020236
 30
0.0
 10
36.42445028828968
 20
11.09913391538319
 30
0.0
 11
36.43551014075541
 21
11.03285922733029
 31
0.0
 11
36.43426317410103
 21
11.04158055343512
 31
0.0
 11
36.43294131097559
 21
11.05019056975274
 31
0.0
 11
36.43155495110705
 21
11.05869280380305
 31
0.0
 11
36.4301191134735
 21
11.06709023129956
 31
0.0
 11
36.4286535554246
 21
11.07538529087297
 31
0.0
 11
36.42719176289848
 21
11.08353233719535
 31
0.0
 11
36.42577936242299
 21
11.09144728767765
 31
0.0
 11
36.42445028828968
 21
11.09913391538319
 31
0.0
  0
SPLINE
  5
19B
330
2
100
AcDbEntity
  8
GAIKEI
  6
Continuous
 62
     1
100
AcDbSpline
210
0.0
220
0.0
230
1.0
 70
     8
 71
     3
 72
    13
 73
     9
 74
     7
 42
0.0000000001
 43
0.0000000001
 44
0.000001
 12
-0.1032078770309288
 22
0.9946598082353428
 32
0.0
 13
-0.135947176317206
 23
0.9907160871063812
 33
0.0
 40
0.0
 40
0.0
 40
0.0
 40
0.0
 40
0.01066748217955
 40
0.0213526033888006
 40
0.0323808699812718
 40
0.0439032233371565
 40
0.0555872268423246
 40
0.0673754141472502
 40
0.0673754141472502
 40
0.0673754141472502
 40
0.0673754141472502
 10
36.53857787144227
 20
10.26926334645921
 30
0.0
 10
36.53821088204593
 20
10.27280018505223
 30
0.0
 10
36.53748876452593
 20
10.27988106005702
 30
0.0
 10
36.53647623671711
 20
10.29062712045747
 30
0.0
 10
36.53540121256295
 20
10.3016534538043
 30
0.0
 10
36.53420932580835
 20
10.31300276316795
 30
0.0
 10
36.53285796484436
 20
10.324589375989
 30
0.0
 10
36.53184644668563
 20
10.33234807063715
 30
0.0
 10
36.5313122564263
 20
10.33624098623743
 30
0.0
 11
36.53857787144227
 21
10.26926334645921
 31
0.0
 11
36.53750392878464
 21
10.27987633923412
 31
0.0
 11
36.53648230687975
 21
10.29051275444445
 31
0.0
 11
36.53540487173973
 21
10.30148826843178
 31
0.0
 11
36.53419420558436
 21
10.31294684491129
 31
0.0
 11
36.53283694151321
 21
10.32455175273055
 31
0.0
 11
36.5313122564263
 21
10.33624098623743
 31
0.0
  0
SPLINE
  5
19C
330
2
100
AcDbEntity
  8
GAIKEI
  6
Continuous
 62
     1
100
AcDbSpline
210
0.0
220
0.0
230
1.0
 70
     8
 71
     3
 72
    14
 73
    10
 74
     8
 42
0.0000000001
 43
0.0000000001
 44
0.000001
 12
0.1677588837034731
 22
0.9858280564776825
 32
0.0
 13
0.1366130456583842
 23
0.9906244877631182
 33
0.0
 40
0.0
 40
0.0
 40
0.0
 40
0.0
 40
0.0077805537819246
 40
0.015759394744274
 40
0.0239337084991753
 40
0.0323033226631451
 40
0.0438356785406755
 40
0.0554749749921549
 40
0.0671959577983716
 40
0.0671959577983716
 40
0.0671959577983716
 40
0.0671959577983716
 10
36.42445028828968
 20
7.987842516501601
 30
0.0
 10
36.42488537396203
 20
7.990399279239312
 30
0.0
 10
36.42577706650799
 20
7.995576221899469
 30
0.0
 10
36.42718755465471
 20
8.003428477152283
 30
0.0
 10
36.42863509158797
 20
8.011473537655433
 30
0.0
 10
36.43026896170649
 20
8.020688593238446
 30
0.0
 10
36.43203580653875
 20
8.031052991511174
 30
0.0
 10
36.43386048042505
 20
8.042540156270334
 30
0.0
 10
36.43497639436899
 20
8.050246840358326
 30
0.0
 10
36.43551014075541
 20
8.054117204554486
 30
0.0
 11
36.42445028828968
 21
7.987842516501601
 31
0.0
 11
36.42577585245056
 21
7.995509256892049
 31
0.0
 11
36.42717738856254
 21
8.003364067139017
 31
0.0
 11
36.42862117217788
 21
8.011409866471623
 31
0.0
 11
36.4300782249187
 21
8.019651675604094
 31
0.0
 11
36.43200942616
 21
8.031021182867661
 31
0.0
 11
36.43383095046113
 21
8.04251706736936
 31
0.0
 11
36.43551014075541
 21
8.054117204554486
 31
0.0
  0
SPLINE
  5
19D
330
2
100
AcDbEntity
  8
GAIKEI
  6
Continuous
 62
     1
100
AcDbSpline
210
0.0
220
0.0
230
1.0
 70
     8
 71
     3
 72
    14
 73
    10
 74
     8
 42
0.0000000001
 43
0.0000000001
 44
0.000001
 12
0.1359523053525381
 22
0.9907153832808543
 32
0.0
 13
0.1044770653903519
 23
0.9945272961600501
 33
0.0
 40
0.0
 40
0.0
 40
0.0
 40
0.0
 40
0.0117441122318296
 40
0.0233143127744291
 40
0.0347515885516758
 40
0.0432002755691695
 40
0.0514996482291312
 40
0.0595581322122527
 40
0.0673754410105468
 40
0.0673754410105468
 40
0.0673754410105468
 40
0.0673754410105468
 10
36.54116905879084
 20
8.822408479983351
 30
0.0
 10
36.54170127183493
 20
8.8262868375337
 30
0.0
 10
36.54270619305107
 20
8.833993318184596
 30
0.0
 10
36.54404934312137
 20
8.845499343882821
 30
0.0
 10
36.54514689394422
 20
8.855927300316523
 30
0.0
 10
36.54606624451782
 20
8.865277346024214
 30
0.0
 10
36.54685251188136
 20
8.873508720550489
 30
0.0
 10
36.54762015109118
 20
8.881530492555185
 30
0.0
 10
36.54816243064592
 20
8.88679461076741
 30
0.0
 10
36.54843467380676
 20
8.889386119761553
 30
0.0
 11
36.54116905879084
 21
8.822408479983351
 31
0.0
 11
36.54268834250894
 21
8.834053966108868
 31
0.0
 11
36.54403360895049
 21
8.845545696580728
 31
0.0
 11
36.545237213326
 21
8.856919465404089
 31
0.0
 11
36.54606818263869
 21
8.86532718710427
 31
0.0
 11
36.54686138579751
 21
8.873588567574557
 31
0.0
 11
36.54763864335149
 21
8.881609503798159
 31
0.0
 11
36.54843467380676
 21
8.889386119761553
 31
0.0
  0
ARC
  5
19E
330
2
100
AcDbEntity
  8
GAIKEI
 62
     1
100
AcDbCircle
 10
35.64125733481148
 20
12.09427169087095
 30
0.0
 40
0.1000109124005768
100
AcDbArc
 50
294.6822153763276
 51
359.9992555506062
  0
LINE
  5
19F
330
2
100
AcDbEntity
  8
GAIKEI
 62
     1
100
AcDbLine
 10
35.74126824720361
 20
12.09427040253192
 30
0.0
 11
35.74126824720361
 21
12.14295809477413
 31
0.0
  0
ARC
  5
1A0
330
2
100
AcDbEntity
  8
GAIKEI
 62
     1
100
AcDbCircle
 10
35.66492322788611
 20
12.14794757071786
 30
0.0
 40
0.0096820896984856
100
AcDbArc
 50
265.9875314113319
 51
357.4403055779336
  0
LINE
  5
1A1
330
2
100
AcDbEntity
  8
GAIKEI
 62
     1
100
AcDbLine
 10
35.67459565712364
 20
12.14751516630609
 30
0.0
 11
35.67459565712364
 21
12.16712260829607
 31
0.0
  0
ARC
  5
1A2
330
2
100
AcDbEntity
  8
GAIKEI
 62
     1
100
AcDbCircle
 10
35.68459654563566
 20
12.16712260829604
 30
0.0
 40
0.0100008885120045
100
AcDbArc
 50
88.00000000002244
 51
179.9999999998917
  0
LINE
  5
1A3
330
2
100
AcDbEntity
  8
GAIKEI
 62
     1
100
AcDbLine
 10
35.68494557664474
 20
12.17711739626608
 30
0.0
 11
35.70909537208246
 21
12.1762740822439
 31
0.0
  0
ARC
  5
1A4
330
2
100
AcDbEntity
  8
GAIKEI
 62
     1
100
AcDbCircle
 10
35.70793194292622
 20
12.14295809104192
 30
0.0
 40
0.03333630427746
100
AcDbArc
 50
0.0000064146184042
 51
88.00001314450822
  0
LINE
  5
1A5
330
2
100
AcDbEntity
  8
GAIKEI
 62
     1
100
AcDbLine
 10
34.11704353578358
 20
-11.43410830541482
 30
0.0
 11
34.11704353578358
 21
-11.53989755462888
 31
0.0
  0
LINE
  5
1A6
330
2
100
AcDbEntity
  8
GAIKEI
100
AcDbLine
 10
-12.16850001699282
 20
-12.64013913774685
 30
0.0
 11
-12.22008578220573
 21
-11.65583588881414
 31
0.0
  0
ARC
  5
1A7
330
2
100
AcDbEntity
  8
GAIKEI
100
AcDbCircle
 10
-12.3382812056908
 20
-12.63218001351312
 30
0.0
 40
0.1695437819618517
100
AcDbArc
 50
316.0567044890231
 51
357.3104839030303
  0
LINE
  5
1A8
330
2
100
AcDbEntity
  8
GAIKEI
 62
     1
100
AcDbLine
 10
-22.07956156966736
 20
-11.77425652585425
 30
0.0
 11
-12.24074875754411
 21
-11.77425657280635
 31
0.0
  0
LINE
  5
1A9
330
2
100
AcDbEntity
  8
GAIKEI
 62
     1
100
AcDbLine
 10
-22.07956156966736
 20
-11.77425652585425
 30
0.0
 11
-17.16014038028629
 21
-12.02698928850827
 31
0.0
  0
LINE
  5
1AA
330
2
100
AcDbEntity
  8
GAIKEI
 62
     1
100
AcDbLine
 10
-17.16014038028629
 20
-12.02698928850827
 30
0.0
 11
-12.24074875754411
 21
-11.77425657280635
 31
0.0
  0
LINE
  5
1AB
330
2
100
AcDbEntity
  8
GAIKEI
  6
Continuous
100
AcDbLine
 10
-12.16892417998332
 20
-12.64013563073865
 30
0.0
 11
-10.2750372430882
 21
-12.6545440484785
 31
0.0
  0
LINE
  5
1AC
330
2
100
AcDbEntity
  8
GAIKEI
  6
Continuous
100
AcDbLine
 10
-10.2750372430882
 20
-12.6545440484785
 30
0.0
 11
-9.893059670298782
 21
-12.6700282609397
 31
0.0
  0
LINE
  5
1AD
330
2
100
AcDbEntity
  8
GAIKEI
 62
     1
100
AcDbLine
 10
-12.21620511559917
 20
-12.74983426218209
 30
0.0
 11
-11.06501599090847
 21
-12.75593587323479
 31
0.0
  0
LINE
  5
1AE
330
2
100
AcDbEntity
  8
GAIKEI
 62
     1
100
AcDbLine
 10
-9.831217890241418
 20
-12.68021297903439
 30
0.0
 11
-12.14010449479946
 21
-12.80790697146048
 31
0.0
  0
ARC
  5
1AF
330
2
100
AcDbEntity
  8
GAIKEI
100
AcDbCircle
 10
-12.23493386368784
 20
-27.0827723886088
 30
0.0
 40
14.6017659215357
100
AcDbArc
 50
71.3612238495963
 51
80.77087569906392
  0
ARC
  5
1B0
330
2
100
AcDbEntity
  8
GAIKEI
100
AcDbCircle
 10
-7.585076577707184
 20
-13.29509926020832
 30
0.0
 40
0.0511247151672228
100
AcDbArc
 50
3.827867468270548
 51
70.7342778270842
  0
LINE
  5
1B1
330
2
100
AcDbEntity
  8
GAIKEI
100
AcDbLine
 10
-7.534061894929095
 20
-13.29169819961288
 30
0.0
 11
-7.521865794588848
 21
-13.52441419540351
 31
0.0
  0
ARC
  5
1B2
330
2
100
AcDbEntity
  8
GAIKEI
 62
     1
100
AcDbCircle
 10
-16.77885355203421
 20
78.24263704297067
 30
0.0
 40
91.1063676016314
100
AcDbArc
 50
269.760186349897
 51
272.8892609470638
  0
ARC
  5
1B3
330
2
100
AcDbEntity
  8
GAIKEI
 62
     1
100
AcDbCircle
 10
-17.22305925188073
 20
98.04777549051124
 30
0.0
 40
110.9721530978472
100
AcDbArc
 50
270.0324765715022
 51
272.6252873085557
  0
LINE
  5
1B4
330
2
100
AcDbEntity
  8
GAIKEI
 62
     1
100
AcDbLine
 10
-7.572747825284523
 20
-13.2453141317093
 30
0.0
 11
-26.74759252977992
 21
-13.2453141317093
 31
0.0
  0
LINE
  5
1B5
330
2
100
AcDbEntity
  8
GAIKEI
100
AcDbLine
 10
-7.521865794588848
 20
-13.52441419540351
 30
0.0
 11
-26.79843827300408
 21
-13.52441419540351
 31
0.0
  0
LINE
  5
1B6
330
2
100
AcDbEntity
  8
GAIKEI
 62
     1
100
AcDbLine
 10
-7.553460033930832
 20
-13.52441363979783
 30
0.0
 11
-7.554038419446499
 21
-13.55775081416634
 31
0.0
  0
LINE
  5
1B7
330
2
100
AcDbEntity
  8
GAIKEI
 62
     1
100
AcDbLine
 10
-7.554038419446499
 20
-13.55775081416634
 30
0.0
 11
-26.76626564814637
 21
-13.55775081416634
 31
0.0
  0
LINE
  5
1B8
330
2
100
AcDbEntity
  8
GAIKEI
 62
     1
100
AcDbLine
 10
-7.672632452411676
 20
-13.55775081416634
 30
0.0
 11
-7.672632452411676
 21
-13.61441953796708
 31
0.0
  0
LINE
  5
1B9
330
2
100
AcDbEntity
  8
GAIKEI
 62
     1
100
AcDbLine
 10
-7.672632452411676
 20
-13.61441953796708
 30
0.0
 11
-9.672812910011657
 21
-13.61441953796708
 31
0.0
  0
LINE
  5
1BA
330
2
100
AcDbEntity
  8
GAIKEI
 62
     1
100
AcDbLine
 10
-9.672812910011657
 20
-13.61441953796708
 30
0.0
 11
-9.672812910011657
 21
-13.55775081416634
 31
0.0
  0
LINE
  5
1BB
330
2
100
AcDbEntity
  8
GAIKEI
100
AcDbLine
 10
-22.15180405060005
 20
-12.64013913774685
 30
0.0
 11
-22.1002182853872
 21
-11.65583588881414
 31
0.0
  0
ARC
  5
1BC
330
2
100
AcDbEntity
  8
GAIKEI
100
AcDbCircle
 10
-21.98202286190213
 20
-12.63218001351312
 30
0.0
 40
0.1695437819618517
100
AcDbArc
 50
182.6895160969697
 51
223.9432955109769
  0
LINE
  5
1BD
330
2
100
AcDbEntity
  8
GAIKEI
  6
Continuous
100
AcDbLine
 10
-22.15137988760955
 20
-12.64013563073865
 30
0.0
 11
-24.04526682450466
 21
-12.6545440484785
 31
0.0
  0
LINE
  5
1BE
330
2
100
AcDbEntity
  8
GAIKEI
  6
Continuous
100
AcDbLine
 10
-24.04526682450466
 20
-12.6545440484785
 30
0.0
 11
-24.42724439729409
 21
-12.6700282609397
 31
0.0
  0
LINE
  5
1BF
330
2
100
AcDbEntity
  8
GAIKEI
 62
     1
100
AcDbLine
 10
-22.1040989519937
 20
-12.74983426218209
 30
0.0
 11
-23.25528807668445
 21
-12.75593587323479
 31
0.0
  0
LINE
  5
1C0
330
2
100
AcDbEntity
  8
GAIKEI
 62
     1
100
AcDbLine
 10
-24.48908617735146
 20
-12.68021297903439
 30
0.0
 11
-22.18019957279341
 21
-12.80790697146048
 31
0.0
  0
ARC
  5
1C1
330
2
100
AcDbEntity
  8
GAIKEI
100
AcDbCircle
 10
-22.08537020390509
 20
-27.0827723886088
 30
0.0
 40
14.6017659215357
100
AcDbArc
 50
99.22912430093608
 51
108.6387761504037
  0
ARC
  5
1C2
330
2
100
AcDbEntity
  8
GAIKEI
100
AcDbCircle
 10
-26.73522748988569
 20
-13.29509926020832
 30
0.0
 40
0.0511247151672228
100
AcDbArc
 50
109.2657221729158
 51
176.1721325317294
  0
LINE
  5
1C3
330
2
100
AcDbEntity
  8
GAIKEI
100
AcDbLine
 10
-26.78624217266384
 20
-13.29169819961288
 30
0.0
 11
-26.79843827300408
 21
-13.52441419540351
 31
0.0
  0
ARC
  5
1C4
330
2
100
AcDbEntity
  8
GAIKEI
 62
     1
100
AcDbCircle
 10
-17.54145051555872
 20
78.24263704297067
 30
0.0
 40
91.1063676016314
100
AcDbArc
 50
267.1107390529361
 51
270.239813650103
  0
ARC
  5
1C5
330
2
100
AcDbEntity
  8
GAIKEI
 62
     1
100
AcDbCircle
 10
-17.0972448157122
 20
98.04777549051124
 30
0.0
 40
110.9721530978472
100
AcDbArc
 50
267.3747126914443
 51
269.9675234284979
  0
LINE
  5
1C6
330
2
100
AcDbEntity
  8
GAIKEI
 62
     1
100
AcDbLine
 10
-26.76684403366204
 20
-13.52441363979783
 30
0.0
 11
-26.76626564814637
 21
-13.55775081416634
 31
0.0
  0
LINE
  5
1C7
330
2
100
AcDbEntity
  8
GAIKEI
 62
     1
100
AcDbLine
 10
-26.64767161518125
 20
-13.55775081416634
 30
0.0
 11
-26.64767161518125
 21
-13.61441953796708
 31
0.0
  0
LINE
  5
1C8
330
2
100
AcDbEntity
  8
GAIKEI
 62
     1
100
AcDbLine
 10
-26.64767161518125
 20
-13.61441953796708
 30
0.0
 11
-24.64749115758122
 21
-13.61441953796708
 31
0.0
  0
LINE
  5
1C9
330
2
100
AcDbEntity
  8
GAIKEI
 62
     1
100
AcDbLine
 10
-24.64749115758122
 20
-13.61441953796708
 30
0.0
 11
-24.64749115758122
 21
-13.55775081416634
 31
0.0
  0
LINE
  5
1CA
330
2
100
AcDbEntity
  8
GAIKEI
 62
     1
100
AcDbLine
 10
-13.65983928882769
 20
-13.55775081416634
 30
0.0
 11
-13.65983928882769
 21
-13.61441953796708
 31
0.0
  0
LINE
  5
1CB
330
2
100
AcDbEntity
  8
GAIKEI
 62
     1
100
AcDbLine
 10
-13.65983928882769
 20
-13.61441953796708
 30
0.0
 11
-20.66047089042775
 21
-13.61441953796708
 31
0.0
  0
LINE
  5
1CC
330
2
100
AcDbEntity
  8
GAIKEI
 62
     1
100
AcDbLine
 10
-20.66047089042775
 20
-13.61441953796708
 30
0.0
 11
-20.66047089042775
 21
-13.55775081416634
 31
0.0
  0
LINE
  5
1CD
330
2
100
AcDbEntity
  8
GAIKEI
 62
     1
100
AcDbLine
 10
31.93894756573604
 20
-13.55982016753144
 30
0.0
 11
31.93894756573604
 21
-13.61648889133218
 31
0.0
  0
LINE
  5
1CE
330
2
100
AcDbEntity
  8
GAIKEI
 62
     1
100
AcDbLine
 10
31.93894756573604
 20
-13.61648889133218
 30
0.0
 11
29.90713758783318
 21
-13.61648889133218
 31
0.0
  0
LINE
  5
1CF
330
2
100
AcDbEntity
  8
GAIKEI
 62
     1
100
AcDbLine
 10
29.90713758783318
 20
-13.61648889133218
 30
0.0
 11
29.90713758783318
 21
-13.55982016753144
 31
0.0
  0
LINE
  5
1D0
330
2
100
AcDbEntity
  8
GAIKEI
100
AcDbLine
 10
29.77377166658295
 20
-13.52648382657143
 30
0.0
 11
40.67125012205383
 21
-13.52648382657143
 31
0.0
  0
LINE
  5
1D1
330
2
100
AcDbEntity
  8
GAIKEI
 62
     1
100
AcDbLine
 10
29.8059423468207
 20
-13.55982016753144
 30
0.0
 11
40.63907583522677
 21
-13.55982016753144
 31
0.0
  0
LINE
  5
1D2
330
2
100
AcDbEntity
  8
GAIKEI
 62
     1
100
AcDbLine
 10
29.8059423468207
 20
-13.55982016753144
 30
0.0
 11
29.80536034986812
 21
-13.52648438217711
 31
0.0
  0
LINE
  5
1D3
330
2
100
AcDbEntity
  8
GAIKEI
100
AcDbLine
 10
29.77377166658295
 20
-13.52648382657143
 30
0.0
 11
29.78588628210309
 21
-13.29531840902858
 31
0.0
  0
ARC
  5
1D4
330
2
100
AcDbEntity
  8
GAIKEI
100
AcDbCircle
 10
29.83582693868664
 20
-13.29793703280323
 30
0.0
 40
0.0500091682431912
100
AcDbArc
 50
106.0450984138906
 51
176.9985900851085
  0
ARC
  5
1D5
330
2
100
AcDbEntity
  8
GAIKEI
100
AcDbCircle
 10
32.58678830025895
 20
-22.86761853672897
 30
0.0
 40
10.00724736425824
100
AcDbArc
 50
96.58699258193678
 51
106.0381968622092
  0
LINE
  5
1D6
330
2
100
AcDbEntity
  8
GAIKEI
100
AcDbLine
 10
31.43884064538963
 20
-12.92643068058554
 30
0.0
 11
38.05495764546498
 21
-12.64220968770905
 31
0.0
  0
LINE
  5
1D7
330
2
100
AcDbEntity
  8
GAIKEI
 62
     1
100
AcDbLine
 10
39.4595585802216
 20
-13.55982016753144
 30
0.0
 11
39.4595585802216
 21
-13.61648889133218
 31
0.0
  0
LINE
  5
1D8
330
2
100
AcDbEntity
  8
GAIKEI
 62
     1
100
AcDbLine
 10
40.54143035407321
 20
-13.61648889133218
 30
0.0
 11
37.42774860231879
 21
-13.61648889133218
 31
0.0
  0
LINE
  5
1D9
330
2
100
AcDbEntity
  8
GAIKEI
 62
     1
100
AcDbLine
 10
37.42774860231879
 20
-13.61648889133218
 30
0.0
 11
37.42774860231879
 21
-13.55982016753144
 31
0.0
  0
LINE
  5
1DA
330
2
100
AcDbEntity
  8
GAIKEI
100
AcDbLine
 10
40.67125012205383
 20
-13.52648382657143
 30
0.0
 11
40.65892789922367
 21
-13.29136066916067
 31
0.0
  0
ARC
  5
1DB
330
2
100
AcDbEntity
  8
GAIKEI
100
AcDbCircle
 10
40.60898896955421
 20
-13.29397636353246
 30
0.0
 40
0.0500073849903737
100
AcDbArc
 50
2.998290564266293
 51
67.68849986971348
  0
LINE
  5
1DC
330
2
100
AcDbEntity
  8
GAIKEI
 62
     1
100
AcDbLine
 10
40.54143035407321
 20
-13.55982016753144
 30
0.0
 11
40.54143035407321
 21
-13.61648889133218
 31
0.0
  0
LINE
  5
1DD
330
2
100
AcDbEntity
  8
GAIKEI
 62
     1
100
AcDbLine
 10
40.63907583522677
 20
-13.55982016753144
 30
0.0
 11
40.63965754952891
 21
-13.52648410437427
 31
0.0
  0
ARC
  5
1DE
330
2
100
AcDbEntity
  8
GAIKEI
100
AcDbCircle
 10
36.83492781802517
 20
-22.49172513158538
 30
0.0
 40
9.991944847822418
100
AcDbArc
 50
67.6903827857572
 51
71.91495060504649
  0
ARC
  5
1DF
330
2
100
AcDbEntity
  8
GAIKEI
100
AcDbCircle
 10
34.9259937001043
 20
-31.41521617800629
 30
0.0
 40
19.03197803845175
100
AcDbArc
 50
77.04151910734037
 51
80.53729314661032
  0
ARC
  5
1E0
330
2
100
AcDbEntity
  8
GAIKEI
100
AcDbCircle
 10
39.61082419837499
 20
-10.8507352721938
 30
0.0
 40
2.059845743324215
100
AcDbArc
 50
258.3200110016844
 51
271.1072643177896
  0
ARC
  5
1E1
330
2
100
AcDbEntity
  8
GAIKEI
100
AcDbCircle
 10
39.5762117594602
 20
-13.69932551174216
 30
0.0
 40
0.792630256158855
100
AcDbArc
 50
62.94724415665943
 51
84.61276257708188
  0
LINE
  5
1E2
330
2
100
AcDbEntity
  8
GAIKEI
100
AcDbLine
 10
35.25415444366473
 20
-12.76252740191897
 30
0.0
 11
35.29259646283504
 21
-12.02905732122971
 31
0.0
  0
ARC
  5
1E3
330
2
100
AcDbEntity
  8
GAIKEI
100
AcDbCircle
 10
35.55639648177163
 20
-12.04034907733877
 30
0.0
 40
0.2640441715827126
100
AcDbArc
 50
90.69906002077287
 51
177.549625890487
  0
LINE
  5
1E4
330
2
100
AcDbEntity
  8
GAIKEI
 62
     7
100
AcDbLine
 10
35.55317503261057
 20
-11.77632453715723
 30
0.0
 11
37.97762876842552
 21
-11.77632453715723
 31
0.0
  0
LINE
  5
1E5
330
2
100
AcDbEntity
  8
GAIKEI
 62
     7
100
AcDbLine
 10
36.01207060113808
 20
-11.62631100283722
 30
0.0
 11
39.83342758870788
 21
-11.62631100283722
 31
0.0
  0
LINE
  5
1E6
330
2
100
AcDbEntity
  8
GAIKEI
 62
     7
100
AcDbLine
 10
39.86671142493089
 20
-11.6579010751366
 30
0.0
 11
39.93670246179062
 21
-12.99341212137951
 31
0.0
  0
ARC
  5
1E7
330
2
100
AcDbEntity
  8
GAIKEI
 62
     7
100
AcDbCircle
 10
36.0121844006805
 20
-11.65977252182178
 30
0.0
 40
0.033461691237026
100
AcDbArc
 50
90.19493783916935
 51
176.8019857905063
  0
LINE
  5
1E8
330
2
100
AcDbEntity
  8
GAIKEI
 62
     7
100
AcDbLine
 10
35.97877490676513
 20
-11.65790567162062
 30
0.0
 11
35.97256620369194
 21
-11.77632675957996
 31
0.0
  0
LINE
  5
1E9
330
2
100
AcDbEntity
  8
GAIKEI
 62
     1
100
AcDbLine
 10
38.19512505775089
 20
-11.65790274195365
 30
0.0
 11
38.23707939845474
 21
-12.67146557514979
 31
0.0
  0
LINE
  5
1EA
330
2
100
AcDbEntity
  8
GAIKEI
 62
     1
100
AcDbLine
 10
37.98163301858051
 20
-11.65790579778492
 30
0.0
 11
37.95279847266431
 21
-12.64659833161067
 31
0.0
  0
ARC
  5
1EB
330
2
100
AcDbEntity
  8
GAIKEI
 62
     1
100
AcDbCircle
 10
38.0091714230378
 20
-11.65348082045504
 30
0.0
 40
0.0278916338026914
100
AcDbArc
 50
103.0635590081793
 51
189.1282203946027
  0
ARC
  5
1EC
330
2
100
AcDbEntity
  8
GAIKEI
 62
     1
100
AcDbCircle
 10
38.16493236583438
 20
-11.65629771000007
 30
0.0
 40
0.0302392548550855
100
AcDbArc
 50
356.9518797041114
 51
82.58954369112771
  0
ARC
  5
1ED
330
2
100
AcDbEntity
  8
GAIKEI
 62
     7
100
AcDbCircle
 10
39.83342758870788
 20
-11.65964734379723
 30
0.0
 40
0.0333363409599978
100
AcDbArc
 50
2.99996499999646
 51
89.99996400000483
  0
DIMENSION
  5
1EE
330
2
100
AcDbEntity
  8
SUNPO
100
AcDbDimension
  2
*D12
 10
3.00649574779959
 20
19.36356714237028
 30
0.0
 11
-17.16016981433216
 21
21.11356714237029
 31
0.0
 70
    33
  1
1210
 71
     5
 42
40.3333311242635
  3
STANDARD
100
AcDbAlignedDimension
 13
-37.32683537646392
 23
11.36356714237028
 33
0.0
 14
3.00649574779959
 24
11.36356714237028
 34
0.0
1001
ACAD
1000
DSTYLE
1002
{
1070
   287
1070
     3
1070
    40
1040
1.0
1070
   140
1040
2.5
1070
   147
1040
0.5
1070
   172
1070
     1
1070
   279
1070
     0
1070
   288
1070
     0
1002
}
  0
DIMENSION
  5
1FD
330
2
100
AcDbEntity
  8
SUNPO
100
AcDbDimension
  2
*D11
 10
11.00700701798791
 20
12.49695778807343
 30
0.0
 11
9.257007017987913
 21
0.430295115093784
 31
0.0
 70
    33
  1
724
 71
     5
 42
24.13332534595929
  3
STANDARD
100
AcDbAlignedDimension
 13
3.007007017987916
 23
-11.63636755788586
 33
0.0
 14
3.007007017987916
 24
12.49695778807343
 34
0.0
1001
ACAD
1000
DSTYLE
1002
{
1070
   287
1070
     3
1070
    40
1040
1.0
1070
   140
1040
2.5
1070
   147
1040
0.5
1070
   172
1070
     1
1070
   279
1070
     0
1070
   288
1070
     0
1002
}
  0
DIMENSION
  5
20A
330
2
100
AcDbEntity
  8
SUNPO
100
AcDbDimension
  2
*D10
 10
37.15819317173896
 20
19.36356714237028
 30
0.0
 11
43.74152650507229
 21
21.11356714237029
 31
0.0
 70
    33
  1
95
 71
     5
 42
3.153480177450774
  3
STANDARD
100
AcDbAlignedDimension
 13
34.00471299428819
 23
11.36356714237028
 33
0.0
 14
37.15819317173896
 24
11.36356714237028
 34
0.0
1001
ACAD
1000
DSTYLE
1002
{
1070
   287
1070
     3
1070
    40
1040
1.0
1070
   140
1040
2.5
1070
   147
1040
0.5
1070
   172
1070
     1
1070
   279
1070
     0
1070
   288
1070
     0
1002
}
  0
DIMENSION
  5
219
330
2
100
AcDbEntity
  8
SUNPO
100
AcDbDimension
  2
*D9
 10
16.00700701798792
 20
-13.61441953796709
 30
0.0
 11
14.25700701798792
 21
-0.5587308749468267
 31
0.0
 70
    32
  1
783
 71
     5
 42
26.11137732604051
  3
STANDARD
100
AcDbAlignedDimension
 13
5.007007017987916
 23
12.49695778807343
 33
0.0
 14
-7.485746886022866
 24
-13.61441953796708
 34
0.0
 50
90.0
100
AcDbRotatedDimension
1001
ACAD
1000
DSTYLE
1002
{
1070
   287
1070
     3
1070
    40
1040
1.0
1070
   140
1040
2.5
1070
   147
1040
0.5
1070
   172
1070
     1
1070
   279
1070
     0
1070
   288
1070
     0
1002
}
  0
DIMENSION
  5
226
330
2
100
AcDbEntity
  8
SUNPO
100
AcDbDimension
  2
*D8
 10
-7.521865794588848
 20
-21.62724823104344
 30
0.0
 11
-17.16015508962769
 21
-19.87724823104344
 31
0.0
 70
    33
  1
578
 71
     5
 42
19.27657859007769
  3
STANDARD
100
AcDbAlignedDimension
 13
-26.79844438466654
 23
-13.62724823104344
 33
0.0
 14
-7.521865794588848
 24
-13.62724823104344
 34
0.0
1001
ACAD
1000
DSTYLE
1002
{
1070
   287
1070
     3
1070
    40
1040
1.0
1070
   140
1040
2.5
1070
   147
1040
0.5
1070
   172
1070
     1
1070
   279
1070
     0
1070
   288
1070
     0
1002
}
  0
DIMENSION
  5
233
330
2
100
AcDbEntity
  8
SUNPO
100
AcDbDimension
  2
*D7
 10
40.67125012205383
 20
-21.62724823104344
 30
0.0
 11
35.22251075541698
 21
-19.87724823104344
 31
0.0
 70
    33
  1
327
 71
     5
 42
10.89747873327371
  3
STANDARD
100
AcDbAlignedDimension
 13
29.77377138878012
 23
-13.62724823104344
 33
0.0
 14
40.67125012205383
 24
-13.62724823104344
 34
0.0
1001
ACAD
1000
DSTYLE
1002
{
1070
   287
1070
     3
1070
    40
1040
1.0
1070
   140
1040
2.5
1070
   147
1040
0.5
1070
   172
1070
     1
1070
   279
1070
     0
1070
   288
1070
     0
1002
}
  0
TEXT
  5
240
330
2
100
AcDbEntity
  8
TOUROKU
100
AcDbText
 10
44.52681971373102
 20
-13.90595947481155
 30
0.0
 40
1.5
  1
Ｓ＝１／３０
 41
0.7
 72
     2
 11
51.59681971373101
 21
-13.90595947481155
 31
0.0
100
AcDbText
  0
ENDSEC
  0
SECTION
  2
OBJECTS
  0
DICTIONARY
  5
7
330
0
100
AcDbDictionary
281
     1
  3
ACAD_COLOR
350
2D
  3
ACAD_GROUP
350
29
  3
ACAD_LAYOUT
350
B
  3
ACAD_MATERIAL
350
2C
  3
ACAD_MLINESTYLE
350
2A
  3
ACAD_PLOTSETTINGS
350
2B
  3
ACAD_PLOTSTYLENAME
350
6
  3
ACDBHEADERROUNDTRIPXREC
350
2A3
  3
AcDbVariableDictionary
350
29E
  0
DICTIONARY
  5
11
330
10
100
AcDbDictionary
280
     1
281
     1
  3
ACAD_LAYERSTATES
360
12
  0
DICTIONARY
  5
2D
102
{ACAD_REACTORS
330
7
102
}
330
7
100
AcDbDictionary
281
     1
  0
DICTIONARY
  5
29
102
{ACAD_REACTORS
330
7
102
}
330
7
100
AcDbDictionary
281
     1
  0
DICTIONARY
  5
B
102
{ACAD_REACTORS
330
7
102
}
330
7
100
AcDbDictionary
281
     1
  3
Model
350
A
  3
レイアウト1
350
F
  0
DICTIONARY
  5
2C
102
{ACAD_REACTORS
330
7
102
}
330
7
100
AcDbDictionary
281
     1
  0
DICTIONARY
  5
2A
102
{ACAD_REACTORS
330
7
102
}
330
7
100
AcDbDictionary
281
     1
  3
Standard
350
2F
  0
DICTIONARY
  5
2B
102
{ACAD_REACTORS
330
7
102
}
330
7
100
AcDbDictionary
281
     1
  0
ACDBDICTIONARYWDFLT
  5
6
102
{ACAD_REACTORS
330
7
102
}
330
7
100
AcDbDictionary
281
     1
  3
Normal
350
5
100
AcDbDictionaryWithDefault
340
5
  0
DICTIONARY
  5
2A3
102
{ACAD_REACTORS
330
7
102
}
330
7
100
AcDbDictionary
281
     1
  3
COLORDICT
350
2A5
  3
MATERIALDICT
350
2A4
  0
DICTIONARY
  5
29E
102
{ACAD_REACTORS
330
7
102
}
330
7
100
AcDbDictionary
281
     1
  3
DIMASSOC
350
2A0
  3
HIDETEXT
350
29F
  3
PROJECTNAME
350
2A1
  0
DICTIONARY
  5
12
102
{ACAD_REACTORS
330
11
102
}
330
11
100
AcDbDictionary
281
     1
  0
LAYOUT
  5
A
102
{ACAD_XDICTIONARY
360
2A6
102
}
102
{ACAD_REACTORS
330
B
102
}
330
B
100
AcDbPlotSettings
  1

  2
Ａ４－縦3FRIM01.pc3
  4
A4
  6

 40
5.873749732971191
 41
5.873747825622558
 42
5.873748779296875
 43
5.873748779296875
 44
209.9733276367187
 45
296.9259948730469
 46
5.419999999999999
 47
0.0
 48
0.0
 49
0.0
140
0.0
141
0.0
142
1.0
143
1.382430925642159
 70
 11956
 72
     1
 73
     0
 74
     1
  7
tmsacad.ctb
 75
     0
147
0.7233634472807279
148
0.0137509953462995
149
0.0199638970806291
100
AcDbLayout
  1
Model
 70
     1
 71
     0
 10
0.0
 20
0.0
 11
12.0
 21
9.0
 12
0.0
 22
0.0
 32
0.0
 14
0.0
 24
0.0
 34
0.0
 15
0.0
 25
0.0
 35
0.0
146
0.0
 13
0.0
 23
0.0
 33
0.0
 16
1.0
 26
0.0
 36
0.0
 17
0.0
 27
1.0
 37
0.0
 76
     0
330
2
  0
LAYOUT
  5
F
102
{ACAD_XDICTIONARY
360
2A8
102
}
102
{ACAD_REACTORS
330
B
102
}
330
B
100
AcDbPlotSettings
  1

  2
None
  4

  6

 40
0.0
 41
0.0
 42
0.0
 43
0.0
 44
0.0
 45
0.0
 46
0.0
 47
0.0
 48
0.0
 49
0.0
140
0.0
141
0.0
142
1.0
143
1.0
 70
   688
 72
     0
 73
     0
 74
     5
  7
tmsacad.ctb
 75
    16
147
1.0
148
0.0
149
0.0
100
AcDbLayout
  1
レイアウト1
 70
     1
 71
     1
 10
0.0
 20
0.0
 11
12.0
 21
9.0
 12
0.0
 22
0.0
 32
0.0
 14
0.0
 24
0.0
 34
0.0
 15
0.0
 25
0.0
 35
0.0
146
0.0
 13
0.0
 23
0.0
 33
0.0
 16
1.0
 26
0.0
 36
0.0
 17
0.0
 27
1.0
 37
0.0
 76
     0
330
C
  0
MLINESTYLE
  5
2F
102
{ACAD_REACTORS
330
2A
102
}
330
2A
100
AcDbMlineStyle
  2
STANDARD
 70
     0
  3

 62
   256
 51
90.0
 52
90.0
 71
     2
 49
0.5
 62
   256
  6
BYLAYER
 49
-0.5
 62
   256
  6
BYLAYER
  0
ACDBPLACEHOLDER
  5
5
102
{ACAD_REACTORS
330
6
102
}
330
6
  0
XRECORD
  5
2A5
102
{ACAD_REACTORS
330
2A3
102
}
330
2A3
100
AcDbXrecord
280
     1
340
2D
  0
XRECORD
  5
2A4
102
{ACAD_REACTORS
330
2A3
102
}
330
2A3
100
AcDbXrecord
280
     1
340
2C
  0
DICTIONARYVAR
  5
2A0
102
{ACAD_REACTORS
330
29E
102
}
330
29E
100
DictionaryVariables
280
     0
  1
1
  0
DICTIONARYVAR
  5
29F
102
{ACAD_REACTORS
330
29E
102
}
330
29E
100
DictionaryVariables
280
     0
  1
1
  0
DICTIONARYVAR
  5
2A1
102
{ACAD_REACTORS
330
29E
102
}
330
29E
100
DictionaryVariables
280
     0
  1

  0
DICTIONARY
  5
2A6
330
A
100
AcDbDictionary
280
     1
281
     1
  3
ACAD_XREC_ROUNDTRIP
360
2A7
  0
DICTIONARY
  5
2A8
330
F
100
AcDbDictionary
280
     1
281
     1
  3
ACAD_XREC_ROUNDTRIP
360
2A9
  0
XRECORD
  5
2A7
102
{ACAD_REACTORS
330
2A6
102
}
330
2A6
100
AcDbXrecord
280
     1
102
SHADEPLOT
 70
     0
102
SHADEPLOTRESLEVEL
 70
     2
102
SHADEPLOTCUSTOMDPI
 70
   300
  0
XRECORD
  5
2A9
102
{ACAD_REACTORS
330
2A8
102
}
330
2A8
100
AcDbXrecord
280
     1
102
SHADEPLOT
 70
     0
102
SHADEPLOTRESLEVEL
 70
     2
102
SHADEPLOTCUSTOMDPI
 70
   300
  0
ENDSEC
  0
EOF
