  0
SECTION
  2
HEADER
  9
$ACADVER
  1
AC1015
  9
$ACADMAINTVER
 70
    20
  9
$DWGCODEPAGE
  3
ANSI_932
  9
$INSBASE
 10
129.499999944041
 20
372.5008351249344
 30
0.0
  9
$EXTMIN
 10
-67.75268464786075
 20
-57.99421629495248
 30
-0.0015258207003583
  9
$EXTMAX
 10
57.28088434469066
 20
55.03038065884073
 30
0.0000000349246037
  9
$LIMMIN
 10
0.0
 20
0.0
  9
$LIMMAX
 10
420.0
 20
297.0
  9
$ORTHOMODE
 70
     1
  9
$REGENMODE
 70
     0
  9
$FILLMODE
 70
     1
  9
$QTEXTMODE
 70
     0
  9
$MIRRTEXT
 70
     0
  9
$LTSCALE
 40
1.0
  9
$ATTMODE
 70
     1
  9
$TEXTSIZE
 40
2.5
  9
$TRACEWID
 40
1.0
  9
$TEXTSTYLE
  7
Standard
  9
$CLAYER
  8
GAIKEI
  9
$CELTYPE
  6
ByLayer
  9
$CECOLOR
 62
   256
  9
$CELTSCALE
 40
1.0
  9
$DISPSILH
 70
     0
  9
$DIMSCALE
 40
1.0
  9
$DIMASZ
 40
2.0
  9
$DIMEXO
 40
2.0
  9
$DIMDLI
 40
8.0
  9
$DIMRND
 40
0.0
  9
$DIMDLE
 40
0.0
  9
$DIMEXE
 40
2.0
  9
$DIMTP
 40
0.0
  9
$DIMTM
 40
0.0
  9
$DIMTXT
 40
2.5
  9
$DIMCEN
 40
0.0
  9
$DIMTSZ
 40
0.0
  9
$DIMTOL
 70
     0
  9
$DIMLIM
 70
     0
  9
$DIMTIH
 70
     0
  9
$DIMTOH
 70
     0
  9
$DIMSE1
 70
     0
  9
$DIMSE2
 70
     0
  9
$DIMTAD
 70
     3
  9
$DIMZIN
 70
     0
  9
$DIMBLK
  1

  9
$DIMASO
 70
     1
  9
$DIMSHO
 70
     1
  9
$DIMPOST
  1

  9
$DIMAPOST
  1

  9
$DIMALT
 70
     0
  9
$DIMALTD
 70
     2
  9
$DIMALTF
 40
25.4
  9
$DIMLFAC
 40
1.0
  9
$DIMTOFL
 70
     1
  9
$DIMTVP
 40
0.0
  9
$DIMTIX
 70
     0
  9
$DIMSOXD
 70
     0
  9
$DIMSAH
 70
     1
  9
$DIMBLK1
  1
OPEN30
  9
$DIMBLK2
  1
OPEN30
  9
$DIMSTYLE
  2
STANDARD
  9
$DIMCLRD
 70
     0
  9
$DIMCLRE
 70
     0
  9
$DIMCLRT
 70
     0
  9
$DIMTFAC
 40
1.0
  9
$DIMGAP
 40
0.5
  9
$DIMJUST
 70
     0
  9
$DIMSD1
 70
     0
  9
$DIMSD2
 70
     0
  9
$DIMTOLJ
 70
     1
  9
$DIMTZIN
 70
     0
  9
$DIMALTZ
 70
     0
  9
$DIMALTTZ
 70
     0
  9
$DIMUPT
 70
     0
  9
$DIMDEC
 70
     4
  9
$DIMTDEC
 70
     4
  9
$DIMALTU
 70
     2
  9
$DIMALTTD
 70
     2
  9
$DIMTXSTY
  7
Standard
  9
$DIMAUNIT
 70
     0
  9
$DIMADEC
 70
     0
  9
$DIMALTRND
 40
0.0
  9
$DIMAZIN
 70
     0
  9
$DIMDSEP
 70
    46
  9
$DIMATFIT
 70
     3
  9
$DIMFRAC
 70
     0
  9
$DIMLDRBLK
  1
OPEN30
  9
$DIMLUNIT
 70
     2
  9
$DIMLWD
 70
    -2
  9
$DIMLWE
 70
    -2
  9
$DIMTMOVE
 70
     0
  9
$LUNITS
 70
     2
  9
$LUPREC
 70
     4
  9
$SKETCHINC
 40
1.0
  9
$FILLETRAD
 40
0.0
  9
$AUNITS
 70
     0
  9
$AUPREC
 70
     0
  9
$MENU
  1
.
  9
$ELEVATION
 40
0.0
  9
$PELEVATION
 40
0.0
  9
$THICKNESS
 40
0.0
  9
$LIMCHECK
 70
     0
  9
$CHAMFERA
 40
0.0
  9
$CHAMFERB
 40
0.0
  9
$CHAMFERC
 40
0.0
  9
$CHAMFERD
 40
0.0
  9
$SKPOLY
 70
     0
  9
$TDCREATE
 40
2454349.434269746
  9
$TDUCREATE
 40
2454349.059269746
  9
$TDUPDATE
 40
2455042.673487905
  9
$TDUUPDATE
 40
2455042.298487905
  9
$TDINDWG
 40
0.3269023264
  9
$TDUSRTIMER
 40
0.3269023264
  9
$USRTIMER
 70
     1
  9
$ANGBASE
 50
0.0
  9
$ANGDIR
 70
     0
  9
$PDMODE
 70
     0
  9
$PDSIZE
 40
0.0
  9
$PLINEWID
 40
0.0
  9
$SPLFRAME
 70
     0
  9
$SPLINETYPE
 70
     6
  9
$SPLINESEGS
 70
     8
  9
$HANDSEED
  5
406
  9
$SURFTAB1
 70
     6
  9
$SURFTAB2
 70
     6
  9
$SURFTYPE
 70
     6
  9
$SURFU
 70
     6
  9
$SURFV
 70
     6
  9
$UCSBASE
  2

  9
$UCSNAME
  2

  9
$UCSORG
 10
0.0
 20
0.0
 30
0.0
  9
$UCSXDIR
 10
1.0
 20
0.0
 30
0.0
  9
$UCSYDIR
 10
0.0
 20
1.0
 30
0.0
  9
$UCSORTHOREF
  2

  9
$UCSORTHOVIEW
 70
     0
  9
$UCSORGTOP
 10
0.0
 20
0.0
 30
0.0
  9
$UCSORGBOTTOM
 10
0.0
 20
0.0
 30
0.0
  9
$UCSORGLEFT
 10
0.0
 20
0.0
 30
0.0
  9
$UCSORGRIGHT
 10
0.0
 20
0.0
 30
0.0
  9
$UCSORGFRONT
 10
0.0
 20
0.0
 30
0.0
  9
$UCSORGBACK
 10
0.0
 20
0.0
 30
0.0
  9
$PUCSBASE
  2

  9
$PUCSNAME
  2

  9
$PUCSORG
 10
0.0
 20
0.0
 30
0.0
  9
$PUCSXDIR
 10
1.0
 20
0.0
 30
0.0
  9
$PUCSYDIR
 10
0.0
 20
1.0
 30
0.0
  9
$PUCSORTHOREF
  2

  9
$PUCSORTHOVIEW
 70
     0
  9
$PUCSORGTOP
 10
0.0
 20
0.0
 30
0.0
  9
$PUCSORGBOTTOM
 10
0.0
 20
0.0
 30
0.0
  9
$PUCSORGLEFT
 10
0.0
 20
0.0
 30
0.0
  9
$PUCSORGRIGHT
 10
0.0
 20
0.0
 30
0.0
  9
$PUCSORGFRONT
 10
0.0
 20
0.0
 30
0.0
  9
$PUCSORGBACK
 10
0.0
 20
0.0
 30
0.0
  9
$USERI1
 70
     0
  9
$USERI2
 70
     0
  9
$USERI3
 70
     0
  9
$USERI4
 70
     0
  9
$USERI5
 70
     0
  9
$USERR1
 40
0.0
  9
$USERR2
 40
0.0
  9
$USERR3
 40
0.0
  9
$USERR4
 40
0.0
  9
$USERR5
 40
0.0
  9
$WORLDVIEW
 70
     1
  9
$SHADEDGE
 70
     3
  9
$SHADEDIF
 70
    70
  9
$TILEMODE
 70
     1
  9
$MAXACTVP
 70
    64
  9
$PINSBASE
 10
0.0
 20
0.0
 30
0.0
  9
$PLIMCHECK
 70
     0
  9
$PEXTMIN
 10
0.0
 20
0.0
 30
0.0
  9
$PEXTMAX
 10
0.0
 20
0.0
 30
0.0
  9
$PLIMMIN
 10
0.0
 20
0.0
  9
$PLIMMAX
 10
12.0
 20
9.0
  9
$UNITMODE
 70
     0
  9
$VISRETAIN
 70
     1
  9
$PLINEGEN
 70
     0
  9
$PSLTSCALE
 70
     1
  9
$TREEDEPTH
 70
  3020
  9
$CMLSTYLE
  2
Standard
  9
$CMLJUST
 70
     0
  9
$CMLSCALE
 40
20.0
  9
$PROXYGRAPHICS
 70
     1
  9
$MEASUREMENT
 70
     1
  9
$CELWEIGHT
370
    -1
  9
$ENDCAPS
280
     0
  9
$JOINSTYLE
280
     0
  9
$LWDISPLAY
290
     0
  9
$INSUNITS
 70
     4
  9
$HYPERLINKBASE
  1

  9
$STYLESHEET
  1

  9
$XEDIT
290
     1
  9
$CEPSNTYPE
380
     0
  9
$PSTYLEMODE
290
     1
  9
$FINGERPRINTGUID
  2
{FDEAD578-A652-11D2-9A35-0060089B3A3F}
  9
$VERSIONGUID
  2
{EAF8940F-FA6E-4750-94E4-313373BC5290}
  9
$EXTNAMES
290
     1
  9
$PSVPSCALE
 40
0.0
  9
$OLESTARTUP
290
     0
  0
ENDSEC
  0
SECTION
  2
CLASSES
  0
CLASS
  1
ACDBDICTIONARYWDFLT
  2
AcDbDictionaryWithDefault
  3
ObjectDBX Classes
 90
        0
280
     0
281
     0
  0
CLASS
  1
ACDBPLACEHOLDER
  2
AcDbPlaceHolder
  3
ObjectDBX Classes
 90
        0
280
     0
281
     0
  0
CLASS
  1
LAYOUT
  2
AcDbLayout
  3
ObjectDBX Classes
 90
        0
280
     0
281
     0
  0
CLASS
  1
DICTIONARYVAR
  2
AcDbDictionaryVar
  3
ObjectDBX Classes
 90
        0
280
     0
281
     0
  0
CLASS
  1
DIMASSOC
  2
AcDbDimAssoc
  3
"AcDbDimAssoc|Product Desc:     AcDim ARX App For Dimension|Company:          Autodesk, Inc.|WEB Address:      www.autodesk.com"
 90
    32768
280
     0
281
     0
  0
CLASS
  1
SORTENTSTABLE
  2
AcDbSortentsTable
  3
ObjectDBX Classes
 90
    32768
280
     0
281
     0
  0
ENDSEC
  0
SECTION
  2
TABLES
  0
TABLE
  2
VPORT
  5
1B
330
0
100
AcDbSymbolTable
 70
     3
  0
VPORT
  5
3FE
330
1B
100
AcDbSymbolTableRecord
100
AcDbViewportTableRecord
  2
*Active
 70
     0
 10
0.0
 20
0.0
 11
1.0
 21
1.0
 12
-5.235900151585049
 22
-1.481917818055876
 13
0.0
 23
0.0
 14
10.0
 24
10.0
 15
10.0
 25
10.0
 16
0.0
 26
0.0
 36
1.0
 17
0.0
 27
0.0
 37
0.0
 40
113.8906858193395
 41
1.39386189258312
 42
50.0
 43
0.0
 44
0.0
 50
0.0
 51
0.0
 71
     0
 72
  1000
 73
     1
 74
     2
 75
     0
 76
     0
 77
     0
 78
     0
281
     0
 65
     1
110
0.0
120
0.0
130
0.0
111
1.0
121
0.0
131
0.0
112
0.0
122
1.0
132
0.0
 79
     0
146
0.0
  0
ENDTAB
  0
TABLE
  2
LTYPE
  5
16
330
0
100
AcDbSymbolTable
 70
     2
  0
LTYPE
  5
17
330
16
100
AcDbSymbolTableRecord
100
AcDbLinetypeTableRecord
  2
ByBlock
 70
     0
  3

 72
    65
 73
     0
 40
0.0
  0
LTYPE
  5
18
330
16
100
AcDbSymbolTableRecord
100
AcDbLinetypeTableRecord
  2
ByLayer
 70
     0
  3

 72
    65
 73
     0
 40
0.0
  0
LTYPE
  5
8
330
16
100
AcDbSymbolTableRecord
100
AcDbLinetypeTableRecord
  2
Continuous
 70
     0
  3
Solid line
 72
    65
 73
     0
 40
0.0
  0
LTYPE
  5
1C0
330
16
100
AcDbSymbolTableRecord
100
AcDbLinetypeTableRecord
  2
HIDDEN2
 70
     0
  3
Hidden (.5x) _ _ _ _ _ _ _ _ _ _ _ _ _ _ _ _ _
 72
    65
 73
     2
 40
1.399999999999999
 49
0.7
 74
     0
 49
-0.7
 74
     0
  0
ENDTAB
  0
TABLE
  2
LAYER
  5
10
102
{ACAD_XDICTIONARY
360
11
102
}
330
0
100
AcDbSymbolTable
 70
     7
  0
LAYER
  5
4
330
10
100
AcDbSymbolTableRecord
100
AcDbLayerTableRecord
  2
0
 70
     0
 62
     7
  6
Continuous
370
    -3
390
5
  0
LAYER
  5
39
330
10
100
AcDbSymbolTableRecord
100
AcDbLayerTableRecord
  2
WAKU
 70
     0
 62
     4
  6
Continuous
370
    -3
390
5
  0
LAYER
  5
31
330
10
100
AcDbSymbolTableRecord
100
AcDbLayerTableRecord
  2
MOJI1
 70
     0
 62
     2
  6
Continuous
370
    -3
390
5
  0
LAYER
  5
33
330
10
100
AcDbSymbolTableRecord
100
AcDbLayerTableRecord
  2
TOUROKU
 70
     0
 62
     1
  6
Continuous
370
    -3
390
5
  0
LAYER
  5
2E
330
10
100
AcDbSymbolTableRecord
100
AcDbLayerTableRecord
  2
GAIKEI
 70
     0
 62
     7
  6
Continuous
370
    -3
390
5
  0
LAYER
  5
34E
330
10
100
AcDbSymbolTableRecord
100
AcDbLayerTableRecord
  2
Defpoints
 70
     0
 62
     7
  6
Continuous
290
     0
370
    -3
390
5
  0
LAYER
  5
19A
330
10
100
AcDbSymbolTableRecord
100
AcDbLayerTableRecord
  2
SUNPO
 70
     0
 62
     3
  6
Continuous
370
    -3
390
5
  0
ENDTAB
  0
TABLE
  2
STYLE
  5
13
330
0
100
AcDbSymbolTable
 70
     1
  0
STYLE
  5
14
330
13
100
AcDbSymbolTableRecord
100
AcDbTextStyleTableRecord
  2
Standard
 70
     0
 40
0.0
 41
1.0
 50
0.0
 71
     0
 42
2.5
  3
MONOTXT.shx
  4
BIGFONT.shx
  0
ENDTAB
  0
TABLE
  2
VIEW
  5
19
330
0
100
AcDbSymbolTable
 70
     0
  0
ENDTAB
  0
TABLE
  2
UCS
  5
1A
330
0
100
AcDbSymbolTable
 70
     0
  0
ENDTAB
  0
TABLE
  2
APPID
  5
1D
330
0
100
AcDbSymbolTable
 70
     1
  0
APPID
  5
1E
330
1D
100
AcDbSymbolTableRecord
100
AcDbRegAppTableRecord
  2
ACAD
 70
     0
  0
ENDTAB
  0
TABLE
  2
DIMSTYLE
  5
1F
330
0
100
AcDbSymbolTable
 70
     2
100
AcDbDimStyleTable
 71
     2
340
20
340
27
  0
DIMSTYLE
105
27
330
1F
100
AcDbSymbolTableRecord
100
AcDbDimStyleTableRecord
  2
ISO-25
 70
     0
 41
2.5
 42
0.625
 43
3.75
 44
1.25
 73
     0
 74
     0
 77
     1
 78
     8
140
2.5
141
2.5
143
0.03937007874016
147
0.625
171
     3
172
     1
271
     2
272
     2
274
     3
278
    44
283
     0
284
     8
340
14
  0
DIMSTYLE
105
20
102
{ACAD_REACTORS
330
3A9
330
39C
330
352
330
344
102
}
330
1F
100
AcDbSymbolTableRecord
100
AcDbDimStyleTableRecord
  2
STANDARD
 70
     0
 40
0.0
 41
2.0
 42
2.0
 43
8.0
 44
2.0
 73
     0
 74
     0
 77
     3
140
3.0
141
0.0
173
     1
279
     2
288
     1
340
14
341
21
343
21
344
21
  0
ENDTAB
  0
TABLE
  2
BLOCK_RECORD
  5
1
330
0
100
AcDbSymbolTable
 70
     9
  0
BLOCK_RECORD
  5
2
330
1
100
AcDbSymbolTableRecord
100
AcDbBlockTableRecord
  2
*Model_Space
340
A
  0
BLOCK_RECORD
  5
C
330
1
100
AcDbSymbolTableRecord
100
AcDbBlockTableRecord
  2
*Paper_Space
340
F
  0
BLOCK_RECORD
  5
21
330
1
100
AcDbSymbolTableRecord
100
AcDbBlockTableRecord
  2
_OPEN30
340
0
102
{BLKREFS
331
1A9
331
1A7
331
34A
331
34B
331
358
331
359
331
3A2
331
3A3
331
3AF
331
3B0
331
3CE
331
3CF
331
3DA
331
3DB
331
3E6
331
3E7
331
3F2
331
3F3
102
}
  0
BLOCK_RECORD
  5
3AA
330
1
100
AcDbSymbolTableRecord
100
AcDbBlockTableRecord
  2
*D1
340
0
  0
BLOCK_RECORD
  5
39D
330
1
100
AcDbSymbolTableRecord
100
AcDbBlockTableRecord
  2
*D2
340
0
  0
BLOCK_RECORD
  5
353
330
1
100
AcDbSymbolTableRecord
100
AcDbBlockTableRecord
  2
*D3
340
0
  0
BLOCK_RECORD
  5
345
330
1
100
AcDbSymbolTableRecord
100
AcDbBlockTableRecord
  2
*D4
340
0
  0
BLOCK_RECORD
  5
3CA
330
1
100
AcDbSymbolTableRecord
100
AcDbBlockTableRecord
  2
*D5
340
0
  0
BLOCK_RECORD
  5
3D6
330
1
100
AcDbSymbolTableRecord
100
AcDbBlockTableRecord
  2
*D6
340
0
  0
BLOCK_RECORD
  5
3E2
330
1
100
AcDbSymbolTableRecord
100
AcDbBlockTableRecord
  2
*D7
340
0
  0
BLOCK_RECORD
  5
3EE
330
1
100
AcDbSymbolTableRecord
100
AcDbBlockTableRecord
  2
*D8
340
0
  0
ENDTAB
  0
ENDSEC
  0
SECTION
  2
BLOCKS
  0
BLOCK
  5
3
330
2
100
AcDbEntity
  8
0
100
AcDbBlockBegin
  2
*Model_Space
 70
     0
 10
0.0
 20
0.0
 30
0.0
  3
*Model_Space
  1

  0
ENDBLK
  5
9
330
2
100
AcDbEntity
  8
0
100
AcDbBlockEnd
  0
BLOCK
  5
D
330
C
100
AcDbEntity
 67
     1
  8
0
100
AcDbBlockBegin
  2
*Paper_Space
 70
     0
 10
0.0
 20
0.0
 30
0.0
  3
*Paper_Space
  1

  0
ENDBLK
  5
E
330
C
100
AcDbEntity
 67
     1
  8
0
100
AcDbBlockEnd
  0
BLOCK
  5
22
330
21
100
AcDbEntity
  8
0
100
AcDbBlockBegin
  2
_OPEN30
 70
     0
 10
0.0
 20
0.0
 30
0.0
  3
_OPEN30
  1

  0
LINE
  5
23
330
21
100
AcDbEntity
  8
0
  6
ByBlock
 62
     0
100
AcDbLine
 10
-1.0
 20
0.26794919
 30
0.0
 11
0.0
 21
0.0
 31
0.0
  0
LINE
  5
24
330
21
100
AcDbEntity
  8
0
  6
ByBlock
 62
     0
100
AcDbLine
 10
0.0
 20
0.0
 30
0.0
 11
-1.0
 21
-0.26794919
 31
0.0
  0
LINE
  5
25
330
21
100
AcDbEntity
  8
0
  6
ByBlock
 62
     0
100
AcDbLine
 10
0.0
 20
0.0
 30
0.0
 11
-1.0
 21
0.0
 31
0.0
  0
ENDBLK
  5
26
330
21
100
AcDbEntity
  8
0
100
AcDbBlockEnd
  0
BLOCK
  5
3AB
330
3AA
100
AcDbEntity
  8
0
100
AcDbBlockBegin
  2
*D1
 70
     1
 10
0.0
 20
0.0
 30
0.0
  3
*D1
  1

  0
LINE
  5
3AC
330
3AA
100
AcDbEntity
  8
SUNPO
 62
     0
370
    -2
100
AcDbLine
 10
204.7720907223885
 20
318.7397843003731
 30
0.0
 11
212.7720907223884
 21
318.7397843003731
 31
0.0
  0
LINE
  5
3AD
330
3AA
100
AcDbEntity
  8
SUNPO
 62
     0
370
    -2
100
AcDbLine
 10
204.7720907223885
 20
342.8731096463324
 30
0.0
 11
212.7720907223885
 21
342.8731096463324
 31
0.0
  0
LINE
  5
3AE
330
3AA
100
AcDbEntity
  8
SUNPO
 62
     0
370
    -2
100
AcDbLine
 10
210.7720907223885
 20
320.7397843003731
 30
0.0
 11
210.7720907223885
 21
340.8731096463324
 31
0.0
  0
INSERT
  5
3AF
330
3AA
100
AcDbEntity
  8
SUNPO
 62
     0
370
    -2
100
AcDbBlockReference
  2
_OPEN30
 10
210.7720907223885
 20
318.7397843003731
 30
0.0
 41
2.0
 42
2.0
 43
2.0
 50
270.0
  0
INSERT
  5
3B0
330
3AA
100
AcDbEntity
  8
SUNPO
 62
     0
370
    -2
100
AcDbBlockReference
  2
_OPEN30
 10
210.7720907223885
 20
342.8731096463324
 30
0.0
 41
2.0
 42
2.0
 43
2.0
 50
90.0
  0
MTEXT
  5
3B1
330
3AA
100
AcDbEntity
  8
SUNPO
 62
     0
100
AcDbMText
 10
209.0220907223884
 20
330.8064469733528
 30
0.0
 40
2.5
 41
0.0
 71
     5
 72
     1
  1
\A1;724
 11
0.0000000000000001
 21
1.0
 31
0.0
 73
     1
 44
1.0
1001
ACAD
1000
MTEXTBEGIN
1070
    73
1070
     1
1070
    44
1040
1.0
1070
    74
1070
     0
1000
MTEXTEND
  0
POINT
  5
3B2
330
3AA
100
AcDbEntity
  8
Defpoints
 62
     0
100
AcDbPoint
 10
202.7720907223885
 20
318.7397843003731
 30
0.0
  0
POINT
  5
3B3
330
3AA
100
AcDbEntity
  8
Defpoints
 62
     0
100
AcDbPoint
 10
202.7720907223885
 20
342.8731096463324
 30
0.0
  0
POINT
  5
3B4
330
3AA
100
AcDbEntity
  8
Defpoints
 62
     0
100
AcDbPoint
 10
210.7720907223885
 20
342.8731096463324
 30
0.0
  0
ENDBLK
  5
3B5
330
3AA
100
AcDbEntity
  8
0
100
AcDbBlockEnd
  0
BLOCK
  5
39E
330
39D
100
AcDbEntity
  8
0
100
AcDbBlockBegin
  2
*D2
 70
     1
 10
0.0
 20
0.0
 30
0.0
  3
*D2
  1

  0
LINE
  5
39F
330
39D
100
AcDbEntity
  8
SUNPO
 62
     0
370
    -2
100
AcDbLine
 10
162.3894745764922
 20
344.8840758576471
 30
0.0
 11
162.3894745764922
 21
352.8840758576471
 31
0.0
  0
LINE
  5
3A0
330
39D
100
AcDbEntity
  8
SUNPO
 62
     0
370
    -2
100
AcDbLine
 10
202.7228057007558
 20
344.8840758576471
 30
0.0
 11
202.7228057007558
 21
352.8840758576471
 31
0.0
  0
LINE
  5
3A1
330
39D
100
AcDbEntity
  8
SUNPO
 62
     0
370
    -2
100
AcDbLine
 10
164.3894745764922
 20
350.8840758576471
 30
0.0
 11
200.7228057007558
 21
350.8840758576471
 31
0.0
  0
INSERT
  5
3A2
330
39D
100
AcDbEntity
  8
SUNPO
 62
     0
370
    -2
100
AcDbBlockReference
  2
_OPEN30
 10
162.3894745764922
 20
350.8840758576471
 30
0.0
 41
2.0
 42
2.0
 43
2.0
 50
180.0
  0
INSERT
  5
3A3
330
39D
100
AcDbEntity
  8
SUNPO
 62
     0
370
    -2
100
AcDbBlockReference
  2
_OPEN30
 10
202.7228057007558
 20
350.8840758576471
 30
0.0
 41
2.0
 42
2.0
 43
2.0
  0
MTEXT
  5
3A4
330
39D
100
AcDbEntity
  8
SUNPO
 62
     0
100
AcDbMText
 10
182.556140138624
 20
352.6340758576471
 30
0.0
 40
2.5
 41
0.0
 71
     5
 72
     1
  1
\A1;1210
 73
     1
 44
1.0
1001
ACAD
1000
MTEXTBEGIN
1070
    73
1070
     1
1070
    44
1040
1.0
1070
    74
1070
     0
1000
MTEXTEND
  0
POINT
  5
3A5
330
39D
100
AcDbEntity
  8
Defpoints
 62
     0
100
AcDbPoint
 10
162.3894745764922
 20
342.8840758576471
 30
0.0
  0
POINT
  5
3A6
330
39D
100
AcDbEntity
  8
Defpoints
 62
     0
100
AcDbPoint
 10
202.7228057007558
 20
342.8840758576471
 30
0.0
  0
POINT
  5
3A7
330
39D
100
AcDbEntity
  8
Defpoints
 62
     0
100
AcDbPoint
 10
202.7228057007558
 20
350.8840758576471
 30
0.0
  0
ENDBLK
  5
3A8
330
39D
100
AcDbEntity
  8
0
100
AcDbBlockEnd
  0
BLOCK
  5
354
330
353
100
AcDbEntity
  8
0
100
AcDbBlockBegin
  2
*D3
 70
     1
 10
0.0
 20
0.0
 30
0.0
  3
*D3
  1

  0
LINE
  5
355
330
353
100
AcDbEntity
  8
SUNPO
 62
     0
370
    -2
100
AcDbLine
 10
169.639473473249
 20
316.7528718353026
 30
0.0
 11
169.639473473249
 21
308.7528718353026
 31
0.0
  0
LINE
  5
356
330
353
100
AcDbEntity
  8
SUNPO
 62
     0
370
    -2
100
AcDbLine
 10
195.472806803999
 20
316.7528718353026
 30
0.0
 11
195.472806803999
 21
308.7528718353026
 31
0.0
  0
LINE
  5
357
330
353
100
AcDbEntity
  8
SUNPO
 62
     0
370
    -2
100
AcDbLine
 10
171.639473473249
 20
310.7528718353026
 30
0.0
 11
193.472806803999
 21
310.7528718353026
 31
0.0
  0
INSERT
  5
358
330
353
100
AcDbEntity
  8
SUNPO
 62
     0
370
    -2
100
AcDbBlockReference
  2
_OPEN30
 10
169.639473473249
 20
310.7528718353026
 30
0.0
 41
2.0
 42
2.0
 43
2.0
 50
180.0
  0
INSERT
  5
359
330
353
100
AcDbEntity
  8
SUNPO
 62
     0
370
    -2
100
AcDbBlockReference
  2
_OPEN30
 10
195.472806803999
 20
310.7528718353026
 30
0.0
 41
2.0
 42
2.0
 43
2.0
  0
MTEXT
  5
35A
330
353
100
AcDbEntity
  8
SUNPO
 62
     0
100
AcDbMText
 10
182.556140138624
 20
312.5028718353026
 30
0.0
 40
2.5
 41
0.0
 71
     5
 72
     1
  1
\A1;775
 73
     1
 44
1.0
1001
ACAD
1000
MTEXTBEGIN
1070
    73
1070
     1
1070
    44
1040
1.0
1070
    74
1070
     0
1000
MTEXTEND
  0
POINT
  5
35B
330
353
100
AcDbEntity
  8
Defpoints
 62
     0
100
AcDbPoint
 10
169.639473473249
 20
318.7528718353026
 30
0.0
  0
POINT
  5
35C
330
353
100
AcDbEntity
  8
Defpoints
 62
     0
100
AcDbPoint
 10
195.472806803999
 20
318.7528718353026
 30
0.0
  0
POINT
  5
35D
330
353
100
AcDbEntity
  8
Defpoints
 62
     0
100
AcDbPoint
 10
195.472806803999
 20
310.7528718353026
 30
0.0
  0
ENDBLK
  5
35E
330
353
100
AcDbEntity
  8
0
100
AcDbBlockEnd
  0
BLOCK
  5
346
330
345
100
AcDbEntity
  8
0
100
AcDbBlockBegin
  2
*D4
 70
     1
 10
0.0
 20
0.0
 30
0.0
  3
*D4
  1

  0
LINE
  5
347
330
345
100
AcDbEntity
  8
SUNPO
 62
     0
370
    -2
100
AcDbLine
 10
160.3759847990323
 20
322.206447113114
 30
0.0
 11
152.3759847990322
 21
322.206447113114
 31
0.0
  0
LINE
  5
348
330
345
100
AcDbEntity
  8
SUNPO
 62
     0
370
    -2
100
AcDbLine
 10
160.3759847990323
 20
339.4064471113941
 30
0.0
 11
152.3759847990322
 21
339.4064471113941
 31
0.0
  0
LINE
  5
349
330
345
100
AcDbEntity
  8
SUNPO
 62
     0
370
    -2
100
AcDbLine
 10
154.3759847990322
 20
324.206447113114
 30
0.0
 11
154.3759847990322
 21
337.4064471113941
 31
0.0
  0
INSERT
  5
34A
330
345
100
AcDbEntity
  8
SUNPO
 62
     0
370
    -2
100
AcDbBlockReference
  2
_OPEN30
 10
154.3759847990322
 20
322.206447113114
 30
0.0
 41
2.0
 42
2.0
 43
2.0
 50
270.0
  0
INSERT
  5
34B
330
345
100
AcDbEntity
  8
SUNPO
 62
     0
370
    -2
100
AcDbBlockReference
  2
_OPEN30
 10
154.3759847990322
 20
339.4064471113941
 30
0.0
 41
2.0
 42
2.0
 43
2.0
 50
90.0
  0
MTEXT
  5
34C
330
345
100
AcDbEntity
  8
SUNPO
 62
     0
100
AcDbMText
 10
152.6259847990322
 20
330.8064471122541
 30
0.0
 40
2.5
 41
0.0
 71
     5
 72
     1
  1
\A1;516
 11
0.0000000000000001
 21
1.0
 31
0.0
 73
     1
 44
1.0
1001
ACAD
1000
MTEXTBEGIN
1070
    73
1070
     1
1070
    44
1040
1.0
1070
    74
1070
     0
1000
MTEXTEND
  0
POINT
  5
34D
330
345
100
AcDbEntity
  8
Defpoints
 62
     0
100
AcDbPoint
 10
162.3759847990323
 20
322.206447113114
 30
0.0
  0
POINT
  5
34F
330
345
100
AcDbEntity
  8
Defpoints
 62
     0
100
AcDbPoint
 10
162.3759847990323
 20
339.4064471113941
 30
0.0
  0
POINT
  5
350
330
345
100
AcDbEntity
  8
Defpoints
 62
     0
100
AcDbPoint
 10
154.3759847990322
 20
339.4064471113941
 30
0.0
  0
ENDBLK
  5
351
330
345
100
AcDbEntity
  8
0
100
AcDbBlockEnd
  0
BLOCK
  5
3D4
330
3CA
100
AcDbEntity
  8
0
100
AcDbBlockBegin
  2
*D5
 70
     1
 10
0.0
 20
0.0
 30
0.0
  3
*D5
  1

  0
LINE
  5
3CB
330
3CA
100
AcDbEntity
  8
SUNPO
 62
     0
370
    -2
100
AcDbLine
 10
5.527411931769051
 20
3.259888812024996
 30
0.0
 11
13.52741193176905
 21
3.259888812024994
 31
0.0
  0
LINE
  5
3CC
330
3CA
100
AcDbEntity
  8
SUNPO
 62
     0
370
    -2
100
AcDbLine
 10
5.527411931769051
 20
27.39321415798429
 30
0.0
 11
13.52741193176905
 21
27.39321415798429
 31
0.0
  0
LINE
  5
3CD
330
3CA
100
AcDbEntity
  8
SUNPO
 62
     0
370
    -2
100
AcDbLine
 10
11.52741193176905
 20
5.259888812024994
 30
0.0
 11
11.52741193176905
 21
25.39321415798429
 31
0.0
  0
INSERT
  5
3CE
330
3CA
100
AcDbEntity
  8
SUNPO
 62
     0
370
    -2
100
AcDbBlockReference
  2
_OPEN30
 10
11.52741193176904
 20
3.259888812024994
 30
0.0
 41
2.0
 42
2.0
 43
2.0
 50
270.0
  0
INSERT
  5
3CF
330
3CA
100
AcDbEntity
  8
SUNPO
 62
     0
370
    -2
100
AcDbBlockReference
  2
_OPEN30
 10
11.52741193176905
 20
27.39321415798429
 30
0.0
 41
2.0
 42
2.0
 43
2.0
 50
90.0
  0
MTEXT
  5
3D0
330
3CA
100
AcDbEntity
  8
SUNPO
 62
     0
100
AcDbMText
 10
9.777411931769048
 20
15.32655148500464
 30
0.0
 40
2.5
 41
0.0
 71
     5
 72
     1
  1
\A1;724
 11
0.0000000000000001
 21
1.0
 31
0.0
 73
     1
 44
1.0
1001
ACAD
1000
MTEXTBEGIN
1070
    73
1070
     1
1070
    44
1040
1.0
1070
    74
1070
     0
1000
MTEXTEND
  0
POINT
  5
3D1
330
3CA
100
AcDbEntity
  8
Defpoints
 62
     0
100
AcDbPoint
 10
3.527411931769051
 20
3.259888812024996
 30
0.0
  0
POINT
  5
3D2
330
3CA
100
AcDbEntity
  8
Defpoints
 62
     0
100
AcDbPoint
 10
3.527411931769051
 20
27.39321415798429
 30
0.0
  0
POINT
  5
3D3
330
3CA
100
AcDbEntity
  8
Defpoints
 62
     0
100
AcDbPoint
 10
11.52741193176905
 20
27.39321415798429
 30
0.0
  0
ENDBLK
  5
3D5
330
3CA
100
AcDbEntity
  8
0
100
AcDbBlockEnd
  0
BLOCK
  5
3E0
330
3D6
100
AcDbEntity
  8
0
100
AcDbBlockBegin
  2
*D6
 70
     1
 10
0.0
 20
0.0
 30
0.0
  3
*D6
  1

  0
LINE
  5
3D7
330
3D6
100
AcDbEntity
  8
SUNPO
 62
     0
370
    -2
100
AcDbLine
 10
-36.85520421412718
 20
29.40418036929896
 30
0.0
 11
-36.85520421412718
 21
37.40418036929896
 31
0.0
  0
LINE
  5
3D8
330
3D6
100
AcDbEntity
  8
SUNPO
 62
     0
370
    -2
100
AcDbLine
 10
3.478126910136325
 20
29.40418036929896
 30
0.0
 11
3.478126910136325
 21
37.40418036929896
 31
0.0
  0
LINE
  5
3D9
330
3D6
100
AcDbEntity
  8
SUNPO
 62
     0
370
    -2
100
AcDbLine
 10
-34.85520421412719
 20
35.40418036929896
 30
0.0
 11
1.478126910136325
 21
35.40418036929896
 31
0.0
  0
INSERT
  5
3DA
330
3D6
100
AcDbEntity
  8
SUNPO
 62
     0
370
    -2
100
AcDbBlockReference
  2
_OPEN30
 10
-36.85520421412718
 20
35.40418036929896
 30
0.0
 41
2.0
 42
2.0
 43
2.0
 50
180.0
  0
INSERT
  5
3DB
330
3D6
100
AcDbEntity
  8
SUNPO
 62
     0
370
    -2
100
AcDbBlockReference
  2
_OPEN30
 10
3.478126910136325
 20
35.40418036929896
 30
0.0
 41
2.0
 42
2.0
 43
2.0
  0
MTEXT
  5
3DC
330
3D6
100
AcDbEntity
  8
SUNPO
 62
     0
100
AcDbMText
 10
-16.68853865199543
 20
37.15418036929896
 30
0.0
 40
2.5
 41
0.0
 71
     5
 72
     1
  1
\A1;1210
 73
     1
 44
1.0
1001
ACAD
1000
MTEXTBEGIN
1070
    73
1070
     1
1070
    44
1040
1.0
1070
    74
1070
     0
1000
MTEXTEND
  0
POINT
  5
3DD
330
3D6
100
AcDbEntity
  8
Defpoints
 62
     0
100
AcDbPoint
 10
-36.85520421412718
 20
27.40418036929896
 30
0.0
  0
POINT
  5
3DE
330
3D6
100
AcDbEntity
  8
Defpoints
 62
     0
100
AcDbPoint
 10
3.478126910136325
 20
27.40418036929896
 30
0.0
  0
POINT
  5
3DF
330
3D6
100
AcDbEntity
  8
Defpoints
 62
     0
100
AcDbPoint
 10
3.478126910136325
 20
35.40418036929896
 30
0.0
  0
ENDBLK
  5
3E1
330
3D6
100
AcDbEntity
  8
0
100
AcDbBlockEnd
  0
BLOCK
  5
3EC
330
3E2
100
AcDbEntity
  8
0
100
AcDbBlockBegin
  2
*D7
 70
     1
 10
0.0
 20
0.0
 30
0.0
  3
*D7
  1

  0
LINE
  5
3E3
330
3E2
100
AcDbEntity
  8
SUNPO
 62
     0
370
    -2
100
AcDbLine
 10
-29.60520531737041
 20
1.272976346954465
 30
0.0
 11
-29.60520531737041
 21
-6.727023653045534
 31
0.0
  0
LINE
  5
3E4
330
3E2
100
AcDbEntity
  8
SUNPO
 62
     0
370
    -2
100
AcDbLine
 10
-3.771871986620453
 20
1.272976346954465
 30
0.0
 11
-3.771871986620454
 21
-6.727023653045534
 31
0.0
  0
LINE
  5
3E5
330
3E2
100
AcDbEntity
  8
SUNPO
 62
     0
370
    -2
100
AcDbLine
 10
-27.60520531737041
 20
-4.727023653045534
 30
0.0
 11
-5.771871986620453
 21
-4.727023653045534
 31
0.0
  0
INSERT
  5
3E6
330
3E2
100
AcDbEntity
  8
SUNPO
 62
     0
370
    -2
100
AcDbBlockReference
  2
_OPEN30
 10
-29.60520531737041
 20
-4.727023653045534
 30
0.0
 41
2.0
 42
2.0
 43
2.0
 50
180.0
  0
INSERT
  5
3E7
330
3E2
100
AcDbEntity
  8
SUNPO
 62
     0
370
    -2
100
AcDbBlockReference
  2
_OPEN30
 10
-3.771871986620454
 20
-4.727023653045534
 30
0.0
 41
2.0
 42
2.0
 43
2.0
  0
MTEXT
  5
3E8
330
3E2
100
AcDbEntity
  8
SUNPO
 62
     0
100
AcDbMText
 10
-16.68853865199543
 20
-2.977023653045534
 30
0.0
 40
2.5
 41
0.0
 71
     5
 72
     1
  1
\A1;775
 73
     1
 44
1.0
1001
ACAD
1000
MTEXTBEGIN
1070
    73
1070
     1
1070
    44
1040
1.0
1070
    74
1070
     0
1000
MTEXTEND
  0
POINT
  5
3E9
330
3E2
100
AcDbEntity
  8
Defpoints
 62
     0
100
AcDbPoint
 10
-29.60520531737041
 20
3.272976346954465
 30
0.0
  0
POINT
  5
3EA
330
3E2
100
AcDbEntity
  8
Defpoints
 62
     0
100
AcDbPoint
 10
-3.771871986620453
 20
3.272976346954465
 30
0.0
  0
POINT
  5
3EB
330
3E2
100
AcDbEntity
  8
Defpoints
 62
     0
100
AcDbPoint
 10
-3.771871986620454
 20
-4.727023653045534
 30
0.0
  0
ENDBLK
  5
3ED
330
3E2
100
AcDbEntity
  8
0
100
AcDbBlockEnd
  0
BLOCK
  5
3F8
330
3EE
100
AcDbEntity
  8
0
100
AcDbBlockBegin
  2
*D8
 70
     1
 10
0.0
 20
0.0
 30
0.0
  3
*D8
  1

  0
LINE
  5
3EF
330
3EE
100
AcDbEntity
  8
SUNPO
 62
     0
370
    -2
100
AcDbLine
 10
-38.86869399158718
 20
6.726551624765876
 30
0.0
 11
-46.86869399158719
 21
6.726551624765878
 31
0.0
  0
LINE
  5
3F0
330
3EE
100
AcDbEntity
  8
SUNPO
 62
     0
370
    -2
100
AcDbLine
 10
-38.86869399158718
 20
23.92655162304595
 30
0.0
 11
-46.86869399158718
 21
23.92655162304595
 31
0.0
  0
LINE
  5
3F1
330
3EE
100
AcDbEntity
  8
SUNPO
 62
     0
370
    -2
100
AcDbLine
 10
-44.86869399158718
 20
8.726551624765878
 30
0.0
 11
-44.86869399158718
 21
21.92655162304596
 31
0.0
  0
INSERT
  5
3F2
330
3EE
100
AcDbEntity
  8
SUNPO
 62
     0
370
    -2
100
AcDbBlockReference
  2
_OPEN30
 10
-44.86869399158718
 20
6.726551624765877
 30
0.0
 41
2.0
 42
2.0
 43
2.0
 50
270.0
  0
INSERT
  5
3F3
330
3EE
100
AcDbEntity
  8
SUNPO
 62
     0
370
    -2
100
AcDbBlockReference
  2
_OPEN30
 10
-44.86869399158718
 20
23.92655162304595
 30
0.0
 41
2.0
 42
2.0
 43
2.0
 50
90.0
  0
MTEXT
  5
3F4
330
3EE
100
AcDbEntity
  8
SUNPO
 62
     0
100
AcDbMText
 10
-46.61869399158718
 20
15.32655162390591
 30
0.0
 40
2.5
 41
0.0
 71
     5
 72
     1
  1
\A1;516
 11
0.0000000000000001
 21
1.0
 31
0.0
 73
     1
 44
1.0
1001
ACAD
1000
MTEXTBEGIN
1070
    73
1070
     1
1070
    44
1040
1.0
1070
    74
1070
     0
1000
MTEXTEND
  0
POINT
  5
3F5
330
3EE
100
AcDbEntity
  8
Defpoints
 62
     0
100
AcDbPoint
 10
-36.86869399158718
 20
6.726551624765875
 30
0.0
  0
POINT
  5
3F6
330
3EE
100
AcDbEntity
  8
Defpoints
 62
     0
100
AcDbPoint
 10
-36.86869399158718
 20
23.92655162304595
 30
0.0
  0
POINT
  5
3F7
330
3EE
100
AcDbEntity
  8
Defpoints
 62
     0
100
AcDbPoint
 10
-44.86869399158718
 20
23.92655162304595
 30
0.0
  0
ENDBLK
  5
3F9
330
3EE
100
AcDbEntity
  8
0
100
AcDbBlockEnd
  0
ENDSEC
  0
SECTION
  2
ENTITIES
  0
TEXT
  5
30
330
2
100
AcDbEntity
  8
MOJI1
100
AcDbText
 10
-40.74467884657861
 20
51.0209396365866
 30
0.0
 40
4.0
  1
ハイビジョンプラズマディスプレイ壁掛け金具付
 41
0.93
100
AcDbText
  0
TEXT
  5
32
330
2
100
AcDbEntity
  8
TOUROKU
100
AcDbText
 10
10.05527118634911
 20
45.02093963658649
 30
0.0
 40
2.0
  1
ＴＨ５０ＰＨ１２ＫＲ＋ＴＹＷＫ４２ＰＶ７
 72
     2
 11
57.25527118634909
 21
45.02093963658649
 31
0.0
100
AcDbText
  0
TEXT
  5
34
330
2
100
AcDbEntity
  8
MOJI1
100
AcDbText
 10
-26.24467884657841
 20
-56.97906036341357
 30
0.0
 40
3.0
  1
シリアル／ＰＣ／拡張スロット２、３
100
AcDbText
  0
TEXT
  5
35
330
2
100
AcDbEntity
  8
MOJI1
100
AcDbText
 10
-26.24467884657841
 20
-51.97906036341357
 30
0.0
 40
3.0
  1
ビデオ・音声／Ｓ映像・音声／外部スピーカ
100
AcDbText
  0
TEXT
  5
36
330
2
100
AcDbEntity
  8
MOJI1
100
AcDbText
 10
-65.24467884657841
 20
-41.97906036341357
 30
0.0
 40
3.0
  1
階調数
100
AcDbText
  0
TEXT
  5
37
330
2
100
AcDbEntity
  8
MOJI1
100
AcDbText
 10
-65.24467884657841
 20
-36.97906036341357
 30
0.0
 40
3.0
  1
コントラスト
100
AcDbText
  0
LINE
  5
38
330
2
100
AcDbEntity
  8
WAKU
 62
     1
100
AcDbLine
 10
-67.74467884657841
 20
-42.97906036341356
 30
0.0
 11
57.25532115342139
 21
-42.97906036341356
 31
0.0
  0
LINE
  5
3A
330
2
100
AcDbEntity
  8
WAKU
 62
     1
100
AcDbLine
 10
-67.74467884657841
 20
-37.97906036341357
 30
0.0
 11
57.25532115342139
 21
-37.97906036341357
 31
0.0
  0
TEXT
  5
3B
330
2
100
AcDbEntity
  8
MOJI1
100
AcDbText
 10
-65.24467884657841
 20
-16.97906036341356
 30
0.0
 40
3.0
  1
電  源
100
AcDbText
  0
TEXT
  5
3C
330
2
100
AcDbEntity
  8
MOJI1
100
AcDbText
 10
-65.24467884657841
 20
-21.97906036341357
 30
0.0
 40
3.0
  1
消費電力
100
AcDbText
  0
TEXT
  5
3D
330
2
100
AcDbEntity
  8
MOJI1
100
AcDbText
 10
-65.24467884657841
 20
-26.97906036341357
 30
0.0
 40
3.0
  1
画面サイズ
100
AcDbText
  0
TEXT
  5
3E
330
2
100
AcDbEntity
  8
MOJI1
100
AcDbText
 10
-26.24467884657841
 20
-21.97906036341357
 30
0.0
 40
3.0
  1
３３５Ｗ
100
AcDbText
  0
TEXT
  5
3F
330
2
100
AcDbEntity
  8
MOJI1
100
AcDbText
 10
-26.24467884657841
 20
-26.97906036341357
 30
0.0
 40
3.0
  1
５０型（１６：９）
100
AcDbText
  0
TEXT
  5
40
330
2
100
AcDbEntity
  8
MOJI1
100
AcDbText
 10
-26.24467884657841
 20
-16.97906036341356
 30
0.0
 40
3.0
  1
ＡＣ１００Ｖ±１０％　５０Ｈｚ／６０Ｈｚ
100
AcDbText
  0
TEXT
  5
41
330
2
100
AcDbEntity
  8
MOJI1
100
AcDbText
 10
-65.24467884657841
 20
-51.97906036341357
 30
0.0
 40
3.0
  1
接続端子
100
AcDbText
  0
TEXT
  5
42
330
2
100
AcDbEntity
  8
MOJI1
100
AcDbText
 10
-65.24467884657841
 20
-46.97906036341357
 30
0.0
 40
3.0
  1
音声最大出力
100
AcDbText
  0
TEXT
  5
43
330
2
100
AcDbEntity
  8
MOJI1
100
AcDbText
 10
-26.24467884657841
 20
-46.97906036341357
 30
0.0
 40
3.0
  1
１６Ｗ（８Ｗ＋８Ｗ）
100
AcDbText
  0
TEXT
  5
44
330
2
100
AcDbEntity
  8
MOJI1
100
AcDbText
 10
-26.24467884657841
 20
-31.97906036341357
 30
0.0
 40
3.0
  1
水平１３６６×垂直７６８　画素
100
AcDbText
  0
LINE
  5
45
330
2
100
AcDbEntity
  8
WAKU
 62
     4
100
AcDbLine
 10
-27.74467884657864
 20
-12.97906036341357
 30
0.0
 11
-27.74467884657864
 21
-57.97906036341356
 31
0.0
  0
TEXT
  5
46
330
2
100
AcDbEntity
  8
MOJI1
100
AcDbText
 10
-65.24467884657841
 20
-31.97906036341357
 30
0.0
 40
3.0
  1
画素数
100
AcDbText
  0
LINE
  5
47
330
2
100
AcDbEntity
  8
WAKU
 62
     4
100
AcDbLine
 10
57.25532115342139
 20
-12.97906036341357
 30
0.0
 11
57.25532115342139
 21
-57.97906036341356
 31
0.0
  0
LINE
  5
48
330
2
100
AcDbEntity
  8
WAKU
 62
     4
100
AcDbLine
 10
-67.74467884657863
 20
-12.97906036341357
 30
0.0
 11
-67.74467884657841
 21
-57.97906036341356
 31
0.0
  0
LINE
  5
49
330
2
100
AcDbEntity
  8
WAKU
 62
     4
100
AcDbLine
 10
57.25532115342139
 20
-57.97906036341356
 30
0.0
 11
-67.74467884657841
 21
-57.97906036341356
 31
0.0
  0
LINE
  5
4A
330
2
100
AcDbEntity
  8
WAKU
 62
     1
100
AcDbLine
 10
-67.74467884657841
 20
-52.97906036341356
 30
0.0
 11
57.25532115342139
 21
-52.97906036341356
 31
0.0
  0
LINE
  5
4B
330
2
100
AcDbEntity
  8
WAKU
 62
     1
100
AcDbLine
 10
-67.74467884657841
 20
-47.97906036341356
 30
0.0
 11
57.25532115342139
 21
-47.97906036341356
 31
0.0
  0
LINE
  5
4C
330
2
100
AcDbEntity
  8
WAKU
 62
     1
100
AcDbLine
 10
-67.74467884657841
 20
-27.97906036341357
 30
0.0
 11
57.25532115342139
 21
-27.97906036341357
 31
0.0
  0
LINE
  5
4D
330
2
100
AcDbEntity
  8
WAKU
 62
     1
100
AcDbLine
 10
-67.74467884657841
 20
-17.97906036341356
 30
0.0
 11
57.25532115342139
 21
-17.97906036341356
 31
0.0
  0
LINE
  5
4E
330
2
100
AcDbEntity
  8
WAKU
 62
     4
100
AcDbLine
 10
-67.74467884657841
 20
-12.97906036341357
 30
0.0
 11
57.25532115342139
 21
-12.97906036341357
 31
0.0
  0
LINE
  5
4F
330
2
100
AcDbEntity
  8
WAKU
 62
     1
100
AcDbLine
 10
-67.74467884657841
 20
-32.97906036341357
 30
0.0
 11
57.25532115342139
 21
-32.97906036341357
 31
0.0
  0
LINE
  5
50
330
2
100
AcDbEntity
  8
WAKU
 62
     1
100
AcDbLine
 10
-67.74467884657841
 20
-22.97906036341357
 30
0.0
 11
57.25532115342139
 21
-22.97906036341357
 31
0.0
  0
TEXT
  5
51
330
2
100
AcDbEntity
  8
MOJI1
100
AcDbText
 10
-26.24467884657841
 20
-41.97906036341357
 30
0.0
 40
3.0
  1
５１２０階調（相当）
100
AcDbText
  0
TEXT
  5
52
330
2
100
AcDbEntity
  8
MOJI1
100
AcDbText
 10
-26.24467884657841
 20
-36.97906036341357
 30
0.0
 40
3.0
  1
３００００：１
100
AcDbText
  0
ELLIPSE
  5
53
330
2
100
AcDbEntity
  8
GAIKEI
  6
Continuous
 62
     1
100
AcDbEllipse
 10
-36.80056050384451
 20
27.29363498881992
 30
0.0
 11
-0.0052978427251001
 21
0.2879170138793283
 31
0.0
210
0.0
220
0.0
230
1.0
 40
0.0404429999982056
 41
4.285401047309302
 42
4.371811220306485
  0
ELLIPSE
  5
54
330
2
100
AcDbEntity
  8
GAIKEI
  6
Continuous
 62
     1
100
AcDbEllipse
 10
-36.80056050384451
 20
3.369469147503878
 30
0.0
 11
0.0052978427251001
 21
0.287917013879329
 31
0.0
210
0.0
220
0.0
230
1.0
 40
0.0404429999982055
 41
-1.230218566716693
 42
-1.143808393719511
  0
ELLIPSE
  5
55
330
2
100
AcDbEntity
  8
GAIKEI
  6
Continuous
 62
     1
100
AcDbEllipse
 10
-36.75062460070711
 20
27.34357089195731
 30
0.0
 11
-0.2879170138797297
 21
0.0052978427250935
 31
0.0
210
0.0
220
0.0
230
1.0
 40
0.0404429999981596
 41
1.911374086872534
 42
1.997784259869754
  0
ELLIPSE
  5
56
330
2
100
AcDbEntity
  8
GAIKEI
  6
Continuous
 62
     1
100
AcDbEllipse
 10
-36.75062460070711
 20
3.319533244366482
 30
0.0
 11
0.2879170138799391
 21
0.0052978427250901
 31
0.0
210
0.0
220
0.0
230
1.0
 40
0.0404429999981356
 41
1.143808393720369
 42
1.23021856671755
  0
ELLIPSE
  5
57
330
2
100
AcDbEntity
  8
GAIKEI
  6
Continuous
 62
     1
100
AcDbEllipse
 10
3.423483199853649
 20
3.369469147503878
 30
0.0
 11
-0.0052978427254085
 21
0.2879170138543368
 31
0.0
210
0.0
220
0.0
230
1.0
 40
0.0404430000012197
 41
1.14380839367993
 42
1.230218566685839
  0
ELLIPSE
  5
58
330
2
100
AcDbEntity
  8
GAIKEI
  6
Continuous
 62
     1
100
AcDbEllipse
 10
3.423483199853649
 20
27.29363498881992
 30
0.0
 11
0.0052978427250493
 21
0.2879170138793219
 31
0.0
210
0.0
220
0.0
230
1.0
 40
0.0404429999982778
 41
1.911374086873103
 42
1.997784259870286
  0
ELLIPSE
  5
59
330
2
100
AcDbEntity
  8
GAIKEI
  6
Continuous
 62
     1
100
AcDbEllipse
 10
3.37354729671631
 20
27.34357089195731
 30
0.0
 11
0.2879170138798924
 21
0.005297842725091
 31
0.0
210
0.0
220
0.0
230
1.0
 40
0.0404429999981408
 41
4.285401047310096
 42
4.371811220307267
  0
ELLIPSE
  5
5A
330
2
100
AcDbEntity
  8
GAIKEI
  6
Continuous
 62
     1
100
AcDbEllipse
 10
3.37354729671631
 20
3.319533244366482
 30
0.0
 11
-0.2879170138799422
 21
0.0052978427250903
 31
0.0
210
0.0
220
0.0
230
1.0
 40
0.0404429999981349
 41
-1.230218566717536
 42
-1.143808393720374
  0
ELLIPSE
  5
5B
330
2
100
AcDbEntity
  8
GAIKEI
  6
Continuous
 62
     1
100
AcDbEllipse
 10
-35.07698817598043
 20
25.64500078537321
 30
0.0
 11
-0.0427537848529118
 21
0.0546568828203793
 31
0.0
210
0.0
220
0.0
230
1.0
 40
0.960211999995565
 41
-0.6513938851084821
 42
-0.3742724761095297
  0
ELLIPSE
  5
5C
330
2
100
AcDbEntity
  8
GAIKEI
  6
Continuous
 62
     1
100
AcDbEllipse
 10
1.699910871989573
 20
25.64500078537321
 30
0.0
 11
0.0427537848527262
 21
0.0546568828205145
 31
0.0
210
0.0
220
0.0
230
1.0
 40
0.9602119999955242
 41
0.3742724761062375
 42
0.6513938851051569
  0
ELLIPSE
  5
5D
330
2
100
AcDbEntity
  8
GAIKEI
  6
Continuous
 62
     1
100
AcDbEllipse
 10
-35.07698817598043
 20
5.018103350950582
 30
0.0
 11
0.0427537848582486
 21
0.0546568828163674
 31
0.0
210
0.0
220
0.0
230
1.0
 40
0.9602120000005859
 41
3.515865129796059
 42
3.792986538793065
  0
ELLIPSE
  5
5E
330
2
100
AcDbEntity
  8
GAIKEI
  6
Continuous
 62
     1
100
AcDbEllipse
 10
1.699910871989573
 20
5.018103350950582
 30
0.0
 11
-0.042753784866503
 21
0.0546568828102033
 31
0.0
210
0.0
220
0.0
230
0.9999999999999996
 40
0.9602120000078178
 41
2.490198768239826
 42
2.767320177232909
  0
ELLIPSE
  5
5F
330
2
100
AcDbEntity
  8
GAIKEI
  6
Continuous
 62
     1
100
AcDbEllipse
 10
-35.0769808753318
 20
25.64499348472464
 30
0.0
 11
-0.05471957312403
 21
0.042691791412705
 31
0.0
210
0.0
220
0.0
230
1.0
 40
0.9600420000005412
 41
0.3752614365549947
 42
0.6500607537665788
  0
ELLIPSE
  5
60
330
2
100
AcDbEntity
  8
GAIKEI
  6
Continuous
 62
     1
100
AcDbEllipse
 10
-35.0769808753318
 20
5.018110651599158
 30
0.0
 11
0.054719573126713
 21
0.0426917914091056
 31
0.0
210
0.0
220
0.0
230
1.0
 40
0.9600419999976159
 41
2.491531899886615
 42
2.766331217099247
  0
ELLIPSE
  5
61
330
2
100
AcDbEntity
  8
GAIKEI
  6
Continuous
 62
     1
100
AcDbEllipse
 10
1.699903571340996
 20
25.64499348472464
 30
0.0
 11
0.0547195731240741
 21
0.0426917914126376
 31
0.0
210
0.0
220
0.0
230
1.0
 40
0.9600420000007662
 41
-0.6500607537652972
 42
-0.3752614365537126
  0
ELLIPSE
  5
62
330
2
100
AcDbEntity
  8
GAIKEI
  6
Continuous
 62
     1
100
AcDbEllipse
 10
1.699903571340996
 20
5.018110651599158
 30
0.0
 11
-0.0547195731247495
 21
0.0426917914117292
 31
0.0
210
0.0
220
0.0
230
1.0
 40
0.9600419999999962
 41
3.516854090128136
 42
3.791653407339537
  0
ELLIPSE
  5
63
330
2
100
AcDbEntity
  8
GAIKEI
  6
Continuous
 62
     1
100
AcDbEllipse
 10
1.699910871989573
 20
5.019929313175111
 30
0.0
 11
-0.0607808270033003
 21
0.0822184915853297
 31
0.0
210
0.0
220
0.0
230
1.0
 40
0.9776259999984945
 41
2.515781018572056
 42
2.792902427569963
  0
ELLIPSE
  5
64
330
2
100
AcDbEntity
  8
GAIKEI
  6
Continuous
 62
     1
100
AcDbEllipse
 10
-35.07698817598043
 20
5.019929313175111
 30
0.0
 11
0.0607808269967871
 21
0.0822184915900438
 31
0.0
210
0.0
220
0.0
230
1.0
 40
0.977625999995409
 41
3.490282879530687
 42
3.767404288529979
  0
ELLIPSE
  5
65
330
2
100
AcDbEntity
  8
GAIKEI
  6
Continuous
 62
     1
100
AcDbEllipse
 10
-35.07698817598043
 20
25.64317482314874
 30
0.0
 11
-0.0607808270158121
 21
0.082218491576272
 31
0.0
210
0.0
220
0.0
230
1.0
 40
0.9776260000034472
 41
-0.625811635167389
 42
-0.3486902261722637
  0
ELLIPSE
  5
66
330
2
100
AcDbEntity
  8
GAIKEI
  6
Continuous
 62
     1
100
AcDbEllipse
 10
1.699910871989573
 20
25.64317482314874
 30
0.0
 11
0.0607808270141988
 21
0.0822184915774339
 31
0.0
210
0.0
220
0.0
230
1.0
 40
0.9776260000029461
 41
0.3486902261527096
 42
0.6258116351479744
  0
ELLIPSE
  5
67
330
2
100
AcDbEntity
  8
GAIKEI
  6
Continuous
 62
     1
100
AcDbEllipse
 10
-35.07512831074382
 20
5.018110651599158
 30
0.0
 11
0.0823124171870749
 21
0.0606728015078452
 31
0.0
210
0.0
220
0.0
230
1.0
 40
0.9775040000002562
 41
2.517225752813203
 42
2.792025070024934
  0
ELLIPSE
  5
68
330
2
100
AcDbEntity
  8
GAIKEI
  6
Continuous
 62
     1
100
AcDbEllipse
 10
-35.07512831074382
 20
25.64499348472464
 30
0.0
 11
-0.0823124171911972
 21
0.0606728015020962
 31
0.0
210
0.0
220
0.0
230
1.0
 40
0.9775039999983139
 41
0.3495675834948664
 42
0.6243669007078401
  0
ELLIPSE
  5
69
330
2
100
AcDbEntity
  8
GAIKEI
  6
Continuous
 62
     1
100
AcDbEllipse
 10
1.698051006753019
 20
25.64499348472464
 30
0.0
 11
0.0823124171885619
 21
0.0606728015057627
 31
0.0
210
0.0
220
0.0
230
1.0
 40
0.9775039999996579
 41
-0.6243669007516715
 42
-0.349567583539371
  0
ELLIPSE
  5
6A
330
2
100
AcDbEntity
  8
GAIKEI
  6
Continuous
 62
     1
100
AcDbEllipse
 10
1.698051006753019
 20
5.018110651599158
 30
0.0
 11
-0.0823124171856116
 21
0.0606728015098772
 31
0.0
210
0.0
220
0.0
230
1.0
 40
0.9775040000007887
 41
3.491160237179388
 42
3.765959554391168
  0
ELLIPSE
  5
6B
330
2
100
AcDbEntity
  8
GAIKEI
  6
Continuous
 62
     1
100
AcDbEllipse
 10
-36.75062460070711
 20
27.29363498881992
 30
0.0
 11
0.3230407423546598
 21
0.0305357091463026
 31
0.0
210
0.0
220
0.0
230
1.0
 40
0.0083089999813824
 41
1.192616585226102
 42
1.279026757979404
  0
ELLIPSE
  5
6C
330
2
100
AcDbEntity
  8
GAIKEI
  6
Continuous
 62
     1
100
AcDbEllipse
 10
-36.75062460070711
 20
27.29363498881992
 30
0.0
 11
0.0305357090498701
 21
0.3230407412646187
 31
0.0
210
0.0
220
0.0
230
1.0
 40
0.0083090000057821
 41
1.862565896623444
 42
1.948976069703653
  0
ELLIPSE
  5
6D
330
2
100
AcDbEntity
  8
GAIKEI
  6
Continuous
 62
     1
100
AcDbEllipse
 10
-36.75062460070711
 20
3.369469147503878
 30
0.0
 11
-0.030535709049866
 21
0.3230407412645781
 31
0.0
210
0.0
220
0.0
230
1.0
 40
0.0083090000057778
 41
1.192616583886016
 42
1.279026756966244
  0
ELLIPSE
  5
6E
330
2
100
AcDbEntity
  8
GAIKEI
  6
Continuous
 62
     1
100
AcDbEllipse
 10
-36.75062460070711
 20
3.369469147503878
 30
0.0
 11
-0.3230407423546608
 21
0.0305357091463026
 31
0.0
210
0.0
220
0.0
230
1.0
 40
0.0083089999813824
 41
1.862565895610391
 42
1.948976068363679
  0
ELLIPSE
  5
6F
330
2
100
AcDbEntity
  8
GAIKEI
  6
Continuous
 62
     1
100
AcDbEllipse
 10
3.37354729671631
 20
27.29363498881992
 30
0.0
 11
-0.030535709066745
 21
0.3230407414557805
 31
0.0
210
0.0
220
0.0
230
1.0
 40
0.0083090000015409
 41
4.33420923771091
 42
4.420619410733783
  0
ELLIPSE
  5
70
330
2
100
AcDbEntity
  8
GAIKEI
  6
Continuous
 62
     1
100
AcDbEllipse
 10
3.37354729671631
 20
27.29363498881992
 30
0.0
 11
-0.3230407423314023
 21
0.0305357091442352
 31
0.0
210
0.0
220
0.0
230
1.0
 40
0.0083089999819134
 41
-1.279026757957789
 42
-1.192616585197497
  0
ELLIPSE
  5
71
330
2
100
AcDbEntity
  8
GAIKEI
  6
Continuous
 62
     1
100
AcDbEllipse
 10
3.37354729671631
 20
3.369469147503878
 30
0.0
 11
0.3230407423313618
 21
0.0305357091442317
 31
0.0
210
0.0
220
0.0
230
1.0
 40
0.0083089999819143
 41
4.334209238787228
 42
4.420619411547537
  0
ELLIPSE
  5
72
330
2
100
AcDbEntity
  8
GAIKEI
  6
Continuous
 62
     1
100
AcDbEllipse
 10
3.37354729671631
 20
3.369469147503878
 30
0.0
 11
0.0305357090723699
 21
0.3230407415195018
 31
0.0
210
0.0
220
0.0
230
1.0
 40
0.0083090000001242
 41
-1.279026757203155
 42
-1.192616584199406
  0
ELLIPSE
  5
73
330
2
100
AcDbEntity
  8
GAIKEI
  6
Continuous
 62
     1
100
AcDbEllipse
 10
2.80571974903961
 20
3.937296695180521
 30
0.0
 11
-0.3876090726745644
 21
0.3876090726745644
 31
0.0
210
0.0
220
0.0
230
1.0
 40
0.4561099999999687
 41
2.756538952252958
 42
3.526646354926537
  0
ELLIPSE
  5
74
330
2
100
AcDbEntity
  8
GAIKEI
  6
Continuous
 62
     1
100
AcDbEllipse
 10
-36.18279705303041
 20
3.937296695180521
 30
0.0
 11
0.3876090726745644
 21
0.3876090726745644
 31
0.0
210
0.0
220
0.0
230
1.0
 40
0.4561099999999612
 41
2.756538952253047
 42
3.526646354926617
  0
ELLIPSE
  5
75
330
2
100
AcDbEntity
  8
GAIKEI
  6
Continuous
 62
     1
100
AcDbEllipse
 10
2.80571974903961
 20
26.72580744114327
 30
0.0
 11
0.3876090726745562
 21
0.3876090726745562
 31
0.0
210
0.0
220
0.0
230
1.0
 40
0.4561100000000421
 41
5.898131605842833
 42
6.668239008516371
  0
ELLIPSE
  5
76
330
2
100
AcDbEntity
  8
GAIKEI
  6
Continuous
 62
     1
100
AcDbEllipse
 10
-36.18279705303041
 20
26.72580744114327
 30
0.0
 11
-0.3876090726745502
 21
0.3876090726745502
 31
0.0
210
0.0
220
0.0
230
1.0
 40
0.4561100000000735
 41
-0.3850537013367683
 42
0.3850537013367188
  0
ARC
  5
77
330
2
100
AcDbEntity
  8
GAIKEI
  6
Continuous
 62
     1
100
AcDbCircle
 10
-36.72198515628418
 20
27.26499554439698
 30
0.0
 40
0.133345180160005
100
AcDbArc
 50
179.9215319999855
 51
180.0
  0
ARC
  5
78
330
2
100
AcDbEntity
  8
GAIKEI
  6
Continuous
 62
     1
100
AcDbCircle
 10
-36.72198515628418
 20
3.398108591926757
 30
0.0
 40
0.133345180160005
100
AcDbArc
 50
180.0
 51
180.0784680000144
  0
ARC
  5
79
330
2
100
AcDbEntity
  8
GAIKEI
  6
Continuous
 62
     1
100
AcDbCircle
 10
3.344907852293374
 20
3.398108591926757
 30
0.0
 40
0.133345180160005
100
AcDbArc
 50
359.9215319999856
 51
0.0
  0
ARC
  5
7A
330
2
100
AcDbEntity
  8
GAIKEI
  6
Continuous
 62
     1
100
AcDbCircle
 10
3.344907852293374
 20
27.26499554439698
 30
0.0
 40
0.133345180160005
100
AcDbArc
 50
0.0
 51
0.0784680000144216
  0
ARC
  5
7B
330
2
100
AcDbEntity
  8
GAIKEI
  6
Continuous
 62
     1
100
AcDbCircle
 10
3.344907852293374
 20
27.26499554439698
 30
0.0
 40
0.133345180160005
100
AcDbArc
 50
89.9215319999986
 51
90.0
  0
ARC
  5
7C
330
2
100
AcDbEntity
  8
GAIKEI
  6
Continuous
 62
     1
100
AcDbCircle
 10
-36.72198515628418
 20
27.26499554439698
 30
0.0
 40
0.133345180160005
100
AcDbArc
 50
90.0
 51
90.07846799999812
  0
ARC
  5
7D
330
2
100
AcDbEntity
  8
GAIKEI
  6
Continuous
 62
     1
100
AcDbCircle
 10
-36.72198515628418
 20
3.398108591926757
 30
0.0
 40
0.133345180160005
100
AcDbArc
 50
269.9215320000019
 51
270.0
  0
ARC
  5
7E
330
2
100
AcDbEntity
  8
GAIKEI
  6
Continuous
 62
     1
100
AcDbCircle
 10
3.344907852293374
 20
3.398108591926757
 30
0.0
 40
0.133345180160005
100
AcDbArc
 50
270.0
 51
270.0784679999981
  0
ARC
  5
7F
330
2
100
AcDbEntity
  8
GAIKEI
  6
Continuous
 62
     7
100
AcDbCircle
 10
-36.72198515628418
 20
3.398108591926757
 30
0.0
 40
0.133345180160005
100
AcDbArc
 50
180.0784680000144
 51
269.9215320000019
  0
ARC
  5
80
330
2
100
AcDbEntity
  8
GAIKEI
  6
Continuous
 62
     7
100
AcDbCircle
 10
3.344907852293374
 20
3.398108591926757
 30
0.0
 40
0.133345180160005
100
AcDbArc
 50
270.0784679999981
 51
359.9215319999856
  0
ARC
  5
81
330
2
100
AcDbEntity
  8
GAIKEI
  6
Continuous
 62
     7
100
AcDbCircle
 10
-36.72198515628418
 20
27.26499554439698
 30
0.0
 40
0.133345180160005
100
AcDbArc
 50
90.07846799999812
 51
179.9215319999855
  0
ARC
  5
82
330
2
100
AcDbEntity
  8
GAIKEI
  6
Continuous
 62
     7
100
AcDbCircle
 10
3.344907852293374
 20
27.26499554439698
 30
0.0
 40
0.133345180160005
100
AcDbArc
 50
0.0784680000144216
 51
89.9215319999986
  0
ARC
  5
83
330
2
100
AcDbEntity
  8
GAIKEI
  6
Continuous
 62
     1
100
AcDbCircle
 10
-35.07980965998371
 20
25.64781790232189
 30
0.0
 40
0.0655246547603001
100
AcDbArc
 50
105.7493539999935
 51
164.3805440000052
  0
ARC
  5
84
330
2
100
AcDbEntity
  8
GAIKEI
  6
Continuous
 62
     1
100
AcDbCircle
 10
1.70273235599285
 20
25.64781790232189
 30
0.0
 40
0.0655246547603001
100
AcDbArc
 50
15.61945599999471
 51
74.25064600000649
  0
ARC
  5
85
330
2
100
AcDbEntity
  8
GAIKEI
  6
Continuous
 62
     1
100
AcDbCircle
 10
-35.68189275103612
 20
4.43486736767079
 30
0.0
 40
0.0666725900800025
100
AcDbArc
 50
180.0
 51
270.0
  0
ARC
  5
86
330
2
100
AcDbEntity
  8
GAIKEI
  6
Continuous
 62
     1
100
AcDbCircle
 10
2.304815447045314
 20
4.43486736767079
 30
0.0
 40
0.0666725900800025
100
AcDbArc
 50
270.0
 51
0.0
  0
ARC
  5
87
330
2
100
AcDbEntity
  8
GAIKEI
  6
Continuous
 62
     1
100
AcDbCircle
 10
-35.68189275103612
 20
26.22823676865295
 30
0.0
 40
0.0666725900800025
100
AcDbArc
 50
90.0
 51
180.0
  0
ARC
  5
88
330
2
100
AcDbEntity
  8
GAIKEI
  6
Continuous
 62
     1
100
AcDbCircle
 10
2.304815447045314
 20
26.22823676865295
 30
0.0
 40
0.0666725900800025
100
AcDbArc
 50
0.0
 51
90.0
  0
ARC
  5
89
330
2
100
AcDbEntity
  8
GAIKEI
  6
Continuous
 62
     1
100
AcDbCircle
 10
-35.11350892060415
 20
3.813145465174784
 30
0.0
 40
0.0166681475200006
100
AcDbArc
 50
90.0
 51
180.0
  0
ARC
  5
8A
330
2
100
AcDbEntity
  8
GAIKEI
  6
Continuous
 62
     1
100
AcDbCircle
 10
-34.91349115036411
 20
3.813145465174784
 30
0.0
 40
0.0166681475200006
100
AcDbArc
 50
0.0
 51
90.0
  0
ARC
  5
8B
330
2
100
AcDbEntity
  8
GAIKEI
  6
Continuous
 62
     1
100
AcDbCircle
 10
-35.11350892060415
 20
3.613127694934746
 30
0.0
 40
0.0166681475200006
100
AcDbArc
 50
180.0
 51
270.0
  0
ARC
  5
8C
330
2
100
AcDbEntity
  8
GAIKEI
  6
Continuous
 62
     1
100
AcDbCircle
 10
-34.91349115036411
 20
3.613127694934746
 30
0.0
 40
0.0166681475200006
100
AcDbArc
 50
270.0
 51
0.0
  0
ARC
  5
8D
330
2
100
AcDbEntity
  8
GAIKEI
  6
Continuous
 62
     1
100
AcDbCircle
 10
2.304815447045314
 20
26.22823676865295
 30
0.0
 40
0.1346545964928812
100
AcDbArc
 50
0.0
 51
90.0
  0
ARC
  5
8E
330
2
100
AcDbEntity
  8
GAIKEI
  6
Continuous
 62
     1
100
AcDbCircle
 10
2.304815447045314
 20
4.43486736767079
 30
0.0
 40
0.1346545964928812
100
AcDbArc
 50
270.0
 51
0.0
  0
ARC
  5
8F
330
2
100
AcDbEntity
  8
GAIKEI
  6
Continuous
 62
     1
100
AcDbCircle
 10
-35.68189275103612
 20
26.22823676865295
 30
0.0
 40
0.1346545964928812
100
AcDbArc
 50
90.0
 51
180.0
  0
ARC
  5
90
330
2
100
AcDbEntity
  8
GAIKEI
  6
Continuous
 62
     1
100
AcDbCircle
 10
-35.68189275103612
 20
4.43486736767079
 30
0.0
 40
0.1346545964928812
100
AcDbArc
 50
180.0
 51
270.0
  0
LINE
  5
91
330
2
100
AcDbEntity
  8
GAIKEI
  6
Continuous
 62
     7
100
AcDbLine
 10
-36.85533033644418
 20
27.26499554439698
 30
0.0
 11
-36.85533033644418
 21
3.398108591926757
 31
0.0
  0
LINE
  5
92
330
2
100
AcDbEntity
  8
GAIKEI
  6
Continuous
 62
     7
100
AcDbLine
 10
3.478253032453324
 20
27.26499554439698
 30
0.0
 11
3.478253032453324
 21
3.398108591926757
 31
0.0
  0
LINE
  5
93
330
2
100
AcDbEntity
  8
GAIKEI
  6
Continuous
 62
     7
100
AcDbLine
 10
-36.72198515628418
 20
27.39834072455699
 30
0.0
 11
3.344907852293374
 21
27.39834072455699
 31
0.0
  0
LINE
  5
94
330
2
100
AcDbEntity
  8
GAIKEI
  6
Continuous
 62
     7
100
AcDbLine
 10
-36.72198515628418
 20
3.26476341176675
 30
0.0
 11
3.344907852293374
 21
3.26476341176675
 31
0.0
  0
LINE
  5
95
330
2
100
AcDbEntity
  8
GAIKEI
  6
Continuous
 62
     1
100
AcDbLine
 10
-36.78781557154258
 20
3.465440640595261
 30
0.0
 11
-36.85533020309902
 21
3.397925975702548
 31
0.0
  0
LINE
  5
96
330
2
100
AcDbEntity
  8
GAIKEI
  6
Continuous
 62
     1
100
AcDbLine
 10
-36.72216777250838
 20
3.264763545111918
 30
0.0
 11
-36.65465310761573
 21
3.332278176668353
 31
0.0
  0
LINE
  5
97
330
2
100
AcDbEntity
  8
GAIKEI
  6
Continuous
 62
     1
100
AcDbLine
 10
-36.65465310761573
 20
27.33082595965539
 30
0.0
 11
-36.72216777250838
 21
27.39834059121182
 31
0.0
  0
LINE
  5
98
330
2
100
AcDbEntity
  8
GAIKEI
  6
Continuous
 62
     1
100
AcDbLine
 10
-36.85533020309902
 20
27.26517816062119
 30
0.0
 11
-36.78781557154258
 21
27.19766349572848
 31
0.0
  0
LINE
  5
99
330
2
100
AcDbEntity
  8
GAIKEI
  6
Continuous
 62
     1
100
AcDbLine
 10
3.27757580362487
 20
27.33082595965539
 30
0.0
 11
3.345090468517526
 21
27.39834059121182
 31
0.0
  0
LINE
  5
9A
330
2
100
AcDbEntity
  8
GAIKEI
  6
Continuous
 62
     1
100
AcDbLine
 10
3.478252899108156
 20
27.26517816062119
 30
0.0
 11
3.410738267551721
 21
27.19766349572848
 31
0.0
  0
LINE
  5
9B
330
2
100
AcDbEntity
  8
GAIKEI
  6
Continuous
 62
     1
100
AcDbLine
 10
-36.78776783396808
 20
27.17459461287933
 30
0.0
 11
-36.78776783396808
 21
3.488509523444406
 31
0.0
  0
LINE
  5
9C
330
2
100
AcDbEntity
  8
GAIKEI
  6
Continuous
 62
     1
100
AcDbLine
 10
3.410690529977216
 20
27.17459461287933
 30
0.0
 11
3.410690529977216
 21
3.488509523444406
 31
0.0
  0
LINE
  5
9D
330
2
100
AcDbEntity
  8
GAIKEI
  6
Continuous
 62
     1
100
AcDbLine
 10
3.254506920775668
 20
27.33077822208088
 30
0.0
 11
-36.63158422476653
 21
27.33077822208088
 31
0.0
  0
LINE
  5
9E
330
2
100
AcDbEntity
  8
GAIKEI
  6
Continuous
 62
     1
100
AcDbLine
 10
-36.63158422476653
 20
3.332325914242858
 30
0.0
 11
3.254506920775668
 21
3.332325914242858
 31
0.0
  0
LINE
  5
9F
330
2
100
AcDbEntity
  8
GAIKEI
  6
Continuous
 62
     1
100
AcDbLine
 10
1.702090632313343
 20
25.71335615829054
 30
0.0
 11
-35.0791679363042
 21
25.71335615829054
 31
0.0
  0
LINE
  5
A0
330
2
100
AcDbEntity
  8
GAIKEI
  6
Continuous
 62
     1
100
AcDbLine
 10
-35.0791679363042
 20
4.949747978033201
 30
0.0
 11
1.702090632313343
 21
4.949747978033201
 31
0.0
  0
LINE
  5
A1
330
2
100
AcDbEntity
  8
GAIKEI
  6
Continuous
 62
     1
100
AcDbLine
 10
-35.14534631581023
 20
25.64718331260952
 30
0.0
 11
-35.14534631581023
 21
5.015920823714282
 31
0.0
  0
LINE
  5
A2
330
2
100
AcDbEntity
  8
GAIKEI
  6
Continuous
 62
     1
100
AcDbLine
 10
1.768269011819427
 20
25.64718331260952
 30
0.0
 11
1.768269011819427
 21
5.015920823714282
 31
0.0
  0
LINE
  5
A3
330
2
100
AcDbEntity
  8
GAIKEI
  6
Continuous
 62
     1
100
AcDbLine
 10
1.702090632313343
 20
4.918486100624647
 30
0.0
 11
-35.0791679363042
 21
4.918486100624647
 31
0.0
  0
LINE
  5
A4
330
2
100
AcDbEntity
  8
GAIKEI
  6
Continuous
 62
     1
100
AcDbLine
 10
-35.0791679363042
 20
25.74461803569909
 30
0.0
 11
1.702090632313343
 21
25.74461803569909
 31
0.0
  0
LINE
  5
A5
330
2
100
AcDbEntity
  8
GAIKEI
  6
Continuous
 62
     1
100
AcDbLine
 10
-35.68189275103612
 20
26.29490935873292
 30
0.0
 11
2.304815447045314
 21
26.29490935873292
 31
0.0
  0
LINE
  5
A6
330
2
100
AcDbEntity
  8
GAIKEI
  6
Continuous
 62
     1
100
AcDbLine
 10
2.304815447045314
 20
4.368194777590815
 30
0.0
 11
-35.68189275103612
 21
4.368194777590815
 31
0.0
  0
LINE
  5
A7
330
2
100
AcDbEntity
  8
GAIKEI
  6
Continuous
 62
     1
100
AcDbLine
 10
-35.74856534111615
 20
4.43486736767079
 30
0.0
 11
-35.74856534111615
 21
26.22823676865295
 31
0.0
  0
LINE
  5
A8
330
2
100
AcDbEntity
  8
GAIKEI
  6
Continuous
 62
     1
100
AcDbLine
 10
-35.17658155751906
 20
5.015920823714282
 30
0.0
 11
-35.17658155751906
 21
25.64718331260952
 31
0.0
  0
LINE
  5
A9
330
2
100
AcDbEntity
  8
GAIKEI
  6
Continuous
 62
     1
100
AcDbLine
 10
2.371488037125288
 20
4.43486736767079
 30
0.0
 11
2.371488037125288
 21
26.22823676865295
 31
0.0
  0
LINE
  5
AA
330
2
100
AcDbEntity
  8
GAIKEI
  6
Continuous
 62
     1
100
AcDbLine
 10
1.799504253528198
 20
5.015920823714282
 30
0.0
 11
1.799504253528198
 21
25.64718331260952
 31
0.0
  0
LINE
  5
AB
330
2
100
AcDbEntity
  8
GAIKEI
  6
Continuous
 62
     1
100
AcDbLine
 10
-35.74290100454442
 20
4.410199476093737
 30
0.0
 11
-35.17277498599731
 21
4.98866443549997
 31
0.0
  0
LINE
  5
AC
330
2
100
AcDbEntity
  8
GAIKEI
  6
Continuous
 62
     1
100
AcDbLine
 10
-35.10664844443005
 20
4.922356477815071
 30
0.0
 11
-35.65282154765629
 21
4.368194777590815
 31
0.0
  0
LINE
  5
AD
330
2
100
AcDbEntity
  8
GAIKEI
  6
Continuous
 62
     1
100
AcDbLine
 10
2.365823700553562
 20
4.410199476093737
 30
0.0
 11
1.795697682006505
 21
4.98866443549997
 31
0.0
  0
LINE
  5
AE
330
2
100
AcDbEntity
  8
GAIKEI
  6
Continuous
 62
     1
100
AcDbLine
 10
1.72957114043919
 20
4.922356477815071
 30
0.0
 11
2.275744243665485
 21
4.368194777590815
 31
0.0
  0
LINE
  5
AF
330
2
100
AcDbEntity
  8
GAIKEI
  6
Continuous
 62
     1
100
AcDbLine
 10
-35.17277498599731
 20
25.67443970082383
 30
0.0
 11
-35.74290100454442
 21
26.25290466023
 31
0.0
  0
LINE
  5
B0
330
2
100
AcDbEntity
  8
GAIKEI
  6
Continuous
 62
     1
100
AcDbLine
 10
-35.65200419563808
 20
26.29408005172127
 30
0.0
 11
-35.10664844443005
 21
25.74074765850867
 31
0.0
  0
LINE
  5
B1
330
2
100
AcDbEntity
  8
GAIKEI
  6
Continuous
 62
     1
100
AcDbLine
 10
2.275744243665428
 20
26.29490935873298
 30
0.0
 11
1.72957114043919
 21
25.74074765850867
 31
0.0
  0
LINE
  5
B2
330
2
100
AcDbEntity
  8
GAIKEI
  6
Continuous
 62
     1
100
AcDbLine
 10
1.795697682006505
 20
25.67443970082383
 30
0.0
 11
2.365823700553562
 21
26.25290466023
 31
0.0
  0
LINE
  5
B3
330
2
100
AcDbEntity
  8
GAIKEI
  6
Continuous
 62
     1
100
AcDbLine
 10
-36.76439382401043
 20
3.488509523444406
 30
0.0
 11
-36.76439382401043
 21
27.17459461287933
 31
0.0
  0
LINE
  5
B4
330
2
100
AcDbEntity
  8
GAIKEI
  6
Continuous
 62
     1
100
AcDbLine
 10
-36.63158422476653
 20
27.30740421212323
 30
0.0
 11
3.254506920775668
 21
27.30740421212323
 31
0.0
  0
LINE
  5
B5
330
2
100
AcDbEntity
  8
GAIKEI
  6
Continuous
 62
     1
100
AcDbLine
 10
3.387316520019624
 20
3.488509523444406
 30
0.0
 11
3.387316520019624
 21
27.17459461287933
 31
0.0
  0
LINE
  5
B6
330
2
100
AcDbEntity
  8
GAIKEI
  6
Continuous
 62
     1
100
AcDbLine
 10
3.254506920775668
 20
3.355699924200507
 30
0.0
 11
-36.63158422476653
 21
3.355699924200507
 31
0.0
  0
LINE
  5
B7
330
2
100
AcDbEntity
  8
GAIKEI
  6
Continuous
 62
     1
100
AcDbLine
 10
-36.76439382401043
 20
27.17459461287933
 30
0.0
 11
-36.60842953429398
 21
27.01863032316288
 31
0.0
  0
LINE
  5
B8
330
2
100
AcDbEntity
  8
GAIKEI
  6
Continuous
 62
     1
100
AcDbLine
 10
-36.47561993505008
 20
27.15143992240678
 30
0.0
 11
-36.63158422476653
 21
27.30740421212323
 31
0.0
  0
LINE
  5
B9
330
2
100
AcDbEntity
  8
GAIKEI
  6
Continuous
 62
     1
100
AcDbLine
 10
-36.63158422476653
 20
3.355699924200507
 30
0.0
 11
-36.47561993505008
 21
3.511664213917015
 31
0.0
  0
LINE
  5
BA
330
2
100
AcDbEntity
  8
GAIKEI
  6
Continuous
 62
     1
100
AcDbLine
 10
-36.60842953429398
 20
3.644473813160857
 30
0.0
 11
-36.76439382401043
 21
3.488509523444406
 31
0.0
  0
LINE
  5
BB
330
2
100
AcDbEntity
  8
GAIKEI
  6
Continuous
 62
     1
100
AcDbLine
 10
3.387316520019624
 20
27.17459461287933
 30
0.0
 11
3.231352230303116
 21
27.01863032316288
 31
0.0
  0
LINE
  5
BC
330
2
100
AcDbEntity
  8
GAIKEI
  6
Continuous
 62
     1
100
AcDbLine
 10
3.098542631059217
 20
27.15143992240678
 30
0.0
 11
3.254506920775668
 21
27.30740421212323
 31
0.0
  0
LINE
  5
BD
330
2
100
AcDbEntity
  8
GAIKEI
  6
Continuous
 62
     1
100
AcDbLine
 10
3.254506920775668
 20
3.355699924200507
 30
0.0
 11
3.098542631059217
 21
3.511664213917015
 31
0.0
  0
LINE
  5
BE
330
2
100
AcDbEntity
  8
GAIKEI
  6
Continuous
 62
     1
100
AcDbLine
 10
3.231352230303116
 20
3.644473813160857
 30
0.0
 11
3.387316520019624
 21
3.488509523444406
 31
0.0
  0
LINE
  5
BF
330
2
100
AcDbEntity
  8
GAIKEI
  6
Continuous
 62
     1
100
AcDbLine
 10
-36.12026503081216
 20
3.676466655510807
 30
0.0
 11
-36.19360487990014
 21
3.676466655510807
 31
0.0
  0
LINE
  5
C0
330
2
100
AcDbEntity
  8
GAIKEI
  6
Continuous
 62
     1
100
AcDbLine
 10
-34.89682300284409
 20
3.813145465174784
 30
0.0
 11
-34.89682300284409
 21
3.613127694934746
 31
0.0
  0
LINE
  5
C1
330
2
100
AcDbEntity
  8
GAIKEI
  6
Continuous
 62
     1
100
AcDbLine
 10
-36.19360487990014
 20
3.676466655510807
 30
0.0
 11
-36.19360487990014
 21
3.74980650459878
 31
0.0
  0
LINE
  5
C2
330
2
100
AcDbEntity
  8
GAIKEI
  6
Continuous
 62
     1
100
AcDbLine
 10
-36.19360487990014
 20
3.74980650459878
 30
0.0
 11
-36.12026503081216
 21
3.74980650459878
 31
0.0
  0
LINE
  5
C3
330
2
100
AcDbEntity
  8
GAIKEI
  6
Continuous
 62
     1
100
AcDbLine
 10
-36.12026503081216
 20
3.74980650459878
 30
0.0
 11
-36.12026503081216
 21
3.676466655510807
 31
0.0
  0
LINE
  5
C4
330
2
100
AcDbEntity
  8
GAIKEI
  6
Continuous
 62
     1
100
AcDbLine
 10
-34.91349115036411
 20
3.596459547414781
 30
0.0
 11
-35.11350892060415
 21
3.596459547414781
 31
0.0
  0
LINE
  5
C5
330
2
100
AcDbEntity
  8
GAIKEI
  6
Continuous
 62
     1
100
AcDbLine
 10
-35.13017706812411
 20
3.613127694934746
 30
0.0
 11
-35.13017706812411
 21
3.813145465174784
 31
0.0
  0
LINE
  5
C6
330
2
100
AcDbEntity
  8
GAIKEI
  6
Continuous
 62
     1
100
AcDbLine
 10
-35.11350892060415
 20
3.829813612694806
 30
0.0
 11
-34.91349115036411
 21
3.829813612694806
 31
0.0
  0
LINE
  5
C7
330
2
100
AcDbEntity
  8
GAIKEI
  6
Continuous
 62
     1
100
AcDbLine
 10
2.304815447045314
 20
26.36289136514586
 30
0.0
 11
-35.68189275103612
 21
26.36289136514586
 31
0.0
  0
LINE
  5
C8
330
2
100
AcDbEntity
  8
GAIKEI
  6
Continuous
 62
     1
100
AcDbLine
 10
-35.68189275103612
 20
4.300212771177939
 30
0.0
 11
2.304815447045314
 21
4.300212771177939
 31
0.0
  0
LINE
  5
C9
330
2
100
AcDbEntity
  8
GAIKEI
  6
Continuous
 62
     1
100
AcDbLine
 10
2.439470043538165
 20
26.22823676865295
 30
0.0
 11
2.439470043538165
 21
4.43486736767079
 31
0.0
  0
LINE
  5
CA
330
2
100
AcDbEntity
  8
GAIKEI
  6
Continuous
 62
     1
100
AcDbLine
 10
-35.81654734752902
 20
26.22823676865295
 30
0.0
 11
-35.81654734752902
 21
4.43486736767079
 31
0.0
  0
LINE
  5
CB
330
2
100
AcDbEntity
  8
GAIKEI
  6
Continuous
 62
     1
100
AcDbLine
 10
-36.60842953429398
 20
27.01863032316288
 30
0.0
 11
-36.60842953429398
 21
3.644473813160857
 31
0.0
  0
LINE
  5
CC
330
2
100
AcDbEntity
  8
GAIKEI
  6
Continuous
 62
     1
100
AcDbLine
 10
3.098542631059217
 20
27.15143992240678
 30
0.0
 11
-36.47561993505008
 21
27.15143992240678
 31
0.0
  0
LINE
  5
CD
330
2
100
AcDbEntity
  8
GAIKEI
  6
Continuous
 62
     1
100
AcDbLine
 10
3.231352230303116
 20
27.01863032316288
 30
0.0
 11
3.231352230303116
 21
3.644473813160857
 31
0.0
  0
LINE
  5
CE
330
2
100
AcDbEntity
  8
GAIKEI
  6
Continuous
 62
     1
100
AcDbLine
 10
-36.47561993505008
 20
3.511664213917015
 30
0.0
 11
3.098542631059217
 21
3.511664213917015
 31
0.0
  0
SPLINE
  5
CF
330
2
100
AcDbEntity
  8
GAIKEI
  6
Continuous
 62
     1
100
AcDbSpline
210
0.0
220
0.0
230
1.0
 70
     8
 71
     3
 72
    21
 73
    17
 74
    15
 42
0.0000000001
 43
0.0000000001
 44
0.000001
 12
-0.0001490760298766
 22
-0.9999999888881687
 32
0.0
 13
0.9999997489039975
 23
0.0007086550233522
 33
0.0
 40
0.0
 40
0.0
 40
0.0
 40
0.0
 40
0.0146800531683859
 40
0.0294098671609954
 40
0.0440944857461044
 40
0.0587961819046843
 40
0.0735433082184002
 40
0.0882452749644761
 40
0.1031289863564943
 40
0.1180596885229814
 40
0.1329432357532119
 40
0.1478756372181282
 40
0.1628556352591586
 40
0.1777879301772695
 40
0.1934470599830033
 40
0.2091023769872341
 40
0.2091023769872341
 40
0.2091023769872341
 40
0.2091023769872341
 10
-36.78781555846513
 20
3.46544062497071
 30
0.0
 10
-36.78781628794647
 20
3.460547273968984
 30
0.0
 10
-36.78728269832419
 20
3.450735031367855
 30
0.0
 10
-36.78486418207814
 20
3.436208805127193
 30
0.0
 10
-36.7808739630039
 20
3.422023031676985
 30
0.0
 10
-36.77529992468169
 20
3.40837547424735
 30
0.0
 10
-36.76826724893917
 20
3.395414885189495
 30
0.0
 10
-36.7598268072648
 20
3.383247488191898
 30
0.0
 10
-36.75001883166405
 20
3.372070048760633
 30
0.0
 10
-36.73899473151488
 20
3.362003029481115
 30
0.0
 10
-36.7269127553374
 20
3.353202418320393
 30
0.0
 10
-36.71388763252739
 20
3.345835556495217
 30
0.0
 10
-36.70011311490512
 20
3.339951770947493
 30
0.0
 10
-36.6855350463203
 20
3.335566878079589
 30
0.0
 10
-36.67032018646523
 20
3.332877836521845
 30
0.0
 10
-36.65987156093129
 20
3.332274491672819
 30
0.0
 10
-36.65465312324022
 20
3.332278189745807
 30
0.0
 11
-36.78781555846513
 21
3.46544062497071
 31
0.0
 11
-36.78701543226566
 21
3.450781827261948
 31
0.0
 11
-36.78459989822011
 21
3.436251413247987
 31
0.0
 11
-36.78061320150027
 21
3.422118304644357
 31
0.0
 11
-36.77506430408892
 21
3.40850396130429
 31
0.0
 11
-36.76803112463904
 21
3.395541987257843
 31
0.0
 11
-36.75964343972828
 21
3.383467419488795
 31
0.0
 11
-36.7498343916156
 21
3.372273309399702
 31
0.0
 11
-36.73880903416534
 21
3.362205141061622
 31
0.0
 11
-36.72677241021495
 21
3.353450695131698
 31
0.0
 11
-36.71377992553755
 21
3.346090495108114
 31
0.0
 11
-36.70000357874636
 21
3.340207195289451
 31
0.0
 11
-36.68570187221326
 21
3.335913554331625
 31
0.0
 11
-36.67028294427996
 21
3.333181265458449
 31
0.0
 11
-36.65465312324022
 21
3.332278189745807
 31
0.0
  0
SPLINE
  5
D0
330
2
100
AcDbEntity
  8
GAIKEI
  6
Continuous
 62
     1
100
AcDbSpline
210
0.0
220
0.0
230
1.0
 70
     8
 71
     3
 72
    21
 73
    17
 74
    15
 42
0.0000000001
 43
0.0000000001
 44
0.000001
 12
0.0001490760298765
 22
-0.9999999888881687
 32
0.0
 13
-0.9999997489039975
 23
0.000708655023352
 33
0.0
 40
0.0
 40
0.0
 40
0.0
 40
0.0
 40
0.0146800531683921
 40
0.0294098671610016
 40
0.0440944857460798
 40
0.0587961819046811
 40
0.0735433082183699
 40
0.0882452749644782
 40
0.1031289863564964
 40
0.1180596885230254
 40
0.13294323575321
 40
0.1478756372181263
 40
0.1628556352591567
 40
0.1777879301772131
 40
0.193447059982947
 40
0.2091023769872345
 40
0.2091023769872345
 40
0.2091023769872345
 40
0.2091023769872345
 10
3.410738254474381
 20
3.46544062497071
 30
0.0
 10
3.410738983955724
 20
3.460547273968927
 30
0.0
 10
3.410205394333218
 20
3.450735031367969
 30
0.0
 10
3.407786878087222
 20
3.43620880512708
 30
0.0
 10
3.40379665901321
 20
3.422023031677099
 30
0.0
 10
3.39822262069083
 20
3.408375474247293
 30
0.0
 10
3.39118994494845
 20
3.395414885189552
 30
0.0
 10
3.382749503273942
 20
3.383247488191955
 30
0.0
 10
3.372941527673305
 20
3.372070048760633
 30
0.0
 10
3.361917427523962
 20
3.362003029481059
 30
0.0
 10
3.349835451346564
 20
3.353202418320393
 30
0.0
 10
3.336810328536557
 20
3.345835556495217
 30
0.0
 10
3.323035810914291
 20
3.339951770947379
 30
0.0
 10
3.308457742329551
 20
3.335566878079646
 30
0.0
 10
3.293242882474487
 20
3.332877836521845
 30
0.0
 10
3.282794256940519
 20
3.332274491672819
 30
0.0
 10
3.27757581924942
 20
3.332278189745807
 30
0.0
 11
3.410738254474381
 21
3.46544062497071
 31
0.0
 11
3.409938128274802
 21
3.450781827261948
 31
0.0
 11
3.407522594229249
 21
3.436251413247987
 31
0.0
 11
3.403535897509527
 21
3.422118304644357
 31
0.0
 11
3.397987000098112
 21
3.40850396130429
 31
0.0
 11
3.390953820648292
 21
3.395541987257843
 31
0.0
 11
3.382566135737476
 21
3.383467419488795
 31
0.0
 11
3.37275708762479
 21
3.372273309399702
 31
0.0
 11
3.361731730174483
 21
3.362205141061622
 31
0.0
 11
3.349695106224146
 21
3.353450695131698
 31
0.0
 11
3.336702621546749
 21
3.346090495108114
 31
0.0
 11
3.322926274755559
 21
3.340207195289451
 31
0.0
 11
3.308624568222512
 21
3.335913554331625
 31
0.0
 11
3.293205640289215
 21
3.333181265458449
 31
0.0
 11
3.27757581924942
 21
3.332278189745807
 31
0.0
  0
SPLINE
  5
D1
330
2
100
AcDbEntity
  8
GAIKEI
  6
Continuous
 62
     1
100
AcDbSpline
210
0.0
220
0.0
230
1.0
 70
     8
 71
     3
 72
    21
 73
    17
 74
    15
 42
0.0000000001
 43
0.0000000001
 44
0.000001
 12
-0.9999999888881687
 22
0.0001490760296198
 32
0.0
 13
0.0007086550231108
 23
-0.9999997489039976
 33
0.0
 40
0.0
 40
0.0
 40
0.0
 40
0.0
 40
0.0146800531684174
 40
0.0294098671609941
 40
0.0440944857461151
 40
0.0587961819046795
 40
0.0735433082183703
 40
0.0882452749644463
 40
0.1031289863564832
 40
0.1180596885229894
 40
0.132943235753174
 40
0.147875637218115
 40
0.1628556352591827
 40
0.1777879301772827
 40
0.1934470599830017
 40
0.2091023769872324
 40
0.2091023769872324
 40
0.2091023769872324
 40
0.2091023769872324
 10
-36.65465312324022
 20
27.33082594657799
 30
0.0
 10
-36.65954647424198
 20
27.33082667605936
 30
0.0
 10
-36.66935871684308
 20
27.33029308643683
 30
0.0
 10
-36.68388494308385
 20
27.32787457019095
 30
0.0
 10
-36.69807071653389
 20
27.32388435111682
 30
0.0
 10
-36.7117182739637
 20
27.31831031279455
 30
0.0
 10
-36.72467886302133
 20
27.31127763705206
 30
0.0
 10
-36.73684626001898
 20
27.30283719537761
 30
0.0
 10
-36.7480236994503
 20
27.29302921977683
 30
0.0
 10
-36.75809071872988
 20
27.28200511962757
 30
0.0
 10
-36.76689132989049
 20
27.26992314345034
 30
0.0
 10
-36.77425819171574
 20
27.25689802064017
 30
0.0
 10
-36.7801419772635
 20
27.2431235030179
 30
0.0
 10
-36.78452687013146
 20
27.22854543443322
 30
0.0
 10
-36.787215911689
 20
27.2133305745781
 30
0.0
 10
-36.78781925653814
 20
27.20288194904418
 30
0.0
 10
-36.78781555846513
 20
27.19766351135309
 30
0.0
 11
-36.65465312324022
 21
27.33082594657799
 31
0.0
 11
-36.66931192094899
 21
27.33002582037847
 31
0.0
 11
-36.68384233496295
 21
27.32761028633291
 31
0.0
 11
-36.69797544356664
 21
27.32362358961314
 31
0.0
 11
-36.71158978690665
 21
27.31807469220178
 31
0.0
 11
-36.72455176095309
 21
27.3110415127519
 31
0.0
 11
-36.73662632872214
 21
27.30265382784114
 31
0.0
 11
-36.74782043881123
 21
27.2928447797284
 31
0.0
 11
-36.75788860714931
 21
27.28181942227815
 31
0.0
 11
-36.76664305307923
 21
27.26978279832781
 31
0.0
 11
-36.77400325310282
 21
27.25679031365042
 31
0.0
 11
-36.77988655292154
 21
27.24301396685917
 31
0.0
 11
-36.78418019387937
 21
27.22871226032612
 31
0.0
 11
-36.78691248275248
 21
27.21329333239282
 31
0.0
 11
-36.78781555846513
 21
27.19766351135309
 31
0.0
  0
SPLINE
  5
D2
330
2
100
AcDbEntity
  8
GAIKEI
  6
Continuous
 62
     1
100
AcDbSpline
210
0.0
220
0.0
230
1.0
 70
     8
 71
     3
 72
    21
 73
    17
 74
    15
 42
0.0000000001
 43
0.0000000001
 44
0.000001
 12
0.9999999888881687
 22
0.00014907602962
 32
0.0
 13
-0.0007086550231109
 23
-0.9999997489039976
 33
0.0
 40
0.0
 40
0.0
 40
0.0
 40
0.0
 40
0.0146800531684741
 40
0.0294098671610509
 40
0.0440944857460625
 40
0.0587961819046794
 40
0.0735433082183703
 40
0.0882452749644462
 40
0.1031289863564404
 40
0.118059688522985
 40
0.1329432357531695
 40
0.1478756372180825
 40
0.1628556352591503
 40
0.1777879301772502
 40
0.1934470599829792
 40
0.2091023769872132
 40
0.2091023769872132
 40
0.2091023769872132
 40
0.2091023769872132
 10
3.27757581924942
 20
27.33082594657799
 30
0.0
 10
3.282469170251204
 20
27.33082667605936
 30
0.0
 10
3.292281412852247
 20
27.33029308643683
 30
0.0
 10
3.306807639093079
 20
27.32787457019106
 30
0.0
 10
3.320993412543032
 20
27.3238843511167
 30
0.0
 10
3.334640969972838
 20
27.31831031279455
 30
0.0
 10
3.34760155903055
 20
27.31127763705194
 30
0.0
 10
3.359768956028204
 20
27.30283719537772
 30
0.0
 10
3.370946395459412
 20
27.29302921977683
 30
0.0
 10
3.381013414738958
 20
27.28200511962757
 30
0.0
 10
3.389814025899738
 20
27.26992314345029
 30
0.0
 10
3.397180887724829
 20
27.25689802064022
 30
0.0
 10
3.403064673272666
 20
27.24312350301796
 30
0.0
 10
3.407449566140599
 20
27.22854543443316
 30
0.0
 10
3.410138607698229
 20
27.2133305745781
 30
0.0
 10
3.410741952547397
 20
27.20288194904418
 30
0.0
 10
3.410738254474381
 20
27.19766351135309
 30
0.0
 11
3.27757581924942
 21
27.33082594657799
 31
0.0
 11
3.292234616958239
 21
27.33002582037847
 31
0.0
 11
3.306765030972201
 21
27.32761028633291
 31
0.0
 11
3.320898139575774
 21
27.32362358961314
 31
0.0
 11
3.33451248291584
 21
27.31807469220178
 31
0.0
 11
3.347474456962288
 21
27.3110415127519
 31
0.0
 11
3.359549024731336
 21
27.30265382784114
 31
0.0
 11
3.370743134820372
 21
27.2928447797284
 31
0.0
 11
3.380811303158509
 21
27.28181942227815
 31
0.0
 11
3.389565749088433
 21
27.26978279832781
 31
0.0
 11
3.39692594911196
 21
27.25679031365042
 31
0.0
 11
3.40280924893068
 21
27.24301396685917
 31
0.0
 11
3.407102889888506
 21
27.22871226032612
 31
0.0
 11
3.409835178761682
 21
27.21329333239282
 31
0.0
 11
3.410738254474381
 21
27.19766351135309
 31
0.0
  0
SPLINE
  5
D3
330
2
100
AcDbEntity
  8
GAIKEI
  6
Continuous
 62
     1
100
AcDbSpline
210
0.0
220
0.0
230
1.0
 70
     8
 71
     3
 72
    14
 73
    10
 74
     8
 42
0.0000000001
 43
0.0000000001
 44
0.000001
 12
0.2697836156325394
 22
-0.962920973255975
 32
0.0
 13
0.9616843088117285
 23
-0.2741592423853476
 33
0.0
 40
0.0
 40
0.0
 40
0.0
 40
0.0
 40
0.0000378405968002
 40
0.0111891984537556
 40
0.0223415869632996
 40
0.0334914632169878
 40
0.0446413298613272
 40
0.0558040986430134
 40
0.066966051962287
 40
0.066966051962287
 40
0.066966051962287
 40
0.066966051962287
 10
-35.14291458457842
 20
4.997643917884943
 30
0.0
 10
-35.14291118165409
 20
4.997631772050169
 30
0.0
 10
-35.14190380743674
 20
4.994040669006096
 30
0.0
 10
-35.13926345806752
 20
4.987032928686801
 30
0.0
 10
-35.13363168166242
 20
4.977348308411819
 30
0.0
 10
-35.1264051342018
 20
4.968784300068364
 30
0.0
 10
-35.11785270068697
 20
4.961539801764672
 30
0.0
 10
-35.10817396424636
 20
4.955881395665812
 30
0.0
 10
-35.10117309917311
 20
4.953241528595356
 30
0.0
 10
-35.09759500738551
 20
4.952221477706814
 30
0.0
 11
-35.14291458457842
 21
4.997643917884943
 31
0.0
 11
-35.14290436516308
 21
4.997607483001615
 31
0.0
 11
-35.13898452663739
 21
4.987167236703839
 31
0.0
 11
-35.13336604014978
 21
4.97753360161937
 31
0.0
 11
-35.1261852865847
 21
4.969003838030062
 31
0.0
 11
-35.11766970496655
 21
4.961806278904873
 31
0.0
 11
-35.10803789461369
 21
4.956163986880937
 31
0.0
 11
-35.09759500738551
 21
4.952221477706814
 31
0.0
  0
SPLINE
  5
D4
330
2
100
AcDbEntity
  8
GAIKEI
  6
Continuous
 62
     1
100
AcDbSpline
210
0.0
220
0.0
230
1.0
 70
     8
 71
     3
 72
    14
 73
    10
 74
     8
 42
0.0000000001
 43
0.0000000001
 44
0.000001
 12
-0.2697836156325397
 22
-0.962920973255975
 32
0.0
 13
-0.9616843088117285
 23
-0.2741592423853476
 33
0.0
 40
0.0
 40
0.0
 40
0.0
 40
0.0
 40
0.0000378405968626
 40
0.0111891984537548
 40
0.0223415869633274
 40
0.0334914632170522
 40
0.0446413298613483
 40
0.0558040986430344
 40
0.0669660519622549
 40
0.0669660519622549
 40
0.0669660519622549
 40
0.0669660519622549
 10
1.765837280587675
 20
4.997643917884943
 30
0.0
 10
1.765833877663339
 20
4.997631772050169
 30
0.0
 10
1.764826503443458
 20
4.994040669010018
 30
0.0
 10
1.762186154077966
 20
4.987032928684925
 30
0.0
 10
1.756554377671307
 20
4.977348308412274
 30
0.0
 10
1.749327830211001
 20
4.968784300068193
 30
0.0
 10
1.740775396696193
 20
4.961539801764786
 30
0.0
 10
1.731096660255559
 20
4.955881395665755
 30
0.0
 10
1.724095795182364
 20
4.953241528595299
 30
0.0
 10
1.720517703394762
 20
4.952221477706814
 30
0.0
 11
1.765837280587675
 21
4.997643917884943
 31
0.0
 11
1.765827061172217
 21
4.997607483001615
 31
0.0
 11
1.761907222646641
 21
4.987167236703839
 31
0.0
 11
1.756288736158978
 21
4.97753360161937
 31
0.0
 11
1.749107982593841
 21
4.969003838030062
 31
0.0
 11
1.740592400975742
 21
4.961806278904873
 31
0.0
 11
1.730960590622885
 21
4.956163986880937
 31
0.0
 11
1.720517703394762
 21
4.952221477706814
 31
0.0
  0
SPLINE
  5
D5
330
2
100
AcDbEntity
  8
GAIKEI
  6
Continuous
 62
     1
100
AcDbSpline
210
0.0
220
0.0
230
1.0
 70
     8
 71
     3
 72
    19
 73
    15
 74
    13
 42
0.0000000001
 43
0.0000000001
 44
0.000001
 12
-0.963993839467831
 22
0.2659245710122877
 32
0.0
 13
-0.26346002757732
 23
0.9646703135625962
 33
0.0
 40
0.0
 40
0.0
 40
0.0
 40
0.0
 40
0.0080455644807538
 40
0.0160915728628438
 40
0.0243810347115332
 40
0.032670617966433
 40
0.0406926484299091
 40
0.0487147353963971
 40
0.0569835490403238
 40
0.0652522942794513
 40
0.073306220283723
 40
0.0813600285367394
 40
0.0896585537563041
 40
0.0979566571400231
 40
0.0979566571400231
 40
0.0979566571400231
 40
0.0979566571400231
 10
-35.10664843482579
 20
4.922356470144165
 30
0.0
 10
-35.10923372635728
 20
4.923069641238555
 30
0.0
 10
-35.11434678139813
 20
4.924715057740286
 30
0.0
 10
-35.12185619155048
 20
4.927846625416464
 30
0.0
 10
-35.12913972814948
 20
4.931654845454659
 30
0.0
 10
-35.13605683047422
 20
4.936079014378094
 30
0.0
 10
-35.14249137747743
 20
4.941033609879127
 30
0.0
 10
-35.1484776916962
 20
4.946511126754558
 30
0.0
 10
-35.15402013015546
 20
4.952550572622158
 30
0.0
 10
-35.15902032202098
 20
4.959059451456653
 30
0.0
 10
-35.16339582325918
 20
4.965917902907392
 30
0.0
 10
-35.16717962880799
 20
4.973131039222096
 30
0.0
 10
-35.17035588548675
 20
4.980719957487053
 30
0.0
 10
-35.17204626028266
 20
4.985996113133637
 30
0.0
 10
-35.17277499979809
 20
4.988664424464673
 30
0.0
 11
-35.10664843482579
 21
4.922356470144165
 31
0.0
 11
-35.11430809663
 21
4.924819611190173
 31
0.0
 11
-35.12173341263565
 21
4.927918450709796
 31
0.0
 11
-35.12907981651017
 21
4.931758477365747
 31
0.0
 11
-35.13606221046507
 21
4.936226550932076
 31
0.0
 11
-35.14241901602122
 21
4.941119844655759
 31
0.0
 11
-35.14833648597733
 21
4.946536279181771
 31
0.0
 11
-35.15392849717171
 21
4.952627506740384
 31
0.0
 11
-35.15896490759093
 21
4.959185484718773
 31
0.0
 11
-35.1632980848857
 21
4.965974415994253
 31
0.0
 11
-35.16703859471193
 21
4.973106922509202
 31
0.0
 11
-35.17024465653947
 21
4.9807611080397
 31
0.0
 11
-35.17277499979809
 21
4.988664424464673
 31
0.0
  0
SPLINE
  5
D6
330
2
100
AcDbEntity
  8
GAIKEI
  6
Continuous
 62
     1
100
AcDbSpline
210
0.0
220
0.0
230
1.0
 70
     8
 71
     3
 72
    19
 73
    15
 74
    13
 42
0.0000000001
 43
0.0000000001
 44
0.000001
 12
0.9639938394678312
 22
0.2659245710122878
 32
0.0
 13
0.26346002757732
 23
0.9646703135625962
 33
0.0
 40
0.0
 40
0.0
 40
0.0
 40
0.0
 40
0.0080455644807538
 40
0.0160915728627914
 40
0.0243810347114807
 40
0.0326706179664284
 40
0.0406926484299046
 40
0.0487147353963505
 40
0.0569835490402773
 40
0.0652522942794394
 40
0.0733062202836805
 40
0.0813600285367233
 40
0.0896585537562991
 40
0.0979566571400093
 40
0.0979566571400093
 40
0.0979566571400093
 40
0.0979566571400093
 10
1.729571130834983
 20
4.922356470144165
 30
0.0
 10
1.732156422366472
 20
4.923069641238555
 30
0.0
 10
1.73726947740738
 20
4.924715057740343
 30
0.0
 10
1.744778887559618
 20
4.927846625416464
 30
0.0
 10
1.752062424158651
 20
4.931654845454545
 30
0.0
 10
1.758979526483358
 20
4.936079014378151
 30
0.0
 10
1.765414073486596
 20
4.941033609879127
 30
0.0
 10
1.771400387705341
 20
4.946511126754501
 30
0.0
 10
1.776942826164599
 20
4.952550572622158
 30
0.0
 10
1.781943018030176
 20
4.959059451456539
 30
0.0
 10
1.786318519268263
 20
4.965917902907392
 30
0.0
 10
1.790102324817212
 20
4.973131039222209
 30
0.0
 10
1.793278581496053
 20
4.980719957486996
 30
0.0
 10
1.794968956291853
 20
4.985996113133637
 30
0.0
 10
1.795697695807291
 20
4.988664424464673
 30
0.0
 11
1.729571130834983
 21
4.922356470144165
 31
0.0
 11
1.737230792639195
 21
4.924819611190173
 31
0.0
 11
1.74465610864479
 21
4.927918450709796
 31
0.0
 11
1.752002512519311
 21
4.931758477365747
 31
0.0
 11
1.758984906474267
 21
4.936226550932076
 31
0.0
 11
1.765341712030419
 21
4.941119844655759
 31
0.0
 11
1.771259181986465
 21
4.946536279181771
 31
0.0
 11
1.776851193180846
 21
4.952627506740384
 31
0.0
 11
1.781887603600125
 21
4.959185484718773
 31
0.0
 11
1.786220780894836
 21
4.965974415994253
 31
0.0
 11
1.789961290721123
 21
4.973106922509202
 31
0.0
 11
1.793167352548721
 21
4.9807611080397
 31
0.0
 11
1.795697695807291
 21
4.988664424464673
 31
0.0
  0
SPLINE
  5
D7
330
2
100
AcDbEntity
  8
GAIKEI
  6
Continuous
 62
     1
100
AcDbSpline
210
0.0
220
0.0
230
1.0
 70
     8
 71
     3
 72
    19
 73
    15
 74
    13
 42
0.0000000001
 43
0.0000000001
 44
0.000001
 12
0.2634414923284026
 22
0.9646753755122933
 32
0.0
 13
0.9639886149825482
 23
0.2659435093850355
 33
0.0
 40
0.0
 40
0.0
 40
0.0
 40
0.0
 40
0.0080469836170213
 40
0.0160943919464995
 40
0.0243850109521246
 40
0.0326757504935733
 40
0.0406967337973684
 40
0.0487177849602294
 40
0.056985458941196
 40
0.0652530764933604
 40
0.0733066642993443
 40
0.0813601339664225
 40
0.0896586163756816
 40
0.097956656864661
 40
0.097956656864661
 40
0.097956656864661
 40
0.097956656864661
 10
-35.17277499979804
 20
25.67443971185924
 30
0.0
 10
-35.17206836334043
 20
25.67702728750675
 30
0.0
 10
-35.17043596054325
 20
25.68214548959389
 30
0.0
 10
-35.16732384848524
 20
25.68966440779468
 30
0.0
 10
-35.16353473214124
 20
25.69695928726424
 30
0.0
 10
-35.15912923508185
 20
25.70388879124084
 30
0.0
 10
-35.15419259571769
 20
25.71033672516984
 30
0.0
 10
-35.14873248416004
 20
25.71633745950737
 30
0.0
 10
-35.14270936331883
 20
25.7218960069244
 30
0.0
 10
-35.13621516065359
 20
25.72691382681217
 30
0.0
 10
-35.12936936382806
 20
25.73130799982738
 30
0.0
 10
-35.12216680326529
 20
25.73511140512119
 30
0.0
 10
-35.1145865494137
 20
25.73830794252558
 30
0.0
 10
-35.10931484034512
 20
25.74001206284339
 30
0.0
 10
-35.10664843482579
 20
25.74074766617963
 30
0.0
 11
-35.17277499979804
 21
25.67443971185924
 31
0.0
 11
-35.17033135950021
 21
25.68210710270614
 31
0.0
 11
-35.16725169896881
 21
25.68954190878753
 31
0.0
 11
-35.16343096251745
 21
25.69689966739077
 31
0.0
 11
-35.15898132683549
 21
25.70389519599263
 31
0.0
 11
-35.15410620282068
 21
25.71026462815388
 31
0.0
 11
-35.14870693947955
 21
25.71619636916807
 31
0.0
 11
-35.14263218805991
 21
25.72180459449629
 31
0.0
 11
-35.1360891809822
 21
25.72685859449217
 31
0.0
 11
-35.12931256153149
 21
25.73121037516103
 31
0.0
 11
-35.12219059956692
 21
25.73497019812555
 31
0.0
 11
-35.11454506590366
 21
25.73819672829848
 31
0.0
 11
-35.10664843482579
 21
25.74074766617963
 31
0.0
  0
SPLINE
  5
D8
330
2
100
AcDbEntity
  8
GAIKEI
  6
Continuous
 62
     1
100
AcDbSpline
210
0.0
220
0.0
230
1.0
 70
     8
 71
     3
 72
    19
 73
    15
 74
    13
 42
0.0000000001
 43
0.0000000001
 44
0.000001
 12
-0.2634414923284028
 22
0.9646753755122933
 32
0.0
 13
-0.9639886149825482
 23
0.2659435093850356
 33
0.0
 40
0.0
 40
0.0
 40
0.0
 40
0.0
 40
0.0080469836170213
 40
0.0160943919464777
 40
0.024385010952129
 40
0.0326757504935777
 40
0.0406967337973728
 40
0.0487177849602338
 40
0.0569854589412004
 40
0.0652530764933649
 40
0.0733066642993488
 40
0.0813601339663767
 40
0.0896586163756882
 40
0.0979566568646675
 40
0.0979566568646675
 40
0.0979566568646675
 40
0.0979566568646675
 10
1.795697695807234
 20
25.67443971185924
 30
0.0
 10
1.794991059349626
 20
25.67702728750675
 30
0.0
 10
1.793358656552442
 20
25.68214548959384
 30
0.0
 10
1.790246544494493
 20
25.6896644077948
 30
0.0
 10
1.786457428150413
 20
25.69695928726412
 30
0.0
 10
1.782051931091075
 20
25.70388879124096
 30
0.0
 10
1.777115291726886
 20
25.71033672516973
 30
0.0
 10
1.771655180169233
 20
25.71633745950743
 30
0.0
 10
1.765632059328055
 20
25.7218960069244
 30
0.0
 10
1.759137856662789
 20
25.72691382681211
 30
0.0
 10
1.752292059837259
 20
25.73130799982755
 30
0.0
 10
1.745089499274513
 20
25.73511140512108
 30
0.0
 10
1.737509245422927
 20
25.73830794252564
 30
0.0
 10
1.732237536354318
 20
25.74001206284339
 30
0.0
 10
1.729571130834983
 20
25.74074766617963
 30
0.0
 11
1.795697695807234
 21
25.67443971185924
 31
0.0
 11
1.793254055509407
 21
25.68210710270614
 31
0.0
 11
1.790174394978066
 21
25.68954190878753
 31
0.0
 11
1.78635365852665
 21
25.69689966739077
 31
0.0
 11
1.781904022844685
 21
25.70389519599263
 31
0.0
 11
1.777028898829883
 21
25.71026462815388
 31
0.0
 11
1.77162963548875
 21
25.71619636916807
 31
0.0
 11
1.765554884069103
 21
25.72180459449629
 31
0.0
 11
1.759011876991394
 21
25.72685859449217
 31
0.0
 11
1.752235257540689
 21
25.73121037516103
 31
0.0
 11
1.745113295576175
 21
25.73497019812555
 31
0.0
 11
1.737467761912853
 21
25.73819672829848
 31
0.0
 11
1.729571130834983
 21
25.74074766617963
 31
0.0
  0
SPLINE
  5
D9
330
2
100
AcDbEntity
  8
GAIKEI
  6
Continuous
 62
     1
100
AcDbSpline
210
0.0
220
0.0
230
1.0
 70
     8
 71
     3
 72
    19
 73
    15
 74
    13
 42
0.0000000001
 43
0.0000000001
 44
0.000001
 12
0.0944471245025448
 22
0.9955298793472755
 32
0.0
 13
0.9955257326591484
 23
0.0944908229060694
 33
0.0
 40
0.0
 40
0.0
 40
0.0
 40
0.0
 40
0.0114746607580177
 40
0.0229538204373449
 40
0.0343591230295722
 40
0.0457936629856766
 40
0.0572035280088695
 40
0.0746287115525872
 40
0.0920556101582195
 40
0.1090656328910296
 40
0.1260693628544319
 40
0.1369222365398637
 40
0.1478018299471542
 40
0.1586464376140014
 40
0.1586464376140014
 40
0.1586464376140014
 40
0.1586464376140014
 10
-36.76197889896093
 20
27.20095613455431
 30
0.0
 10
-36.76161764938985
 20
27.20476392376764
 30
0.0
 10
-36.76048039340463
 20
27.21234907052576
 30
0.0
 10
-36.757521396062
 20
27.22343579796547
 30
0.0
 10
-36.75342845730157
 20
27.23413916978314
 30
0.0
 10
-36.74830847179379
 20
27.24436360049924
 30
0.0
 10
-36.74117431898916
 20
27.255755806212
 30
0.0
 10
-36.73146204496908
 20
27.26780298139244
 30
0.0
 10
-36.7188185721192
 20
27.27967425377978
 30
0.0
 10
-36.70475835589133
 20
27.28958234247193
 30
0.0
 10
-36.69140180815464
 20
27.29643457672239
 30
0.0
 10
-36.67925741785467
 20
27.3008752333792
 30
0.0
 10
-36.66872457167591
 20
27.30359224337752
 30
0.0
 10
-36.66154444177244
 20
27.30464771510629
 30
0.0
 10
-36.65794574644144
 20
27.3049892870738
 30
0.0
 11
-36.76197889896093
 21
27.20095613455431
 31
0.0
 11
-36.76027115709707
 21
27.21230389447124
 31
0.0
 11
-36.75732427919883
 21
27.22339847851003
 31
0.0
 11
-36.75325974258658
 21
27.23405500153877
 31
0.0
 11
-36.74814638598468
 21
27.24428252253148
 31
0.0
 11
-36.74209210524475
 21
27.25395355361985
 31
0.0
 11
-36.73116808040408
 21
27.26752881889536
 31
0.0
 11
-36.71845740692504
 21
27.27944991301138
 31
0.0
 11
-36.70455036755413
 21
27.28924422511056
 31
0.0
 11
-36.68940752622336
 21
27.29697866272187
 31
0.0
 11
-36.67921364949143
 21
27.30070293940162
 31
0.0
 11
-36.66867502186671
 21
27.30340577279617
 31
0.0
 11
-36.65794574644144
 21
27.3049892870738
 31
0.0
  0
SPLINE
  5
DA
330
2
100
AcDbEntity
  8
GAIKEI
  6
Continuous
 62
     1
100
AcDbSpline
210
0.0
220
0.0
230
1.0
 70
     8
 71
     3
 72
    19
 73
    15
 74
    13
 42
0.0000000001
 43
0.0000000001
 44
0.000001
 12
-0.995529879347374
 22
0.0944471245015059
 32
0.0
 13
-0.0944908229060039
 23
0.9955257326591544
 33
0.0
 40
0.0
 40
0.0
 40
0.0
 40
0.0
 40
0.0114746607580262
 40
0.0229538204374083
 40
0.034359123029609
 40
0.045793662985688
 40
0.057203528008887
 40
0.0746287115525912
 40
0.0920556101582468
 40
0.1090656328910595
 40
0.1260693628544871
 40
0.1369222365398558
 40
0.1478018299471739
 40
0.1586464376139887
 40
0.1586464376139887
 40
0.1586464376139887
 40
0.1586464376139887
 10
-36.65794574644144
 20
3.35811484925
 30
0.0
 10
-36.66175353565478
 20
3.358476098821085
 30
0.0
 10
-36.66933868241296
 20
3.359613354806469
 30
0.0
 10
-36.68042540985255
 20
3.362572352148902
 30
0.0
 10
-36.69112878167036
 20
3.366665290909509
 30
0.0
 10
-36.70135321238644
 20
3.371785276417142
 30
0.0
 10
-36.71274541809907
 20
3.378919429221866
 30
0.0
 10
-36.72479259327963
 20
3.388631703241742
 30
0.0
 10
-36.73666386566697
 20
3.401275176091871
 30
0.0
 10
-36.74657195435907
 20
3.415335392319661
 30
0.0
 10
-36.75342418860964
 20
3.428691940056296
 30
0.0
 10
-36.7578648452664
 20
3.440836330356205
 30
0.0
 10
-36.76058185526472
 20
3.451369176535081
 30
0.0
 10
-36.76163732699342
 20
3.458549306438499
 30
0.0
 10
-36.76197889896093
 20
3.462148001769492
 30
0.0
 11
-36.65794574644144
 21
3.35811484925
 31
0.0
 11
-36.66929350635837
 21
3.359822591113925
 31
0.0
 11
-36.68038809039723
 21
3.362769469012164
 31
0.0
 11
-36.69104461342596
 21
3.366834005624411
 31
0.0
 11
-36.70127213441868
 21
3.371947362226251
 31
0.0
 11
-36.71094316550699
 21
3.378001642966239
 31
0.0
 11
-36.72451843078255
 21
3.388925667806859
 31
0.0
 11
-36.73643952489852
 21
3.40163634128595
 31
0.0
 11
-36.74623383699776
 21
3.415543380656856
 31
0.0
 11
-36.75396827460907
 21
3.430686221987627
 31
0.0
 11
-36.75769255128881
 21
3.440880098719503
 31
0.0
 11
-36.76039538468331
 21
3.451418726344286
 31
0.0
 11
-36.76197889896093
 21
3.462148001769492
 31
0.0
  0
SPLINE
  5
DB
330
2
100
AcDbEntity
  8
GAIKEI
  6
Continuous
 62
     1
100
AcDbSpline
210
0.0
220
0.0
230
1.0
 70
     8
 71
     3
 72
    19
 73
    15
 74
    13
 42
0.0000000001
 43
0.0000000001
 44
0.000001
 12
-0.0944471245025449
 22
0.9955298793472755
 32
0.0
 13
-0.9955257326591484
 23
0.0944908229060694
 33
0.0
 40
0.0
 40
0.0
 40
0.0
 40
0.0
 40
0.0114746607580262
 40
0.0229538204373534
 40
0.0343591230295807
 40
0.0457936629856596
 40
0.0572035280089129
 40
0.0746287115525949
 40
0.0920556101582687
 40
0.1090656328910788
 40
0.1260693628544811
 40
0.1369222365398595
 40
0.14780182994715
 40
0.1586464376139409
 40
0.1586464376139409
 40
0.1586464376139409
 40
0.1586464376139409
 10
3.384901594970187
 20
27.20095613455431
 30
0.0
 10
3.384540345399102
 20
27.20476392376764
 30
0.0
 10
3.383403089413747
 20
27.21234907052576
 30
0.0
 10
3.380444092071286
 20
27.22343579796541
 30
0.0
 10
3.376351153310679
 20
27.23413916978325
 30
0.0
 10
3.371231167803074
 20
27.2443636004993
 30
0.0
 10
3.364097014998208
 20
27.25575580621194
 30
0.0
 10
3.35438474097836
 20
27.26780298139249
 30
0.0
 10
3.341741268128288
 20
27.27967425377989
 30
0.0
 10
3.327681051900526
 20
27.28958234247187
 30
0.0
 10
3.314324504163749
 20
27.29643457672245
 30
0.0
 10
3.302180113863869
 20
27.30087523337914
 30
0.0
 10
3.291647267685135
 20
27.30359224337758
 30
0.0
 10
3.28446713778166
 20
27.30464771510629
 30
0.0
 10
3.280868442450696
 20
27.3049892870738
 30
0.0
 11
3.384901594970187
 21
27.20095613455431
 31
0.0
 11
3.383193853106263
 21
27.21230389447124
 31
0.0
 11
3.380246975208024
 21
27.22339847851003
 31
0.0
 11
3.376182438595776
 21
27.23405500153877
 31
0.0
 11
3.371069081993937
 21
27.24428252253148
 31
0.0
 11
3.365014801253892
 21
27.25395355361985
 31
0.0
 11
3.354090776413272
 21
27.26752881889536
 31
0.0
 11
3.341380102934181
 21
27.27944991301138
 31
0.0
 11
3.327473063563274
 21
27.28924422511056
 31
0.0
 11
3.312330222232503
 21
27.29697866272187
 31
0.0
 11
3.302136345500628
 21
27.30070293940162
 31
0.0
 11
3.291597717875902
 21
27.30340577279617
 31
0.0
 11
3.280868442450696
 21
27.3049892870738
 31
0.0
  0
SPLINE
  5
DC
330
2
100
AcDbEntity
  8
GAIKEI
  6
Continuous
 62
     1
100
AcDbSpline
210
0.0
220
0.0
230
1.0
 70
     8
 71
     3
 72
    19
 73
    15
 74
    13
 42
0.0000000001
 43
0.0000000001
 44
0.000001
 12
0.995529879347374
 22
0.0944471245015057
 32
0.0
 13
0.0944908229060041
 23
0.9955257326591546
 33
0.0
 40
0.0
 40
0.0
 40
0.0
 40
0.0
 40
0.0114746607579699
 40
0.0229538204373521
 40
0.0343591230295528
 40
0.0457936629856318
 40
0.0572035280088308
 40
0.074628711552535
 40
0.0920556101581906
 40
0.1090656328910033
 40
0.1260693628544051
 40
0.136922236539803
 40
0.147801829947114
 40
0.1586464376139372
 40
0.1586464376139372
 40
0.1586464376139372
 40
0.1586464376139372
 10
3.280868442450696
 20
3.35811484925
 30
0.0
 10
3.284676231664008
 20
3.358476098821085
 30
0.0
 10
3.292261378422182
 20
3.359613354806469
 30
0.0
 10
3.303348105861743
 20
3.362572352148845
 30
0.0
 10
3.314051477679612
 20
3.366665290909509
 30
0.0
 10
3.324275908395634
 20
3.371785276417142
 30
0.0
 10
3.335668114108216
 20
3.378919429221809
 30
0.0
 10
3.347715289288913
 20
3.388631703241912
 30
0.0
 10
3.359586561676024
 20
3.401275176091814
 30
0.0
 10
3.369494650368437
 20
3.415335392319548
 30
0.0
 10
3.376346884618669
 20
3.428691940056523
 30
0.0
 10
3.380787541275594
 20
3.440836330356148
 30
0.0
 10
3.383504551273887
 20
3.451369176535138
 30
0.0
 10
3.384560023002677
 20
3.458549306438499
 30
0.0
 10
3.384901594970187
 20
3.462148001769492
 30
0.0
 11
3.280868442450696
 21
3.35811484925
 31
0.0
 11
3.292216202367569
 21
3.359822591113925
 31
0.0
 11
3.303310786406427
 21
3.362769469012164
 31
0.0
 11
3.313967309435156
 21
3.366834005624411
 31
0.0
 11
3.32419483042787
 21
3.371947362226251
 31
0.0
 11
3.333865861516187
 21
3.378001642966239
 31
0.0
 11
3.34744112679175
 21
3.388925667806859
 31
0.0
 11
3.359362220907712
 21
3.40163634128595
 31
0.0
 11
3.369156533006957
 21
3.415543380656856
 31
0.0
 11
3.376890970618205
 21
3.430686221987627
 31
0.0
 11
3.38061524729801
 21
3.440880098719503
 31
0.0
 11
3.383318080692504
 21
3.451418726344286
 31
0.0
 11
3.384901594970187
 21
3.462148001769492
 31
0.0
  0
LINE
  5
DD
330
2
100
AcDbEntity
  8
GAIKEI
  6
Continuous
 62
     1
100
AcDbLine
 10
29.87322657704977
 20
26.89205707922173
 30
0.0
 11
30.04170894558041
 21
26.89965628644944
 31
0.0
  0
LINE
  5
DE
330
2
100
AcDbEntity
  8
GAIKEI
  6
Continuous
 62
     1
100
AcDbLine
 10
30.02289087372066
 20
27.03454553712311
 30
0.0
 11
29.87322657704971
 21
27.03936989906868
 31
0.0
  0
LINE
  5
DF
330
2
100
AcDbEntity
  8
GAIKEI
  6
Continuous
 62
     1
100
AcDbLine
 10
30.9555235652258
 20
5.475083217219378
 30
0.0
 11
30.92665350031376
 21
5.458415069699356
 31
0.0
  0
LINE
  5
E0
330
2
100
AcDbEntity
  8
GAIKEI
  6
Continuous
 62
     1
100
AcDbLine
 10
31.02666238543378
 20
5.475083217219378
 30
0.0
 11
30.9555235652258
 21
5.475083217219378
 31
0.0
  0
LINE
  5
E1
330
2
100
AcDbEntity
  8
GAIKEI
  6
Continuous
 62
     1
100
AcDbLine
 10
30.92665350031376
 20
5.36007299933135
 30
0.0
 11
31.02666238543378
 21
5.371323998907371
 31
0.0
  0
LINE
  5
E2
330
2
100
AcDbEntity
  8
GAIKEI
  6
Continuous
 62
     1
100
AcDbLine
 10
31.05999868047383
 20
5.375074332099359
 30
0.0
 11
31.02666238543378
 21
5.371323998907371
 31
0.0
  0
LINE
  5
E3
330
2
100
AcDbEntity
  8
GAIKEI
  6
Continuous
 62
     1
100
AcDbLine
 10
31.05999868047383
 20
5.475083217219378
 30
0.0
 11
31.05999868047383
 21
5.375074332099359
 31
0.0
  0
LINE
  5
E4
330
2
100
AcDbEntity
  8
GAIKEI
  6
Continuous
 62
     1
100
AcDbLine
 10
31.02666238543378
 20
5.475083217219378
 30
0.0
 11
31.05999868047383
 21
5.475083217219378
 31
0.0
  0
LINE
  5
E5
330
2
100
AcDbEntity
  8
GAIKEI
  6
Continuous
 62
     1
100
AcDbLine
 10
30.95998979535381
 20
5.758441725059412
 30
0.0
 11
30.92665350031376
 21
5.7917780200994
 31
0.0
  0
LINE
  5
E6
330
2
100
AcDbEntity
  8
GAIKEI
  6
Continuous
 62
     1
100
AcDbLine
 10
30.92665350031376
 20
5.458415069699356
 30
0.0
 11
30.95998979535381
 21
5.4917513647394
 31
0.0
  0
LINE
  5
E7
330
2
100
AcDbEntity
  8
GAIKEI
  6
Continuous
 62
     1
100
AcDbLine
 10
30.95998979535381
 20
5.4917513647394
 30
0.0
 11
30.95998979535381
 21
5.758441725059412
 31
0.0
  0
LINE
  5
E8
330
2
100
AcDbEntity
  8
GAIKEI
  6
Continuous
 62
     1
100
AcDbLine
 10
30.65996313999375
 20
5.808446167619365
 30
0.0
 11
30.92665350031376
 21
5.808446167619365
 31
0.0
  0
LINE
  5
E9
330
2
100
AcDbEntity
  8
GAIKEI
  6
Continuous
 62
     1
100
AcDbLine
 10
30.92665350031376
 20
5.341738037059371
 30
0.0
 11
30.66743553719959
 21
5.341738037059371
 31
0.0
  0
LINE
  5
EA
330
2
100
AcDbEntity
  8
GAIKEI
  6
Continuous
 62
     1
100
AcDbLine
 10
30.92665350031376
 20
5.808446167619365
 30
0.0
 11
30.92665350031376
 21
5.341738037059371
 31
0.0
  0
LINE
  5
EB
330
2
100
AcDbEntity
  8
GAIKEI
  6
Continuous
 62
     1
100
AcDbLine
 10
28.36970995448297
 20
3.678142371053581
 30
0.0
 11
28.37022636702943
 21
3.678097167037492
 31
0.0
  0
ELLIPSE
  5
EC
330
2
100
AcDbEntity
  8
GAIKEI
  6
Continuous
 62
     7
100
AcDbEllipse
 10
28.76256682385281
 20
27.29363498881992
 30
0.0
 11
-0.2869767173597468
 21
0.0122233693731572
 31
0.0
210
0.0
220
0.0
230
1.0
 40
0.0979550000005576
 41
-0.0556951287901055
 42
0.0307150442121456
  0
ELLIPSE
  5
ED
330
2
100
AcDbEntity
  8
GAIKEI
  6
Continuous
 62
     1
100
AcDbEllipse
 10
28.76256682385281
 20
3.369469147503878
 30
0.0
 11
-0.2001980877510127
 21
0.2902428013319058
 31
0.0
210
0.0
220
0.0
230
1.0
 40
0.7084260000000244
 41
0.7388798675130728
 42
0.8252900405155028
  0
ELLIPSE
  5
EE
330
2
100
AcDbEntity
  8
GAIKEI
  6
Continuous
 62
     1
100
AcDbEllipse
 10
28.76256682385281
 20
27.29363498881992
 30
0.0
 11
0.2001980877512309
 21
0.2902428013316132
 31
0.0
210
0.0
220
0.0
230
1.0
 40
0.7084260000000004
 41
2.316302613075226
 42
2.402712786077776
  0
ELLIPSE
  5
EF
330
2
100
AcDbEntity
  8
GAIKEI
  6
Continuous
 62
     7
100
AcDbEllipse
 10
28.5193788182263
 20
27.28089002318171
 30
0.0
 11
-0.0026170303216906
 21
0.049935913209143
 31
0.0
210
0.0
220
0.0
230
1.0
 40
0.9969939999998402
 41
-0.0000000000786828
 42
1.015719002433118
  0
ELLIPSE
  5
F0
330
2
100
AcDbEntity
  8
GAIKEI
  6
Continuous
 62
     1
100
AcDbEllipse
 10
29.80837894910542
 20
27.26499554439704
 30
0.0
 11
-0.0034917656106537
 21
0.1333451488971089
 31
0.0
210
0.0
220
0.0
230
1.0
 40
0.0261499999999963
 41
0.0006847638988461
 42
1.568742034989258
  0
ELLIPSE
  5
F1
330
2
100
AcDbEntity
  8
GAIKEI
  6
Continuous
 62
     1
100
AcDbEllipse
 10
28.75994979134697
 20
27.29363498881992
 30
0.0
 11
0.1794014869528182
 21
0.2652613547454717
 31
0.0
210
0.0
220
0.0
230
1.0
 40
0.6240159999999813
 41
2.309985920125742
 42
2.396396093127902
  0
ELLIPSE
  5
F2
330
2
100
AcDbEntity
  8
GAIKEI
  6
Continuous
 62
     1
100
AcDbEllipse
 10
28.75994979134697
 20
3.369469147503878
 30
0.0
 11
-0.1794014869538512
 21
0.2652613547436747
 31
0.0
210
0.0
220
0.0
230
1.0
 40
0.6240159999999941
 41
0.7451965604551792
 42
0.8316067334577596
  0
ELLIPSE
  5
F3
330
2
100
AcDbEntity
  8
GAIKEI
  6
Continuous
 62
     1
100
AcDbEllipse
 10
27.26050955463132
 20
27.26427887773037
 30
0.0
 11
2.544377609282683
 21
0.0
 31
0.0
210
0.0
220
0.0
230
1.0
 40
0.052408
 41
0.0
 42
0.0013695278703807
  0
ARC
  5
F4
330
2
100
AcDbEntity
  8
GAIKEI
  6
Continuous
 62
     7
100
AcDbCircle
 10
28.40656292862303
 20
27.13373194917187
 30
0.0
 40
0.0333362950400013
100
AcDbArc
 50
147.9140249999912
 51
180.0
  0
ARC
  5
F5
330
2
100
AcDbEntity
  8
GAIKEI
  6
Continuous
 62
     7
100
AcDbCircle
 10
28.40656292862303
 20
3.529372187151864
 30
0.0
 40
0.0333362950400013
100
AcDbArc
 50
180.0
 51
212.0859750000088
  0
ARC
  5
F6
330
2
100
AcDbEntity
  8
GAIKEI
  6
Continuous
 62
     7
100
AcDbCircle
 10
28.51846810398212
 20
27.28084231894349
 30
0.0
 40
0.0500044425600019
100
AcDbArc
 50
92.9999999999991
 51
147.9140249999912
  0
ARC
  5
F7
330
2
100
AcDbEntity
  8
GAIKEI
  6
Continuous
 62
     7
100
AcDbCircle
 10
28.51846810398212
 20
3.382261817380253
 30
0.0
 40
0.0500044425600019
100
AcDbArc
 50
212.0859750000088
 51
266.9999999999977
  0
ARC
  5
F8
330
2
100
AcDbEntity
  8
GAIKEI
  6
Continuous
 62
     7
100
AcDbCircle
 10
29.83989028200978
 20
3.298099706806738
 30
0.0
 40
0.0333362950400013
100
AcDbArc
 50
270.0
 51
0.0
  0
ARC
  5
F9
330
2
100
AcDbEntity
  8
GAIKEI
  6
Continuous
 62
     7
100
AcDbCircle
 10
29.83989028200978
 20
27.365004429517
 30
0.0
 40
0.0333362950400013
100
AcDbArc
 50
0.0
 51
90.0
  0
LINE
  5
FA
330
2
100
AcDbEntity
  8
GAIKEI
  6
Continuous
 62
     7
100
AcDbLine
 10
28.37322663358299
 20
27.13373194917187
 30
0.0
 11
28.37322663358299
 21
3.529372187151864
 31
0.0
  0
LINE
  5
FB
330
2
100
AcDbEntity
  8
GAIKEI
  6
Continuous
 62
     7
100
AcDbLine
 10
28.51676178572046
 20
27.33082595965539
 30
0.0
 11
28.51585107147628
 21
27.33077822208088
 31
0.0
  0
LINE
  5
FC
330
2
100
AcDbEntity
  8
GAIKEI
  6
Continuous
 62
     7
100
AcDbLine
 10
28.51585107147628
 20
3.332325914242858
 30
0.0
 11
28.51676178572046
 21
3.332278176668353
 31
0.0
  0
LINE
  5
FD
330
2
100
AcDbEntity
  8
GAIKEI
  6
Continuous
 62
     7
100
AcDbLine
 10
28.47610174001426
 20
3.355699924200507
 30
0.0
 11
28.37831868597778
 21
3.511664213917015
 31
0.0
  0
LINE
  5
FE
330
2
100
AcDbEntity
  8
GAIKEI
  6
Continuous
 62
     1
100
AcDbLine
 10
28.37322663358299
 20
3.652595653317916
 30
0.0
 11
28.47610174001426
 21
3.488509523444406
 31
0.0
  0
LINE
  5
FF
330
2
100
AcDbEntity
  8
GAIKEI
  6
Continuous
 62
     1
100
AcDbLine
 10
28.47610174001426
 20
27.17459461287933
 30
0.0
 11
28.37322663358299
 21
27.01050848300582
 31
0.0
  0
LINE
  5
100
330
2
100
AcDbEntity
  8
GAIKEI
  6
Continuous
 62
     7
100
AcDbLine
 10
28.37831868597778
 20
27.15143992240678
 30
0.0
 11
28.47610174001426
 21
27.30740421212323
 31
0.0
  0
LINE
  5
101
330
2
100
AcDbEntity
  8
GAIKEI
  6
Continuous
 62
     1
100
AcDbLine
 10
28.47610174001426
 20
3.488509523444406
 30
0.0
 11
28.47610174001426
 21
27.17459461287933
 31
0.0
  0
LINE
  5
102
330
2
100
AcDbEntity
  8
GAIKEI
  6
Continuous
 62
     7
100
AcDbLine
 10
28.51676178572046
 20
27.33082595965539
 30
0.0
 11
29.80488477200453
 21
27.39834059121182
 31
0.0
  0
LINE
  5
103
330
2
100
AcDbEntity
  8
GAIKEI
  6
Continuous
 62
     7
100
AcDbLine
 10
29.80488477200453
 20
3.264763545111918
 30
0.0
 11
28.51676178572046
 21
3.332278176668353
 31
0.0
  0
LINE
  5
104
330
2
100
AcDbEntity
  8
GAIKEI
  6
Continuous
 62
     7
100
AcDbLine
 10
29.83989028200978
 20
3.26476341176675
 30
0.0
 11
29.80488717221778
 21
3.26476341176675
 31
0.0
  0
LINE
  5
105
330
2
100
AcDbEntity
  8
GAIKEI
  6
Continuous
 62
     7
100
AcDbLine
 10
29.87322657704971
 20
3.398108591926757
 30
0.0
 11
29.87322657704971
 21
3.298099706806738
 31
0.0
  0
LINE
  5
106
330
2
100
AcDbEntity
  8
GAIKEI
  6
Continuous
 62
     7
100
AcDbLine
 10
29.80488717221778
 20
27.39834072455699
 30
0.0
 11
29.83989028200978
 21
27.39834072455699
 31
0.0
  0
LINE
  5
107
330
2
100
AcDbEntity
  8
GAIKEI
  6
Continuous
 62
     7
100
AcDbLine
 10
29.80488717221778
 20
27.39834072455699
 30
0.0
 11
29.80488477200453
 21
27.39834059121182
 31
0.0
  0
LINE
  5
108
330
2
100
AcDbEntity
  8
GAIKEI
  6
Continuous
 62
     1
100
AcDbLine
 10
29.87322657704971
 20
3.398108591926757
 30
0.0
 11
29.83989028200978
 21
3.398108591926757
 31
0.0
  0
LINE
  5
109
330
2
100
AcDbEntity
  8
GAIKEI
  6
Continuous
 62
     7
100
AcDbLine
 10
29.87322657704971
 20
3.398108591926757
 30
0.0
 11
29.87322657704971
 21
27.365004429517
 31
0.0
  0
LINE
  5
10A
330
2
100
AcDbEntity
  8
GAIKEI
  6
Continuous
 62
     1
100
AcDbLine
 10
29.80488717221778
 20
3.398108591926757
 30
0.0
 11
29.83989028200978
 21
3.398108591926757
 31
0.0
  0
LINE
  5
10B
330
2
100
AcDbEntity
  8
GAIKEI
  6
Continuous
 62
     1
100
AcDbLine
 10
29.80488477200453
 20
27.26517816062119
 30
0.0
 11
28.51676178572046
 21
27.19766349572848
 31
0.0
  0
LINE
  5
10C
330
2
100
AcDbEntity
  8
GAIKEI
  6
Continuous
 62
     1
100
AcDbLine
 10
28.51585107147628
 20
27.17459461287933
 30
0.0
 11
28.51585107147628
 21
3.488509523444406
 31
0.0
  0
LINE
  5
10D
330
2
100
AcDbEntity
  8
GAIKEI
  6
Continuous
 62
     1
100
AcDbLine
 10
28.47559900932476
 20
3.467597890679769
 30
0.0
 11
29.80488477200453
 21
3.397925975702548
 31
0.0
  0
LINE
  5
10E
330
2
100
AcDbEntity
  8
GAIKEI
  6
Continuous
 62
     1
100
AcDbLine
 10
29.80488717221778
 20
27.26499554439698
 30
0.0
 11
29.80488717221778
 21
3.26476341176675
 31
0.0
  0
ARC
  5
10F
330
2
100
AcDbEntity
  8
GAIKEI
  6
Continuous
 62
     1
100
AcDbCircle
 10
29.64820658552975
 20
4.918243645750806
 30
0.0
 40
0.3000266553600113
100
AcDbArc
 50
0.0
 51
16.60155000000191
  0
ARC
  5
110
330
2
100
AcDbEntity
  8
GAIKEI
  6
Continuous
 62
     1
100
AcDbCircle
 10
29.64820658552975
 20
4.918243645750806
 30
0.0
 40
0.3000266553600113
100
AcDbArc
 50
343.3984499999981
 51
0.0
  0
ARC
  5
111
330
2
100
AcDbEntity
  8
GAIKEI
  6
Continuous
 62
     1
100
AcDbCircle
 10
29.89419590670099
 20
4.844903796662833
 30
0.0
 40
0.0433371835520016
100
AcDbArc
 50
270.0
 51
343.3984499999981
  0
ARC
  5
112
330
2
100
AcDbEntity
  8
GAIKEI
  6
Continuous
 62
     1
100
AcDbCircle
 10
29.89419590670099
 20
4.991583494838835
 30
0.0
 40
0.0433371835520016
100
AcDbArc
 50
16.60155000000191
 51
90.0
  0
LINE
  5
113
330
2
100
AcDbEntity
  8
GAIKEI
  6
Continuous
 62
     1
100
AcDbLine
 10
29.87322657704971
 20
4.801566613110821
 30
0.0
 11
29.89419590670099
 21
4.801566613110821
 31
0.0
  0
LINE
  5
114
330
2
100
AcDbEntity
  8
GAIKEI
  6
Continuous
 62
     1
100
AcDbLine
 10
29.89419590670099
 20
5.034920678390847
 30
0.0
 11
29.87322657704971
 21
5.034920678390847
 31
0.0
  0
ELLIPSE
  5
115
330
2
100
AcDbEntity
  8
GAIKEI
  6
Continuous
 62
     1
100
AcDbEllipse
 10
30.56057654349331
 20
4.408640070884416
 30
0.0
 11
-0.0174468687851453
 21
0.3329060880623922
 31
0.0
210
0.0
220
0.0
230
1.0
 40
0.765609999999989
 41
3.141592653589826
 42
4.672286563984031
  0
ELLIPSE
  5
116
330
2
100
AcDbEntity
  8
GAIKEI
  6
Continuous
 62
     1
100
AcDbEllipse
 10
31.12833808530581
 20
9.12528407979903
 30
0.0
 11
0.0
 21
0.2166859177600031
 31
0.0
210
0.0
220
0.0
230
1.0
 40
0.1391730000000056
 41
3.141592653589793
 42
6.283185307179586
  0
ELLIPSE
  5
117
330
2
100
AcDbEntity
  8
GAIKEI
  6
Continuous
 62
     1
100
AcDbEllipse
 10
31.12833808530581
 20
21.47781472545279
 30
0.0
 11
0.0
 21
0.2166859177600031
 31
0.0
210
0.0
220
0.0
230
1.0
 40
0.1391730000000056
 41
3.141592653589793
 42
6.283185307179586
  0
ELLIPSE
  5
118
330
2
100
AcDbEntity
  8
GAIKEI
  6
Continuous
 62
     7
100
AcDbEllipse
 10
30.56476294876075
 20
6.503808515571677
 30
0.0
 11
-0.2142815740456751
 21
0.2553708356956748
 31
0.0
210
0.0
220
0.0
230
1.0
 40
0.160711
 41
3.141592653589792
 42
3.14434683352869
  0
ARC
  5
119
330
2
100
AcDbEntity
  8
GAIKEI
  6
Continuous
 62
     1
100
AcDbCircle
 10
31.50837184876178
 20
6.642112099923735
 30
0.0
 40
0.1666814752000063
100
AcDbArc
 50
131.5352399999973
 51
178.4006089999954
  0
ARC
  5
11A
330
2
100
AcDbEntity
  8
GAIKEI
  6
Continuous
 62
     1
100
AcDbCircle
 10
31.50837184876178
 20
6.642112099923735
 30
0.0
 40
0.1666814752000063
100
AcDbArc
 50
178.4006089999954
 51
179.1867999999952
  0
ARC
  5
11B
330
2
100
AcDbEntity
  8
GAIKEI
  6
Continuous
 62
     7
100
AcDbCircle
 10
31.36002533583377
 20
6.952809003263894
 30
0.0
 40
0.1666814752000063
100
AcDbArc
 50
310.0000000000001
 51
0.0
  0
ARC
  5
11C
330
2
100
AcDbEntity
  8
GAIKEI
  6
Continuous
 62
     1
100
AcDbCircle
 10
31.00832742316181
 20
4.432105688980811
 30
0.0
 40
0.3333629504000126
100
AcDbArc
 50
273.0000000000023
 51
0.0
  0
ARC
  5
11D
330
2
100
AcDbEntity
  8
GAIKEI
  6
Continuous
 62
     1
100
AcDbCircle
 10
31.50837184876178
 20
6.642112099923735
 30
0.0
 40
0.1666814752000063
100
AcDbArc
 50
179.1867999999952
 51
180.0
  0
ARC
  5
11E
330
2
100
AcDbEntity
  8
GAIKEI
  6
Continuous
 62
     7
100
AcDbCircle
 10
30.91451608865265
 20
26.21704807461237
 30
0.0
 40
0.1666814752000063
100
AcDbArc
 50
7.999999999997649
 51
77.99999999999703
  0
ARC
  5
11F
330
2
100
AcDbEntity
  8
GAIKEI
  6
Continuous
 62
     1
100
AcDbCircle
 10
30.01029908835818
 20
4.0419990306155
 30
0.0
 40
0.1666814752000063
100
AcDbArc
 50
285.0000000000047
 51
314.9999999999954
  0
ARC
  5
120
330
2
100
AcDbEntity
  8
GAIKEI
  6
Continuous
 62
     1
100
AcDbCircle
 10
30.33588001404405
 20
3.89613357144583
 30
0.0
 40
0.1666814752000063
100
AcDbArc
 50
133.2988929999924
 51
134.9999999999954
  0
ARC
  5
121
330
2
100
AcDbEntity
  8
GAIKEI
  6
Continuous
 62
     1
100
AcDbCircle
 10
29.94823324088975
 20
3.680245824597989
 30
0.0
 40
0.1666814752000063
100
AcDbArc
 50
105.0000000000047
 51
116.7436839999987
  0
ARC
  5
122
330
2
100
AcDbEntity
  8
GAIKEI
  6
Continuous
 62
     1
100
AcDbCircle
 10
30.54995336636177
 20
5.541632362998825
 30
0.0
 40
0.2300204357760087
100
AcDbArc
 50
298.5718781421404
 51
0.0
  0
ARC
  5
123
330
2
100
AcDbEntity
  8
GAIKEI
  6
Continuous
 62
     1
100
AcDbCircle
 10
30.54995336636177
 20
5.541632362998825
 30
0.0
 40
0.2300204357760087
100
AcDbArc
 50
0.0
 51
61.42812185785959
  0
ARC
  5
124
330
2
100
AcDbEntity
  8
GAIKEI
  6
Continuous
 62
     7
100
AcDbCircle
 10
30.42660907471378
 20
4.301472983139319
 30
0.0
 40
0.2333540652800088
100
AcDbArc
 50
273.0000000000023
 51
0.0
  0
ARC
  5
125
330
2
100
AcDbEntity
  8
GAIKEI
  6
Continuous
 62
     7
100
AcDbCircle
 10
30.99332609039379
 20
5.99235017292591
 30
0.0
 40
0.3333629504000126
100
AcDbArc
 50
130.5742470000082
 51
180.0
  0
LINE
  5
126
330
2
100
AcDbEntity
  8
GAIKEI
  6
Continuous
 62
     1
100
AcDbLine
 10
31.52670681103382
 20
9.826744833224836
 30
0.0
 11
31.52670681103382
 21
7.284148273873483
 31
0.0
  0
LINE
  5
127
330
2
100
AcDbEntity
  8
GAIKEI
  6
Continuous
 62
     1
100
AcDbLine
 10
31.52670681103382
 20
6.952809003263894
 30
0.0
 11
31.52670681103382
 21
7.284148273873483
 31
0.0
  0
LINE
  5
128
330
2
100
AcDbEntity
  8
GAIKEI
  6
Continuous
 62
     1
100
AcDbLine
 10
31.52670681103382
 20
22.00583963693168
 30
0.0
 11
31.52670681103382
 21
21.3831616494939
 31
0.0
  0
LINE
  5
129
330
2
100
AcDbEntity
  8
GAIKEI
  6
Continuous
 62
     7
100
AcDbLine
 10
31.12323749881949
 20
25.9295738677867
 30
0.0
 11
31.52670681103382
 21
23.05874054679629
 31
0.0
  0
LINE
  5
12A
330
2
100
AcDbEntity
  8
GAIKEI
  6
Continuous
 62
     7
100
AcDbLine
 10
31.12323749881949
 20
25.9295738677867
 30
0.0
 11
31.52670681103382
 21
23.05874054679629
 31
0.0
  0
LINE
  5
12B
330
2
100
AcDbEntity
  8
GAIKEI
  6
Continuous
 62
     7
100
AcDbLine
 10
31.12323749881949
 20
25.9295738677867
 30
0.0
 11
31.52670681103382
 21
23.05874054679629
 31
0.0
  0
LINE
  5
12C
330
2
100
AcDbEntity
  8
GAIKEI
  6
Continuous
 62
     7
100
AcDbLine
 10
31.52670681103382
 20
23.05874054679629
 30
0.0
 11
31.52670681103382
 21
6.952809003263894
 31
0.0
  0
LINE
  5
12D
330
2
100
AcDbEntity
  8
GAIKEI
  6
Continuous
 62
     1
100
AcDbLine
 10
31.34169037356179
 20
4.432105688980811
 30
0.0
 11
31.34169037356179
 21
6.642112099923735
 31
0.0
  0
LINE
  5
12E
330
2
100
AcDbEntity
  8
GAIKEI
  6
Continuous
 62
     1
100
AcDbLine
 10
30.45075125559475
 20
4.069063904684526
 30
0.0
 11
31.02577429194696
 21
4.099199613399548
 31
0.0
  0
LINE
  5
12F
330
2
100
AcDbEntity
  8
GAIKEI
  6
Continuous
 62
     1
100
AcDbLine
 10
30.81594736481469
 20
5.808446167619365
 30
0.0
 11
30.81594736481469
 21
5.947346908020392
 31
0.0
  0
LINE
  5
130
330
2
100
AcDbEntity
  8
GAIKEI
  6
Continuous
 62
     1
100
AcDbLine
 10
30.81594736481469
 20
4.408640070884359
 30
0.0
 11
30.81594736481469
 21
5.341738037059371
 31
0.0
  0
LINE
  5
131
330
2
100
AcDbEntity
  8
GAIKEI
  6
Continuous
 62
     1
100
AcDbLine
 10
30.81594736481469
 20
5.947346908020392
 30
0.0
 11
31.18570614874085
 21
6.257611339604977
 31
0.0
  0
LINE
  5
132
330
2
100
AcDbEntity
  8
GAIKEI
  6
Continuous
 62
     7
100
AcDbLine
 10
30.77904451957721
 20
6.247720994247345
 30
0.0
 11
30.7713187331928
 21
6.240541323048262
 31
0.0
  0
LINE
  5
133
330
2
100
AcDbEntity
  8
GAIKEI
  6
Continuous
 62
     7
100
AcDbLine
 10
31.52670681103382
 20
23.05874054679629
 30
0.0
 11
31.29220367700003
 21
24.72731698864402
 31
0.0
  0
LINE
  5
134
330
2
100
AcDbEntity
  8
GAIKEI
  6
Continuous
 62
     7
100
AcDbLine
 10
31.29220367700003
 20
24.72731698864402
 30
0.0
 11
31.07957543119397
 21
26.24024565238852
 31
0.0
  0
LINE
  5
135
330
2
100
AcDbEntity
  8
GAIKEI
  6
Continuous
 62
     1
100
AcDbLine
 10
30.1281606595698
 20
3.924137426067545
 30
0.0
 11
30.2180184094961
 21
4.013995175993784
 31
0.0
  0
LINE
  5
136
330
2
100
AcDbEntity
  8
GAIKEI
  6
Continuous
 62
     1
100
AcDbLine
 10
29.90509290815993
 20
3.841247761875706
 30
0.0
 11
30.05343942108794
 21
3.880997093337782
 31
0.0
  0
LINE
  5
137
330
2
100
AcDbEntity
  8
GAIKEI
  6
Continuous
 62
     7
100
AcDbLine
 10
30.94917111598949
 20
26.38008715966601
 30
0.0
 11
29.87322657704971
 21
26.60878621295154
 31
0.0
  0
LINE
  5
138
330
2
100
AcDbEntity
  8
GAIKEI
  6
Continuous
 62
     7
100
AcDbLine
 10
31.0430440741705
 20
6.469242941656204
 30
0.0
 11
31.46716612124209
 21
6.825123592603176
 31
0.0
  0
LINE
  5
139
330
2
100
AcDbEntity
  8
GAIKEI
  6
Continuous
 62
     1
100
AcDbLine
 10
31.10491890466835
 20
8.90859816203897
 30
0.0
 11
31.12833808530576
 21
8.90859816203897
 31
0.0
  0
LINE
  5
13A
330
2
100
AcDbEntity
  8
GAIKEI
  6
Continuous
 62
     1
100
AcDbLine
 10
31.12833808530576
 20
9.341969997558976
 30
0.0
 11
31.10491890466835
 21
9.341969997558976
 31
0.0
  0
LINE
  5
13B
330
2
100
AcDbEntity
  8
GAIKEI
  6
Continuous
 62
     1
100
AcDbLine
 10
31.12833808530576
 20
21.69450064321279
 30
0.0
 11
31.10491890466835
 21
21.69450064321279
 31
0.0
  0
LINE
  5
13C
330
2
100
AcDbEntity
  8
GAIKEI
  6
Continuous
 62
     1
100
AcDbLine
 10
31.10491890466835
 20
21.26112880769278
 30
0.0
 11
31.12833808530576
 21
21.26112880769278
 31
0.0
  0
LINE
  5
13D
330
2
100
AcDbEntity
  8
GAIKEI
  6
Continuous
 62
     7
100
AcDbLine
 10
30.65996313999375
 20
4.301472983139319
 30
0.0
 11
30.65996313999375
 21
4.481483375857749
 31
0.0
  0
LINE
  5
13E
330
2
100
AcDbEntity
  8
GAIKEI
  6
Continuous
 62
     1
100
AcDbLine
 10
30.97451458578422
 20
8.90859816203897
 30
0.0
 11
31.10491890466835
 21
8.90859816203897
 31
0.0
  0
LINE
  5
13F
330
2
100
AcDbEntity
  8
GAIKEI
  6
Continuous
 62
     1
100
AcDbLine
 10
31.10491890466835
 20
9.341969997558976
 30
0.0
 11
30.97451458578422
 21
9.341969997558976
 31
0.0
  0
LINE
  5
140
330
2
100
AcDbEntity
  8
GAIKEI
  6
Continuous
 62
     1
100
AcDbLine
 10
31.10491890466835
 20
21.69450064321279
 30
0.0
 11
30.97451458578422
 21
21.69450064321279
 31
0.0
  0
LINE
  5
141
330
2
100
AcDbEntity
  8
GAIKEI
  6
Continuous
 62
     1
100
AcDbLine
 10
30.97451458578422
 20
21.26112880769278
 30
0.0
 11
31.10491890466835
 21
21.26112880769278
 31
0.0
  0
LINE
  5
142
330
2
100
AcDbEntity
  8
GAIKEI
  6
Continuous
 62
     1
100
AcDbLine
 10
31.07957541973604
 20
9.341969997558976
 30
0.0
 11
31.07957541973604
 21
21.26112880769278
 31
0.0
  0
LINE
  5
143
330
2
100
AcDbEntity
  8
GAIKEI
  6
Continuous
 62
     1
100
AcDbLine
 10
31.07957541973604
 20
21.69450064321279
 30
0.0
 11
31.07957541973604
 21
22.78551431015222
 31
0.0
  0
LINE
  5
144
330
2
100
AcDbEntity
  8
GAIKEI
  6
Continuous
 62
     1
100
AcDbLine
 10
31.07957541973604
 20
6.499896380046379
 30
0.0
 11
31.07957541973604
 21
8.90859816203897
 31
0.0
  0
LINE
  5
145
330
2
100
AcDbEntity
  8
GAIKEI
  6
Continuous
 62
     7
100
AcDbLine
 10
30.77904451957721
 20
6.247720994247345
 30
0.0
 11
31.0430440741705
 21
6.469242941656204
 31
0.0
  0
LINE
  5
146
330
2
100
AcDbEntity
  8
GAIKEI
  6
Continuous
 62
     7
100
AcDbLine
 10
30.65996313999375
 20
4.481483375857749
 30
0.0
 11
30.65996313999375
 21
5.99235017292591
 31
0.0
  0
LINE
  5
147
330
2
100
AcDbEntity
  8
GAIKEI
  6
Continuous
 62
     7
100
AcDbLine
 10
30.77649379296224
 20
6.245630608530518
 30
0.0
 11
30.77896884618752
 21
6.24778820021811
 31
0.0
  0
LINE
  5
148
330
2
100
AcDbEntity
  8
GAIKEI
  6
Continuous
 62
     7
100
AcDbLine
 10
29.87322657704971
 20
4.03879712894809
 30
0.0
 11
30.43892804192751
 21
4.068444309303913
 31
0.0
  0
LINE
  5
149
330
2
100
AcDbEntity
  8
GAIKEI
  6
Continuous
 62
     1
100
AcDbLine
 10
30.94917110085186
 20
8.90859816203897
 30
0.0
 11
30.94917110085186
 21
6.767490572295116
 31
0.0
  0
LINE
  5
14A
330
2
100
AcDbEntity
  8
GAIKEI
  6
Continuous
 62
     1
100
AcDbLine
 10
30.94917110085186
 20
8.90859816203897
 30
0.0
 11
30.97451458578422
 21
8.90859816203897
 31
0.0
  0
LINE
  5
14B
330
2
100
AcDbEntity
  8
GAIKEI
  6
Continuous
 62
     1
100
AcDbLine
 10
30.97451458578422
 20
9.341969997558976
 30
0.0
 11
30.97451458578422
 21
8.90859816203897
 31
0.0
  0
LINE
  5
14C
330
2
100
AcDbEntity
  8
GAIKEI
  6
Continuous
 62
     1
100
AcDbLine
 10
30.97451458578422
 20
9.341969997558976
 30
0.0
 11
30.94917110085186
 21
9.341969997558976
 31
0.0
  0
LINE
  5
14D
330
2
100
AcDbEntity
  8
GAIKEI
  6
Continuous
 62
     1
100
AcDbLine
 10
30.94917110085186
 20
21.26112880769278
 30
0.0
 11
30.94917110085186
 21
9.341969997558976
 31
0.0
  0
LINE
  5
14E
330
2
100
AcDbEntity
  8
GAIKEI
  6
Continuous
 62
     1
100
AcDbLine
 10
30.94917110085186
 20
21.26112880769278
 30
0.0
 11
30.97451458578422
 21
21.26112880769278
 31
0.0
  0
LINE
  5
14F
330
2
100
AcDbEntity
  8
GAIKEI
  6
Continuous
 62
     1
100
AcDbLine
 10
30.97451458578422
 20
21.69450064321279
 30
0.0
 11
30.97451458578422
 21
21.26112880769278
 31
0.0
  0
LINE
  5
150
330
2
100
AcDbEntity
  8
GAIKEI
  6
Continuous
 62
     1
100
AcDbLine
 10
30.97451458578422
 20
21.69450064321279
 30
0.0
 11
30.94917110085186
 21
21.69450064321279
 31
0.0
  0
LINE
  5
151
330
2
100
AcDbEntity
  8
GAIKEI
  6
Continuous
 62
     1
100
AcDbLine
 10
30.94917110085186
 20
22.51796734678828
 30
0.0
 11
30.94917110085186
 21
21.69450064321279
 31
0.0
  0
LINE
  5
152
330
2
100
AcDbEntity
  8
GAIKEI
  6
Continuous
 62
     1
100
AcDbLine
 10
29.87322657704971
 20
22.01786270510081
 30
0.0
 11
29.96358267125055
 21
22.01786270510081
 31
0.0
  0
LINE
  5
153
330
2
100
AcDbEntity
  8
GAIKEI
  6
Continuous
 62
     1
100
AcDbLine
 10
29.96358267125055
 20
21.15111903406074
 30
0.0
 11
29.87322657704971
 21
21.15111903406074
 31
0.0
  0
LINE
  5
154
330
2
100
AcDbEntity
  8
GAIKEI
  6
Continuous
 62
     1
100
AcDbLine
 10
29.96358267125055
 20
21.15111903406074
 30
0.0
 11
29.96358267125055
 21
22.01786270510081
 31
0.0
  0
LINE
  5
155
330
2
100
AcDbEntity
  8
GAIKEI
  6
Continuous
 62
     1
100
AcDbLine
 10
29.96358267125055
 20
8.781920240886961
 30
0.0
 11
29.87322657704971
 21
8.781920240886961
 31
0.0
  0
LINE
  5
156
330
2
100
AcDbEntity
  8
GAIKEI
  6
Continuous
 62
     1
100
AcDbLine
 10
29.87322657704971
 20
9.64866391192703
 30
0.0
 11
29.96358267125055
 21
9.64866391192703
 31
0.0
  0
LINE
  5
157
330
2
100
AcDbEntity
  8
GAIKEI
  6
Continuous
 62
     1
100
AcDbLine
 10
29.96358267125055
 20
8.781920240886961
 30
0.0
 11
29.96358267125055
 21
9.64866391192703
 31
0.0
  0
ELLIPSE
  5
158
330
2
100
AcDbEntity
  8
GAIKEI
  6
Continuous
 62
     1
100
AcDbEllipse
 10
29.95641520113549
 20
22.76160051456009
 30
0.0
 11
-0.023564856710522
 21
0.023564856710522
 31
0.0
210
0.0
220
0.0
230
1.0
 40
0.9990757796463732
 41
0.7858604317907339
 42
0.8903589325719298
  0
LINE
  5
159
330
2
100
AcDbEntity
  8
GAIKEI
  6
Continuous
 62
     1
100
AcDbLine
 10
29.92246965196733
 20
22.76029696541514
 30
0.0
 11
29.92308397321233
 21
22.76160051456009
 31
0.0
  0
LINE
  5
15A
330
2
100
AcDbEntity
  8
GAIKEI
  6
Continuous
 62
     1
100
AcDbLine
 10
29.9154686633097
 20
22.79922939096719
 30
0.0
 11
29.91652112348038
 21
22.78959803528568
 31
0.0
  0
LINE
  5
15B
330
2
100
AcDbEntity
  8
GAIKEI
  6
Continuous
 62
     1
100
AcDbLine
 10
30.96971315920956
 20
24.62929901373639
 30
0.0
 11
30.96847151556455
 21
24.64744135889566
 31
0.0
  0
LINE
  5
15C
330
2
100
AcDbEntity
  8
GAIKEI
  6
Continuous
 62
     1
100
AcDbLine
 10
30.88419356136575
 20
26.38630474526792
 30
0.0
 11
30.88429897073064
 21
26.38679668897385
 31
0.0
  0
LINE
  5
15D
330
2
100
AcDbEntity
  8
GAIKEI
  6
Continuous
 62
     1
100
AcDbLine
 10
30.88414319022394
 20
26.38606972438788
 30
0.0
 11
30.88419356136575
 21
26.38630474526792
 31
0.0
  0
LINE
  5
15E
330
2
100
AcDbEntity
  8
GAIKEI
  6
Continuous
 62
     1
100
AcDbLine
 10
30.96847151556455
 20
24.23204772061808
 30
0.0
 11
30.96971315920956
 21
24.25019006577736
 31
0.0
  0
LINE
  5
15F
330
2
100
AcDbEntity
  8
GAIKEI
  6
Continuous
 62
     1
100
AcDbLine
 10
30.88419356136575
 20
22.49318433424583
 30
0.0
 11
30.88429897073064
 21
22.4926923905399
 31
0.0
  0
LINE
  5
160
330
2
100
AcDbEntity
  8
GAIKEI
  6
Continuous
 62
     1
100
AcDbLine
 10
30.88414319022394
 20
22.49341935512587
 30
0.0
 11
30.88419356136575
 21
22.49318433424583
 31
0.0
  0
LINE
  5
161
330
2
100
AcDbEntity
  8
GAIKEI
  6
Continuous
 62
     1
100
AcDbLine
 10
31.06576709295865
 20
22.68880074678799
 30
0.0
 11
31.06626550390576
 21
22.68873220736538
 31
0.0
  0
LINE
  5
162
330
2
100
AcDbEntity
  8
GAIKEI
  6
Continuous
 62
     1
100
AcDbLine
 10
31.06552900513947
 20
22.68883348302972
 30
0.0
 11
31.06576709295865
 21
22.68880074678799
 31
0.0
  0
LINE
  5
163
330
2
100
AcDbEntity
  8
GAIKEI
  6
Continuous
 62
     1
100
AcDbLine
 10
29.87398617786852
 20
26.53510613194175
 30
0.0
 11
29.87322657704971
 21
26.53510613194175
 31
0.0
  0
LINE
  5
164
330
2
100
AcDbEntity
  8
GAIKEI
  6
Continuous
 62
     1
100
AcDbLine
 10
29.87322657704971
 20
22.344382947572
 30
0.0
 11
29.87398617786852
 21
22.344382947572
 31
0.0
  0
LINE
  5
165
330
2
100
AcDbEntity
  8
GAIKEI
  6
Continuous
 62
     1
100
AcDbLine
 10
29.87398617786852
 20
22.344382947572
 30
0.0
 11
30.87032912960382
 21
22.55788501580162
 31
0.0
  0
LINE
  5
166
330
2
100
AcDbEntity
  8
GAIKEI
  6
Continuous
 62
     1
100
AcDbLine
 10
29.87322657704971
 20
22.27603403246348
 30
0.0
 11
30.88429897073064
 21
22.4926923905399
 31
0.0
  0
LINE
  5
167
330
2
100
AcDbEntity
  8
GAIKEI
  6
Continuous
 62
     1
100
AcDbLine
 10
30.96971315920956
 20
24.25019006577736
 30
0.0
 11
30.96971315920956
 21
24.62929901373639
 31
0.0
  0
LINE
  5
168
330
2
100
AcDbEntity
  8
GAIKEI
  6
Continuous
 62
     1
100
AcDbLine
 10
30.78309541280532
 20
25.9953902484649
 30
0.0
 11
30.77856007653776
 21
26.02836877838655
 31
0.0
  0
LINE
  5
169
330
2
100
AcDbEntity
  8
GAIKEI
  6
Continuous
 62
     1
100
AcDbLine
 10
30.8899574067782
 20
25.23249730386675
 30
0.0
 11
30.79415526206555
 21
25.92911556040252
 31
0.0
  0
LINE
  5
16A
330
2
100
AcDbEntity
  8
GAIKEI
  6
Continuous
 62
     1
100
AcDbLine
 10
30.96847151556455
 20
24.64744135889566
 30
0.0
 11
30.89722301894585
 21
25.16551968668716
 31
0.0
  0
LINE
  5
16B
330
2
100
AcDbEntity
  8
GAIKEI
  6
Continuous
 62
     1
100
AcDbLine
 10
30.87032912960382
 20
26.32160406371213
 30
0.0
 11
29.87398617786852
 21
26.53510613194175
 31
0.0
  0
LINE
  5
16C
330
2
100
AcDbEntity
  8
GAIKEI
  6
Continuous
 62
     1
100
AcDbLine
 10
30.77856007653776
 20
22.8511203011272
 30
0.0
 11
30.78309541280532
 21
22.88409883104884
 31
0.0
  0
LINE
  5
16D
330
2
100
AcDbEntity
  8
GAIKEI
  6
Continuous
 62
     1
100
AcDbLine
 10
30.90707979465441
 20
23.7856424271626
 30
0.0
 11
30.96847151556455
 21
24.23204772061808
 31
0.0
  0
LINE
  5
16E
330
2
100
AcDbEntity
  8
GAIKEI
  6
Continuous
 62
     1
100
AcDbLine
 10
30.79415526206555
 20
22.95037351911123
 30
0.0
 11
30.89981418248675
 21
23.71866480998296
 31
0.0
  0
LINE
  5
16F
330
2
100
AcDbEntity
  8
GAIKEI
  6
Continuous
 62
     1
100
AcDbLine
 10
31.2101874570746
 20
24.2883458890002
 30
0.0
 11
31.2101874570746
 21
24.59114319051355
 31
0.0
  0
LINE
  5
170
330
2
100
AcDbEntity
  8
GAIKEI
  6
Continuous
 62
     1
100
AcDbLine
 10
31.20150505236774
 20
24.71800412792533
 30
0.0
 11
31.00021460239196
 21
26.18167326513066
 31
0.0
  0
LINE
  5
171
330
2
100
AcDbEntity
  8
GAIKEI
  6
Continuous
 62
     1
100
AcDbLine
 10
31.00021460239196
 20
22.69781581438309
 30
0.0
 11
31.20150505236774
 21
24.16148495158842
 31
0.0
  0
LINE
  5
172
330
2
100
AcDbEntity
  8
GAIKEI
  6
Continuous
 62
     1
100
AcDbLine
 10
31.06626550390576
 20
22.68873220736538
 30
0.0
 11
31.31970746780718
 21
24.53161735507052
 31
0.0
  0
LINE
  5
173
330
2
100
AcDbEntity
  8
GAIKEI
  6
Continuous
 62
     1
100
AcDbLine
 10
29.9154686633097
 20
26.08025968854656
 30
0.0
 11
29.87322657704971
 21
26.08025968854656
 31
0.0
  0
LINE
  5
174
330
2
100
AcDbEntity
  8
GAIKEI
  6
Continuous
 62
     1
100
AcDbLine
 10
29.87322657704971
 20
22.79922939096719
 30
0.0
 11
29.9154686633097
 21
22.79922939096719
 31
0.0
  0
LINE
  5
175
330
2
100
AcDbEntity
  8
GAIKEI
  6
Continuous
 62
     1
100
AcDbLine
 10
29.9154686633097
 20
26.08025968854656
 30
0.0
 11
29.9154686633097
 21
22.79922939096719
 31
0.0
  0
LINE
  5
176
330
2
100
AcDbEntity
  8
GAIKEI
  6
Continuous
 62
     1
100
AcDbLine
 10
30.65128660247484
 20
26.14330775661205
 30
0.0
 11
29.98741898894781
 21
26.16649051624506
 31
0.0
  0
LINE
  5
177
330
2
100
AcDbEntity
  8
GAIKEI
  6
Continuous
 62
     1
100
AcDbLine
 10
29.98741898894781
 20
22.71299856326868
 30
0.0
 11
30.65128660247484
 21
22.7361813229017
 31
0.0
  0
SPLINE
  5
178
330
2
100
AcDbEntity
  8
GAIKEI
  6
Continuous
 62
     1
100
AcDbSpline
210
0.0
220
0.0
230
1.0
 70
     8
 71
     3
 72
    19
 73
    15
 74
    13
 42
0.0000000001
 43
0.0000000001
 44
0.000001
 12
0.0213842593146391
 22
0.9997713305819308
 32
0.0
 13
-0.1213258174957188
 23
0.9926127371785009
 33
0.0
 40
0.0
 40
0.0
 40
0.0
 40
0.0
 40
0.0113484976343809
 40
0.0224435594540293
 40
0.0331022403675116
 40
0.0433328148777797
 40
0.0530063883185571
 40
0.0665828207561142
 40
0.078504028538085
 40
0.0883020525193253
 40
0.0960449799608715
 40
0.0997746755133989
 40
0.1024788578005233
 40
0.1040675002433343
 40
0.1040675002433343
 40
0.1040675002433343
 40
0.1040675002433343
 10
28.47568868256349
 20
27.20095613455431
 30
0.0
 10
28.47576957563558
 20
27.20473810208097
 30
0.0
 10
28.47585978241841
 20
27.21221953794054
 30
0.0
 10
28.47573199221682
 20
27.22325342792101
 30
0.0
 10
28.47550964060792
 20
27.23391255109482
 30
0.0
 10
28.47525102144553
 20
27.2440968877811
 30
0.0
 10
28.47498209436856
 20
27.25525388262747
 30
0.0
 10
28.47481650138951
 20
27.26697675108329
 30
0.0
 10
28.47484601966645
 20
27.27874305727335
 30
0.0
 10
28.47511030508895
 20
27.28856060983901
 30
0.0
 10
28.47546407076092
 20
27.29564402124584
 30
0.0
 10
28.47570589342629
 20
27.30036026023333
 30
0.0
 10
28.47588131328237
 20
27.3030349635626
 30
0.0
 10
28.47575293034453
 20
27.3044636514993
 30
0.0
 10
28.47568868256349
 20
27.3049892870738
 30
0.0
 11
28.47568868256349
 21
27.20095613455431
 31
0.0
 11
28.4758145849338
 21
27.21230389447124
 31
0.0
 11
28.47571181423018
 21
27.22339847851003
 31
0.0
 11
28.47549745279542
 21
27.23405500153877
 31
0.0
 11
28.47524756751221
 21
27.24428252253153
 31
0.0
 11
28.47502582316963
 21
27.25395355361985
 31
0.0
 11
28.47484778946802
 21
27.26752881889536
 31
0.0
 11
28.47490001909625
 21
27.27944991301138
 31
0.0
 11
28.47516967070885
 21
27.28924422511056
 31
0.0
 11
28.47553204425856
 21
27.29697866272187
 31
0.0
 11
28.47573278358794
 21
27.30070293940162
 31
0.0
 11
28.47581651959956
 21
27.30340577279617
 31
0.0
 11
28.47568868256349
 21
27.3049892870738
 31
0.0
  0
SPLINE
  5
179
330
2
100
AcDbEntity
  8
GAIKEI
  6
Continuous
 62
     1
100
AcDbSpline
210
0.0
220
0.0
230
1.0
 70
     8
 71
     3
 72
    25
 73
    21
 74
    19
 42
0.0000000001
 43
0.0000000001
 44
0.000001
 12
0.5909511587252205
 22
-0.8067073372675615
 32
0.0
 13
-0.0272811889574892
 23
-0.999627799097777
 33
0.0
 40
0.0
 40
0.0
 40
0.0
 40
0.0
 40
0.0004955099168482
 40
0.0018178620006403
 40
0.0040907347726311
 40
0.0072755829690896
 40
0.0112339836522881
 40
0.0160079251330977
 40
0.0217345560386065
 40
0.0282471715097976
 40
0.0353831516206053
 40
0.0431870615596636
 40
0.0518586981817414
 40
0.0611185243132952
 40
0.0706522526823573
 40
0.0806167164363007
 40
0.0912501549405639
 40
0.1021898340907327
 40
0.1174982836899961
 40
0.1332424412969963
 40
0.1332424412969963
 40
0.1332424412969963
 40
0.1332424412969963
 10
28.51676179849227
 20
27.33082594657805
 30
0.0
 10
28.51685940587876
 20
27.3306927027495
 30
0.0
 10
28.5171853920105
 20
27.330164936237
 30
0.0
 10
28.51710192853764
 20
27.32874034375396
 30
0.0
 10
28.51722055490751
 20
27.32651605068151
 30
0.0
 10
28.51714379029494
 20
27.32336162553366
 30
0.0
 10
28.51709529383692
 20
27.31939573765891
 30
0.0
 10
28.51701055231678
 20
27.31457459724595
 30
0.0
 10
28.51693822902428
 20
27.30890474407914
 30
0.0
 10
28.51687999487609
 20
27.30244632785866
 30
0.0
 10
28.51685135509646
 20
27.29529559973912
 30
0.0
 10
28.51685259996509
 20
27.28742504671817
 30
0.0
 10
28.51688759784975
 20
27.27884665110088
 30
0.0
 10
28.51694852898373
 20
27.26969178275465
 30
0.0
 10
28.51702674695792
 20
27.26010609512338
 30
0.0
 10
28.51710589697029
 20
27.25006253199331
 30
0.0
 10
28.51716970598796
 20
27.23955017543972
 30
0.0
 10
28.51719247213003
 20
27.22725632232493
 30
0.0
 10
28.51712003344074
 20
27.21325872936558
 30
0.0
 10
28.51690497160516
 20
27.20290961055889
 30
0.0
 10
28.51676179849227
 20
27.19766351135309
 30
0.0
 11
28.51676179849227
 21
27.33082594657805
 31
0.0
 11
28.51700931147616
 21
27.33039660835499
 31
0.0
 11
28.51713882761846
 21
27.32908080522793
 31
0.0
 11
28.51717938045414
 21
27.32680832857727
 31
0.0
 11
28.51715494834503
 21
27.32362358961314
 31
0.0
 11
28.51709444938314
 21
27.31966565953923
 31
0.0
 11
28.51701867925704
 21
27.31489232438434
 31
0.0
 11
28.51694395565784
 21
27.30916618425147
 31
0.0
 11
28.51688610758504
 21
27.30265382784114
 31
0.0
 11
28.51685602416973
 21
27.29551791257597
 31
0.0
 11
28.51685643309077
 21
27.28771400368231
 31
0.0
 11
28.5168894451291
 21
27.27904243068053
 31
0.0
 11
28.51694925532229
 21
27.26978279832781
 31
0.0
 11
28.51702418793787
 21
27.2602493649095
 31
0.0
 11
28.51710027659408
 21
27.25028519203949
 31
0.0
 11
28.51716076336521
 21
27.23965192578623
 31
0.0
 11
28.51717814188885
 21
27.22871226032612
 31
0.0
 11
28.51708058334941
 21
27.21340411927804
 31
0.0
 11
28.51676179849227
 21
27.19766351135309
 31
0.0
  0
SPLINE
  5
17A
330
2
100
AcDbEntity
  8
GAIKEI
  6
Continuous
 62
     1
100
AcDbSpline
210
0.0
220
0.0
230
1.0
 70
     8
 71
     3
 72
    25
 73
    21
 74
    19
 42
0.0000000001
 43
0.0000000001
 44
0.000001
 12
0.0281905901065335
 22
-0.9996025663379647
 32
0.0
 13
-0.4008655609207862
 23
-0.9161368904632446
 33
0.0
 40
0.0
 40
0.0
 40
0.0
 40
0.0
 40
0.0108642250676759
 40
0.0216568857620597
 40
0.0326063958987586
 40
0.0433262346926789
 40
0.0534690969873035
 40
0.0632547433492164
 40
0.0728733530305173
 40
0.0819780700940561
 40
0.0903746034312981
 40
0.0981541992729033
 40
0.1054556263380812
 40
0.1119952017291717
 40
0.1175898577972302
 40
0.1223753842863807
 40
0.1264164536402065
 40
0.1295339844560163
 40
0.1322586066749778
 40
0.1332252651170569
 40
0.1332252651170569
 40
0.1332252651170569
 40
0.1332252651170569
 10
28.51676179849227
 20
3.46544062497071
 30
0.0
 10
28.51686388813084
 20
3.461820655884423
 30
0.0
 10
28.51703122176821
 20
3.454603444801136
 30
0.0
 10
28.51715463602406
 20
3.443735166389956
 30
0.0
 10
28.51719126069261
 20
3.432914478589282
 30
0.0
 10
28.51716299703361
 20
3.422310403337064
 30
0.0
 10
28.517099295979
 20
3.412094476821607
 30
0.0
 10
28.51702000977113
 20
3.402245755497801
 30
0.0
 10
28.51694408049127
 20
3.392743067536343
 30
0.0
 10
28.5168840619464
 20
3.383703308340898
 30
0.0
 10
28.51685263222601
 20
3.375276395684409
 30
0.0
 10
28.51685113064519
 20
3.367450549332602
 30
0.0
 10
28.51688376203976
 20
3.360243634025721
 30
0.0
 10
28.51694091723727
 20
3.353765620136698
 30
0.0
 10
28.51702206666829
 20
3.348125316410119
 30
0.0
 10
28.51708750155737
 20
3.343321506133747
 30
0.0
 10
28.51718945959374
 20
3.339333160140995
 30
0.0
 10
28.51711957466006
 20
3.336059100729698
 30
0.0
 10
28.51732648467129
 20
3.333739586982972
 30
0.0
 10
28.51689096518513
 20
3.3325733868989
 30
0.0
 10
28.51676179849227
 20
3.332278189745807
 30
0.0
 11
28.51676179849227
 21
3.46544062497071
 31
0.0
 11
28.51700931147616
 21
3.454579434992979
 31
0.0
 11
28.51713882761851
 21
3.443787549967225
 31
0.0
 11
28.51717938045414
 21
3.432838115103095
 31
0.0
 11
28.51715494834503
 21
3.422118304644357
 31
0.0
 11
28.51709444938314
 21
3.411975623346052
 31
0.0
 11
28.51701867925704
 21
3.402190270908192
 31
0.0
 11
28.51694395565784
 21
3.39257195210655
 31
0.0
 11
28.51688610758504
 21
3.383467419488795
 31
0.0
 11
28.51685602416973
 21
3.375070940830482
 31
0.0
 11
28.51685643309082
 21
3.367291345988405
 31
0.0
 11
28.5168894451291
 21
3.359989994961438
 31
0.0
 11
28.51694925532235
 21
3.353450695131698
 31
0.0
 11
28.51702418793787
 21
3.34785654397217
 31
0.0
 11
28.51710027659414
 21
3.343071627329095
 31
0.0
 11
28.51716076336527
 21
3.339031019448214
 31
0.0
 11
28.51717814188885
 21
3.335913554331625
 31
0.0
 11
28.51708058334941
 21
3.333190824832854
 31
0.0
 11
28.51676179849227
 21
3.332278189745807
 31
0.0
  0
SPLINE
  5
17B
330
2
100
AcDbEntity
  8
GAIKEI
  6
Continuous
 62
     1
100
AcDbSpline
210
0.0
220
0.0
230
1.0
 70
     8
 71
     3
 72
    41
 73
    37
 74
    35
 42
0.0000000001
 43
0.0000000001
 44
0.000001
 12
-0.4353819225186907
 22
-0.9002458450578536
 32
0.0
 13
-0.5598877767279204
 23
-0.8285684506850756
 33
0.0
 40
0.0
 40
0.0
 40
0.0
 40
0.0
 40
0.0014188981557056
 40
0.0056448915115627
 40
0.0126413138108251
 40
0.0164792481112114
 40
0.0208170576424766
 40
0.0256522187933588
 40
0.0309822866875077
 40
0.0368048965486523
 40
0.0431177647878326
 40
0.049918689828057
 40
0.0729057058812657
 40
0.1010164645422963
 40
0.1080304895441522
 40
0.1153021852384358
 40
0.1228314347323096
 40
0.1306181176540526
 40
0.138662110476646
 40
0.1469632867771895
 40
0.1555215174959823
 40
0.1642630739514725
 40
0.1739105775431464
 40
0.1844685114552522
 40
0.1959416628115507
 40
0.2083351588240362
 40
0.2238438276836505
 40
0.2405950042822295
 40
0.2556503340563184
 40
0.2671428071198749
 40
0.2750469816947843
 40
0.2819138388210853
 40
0.2964544164855166
 40
0.3382914855718927
 40
0.3781195110425401
 40
0.4161359202117565
 40
0.4161359202117565
 40
0.4161359202117565
 40
0.4161359202117565
 10
31.34169037356099
 20
6.642112091796093
 30
0.0
 10
31.34148445269204
 20
6.64168630607304
 30
0.0
 10
31.34066767210413
 20
6.639991170971711
 30
0.0
 10
31.33890023636613
 20
6.636165744039203
 30
0.0
 10
31.33684811914696
 20
6.631584102227293
 30
0.0
 10
31.33482595583775
 20
6.626948544505296
 30
0.0
 10
31.33311614685698
 20
6.622962810287788
 30
0.0
 10
31.33123797820622
 20
6.61850818396374
 30
0.0
 10
31.3291981507293
 20
6.613584701352124
 30
0.0
 10
31.32700317938839
 20
6.608192438538992
 30
0.0
 10
31.32466075080723
 20
6.602330997677199
 30
0.0
 10
31.32025864438816
 20
6.591131374830581
 30
0.0
 10
31.31351869806679
 20
6.573044945542221
 30
0.0
 10
31.30709998845657
 20
6.554767858793695
 30
0.0
 10
31.30252575258519
 20
6.54139646235501
 30
0.0
 10
31.30019402845119
 20
6.53450877200197
 30
0.0
 10
31.29780112836025
 20
6.527369922711159
 30
0.0
 10
31.29534771793954
 20
6.519979879870049
 30
0.0
 10
31.29283437271863
 20
6.512338649851415
 30
0.0
 10
31.2902616537138
 20
6.504446243080678
 30
0.0
 10
31.28763784514087
 20
6.496325956088639
 30
0.0
 10
31.28489673580503
 20
6.487771984102892
 30
0.0
 10
31.2819566138495
 20
6.478581835448267
 30
0.0
 10
31.27872995369074
 20
6.468527364809972
 30
0.0
 10
31.27520148942159
 20
6.457608446820756
 30
0.0
 10
31.27112708470392
 20
6.445131760757988
 30
0.0
 10
31.26645315371372
 20
6.431000041313666
 30
0.0
 10
31.26134283839372
 20
6.416078843940681
 30
0.0
 10
31.25653530191281
 20
6.402469824335071
 30
0.0
 10
31.25261415650693
 20
6.391675915741416
 30
0.0
 10
31.24957695788112
 20
6.383465034293976
 30
0.0
 10
31.24608237161695
 20
6.374340583325988
 30
0.0
 10
31.23823951395764
 20
6.354771373268135
 30
0.0
 10
31.22517354917147
 20
6.325461814799496
 30
0.0
 10
31.20659301411061
 20
6.290122816328562
 30
0.0
 10
31.19280111842221
 20
6.268111086103772
 30
0.0
 10
31.18570614415256
 20
6.257611353688446
 30
0.0
 11
31.34169037356099
 21
6.642112091796093
 31
0.0
 11
31.3410764791775
 21
6.640832861430737
 31
0.0
 11
31.33929414012778
 21
6.637001124136304
 31
0.0
 11
31.33643210681123
 21
6.630616879912736
 31
0.0
 11
31.33489685154035
 21
6.627099395573395
 31
0.0
 11
31.33318633651839
 21
6.623113083430666
 31
0.0
 11
31.33130738678028
 21
6.618657943484663
 31
0.0
 11
31.32926677709765
 21
6.613733975735385
 31
0.0
 11
31.32707122693444
 21
6.608341180182833
 31
0.0
 11
31.32472739569488
 21
6.602479556826949
 31
0.0
 11
31.32224187825779
 21
6.596149105667791
 31
0.0
 11
31.31417767381516
 21
6.574623097209951
 31
0.0
 11
31.30482838219666
 21
6.548112711089174
 31
0.0
 11
31.30255799245822
 21
6.541476333434843
 31
0.0
 11
31.3002259265104
 21
6.534588764736326
 31
0.0
 11
31.29783276446512
 21
6.527450004993625
 31
0.0
 11
31.29537909010946
 21
6.520060054206624
 31
0.0
 11
31.29286549077466
 21
6.51241891237538
 31
0.0
 11
31.29029255720605
 21
6.504526579499895
 31
0.0
 11
31.28766088343389
 21
6.496383055580167
 31
0.0
 11
31.28499052087398
 21
6.488059391340243
 31
0.0
 11
31.28204876111374
 21
6.47887137089657
 31
0.0
 11
31.27882091941172
 21
6.468818994249204
 31
0.0
 11
31.27529142067215
 21
6.457902261398032
 31
0.0
 11
31.27144383471023
 21
6.446121172343168
 31
0.0
 11
31.26655932721775
 21
6.43140181265727
 31
0.0
 11
31.26113395927536
 21
6.415553579221125
 31
0.0
 11
31.25611691719957
 21
6.401358791199982
 31
0.0
 11
31.2521942767263
 21
6.390556475211724
 31
0.0
 11
31.24944283910094
 21
6.383146631256238
 31
0.0
 11
31.2469876822924
 21
6.376733671858232
 31
0.0
 11
31.24158122317528
 21
6.363235567250569
 31
0.0
 11
31.22448508373413
 21
6.325050961775048
 31
0.0
 11
31.2058660288626
 21
6.289842890587635
 31
0.0
 11
31.18570614415256
 21
6.257611353688446
 31
0.0
  0
SPLINE
  5
17C
330
2
100
AcDbEntity
  8
GAIKEI
  6
Continuous
 62
     1
100
AcDbSpline
210
0.0
220
0.0
230
1.0
 70
     8
 71
     3
 72
    41
 73
    37
 74
    35
 42
0.0000000001
 43
0.0000000001
 44
0.000001
 12
0.0064747712617763
 22
0.9999790384488605
 32
0.0
 13
0.7486451432179164
 23
0.6629709266146034
 33
0.0
 40
0.0
 40
0.0
 40
0.0
 40
0.0
 40
0.00487972202932
 40
0.0095408573171051
 40
0.0141412567217309
 40
0.0164487246822307
 40
0.018769278778537
 40
0.0223290693966918
 40
0.0263636850181284
 40
0.0309350675743497
 40
0.0370166492812677
 40
0.0438225559119559
 40
0.0592497184656785
 40
0.0737747348064662
 40
0.0806057129627743
 40
0.0867323678927915
 40
0.092102193053617
 40
0.0967157812166504
 40
0.1005724437415716
 40
0.1036696750115085
 40
0.106104346592627
 40
0.1085083068790644
 40
0.1109974520350734
 40
0.1135749438028669
 40
0.1162400271326885
 40
0.1176035175536479
 40
0.1189706962060327
 40
0.1203341254549312
 40
0.1216923397903704
 40
0.1243862356734344
 40
0.1270369830950585
 40
0.1296268378283691
 40
0.1321361840472125
 40
0.1345438299926941
 40
0.1368271714864233
 40
0.1389621751957682
 40
0.1389621751957682
 40
0.1389621751957682
 40
0.1389621751957682
 10
31.34170495187931
 20
6.644316555086845
 30
0.0
 10
31.34171548357395
 20
6.645943095001086
 30
0.0
 10
31.34176893433033
 20
6.649123015245436
 30
0.0
 10
31.341898035963
 20
6.653835357194793
 30
0.0
 10
31.34213906610822
 20
6.657685277505493
 30
0.0
 10
31.3424241892472
 20
6.660748350935023
 30
0.0
 10
31.3427341539803
 20
6.663460199076382
 30
0.0
 10
31.3431990870067
 20
6.666732731735237
 30
0.0
 10
31.34385538643116
 20
6.670734857712659
 30
0.0
 10
31.34477329985557
 20
6.675544515902743
 30
0.0
 10
31.34604521732882
 20
6.68122485827132
 30
0.0
 10
31.34846095921194
 20
6.69035079823692
 30
0.0
 10
31.352381241719
 20
6.701979340309947
 30
0.0
 10
31.35732741182037
 20
6.713216205918058
 30
0.0
 10
31.36154654151568
 20
6.72134999833355
 30
0.0
 10
31.36456204008238
 20
6.726664599318894
 30
0.0
 10
31.36736721741988
 20
6.731244706276811
 30
0.0
 10
31.36988938382894
 20
6.735108202631977
 30
0.0
 10
31.37207340648354
 20
6.738286230766789
 30
0.0
 10
31.37389490029793
 20
6.740831155140426
 30
0.0
 10
31.37545767115603
 20
6.742965576165886
 30
0.0
 10
31.37693810153476
 20
6.744908606577951
 30
0.0
 10
31.37848413886369
 20
6.746860929430681
 30
0.0
 10
31.38012186305545
 20
6.748851103876006
 30
0.0
 10
31.38155248443735
 20
6.750525263447912
 30
0.0
 10
31.38273927881937
 20
6.751876743035381
 30
0.0
 10
31.38364928538522
 20
6.752893772303707
 30
0.0
 10
31.38456734362302
 20
6.753901158738585
 30
0.0
 10
31.38579499483365
 20
6.755224645066675
 30
0.0
 10
31.38733527850301
 20
6.756843304124686
 30
0.0
 10
31.38918869847663
 20
6.758730232555762
 30
0.0
 10
31.39102588226757
 20
6.760546473580234
 30
0.0
 10
31.39282925959828
 20
6.762281292255124
 30
0.0
 10
31.39457975868373
 20
6.763923423367486
 30
0.0
 10
31.39625801569824
 20
6.765459903861483
 30
0.0
 10
31.39735429780524
 20
6.7664434458826
 30
0.0
 10
31.39788708452448
 20
6.766915261011774
 30
0.0
 11
31.34170495187931
 21
6.644316555086845
 31
0.0
 11
31.34177796519293
 21
6.649195798283074
 31
0.0
 11
31.3419250522137
 21
6.653854622223207
 31
0.0
 11
31.34221667157203
 21
6.658445795476268
 31
0.0
 11
31.34243080188606
 21
6.660743321682048
 31
0.0
 11
31.34269452581543
 21
6.663048858463582
 31
0.0
 11
31.34318760854569
 21
6.666574364416476
 31
0.0
 11
31.34384162483332
 21
6.670555656091323
 31
0.0
 11
31.34469826806208
 21
6.675046100978022
 31
0.0
 11
31.34602727322357
 21
6.680980750738115
 31
0.0
 11
31.3477689282368
 21
6.687560096211655
 31
0.0
 11
31.35269761133793
 21
6.702178888648859
 31
0.0
 11
31.35854938830789
 21
6.715473068670007
 31
0.0
 11
31.36169351350179
 21
6.721537483866313
 31
0.0
 11
31.36471707233687
 21
6.726866111573087
 31
0.0
 11
31.36752152710125
 21
6.731445440233187
 31
0.0
 11
31.37004304673548
 21
6.735309022171236
 31
0.0
 11
31.37222714358336
 21
6.738487645588861
 31
0.0
 11
31.37402771898354
 21
6.741007727065152
 31
0.0
 11
31.3754691975343
 21
6.742969813617719
 31
0.0
 11
31.37692593035377
 21
6.744882137016475
 31
0.0
 11
31.37847104286101
 21
6.746833676526534
 31
0.0
 11
31.38010855799462
 21
6.748824166566464
 31
0.0
 11
31.38183957700278
 21
6.750850564964707
 31
0.0
 11
31.3827392962678
 21
6.751875076570172
 31
0.0
 11
31.38365091325653
 21
6.752893970423258
 31
0.0
 11
31.38456924425515
 21
6.753901750204249
 31
0.0
 11
31.38549287820888
 21
6.754897570882803
 31
0.0
 11
31.38734960899171
 21
6.756849409445408
 31
0.0
 11
31.38920683935931
 21
6.7587407584341
 31
0.0
 11
31.39104841456072
 21
6.760561743435175
 31
0.0
 11
31.39285665980179
 21
6.762301599289344
 31
0.0
 11
31.39461265627415
 21
6.763948796159638
 31
0.0
 11
31.39629643336241
 21
6.765491054014148
 31
0.0
 11
31.39788708452448
 21
6.766915261011774
 31
0.0
  0
SPLINE
  5
17D
330
2
100
AcDbEntity
  8
GAIKEI
  6
Continuous
 62
     1
100
AcDbSpline
210
0.0
220
0.0
230
1.0
 70
     8
 71
     3
 72
    28
 73
    24
 74
    22
 42
0.0000000001
 43
0.0000000001
 44
0.000001
 12
0.7217480328339719
 22
0.6921558907502644
 32
0.0
 13
0.9952109123015889
 23
0.097750908107491
 33
0.0
 40
0.0
 40
0.0
 40
0.0
 40
0.0
 40
0.0085574556742312
 40
0.0157612278669069
 40
0.0214927938014644
 40
0.0271056634999376
 40
0.0329787390915326
 40
0.0433389756415798
 40
0.054163300731754
 40
0.0646559634913413
 40
0.0722886488914606
 40
0.0796562109044733
 40
0.0829521424257026
 40
0.0858598682482622
 40
0.0883836539143155
 40
0.0905234199420033
 40
0.0914476423481332
 40
0.0930940134123498
 40
0.095031381015321
 40
0.098744002034942
 40
0.1025235815009032
 40
0.1066919450466396
 40
0.1110672556984457
 40
0.1110672556984457
 40
0.1110672556984457
 40
0.1110672556984457
 10
30.22069310371785
 20
4.016610499428566
 30
0.0
 10
30.22275187931749
 20
4.018584863880164
 30
0.0
 10
30.22663621297301
 20
4.022125711424564
 30
0.0
 10
30.23213074201902
 20
4.026726690855753
 30
0.0
 10
30.23704582222743
 20
4.030480040852864
 30
0.0
 10
30.24172670969472
 20
4.033802636236544
 30
0.0
 10
30.24780710106097
 20
4.037812157804012
 30
0.0
 10
30.25557567039971
 20
4.042406830434458
 30
0.0
 10
30.26499418217654
 20
4.047195191514106
 30
0.0
 10
30.27384583034177
 20
4.051052641211242
 30
0.0
 10
30.28179791409659
 20
4.05405367857287
 30
0.0
 10
30.28758198436296
 20
4.055993764364245
 30
0.0
 10
30.29192076104354
 20
4.057275724776161
 30
0.0
 10
30.29473147269994
 20
4.058027319454822
 30
0.0
 10
30.29718484619986
 20
4.058620169079802
 30
0.0
 10
30.29900511511562
 20
4.059015762927742
 30
0.0
 10
30.30054493929379
 20
4.059322902007693
 30
0.0
 10
30.30202353147806
 20
4.059591109743223
 30
0.0
 10
30.30441982654969
 20
4.06000703213067
 30
0.0
 10
30.30752357073507
 20
4.060504446115203
 30
0.0
 10
30.31137059428198
 20
4.06106047300193
 30
0.0
 10
30.31544546665148
 20
4.061580809776842
 30
0.0
 10
30.31827695992877
 20
4.06188807393687
 30
0.0
 10
30.31972841223057
 20
4.062030637466705
 30
0.0
 11
30.22069310371785
 21
4.016610499428566
 31
0.0
 11
30.22701206061817
 21
4.02238151384995
 31
0.0
 11
30.23254409078123
 21
4.026995716597582
 31
0.0
 11
30.23709673824169
 21
4.030477791322596
 31
0.0
 11
30.24167328060832
 21
4.03372743442901
 31
0.0
 11
30.24657650725044
 21
4.036960383090786
 31
0.0
 11
30.2554939032143
 21
4.042234492463364
 31
0.0
 11
30.26513892568465
 21
4.047147838964917
 31
0.0
 11
30.27475759293157
 21
4.051340394626436
 31
0.0
 11
30.28189672615389
 21
4.054040493575712
 31
0.0
 11
30.2888871213305
 21
4.056367560992839
 31
0.0
 11
30.29204877340675
 21
4.057298762562083
 31
0.0
 11
30.29485799966864
 21
4.058049195026626
 31
0.0
 11
30.29731143276035
 21
4.05864096618194
 31
0.0
 11
30.29940260077677
 21
4.059094444316201
 31
0.0
 11
30.30030903806244
 21
4.059274898536443
 31
0.0
 11
30.30192822071473
 21
4.059572893458891
 31
0.0
 11
30.30383709135794
 21
4.059903992693989
 31
0.0
 11
30.30750276913534
 21
4.06049257867869
 31
0.0
 11
30.31124350696712
 21
4.061033106130821
 31
0.0
 11
30.31537840370612
 21
4.061560328474058
 31
0.0
 11
30.31972841223057
 21
4.062030637466705
 31
0.0
  0
SPLINE
  5
17E
330
2
100
AcDbEntity
  8
GAIKEI
  6
Continuous
 62
     1
100
AcDbSpline
210
0.0
220
0.0
230
1.0
 70
     8
 71
     3
 72
    29
 73
    25
 74
    23
 42
0.0000000001
 43
0.0000000001
 44
0.000001
 12
-0.7526510322232209
 22
0.6584196410294276
 32
0.0
 13
-0.2875771477137425
 23
0.9577574766676731
 33
0.0
 40
0.0
 40
0.0
 40
0.0
 40
0.0
 40
0.0006178609696738
 40
0.0025238280919249
 40
0.0057516774460679
 40
0.0103542765095658
 40
0.0162722171498255
 40
0.0234867232101181
 40
0.0319681323428855
 40
0.0417098918669484
 40
0.0526991513234833
 40
0.0647415419930005
 40
0.0778782946105663
 40
0.0920789904186989
 40
0.1103097290039156
 40
0.1297009403755489
 40
0.1502086033981931
 40
0.1717154207143364
 40
0.1940021147980726
 40
0.2166743733353416
 40
0.2399436692024235
 40
0.2637847006266249
 40
0.2881156005156518
 40
0.3127859900064943
 40
0.3127859900064943
 40
0.3127859900064943
 40
0.3127859900064943
 10
31.04304406105575
 20
6.469242929478127
 30
0.0
 10
31.04288904982354
 20
6.469378533410747
 30
0.0
 10
31.04228045773792
 20
6.46997501533076
 30
0.0
 10
31.04168052074394
 20
6.471858757666836
 30
0.0
 10
31.04039909705946
 20
6.474807730731754
 30
0.0
 10
31.03887744725142
 20
6.479148139553501
 30
0.0
 10
31.03691061049909
 20
6.484716217700338
 30
0.0
 10
31.03460160913036
 20
6.491543453150484
 30
0.0
 10
31.03192395902238
 20
6.499587935775593
 30
0.0
 10
31.02889507660027
 20
6.508842684081855
 30
0.0
 10
31.0255336641375
 20
6.519237074838656
 30
0.0
 10
31.02185800682657
 20
6.530719275975116
 30
0.0
 10
31.0178860392833
 20
6.543230530674691
 30
0.0
 10
31.01331967883451
 20
6.557717298847592
 30
0.0
 10
31.00815890008659
 20
6.574202602652746
 30
0.0
 10
31.00240350776602
 20
6.592704657372792
 30
0.0
 10
30.99635468986821
 20
6.612259048662281
 30
0.0
 10
30.99004952557763
 20
6.632744402863352
 30
0.0
 10
30.98355911525749
 20
6.653927656022176
 30
0.0
 10
30.97692187292063
 20
6.675680354224141
 30
0.0
 10
30.97015723897431
 20
6.69793586195658
 30
0.0
 10
30.96325502483788
 20
6.720727394191044
 30
0.0
 10
30.95623932250774
 20
6.743972524408434
 30
0.0
 10
30.95153599368135
 20
6.759614474693762
 30
0.0
 10
30.94917111360042
 20
6.767490558022814
 30
0.0
 11
31.04304406105575
 21
6.469242929478127
 31
0.0
 11
31.04261244975885
 21
6.469685105141365
 31
0.0
 11
31.04179987162706
 21
6.471409008148725
 31
0.0
 11
31.04060868974449
 21
6.474408997246939
 31
0.0
 11
31.03902339324282
 21
6.478729950491356
 31
0.0
 11
31.03706607807601
 21
6.484314827302569
 31
0.0
 11
31.03474296882752
 21
6.49114506801402
 31
0.0
 11
31.03206368249795
 21
6.49919215846296
 31
0.0
 11
31.02903037384613
 21
6.508449634637258
 31
0.0
 11
31.025647429542
 21
6.518905229595418
 31
0.0
 11
31.02197444645822
 21
6.530373809695561
 31
0.0
 11
31.01799830633547
 21
6.542894374579077
 31
0.0
 11
31.01372823637195
 21
6.556437868727698
 31
0.0
 11
31.00828038249279
 21
6.573835589259147
 31
0.0
 11
31.00251962590062
 21
6.592351332004113
 31
0.0
 11
30.99645843836981
 21
6.611942815356371
 31
0.0
 11
30.99013112058333
 21
6.632497819996387
 31
0.0
 11
30.98360168983794
 21
6.653806579826607
 31
0.0
 11
30.97698460274035
 21
6.675491723282902
 31
0.0
 11
30.97021722763145
 21
6.697755207903242
 31
0.0
 11
30.96330672874149
 21
6.720572739956196
 31
0.0
 11
30.95627683625469
 21
6.743865942520869
 31
0.0
 11
30.94917111360042
 21
6.767490558022814
 31
0.0
  0
SPLINE
  5
17F
330
2
100
AcDbEntity
  8
GAIKEI
  6
Continuous
 62
     1
100
AcDbSpline
210
0.0
220
0.0
230
1.0
 70
     8
 71
     3
 72
    11
 73
     7
 74
     5
 42
0.0000000001
 43
0.0000000001
 44
0.000001
 12
0.1117045080192779
 22
-0.9937414668253364
 32
0.0
 13
0.1717596663978053
 23
-0.98513888208664
 33
0.0
 40
0.0
 40
0.0
 40
0.0
 40
0.0
 40
0.000159908622413
 40
0.0092970523466739
 40
0.0172856571480201
 40
0.022356277475746
 40
0.022356277475746
 40
0.022356277475746
 40
0.022356277475746
 10
29.91652112868076
 20
22.78959802748409
 30
0.0
 10
29.9165270828521
 20
22.78954505820775
 30
0.0
 10
29.91687327350476
 20
22.78646543735641
 30
0.0
 10
29.91754119659475
 20
22.78074246271001
 30
0.0
 10
29.91849965669942
 20
22.77340497789078
 30
0.0
 10
29.91920414467845
 20
22.76910873279673
 30
0.0
 10
29.91949445403043
 20
22.76744364438304
 30
0.0
 11
29.91652112868076
 21
22.78959802748409
 31
0.0
 11
29.9165390056171
 21
22.78943912208502
 31
0.0
 11
29.91760867060737
 21
22.78036497675771
 31
0.0
 11
29.9186772643277
 21
22.77244808986598
 31
0.0
 11
29.91949445403043
 21
22.76744364438304
 31
0.0
  0
SPLINE
  5
180
330
2
100
AcDbEntity
  8
GAIKEI
  6
Continuous
 62
     1
100
AcDbSpline
210
0.0
220
0.0
230
1.0
 70
     8
 71
     3
 72
    15
 73
    11
 74
     9
 42
0.0000000001
 43
0.0000000001
 44
0.000001
 12
0.9994496190759601
 22
0.0331731657958403
 32
0.0
 13
0.134530790036436
 23
0.9909094138881577
 33
0.0
 40
0.0
 40
0.0
 40
0.0
 40
0.0
 40
0.0233153785981896
 40
0.0466018528889784
 40
0.0698679735041517
 40
0.0931236945379194
 40
0.1163794155718389
 40
0.1396455361869386
 40
0.1629320104776406
 40
0.1862473890757375
 40
0.1862473890757375
 40
0.1862473890757375
 40
0.1862473890757375
 10
30.65128659565937
 20
22.73618131521875
 30
0.0
 10
30.65905411107889
 20
22.73643913019203
 30
0.0
 10
30.67457116669288
 20
22.73828950992333
 30
0.0
 10
30.69696356028646
 20
22.74509926532215
 30
0.0
 10
30.71781140331436
 20
22.75570501016551
 30
0.0
 10
30.73647156144426
 20
22.7697901536215
 30
0.0
 10
30.75237943518033
 20
22.78692293859137
 30
0.0
 10
30.76504814604647
 20
22.80658554644441
 30
0.0
 10
30.77409740808918
 20
22.82817033080562
 30
0.0
 10
30.77751451786369
 20
22.84341914324676
 30
0.0
 10
30.77856006329796
 20
22.85112028596052
 30
0.0
 11
30.65128659565937
 21
22.73618131521875
 31
0.0
 11
30.67443587241235
 21
22.73896362298433
 31
0.0
 11
30.69671616693319
 21
22.74573483899178
 31
0.0
 11
30.71745188049806
 21
22.75628680674208
 31
0.0
 11
30.73601358597432
 21
22.77029727601695
 31
0.0
 11
30.75183717050288
 21
22.78733970343097
 31
0.0
 11
30.76444099178531
 21
22.80689622483754
 31
0.0
 11
30.77344052620629
 21
22.82837340506114
 31
0.0
 11
30.77856006329796
 21
22.85112028596052
 31
0.0
  0
SPLINE
  5
181
330
2
100
AcDbEntity
  8
GAIKEI
  6
Continuous
 62
     1
100
AcDbSpline
210
0.0
220
0.0
230
1.0
 70
     8
 71
     3
 72
    13
 73
     9
 74
     7
 42
0.0000000001
 43
0.0000000001
 44
0.000001
 12
-0.999877353382941
 22
0.0156613598364006
 32
0.0
 13
-0.9488110788832816
 23
-0.3158441650376698
 33
0.0
 40
0.0
 40
0.0
 40
0.0
 40
0.0
 40
0.0035193495400884
 40
0.0069366593676427
 40
0.0102686576436282
 40
0.0135328649839218
 40
0.0199316755031158
 40
0.0230409896072746
 40
0.0230409896072746
 40
0.0230409896072746
 40
0.0230409896072746
 10
29.98741898911942
 20
26.16649053195607
 30
0.0
 10
29.98624601648484
 20
26.16650890455594
 30
0.0
 10
29.98393314503307
 20
26.16649970103788
 30
0.0
 10
29.98051241758418
 20
26.16635678813282
 30
0.0
 10
29.97718531068841
 20
26.16607374740545
 30
0.0
 10
29.97289027468421
 20
26.16550291845744
 30
0.0
 10
29.9687155828579
 20
26.16461817726707
 30
0.0
 10
29.9656809317257
 20
26.16369872600984
 30
0.0
 10
29.96469754783579
 20
26.16337137310416
 30
0.0
 11
29.98741898911942
 21
26.16649053195607
 31
0.0
 11
29.98390059325476
 21
26.16647671176827
 31
0.0
 11
29.98048635995599
 21
26.16633126563147
 31
0.0
 11
29.9771664232411
 21
26.16604619051356
 31
0.0
 11
29.97393091712786
 21
26.16561348338223
 31
0.0
 11
29.96767373277839
 21
26.16427316095025
 31
0.0
 11
29.96469754783579
 21
26.16337137310416
 31
0.0
  0
SPLINE
  5
182
330
2
100
AcDbEntity
  8
GAIKEI
  6
Continuous
 62
     1
100
AcDbSpline
210
0.0
220
0.0
230
1.0
 70
     8
 71
     3
 72
    27
 73
    23
 74
    21
 42
0.0000000001
 43
0.0000000001
 44
0.000001
 12
0.076512265488583
 22
0.9970686401797044
 32
0.0
 13
0.9552657900996008
 23
0.2957486606316001
 33
0.0
 40
0.0
 40
0.0
 40
0.0
 40
0.0
 40
0.0049081096673038
 40
0.0071949186294766
 40
0.0093538447207483
 40
0.0140218595453271
 40
0.016886388785584
 40
0.0201057702735508
 40
0.0249374265709256
 40
0.0303592006904423
 40
0.0363136033730595
 40
0.0449355480795268
 40
0.052621057392702
 40
0.0587210726899839
 40
0.0641083993651844
 40
0.0689597463310587
 40
0.0735065916914207
 40
0.0777817551463541
 40
0.0817588340345144
 40
0.0856007268680649
 40
0.0893264960170647
 40
0.092960275986809
 40
0.092960275986809
 40
0.092960275986809
 40
0.092960275986809
 10
29.91604497435742
 20
26.09042984236874
 30
0.0
 10
29.91617015122071
 20
26.0920610831127
 30
0.0
 10
29.91634088573039
 20
26.09445390865756
 30
0.0
 10
29.91645383358886
 20
26.09757001079703
 30
0.0
 10
29.91670049588089
 20
26.10059968018345
 30
0.0
 10
29.91726896200072
 20
26.10378599981209
 30
0.0
 10
29.91806832235267
 20
26.1072796891612
 30
0.0
 10
29.91903687307192
 20
26.11078844736278
 30
0.0
 10
29.92045669250308
 20
26.11505180442259
 30
0.0
 10
29.9224835904376
 20
26.12006444398253
 30
0.0
 10
29.92540862926844
 20
26.12605908336144
 30
0.0
 10
29.92908197033396
 20
26.13251438146563
 30
0.0
 10
29.93322573452599
 20
26.13873613186559
 30
0.0
 10
29.93712518481556
 20
26.14380529184399
 30
0.0
 10
29.94072039068561
 20
26.14790083410071
 30
0.0
 10
29.94419600521971
 20
26.15140015839438
 30
0.0
 10
29.94763398508871
 20
26.15439866622433
 30
0.0
 10
29.95103758358715
 20
26.15697557772126
 30
0.0
 10
29.95441757591123
 20
26.15918288949143
 30
0.0
 10
29.95786064639407
 20
26.16092116475835
 30
0.0
 10
29.96134808547351
 20
26.162262493073
 30
0.0
 10
29.96367000599889
 20
26.16305623535806
 30
0.0
 10
29.96482708123017
 20
26.16341446387776
 30
0.0
 11
29.91604497435742
 21
26.09042984236874
 31
0.0
 11
29.91636306817463
 21
26.09532751735674
 31
0.0
 11
29.91647201114995
 21
26.0976117382233
 31
0.0
 11
29.91665315760167
 21
26.09976304179088
 31
0.0
 11
29.91741914394584
 21
26.10436769965486
 31
0.0
 11
29.9180603658611
 21
26.1071594617332
 31
0.0
 11
29.91891430778157
 21
26.11026341826681
 31
0.0
 11
29.92043845269563
 21
26.1148482040303
 31
0.0
 11
29.92247116145802
 21
26.11987435466375
 31
0.0
 11
29.92506371896855
 21
26.12523470440704
 31
0.0
 11
29.92932721208592
 21
26.1327288225533
 31
0.0
 11
29.93359796445179
 21
26.13911850327219
 31
0.0
 11
29.93732400917702
 21
26.14394825919186
 31
0.0
 11
29.94088076169368
 21
26.14799453355715
 31
0.0
 11
29.9443082809247
 21
26.15142775317008
 31
0.0
 11
29.94773575865577
 21
26.15441528501026
 31
0.0
 11
29.95114603239847
 21
26.15699333736592
 31
0.0
 11
29.95449232701174
 21
26.15914310727544
 31
0.0
 11
29.95791999015057
 21
26.16087907237159
 31
0.0
 11
29.96138372870337
 21
26.16225161440281
 31
0.0
 11
29.96482708123017
 21
26.16341446387776
 31
0.0
  0
SPLINE
  5
183
330
2
100
AcDbEntity
  8
GAIKEI
  6
Continuous
 62
     1
100
AcDbSpline
210
0.0
220
0.0
230
1.0
 70
     8
 71
     3
 72
     9
 73
     5
 74
     3
 42
0.0000000001
 43
0.0000000001
 44
0.000001
 12
-0.1110702931717985
 22
-0.9938125527355401
 32
0.0
 13
-0.0037416002969241
 23
-0.9999930001891105
 33
0.0
 40
0.0
 40
0.0
 40
0.0
 40
0.0
 40
0.0014819459234957
 40
0.0103546008421243
 40
0.0103546008421243
 40
0.0103546008421243
 40
0.0103546008421243
 10
29.91606327438615
 20
26.09059536091365
 30
0.0
 10
29.91600840766341
 20
26.09010443542655
 30
0.0
 10
29.91565159000393
 20
26.08667149424486
 30
0.0
 10
29.91547974368842
 20
26.08321721780959
 30
0.0
 10
29.91546867771234
 20
26.08025968687235
 30
0.0
 11
29.91606327438615
 21
26.09059536091365
 31
0.0
 11
29.91591003422275
 21
26.08912151851604
 31
0.0
 11
29.91546867771234
 21
26.08025968687235
 31
0.0
  0
SPLINE
  5
184
330
2
100
AcDbEntity
  8
GAIKEI
  6
Continuous
 62
     1
100
AcDbSpline
210
0.0
220
0.0
230
1.0
 70
     8
 71
     3
 72
     9
 73
     5
 74
     3
 42
0.0000000001
 43
0.0000000001
 44
0.000001
 12
0.0037801567420873
 22
-0.9999928551819785
 32
0.0
 13
0.1113488517851972
 23
-0.993781380991875
 33
0.0
 40
0.0
 40
0.0
 40
0.0
 40
0.0
 40
0.0089265387507516
 40
0.0103706013120063
 40
0.0103706013120063
 40
0.0103706013120063
 40
0.0103706013120063
 10
29.91546867771234
 20
22.79922939264145
 30
0.0
 10
29.91547992561755
 20
22.79625390098403
 30
0.0
 10
29.91565324516992
 20
22.79279424156539
 30
0.0
 10
29.91601223703748
 20
22.78935616919523
 30
0.0
 10
29.91606583527352
 20
22.78887780836647
 30
0.0
 11
29.91546867771234
 21
22.79922939264145
 31
0.0
 11
29.91591583492414
 21
22.79031390443538
 31
0.0
 11
29.91606583527352
 21
22.78887780836647
 31
0.0
  0
SPLINE
  5
185
330
2
100
AcDbEntity
  8
GAIKEI
  6
Continuous
 62
     1
100
AcDbSpline
210
0.0
220
0.0
230
1.0
 70
     8
 71
     3
 72
    27
 73
    23
 74
    21
 42
0.0000000001
 43
0.0000000001
 44
0.000001
 12
-0.9535249561077124
 22
0.3013140522441413
 32
0.0
 13
-0.0768695003212578
 23
0.9970411626008027
 33
0.0
 40
0.0
 40
0.0
 40
0.0
 40
0.0
 40
0.0058739979649093
 40
0.012423620427095
 40
0.0197818398251396
 40
0.0278973743687731
 40
0.0358503791856226
 40
0.0433983327956481
 40
0.0464908188593784
 40
0.0498285563935546
 40
0.053504292279342
 40
0.0575234463291947
 40
0.0618893905707034
 40
0.0664803658392908
 40
0.0707679492522647
 40
0.0742103199826503
 40
0.0773515146809685
 40
0.0801844570514161
 40
0.0827251027315928
 40
0.0852229030852013
 40
0.0877452409019394
 40
0.0928258952680688
 40
0.0928258952680688
 40
0.0928258952680688
 40
0.0928258952680688
 10
29.96482804360386
 20
22.71607621667539
 30
0.0
 10
29.96296104238664
 20
22.71666618938531
 30
0.0
 10
29.95907773280547
 20
22.71812795890446
 30
0.0
 10
29.95317800210177
 20
22.7211112451094
 30
0.0
 10
29.94715092327869
 20
22.72535060169952
 30
0.0
 10
29.94143456090995
 20
22.73070157498216
 30
0.0
 10
29.93630836646838
 20
22.7366934184426
 30
0.0
 10
29.93274798977726
 20
22.74177746679493
 30
0.0
 10
29.93030013699735
 20
22.7457423492935
 30
0.0
 10
29.92858966967256
 20
22.74864477167512
 30
0.0
 10
29.92679739188381
 20
22.75185639156365
 30
0.0
 10
29.92492231415793
 20
22.75541314373754
 30
0.0
 10
29.92300042067507
 20
22.75928822265337
 30
0.0
 10
29.92113021525222
 20
22.76328901365048
 30
0.0
 10
29.91962513737858
 20
22.76711358666955
 30
0.0
 10
29.91849964843158
 20
22.77055996658498
 30
0.0
 10
29.91769658813854
 20
22.77359617729207
 30
0.0
 10
29.91712710617483
 20
22.77637810540256
 30
0.0
 10
29.91673989437999
 20
22.7789746884838
 30
0.0
 10
29.91652184213644
 20
22.78148676085277
 30
0.0
 10
29.9163628306585
 20
22.7848500517681
 30
0.0
 10
29.91617514343392
 20
22.78737777408293
 30
0.0
 10
29.91604496097977
 20
22.78906631459495
 30
0.0
 11
29.96482804360386
 21
22.71607621667539
 31
0.0
 11
29.95932779021416
 21
22.71814087490202
 31
0.0
 11
29.9534940819201
 21
22.72111836998607
 31
0.0
 11
29.94746137252685
 21
22.72533132469897
 31
0.0
 11
29.94150509994426
 21
22.73084336909233
 31
0.0
 11
29.93632472783884
 21
22.73687764045712
 31
0.0
 11
29.93198252860674
 21
22.74305143077481
 31
0.0
 11
29.93035192520983
 21
22.74567905891752
 31
0.0
 11
29.92865781667502
 21
22.74855488897583
 31
0.0
 11
29.92686556648152
 21
22.75176408481349
 31
0.0
 11
29.92499044383249
 21
22.75531906297584
 31
0.0
 11
29.92304824943773
 21
22.75922932104845
 31
0.0
 11
29.92113196584842
 21
22.76340123555036
 31
0.0
 11
29.91956529482303
 21
22.76739211946199
 31
0.0
 11
29.91850034641294
 21
22.77066544994057
 31
0.0
 11
29.91769970197277
 21
22.77370279060665
 31
0.0
 11
29.91713298009512
 21
22.7764784099167
 31
0.0
 11
29.91676286241261
 21
22.77899192203296
 31
0.0
 11
29.91653782847277
 21
22.78147955655339
 31
0.0
 11
29.91639462285519
 21
22.78399783702764
 31
0.0
 11
29.91604496097977
 21
22.78906631459495
 31
0.0
  0
SPLINE
  5
186
330
2
100
AcDbEntity
  8
GAIKEI
  6
Continuous
 62
     1
100
AcDbSpline
210
0.0
220
0.0
230
1.0
 70
     8
 71
     3
 72
    13
 73
     9
 74
     7
 42
0.0000000001
 43
0.0000000001
 44
0.000001
 12
0.9487139982427795
 22
-0.3161356505334366
 32
0.0
 13
0.9998801064241472
 23
0.0154845980650528
 33
0.0
 40
0.0
 40
0.0
 40
0.0
 40
0.0
 40
0.0032281630019891
 40
0.0096478713636456
 40
0.0129156519903829
 40
0.0162409066153344
 40
0.0196368648975113
 40
0.0231158048284822
 40
0.0231158048284822
 40
0.0231158048284822
 40
0.0231158048284822
 10
29.96462567424174
 20
22.7161435133454
 30
0.0
 10
29.96564654205128
 20
22.71580333420849
 30
0.0
 10
29.96872640080039
 20
22.71487185554304
 30
0.0
 10
29.97294919302715
 20
22.71398381168399
 30
0.0
 10
29.97725036619243
 20
22.71341463806181
 30
0.0
 10
29.98056932977579
 20
22.71313258998651
 30
0.0
 10
29.98396720330303
 20
22.71298983820122
 30
0.0
 10
29.98625948150993
 20
22.71298059089554
 30
0.0
 10
29.98741898911942
 20
22.71299854755773
 30
0.0
 11
29.96462567424174
 21
22.7161435133454
 31
0.0
 11
29.96771614996726
 21
22.71520903630676
 31
0.0
 11
29.97399560752024
 21
22.71387275542338
 31
0.0
 11
29.9772349297649
 21
22.71344161779393
 31
0.0
 11
29.98054817196032
 21
22.71315762997301
 31
0.0
 11
29.98394097733547
 21
22.71301265291084
 31
0.0
 11
29.98741898911942
 21
22.71299854755773
 31
0.0
  0
SPLINE
  5
187
330
2
100
AcDbEntity
  8
GAIKEI
  6
Continuous
 62
     1
100
AcDbSpline
210
0.0
220
0.0
230
1.0
 70
     8
 71
     3
 72
    15
 73
    11
 74
     9
 42
0.0000000001
 43
0.0000000001
 44
0.000001
 12
-0.1345307900367005
 22
0.990909413888122
 32
0.0
 13
-0.9994496190759491
 23
0.0331731657961701
 33
0.0
 40
0.0
 40
0.0
 40
0.0
 40
0.0
 40
0.0233153785982079
 40
0.0466018528890062
 40
0.0698679735041675
 40
0.0931236945380871
 40
0.1163794155718658
 40
0.1396455361869626
 40
0.1629320104776262
 40
0.1862473890756961
 40
0.1862473890756961
 40
0.1862473890756961
 40
0.1862473890756961
 10
30.77856006329796
 20
26.02836879355334
 30
0.0
 10
30.77751451786369
 20
26.0360699362671
 30
0.0
 10
30.77409740808923
 20
26.0513187487083
 30
0.0
 10
30.76504814604638
 20
26.07290353306962
 30
0.0
 10
30.75237943518005
 20
26.09256614092271
 30
0.0
 10
30.73647156144415
 20
26.10969892589242
 30
0.0
 10
30.71781140331399
 20
26.12378406934852
 30
0.0
 10
30.69696356028635
 20
26.13438981419176
 30
0.0
 10
30.67457116669277
 20
26.14119956959064
 30
0.0
 10
30.65905411107886
 20
26.14304994932178
 30
0.0
 10
30.65128659565937
 20
26.14330776429506
 30
0.0
 11
30.77856006329796
 21
26.02836879355334
 31
0.0
 11
30.77344052620629
 21
26.05111567445283
 31
0.0
 11
30.7644409917852
 21
26.07259285467649
 31
0.0
 11
30.75183717050265
 21
26.09214937608306
 31
0.0
 11
30.7360135859741
 21
26.10919180349708
 31
0.0
 11
30.71745188049778
 21
26.12320227277189
 31
0.0
 11
30.69671616693296
 21
26.13375424052214
 31
0.0
 11
30.67443587241224
 21
26.14052545652953
 31
0.0
 11
30.65128659565937
 21
26.14330776429506
 31
0.0
  0
SPLINE
  5
188
330
2
100
AcDbEntity
  8
GAIKEI
  6
Continuous
 62
     1
100
AcDbSpline
210
0.0
220
0.0
230
1.0
 70
     8
 71
     3
 72
    21
 73
    17
 74
    15
 42
0.0000000001
 43
0.0000000001
 44
0.000001
 12
0.978004482629762
 22
0.2085838727133314
 32
0.0
 13
0.1354487900196674
 23
0.9907843485250502
 33
0.0
 40
0.0
 40
0.0
 40
0.0
 40
0.0
 40
0.0199215087762693
 40
0.0395198938738619
 40
0.0588087415335097
 40
0.0777961773045403
 40
0.0964872829742322
 40
0.1148865293641015
 40
0.1329997522067936
 40
0.1508345262551026
 40
0.1741839345165429
 40
0.1970597141137849
 40
0.2194690949709
 40
0.2414165726699513
 40
0.2629089085025964
 40
0.28395803356814
 40
0.28395803356814
 40
0.28395803356814
 40
0.28395803356814
 10
30.88414330262271
 20
22.49341887826279
 30
0.0
 10
30.89063774425068
 20
22.49480398007972
 30
0.0
 10
30.90341016531883
 20
22.49810815804142
 30
0.0
 10
30.92191608793709
 20
22.50464137317852
 30
0.0
 10
30.93952924562581
 20
22.51256573051671
 30
0.0
 10
30.95617060978651
 20
22.5217547621711
 30
0.0
 10
30.97177287675834
 20
22.53208565545168
 30
0.0
 10
30.98627554725994
 20
22.54344259511567
 30
0.0
 10
30.99962749683971
 20
22.55571450774136
 30
0.0
 10
31.01309164644118
 20
22.57021163833213
 30
0.0
 10
31.02617232053638
 20
22.58713820525134
 30
0.0
 10
31.03831127843032
 20
22.60657299655514
 30
0.0
 10
31.0483079191275
 20
22.62666898623866
 30
0.0
 10
31.0561951823218
 20
22.64718739468503
 30
0.0
 10
31.06201927847966
 20
22.6679104654113
 30
0.0
 10
31.06457911480465
 20
22.68188170955278
 30
0.0
 10
31.06552947431169
 20
22.68883342410783
 30
0.0
 11
30.88414330262271
 21
22.49341887826279
 31
0.0
 11
30.90342984173572
 21
22.49841046941515
 31
0.0
 11
30.92191199806962
 21
22.50493018014555
 31
0.0
 11
30.93950297662866
 21
22.51284328074718
 31
0.0
 11
30.95612492491568
 21
22.522021171527
 31
0.0
 11
30.97170867426729
 21
22.53234126938662
 31
0.0
 11
30.98619347394242
 21
22.54368689334751
 31
0.0
 11
30.99952671825651
 21
22.55594714842346
 31
0.0
 11
31.01166361068749
 21
22.56901525632662
 31
0.0
 11
31.02594743307941
 21
22.58748599159389
 31
0.0
 11
31.03806892488916
 21
22.60688628160488
 31
0.0
 11
31.0480500599607
 21
22.62695011938626
 31
0.0
 11
31.05592371732553
 21
22.64743663773163
 31
0.0
 11
31.06173281729758
 21
22.66812902728105
 31
0.0
 11
31.06552947431169
 21
22.68883342410783
 31
0.0
  0
SPLINE
  5
189
330
2
100
AcDbEntity
  8
GAIKEI
  6
Continuous
 62
     1
100
AcDbSpline
210
0.0
220
0.0
230
1.0
 70
     8
 71
     3
 72
    15
 73
    11
 74
     9
 42
0.0000000001
 43
0.0000000001
 44
0.000001
 12
0.9785263958185264
 22
0.2061215483310866
 32
0.0
 13
0.1327585762537782
 23
0.9911484048471599
 33
0.0
 40
0.0
 40
0.0
 40
0.0
 40
0.0
 40
0.0257301444278622
 40
0.0508393460167754
 40
0.0759402904366868
 40
0.1016467932427871
 40
0.1273459535904309
 40
0.1524442556000544
 40
0.1775562343418462
 40
0.2032949066242213
 40
0.2032949066242213
 40
0.2032949066242213
 40
0.2032949066242213
 10
30.87032912850253
 20
22.55788502415686
 30
0.0
 10
30.87872167033282
 20
22.55965286989294
 30
0.0
 10
30.89506197448594
 20
22.56442942267381
 30
0.0
 10
30.91809273769434
 20
22.57516675588806
 30
0.0
 10
30.93911819400495
 20
22.58944492804318
 30
0.0
 10
30.95781484417205
 20
22.6069222947263
 30
0.0
 10
30.97385726051005
 20
22.62686285825868
 30
0.0
 10
30.98653177584458
 20
22.64888968412373
 30
0.0
 10
30.99552678789968
 20
22.67265820471465
 30
0.0
 10
30.99907559715072
 20
22.68931220770713
 30
0.0
 10
31.00021460697969
 20
22.69781582236567
 30
0.0
 11
30.87032912850253
 21
22.55788502415686
 31
0.0
 11
30.89502605911468
 21
22.56510477321723
 31
0.0
 11
30.91776542870571
 21
22.5757534002729
 31
0.0
 11
30.93854723727577
 21
22.58983090532388
 31
0.0
 11
30.95737148482476
 21
22.60733728837016
 31
0.0
 11
30.9734285166112
 21
22.62740268251662
 31
0.0
 11
30.98592138089913
 21
22.64917090289805
 31
0.0
 11
30.99485007768862
 21
22.6726419495144
 31
0.0
 11
31.00021460697969
 21
22.69781582236567
 31
0.0
  0
SPLINE
  5
18A
330
2
100
AcDbEntity
  8
GAIKEI
  6
Continuous
 62
     1
100
AcDbSpline
210
0.0
220
0.0
230
1.0
 70
     8
 71
     3
 72
     9
 73
     5
 74
     3
 42
0.0000000001
 43
0.0000000001
 44
0.000001
 12
0.1362218791743881
 22
0.990678353268203
 32
0.0
 13
0.0000205302016735
 23
0.9999999997892553
 33
0.0
 40
0.0
 40
0.0
 40
0.0
 40
0.0
 40
0.0636160010090356
 40
0.1272320020216339
 40
0.1272320020216339
 40
0.1272320020216339
 40
0.1272320020216339
 10
31.20150505728776
 20
24.16148495389143
 30
0.0
 10
31.20439368768876
 20
24.1824926189318
 30
0.0
 10
31.20874004187562
 20
24.2247173623648
 30
0.0
 10
31.21018700772194
 20
24.26714054049347
 30
0.0
 10
31.21018744307173
 20
24.28834587415986
 30
0.0
 11
31.20150505728776
 21
24.16148495389143
 31
0.0
 11
31.20801619245657
 21
24.22476690275704
 31
0.0
 11
31.21018744307173
 21
24.28834587415986
 31
0.0
  0
SPLINE
  5
18B
330
2
100
AcDbEntity
  8
GAIKEI
  6
Continuous
 62
     1
100
AcDbSpline
210
0.0
220
0.0
230
1.0
 70
     8
 71
     3
 72
     9
 73
     5
 74
     3
 42
0.0000000001
 43
0.0000000001
 44
0.000001
 12
-0.0000205301984769
 22
0.9999999997892555
 32
0.0
 13
-0.1362218791775721
 23
0.990678353267765
 33
0.0
 40
0.0
 40
0.0
 40
0.0
 40
0.0
 40
0.0636160010140754
 40
0.1272320020215843
 40
0.1272320020215843
 40
0.1272320020215843
 40
0.1272320020215843
 10
31.21018744307173
 20
24.591143205354
 30
0.0
 10
31.21018700772203
 20
24.6123485390209
 30
0.0
 10
31.20874004187567
 20
24.65477171714951
 30
0.0
 10
31.20439368768876
 20
24.69699646058251
 30
0.0
 10
31.20150505728776
 20
24.71800412562237
 30
0.0
 11
31.21018744307173
 21
24.591143205354
 31
0.0
 11
31.20801619245657
 21
24.6547221767583
 31
0.0
 11
31.20150505728776
 21
24.71800412562237
 31
0.0
  0
SPLINE
  5
18C
330
2
100
AcDbEntity
  8
GAIKEI
  6
Continuous
 62
     1
100
AcDbSpline
210
0.0
220
0.0
230
1.0
 70
     8
 71
     3
 72
    15
 73
    11
 74
     9
 42
0.0000000001
 43
0.0000000001
 44
0.000001
 12
-0.1327902774087838
 22
0.9911441581453722
 32
0.0
 13
-0.9785329879817496
 23
0.2060902506949534
 33
0.0
 40
0.0
 40
0.0
 40
0.0
 40
0.0
 40
0.0257301444274095
 40
0.05083934601627
 40
0.0759402904363015
 40
0.1016467932429319
 40
0.1273459535905735
 40
0.1524442556001977
 40
0.1775562343420387
 40
0.2032949066242655
 40
0.2032949066242655
 40
0.2032949066242655
 40
0.2032949066242655
 10
31.00021460697969
 20
26.18167325714819
 30
0.0
 10
30.99907570264091
 20
26.19017401792735
 30
0.0
 10
30.99552739514502
 20
26.20682425847184
 30
0.0
 10
30.98653229367827
 20
26.23058966459331
 30
0.0
 10
30.97385704616079
 20
26.25261860268722
 30
0.0
 10
30.95781829666262
 20
26.27256306528181
 30
0.0
 10
30.9391258074204
 20
26.29004379873015
 30
0.0
 10
30.91810240304776
 20
26.30432108366972
 30
0.0
 10
30.8950685273434
 20
26.31505855930345
 30
0.0
 10
30.87872450846754
 20
26.31983589221585
 30
0.0
 10
30.87032912850253
 20
26.32160405535695
 30
0.0
 11
31.00021460697969
 21
26.18167325714819
 31
0.0
 11
30.99485124362991
 21
26.20683865982153
 31
0.0
 11
30.98592293548751
 21
26.23030688304528
 31
0.0
 11
30.97342968255248
 21
26.25207792681931
 31
0.0
 11
30.95737148482476
 21
26.27215179114364
 31
0.0
 11
30.93855559730867
 21
26.28965638165658
 31
0.0
 11
30.91777657541622
 21
26.30373328919643
 31
0.0
 11
30.89503441914747
 21
26.31438251376323
 31
0.0
 11
30.87032912850253
 21
26.32160405535695
 31
0.0
  0
SPLINE
  5
18D
330
2
100
AcDbEntity
  8
GAIKEI
  6
Continuous
 62
     1
100
AcDbSpline
210
0.0
220
0.0
230
1.0
 70
     8
 71
     3
 72
    15
 73
    11
 74
     9
 42
0.0000000001
 43
0.0000000001
 44
0.000001
 12
-0.1364008987339492
 22
0.9906537209462097
 32
0.0
 13
-0.1677708966327061
 23
0.9858260121558256
 33
0.0
 40
0.0
 40
0.0
 40
0.0
 40
0.0
 40
0.0088099548289516
 40
0.017520847846353
 40
0.0261353685926152
 40
0.034654666058374
 40
0.0430781984095301
 40
0.0513553481857126
 40
0.0593952990170513
 40
0.0671960523423378
 40
0.0671960523423378
 40
0.0671960523423378
 40
0.0671960523423378
 10
30.79415527687354
 20
25.92911555114483
 30
0.0
 10
30.7937547149547
 20
25.93202475598906
 30
0.0
 10
30.79292697947415
 20
25.93780621436332
 30
0.0
 10
30.79160396199174
 20
25.94641709451707
 30
0.0
 10
30.79021531881233
 20
25.95491945612997
 30
0.0
 10
30.78877665784046
 20
25.96331628292626
 30
0.0
 10
30.78730991519399
 20
25.97159402618479
 30
0.0
 10
30.78584957081563
 20
25.97971056794455
 30
0.0
 10
30.78442800130057
 20
25.98762319778126
 30
0.0
 10
30.78353167086774
 20
25.99282684401692
 30
0.0
 10
30.78309542440781
 20
25.99539023919772
 30
0.0
 11
30.79415527687354
 21
25.92911555114483
 31
0.0
 11
30.79290831021922
 21
25.93783687724965
 31
0.0
 11
30.79158644709372
 21
25.94644689356727
 31
0.0
 11
30.79020008722518
 21
25.95494912761757
 31
0.0
 11
30.78876424959162
 21
25.96334655511407
 31
0.0
 11
30.78729869154273
 21
25.97164161468749
 31
0.0
 11
30.78583689901654
 21
25.97978866100988
 31
0.0
 11
30.78442449854117
 21
25.98770361149218
 31
0.0
 11
30.78309542440781
 21
25.99539023919772
 31
0.0
  0
SPLINE
  5
18E
330
2
100
AcDbEntity
  8
GAIKEI
  6
Continuous
 62
     1
100
AcDbSpline
210
0.0
220
0.0
230
1.0
 70
     8
 71
     3
 72
    13
 73
     9
 74
     7
 42
0.0000000001
 43
0.0000000001
 44
0.000001
 12
-0.1032078770309288
 22
0.9946598082353428
 32
0.0
 13
-0.135947176317206
 23
0.9907160871063812
 33
0.0
 40
0.0
 40
0.0
 40
0.0
 40
0.0
 40
0.010667482179516
 40
0.0213526033888245
 40
0.032380869981266
 40
0.0439032233371567
 40
0.0555872268422808
 40
0.0673754141472291
 40
0.0673754141472291
 40
0.0673754141472291
 40
0.0673754141472291
 10
30.8972230075604
 20
25.16551967027374
 30
0.0
 10
30.89685601816408
 20
25.16905650886673
 30
0.0
 10
30.8961339006442
 20
25.17613738387161
 30
0.0
 10
30.89512137283526
 20
25.18688344427204
 30
0.0
 10
30.89404634868112
 20
25.19790977761886
 30
0.0
 10
30.89285446192651
 20
25.20925908698257
 30
0.0
 10
30.89150310096241
 20
25.22084569980348
 30
0.0
 10
30.89049158280384
 20
25.22860439445168
 30
0.0
 10
30.88995739254449
 20
25.23249731005194
 30
0.0
 11
30.8972230075604
 21
25.16551967027374
 31
0.0
 11
30.89614906490283
 21
25.17613266304863
 31
0.0
 11
30.89512744299793
 21
25.18676907825898
 31
0.0
 11
30.89405000785792
 21
25.1977445922463
 31
0.0
 11
30.89283934170249
 21
25.20920316872582
 31
0.0
 11
30.89148207763134
 21
25.22080807654504
 31
0.0
 11
30.88995739254449
 21
25.23249731005194
 31
0.0
  0
SPLINE
  5
18F
330
2
100
AcDbEntity
  8
GAIKEI
  6
Continuous
 62
     1
100
AcDbSpline
210
0.0
220
0.0
230
1.0
 70
     8
 71
     3
 72
    14
 73
    10
 74
     8
 42
0.0000000001
 43
0.0000000001
 44
0.000001
 12
0.1677588837034731
 22
0.9858280564776825
 32
0.0
 13
0.1366130456583842
 23
0.9906244877631182
 33
0.0
 40
0.0
 40
0.0
 40
0.0
 40
0.0
 40
0.0077805537818923
 40
0.0157593947442482
 40
0.0239337084991444
 40
0.0323033226630862
 40
0.0438356785406566
 40
0.0554749749921042
 40
0.0671959577983711
 40
0.0671959577983711
 40
0.0671959577983711
 40
0.0671959577983711
 10
30.78309542440781
 20
22.88409884031614
 30
0.0
 10
30.78353051008014
 20
22.88665560305384
 30
0.0
 10
30.78442220262619
 20
22.8918325457139
 30
0.0
 10
30.78583269077282
 20
22.89968480096684
 30
0.0
 10
30.78728022770608
 20
22.90772986146993
 30
0.0
 10
30.78891409782466
 20
22.916944917053
 30
0.0
 10
30.79068094265693
 20
22.92730931532554
 30
0.0
 10
30.79250561654308
 20
22.93879648008493
 30
0.0
 10
30.79362153048712
 20
22.94650316417284
 30
0.0
 10
30.79415527687354
 20
22.95037352836903
 30
0.0
 11
30.78309542440781
 21
22.88409884031614
 31
0.0
 11
30.78442098856874
 21
22.89176558070654
 31
0.0
 11
30.78582252468067
 21
22.89962039095355
 31
0.0
 11
30.78726630829601
 21
22.90766619028614
 31
0.0
 11
30.78872336103683
 21
22.91590799941861
 31
0.0
 11
30.79065456227818
 21
22.92727750668217
 31
0.0
 11
30.7924760865792
 21
22.93877339118387
 31
0.0
 11
30.79415527687354
 21
22.95037352836903
 31
0.0
  0
SPLINE
  5
190
330
2
100
AcDbEntity
  8
GAIKEI
  6
Continuous
 62
     1
100
AcDbSpline
210
0.0
220
0.0
230
1.0
 70
     8
 71
     3
 72
    14
 73
    10
 74
     8
 42
0.0000000001
 43
0.0000000001
 44
0.000001
 12
0.1359523053525381
 22
0.9907153832808543
 32
0.0
 13
0.1044770653903519
 23
0.9945272961600501
 33
0.0
 40
0.0
 40
0.0
 40
0.0
 40
0.0
 40
0.0117441122318296
 40
0.023314312774415
 40
0.0347515885517257
 40
0.0432002755692024
 40
0.0514996482291304
 40
0.059558132212225
 40
0.0673754410105474
 40
0.0673754410105474
 40
0.0673754410105474
 40
0.0673754410105474
 10
30.89981419490897
 20
23.71866480379788
 30
0.0
 10
30.90034640795304
 20
23.72254316134826
 30
0.0
 10
30.90135132916925
 20
23.73024964199914
 30
0.0
 10
30.9026944792395
 20
23.74175566769736
 30
0.0
 10
30.90379203006239
 20
23.75218362413108
 30
0.0
 10
30.904711380636
 20
23.76153366983874
 30
0.0
 10
30.90549764799937
 20
23.76976504436493
 30
0.0
 10
30.90626528720932
 20
23.77778681636977
 30
0.0
 10
30.90680756676406
 20
23.78305093458192
 30
0.0
 10
30.90707980992488
 20
23.78564244357608
 30
0.0
 11
30.89981419490897
 21
23.71866480379788
 31
0.0
 11
30.90133347862707
 21
23.73031028992341
 31
0.0
 11
30.90267874506861
 21
23.74180202039525
 31
0.0
 11
30.90388234944419
 21
23.75317578921863
 31
0.0
 11
30.90471331875688
 21
23.7615835109188
 31
0.0
 11
30.90550652191564
 21
23.76984489138909
 31
0.0
 11
30.90628377946962
 21
23.77786582761268
 31
0.0
 11
30.90707980992488
 21
23.78564244357608
 31
0.0
  0
ARC
  5
191
330
2
100
AcDbEntity
  8
GAIKEI
 62
     1
100
AcDbCircle
 10
29.99990247092961
 20
26.99052801468543
 30
0.0
 40
0.1000109124005768
100
AcDbArc
 50
294.6822153763272
 51
359.9992555506062
  0
LINE
  5
192
330
2
100
AcDbEntity
  8
GAIKEI
 62
     1
100
AcDbLine
 10
30.09991338332174
 20
26.99052672634639
 30
0.0
 11
30.09991338332174
 21
27.03921441858864
 31
0.0
  0
ARC
  5
193
330
2
100
AcDbEntity
  8
GAIKEI
 62
     1
100
AcDbCircle
 10
30.02356836400423
 20
27.04420389453236
 30
0.0
 40
0.0096820896984856
100
AcDbArc
 50
265.9875314113286
 51
357.4403055779344
  0
LINE
  5
194
330
2
100
AcDbEntity
  8
GAIKEI
 62
     1
100
AcDbLine
 10
30.03324079324176
 20
27.0437714901206
 30
0.0
 11
30.03324079324176
 21
27.06337893211054
 31
0.0
  0
ARC
  5
195
330
2
100
AcDbEntity
  8
GAIKEI
 62
     1
100
AcDbCircle
 10
30.04324168175373
 20
27.06337893211054
 30
0.0
 40
0.0100008885120045
100
AcDbArc
 50
88.00000000002242
 51
179.9999999998925
  0
LINE
  5
196
330
2
100
AcDbEntity
  8
GAIKEI
 62
     1
100
AcDbLine
 10
30.04359071276281
 20
27.07337372008055
 30
0.0
 11
30.06774050820059
 21
27.07253040605838
 31
0.0
  0
ARC
  5
197
330
2
100
AcDbEntity
  8
GAIKEI
 62
     1
100
AcDbCircle
 10
30.06657707904435
 20
27.03921441485642
 30
0.0
 40
0.03333630427746
100
AcDbArc
 50
0.0000064146167758
 51
88.00001314450492
  0
LINE
  5
198
330
2
100
AcDbEntity
  8
GAIKEI
 62
     1
100
AcDbLine
 10
28.47568867190171
 20
3.462148018399659
 30
0.0
 11
28.47568867190171
 21
3.35635876918559
 31
0.0
  0
MTEXT
  5
199
330
2
100
AcDbEntity
  8
SUNPO
  6
Continuous
100
AcDbMText
 10
39.55000187947315
 20
37.15418036929896
 30
0.0
 40
2.5
 41
0.0
 71
     5
 72
     1
  1
21.5
 73
     1
 44
1.0
1001
ACAD
1000
MTEXTBEGIN
1070
    73
1070
     1
1070
    44
1040
1.0
1070
    74
1070
     0
1000
MTEXTEND
  0
LINE
  5
19B
330
2
100
AcDbEntity
  8
SUNPO
100
AcDbLine
 10
31.3748850498921
 20
35.18090889143127
 30
0.0
 11
31.67852857217565
 21
35.18090889143127
 31
0.0
  0
LINE
  5
19C
330
2
100
AcDbEntity
  8
SUNPO
100
AcDbLine
 10
31.31963920144404
 20
35.23090889142622
 30
0.0
 11
31.7337744206236
 21
35.23090889142622
 31
0.0
  0
LINE
  5
19D
330
2
100
AcDbEntity
  8
SUNPO
100
AcDbLine
 10
31.28648994499974
 20
35.28090889142124
 30
0.0
 11
31.76692367706801
 21
35.28090889142124
 31
0.0
  0
LINE
  5
19E
330
2
100
AcDbEntity
  8
SUNPO
100
AcDbLine
 10
31.26683897825285
 20
35.33090889141624
 30
0.0
 11
31.7865746438149
 21
35.33090889141624
 31
0.0
  0
LINE
  5
19F
330
2
100
AcDbEntity
  8
SUNPO
100
AcDbLine
 10
31.26783863245362
 20
35.48090889140122
 30
0.0
 11
31.78557498961402
 21
35.48090889140122
 31
0.0
  0
LINE
  5
1A0
330
2
100
AcDbEntity
  8
SUNPO
100
AcDbLine
 10
31.28829565006936
 20
35.53090889139628
 30
0.0
 11
31.7651179719984
 21
35.53090889139628
 31
0.0
  0
LINE
  5
1A1
330
2
100
AcDbEntity
  8
SUNPO
100
AcDbLine
 10
31.32258177713436
 20
35.58090889139123
 30
0.0
 11
31.73083184493339
 21
35.58090889139123
 31
0.0
  0
LINE
  5
1A2
330
2
100
AcDbEntity
  8
SUNPO
100
AcDbLine
 10
31.38009788477928
 20
35.63090889138619
 30
0.0
 11
31.67331573728848
 21
35.63090889138619
 31
0.0
  0
LINE
  5
1A3
330
2
100
AcDbEntity
  8
SUNPO
100
AcDbLine
 10
31.25803305702846
 20
35.43090889140626
 30
0.0
 11
31.79538056503929
 21
35.43090889140626
 31
0.0
  0
LINE
  5
1A4
330
2
100
AcDbEntity
  8
SUNPO
100
AcDbLine
 10
31.25771157259578
 20
35.3809088914112
 30
0.0
 11
31.79570204947186
 21
35.3809088914112
 31
0.0
  0
CIRCLE
  5
1A5
330
2
100
AcDbEntity
  8
SUNPO
100
AcDbCircle
 10
31.52670681103382
 20
35.40418036929896
 30
0.0
 40
0.2699999999729999
  0
LINE
  5
1A6
330
2
100
AcDbEntity
  8
SUNPO
  6
Continuous
100
AcDbLine
 10
32.17670681096866
 20
29.4041803692989
 30
0.0
 11
32.17670681096866
 21
37.4041803692989
 31
0.0
  0
INSERT
  5
1A7
330
2
100
AcDbEntity
  8
SUNPO
  6
Continuous
100
AcDbBlockReference
  2
_OPEN30
 10
32.17670681096866
 20
35.4041803692989
 30
0.0
 41
2.0
 42
2.0
 43
2.0
 50
180.0
  0
MTEXT
  5
1A8
330
2
100
AcDbEntity
  8
SUNPO
  6
Continuous
100
AcDbMText
 10
23.87009118145341
 20
37.15418036929901
 30
0.0
 40
2.5
 41
0.0
 71
     5
 72
     1
  1
95
 73
     1
 44
1.0
1001
ACAD
1000
MTEXTBEGIN
1070
    73
1070
     1
1070
    44
1040
1.0
1070
    74
1070
     0
1000
MTEXTEND
  0
INSERT
  5
1A9
330
2
100
AcDbEntity
  8
SUNPO
  6
Continuous
100
AcDbBlockReference
  2
_OPEN30
 10
28.37322663358299
 20
35.40418036929896
 30
0.0
 41
2.0
 42
2.0
 43
2.0
  0
LINE
  5
1AA
330
2
100
AcDbEntity
  8
SUNPO
  6
Continuous
100
AcDbLine
 10
28.37322663358299
 20
35.40418036929896
 30
0.0
 11
32.17670681096866
 21
35.4041803692989
 31
0.0
  0
LINE
  5
1AB
330
2
100
AcDbEntity
  8
SUNPO
  6
Continuous
100
AcDbLine
 10
33.26504335741367
 20
35.4041803692989
 30
0.0
 11
44.60842626836324
 21
35.4041803692989
 31
0.0
  0
LINE
  5
1AC
330
2
100
AcDbEntity
  8
SUNPO
  6
Continuous
100
AcDbLine
 10
26.37322663358299
 20
35.40418036929896
 30
0.0
 11
20.96997625613079
 21
35.40418036929896
 31
0.0
  0
LINE
  5
1AD
330
2
100
AcDbEntity
  8
SUNPO
  6
Continuous
100
AcDbLine
 10
31.52670681103382
 20
29.40418036929896
 30
0.0
 11
31.52670681103382
 21
37.40418036929896
 31
0.0
  0
LINE
  5
1AE
330
2
100
AcDbEntity
  8
SUNPO
  6
Continuous
100
AcDbLine
 10
28.37322663358299
 20
29.40418036929902
 30
0.0
 11
28.37322663358299
 21
37.40418036929896
 31
0.0
  0
LINE
  5
1AF
330
2
100
AcDbEntity
  8
GAIKEI
  6
Continuous
 62
   251
100
AcDbLine
 10
-31.06424020351011
 20
3.407941105096028
 30
0.0
 11
-31.05776536159709
 21
3.397940216584004
 31
0.0
  0
LINE
  5
1B0
330
2
100
AcDbEntity
  8
GAIKEI
  6
Continuous
 62
   251
100
AcDbLine
 10
-30.90185130967729
 20
3.397940216584004
 30
0.0
 11
-30.89537643442799
 21
3.407941105096028
 31
0.0
  0
LINE
  5
1B1
330
2
100
AcDbEntity
  8
GAIKEI
  6
Continuous
 62
   251
100
AcDbLine
 10
-30.90185130967729
 20
3.397940216584004
 30
0.0
 11
-31.05776536159709
 21
3.397940216584004
 31
0.0
  0
LINE
  5
1B2
330
2
100
AcDbEntity
  8
GAIKEI
  6
Continuous
 62
   251
100
AcDbLine
 10
-31.06525819395177
 20
3.409513478124154
 30
0.0
 11
-31.06424020351011
 21
3.407941105096028
 31
0.0
  0
LINE
  5
1B3
330
2
100
AcDbEntity
  8
GAIKEI
  6
Continuous
 62
   251
100
AcDbLine
 10
-30.89537643442799
 20
3.407941105096028
 30
0.0
 11
-31.06424020351011
 21
3.407941105096028
 31
0.0
  0
LINE
  5
1B4
330
2
100
AcDbEntity
  8
GAIKEI
  6
Continuous
 62
   251
100
AcDbLine
 10
-30.89537643442799
 20
3.407941105096028
 30
0.0
 11
-30.89435844398634
 21
3.409513478124154
 31
0.0
  0
ELLIPSE
  5
1B5
330
2
100
AcDbEntity
  8
GAIKEI
  6
Continuous
 62
   251
100
AcDbEllipse
 10
-30.46878316780533
 20
3.356943076432344
 30
0.0
 11
-0.0072915979467025
 21
0.0833407309954785
 31
0.0
210
0.0
220
0.0
230
1.0
 40
0.00455
 41
0.9054863047435736
 42
1.023000185587124
  0
ELLIPSE
  5
1B6
330
2
100
AcDbEntity
  8
GAIKEI
  6
Continuous
 62
   251
100
AcDbEllipse
 10
-30.47405836980499
 20
3.412464509140022
 30
0.0
 11
-0.0020416474250767
 21
0.0233354046787341
 31
0.0
210
0.0
220
0.0
230
1.0
 40
0.00455
 41
3.193554418662971
 42
4.16459283917666
  0
ELLIPSE
  5
1B7
330
2
100
AcDbEntity
  8
GAIKEI
  6
Continuous
 62
   251
100
AcDbEllipse
 10
-30.50063563101673
 20
3.741726428524032
 30
0.0
 11
-0.0291663917868101
 21
0.333362923981915
 31
0.0
210
0.0
220
0.0
230
1.0
 40
0.00455
 41
3.141194541103503
 42
3.193554418658768
  0
LINE
  5
1B8
330
2
100
AcDbEntity
  8
GAIKEI
  6
Continuous
 62
   251
100
AcDbLine
 10
-30.64261551164538
 20
3.372102254387357
 30
0.0
 11
-30.6221768291386
 21
3.380001622860049
 31
0.0
  0
LINE
  5
1B9
330
2
100
AcDbEntity
  8
GAIKEI
  6
Continuous
 62
   251
100
AcDbLine
 10
-30.4729044006159
 20
3.401469196776929
 30
0.0
 11
-30.89956654002418
 21
3.401469196776929
 31
0.0
  0
LINE
  5
1BA
330
2
100
AcDbEntity
  8
GAIKEI
  6
Continuous
 62
   251
100
AcDbLine
 10
-30.4720139548391
 20
3.390311105455225
 30
0.0
 11
-30.4720139548391
 21
3.387230198403926
 31
0.0
  0
LINE
  5
1BB
330
2
100
AcDbEntity
  8
GAIKEI
  6
Continuous
 62
   251
100
AcDbLine
 10
-30.4720139548391
 20
3.387230198403926
 30
0.0
 11
-30.47142983627742
 21
3.380342853176045
 31
0.0
  0
LINE
  5
1BC
330
2
100
AcDbEntity
  8
GAIKEI
  6
Continuous
 62
   251
100
AcDbLine
 10
-30.47142983627742
 20
3.380342853176045
 30
0.0
 11
-30.47142983627742
 21
3.409970318711373
 31
0.0
  0
SPLINE
  5
1BD
330
2
100
AcDbEntity
  8
GAIKEI
  6
Continuous
 62
   251
100
AcDbSpline
210
0.0
220
0.0
230
1.0
 70
     8
 71
     3
 72
    22
 73
    18
 74
    16
 42
0.0000000001
 43
0.0000000001
 44
0.000001
 12
0.9999994906187062
 22
0.0010093375690448
 32
0.0
 13
0.8041259435850019
 23
0.5944589698654824
 33
0.0
 40
0.0
 40
0.0
 40
0.0
 40
0.0
 40
0.0097749256622308
 40
0.0193329776068266
 40
0.0320264968871611
 40
0.0442541687435805
 40
0.056015221292067
 40
0.0673086939958937
 40
0.0857801686792169
 40
0.1030785073291561
 40
0.1188648245304567
 40
0.132801076617705
 40
0.1400689952212711
 40
0.1460172719826526
 40
0.1482462515545415
 40
0.1498243040911078
 40
0.1505008193217982
 40
0.1505008193217982
 40
0.1505008193217982
 40
0.1505008193217982
 10
-30.62217681716231
 20
3.380001611496481
 30
0.0
 10
-30.61891851026795
 20
3.380004900229721
 30
0.0
 10
-30.61247415150456
 20
3.380034725143389
 30
0.0
 10
-30.60179958428279
 20
3.38018202056304
 30
0.0
 10
-30.59030859127819
 20
3.380404438612686
 30
0.0
 10
-30.57808506087145
 20
3.380715424681227
 30
0.0
 10
-30.56632982832042
 20
3.381076347530608
 30
0.0
 10
-30.55249629827461
 20
3.38156215529608
 30
0.0
 10
-30.53682106609887
 20
3.382187491890022
 30
0.0
 10
-30.51965385734965
 20
3.382995307265446
 30
0.0
 10
-30.50400712011185
 20
3.383883101026924
 30
0.0
 10
-30.49169909210537
 20
3.384712578617495
 30
0.0
 10
-30.48269170760113
 20
3.385495584469538
 30
0.0
 10
-30.47754606927433
 20
3.385978228784097
 30
0.0
 10
-30.47436276683061
 20
3.386525469152275
 30
0.0
 10
-30.47283901333856
 20
3.38668623828255
 30
0.0
 10
-30.47219528698267
 20
3.38709615563846
 30
0.0
 10
-30.47201395249994
 20
3.387230209154154
 30
0.0
 11
-30.62217681716231
 21
3.380001611496481
 31
0.0
 11
-30.6124023564106
 21
3.380051104561516
 31
0.0
 11
-30.60284512173087
 21
3.380176141068432
 31
0.0
 11
-30.59015397668128
 21
3.380421487425223
 31
0.0
 11
-30.5779302311945
 21
3.380731236031692
 31
0.0
 11
-30.56617468090747
 21
3.381090882379623
 31
0.0
 11
-30.554888121457
 21
3.381485921960745
 31
0.0
 11
-30.53643151171844
 21
3.38222673012217
 31
0.0
 11
-30.51915273065669
 21
3.3830489835521
 31
0.0
 11
-30.50339207692559
 21
3.383948670606912
 31
0.0
 11
-30.48948984917905
 21
3.384921779642809
 31
0.0
 11
-30.48224864203189
 21
3.38554420073251
 31
0.0
 11
-30.47633696955268
 21
3.386202879774998
 31
0.0
 11
-30.47413312253036
 21
3.386536472623504
 31
0.0
 11
-30.47259320228704
 21
3.386880605498504
 31
0.0
 11
-30.47201395249994
 21
3.387230209154154
 31
0.0
  0
SPLINE
  5
1BE
330
2
100
AcDbEntity
  8
GAIKEI
  6
Continuous
 62
   251
100
AcDbSpline
210
0.0
220
0.0
230
1.0
 70
     8
 71
     3
 72
    24
 73
    20
 74
    18
 42
0.0000000001
 43
0.0000000001
 44
0.000001
 12
-0.8224684625577651
 22
-0.5688107137685313
 32
0.0
 13
-0.9999995813477761
 23
-0.0009150433173114
 33
0.0
 40
0.0
 40
0.0
 40
0.0
 40
0.0
 40
0.0008458686927702
 40
0.0027838841018114
 40
0.0069226091241031
 40
0.0122085085559175
 40
0.0182924880406481
 40
0.0303451516887313
 40
0.0438192651424036
 40
0.0584527422357463
 40
0.0739828188283625
 40
0.0876197140203444
 40
0.1018875734486786
 40
0.1167818802550445
 40
0.1322982376153465
 40
0.1422258253932333
 40
0.1524600661303257
 40
0.1629539413599961
 40
0.1715674320413582
 40
0.1715674320413582
 40
0.1715674320413582
 40
0.1715674320413582
 10
-30.47142983627737
 20
3.380342847197255
 30
0.0
 10
-30.47166173638513
 20
3.380182467472309
 30
0.0
 10
-30.47246996099665
 20
3.379700937878965
 30
0.0
 10
-30.47481125456673
 20
3.379445634465014
 30
0.0
 10
-30.47852116416795
 20
3.37883821149478
 30
0.0
 10
-30.48368346601163
 20
3.378360222176752
 30
0.0
 10
-30.49145488222254
 20
3.377674260376579
 30
0.0
 10
-30.50196846526177
 20
3.376920508189812
 30
0.0
 10
-30.51532889995335
 20
3.376098301059869
 30
0.0
 10
-30.52985503489515
 20
3.375330679035755
 30
0.0
 10
-30.54443935882228
 20
3.374651846488973
 30
0.0
 10
-30.55890506270984
 20
3.374046883449523
 30
0.0
 10
-30.57316166501937
 20
3.373518113578995
 30
0.0
 10
-30.58804694263443
 20
3.373041351332233
 30
0.0
 10
-30.60148832842811
 20
3.372683374188341
 30
0.0
 10
-30.61337817033385
 20
3.3724199096863
 30
0.0
 10
-30.62359524557763
 20
3.372242929322055
 30
0.0
 10
-30.63337520516535
 20
3.372128728917687
 30
0.0
 10
-30.63974433963406
 20
3.372104873106536
 30
0.0
 10
-30.64261550199251
 20
3.372102245867495
 30
0.0
 11
-30.47142983627737
 21
3.380342847197255
 31
0.0
 11
-30.47216573666856
 21
3.379925663742255
 31
0.0
 11
-30.47406013075056
 21
3.379517459193664
 31
0.0
 11
-30.47815856493566
 21
3.378941602855945
 31
0.0
 11
-30.48341553980703
 21
3.378389519939958
 31
0.0
 11
-30.48947651978114
 21
3.377861099641904
 31
0.0
 11
-30.50149652349592
 21
3.376974525009984
 31
0.0
 11
-30.5149448623244
 21
3.376141591739894
 31
0.0
 11
-30.52955756766829
 21
3.375362244916345
 31
0.0
 11
-30.54507067092931
 21
3.374636429623933
 31
0.0
 11
-30.55869567397679
 21
3.374067097498141
 31
0.0
 11
-30.57295373775446
 21
3.373538548422459
 31
0.0
 11
-30.58784041756644
 21
3.373062037216811
 31
0.0
 11
-30.60335126871695
 21
3.372648818700895
 31
0.0
 11
-30.61327646473876
 21
3.372430994772628
 31
0.0
 11
-30.62350918841401
 21
3.372254877918408
 31
0.0
 11
-30.6340024087981
 21
3.372137590437432
 31
0.0
 11
-30.64261550199251
 21
3.372102245867495
 31
0.0
  0
LINE
  5
1BF
330
2
100
AcDbEntity
  8
GAIKEI
  6
HIDDEN2
 62
     1
100
AcDbLine
 10
-4.580205319872959
 20
22.15988495655591
 30
0.0
 11
-4.580205319872959
 21
22.66060678983911
 31
0.0
  0
LINE
  5
1C1
330
2
100
AcDbEntity
  8
GAIKEI
  6
HIDDEN2
 62
     1
100
AcDbLine
 10
-3.77187198662051
 20
22.0932182898959
 30
0.0
 11
-3.77187198662051
 21
23.9265516230459
 31
0.0
  0
LINE
  5
1C2
330
2
100
AcDbEntity
  8
GAIKEI
  6
HIDDEN2
 62
     1
100
AcDbLine
 10
-4.671871986530447
 20
22.0765516232309
 30
0.0
 11
-4.605205319870435
 21
22.0765516232309
 31
0.0
  0
LINE
  5
1C3
330
2
100
AcDbEntity
  8
GAIKEI
  6
HIDDEN2
 62
     1
100
AcDbLine
 10
-4.755205319855406
 20
22.00988495657089
 30
0.0
 11
-4.755205319855406
 21
22.0765516232309
 31
0.0
  0
LINE
  5
1C4
330
2
100
AcDbEntity
  8
GAIKEI
  6
HIDDEN2
 62
     1
100
AcDbLine
 10
-4.755205319855406
 20
22.00988495657089
 30
0.0
 11
-4.688538653195394
 21
22.00988495657089
 31
0.0
  0
POINT
  5
1C5
330
2
100
AcDbEntity
  8
GAIKEI
  6
HIDDEN2
 62
     1
100
AcDbPoint
 10
-5.038538653160514
 20
22.00988495657089
 30
0.0
  0
ARC
  5
1C6
330
2
100
AcDbEntity
  8
GAIKEI
  6
HIDDEN2
 62
     1
100
AcDbCircle
 10
-5.105205319820413
 20
22.04054728990116
 30
0.0
 40
0.06666666666
100
AcDbArc
 50
310.6012950000001
 51
0.0
  0
LINE
  5
1C7
330
2
100
AcDbEntity
  8
GAIKEI
  6
HIDDEN2
 62
     1
100
AcDbLine
 10
-5.038538653160514
 20
22.0765516232309
 30
0.0
 11
-5.038538653160514
 21
22.04054728990116
 31
0.0
  0
LINE
  5
1C8
330
2
100
AcDbEntity
  8
GAIKEI
  6
HIDDEN2
 62
     1
100
AcDbLine
 10
-5.021871986495455
 20
22.0932182898959
 30
0.0
 11
-5.021871986495455
 21
22.15988495655591
 31
0.0
  0
LINE
  5
1C9
330
2
100
AcDbEntity
  8
GAIKEI
  6
HIDDEN2
 62
     1
100
AcDbLine
 10
-4.688538653195394
 20
22.0932182898959
 30
0.0
 11
-4.688538653195394
 21
22.00988495657089
 31
0.0
  0
LINE
  5
1CA
330
2
100
AcDbEntity
  8
GAIKEI
  6
HIDDEN2
 62
     1
100
AcDbLine
 10
-5.021871986495455
 20
22.15988495655591
 30
0.0
 11
-3.77187198662051
 21
22.15988495655591
 31
0.0
  0
LINE
  5
1CB
330
2
100
AcDbEntity
  8
GAIKEI
  6
HIDDEN2
 62
     1
100
AcDbLine
 10
-4.605205319870435
 20
21.94321828991087
 30
0.0
 11
-4.688538653195394
 21
21.94321828991087
 31
0.0
  0
LINE
  5
1CC
330
2
100
AcDbEntity
  8
GAIKEI
  6
HIDDEN2
 62
     1
100
AcDbLine
 10
-4.671871986530447
 20
22.0765516232309
 30
0.0
 11
-4.671871986530447
 21
21.94321828991087
 31
0.0
  0
ARC
  5
1CD
330
2
100
AcDbEntity
  8
GAIKEI
  6
HIDDEN2
 62
     1
100
AcDbCircle
 10
-4.688538653195394
 20
22.00988495657089
 30
0.0
 40
0.06666666666
100
AcDbArc
 50
180.0
 51
270.0
  0
LINE
  5
1CE
330
2
100
AcDbEntity
  8
GAIKEI
  6
HIDDEN2
 62
     1
100
AcDbLine
 10
-5.061819319824792
 20
21.98993028990622
 30
0.0
 11
-5.330469153131218
 21
21.7596589565959
 31
0.0
  0
ARC
  5
1CF
330
2
100
AcDbEntity
  8
GAIKEI
  6
HIDDEN2
 62
     1
100
AcDbCircle
 10
-4.271871986570488
 20
23.3265516231059
 30
0.0
 40
0.116666666655
100
AcDbArc
 50
270.0
 51
90.0
  0
ARC
  5
1D0
330
2
100
AcDbEntity
  8
GAIKEI
  6
HIDDEN2
 62
     1
100
AcDbCircle
 10
-4.271871986570488
 20
23.3265516231059
 30
0.0
 40
0.3333333333
100
AcDbArc
 50
270.0
 51
90.0
  0
LINE
  5
1D1
330
2
100
AcDbEntity
  8
GAIKEI
  6
HIDDEN2
 62
     1
100
AcDbLine
 10
-4.685205319862518
 20
22.76988495649488
 30
0.0
 11
-4.685205319862518
 21
22.66988495650492
 31
0.0
  0
LINE
  5
1D2
330
2
100
AcDbEntity
  8
GAIKEI
  6
HIDDEN2
 62
     1
100
AcDbLine
 10
-4.688538653195394
 20
22.74321828983091
 30
0.0
 11
-4.688538653195394
 21
22.66988495650492
 31
0.0
  0
LINE
  5
1D3
330
2
100
AcDbEntity
  8
GAIKEI
  6
HIDDEN2
 62
     1
100
AcDbLine
 10
-5.191871986478474
 20
22.76988495649488
 30
0.0
 11
-5.191871986478474
 21
22.66988495650492
 31
0.0
  0
LINE
  5
1D4
330
2
100
AcDbEntity
  8
GAIKEI
  6
HIDDEN2
 62
     1
100
AcDbLine
 10
-5.188538653145485
 20
22.74321828983091
 30
0.0
 11
-5.188538653145485
 21
22.66988495650492
 31
0.0
  0
LINE
  5
1D5
330
2
100
AcDbEntity
  8
GAIKEI
  6
HIDDEN2
 62
     1
100
AcDbLine
 10
-4.685205319862518
 20
22.76988495649488
 30
0.0
 11
-5.191871986478474
 21
22.76988495649488
 31
0.0
  0
LINE
  5
1D6
330
2
100
AcDbEntity
  8
GAIKEI
  6
HIDDEN2
 62
     1
100
AcDbLine
 10
-4.685205319862518
 20
22.66988495650492
 30
0.0
 11
-5.191871986478474
 21
22.66988495650492
 31
0.0
  0
LINE
  5
1D7
330
2
100
AcDbEntity
  8
GAIKEI
  6
HIDDEN2
 62
     1
100
AcDbLine
 10
-4.688538653195394
 20
22.74321828983091
 30
0.0
 11
-5.188538653145485
 21
22.74321828983091
 31
0.0
  0
LINE
  5
1D8
330
2
100
AcDbEntity
  8
GAIKEI
  6
HIDDEN2
 62
     1
100
AcDbLine
 10
-4.688538653195394
 20
22.67655162317089
 30
0.0
 11
-5.188538653145485
 21
22.67655162317089
 31
0.0
  0
ARC
  5
1D9
330
2
100
AcDbEntity
  8
GAIKEI
  6
HIDDEN2
 62
     1
100
AcDbCircle
 10
-4.246871986573012
 20
22.66060678983911
 30
0.0
 40
0.3333333333
100
AcDbArc
 50
94.30122199999926
 51
180.0
  0
ARC
  5
1DA
330
2
100
AcDbEntity
  8
GAIKEI
  6
HIDDEN2
 62
     1
100
AcDbCircle
 10
-7.130205319618028
 20
22.65988495650589
 30
0.0
 40
0.3333333333
100
AcDbArc
 50
0.0
 51
90.0
  0
ARC
  5
1DB
330
2
100
AcDbEntity
  8
GAIKEI
  6
HIDDEN2
 62
     1
100
AcDbCircle
 10
-8.355205319495496
 20
23.3265516231059
 30
0.0
 40
0.116666666655
100
AcDbArc
 50
270.0
 51
90.0
  0
LINE
  5
1DC
330
2
100
AcDbEntity
  8
GAIKEI
  6
HIDDEN2
 62
     1
100
AcDbLine
 10
-6.796871986317967
 20
22.15988495655591
 30
0.0
 11
-6.796871986317967
 21
22.65988495650589
 31
0.0
  0
LINE
  5
1DD
330
2
100
AcDbEntity
  8
GAIKEI
  6
HIDDEN2
 62
     1
100
AcDbLine
 10
-6.338538653030411
 20
22.0765516232309
 30
0.0
 11
-6.338538653030411
 21
22.04054728990116
 31
0.0
  0
POINT
  5
1DE
330
2
100
AcDbEntity
  8
GAIKEI
  6
HIDDEN2
 62
     1
100
AcDbPoint
 10
-6.338538653030411
 20
22.00988495657089
 30
0.0
  0
ARC
  5
1DF
330
2
100
AcDbEntity
  8
GAIKEI
  6
HIDDEN2
 62
     1
100
AcDbCircle
 10
-6.271871986370399
 20
22.04054728990116
 30
0.0
 40
0.06666666666
100
AcDbArc
 50
180.0
 51
229.3987049999998
  0
LINE
  5
1E0
330
2
100
AcDbEntity
  8
GAIKEI
  6
HIDDEN2
 62
     1
100
AcDbLine
 10
-6.355205319695471
 20
22.0932182898959
 30
0.0
 11
-6.355205319695471
 21
22.15988495655591
 31
0.0
  0
LINE
  5
1E1
330
2
100
AcDbEntity
  8
GAIKEI
  6
HIDDEN2
 62
     1
100
AcDbLine
 10
-5.446871986453004
 20
21.07655162333089
 30
0.0
 11
-5.446871986453004
 21
21.50657328995453
 31
0.0
  0
POINT
  5
1E2
330
2
100
AcDbEntity
  8
GAIKEI
  6
HIDDEN2
 62
     1
100
AcDbPoint
 10
-5.446871986453004
 20
21.65988495660593
 30
0.0
  0
LINE
  5
1E3
330
2
100
AcDbEntity
  8
GAIKEI
  6
HIDDEN2
 62
     1
100
AcDbLine
 10
-5.930205319738035
 20
21.07655162333089
 30
0.0
 11
-5.930205319738035
 21
21.50657328995453
 31
0.0
  0
POINT
  5
1E4
330
2
100
AcDbEntity
  8
GAIKEI
  6
HIDDEN2
 62
     1
100
AcDbPoint
 10
-5.930205319738035
 20
21.65988495660593
 30
0.0
  0
ARC
  5
1E5
330
2
100
AcDbEntity
  8
GAIKEI
  6
HIDDEN2
 62
     1
100
AcDbCircle
 10
-6.263538653037983
 20
21.50657328995453
 30
0.0
 40
0.3333333333
100
AcDbArc
 50
0.0
 51
49.39870499999981
  0
LINE
  5
1E6
330
2
100
AcDbEntity
  8
GAIKEI
  6
HIDDEN2
 62
     1
100
AcDbLine
 10
-6.315258153032857
 20
21.98993028990622
 30
0.0
 11
-6.046608319726317
 21
21.7596589565959
 31
0.0
  0
LINE
  5
1E7
330
2
100
AcDbEntity
  8
GAIKEI
  6
HIDDEN2
 62
     1
100
AcDbLine
 10
-5.663538653097987
 20
20.85988495668591
 30
0.0
 11
-5.713538653092939
 21
20.85988495668591
 31
0.0
  0
ARC
  5
1E8
330
2
100
AcDbEntity
  8
GAIKEI
  6
HIDDEN2
 62
     1
100
AcDbCircle
 10
-5.663538653097987
 20
21.07655162333089
 30
0.0
 40
0.216666666645
100
AcDbArc
 50
270.0
 51
0.0
  0
ARC
  5
1E9
330
2
100
AcDbEntity
  8
GAIKEI
  6
HIDDEN2
 62
     1
100
AcDbCircle
 10
-5.713538653092939
 20
21.07655162333089
 30
0.0
 40
0.216666666645
100
AcDbArc
 50
180.0
 51
270.0
  0
LINE
  5
1EA
330
2
100
AcDbEntity
  8
GAIKEI
  6
HIDDEN2
 62
     1
100
AcDbLine
 10
-6.705205319660478
 20
22.0765516232309
 30
0.0
 11
-6.771871986320491
 21
22.0765516232309
 31
0.0
  0
LINE
  5
1EB
330
2
100
AcDbEntity
  8
GAIKEI
  6
HIDDEN2
 62
     1
100
AcDbLine
 10
-6.62187198633552
 20
22.00988495657089
 30
0.0
 11
-6.62187198633552
 21
22.0765516232309
 31
0.0
  0
LINE
  5
1EC
330
2
100
AcDbEntity
  8
GAIKEI
  6
HIDDEN2
 62
     1
100
AcDbLine
 10
-6.62187198633552
 20
22.00988495657089
 30
0.0
 11
-6.688538652995418
 21
22.00988495657089
 31
0.0
  0
LINE
  5
1ED
330
2
100
AcDbEntity
  8
GAIKEI
  6
HIDDEN2
 62
     1
100
AcDbLine
 10
-6.688538652995418
 20
22.0932182898959
 30
0.0
 11
-6.688538652995418
 21
22.00988495657089
 31
0.0
  0
LINE
  5
1EE
330
2
100
AcDbEntity
  8
GAIKEI
  6
HIDDEN2
 62
     1
100
AcDbLine
 10
-6.771871986320491
 20
21.94321828991087
 30
0.0
 11
-6.688538652995418
 21
21.94321828991087
 31
0.0
  0
LINE
  5
1EF
330
2
100
AcDbEntity
  8
GAIKEI
  6
HIDDEN2
 62
     1
100
AcDbLine
 10
-6.705205319660478
 20
22.0765516232309
 30
0.0
 11
-6.705205319660478
 21
21.94321828991087
 31
0.0
  0
ARC
  5
1F0
330
2
100
AcDbEntity
  8
GAIKEI
  6
HIDDEN2
 62
     1
100
AcDbCircle
 10
-6.688538652995418
 20
22.00988495657089
 30
0.0
 40
0.06666666666
100
AcDbArc
 50
270.0
 51
0.0
  0
ARC
  5
1F1
330
2
100
AcDbEntity
  8
GAIKEI
  6
HIDDEN2
 62
     1
100
AcDbCircle
 10
-5.688538653095463
 20
23.3265516231059
 30
0.0
 40
0.116666666655
100
AcDbArc
 50
90.0
 51
270.0
  0
LINE
  5
1F2
330
2
100
AcDbEntity
  8
GAIKEI
  6
HIDDEN2
 62
     1
100
AcDbLine
 10
-6.185205319712565
 20
22.76988495649488
 30
0.0
 11
-6.185205319712565
 21
22.66988495650492
 31
0.0
  0
LINE
  5
1F3
330
2
100
AcDbEntity
  8
GAIKEI
  6
HIDDEN2
 62
     1
100
AcDbLine
 10
-6.188538653045441
 20
22.74321828983091
 30
0.0
 11
-6.188538653045441
 21
22.66988495650492
 31
0.0
  0
LINE
  5
1F4
330
2
100
AcDbEntity
  8
GAIKEI
  6
HIDDEN2
 62
     1
100
AcDbLine
 10
-6.691871986328521
 20
22.76988495649488
 30
0.0
 11
-6.691871986328521
 21
22.66988495650492
 31
0.0
  0
LINE
  5
1F5
330
2
100
AcDbEntity
  8
GAIKEI
  6
HIDDEN2
 62
     1
100
AcDbLine
 10
-6.688538652995418
 20
22.74321828983091
 30
0.0
 11
-6.688538652995418
 21
22.66988495650492
 31
0.0
  0
LINE
  5
1F6
330
2
100
AcDbEntity
  8
GAIKEI
  6
HIDDEN2
 62
     1
100
AcDbLine
 10
-6.691871986328521
 20
22.76988495649488
 30
0.0
 11
-6.185205319712565
 21
22.76988495649488
 31
0.0
  0
LINE
  5
1F7
330
2
100
AcDbEntity
  8
GAIKEI
  6
HIDDEN2
 62
     1
100
AcDbLine
 10
-6.691871986328521
 20
22.66988495650492
 30
0.0
 11
-6.185205319712565
 21
22.66988495650492
 31
0.0
  0
LINE
  5
1F8
330
2
100
AcDbEntity
  8
GAIKEI
  6
HIDDEN2
 62
     1
100
AcDbLine
 10
-6.188538653045441
 20
22.74321828983091
 30
0.0
 11
-6.688538652995418
 21
22.74321828983091
 31
0.0
  0
LINE
  5
1F9
330
2
100
AcDbEntity
  8
GAIKEI
  6
HIDDEN2
 62
     1
100
AcDbLine
 10
-6.188538653045441
 20
22.67655162317089
 30
0.0
 11
-6.688538652995418
 21
22.67655162317089
 31
0.0
  0
ARC
  5
1FA
330
2
100
AcDbEntity
  8
GAIKEI
  6
HIDDEN2
 62
     1
100
AcDbCircle
 10
-5.113538653152943
 20
21.50657328995453
 30
0.0
 40
0.3333333333
100
AcDbArc
 50
130.6012950000002
 51
180.0
  0
LINE
  5
1FB
330
2
100
AcDbEntity
  8
GAIKEI
  6
HIDDEN2
 62
     1
100
AcDbLine
 10
-5.046008486493008
 20
22.00988495657089
 30
0.0
 11
-6.331068819697918
 21
22.00988495657089
 31
0.0
  0
LINE
  5
1FC
330
2
100
AcDbEntity
  8
GAIKEI
  6
HIDDEN2
 62
     1
100
AcDbLine
 10
-4.688538653195394
 20
22.0765516232309
 30
0.0
 11
-6.688538652995418
 21
22.0765516232309
 31
0.0
  0
LINE
  5
1FD
330
2
100
AcDbEntity
  8
GAIKEI
  6
HIDDEN2
 62
     1
100
AcDbLine
 10
-4.271871986570488
 20
23.20988495645088
 30
0.0
 11
-5.688538653095463
 21
23.20988495645088
 31
0.0
  0
LINE
  5
1FE
330
2
100
AcDbEntity
  8
GAIKEI
  6
HIDDEN2
 62
     1
100
AcDbLine
 10
-4.271871986570488
 20
23.44321828976086
 30
0.0
 11
-5.688538653095463
 21
23.44321828976086
 31
0.0
  0
LINE
  5
1FF
330
2
100
AcDbEntity
  8
GAIKEI
  6
HIDDEN2
 62
     1
100
AcDbLine
 10
-5.121871986485473
 20
20.21821829008337
 30
0.0
 11
-5.121871986485473
 21
20.26821829007833
 31
0.0
  0
ARC
  5
200
330
2
100
AcDbEntity
  8
GAIKEI
  6
HIDDEN2
 62
     1
100
AcDbCircle
 10
-5.338538653130456
 20
20.22655162341584
 30
0.0
 40
0.216666666645
100
AcDbArc
 50
270.0
 51
0.0
  0
ARC
  5
201
330
2
100
AcDbEntity
  8
GAIKEI
  6
HIDDEN2
 62
     1
100
AcDbCircle
 10
-5.338538653130456
 20
20.25988495674591
 30
0.0
 40
0.216666666645
100
AcDbArc
 50
0.0
 51
90.0
  0
ARC
  5
202
330
2
100
AcDbEntity
  8
GAIKEI
  6
HIDDEN2
 62
     1
100
AcDbCircle
 10
-5.559524486441716
 20
20.64321829004086
 30
0.0
 40
0.16666666665
100
AcDbArc
 50
217.9798719999997
 51
270.0
  0
ARC
  5
203
330
2
100
AcDbEntity
  8
GAIKEI
  6
HIDDEN2
 62
     1
100
AcDbCircle
 10
-6.071871986390476
 20
20.72637962336592
 30
0.0
 40
0.0668388333266495
100
AcDbArc
 50
355.8873210000002
 51
183.8197659999996
  0
ARC
  5
204
330
2
100
AcDbEntity
  8
GAIKEI
  6
HIDDEN2
 62
     1
100
AcDbCircle
 10
-6.071871986390476
 20
20.24321829008091
 30
0.0
 40
0.4833333332849999
100
AcDbArc
 50
37.97987199999973
 51
82.06901600000037
  0
ARC
  5
205
330
2
100
AcDbEntity
  8
GAIKEI
  6
HIDDEN2
 62
     1
100
AcDbCircle
 10
-5.559524486441716
 20
19.84321829012088
 30
0.0
 40
0.16666666665
100
AcDbArc
 50
90.0
 51
142.0201280000003
  0
ARC
  5
206
330
2
100
AcDbEntity
  8
GAIKEI
  6
HIDDEN2
 62
     1
100
AcDbCircle
 10
-6.071871986390476
 20
19.76005712346256
 30
0.0
 40
0.0668388333266495
100
AcDbArc
 50
176.1802340000004
 51
4.112678999999832
  0
ARC
  5
207
330
2
100
AcDbEntity
  8
GAIKEI
  6
HIDDEN2
 62
     1
100
AcDbCircle
 10
-6.071871986390476
 20
20.24321829008091
 30
0.0
 40
0.4833333332849999
100
AcDbArc
 50
277.9309839999996
 51
322.0201280000003
  0
ARC
  5
208
330
2
100
AcDbEntity
  8
GAIKEI
  6
HIDDEN2
 62
     1
100
AcDbCircle
 10
-6.524229486345177
 20
20.41297545673052
 30
0.0
 40
0.0668388333266495
100
AcDbArc
 50
65.6119860000001
 51
253.2485960000009
  0
ARC
  5
209
330
2
100
AcDbEntity
  8
GAIKEI
  6
HIDDEN2
 62
     1
100
AcDbCircle
 10
-6.071871986390476
 20
20.24321829008091
 30
0.0
 40
0.4833333332849999
100
AcDbArc
 50
167.3612749999995
 51
192.6387249999973
  0
ARC
  5
20A
330
2
100
AcDbEntity
  8
GAIKEI
  6
HIDDEN2
 62
     1
100
AcDbCircle
 10
-6.524229486345177
 20
20.07346129009784
 30
0.0
 40
0.0668388333266495
100
AcDbArc
 50
106.7514039999991
 51
294.6823879999998
  0
ARC
  5
20B
330
2
100
AcDbEntity
  8
GAIKEI
  6
HIDDEN2
 62
     1
100
AcDbCircle
 10
-6.071871986390476
 20
20.24321829008091
 30
0.0
 40
0.4833333332849999
100
AcDbArc
 50
97.93380099999502
 51
151.4993069999999
  0
ARC
  5
20C
330
2
100
AcDbEntity
  8
GAIKEI
  6
HIDDEN2
 62
     1
100
AcDbCircle
 10
-6.071871986390476
 20
20.24321829008091
 30
0.0
 40
0.4833333332849999
100
AcDbArc
 50
208.5035099999959
 51
262.0661989999985
  0
LINE
  5
20D
330
2
100
AcDbEntity
  8
GAIKEI
  6
HIDDEN2
 62
     1
100
AcDbLine
 10
-5.338538653130456
 20
20.47655162339083
 30
0.0
 11
-5.559524486441716
 21
20.47655162339083
 31
0.0
  0
LINE
  5
20E
330
2
100
AcDbEntity
  8
GAIKEI
  6
HIDDEN2
 62
     1
100
AcDbLine
 10
-5.338538653130456
 20
20.00988495677092
 30
0.0
 11
-5.559524486441716
 21
20.00988495677092
 31
0.0
  0
LINE
  5
20F
330
2
100
AcDbEntity
  8
GAIKEI
  6
HIDDEN2
 62
     1
100
AcDbLine
 10
-5.138538653150533
 20
11.14321829099089
 30
0.0
 11
-5.138538653150533
 21
11.30982629097417
 31
0.0
  0
ARC
  5
210
330
2
100
AcDbEntity
  8
GAIKEI
  6
HIDDEN2
 62
     1
100
AcDbCircle
 10
-5.138710819817163
 20
11.37655162430087
 30
0.0
 40
0.0668388333266495
100
AcDbArc
 50
270.1475399999991
 51
93.33963399999896
  0
ARC
  5
211
330
2
100
AcDbEntity
  8
GAIKEI
  6
HIDDEN2
 62
     1
100
AcDbCircle
 10
-5.280205319802973
 20
10.55425745771646
 30
0.0
 40
0.16666666665
100
AcDbArc
 50
124.7340099999986
 51
180.0
  0
ARC
  5
212
330
2
100
AcDbEntity
  8
GAIKEI
  6
HIDDEN2
 62
     1
100
AcDbCircle
 10
-5.688538653095463
 20
11.14321829099089
 30
0.0
 40
0.5499999999449999
100
AcDbArc
 50
180.0
 51
235.2659900000014
  0
ARC
  5
213
330
2
100
AcDbEntity
  8
GAIKEI
  6
HIDDEN2
 62
     1
100
AcDbCircle
 10
-6.096871986387952
 20
10.55425745771646
 30
0.0
 40
0.16666666665
100
AcDbArc
 50
0.0
 51
55.26599000000138
  0
LINE
  5
214
330
2
100
AcDbEntity
  8
GAIKEI
  6
HIDDEN2
 62
     1
100
AcDbLine
 10
-6.238538653040507
 20
11.14321829099089
 30
0.0
 11
-6.238538653040507
 21
11.30971312430756
 31
0.0
  0
ARC
  5
215
330
2
100
AcDbEntity
  8
GAIKEI
  6
HIDDEN2
 62
     1
100
AcDbCircle
 10
-6.238366653040486
 20
11.37655162430087
 30
0.0
 40
0.0668388333266495
100
AcDbArc
 50
86.66036600000103
 51
269.8524600000009
  0
ARC
  5
216
330
2
100
AcDbEntity
  8
GAIKEI
  6
HIDDEN2
 62
     1
100
AcDbCircle
 10
-5.688538653095463
 20
11.37655162430087
 30
0.0
 40
0.5499999999449999
100
AcDbArc
 50
6.973576000001121
 51
173.0689550000012
  0
ARC
  5
217
330
2
100
AcDbEntity
  8
GAIKEI
  6
HIDDEN2
 62
     1
100
AcDbCircle
 10
-5.688538653095463
 20
11.14321829099089
 30
0.0
 40
0.5499999999449999
100
AcDbArc
 50
304.7340099999987
 51
0.0
  0
ARC
  5
218
330
2
100
AcDbEntity
  8
GAIKEI
  6
HIDDEN2
 62
     1
100
AcDbCircle
 10
-11.68853865249542
 20
23.3265516231059
 30
0.0
 40
0.116666666655
100
AcDbArc
 50
90.0
 51
270.0
  0
ARC
  5
219
330
2
100
AcDbEntity
  8
GAIKEI
  6
HIDDEN2
 62
     1
100
AcDbCircle
 10
-15.02187198549546
 20
23.3265516231059
 30
0.0
 40
0.116666666655
100
AcDbArc
 50
270.0
 51
90.0
  0
ARC
  5
21A
330
2
100
AcDbEntity
  8
GAIKEI
  6
HIDDEN2
 62
     1
100
AcDbCircle
 10
-16.68853865199543
 20
22.65988495650589
 30
0.0
 40
0.3333333333
100
AcDbArc
 50
180.0
 51
0.0
  0
ARC
  5
21B
330
2
100
AcDbEntity
  8
GAIKEI
  6
HIDDEN2
 62
     1
100
AcDbCircle
 10
-16.68853865199543
 20
22.65988495650589
 30
0.0
 40
0.116666666655
100
AcDbArc
 50
180.0
 51
0.0
  0
LINE
  5
21C
330
2
100
AcDbEntity
  8
GAIKEI
  6
HIDDEN2
 62
     1
100
AcDbLine
 10
-17.18853865194541
 20
23.20988495645088
 30
0.0
 11
-18.35520531849539
 21
23.20988495645088
 31
0.0
  0
LINE
  5
21D
330
2
100
AcDbEntity
  8
GAIKEI
  6
HIDDEN2
 62
     1
100
AcDbLine
 10
-17.18853865194541
 20
23.44321828976086
 30
0.0
 11
-18.35520531849539
 21
23.44321828976086
 31
0.0
  0
ARC
  5
21E
330
2
100
AcDbEntity
  8
GAIKEI
  6
HIDDEN2
 62
     1
100
AcDbCircle
 10
-18.35520531849539
 20
23.3265516231059
 30
0.0
 40
0.116666666655
100
AcDbArc
 50
90.0
 51
270.0
  0
ARC
  5
21F
330
2
100
AcDbEntity
  8
GAIKEI
  6
HIDDEN2
 62
     1
100
AcDbCircle
 10
-16.18853865204545
 20
23.3265516231059
 30
0.0
 40
0.116666666655
100
AcDbArc
 50
90.0
 51
270.0
  0
LINE
  5
220
330
2
100
AcDbEntity
  8
GAIKEI
  6
HIDDEN2
 62
     1
100
AcDbLine
 10
-16.57187198534046
 20
23.20149162311844
 30
0.0
 11
-16.57187198534046
 21
23.3265516231059
 31
0.0
  0
ARC
  5
221
330
2
100
AcDbEntity
  8
GAIKEI
  6
HIDDEN2
 62
     1
100
AcDbCircle
 10
-16.53853865201046
 20
23.20149162311844
 30
0.0
 40
0.03333333333
100
AcDbArc
 50
180.0
 51
234.2382859999955
  0
ARC
  5
222
330
2
100
AcDbEntity
  8
GAIKEI
  6
HIDDEN2
 62
     1
100
AcDbCircle
 10
-17.18853865194541
 20
23.3265516231059
 30
0.0
 40
0.116666666655
100
AcDbArc
 50
270.0
 51
90.0
  0
LINE
  5
223
330
2
100
AcDbEntity
  8
GAIKEI
  6
HIDDEN2
 62
     1
100
AcDbLine
 10
-16.80520531865051
 20
23.20149162311844
 30
0.0
 11
-16.80520531865051
 21
23.3265516231059
 31
0.0
  0
ARC
  5
224
330
2
100
AcDbEntity
  8
GAIKEI
  6
HIDDEN2
 62
     1
100
AcDbCircle
 10
-16.8385386519804
 20
23.20149162311844
 30
0.0
 40
0.03333333333
100
AcDbArc
 50
305.7617140000045
 51
0.0
  0
ARC
  5
225
330
2
100
AcDbEntity
  8
GAIKEI
  6
HIDDEN2
 62
     1
100
AcDbCircle
 10
-16.68853865199543
 20
23.3265516231059
 30
0.0
 40
0.116666666655
100
AcDbArc
 50
0.0
 51
180.0
  0
LINE
  5
226
330
2
100
AcDbEntity
  8
GAIKEI
  6
HIDDEN2
 62
     1
100
AcDbLine
 10
-16.57187198534046
 20
22.65988495650589
 30
0.0
 11
-16.57187198534046
 21
22.7849449564934
 31
0.0
  0
ARC
  5
227
330
2
100
AcDbEntity
  8
GAIKEI
  6
HIDDEN2
 62
     1
100
AcDbCircle
 10
-16.53853865201046
 20
22.7849449564934
 30
0.0
 40
0.03333333333
100
AcDbArc
 50
125.7617140000045
 51
180.0
  0
LINE
  5
228
330
2
100
AcDbEntity
  8
GAIKEI
  6
HIDDEN2
 62
     1
100
AcDbLine
 10
-16.80520531865051
 20
22.65988495650589
 30
0.0
 11
-16.80520531865051
 21
22.7849449564934
 31
0.0
  0
ARC
  5
229
330
2
100
AcDbEntity
  8
GAIKEI
  6
HIDDEN2
 62
     1
100
AcDbCircle
 10
-16.8385386519804
 20
22.7849449564934
 30
0.0
 40
0.03333333333
100
AcDbArc
 50
0.0
 51
54.23828599999552
  0
ARC
  5
22A
330
2
100
AcDbEntity
  8
GAIKEI
  6
HIDDEN2
 62
     1
100
AcDbCircle
 10
-17.35520531859544
 20
22.65988495650589
 30
0.0
 40
0.3333333333
100
AcDbArc
 50
0.0
 51
90.0
  0
ARC
  5
22B
330
2
100
AcDbEntity
  8
GAIKEI
  6
HIDDEN2
 62
     1
100
AcDbCircle
 10
-16.02187198539542
 20
22.65988495650589
 30
0.0
 40
0.3333333333
100
AcDbArc
 50
90.0
 51
180.0
  0
ARC
  5
22C
330
2
100
AcDbEntity
  8
GAIKEI
  6
HIDDEN2
 62
     1
100
AcDbCircle
 10
-16.68853865199543
 20
22.99321828980589
 30
0.0
 40
0.223333333311
100
AcDbArc
 50
125.7617140000045
 51
234.2382859999955
  0
ARC
  5
22D
330
2
100
AcDbEntity
  8
GAIKEI
  6
HIDDEN2
 62
     1
100
AcDbCircle
 10
-16.68853865199543
 20
22.99321828980589
 30
0.0
 40
0.223333333311
100
AcDbArc
 50
305.7617140000045
 51
54.23828599999552
  0
ARC
  5
22E
330
2
100
AcDbEntity
  8
GAIKEI
  6
HIDDEN2
 62
     1
100
AcDbCircle
 10
-21.68853865149543
 20
23.3265516231059
 30
0.0
 40
0.116666666655
100
AcDbArc
 50
270.0
 51
90.0
  0
LINE
  5
22F
330
2
100
AcDbEntity
  8
GAIKEI
  6
HIDDEN2
 62
     1
100
AcDbLine
 10
-16.18853865204545
 20
23.20988495645088
 30
0.0
 11
-15.02187198549546
 21
23.20988495645088
 31
0.0
  0
LINE
  5
230
330
2
100
AcDbEntity
  8
GAIKEI
  6
HIDDEN2
 62
     1
100
AcDbLine
 10
-16.18853865204545
 20
23.44321828976086
 30
0.0
 11
-15.02187198549546
 21
23.44321828976086
 31
0.0
  0
LINE
  5
231
330
2
100
AcDbEntity
  8
GAIKEI
  6
HIDDEN2
 62
     1
100
AcDbLine
 10
-16.02187198539542
 20
22.99321828980589
 30
0.0
 11
-7.130205319618028
 21
22.99321828980589
 31
0.0
  0
LINE
  5
232
330
2
100
AcDbEntity
  8
GAIKEI
  6
HIDDEN2
 62
     1
100
AcDbLine
 10
-8.355205319495496
 20
23.20988495645088
 30
0.0
 11
-11.68853865249542
 21
23.20988495645088
 31
0.0
  0
LINE
  5
233
330
2
100
AcDbEntity
  8
GAIKEI
  6
HIDDEN2
 62
     1
100
AcDbLine
 10
-8.355205319495496
 20
23.44321828976086
 30
0.0
 11
-11.68853865249542
 21
23.44321828976086
 31
0.0
  0
ARC
  5
234
330
2
100
AcDbEntity
  8
GAIKEI
  6
HIDDEN2
 62
     1
100
AcDbCircle
 10
-25.02187198449548
 20
23.3265516231059
 30
0.0
 40
0.116666666655
100
AcDbArc
 50
90.0
 51
270.0
  0
LINE
  5
235
330
2
100
AcDbEntity
  8
GAIKEI
  6
HIDDEN2
 62
     1
100
AcDbLine
 10
-26.58020531767301
 20
22.15988495655591
 30
0.0
 11
-26.58020531767301
 21
22.65988495650589
 31
0.0
  0
LINE
  5
236
330
2
100
AcDbEntity
  8
GAIKEI
  6
HIDDEN2
 62
     1
100
AcDbLine
 10
-28.7968719841179
 20
22.15988495655591
 30
0.0
 11
-28.7968719841179
 21
22.66060678983911
 31
0.0
  0
LINE
  5
237
330
2
100
AcDbEntity
  8
GAIKEI
  6
HIDDEN2
 62
     1
100
AcDbLine
 10
-29.60520531737046
 20
22.0932182898959
 30
0.0
 11
-29.60520531737046
 21
23.9265516230459
 31
0.0
  0
LINE
  5
238
330
2
100
AcDbEntity
  8
GAIKEI
  6
HIDDEN2
 62
     1
100
AcDbLine
 10
-28.31525815083279
 20
21.98993028990622
 30
0.0
 11
-28.04660831752637
 21
21.7596589565959
 31
0.0
  0
LINE
  5
239
330
2
100
AcDbEntity
  8
GAIKEI
  6
HIDDEN2
 62
     1
100
AcDbLine
 10
-28.68853865079547
 20
22.0765516232309
 30
0.0
 11
-26.68853865099544
 21
22.0765516232309
 31
0.0
  0
LINE
  5
23A
330
2
100
AcDbEntity
  8
GAIKEI
  6
HIDDEN2
 62
     1
100
AcDbLine
 10
-28.33106881749785
 20
22.00988495657089
 30
0.0
 11
-27.04600848429306
 21
22.00988495657089
 31
0.0
  0
LINE
  5
23B
330
2
100
AcDbEntity
  8
GAIKEI
  6
HIDDEN2
 62
     1
100
AcDbLine
 10
-28.70520531746052
 20
22.0765516232309
 30
0.0
 11
-28.77187198412043
 21
22.0765516232309
 31
0.0
  0
LINE
  5
23C
330
2
100
AcDbEntity
  8
GAIKEI
  6
HIDDEN2
 62
     1
100
AcDbLine
 10
-28.62187198413545
 20
22.00988495657089
 30
0.0
 11
-28.62187198413545
 21
22.0765516232309
 31
0.0
  0
LINE
  5
23D
330
2
100
AcDbEntity
  8
GAIKEI
  6
HIDDEN2
 62
     1
100
AcDbLine
 10
-28.62187198413545
 20
22.00988495657089
 30
0.0
 11
-28.68853865079547
 21
22.00988495657089
 31
0.0
  0
POINT
  5
23E
330
2
100
AcDbEntity
  8
GAIKEI
  6
HIDDEN2
 62
     1
100
AcDbPoint
 10
-28.33853865083046
 20
22.00988495657089
 30
0.0
  0
LINE
  5
23F
330
2
100
AcDbEntity
  8
GAIKEI
  6
HIDDEN2
 62
     1
100
AcDbLine
 10
-28.33853865083046
 20
22.0765516232309
 30
0.0
 11
-28.33853865083046
 21
22.04054728990116
 31
0.0
  0
LINE
  5
240
330
2
100
AcDbEntity
  8
GAIKEI
  6
HIDDEN2
 62
     1
100
AcDbLine
 10
-28.35520531749541
 20
22.0932182898959
 30
0.0
 11
-28.35520531749541
 21
22.15988495655591
 31
0.0
  0
LINE
  5
241
330
2
100
AcDbEntity
  8
GAIKEI
  6
HIDDEN2
 62
     1
100
AcDbLine
 10
-28.68853865079547
 20
22.0932182898959
 30
0.0
 11
-28.68853865079547
 21
22.00988495657089
 31
0.0
  0
LINE
  5
242
330
2
100
AcDbEntity
  8
GAIKEI
  6
HIDDEN2
 62
     1
100
AcDbLine
 10
-28.35520531749541
 20
22.15988495655591
 30
0.0
 11
-29.60520531737046
 21
22.15988495655591
 31
0.0
  0
LINE
  5
243
330
2
100
AcDbEntity
  8
GAIKEI
  6
HIDDEN2
 62
     1
100
AcDbLine
 10
-28.77187198412043
 20
21.94321828991087
 30
0.0
 11
-28.68853865079547
 21
21.94321828991087
 31
0.0
  0
LINE
  5
244
330
2
100
AcDbEntity
  8
GAIKEI
  6
HIDDEN2
 62
     1
100
AcDbLine
 10
-28.70520531746052
 20
22.0765516232309
 30
0.0
 11
-28.70520531746052
 21
21.94321828991087
 31
0.0
  0
ARC
  5
245
330
2
100
AcDbEntity
  8
GAIKEI
  6
HIDDEN2
 62
     1
100
AcDbCircle
 10
-28.68853865079547
 20
22.00988495657089
 30
0.0
 40
0.06666666666
100
AcDbArc
 50
270.0
 51
0.0
  0
ARC
  5
246
330
2
100
AcDbEntity
  8
GAIKEI
  6
HIDDEN2
 62
     1
100
AcDbCircle
 10
-28.27187198417045
 20
22.04054728990116
 30
0.0
 40
0.06666666666
100
AcDbArc
 50
180.0
 51
229.3987049999998
  0
LINE
  5
247
330
2
100
AcDbEntity
  8
GAIKEI
  6
HIDDEN2
 62
     1
100
AcDbLine
 10
-26.6718719843305
 20
22.0765516232309
 30
0.0
 11
-26.60520531767048
 21
22.0765516232309
 31
0.0
  0
LINE
  5
248
330
2
100
AcDbEntity
  8
GAIKEI
  6
HIDDEN2
 62
     1
100
AcDbLine
 10
-26.75520531765545
 20
22.00988495657089
 30
0.0
 11
-26.75520531765545
 21
22.0765516232309
 31
0.0
  0
LINE
  5
249
330
2
100
AcDbEntity
  8
GAIKEI
  6
HIDDEN2
 62
     1
100
AcDbLine
 10
-26.75520531765545
 20
22.00988495657089
 30
0.0
 11
-26.68853865099544
 21
22.00988495657089
 31
0.0
  0
LINE
  5
24A
330
2
100
AcDbEntity
  8
GAIKEI
  6
HIDDEN2
 62
     1
100
AcDbLine
 10
-26.68853865099544
 20
22.0932182898959
 30
0.0
 11
-26.68853865099544
 21
22.00988495657089
 31
0.0
  0
LINE
  5
24B
330
2
100
AcDbEntity
  8
GAIKEI
  6
HIDDEN2
 62
     1
100
AcDbLine
 10
-26.60520531767048
 20
21.94321828991087
 30
0.0
 11
-26.68853865099544
 21
21.94321828991087
 31
0.0
  0
LINE
  5
24C
330
2
100
AcDbEntity
  8
GAIKEI
  6
HIDDEN2
 62
     1
100
AcDbLine
 10
-26.6718719843305
 20
22.0765516232309
 30
0.0
 11
-26.6718719843305
 21
21.94321828991087
 31
0.0
  0
ARC
  5
24D
330
2
100
AcDbEntity
  8
GAIKEI
  6
HIDDEN2
 62
     1
100
AcDbCircle
 10
-26.68853865099544
 20
22.00988495657089
 30
0.0
 40
0.06666666666
100
AcDbArc
 50
180.0
 51
270.0
  0
LINE
  5
24E
330
2
100
AcDbEntity
  8
GAIKEI
  6
HIDDEN2
 62
     1
100
AcDbLine
 10
-27.03853865096045
 20
22.0765516232309
 30
0.0
 11
-27.03853865096045
 21
22.04054728990116
 31
0.0
  0
POINT
  5
24F
330
2
100
AcDbEntity
  8
GAIKEI
  6
HIDDEN2
 62
     1
100
AcDbPoint
 10
-27.03853865096045
 20
22.00988495657089
 30
0.0
  0
ARC
  5
250
330
2
100
AcDbEntity
  8
GAIKEI
  6
HIDDEN2
 62
     1
100
AcDbCircle
 10
-27.10520531762046
 20
22.04054728990116
 30
0.0
 40
0.06666666666
100
AcDbArc
 50
310.6012950000001
 51
0.0
  0
LINE
  5
251
330
2
100
AcDbEntity
  8
GAIKEI
  6
HIDDEN2
 62
     1
100
AcDbLine
 10
-27.02187198429539
 20
22.0932182898959
 30
0.0
 11
-27.02187198429539
 21
22.15988495655591
 31
0.0
  0
LINE
  5
252
330
2
100
AcDbEntity
  8
GAIKEI
  6
HIDDEN2
 62
     1
100
AcDbLine
 10
-27.44687198425294
 20
21.07655162333089
 30
0.0
 11
-27.44687198425294
 21
21.50657328995453
 31
0.0
  0
POINT
  5
253
330
2
100
AcDbEntity
  8
GAIKEI
  6
HIDDEN2
 62
     1
100
AcDbPoint
 10
-27.44687198425294
 20
21.65988495660593
 30
0.0
  0
ARC
  5
254
330
2
100
AcDbEntity
  8
GAIKEI
  6
HIDDEN2
 62
     1
100
AcDbCircle
 10
-27.11353865095299
 20
21.50657328995453
 30
0.0
 40
0.3333333333
100
AcDbArc
 50
130.6012950000002
 51
180.0
  0
LINE
  5
255
330
2
100
AcDbEntity
  8
GAIKEI
  6
HIDDEN2
 62
     1
100
AcDbLine
 10
-27.93020531753797
 20
21.07655162333089
 30
0.0
 11
-27.93020531753797
 21
21.50657328995453
 31
0.0
  0
POINT
  5
256
330
2
100
AcDbEntity
  8
GAIKEI
  6
HIDDEN2
 62
     1
100
AcDbPoint
 10
-27.93020531753797
 20
21.65988495660593
 30
0.0
  0
ARC
  5
257
330
2
100
AcDbEntity
  8
GAIKEI
  6
HIDDEN2
 62
     1
100
AcDbCircle
 10
-28.26353865083803
 20
21.50657328995453
 30
0.0
 40
0.3333333333
100
AcDbArc
 50
0.0
 51
49.39870499999981
  0
LINE
  5
258
330
2
100
AcDbEntity
  8
GAIKEI
  6
HIDDEN2
 62
     1
100
AcDbLine
 10
-27.06181931762484
 20
21.98993028990622
 30
0.0
 11
-27.33046915093126
 21
21.7596589565959
 31
0.0
  0
LINE
  5
259
330
2
100
AcDbEntity
  8
GAIKEI
  6
HIDDEN2
 62
     1
100
AcDbLine
 10
-27.66353865089803
 20
20.85988495668591
 30
0.0
 11
-27.71353865089299
 21
20.85988495668591
 31
0.0
  0
ARC
  5
25A
330
2
100
AcDbEntity
  8
GAIKEI
  6
HIDDEN2
 62
     1
100
AcDbCircle
 10
-27.71353865089299
 20
21.07655162333089
 30
0.0
 40
0.216666666645
100
AcDbArc
 50
180.0
 51
270.0
  0
ARC
  5
25B
330
2
100
AcDbEntity
  8
GAIKEI
  6
HIDDEN2
 62
     1
100
AcDbCircle
 10
-27.66353865089803
 20
21.07655162333089
 30
0.0
 40
0.216666666645
100
AcDbArc
 50
270.0
 51
0.0
  0
LINE
  5
25C
330
2
100
AcDbEntity
  8
GAIKEI
  6
HIDDEN2
 62
     1
100
AcDbLine
 10
-29.10520531742049
 20
23.20988495645088
 30
0.0
 11
-27.68853865089551
 21
23.20988495645088
 31
0.0
  0
LINE
  5
25D
330
2
100
AcDbEntity
  8
GAIKEI
  6
HIDDEN2
 62
     1
100
AcDbLine
 10
-29.10520531742049
 20
23.44321828976086
 30
0.0
 11
-27.68853865089551
 21
23.44321828976086
 31
0.0
  0
LINE
  5
25E
330
2
100
AcDbEntity
  8
GAIKEI
  6
HIDDEN2
 62
     1
100
AcDbLine
 10
-28.1852053175125
 20
22.76988495649488
 30
0.0
 11
-28.1852053175125
 21
22.66988495650492
 31
0.0
  0
LINE
  5
25F
330
2
100
AcDbEntity
  8
GAIKEI
  6
HIDDEN2
 62
     1
100
AcDbLine
 10
-28.18853865084549
 20
22.74321828983091
 30
0.0
 11
-28.18853865084549
 21
22.66988495650492
 31
0.0
  0
ARC
  5
260
330
2
100
AcDbEntity
  8
GAIKEI
  6
HIDDEN2
 62
     1
100
AcDbCircle
 10
-29.10520531742049
 20
23.3265516231059
 30
0.0
 40
0.116666666655
100
AcDbArc
 50
90.0
 51
270.0
  0
ARC
  5
261
330
2
100
AcDbEntity
  8
GAIKEI
  6
HIDDEN2
 62
     1
100
AcDbCircle
 10
-29.10520531742049
 20
23.3265516231059
 30
0.0
 40
0.3333333333
100
AcDbArc
 50
90.0
 51
270.0
  0
LINE
  5
262
330
2
100
AcDbEntity
  8
GAIKEI
  6
HIDDEN2
 62
     1
100
AcDbLine
 10
-28.69187198412857
 20
22.76988495649488
 30
0.0
 11
-28.69187198412857
 21
22.66988495650492
 31
0.0
  0
LINE
  5
263
330
2
100
AcDbEntity
  8
GAIKEI
  6
HIDDEN2
 62
     1
100
AcDbLine
 10
-28.68853865079547
 20
22.74321828983091
 30
0.0
 11
-28.68853865079547
 21
22.66988495650492
 31
0.0
  0
ARC
  5
264
330
2
100
AcDbEntity
  8
GAIKEI
  6
HIDDEN2
 62
     1
100
AcDbCircle
 10
-29.13020531741796
 20
22.66060678983911
 30
0.0
 40
0.3333333333
100
AcDbArc
 50
0.0
 51
85.69877800000073
  0
LINE
  5
265
330
2
100
AcDbEntity
  8
GAIKEI
  6
HIDDEN2
 62
     1
100
AcDbLine
 10
-28.69187198412857
 20
22.76988495649488
 30
0.0
 11
-28.1852053175125
 21
22.76988495649488
 31
0.0
  0
LINE
  5
266
330
2
100
AcDbEntity
  8
GAIKEI
  6
HIDDEN2
 62
     1
100
AcDbLine
 10
-28.69187198412857
 20
22.66988495650492
 30
0.0
 11
-28.1852053175125
 21
22.66988495650492
 31
0.0
  0
LINE
  5
267
330
2
100
AcDbEntity
  8
GAIKEI
  6
HIDDEN2
 62
     1
100
AcDbLine
 10
-28.68853865079547
 20
22.74321828983091
 30
0.0
 11
-28.18853865084549
 21
22.74321828983091
 31
0.0
  0
LINE
  5
268
330
2
100
AcDbEntity
  8
GAIKEI
  6
HIDDEN2
 62
     1
100
AcDbLine
 10
-28.68853865079547
 20
22.67655162317089
 30
0.0
 11
-28.18853865084549
 21
22.67655162317089
 31
0.0
  0
ARC
  5
269
330
2
100
AcDbEntity
  8
GAIKEI
  6
HIDDEN2
 62
     1
100
AcDbCircle
 10
-27.68853865089551
 20
23.3265516231059
 30
0.0
 40
0.116666666655
100
AcDbArc
 50
270.0
 51
90.0
  0
LINE
  5
26A
330
2
100
AcDbEntity
  8
GAIKEI
  6
HIDDEN2
 62
     1
100
AcDbLine
 10
-26.68520531766257
 20
22.76988495649488
 30
0.0
 11
-26.68520531766257
 21
22.66988495650492
 31
0.0
  0
LINE
  5
26B
330
2
100
AcDbEntity
  8
GAIKEI
  6
HIDDEN2
 62
     1
100
AcDbLine
 10
-26.68853865099544
 20
22.74321828983091
 30
0.0
 11
-26.68853865099544
 21
22.66988495650492
 31
0.0
  0
LINE
  5
26C
330
2
100
AcDbEntity
  8
GAIKEI
  6
HIDDEN2
 62
     1
100
AcDbLine
 10
-27.19187198427852
 20
22.76988495649488
 30
0.0
 11
-27.19187198427852
 21
22.66988495650492
 31
0.0
  0
LINE
  5
26D
330
2
100
AcDbEntity
  8
GAIKEI
  6
HIDDEN2
 62
     1
100
AcDbLine
 10
-27.18853865094542
 20
22.74321828983091
 30
0.0
 11
-27.18853865094542
 21
22.66988495650492
 31
0.0
  0
LINE
  5
26E
330
2
100
AcDbEntity
  8
GAIKEI
  6
HIDDEN2
 62
     1
100
AcDbLine
 10
-26.68520531766257
 20
22.76988495649488
 30
0.0
 11
-27.19187198427852
 21
22.76988495649488
 31
0.0
  0
LINE
  5
26F
330
2
100
AcDbEntity
  8
GAIKEI
  6
HIDDEN2
 62
     1
100
AcDbLine
 10
-26.68520531766257
 20
22.66988495650492
 30
0.0
 11
-27.19187198427852
 21
22.66988495650492
 31
0.0
  0
LINE
  5
270
330
2
100
AcDbEntity
  8
GAIKEI
  6
HIDDEN2
 62
     1
100
AcDbLine
 10
-27.18853865094542
 20
22.74321828983091
 30
0.0
 11
-26.68853865099544
 21
22.74321828983091
 31
0.0
  0
LINE
  5
271
330
2
100
AcDbEntity
  8
GAIKEI
  6
HIDDEN2
 62
     1
100
AcDbLine
 10
-27.18853865094542
 20
22.67655162317089
 30
0.0
 11
-26.68853865099544
 21
22.67655162317089
 31
0.0
  0
ARC
  5
272
330
2
100
AcDbEntity
  8
GAIKEI
  6
HIDDEN2
 62
     1
100
AcDbCircle
 10
-26.24687198437306
 20
22.65988495650589
 30
0.0
 40
0.3333333333
100
AcDbArc
 50
90.0
 51
180.0
  0
LINE
  5
273
330
2
100
AcDbEntity
  8
GAIKEI
  6
HIDDEN2
 62
     1
100
AcDbLine
 10
-27.3385386509305
 20
20.48488495672336
 30
0.0
 11
-28.08612165085566
 21
20.48488495672336
 31
0.0
  0
LINE
  5
274
330
2
100
AcDbEntity
  8
GAIKEI
  6
HIDDEN2
 62
     1
100
AcDbLine
 10
-27.3385386509305
 20
20.00155162343839
 30
0.0
 11
-28.08612165085566
 21
20.00155162343839
 31
0.0
  0
POINT
  5
275
330
2
100
AcDbEntity
  8
GAIKEI
  6
HIDDEN2
 62
     1
100
AcDbPoint
 10
-28.23853865084044
 20
20.48488495672336
 30
0.0
  0
POINT
  5
276
330
2
100
AcDbEntity
  8
GAIKEI
  6
HIDDEN2
 62
     1
100
AcDbPoint
 10
-28.23853865084044
 20
20.00155162343839
 30
0.0
  0
LINE
  5
277
330
2
100
AcDbEntity
  8
GAIKEI
  6
HIDDEN2
 62
     1
100
AcDbLine
 10
-28.77187198412043
 20
20.79321829002589
 30
0.0
 11
-28.5814139841396
 21
20.79321829002589
 31
0.0
  0
LINE
  5
278
330
2
100
AcDbEntity
  8
GAIKEI
  6
HIDDEN2
 62
     1
100
AcDbLine
 10
-28.33824265083052
 20
20.60016762337847
 30
0.0
 11
-28.45535348415211
 21
20.73557695669831
 31
0.0
  0
ARC
  5
279
330
2
100
AcDbEntity
  8
GAIKEI
  6
HIDDEN2
 62
     1
100
AcDbCircle
 10
-28.5814139841396
 20
20.62655162337586
 30
0.0
 40
0.16666666665
100
AcDbArc
 50
40.85537599999859
 51
90.0
  0
LINE
  5
27A
330
2
100
AcDbEntity
  8
GAIKEI
  6
HIDDEN2
 62
     1
100
AcDbLine
 10
-28.77187198412043
 20
19.69321829013592
 30
0.0
 11
-28.5814139841396
 21
19.69321829013592
 31
0.0
  0
LINE
  5
27B
330
2
100
AcDbEntity
  8
GAIKEI
  6
HIDDEN2
 62
     1
100
AcDbLine
 10
-28.33824265083052
 20
19.88626895678322
 30
0.0
 11
-28.45535348415211
 21
19.75085962346344
 31
0.0
  0
POINT
  5
27C
330
2
100
AcDbEntity
  8
GAIKEI
  6
HIDDEN2
 62
     1
100
AcDbPoint
 10
-28.50520531748049
 20
19.69321829013592
 30
0.0
  0
ARC
  5
27D
330
2
100
AcDbEntity
  8
GAIKEI
  6
HIDDEN2
 62
     1
100
AcDbCircle
 10
-28.5814139841396
 20
19.85988495678589
 30
0.0
 40
0.16666666665
100
AcDbArc
 50
270.0
 51
319.1446240000014
  0
LINE
  5
27E
330
2
100
AcDbEntity
  8
GAIKEI
  6
HIDDEN2
 62
     1
100
AcDbLine
 10
-28.70520531746052
 20
20.79321829002589
 30
0.0
 11
-28.70520531746052
 21
19.69321829013592
 31
0.0
  0
ARC
  5
27F
330
2
100
AcDbEntity
  8
GAIKEI
  6
HIDDEN2
 62
     1
100
AcDbCircle
 10
-28.08612165085566
 20
19.66821829013838
 30
0.0
 40
0.3333333333
100
AcDbArc
 50
90.0
 51
139.1446240000014
  0
ARC
  5
280
330
2
100
AcDbEntity
  8
GAIKEI
  6
HIDDEN2
 62
     1
100
AcDbCircle
 10
-28.08612165085566
 20
20.81821829002337
 30
0.0
 40
0.3333333333
100
AcDbArc
 50
220.8553759999986
 51
270.0
  0
LINE
  5
281
330
2
100
AcDbEntity
  8
GAIKEI
  6
HIDDEN2
 62
     1
100
AcDbLine
 10
-27.12187198428552
 20
20.21821829008337
 30
0.0
 11
-27.12187198428552
 21
20.26821829007833
 31
0.0
  0
ARC
  5
282
330
2
100
AcDbEntity
  8
GAIKEI
  6
HIDDEN2
 62
     1
100
AcDbCircle
 10
-27.3385386509305
 20
20.26821829007833
 30
0.0
 40
0.216666666645
100
AcDbArc
 50
0.0
 51
90.0
  0
ARC
  5
283
330
2
100
AcDbEntity
  8
GAIKEI
  6
HIDDEN2
 62
     1
100
AcDbCircle
 10
-27.3385386509305
 20
20.21821829008337
 30
0.0
 40
0.216666666645
100
AcDbArc
 50
270.0
 51
0.0
  0
ARC
  5
284
330
2
100
AcDbEntity
  8
GAIKEI
  6
HIDDEN2
 62
     1
100
AcDbCircle
 10
-27.68853865089551
 20
11.37655162430087
 30
0.0
 40
0.5499999999449999
100
AcDbArc
 50
6.93104499999877
 51
173.0264239999988
  0
ARC
  5
285
330
2
100
AcDbEntity
  8
GAIKEI
  6
HIDDEN2
 62
     1
100
AcDbCircle
 10
-27.68853865089551
 20
11.14321829099089
 30
0.0
 40
0.5499999999449999
100
AcDbArc
 50
180.0
 51
235.2659900000014
  0
LINE
  5
286
330
2
100
AcDbEntity
  8
GAIKEI
  6
HIDDEN2
 62
     1
100
AcDbLine
 10
-28.23853865084044
 20
11.14321829099089
 30
0.0
 11
-28.23853865084044
 21
11.30982629097417
 31
0.0
  0
ARC
  5
287
330
2
100
AcDbEntity
  8
GAIKEI
  6
HIDDEN2
 62
     1
100
AcDbCircle
 10
-28.23836665084042
 20
11.37655162430087
 30
0.0
 40
0.0668388333266495
100
AcDbArc
 50
86.66036600000103
 51
269.8524600000009
  0
ARC
  5
288
330
2
100
AcDbEntity
  8
GAIKEI
  6
HIDDEN2
 62
     1
100
AcDbCircle
 10
-27.68853865089551
 20
11.14321829099089
 30
0.0
 40
0.5499999999449999
100
AcDbArc
 50
304.7340099999987
 51
0.0
  0
ARC
  5
289
330
2
100
AcDbEntity
  8
GAIKEI
  6
HIDDEN2
 62
     1
100
AcDbCircle
 10
-27.28020531760302
 20
10.55425745771646
 30
0.0
 40
0.16666666665
100
AcDbArc
 50
124.7340099999986
 51
180.0
  0
LINE
  5
28A
330
2
100
AcDbEntity
  8
GAIKEI
  6
HIDDEN2
 62
     1
100
AcDbLine
 10
-27.13853865095047
 20
11.14321829099089
 30
0.0
 11
-27.13853865095047
 21
11.30971312430756
 31
0.0
  0
ARC
  5
28B
330
2
100
AcDbEntity
  8
GAIKEI
  6
HIDDEN2
 62
     1
100
AcDbCircle
 10
-28.096871984188
 20
10.55425745771646
 30
0.0
 40
0.16666666665
100
AcDbArc
 50
0.0
 51
55.26599000000138
  0
ARC
  5
28C
330
2
100
AcDbEntity
  8
GAIKEI
  6
HIDDEN2
 62
     1
100
AcDbCircle
 10
-27.13871081761709
 20
11.37655162430087
 30
0.0
 40
0.0668388333266495
100
AcDbArc
 50
270.1475399999991
 51
93.33963399999896
  0
LINE
  5
28D
330
2
100
AcDbEntity
  8
GAIKEI
  6
HIDDEN2
 62
     1
100
AcDbLine
 10
-17.35520531859544
 20
22.99321828980589
 30
0.0
 11
-26.24687198437306
 21
22.99321828980589
 31
0.0
  0
LINE
  5
28E
330
2
100
AcDbEntity
  8
GAIKEI
  6
HIDDEN2
 62
     1
100
AcDbLine
 10
-3.77187198662051
 20
23.9265516230459
 30
0.0
 11
-29.60520531737046
 21
23.9265516230459
 31
0.0
  0
LINE
  5
28F
330
2
100
AcDbEntity
  8
GAIKEI
  6
HIDDEN2
 62
     1
100
AcDbLine
 10
-3.77187198662051
 20
23.85988495638589
 30
0.0
 11
-29.60520531737046
 21
23.85988495638589
 31
0.0
  0
LINE
  5
290
330
2
100
AcDbEntity
  8
GAIKEI
  6
HIDDEN2
 62
     1
100
AcDbLine
 10
-4.271871986570488
 20
23.6598849564059
 30
0.0
 11
-29.10520531742049
 21
23.6598849564059
 31
0.0
  0
LINE
  5
291
330
2
100
AcDbEntity
  8
GAIKEI
  6
HIDDEN2
 62
     1
100
AcDbLine
 10
-6.355205319695471
 20
22.15988495655591
 30
0.0
 11
-27.02187198429539
 21
22.15988495655591
 31
0.0
  0
LINE
  5
292
330
2
100
AcDbEntity
  8
GAIKEI
  6
HIDDEN2
 62
     1
100
AcDbLine
 10
-29.60520531737046
 20
22.0932182898959
 30
0.0
 11
-3.77187198662051
 21
22.0932182898959
 31
0.0
  0
LINE
  5
293
330
2
100
AcDbEntity
  8
GAIKEI
  6
HIDDEN2
 62
     1
100
AcDbLine
 10
-25.02187198449548
 20
23.20988495645088
 30
0.0
 11
-21.68853865149543
 21
23.20988495645088
 31
0.0
  0
LINE
  5
294
330
2
100
AcDbEntity
  8
GAIKEI
  6
HIDDEN2
 62
     1
100
AcDbLine
 10
-25.02187198449548
 20
23.44321828976086
 30
0.0
 11
-21.68853865149543
 21
23.44321828976086
 31
0.0
  0
ARC
  5
295
330
2
100
AcDbEntity
  8
GAIKEI
  6
HIDDEN2
 62
     1
100
AcDbCircle
 10
-4.271871986570488
 20
7.326551624705928
 30
0.0
 40
0.3333333333
100
AcDbArc
 50
270.0
 51
90.0
  0
LINE
  5
296
330
2
100
AcDbEntity
  8
GAIKEI
  6
HIDDEN2
 62
     1
100
AcDbLine
 10
-3.77187198662051
 20
8.559884957915812
 30
0.0
 11
-3.77187198662051
 21
6.726551624765818
 31
0.0
  0
LINE
  5
297
330
2
100
AcDbEntity
  8
GAIKEI
  6
HIDDEN2
 62
     1
100
AcDbLine
 10
-5.121871986485473
 20
9.551551624483408
 30
0.0
 11
-5.121871986485473
 21
9.601551624478361
 31
0.0
  0
ARC
  5
298
330
2
100
AcDbEntity
  8
GAIKEI
  6
HIDDEN2
 62
     1
100
AcDbCircle
 10
-5.338538653130456
 20
9.593218291145888
 30
0.0
 40
0.216666666645
100
AcDbArc
 50
2.202597999999913
 51
90.0
  0
LINE
  5
299
330
2
100
AcDbEntity
  8
GAIKEI
  6
HIDDEN2
 62
     1
100
AcDbLine
 10
-4.671871986530447
 20
8.576551624580929
 30
0.0
 11
-4.671871986530447
 21
8.709884957900897
 31
0.0
  0
LINE
  5
29A
330
2
100
AcDbEntity
  8
GAIKEI
  6
HIDDEN2
 62
     1
100
AcDbLine
 10
-4.605205319870435
 20
8.709884957900897
 30
0.0
 11
-4.688538653195394
 21
8.709884957900897
 31
0.0
  0
LINE
  5
29B
330
2
100
AcDbEntity
  8
GAIKEI
  6
HIDDEN2
 62
     1
100
AcDbLine
 10
-4.671871986530447
 20
8.576551624580929
 30
0.0
 11
-4.605205319870435
 21
8.576551624580929
 31
0.0
  0
ARC
  5
29C
330
2
100
AcDbEntity
  8
GAIKEI
  6
HIDDEN2
 62
     1
100
AcDbCircle
 10
-4.688538653195394
 20
8.643218291240884
 30
0.0
 40
0.06666666666
100
AcDbArc
 50
90.0
 51
180.0
  0
LINE
  5
29D
330
2
100
AcDbEntity
  8
GAIKEI
  6
HIDDEN2
 62
     1
100
AcDbLine
 10
-4.755205319855406
 20
8.643218291240884
 30
0.0
 11
-4.755205319855406
 21
8.576551624580929
 31
0.0
  0
LINE
  5
29E
330
2
100
AcDbEntity
  8
GAIKEI
  6
HIDDEN2
 62
     1
100
AcDbLine
 10
-4.755205319855406
 20
8.643218291240884
 30
0.0
 11
-4.688538653195394
 21
8.643218291240884
 31
0.0
  0
LINE
  5
29F
330
2
100
AcDbEntity
  8
GAIKEI
  6
HIDDEN2
 62
     1
100
AcDbLine
 10
-5.021871986495455
 20
8.559884957915812
 30
0.0
 11
-5.021871986495455
 21
8.493218291255914
 31
0.0
  0
LINE
  5
2A0
330
2
100
AcDbEntity
  8
GAIKEI
  6
HIDDEN2
 62
     1
100
AcDbLine
 10
-4.688538653195394
 20
8.559884957915812
 30
0.0
 11
-4.688538653195394
 21
8.643218291240884
 31
0.0
  0
LINE
  5
2A1
330
2
100
AcDbEntity
  8
GAIKEI
  6
HIDDEN2
 62
     1
100
AcDbLine
 10
-5.021871986495455
 20
8.493218291255914
 30
0.0
 11
-3.77187198662051
 21
8.493218291255914
 31
0.0
  0
LINE
  5
2A2
330
2
100
AcDbEntity
  8
GAIKEI
  6
HIDDEN2
 62
     1
100
AcDbLine
 10
-4.685205319862518
 20
7.883218291316836
 30
0.0
 11
-4.685205319862518
 21
7.983218291306855
 31
0.0
  0
LINE
  5
2A3
330
2
100
AcDbEntity
  8
GAIKEI
  6
HIDDEN2
 62
     1
100
AcDbLine
 10
-4.688538653195394
 20
7.909884957980921
 30
0.0
 11
-4.688538653195394
 21
7.983218291306855
 31
0.0
  0
ARC
  5
2A4
330
2
100
AcDbEntity
  8
GAIKEI
  6
HIDDEN2
 62
     1
100
AcDbCircle
 10
-4.246871986573012
 20
7.992496624639272
 30
0.0
 40
0.3333333333
100
AcDbArc
 50
180.0
 51
265.6987780000008
  0
LINE
  5
2A5
330
2
100
AcDbEntity
  8
GAIKEI
  6
HIDDEN2
 62
     1
100
AcDbLine
 10
-4.580205319872959
 20
8.493218291255914
 30
0.0
 11
-4.580205319872959
 21
7.992496624639272
 31
0.0
  0
LINE
  5
2A6
330
2
100
AcDbEntity
  8
GAIKEI
  6
HIDDEN2
 62
     1
100
AcDbLine
 10
-5.191871986478474
 20
7.883218291316836
 30
0.0
 11
-5.191871986478474
 21
7.983218291306855
 31
0.0
  0
LINE
  5
2A7
330
2
100
AcDbEntity
  8
GAIKEI
  6
HIDDEN2
 62
     1
100
AcDbLine
 10
-5.188538653145485
 20
7.909884957980921
 30
0.0
 11
-5.188538653145485
 21
7.983218291306855
 31
0.0
  0
LINE
  5
2A8
330
2
100
AcDbEntity
  8
GAIKEI
  6
HIDDEN2
 62
     1
100
AcDbLine
 10
-4.685205319862518
 20
7.883218291316836
 30
0.0
 11
-5.191871986478474
 21
7.883218291316836
 31
0.0
  0
LINE
  5
2A9
330
2
100
AcDbEntity
  8
GAIKEI
  6
HIDDEN2
 62
     1
100
AcDbLine
 10
-4.685205319862518
 20
7.983218291306855
 30
0.0
 11
-5.191871986478474
 21
7.983218291306855
 31
0.0
  0
LINE
  5
2AA
330
2
100
AcDbEntity
  8
GAIKEI
  6
HIDDEN2
 62
     1
100
AcDbLine
 10
-5.188538653145485
 20
7.909884957980921
 30
0.0
 11
-4.688538653195394
 21
7.909884957980921
 31
0.0
  0
LINE
  5
2AB
330
2
100
AcDbEntity
  8
GAIKEI
  6
HIDDEN2
 62
     1
100
AcDbLine
 10
-5.188538653145485
 20
7.976551624640876
 30
0.0
 11
-4.688538653195394
 21
7.976551624640876
 31
0.0
  0
ARC
  5
2AC
330
2
100
AcDbEntity
  8
GAIKEI
  6
HIDDEN2
 62
     1
100
AcDbCircle
 10
-4.271871986570488
 20
7.326551624705928
 30
0.0
 40
0.116666666655
100
AcDbArc
 50
270.0
 51
90.0
  0
ARC
  5
2AD
330
2
100
AcDbEntity
  8
GAIKEI
  6
HIDDEN2
 62
     1
100
AcDbCircle
 10
-5.338538653130456
 20
9.559884957815881
 30
0.0
 40
0.216666666645
100
AcDbArc
 50
270.0
 51
357.7974020000001
  0
ARC
  5
2AE
330
2
100
AcDbEntity
  8
GAIKEI
  6
HIDDEN2
 62
     1
100
AcDbCircle
 10
-7.130205319618028
 20
7.993218291305936
 30
0.0
 40
0.3333333333
100
AcDbArc
 50
270.0
 51
0.0
  0
ARC
  5
2AF
330
2
100
AcDbEntity
  8
GAIKEI
  6
HIDDEN2
 62
     1
100
AcDbCircle
 10
-8.355205319495496
 20
7.326551624705928
 30
0.0
 40
0.116666666655
100
AcDbArc
 50
270.0
 51
90.0
  0
LINE
  5
2B0
330
2
100
AcDbEntity
  8
GAIKEI
  6
HIDDEN2
 62
     1
100
AcDbLine
 10
-5.713538653092939
 20
10.19321829108588
 30
0.0
 11
-5.663538653097987
 21
10.19321829108588
 31
0.0
  0
ARC
  5
2B1
330
2
100
AcDbEntity
  8
GAIKEI
  6
HIDDEN2
 62
     1
100
AcDbCircle
 10
-5.559524486441716
 20
9.976551624440844
 30
0.0
 40
0.16666666665
100
AcDbArc
 50
217.9798719999997
 51
270.0
  0
ARC
  5
2B2
330
2
100
AcDbEntity
  8
GAIKEI
  6
HIDDEN2
 62
     1
100
AcDbCircle
 10
-6.071871986390476
 20
10.05971295776595
 30
0.0
 40
0.0668388333266495
100
AcDbArc
 50
355.8873210000002
 51
184.1126789999998
  0
ARC
  5
2B3
330
2
100
AcDbEntity
  8
GAIKEI
  6
HIDDEN2
 62
     1
100
AcDbCircle
 10
-6.071871986390476
 20
9.576551624480941
 30
0.0
 40
0.4833333332849999
100
AcDbArc
 50
37.97987199999973
 51
82.06901600000037
  0
ARC
  5
2B4
330
2
100
AcDbEntity
  8
GAIKEI
  6
HIDDEN2
 62
     1
100
AcDbCircle
 10
-5.713538653092939
 20
10.40988495773092
 30
0.0
 40
0.216666666645
100
AcDbArc
 50
180.0
 51
270.0
  0
ARC
  5
2B5
330
2
100
AcDbEntity
  8
GAIKEI
  6
HIDDEN2
 62
     1
100
AcDbCircle
 10
-5.663538653097987
 20
10.40988495773092
 30
0.0
 40
0.216666666645
100
AcDbArc
 50
270.0
 51
0.0
  0
ARC
  5
2B6
330
2
100
AcDbEntity
  8
GAIKEI
  6
HIDDEN2
 62
     1
100
AcDbCircle
 10
-5.559524486441716
 20
9.176551624520868
 30
0.0
 40
0.16666666665
100
AcDbArc
 50
90.0
 51
142.0201280000003
  0
LINE
  5
2B7
330
2
100
AcDbEntity
  8
GAIKEI
  6
HIDDEN2
 62
     1
100
AcDbLine
 10
-6.355205319695471
 20
8.559884957915812
 30
0.0
 11
-6.355205319695471
 21
8.493218291255914
 31
0.0
  0
POINT
  5
2B8
330
2
100
AcDbEntity
  8
GAIKEI
  6
HIDDEN2
 62
     1
100
AcDbPoint
 10
-6.171871986380494
 20
9.334884957838369
 30
0.0
  0
ARC
  5
2B9
330
2
100
AcDbEntity
  8
GAIKEI
  6
HIDDEN2
 62
     1
100
AcDbCircle
 10
-6.071871986390476
 20
9.09339045786254
 30
0.0
 40
0.0668388333266495
100
AcDbArc
 50
175.8873210000002
 51
4.112678999999832
  0
ARC
  5
2BA
330
2
100
AcDbEntity
  8
GAIKEI
  6
HIDDEN2
 62
     1
100
AcDbCircle
 10
-6.071871986390476
 20
9.576551624480941
 30
0.0
 40
0.4833333332849999
100
AcDbArc
 50
277.9309839999996
 51
322.0201280000003
  0
LINE
  5
2BB
330
2
100
AcDbEntity
  8
GAIKEI
  6
HIDDEN2
 62
     1
100
AcDbLine
 10
-6.185205319712565
 20
7.883218291316836
 30
0.0
 11
-6.185205319712565
 21
7.983218291306855
 31
0.0
  0
LINE
  5
2BC
330
2
100
AcDbEntity
  8
GAIKEI
  6
HIDDEN2
 62
     1
100
AcDbLine
 10
-6.188538653045441
 20
7.909884957980921
 30
0.0
 11
-6.188538653045441
 21
7.983218291306855
 31
0.0
  0
ARC
  5
2BD
330
2
100
AcDbEntity
  8
GAIKEI
  6
HIDDEN2
 62
     1
100
AcDbCircle
 10
-5.688538653095463
 20
7.326551624705928
 30
0.0
 40
0.116666666655
100
AcDbArc
 50
90.0
 51
270.0
  0
ARC
  5
2BE
330
2
100
AcDbEntity
  8
GAIKEI
  6
HIDDEN2
 62
     1
100
AcDbCircle
 10
-6.524229486345177
 20
9.746308791130559
 30
0.0
 40
0.0668388333266495
100
AcDbArc
 50
65.6119860000001
 51
253.2485960000009
  0
ARC
  5
2BF
330
2
100
AcDbEntity
  8
GAIKEI
  6
HIDDEN2
 62
     1
100
AcDbCircle
 10
-6.071871986390476
 20
9.576551624480941
 30
0.0
 40
0.4833333332849999
100
AcDbArc
 50
167.3612749999995
 51
192.6387249999973
  0
LINE
  5
2C0
330
2
100
AcDbEntity
  8
GAIKEI
  6
HIDDEN2
 62
     1
100
AcDbLine
 10
-6.705205319660478
 20
8.576551624580929
 30
0.0
 11
-6.705205319660478
 21
8.709884957900897
 31
0.0
  0
LINE
  5
2C1
330
2
100
AcDbEntity
  8
GAIKEI
  6
HIDDEN2
 62
     1
100
AcDbLine
 10
-6.771871986320491
 20
8.709884957900897
 30
0.0
 11
-6.688538652995418
 21
8.709884957900897
 31
0.0
  0
LINE
  5
2C2
330
2
100
AcDbEntity
  8
GAIKEI
  6
HIDDEN2
 62
     1
100
AcDbLine
 10
-6.705205319660478
 20
8.576551624580929
 30
0.0
 11
-6.771871986320491
 21
8.576551624580929
 31
0.0
  0
ARC
  5
2C3
330
2
100
AcDbEntity
  8
GAIKEI
  6
HIDDEN2
 62
     1
100
AcDbCircle
 10
-6.688538652995418
 20
8.643218291240884
 30
0.0
 40
0.06666666666
100
AcDbArc
 50
0.0
 51
90.0
  0
LINE
  5
2C4
330
2
100
AcDbEntity
  8
GAIKEI
  6
HIDDEN2
 62
     1
100
AcDbLine
 10
-6.62187198633552
 20
8.643218291240884
 30
0.0
 11
-6.62187198633552
 21
8.576551624580929
 31
0.0
  0
LINE
  5
2C5
330
2
100
AcDbEntity
  8
GAIKEI
  6
HIDDEN2
 62
     1
100
AcDbLine
 10
-6.62187198633552
 20
8.643218291240884
 30
0.0
 11
-6.688538652995418
 21
8.643218291240884
 31
0.0
  0
LINE
  5
2C6
330
2
100
AcDbEntity
  8
GAIKEI
  6
HIDDEN2
 62
     1
100
AcDbLine
 10
-6.688538652995418
 20
8.559884957915812
 30
0.0
 11
-6.688538652995418
 21
8.643218291240884
 31
0.0
  0
LINE
  5
2C7
330
2
100
AcDbEntity
  8
GAIKEI
  6
HIDDEN2
 62
     1
100
AcDbLine
 10
-6.691871986328521
 20
7.883218291316836
 30
0.0
 11
-6.691871986328521
 21
7.983218291306855
 31
0.0
  0
LINE
  5
2C8
330
2
100
AcDbEntity
  8
GAIKEI
  6
HIDDEN2
 62
     1
100
AcDbLine
 10
-6.688538652995418
 20
7.909884957980921
 30
0.0
 11
-6.688538652995418
 21
7.983218291306855
 31
0.0
  0
LINE
  5
2C9
330
2
100
AcDbEntity
  8
GAIKEI
  6
HIDDEN2
 62
     1
100
AcDbLine
 10
-6.796871986317967
 20
8.493218291255914
 30
0.0
 11
-6.796871986317967
 21
7.993218291305936
 31
0.0
  0
ARC
  5
2CA
330
2
100
AcDbEntity
  8
GAIKEI
  6
HIDDEN2
 62
     1
100
AcDbCircle
 10
-6.524229486345177
 20
9.406794624497877
 30
0.0
 40
0.0668388333266495
100
AcDbArc
 50
106.7514039999991
 51
294.6823879999998
  0
LINE
  5
2CB
330
2
100
AcDbEntity
  8
GAIKEI
  6
HIDDEN2
 62
     1
100
AcDbLine
 10
-6.691871986328521
 20
7.883218291316836
 30
0.0
 11
-6.185205319712565
 21
7.883218291316836
 31
0.0
  0
LINE
  5
2CC
330
2
100
AcDbEntity
  8
GAIKEI
  6
HIDDEN2
 62
     1
100
AcDbLine
 10
-6.691871986328521
 20
7.983218291306855
 30
0.0
 11
-6.185205319712565
 21
7.983218291306855
 31
0.0
  0
LINE
  5
2CD
330
2
100
AcDbEntity
  8
GAIKEI
  6
HIDDEN2
 62
     1
100
AcDbLine
 10
-6.688538652995418
 20
7.909884957980921
 30
0.0
 11
-6.188538653045441
 21
7.909884957980921
 31
0.0
  0
LINE
  5
2CE
330
2
100
AcDbEntity
  8
GAIKEI
  6
HIDDEN2
 62
     1
100
AcDbLine
 10
-6.688538652995418
 20
7.976551624640876
 30
0.0
 11
-6.188538653045441
 21
7.976551624640876
 31
0.0
  0
ARC
  5
2CF
330
2
100
AcDbEntity
  8
GAIKEI
  6
HIDDEN2
 62
     1
100
AcDbCircle
 10
-6.071871986390476
 20
9.576551624480941
 30
0.0
 40
0.4833333332849999
100
AcDbArc
 50
97.93380099999502
 51
151.4993069999999
  0
ARC
  5
2D0
330
2
100
AcDbEntity
  8
GAIKEI
  6
HIDDEN2
 62
     1
100
AcDbCircle
 10
-6.071871986390476
 20
9.576551624480941
 30
0.0
 40
0.4833333332849999
100
AcDbArc
 50
208.5035099999959
 51
262.0661989999985
  0
LINE
  5
2D1
330
2
100
AcDbEntity
  8
GAIKEI
  6
HIDDEN2
 62
     1
100
AcDbLine
 10
-5.338538653130456
 20
9.80988495779087
 30
0.0
 11
-5.559524486441716
 21
9.80988495779087
 31
0.0
  0
LINE
  5
2D2
330
2
100
AcDbEntity
  8
GAIKEI
  6
HIDDEN2
 62
     1
100
AcDbLine
 10
-5.338538653130456
 20
9.343218291170899
 30
0.0
 11
-5.559524486441716
 21
9.343218291170899
 31
0.0
  0
LINE
  5
2D3
330
2
100
AcDbEntity
  8
GAIKEI
  6
HIDDEN2
 62
     1
100
AcDbLine
 10
-4.271871986570488
 20
7.443218291360892
 30
0.0
 11
-5.688538653095463
 21
7.443218291360892
 31
0.0
  0
LINE
  5
2D4
330
2
100
AcDbEntity
  8
GAIKEI
  6
HIDDEN2
 62
     1
100
AcDbLine
 10
-4.271871986570488
 20
7.209884958050849
 30
0.0
 11
-5.688538653095463
 21
7.209884958050849
 31
0.0
  0
LINE
  5
2D5
330
2
100
AcDbEntity
  8
GAIKEI
  6
HIDDEN2
 62
     1
100
AcDbLine
 10
-4.688538653195394
 20
8.576551624580929
 30
0.0
 11
-6.688538652995418
 21
8.576551624580929
 31
0.0
  0
ARC
  5
2D6
330
2
100
AcDbEntity
  8
GAIKEI
  6
HIDDEN2
 62
     1
100
AcDbCircle
 10
-11.68853865249542
 20
7.326551624705928
 30
0.0
 40
0.116666666655
100
AcDbArc
 50
90.0
 51
270.0
  0
ARC
  5
2D7
330
2
100
AcDbEntity
  8
GAIKEI
  6
HIDDEN2
 62
     1
100
AcDbCircle
 10
-15.02187198549546
 20
7.326551624705928
 30
0.0
 40
0.116666666655
100
AcDbArc
 50
270.0
 51
90.0
  0
LINE
  5
2D8
330
2
100
AcDbEntity
  8
GAIKEI
  6
HIDDEN2
 62
     1
100
AcDbLine
 10
-17.18853865194541
 20
7.443218291360892
 30
0.0
 11
-18.35520531849539
 21
7.443218291360892
 31
0.0
  0
LINE
  5
2D9
330
2
100
AcDbEntity
  8
GAIKEI
  6
HIDDEN2
 62
     1
100
AcDbLine
 10
-17.18853865194541
 20
7.209884958050849
 30
0.0
 11
-18.35520531849539
 21
7.209884958050849
 31
0.0
  0
ARC
  5
2DA
330
2
100
AcDbEntity
  8
GAIKEI
  6
HIDDEN2
 62
     1
100
AcDbCircle
 10
-18.35520531849539
 20
7.326551624705928
 30
0.0
 40
0.116666666655
100
AcDbArc
 50
90.0
 51
270.0
  0
LINE
  5
2DB
330
2
100
AcDbEntity
  8
GAIKEI
  6
HIDDEN2
 62
     1
100
AcDbLine
 10
-16.57187198534046
 20
7.993218291305936
 30
0.0
 11
-16.57187198534046
 21
7.868158291318422
 31
0.0
  0
ARC
  5
2DC
330
2
100
AcDbEntity
  8
GAIKEI
  6
HIDDEN2
 62
     1
100
AcDbCircle
 10
-16.02187198539542
 20
7.993218291305936
 30
0.0
 40
0.3333333333
100
AcDbArc
 50
180.0
 51
270.0
  0
ARC
  5
2DD
330
2
100
AcDbEntity
  8
GAIKEI
  6
HIDDEN2
 62
     1
100
AcDbCircle
 10
-16.68853865199543
 20
7.659884958005875
 30
0.0
 40
0.223333333311
100
AcDbArc
 50
305.7617140000045
 51
54.23828599999552
  0
ARC
  5
2DE
330
2
100
AcDbEntity
  8
GAIKEI
  6
HIDDEN2
 62
     1
100
AcDbCircle
 10
-16.53853865201046
 20
7.868158291318422
 30
0.0
 40
0.03333333333
100
AcDbArc
 50
180.0
 51
234.2382859999955
  0
LINE
  5
2DF
330
2
100
AcDbEntity
  8
GAIKEI
  6
HIDDEN2
 62
     1
100
AcDbLine
 10
-16.80520531865051
 20
7.993218291305936
 30
0.0
 11
-16.80520531865051
 21
7.868158291318422
 31
0.0
  0
ARC
  5
2E0
330
2
100
AcDbEntity
  8
GAIKEI
  6
HIDDEN2
 62
     1
100
AcDbCircle
 10
-17.35520531859544
 20
7.993218291305936
 30
0.0
 40
0.3333333333
100
AcDbArc
 50
270.0
 51
0.0
  0
ARC
  5
2E1
330
2
100
AcDbEntity
  8
GAIKEI
  6
HIDDEN2
 62
     1
100
AcDbCircle
 10
-16.68853865199543
 20
7.659884958005875
 30
0.0
 40
0.223333333311
100
AcDbArc
 50
125.7617140000045
 51
234.2382859999955
  0
ARC
  5
2E2
330
2
100
AcDbEntity
  8
GAIKEI
  6
HIDDEN2
 62
     1
100
AcDbCircle
 10
-16.8385386519804
 20
7.868158291318422
 30
0.0
 40
0.03333333333
100
AcDbArc
 50
305.7617140000045
 51
0.0
  0
ARC
  5
2E3
330
2
100
AcDbEntity
  8
GAIKEI
  6
HIDDEN2
 62
     1
100
AcDbCircle
 10
-16.68853865199543
 20
7.993218291305936
 30
0.0
 40
0.3333333333
100
AcDbArc
 50
0.0
 51
180.0
  0
ARC
  5
2E4
330
2
100
AcDbEntity
  8
GAIKEI
  6
HIDDEN2
 62
     1
100
AcDbCircle
 10
-16.68853865199543
 20
7.993218291305936
 30
0.0
 40
0.116666666655
100
AcDbArc
 50
0.0
 51
180.0
  0
ARC
  5
2E5
330
2
100
AcDbEntity
  8
GAIKEI
  6
HIDDEN2
 62
     1
100
AcDbCircle
 10
-16.18853865204545
 20
7.326551624705928
 30
0.0
 40
0.116666666655
100
AcDbArc
 50
90.0
 51
270.0
  0
LINE
  5
2E6
330
2
100
AcDbEntity
  8
GAIKEI
  6
HIDDEN2
 62
     1
100
AcDbLine
 10
-16.57187198534046
 20
7.451611624693384
 30
0.0
 11
-16.57187198534046
 21
7.326551624705928
 31
0.0
  0
ARC
  5
2E7
330
2
100
AcDbEntity
  8
GAIKEI
  6
HIDDEN2
 62
     1
100
AcDbCircle
 10
-17.18853865194541
 20
7.326551624705928
 30
0.0
 40
0.116666666655
100
AcDbArc
 50
270.0
 51
90.0
  0
LINE
  5
2E8
330
2
100
AcDbEntity
  8
GAIKEI
  6
HIDDEN2
 62
     1
100
AcDbLine
 10
-16.80520531865051
 20
7.451611624693384
 30
0.0
 11
-16.80520531865051
 21
7.326551624705928
 31
0.0
  0
ARC
  5
2E9
330
2
100
AcDbEntity
  8
GAIKEI
  6
HIDDEN2
 62
     1
100
AcDbCircle
 10
-16.68853865199543
 20
7.326551624705928
 30
0.0
 40
0.116666666655
100
AcDbArc
 50
180.0
 51
0.0
  0
ARC
  5
2EA
330
2
100
AcDbEntity
  8
GAIKEI
  6
HIDDEN2
 62
     1
100
AcDbCircle
 10
-16.8385386519804
 20
7.451611624693384
 30
0.0
 40
0.03333333333
100
AcDbArc
 50
0.0
 51
54.23828599999552
  0
ARC
  5
2EB
330
2
100
AcDbEntity
  8
GAIKEI
  6
HIDDEN2
 62
     1
100
AcDbCircle
 10
-16.53853865201046
 20
7.451611624693384
 30
0.0
 40
0.03333333333
100
AcDbArc
 50
125.7617140000045
 51
180.0
  0
ARC
  5
2EC
330
2
100
AcDbEntity
  8
GAIKEI
  6
HIDDEN2
 62
     1
100
AcDbCircle
 10
-21.68853865149543
 20
7.326551624705928
 30
0.0
 40
0.116666666655
100
AcDbArc
 50
270.0
 51
90.0
  0
LINE
  5
2ED
330
2
100
AcDbEntity
  8
GAIKEI
  6
HIDDEN2
 62
     1
100
AcDbLine
 10
-16.18853865204545
 20
7.443218291360892
 30
0.0
 11
-15.02187198549546
 21
7.443218291360892
 31
0.0
  0
LINE
  5
2EE
330
2
100
AcDbEntity
  8
GAIKEI
  6
HIDDEN2
 62
     1
100
AcDbLine
 10
-16.18853865204545
 20
7.209884958050849
 30
0.0
 11
-15.02187198549546
 21
7.209884958050849
 31
0.0
  0
LINE
  5
2EF
330
2
100
AcDbEntity
  8
GAIKEI
  6
HIDDEN2
 62
     1
100
AcDbLine
 10
-16.02187198539542
 20
7.659884958005875
 30
0.0
 11
-7.130205319618028
 21
7.659884958005875
 31
0.0
  0
LINE
  5
2F0
330
2
100
AcDbEntity
  8
GAIKEI
  6
HIDDEN2
 62
     1
100
AcDbLine
 10
-8.355205319495496
 20
7.443218291360892
 30
0.0
 11
-11.68853865249542
 21
7.443218291360892
 31
0.0
  0
LINE
  5
2F1
330
2
100
AcDbEntity
  8
GAIKEI
  6
HIDDEN2
 62
     1
100
AcDbLine
 10
-8.355205319495496
 20
7.209884958050849
 30
0.0
 11
-11.68853865249542
 21
7.209884958050849
 31
0.0
  0
ARC
  5
2F2
330
2
100
AcDbEntity
  8
GAIKEI
  6
HIDDEN2
 62
     1
100
AcDbCircle
 10
-25.02187198449548
 20
7.326551624705928
 30
0.0
 40
0.116666666655
100
AcDbArc
 50
90.0
 51
270.0
  0
LINE
  5
2F3
330
2
100
AcDbEntity
  8
GAIKEI
  6
HIDDEN2
 62
     1
100
AcDbLine
 10
-27.3385386509305
 20
9.8182182911234
 30
0.0
 11
-28.08612165085566
 21
9.8182182911234
 31
0.0
  0
LINE
  5
2F4
330
2
100
AcDbEntity
  8
GAIKEI
  6
HIDDEN2
 62
     1
100
AcDbLine
 10
-27.3385386509305
 20
9.334884957838369
 30
0.0
 11
-28.08612165085566
 21
9.334884957838369
 31
0.0
  0
LINE
  5
2F5
330
2
100
AcDbEntity
  8
GAIKEI
  6
HIDDEN2
 62
     1
100
AcDbLine
 10
-29.10520531742049
 20
7.443218291360892
 30
0.0
 11
-27.68853865089551
 21
7.443218291360892
 31
0.0
  0
LINE
  5
2F6
330
2
100
AcDbEntity
  8
GAIKEI
  6
HIDDEN2
 62
     1
100
AcDbLine
 10
-29.10520531742049
 20
7.209884958050849
 30
0.0
 11
-27.68853865089551
 21
7.209884958050849
 31
0.0
  0
LINE
  5
2F7
330
2
100
AcDbEntity
  8
GAIKEI
  6
HIDDEN2
 62
     1
100
AcDbLine
 10
-28.68853865079547
 20
8.576551624580929
 30
0.0
 11
-26.68853865099544
 21
8.576551624580929
 31
0.0
  0
ARC
  5
2F8
330
2
100
AcDbEntity
  8
GAIKEI
  6
HIDDEN2
 62
     1
100
AcDbCircle
 10
-29.10520531742049
 20
7.326551624705928
 30
0.0
 40
0.3333333333
100
AcDbArc
 50
90.0
 51
270.0
  0
LINE
  5
2F9
330
2
100
AcDbEntity
  8
GAIKEI
  6
HIDDEN2
 62
     1
100
AcDbLine
 10
-29.60520531737046
 20
8.559884957915812
 30
0.0
 11
-29.60520531737046
 21
6.726551624765818
 31
0.0
  0
POINT
  5
2FA
330
2
100
AcDbEntity
  8
GAIKEI
  6
HIDDEN2
 62
     1
100
AcDbPoint
 10
-28.23853865084044
 20
9.8182182911234
 30
0.0
  0
LINE
  5
2FB
330
2
100
AcDbEntity
  8
GAIKEI
  6
HIDDEN2
 62
     1
100
AcDbLine
 10
-28.77187198412043
 20
10.12655162442587
 30
0.0
 11
-28.5814139841396
 21
10.12655162442587
 31
0.0
  0
LINE
  5
2FC
330
2
100
AcDbEntity
  8
GAIKEI
  6
HIDDEN2
 62
     1
100
AcDbLine
 10
-28.33824265083052
 20
9.933500957778505
 30
0.0
 11
-28.45535348415211
 21
10.06891029109829
 31
0.0
  0
POINT
  5
2FD
330
2
100
AcDbEntity
  8
GAIKEI
  6
HIDDEN2
 62
     1
100
AcDbPoint
 10
-28.50520531748049
 20
10.12655162442587
 30
0.0
  0
ARC
  5
2FE
330
2
100
AcDbEntity
  8
GAIKEI
  6
HIDDEN2
 62
     1
100
AcDbCircle
 10
-28.5814139841396
 20
9.959884957775841
 30
0.0
 40
0.16666666665
100
AcDbArc
 50
40.85537599999859
 51
90.0
  0
ARC
  5
2FF
330
2
100
AcDbEntity
  8
GAIKEI
  6
HIDDEN2
 62
     1
100
AcDbCircle
 10
-28.08612165085566
 20
10.15155162442335
 30
0.0
 40
0.3333333333
100
AcDbArc
 50
220.8553759999986
 51
270.0
  0
POINT
  5
300
330
2
100
AcDbEntity
  8
GAIKEI
  6
HIDDEN2
 62
     1
100
AcDbPoint
 10
-28.23853865084044
 20
9.334884957838369
 30
0.0
  0
LINE
  5
301
330
2
100
AcDbEntity
  8
GAIKEI
  6
HIDDEN2
 62
     1
100
AcDbLine
 10
-28.1852053175125
 20
7.883218291316836
 30
0.0
 11
-28.1852053175125
 21
7.983218291306855
 31
0.0
  0
LINE
  5
302
330
2
100
AcDbEntity
  8
GAIKEI
  6
HIDDEN2
 62
     1
100
AcDbLine
 10
-28.18853865084549
 20
7.909884957980921
 30
0.0
 11
-28.18853865084549
 21
7.983218291306855
 31
0.0
  0
LINE
  5
303
330
2
100
AcDbEntity
  8
GAIKEI
  6
HIDDEN2
 62
     1
100
AcDbLine
 10
-28.70520531746052
 20
8.576551624580929
 30
0.0
 11
-28.70520531746052
 21
8.709884957900897
 31
0.0
  0
LINE
  5
304
330
2
100
AcDbEntity
  8
GAIKEI
  6
HIDDEN2
 62
     1
100
AcDbLine
 10
-28.77187198412043
 20
8.709884957900897
 30
0.0
 11
-28.68853865079547
 21
8.709884957900897
 31
0.0
  0
LINE
  5
305
330
2
100
AcDbEntity
  8
GAIKEI
  6
HIDDEN2
 62
     1
100
AcDbLine
 10
-28.70520531746052
 20
8.576551624580929
 30
0.0
 11
-28.77187198412043
 21
8.576551624580929
 31
0.0
  0
ARC
  5
306
330
2
100
AcDbEntity
  8
GAIKEI
  6
HIDDEN2
 62
     1
100
AcDbCircle
 10
-28.68853865079547
 20
8.643218291240884
 30
0.0
 40
0.06666666666
100
AcDbArc
 50
0.0
 51
90.0
  0
LINE
  5
307
330
2
100
AcDbEntity
  8
GAIKEI
  6
HIDDEN2
 62
     1
100
AcDbLine
 10
-28.62187198413545
 20
8.643218291240884
 30
0.0
 11
-28.62187198413545
 21
8.576551624580929
 31
0.0
  0
LINE
  5
308
330
2
100
AcDbEntity
  8
GAIKEI
  6
HIDDEN2
 62
     1
100
AcDbLine
 10
-28.62187198413545
 20
8.643218291240884
 30
0.0
 11
-28.68853865079547
 21
8.643218291240884
 31
0.0
  0
LINE
  5
309
330
2
100
AcDbEntity
  8
GAIKEI
  6
HIDDEN2
 62
     1
100
AcDbLine
 10
-28.77187198412043
 20
9.026551624535898
 30
0.0
 11
-28.5814139841396
 21
9.026551624535898
 31
0.0
  0
LINE
  5
30A
330
2
100
AcDbEntity
  8
GAIKEI
  6
HIDDEN2
 62
     1
100
AcDbLine
 10
-28.33824265083052
 20
9.219602291183264
 30
0.0
 11
-28.45535348415211
 21
9.084192957863422
 31
0.0
  0
POINT
  5
30B
330
2
100
AcDbEntity
  8
GAIKEI
  6
HIDDEN2
 62
     1
100
AcDbPoint
 10
-28.50520531748049
 20
9.026551624535898
 30
0.0
  0
ARC
  5
30C
330
2
100
AcDbEntity
  8
GAIKEI
  6
HIDDEN2
 62
     1
100
AcDbCircle
 10
-28.5814139841396
 20
9.193218291185871
 30
0.0
 40
0.16666666665
100
AcDbArc
 50
270.0
 51
319.1446240000014
  0
LINE
  5
30D
330
2
100
AcDbEntity
  8
GAIKEI
  6
HIDDEN2
 62
     1
100
AcDbLine
 10
-28.35520531749541
 20
8.559884957915812
 30
0.0
 11
-28.35520531749541
 21
8.493218291255914
 31
0.0
  0
LINE
  5
30E
330
2
100
AcDbEntity
  8
GAIKEI
  6
HIDDEN2
 62
     1
100
AcDbLine
 10
-28.68853865079547
 20
8.559884957915812
 30
0.0
 11
-28.68853865079547
 21
8.643218291240884
 31
0.0
  0
LINE
  5
30F
330
2
100
AcDbEntity
  8
GAIKEI
  6
HIDDEN2
 62
     1
100
AcDbLine
 10
-28.35520531749541
 20
8.493218291255914
 30
0.0
 11
-29.60520531737046
 21
8.493218291255914
 31
0.0
  0
LINE
  5
310
330
2
100
AcDbEntity
  8
GAIKEI
  6
HIDDEN2
 62
     1
100
AcDbLine
 10
-28.69187198412857
 20
7.883218291316836
 30
0.0
 11
-28.69187198412857
 21
7.983218291306855
 31
0.0
  0
LINE
  5
311
330
2
100
AcDbEntity
  8
GAIKEI
  6
HIDDEN2
 62
     1
100
AcDbLine
 10
-28.68853865079547
 20
7.909884957980921
 30
0.0
 11
-28.68853865079547
 21
7.983218291306855
 31
0.0
  0
ARC
  5
312
330
2
100
AcDbEntity
  8
GAIKEI
  6
HIDDEN2
 62
     1
100
AcDbCircle
 10
-29.13020531741796
 20
7.992496624639272
 30
0.0
 40
0.3333333333
100
AcDbArc
 50
274.3012219999993
 51
0.0
  0
LINE
  5
313
330
2
100
AcDbEntity
  8
GAIKEI
  6
HIDDEN2
 62
     1
100
AcDbLine
 10
-28.7968719841179
 20
8.493218291255914
 30
0.0
 11
-28.7968719841179
 21
7.992496624639272
 31
0.0
  0
ARC
  5
314
330
2
100
AcDbEntity
  8
GAIKEI
  6
HIDDEN2
 62
     1
100
AcDbCircle
 10
-29.10520531742049
 20
7.326551624705928
 30
0.0
 40
0.116666666655
100
AcDbArc
 50
90.0
 51
270.0
  0
LINE
  5
315
330
2
100
AcDbEntity
  8
GAIKEI
  6
HIDDEN2
 62
     1
100
AcDbLine
 10
-28.69187198412857
 20
7.883218291316836
 30
0.0
 11
-28.1852053175125
 21
7.883218291316836
 31
0.0
  0
LINE
  5
316
330
2
100
AcDbEntity
  8
GAIKEI
  6
HIDDEN2
 62
     1
100
AcDbLine
 10
-28.69187198412857
 20
7.983218291306855
 30
0.0
 11
-28.1852053175125
 21
7.983218291306855
 31
0.0
  0
LINE
  5
317
330
2
100
AcDbEntity
  8
GAIKEI
  6
HIDDEN2
 62
     1
100
AcDbLine
 10
-28.18853865084549
 20
7.909884957980921
 30
0.0
 11
-28.68853865079547
 21
7.909884957980921
 31
0.0
  0
LINE
  5
318
330
2
100
AcDbEntity
  8
GAIKEI
  6
HIDDEN2
 62
     1
100
AcDbLine
 10
-28.18853865084549
 20
7.976551624640876
 30
0.0
 11
-28.68853865079547
 21
7.976551624640876
 31
0.0
  0
ARC
  5
319
330
2
100
AcDbEntity
  8
GAIKEI
  6
HIDDEN2
 62
     1
100
AcDbCircle
 10
-28.08612165085566
 20
9.001551624538365
 30
0.0
 40
0.3333333333
100
AcDbArc
 50
90.0
 51
139.1446240000014
  0
LINE
  5
31A
330
2
100
AcDbEntity
  8
GAIKEI
  6
HIDDEN2
 62
     1
100
AcDbLine
 10
-28.70520531746052
 20
10.12655162442587
 30
0.0
 11
-28.70520531746052
 21
9.026551624535898
 31
0.0
  0
LINE
  5
31B
330
2
100
AcDbEntity
  8
GAIKEI
  6
HIDDEN2
 62
     1
100
AcDbLine
 10
-27.12187198428552
 20
9.551551624483408
 30
0.0
 11
-27.12187198428552
 21
9.601551624478361
 31
0.0
  0
ARC
  5
31C
330
2
100
AcDbEntity
  8
GAIKEI
  6
HIDDEN2
 62
     1
100
AcDbCircle
 10
-27.3385386509305
 20
9.601551624478361
 30
0.0
 40
0.216666666645
100
AcDbArc
 50
0.0
 51
90.0
  0
LINE
  5
31D
330
2
100
AcDbEntity
  8
GAIKEI
  6
HIDDEN2
 62
     1
100
AcDbLine
 10
-27.66353865089803
 20
10.19321829108588
 30
0.0
 11
-27.71353865089299
 21
10.19321829108588
 31
0.0
  0
ARC
  5
31E
330
2
100
AcDbEntity
  8
GAIKEI
  6
HIDDEN2
 62
     1
100
AcDbCircle
 10
-27.66353865089803
 20
10.40988495773092
 30
0.0
 40
0.216666666645
100
AcDbArc
 50
270.0
 51
0.0
  0
ARC
  5
31F
330
2
100
AcDbEntity
  8
GAIKEI
  6
HIDDEN2
 62
     1
100
AcDbCircle
 10
-27.71353865089299
 20
10.40988495773092
 30
0.0
 40
0.216666666645
100
AcDbArc
 50
180.0
 51
270.0
  0
LINE
  5
320
330
2
100
AcDbEntity
  8
GAIKEI
  6
HIDDEN2
 62
     1
100
AcDbLine
 10
-26.6718719843305
 20
8.576551624580929
 30
0.0
 11
-26.6718719843305
 21
8.709884957900897
 31
0.0
  0
LINE
  5
321
330
2
100
AcDbEntity
  8
GAIKEI
  6
HIDDEN2
 62
     1
100
AcDbLine
 10
-26.60520531767048
 20
8.709884957900897
 30
0.0
 11
-26.68853865099544
 21
8.709884957900897
 31
0.0
  0
LINE
  5
322
330
2
100
AcDbEntity
  8
GAIKEI
  6
HIDDEN2
 62
     1
100
AcDbLine
 10
-26.6718719843305
 20
8.576551624580929
 30
0.0
 11
-26.60520531767048
 21
8.576551624580929
 31
0.0
  0
ARC
  5
323
330
2
100
AcDbEntity
  8
GAIKEI
  6
HIDDEN2
 62
     1
100
AcDbCircle
 10
-26.68853865099544
 20
8.643218291240884
 30
0.0
 40
0.06666666666
100
AcDbArc
 50
90.0
 51
180.0
  0
LINE
  5
324
330
2
100
AcDbEntity
  8
GAIKEI
  6
HIDDEN2
 62
     1
100
AcDbLine
 10
-26.75520531765545
 20
8.643218291240884
 30
0.0
 11
-26.75520531765545
 21
8.576551624580929
 31
0.0
  0
LINE
  5
325
330
2
100
AcDbEntity
  8
GAIKEI
  6
HIDDEN2
 62
     1
100
AcDbLine
 10
-26.75520531765545
 20
8.643218291240884
 30
0.0
 11
-26.68853865099544
 21
8.643218291240884
 31
0.0
  0
LINE
  5
326
330
2
100
AcDbEntity
  8
GAIKEI
  6
HIDDEN2
 62
     1
100
AcDbLine
 10
-26.68853865099544
 20
8.559884957915812
 30
0.0
 11
-26.68853865099544
 21
8.643218291240884
 31
0.0
  0
LINE
  5
327
330
2
100
AcDbEntity
  8
GAIKEI
  6
HIDDEN2
 62
     1
100
AcDbLine
 10
-26.68520531766257
 20
7.883218291316836
 30
0.0
 11
-26.68520531766257
 21
7.983218291306855
 31
0.0
  0
LINE
  5
328
330
2
100
AcDbEntity
  8
GAIKEI
  6
HIDDEN2
 62
     1
100
AcDbLine
 10
-26.68853865099544
 20
7.909884957980921
 30
0.0
 11
-26.68853865099544
 21
7.983218291306855
 31
0.0
  0
LINE
  5
329
330
2
100
AcDbEntity
  8
GAIKEI
  6
HIDDEN2
 62
     1
100
AcDbLine
 10
-26.58020531767301
 20
8.493218291255914
 30
0.0
 11
-26.58020531767301
 21
7.993218291305936
 31
0.0
  0
LINE
  5
32A
330
2
100
AcDbEntity
  8
GAIKEI
  6
HIDDEN2
 62
     1
100
AcDbLine
 10
-27.02187198429539
 20
8.559884957915812
 30
0.0
 11
-27.02187198429539
 21
8.493218291255914
 31
0.0
  0
LINE
  5
32B
330
2
100
AcDbEntity
  8
GAIKEI
  6
HIDDEN2
 62
     1
100
AcDbLine
 10
-27.19187198427852
 20
7.883218291316836
 30
0.0
 11
-27.19187198427852
 21
7.983218291306855
 31
0.0
  0
LINE
  5
32C
330
2
100
AcDbEntity
  8
GAIKEI
  6
HIDDEN2
 62
     1
100
AcDbLine
 10
-27.18853865094542
 20
7.909884957980921
 30
0.0
 11
-27.18853865094542
 21
7.983218291306855
 31
0.0
  0
LINE
  5
32D
330
2
100
AcDbEntity
  8
GAIKEI
  6
HIDDEN2
 62
     1
100
AcDbLine
 10
-26.68520531766257
 20
7.883218291316836
 30
0.0
 11
-27.19187198427852
 21
7.883218291316836
 31
0.0
  0
LINE
  5
32E
330
2
100
AcDbEntity
  8
GAIKEI
  6
HIDDEN2
 62
     1
100
AcDbLine
 10
-26.68520531766257
 20
7.983218291306855
 30
0.0
 11
-27.19187198427852
 21
7.983218291306855
 31
0.0
  0
LINE
  5
32F
330
2
100
AcDbEntity
  8
GAIKEI
  6
HIDDEN2
 62
     1
100
AcDbLine
 10
-26.68853865099544
 20
7.909884957980921
 30
0.0
 11
-27.18853865094542
 21
7.909884957980921
 31
0.0
  0
LINE
  5
330
330
2
100
AcDbEntity
  8
GAIKEI
  6
HIDDEN2
 62
     1
100
AcDbLine
 10
-26.68853865099544
 20
7.976551624640876
 30
0.0
 11
-27.18853865094542
 21
7.976551624640876
 31
0.0
  0
ARC
  5
331
330
2
100
AcDbEntity
  8
GAIKEI
  6
HIDDEN2
 62
     1
100
AcDbCircle
 10
-27.68853865089551
 20
7.326551624705928
 30
0.0
 40
0.116666666655
100
AcDbArc
 50
270.0
 51
90.0
  0
ARC
  5
332
330
2
100
AcDbEntity
  8
GAIKEI
  6
HIDDEN2
 62
     1
100
AcDbCircle
 10
-27.3385386509305
 20
9.551551624483408
 30
0.0
 40
0.216666666645
100
AcDbArc
 50
270.0
 51
0.0
  0
ARC
  5
333
330
2
100
AcDbEntity
  8
GAIKEI
  6
HIDDEN2
 62
     1
100
AcDbCircle
 10
-26.24687198437306
 20
7.993218291305936
 30
0.0
 40
0.3333333333
100
AcDbArc
 50
180.0
 51
270.0
  0
LINE
  5
334
330
2
100
AcDbEntity
  8
GAIKEI
  6
HIDDEN2
 62
     1
100
AcDbLine
 10
-17.35520531859544
 20
7.659884958005875
 30
0.0
 11
-26.24687198437306
 21
7.659884958005875
 31
0.0
  0
LINE
  5
335
330
2
100
AcDbEntity
  8
GAIKEI
  6
HIDDEN2
 62
     1
100
AcDbLine
 10
-3.77187198662051
 20
6.726551624765818
 30
0.0
 11
-29.60520531737046
 21
6.726551624765818
 31
0.0
  0
LINE
  5
336
330
2
100
AcDbEntity
  8
GAIKEI
  6
HIDDEN2
 62
     1
100
AcDbLine
 10
-3.77187198662051
 20
6.79321829142583
 30
0.0
 11
-29.60520531737046
 21
6.79321829142583
 31
0.0
  0
LINE
  5
337
330
2
100
AcDbEntity
  8
GAIKEI
  6
HIDDEN2
 62
     1
100
AcDbLine
 10
-4.271871986570488
 20
6.993218291405923
 30
0.0
 11
-29.10520531742049
 21
6.993218291405923
 31
0.0
  0
LINE
  5
338
330
2
100
AcDbEntity
  8
GAIKEI
  6
HIDDEN2
 62
     1
100
AcDbLine
 10
-6.355205319695471
 20
8.493218291255914
 30
0.0
 11
-27.02187198429539
 21
8.493218291255914
 31
0.0
  0
LINE
  5
339
330
2
100
AcDbEntity
  8
GAIKEI
  6
HIDDEN2
 62
     1
100
AcDbLine
 10
-29.60520531737046
 20
8.559884957915812
 30
0.0
 11
-3.77187198662051
 21
8.559884957915812
 31
0.0
  0
LINE
  5
33A
330
2
100
AcDbEntity
  8
GAIKEI
  6
HIDDEN2
 62
     1
100
AcDbLine
 10
-25.02187198449548
 20
7.443218291360892
 30
0.0
 11
-21.68853865149543
 21
7.443218291360892
 31
0.0
  0
LINE
  5
33B
330
2
100
AcDbEntity
  8
GAIKEI
  6
HIDDEN2
 62
     1
100
AcDbLine
 10
-25.02187198449548
 20
7.209884958050849
 30
0.0
 11
-21.68853865149543
 21
7.209884958050849
 31
0.0
  0
LINE
  5
33C
330
2
100
AcDbEntity
  8
GAIKEI
  6
HIDDEN2
 62
     1
100
AcDbLine
 10
-4.605205319870435
 20
22.0765516232309
 30
0.0
 11
-4.605205319870435
 21
8.576551624580929
 31
0.0
  0
LINE
  5
33D
330
2
100
AcDbEntity
  8
GAIKEI
  6
HIDDEN2
 62
     1
100
AcDbLine
 10
-6.771871986320491
 20
22.0765516232309
 30
0.0
 11
-6.771871986320491
 21
8.576551624580929
 31
0.0
  0
LINE
  5
33E
330
2
100
AcDbEntity
  8
GAIKEI
  6
HIDDEN2
 62
     1
100
AcDbLine
 10
-26.60520531767048
 20
22.0765516232309
 30
0.0
 11
-26.60520531767048
 21
8.576551624580929
 31
0.0
  0
LINE
  5
33F
330
2
100
AcDbEntity
  8
GAIKEI
  6
HIDDEN2
 62
     1
100
AcDbLine
 10
-28.77187198412043
 20
22.0765516232309
 30
0.0
 11
-28.77187198412043
 21
8.576551624580929
 31
0.0
  0
LINE
  5
340
330
2
100
AcDbEntity
  8
GAIKEI
  6
HIDDEN2
 62
     1
100
AcDbLine
 10
-27.44687198425294
 20
10.40988495773092
 30
0.0
 11
-27.44687198425294
 21
10.55425745771646
 31
0.0
  0
LINE
  5
341
330
2
100
AcDbEntity
  8
GAIKEI
  6
HIDDEN2
 62
     1
100
AcDbLine
 10
-27.93020531753797
 20
10.40988495773092
 30
0.0
 11
-27.93020531753797
 21
10.55425745771646
 31
0.0
  0
LINE
  5
342
330
2
100
AcDbEntity
  8
GAIKEI
  6
HIDDEN2
 62
     1
100
AcDbLine
 10
-5.446871986453004
 20
10.40988495773092
 30
0.0
 11
-5.446871986453004
 21
10.55425745771646
 31
0.0
  0
LINE
  5
343
330
2
100
AcDbEntity
  8
GAIKEI
  6
HIDDEN2
 62
     1
100
AcDbLine
 10
-5.930205319738035
 20
10.40988495773092
 30
0.0
 11
-5.930205319738035
 21
10.55425745771646
 31
0.0
  0
DIMENSION
  5
344
330
2
100
AcDbEntity
  8
SUNPO
100
AcDbDimension
  2
*D8
 10
-44.86869399158718
 20
23.92655162304595
 30
0.0
 11
-46.61869399158718
 21
15.32655162390591
 31
0.0
 70
    33
  1
516
 71
     5
 42
17.19999999828007
  3
STANDARD
100
AcDbAlignedDimension
 13
-36.86869399158718
 23
6.726551624765875
 33
0.0
 14
-36.86869399158718
 24
23.92655162304595
 34
0.0
1001
ACAD
1000
DSTYLE
1002
{
1070
   287
1070
     3
1070
   287
1070
     3
1070
   287
1070
     3
1070
   287
1070
     3
1070
   287
1070
     3
1070
   287
1070
     3
1070
   287
1070
     3
1070
   287
1070
     3
1070
   287
1070
     3
1070
   287
1070
     3
1070
   287
1070
     3
1070
   287
1070
     3
1070
    40
1040
1.0
1070
   140
1040
2.5
1070
   147
1040
0.5
1070
   172
1070
     1
1070
   279
1070
     0
1070
   288
1070
     0
1002
}
  0
DIMENSION
  5
352
330
2
100
AcDbEntity
  8
SUNPO
100
AcDbDimension
  2
*D7
 10
-3.771871986620454
 20
-4.727023653045534
 30
0.0
 11
-16.68853865199543
 21
-2.977023653045534
 31
0.0
 70
    33
  1
775
 71
     5
 42
25.83333333074995
  3
STANDARD
100
AcDbAlignedDimension
 13
-29.60520531737041
 23
3.272976346954465
 33
0.0
 14
-3.771871986620453
 24
3.272976346954465
 34
0.0
1001
ACAD
1000
DSTYLE
1002
{
1070
   287
1070
     3
1070
   287
1070
     3
1070
   287
1070
     3
1070
   287
1070
     3
1070
   287
1070
     3
1070
   287
1070
     3
1070
   287
1070
     3
1070
   287
1070
     3
1070
   287
1070
     3
1070
   287
1070
     3
1070
   287
1070
     3
1070
   287
1070
     3
1070
    40
1040
1.0
1070
   140
1040
2.5
1070
   147
1040
0.5
1070
   172
1070
     1
1070
   279
1070
     0
1070
   288
1070
     0
1002
}
  0
LINE
  5
35F
330
2
100
AcDbEntity
  8
GAIKEI
  6
Continuous
 62
     1
100
AcDbLine
 10
32.1267068109737
 20
23.85988495628504
 30
0.0
 11
32.1267068109737
 21
22.15988495645564
 31
0.0
  0
LINE
  5
360
330
2
100
AcDbEntity
  8
GAIKEI
  6
Continuous
 62
     1
100
AcDbLine
 10
31.86004014433377
 20
23.926551622945
 30
0.0
 11
32.1267068109737
 21
23.926551622945
 31
0.0
  0
LINE
  5
361
330
2
100
AcDbEntity
  8
GAIKEI
  6
Continuous
 62
     1
100
AcDbLine
 10
31.86004014433377
 20
23.85988495628504
 30
0.0
 11
32.1267068109737
 21
23.85988495628504
 31
0.0
  0
LINE
  5
362
330
2
100
AcDbEntity
  8
GAIKEI
  6
Continuous
 62
     1
100
AcDbLine
 10
31.86004014433377
 20
22.15988495645564
 30
0.0
 11
32.1267068109737
 21
22.15988495645564
 31
0.0
  0
LINE
  5
363
330
2
100
AcDbEntity
  8
GAIKEI
  6
Continuous
 62
     1
100
AcDbLine
 10
31.86004014433377
 20
23.85988495628504
 30
0.0
 11
31.86004014433377
 21
23.926551622945
 31
0.0
  0
LINE
  5
364
330
2
100
AcDbEntity
  8
GAIKEI
  6
Continuous
 62
     1
100
AcDbLine
 10
31.86004014433377
 20
22.15988495645564
 30
0.0
 11
31.86004014433377
 21
22.09321828979563
 31
0.0
  0
ARC
  5
365
330
2
100
AcDbEntity
  8
GAIKEI
  6
Continuous
 62
     1
100
AcDbCircle
 10
32.1267068109737
 20
23.85988495628504
 30
0.0
 40
0.0666666666599773
100
AcDbArc
 50
0.0
 51
90.0
  0
ARC
  5
366
330
2
100
AcDbEntity
  8
GAIKEI
  6
Continuous
 62
     1
100
AcDbCircle
 10
32.1267068109737
 20
22.15988495645564
 30
0.0
 40
0.0666666666599773
100
AcDbArc
 50
270.0
 51
0.0
  0
ARC
  5
367
330
2
100
AcDbEntity
  8
GAIKEI
  6
Continuous
 62
     1
100
AcDbCircle
 10
32.1267068109737
 20
23.5598849563151
 30
0.0
 40
0.0666666666599773
100
AcDbArc
 50
138.1896849999924
 51
180.0
  0
LINE
  5
368
330
2
100
AcDbEntity
  8
GAIKEI
  6
Continuous
 62
     1
100
AcDbLine
 10
32.1267068109737
 20
23.65988495630512
 30
0.0
 11
32.07701647764532
 21
23.60432945631072
 31
0.0
  0
ARC
  5
369
330
2
100
AcDbEntity
  8
GAIKEI
  6
Continuous
 62
     1
100
AcDbCircle
 10
32.1267068109737
 20
23.0932182896953
 30
0.0
 40
0.0666666666599773
100
AcDbArc
 50
180.0
 51
221.8103150000076
  0
LINE
  5
36A
330
2
100
AcDbEntity
  8
GAIKEI
  6
Continuous
 62
     1
100
AcDbLine
 10
32.1267068109737
 20
22.99321828970534
 30
0.0
 11
32.07701647764532
 21
23.04877395636641
 31
0.0
  0
LINE
  5
36B
330
2
100
AcDbEntity
  8
GAIKEI
  6
Continuous
 62
     1
100
AcDbLine
 10
32.06004014431369
 20
23.85988495628504
 30
0.0
 11
32.06004014431369
 21
22.15988495645564
 31
0.0
  0
LINE
  5
36C
330
2
100
AcDbEntity
  8
GAIKEI
  6
Continuous
 62
     1
100
AcDbLine
 10
32.19337347763371
 20
6.793218291330845
 30
0.0
 11
32.19337347763371
 21
8.576551624485261
 31
0.0
  0
LINE
  5
36D
330
2
100
AcDbEntity
  8
GAIKEI
  6
Continuous
 62
     1
100
AcDbLine
 10
32.1267068109737
 20
6.793218291330845
 30
0.0
 11
32.1267068109737
 21
8.493218291160246
 31
0.0
  0
LINE
  5
36E
330
2
100
AcDbEntity
  8
GAIKEI
  6
Continuous
 62
     1
100
AcDbLine
 10
31.86004014433377
 20
6.726551624670889
 30
0.0
 11
32.1267068109737
 21
6.726551624670889
 31
0.0
  0
LINE
  5
36F
330
2
100
AcDbEntity
  8
GAIKEI
  6
Continuous
 62
     1
100
AcDbLine
 10
31.86004014433377
 20
6.793218291330845
 30
0.0
 11
32.1267068109737
 21
6.793218291330845
 31
0.0
  0
LINE
  5
370
330
2
100
AcDbEntity
  8
GAIKEI
  6
Continuous
 62
     1
100
AcDbLine
 10
31.86004014433377
 20
8.493218291160246
 30
0.0
 11
32.1267068109737
 21
8.493218291160246
 31
0.0
  0
LINE
  5
371
330
2
100
AcDbEntity
  8
GAIKEI
  6
Continuous
 62
     1
100
AcDbLine
 10
31.86004014433377
 20
6.793218291330845
 30
0.0
 11
31.86004014433377
 21
6.726551624670889
 31
0.0
  0
LINE
  5
372
330
2
100
AcDbEntity
  8
GAIKEI
  6
Continuous
 62
     1
100
AcDbLine
 10
31.86004014433377
 20
8.493218291160246
 30
0.0
 11
31.86004014433377
 21
8.559884957820258
 31
0.0
  0
ARC
  5
373
330
2
100
AcDbEntity
  8
GAIKEI
  6
Continuous
 62
     1
100
AcDbCircle
 10
32.1267068109737
 20
6.793218291330845
 30
0.0
 40
0.0666666666599773
100
AcDbArc
 50
270.0
 51
0.0
  0
ARC
  5
374
330
2
100
AcDbEntity
  8
GAIKEI
  6
Continuous
 62
     1
100
AcDbCircle
 10
32.1267068109737
 20
8.493218291160246
 30
0.0
 40
0.0666666666599773
100
AcDbArc
 50
0.0
 51
90.0
  0
ARC
  5
375
330
2
100
AcDbEntity
  8
GAIKEI
  6
Continuous
 62
     1
100
AcDbCircle
 10
32.1267068109737
 20
7.093218291300786
 30
0.0
 40
0.0666666666599773
100
AcDbArc
 50
180.0
 51
221.8103150000076
  0
LINE
  5
376
330
2
100
AcDbEntity
  8
GAIKEI
  6
Continuous
 62
     1
100
AcDbLine
 10
32.1267068109737
 20
6.993218291310768
 30
0.0
 11
32.07701647764532
 21
7.048773957971889
 31
0.0
  0
ARC
  5
377
330
2
100
AcDbEntity
  8
GAIKEI
  6
Continuous
 62
     1
100
AcDbCircle
 10
32.1267068109737
 20
7.559884957920587
 30
0.0
 40
0.0666666666599773
100
AcDbArc
 50
138.1896849999924
 51
180.0
  0
LINE
  5
378
330
2
100
AcDbEntity
  8
GAIKEI
  6
Continuous
 62
     1
100
AcDbLine
 10
32.1267068109737
 20
7.659884957910549
 30
0.0
 11
32.07701647764532
 21
7.604329457916207
 31
0.0
  0
LINE
  5
379
330
2
100
AcDbEntity
  8
GAIKEI
  6
Continuous
 62
     1
100
AcDbLine
 10
32.06004014431369
 20
6.793218291330845
 30
0.0
 11
32.06004014431369
 21
8.493218291160246
 31
0.0
  0
LINE
  5
37A
330
2
100
AcDbEntity
  8
GAIKEI
  6
Continuous
 62
     1
100
AcDbLine
 10
32.19337347763371
 20
23.85988495628504
 30
0.0
 11
32.19337347763371
 21
22.07655162313063
 31
0.0
  0
LINE
  5
37B
330
2
100
AcDbEntity
  8
GAIKEI
  6
Continuous
 62
     1
100
AcDbLine
 10
31.52670681103382
 20
22.00988495647067
 30
0.0
 11
31.52670681103382
 21
8.643218291145217
 31
0.0
  0
LINE
  5
37C
330
2
100
AcDbEntity
  8
GAIKEI
  6
Continuous
 62
     1
100
AcDbLine
 10
31.59337347769383
 20
8.576551624485261
 30
0.0
 11
32.11004014430864
 21
8.576551624485261
 31
0.0
  0
LINE
  5
37D
330
2
100
AcDbEntity
  8
GAIKEI
  6
Continuous
 62
     1
100
AcDbLine
 10
31.59337347769383
 20
22.07655162313063
 30
0.0
 11
32.11004014430864
 21
22.07655162313063
 31
0.0
  0
LINE
  5
37E
330
2
100
AcDbEntity
  8
GAIKEI
  6
Continuous
 62
     1
100
AcDbLine
 10
31.59337347769383
 20
22.00988495647067
 30
0.0
 11
31.59337347769383
 21
21.94321828981066
 31
0.0
  0
ARC
  5
37F
330
2
100
AcDbEntity
  8
GAIKEI
  6
Continuous
 62
     1
100
AcDbCircle
 10
31.59337347769383
 20
8.643218291145217
 30
0.0
 40
0.0666666666599773
100
AcDbArc
 50
180.0
 51
270.0
  0
ARC
  5
380
330
2
100
AcDbEntity
  8
GAIKEI
  6
Continuous
 62
     1
100
AcDbCircle
 10
31.59337347769383
 20
22.00988495647067
 30
0.0
 40
0.0666666666599773
100
AcDbArc
 50
90.0
 51
180.0
  0
CIRCLE
  5
381
330
2
100
AcDbEntity
  8
GAIKEI
  6
Continuous
 62
     1
100
AcDbCircle
 10
31.79337347767376
 20
10.89321829091943
 30
0.0
 40
0.0683333333264767
  0
CIRCLE
  5
382
330
2
100
AcDbEntity
  8
GAIKEI
  6
Continuous
 62
     1
100
AcDbCircle
 10
31.79337347767376
 20
10.89321829091943
 30
0.0
 40
0.0833333333249716
  0
LINE
  5
383
330
2
100
AcDbEntity
  8
GAIKEI
  6
Continuous
 62
     1
100
AcDbLine
 10
31.52670681103382
 20
21.94321828981066
 30
0.0
 11
31.59337347769383
 21
21.94321828981066
 31
0.0
  0
LINE
  5
384
330
2
100
AcDbEntity
  8
GAIKEI
  6
Continuous
 62
     1
100
AcDbLine
 10
31.59337347769383
 20
22.00988495647067
 30
0.0
 11
31.66004014435384
 21
22.00988495647067
 31
0.0
  0
LINE
  5
385
330
2
100
AcDbEntity
  8
GAIKEI
  6
Continuous
 62
     1
100
AcDbLine
 10
31.52670681103382
 20
8.709884957805172
 30
0.0
 11
31.59337347769383
 21
8.709884957805172
 31
0.0
  0
LINE
  5
386
330
2
100
AcDbEntity
  8
GAIKEI
  6
Continuous
 62
     1
100
AcDbLine
 10
31.59337347769383
 20
8.709884957805172
 30
0.0
 11
31.59337347769383
 21
8.64450412447843
 31
0.0
  0
LINE
  5
387
330
2
100
AcDbEntity
  8
GAIKEI
  6
Continuous
 62
     1
100
AcDbLine
 10
31.59337347769383
 20
8.643218291145217
 30
0.0
 11
31.66004014435384
 21
8.643218291145217
 31
0.0
  0
ARC
  5
388
330
2
100
AcDbEntity
  8
GAIKEI
  6
Continuous
 62
     1
100
AcDbCircle
 10
31.59337347769383
 20
22.00988495647067
 30
0.0
 40
0.0666666666599773
100
AcDbArc
 50
270.0
 51
0.0
  0
ARC
  5
389
330
2
100
AcDbEntity
  8
GAIKEI
  6
Continuous
 62
     1
100
AcDbCircle
 10
31.72670681101374
 20
22.00988495647067
 30
0.0
 40
0.0666666666599773
100
AcDbArc
 50
90.0
 51
180.0
  0
ARC
  5
38A
330
2
100
AcDbEntity
  8
GAIKEI
  6
Continuous
 62
     1
100
AcDbCircle
 10
31.59337347769383
 20
8.643218291145217
 30
0.0
 40
0.0666666666599773
100
AcDbArc
 50
0.0
 51
90.0
  0
ARC
  5
38B
330
2
100
AcDbEntity
  8
GAIKEI
  6
Continuous
 62
     1
100
AcDbCircle
 10
31.72670681101374
 20
8.643218291145217
 30
0.0
 40
0.0666666666599773
100
AcDbArc
 50
180.0
 51
270.0
  0
ARC
  5
38C
330
2
100
AcDbEntity
  8
GAIKEI
  6
Continuous
 62
     1
100
AcDbCircle
 10
32.11004014430864
 20
22.00988495647067
 30
0.0
 40
0.0666666666599773
100
AcDbArc
 50
0.0
 51
90.0
  0
ARC
  5
38D
330
2
100
AcDbEntity
  8
GAIKEI
  6
Continuous
 62
     1
100
AcDbCircle
 10
32.1267068109737
 20
22.07655162313063
 30
0.0
 40
0.0666666666599773
100
AcDbArc
 50
314.9403499999816
 51
0.0
  0
LINE
  5
38E
330
2
100
AcDbEntity
  8
GAIKEI
  6
Continuous
 62
     1
100
AcDbLine
 10
32.17670681096866
 20
22.00988495647067
 30
0.0
 11
32.17670681096866
 21
8.643218291145217
 31
0.0
  0
LINE
  5
38F
330
2
100
AcDbEntity
  8
GAIKEI
  6
Continuous
 62
     1
100
AcDbLine
 10
32.1267068109737
 20
22.09321828979563
 30
0.0
 11
32.1267068109737
 21
22.07655162313063
 31
0.0
  0
LINE
  5
390
330
2
100
AcDbEntity
  8
GAIKEI
  6
Continuous
 62
     1
100
AcDbLine
 10
32.06004014431369
 20
22.74321828973041
 30
0.0
 11
31.96004014432367
 21
22.74321828973041
 31
0.0
  0
LINE
  5
391
330
2
100
AcDbEntity
  8
GAIKEI
  6
Continuous
 62
     1
100
AcDbLine
 10
32.06004014431369
 20
22.67655162307045
 30
0.0
 11
31.96004014432367
 21
22.67655162307045
 31
0.0
  0
LINE
  5
392
330
2
100
AcDbEntity
  8
GAIKEI
  6
Continuous
 62
     1
100
AcDbLine
 10
31.96004014432367
 20
22.67655162307045
 30
0.0
 11
31.96004014432367
 21
22.74321828973041
 31
0.0
  0
ARC
  5
393
330
2
100
AcDbEntity
  8
GAIKEI
  6
Continuous
 62
     1
100
AcDbCircle
 10
32.11004014430864
 20
8.643218291145217
 30
0.0
 40
0.0666666666599773
100
AcDbArc
 50
270.0
 51
0.0
  0
ARC
  5
394
330
2
100
AcDbEntity
  8
GAIKEI
  6
Continuous
 62
     1
100
AcDbCircle
 10
32.1267068109737
 20
8.576551624485261
 30
0.0
 40
0.0666666666599773
100
AcDbArc
 50
0.0
 51
45.05965000001839
  0
LINE
  5
395
330
2
100
AcDbEntity
  8
GAIKEI
  6
Continuous
 62
     1
100
AcDbLine
 10
32.1267068109737
 20
8.559884957820258
 30
0.0
 11
32.1267068109737
 21
8.576551624485261
 31
0.0
  0
LINE
  5
396
330
2
100
AcDbEntity
  8
GAIKEI
  6
Continuous
 62
     1
100
AcDbLine
 10
32.06004014431369
 20
7.909884957885481
 30
0.0
 11
31.96004014432367
 21
7.909884957885481
 31
0.0
  0
LINE
  5
397
330
2
100
AcDbEntity
  8
GAIKEI
  6
Continuous
 62
     1
100
AcDbLine
 10
32.06004014431369
 20
7.976551624545436
 30
0.0
 11
31.96004014432367
 21
7.976551624545436
 31
0.0
  0
LINE
  5
398
330
2
100
AcDbEntity
  8
GAIKEI
  6
Continuous
 62
     1
100
AcDbLine
 10
31.96004014432367
 20
7.976551624545436
 30
0.0
 11
31.96004014432367
 21
7.909884957885481
 31
0.0
  0
LINE
  5
399
330
2
100
AcDbEntity
  8
GAIKEI
  6
Continuous
 62
     1
100
AcDbLine
 10
31.86004014433377
 20
22.09321828979563
 30
0.0
 11
32.1267068109737
 21
22.09321828979563
 31
0.0
  0
LINE
  5
39A
330
2
100
AcDbEntity
  8
GAIKEI
  6
Continuous
 62
     1
100
AcDbLine
 10
31.86004014433377
 20
8.559884957820258
 30
0.0
 11
32.1267068109737
 21
8.559884957820258
 31
0.0
  0
POINT
  5
39B
330
2
100
AcDbEntity
  8
GAIKEI
  6
Continuous
 62
     1
100
AcDbPoint
 10
32.19337347763371
 20
15.32655162380791
 30
0.0
  0
DIMENSION
  5
39C
330
2
100
AcDbEntity
  8
SUNPO
100
AcDbDimension
  2
*D6
 10
3.478126910136325
 20
35.40418036929896
 30
0.0
 11
-16.68853865199543
 21
37.15418036929896
 31
0.0
 70
    33
  1
1210
 71
     5
 42
40.3333311242635
  3
STANDARD
100
AcDbAlignedDimension
 13
-36.85520421412718
 23
27.40418036929896
 33
0.0
 14
3.478126910136325
 24
27.40418036929896
 34
0.0
1001
ACAD
1000
DSTYLE
1002
{
1070
   287
1070
     3
1070
    40
1040
1.0
1070
   140
1040
2.5
1070
   147
1040
0.5
1070
   172
1070
     1
1070
   279
1070
     0
1070
   288
1070
     0
1002
}
  0
DIMENSION
  5
3A9
330
2
100
AcDbEntity
  8
SUNPO
100
AcDbDimension
  2
*D5
 10
11.52741193176905
 20
27.39321415798429
 30
0.0
 11
9.777411931769048
 21
15.32655148500464
 31
0.0
 70
    33
  1
724
 71
     5
 42
24.13332534595929
  3
STANDARD
100
AcDbAlignedDimension
 13
3.527411931769051
 23
3.259888812024996
 33
0.0
 14
3.527411931769051
 24
27.39321415798429
 34
0.0
1001
ACAD
1000
DSTYLE
1002
{
1070
   287
1070
     3
1070
    40
1040
1.0
1070
   140
1040
2.5
1070
   147
1040
0.5
1070
   172
1070
     1
1070
   279
1070
     0
1070
   288
1070
     0
1002
}
  0
TEXT
  5
3B6
330
2
100
AcDbEntity
  8
TOUROKU
100
AcDbText
 10
35.30887583828303
 20
2.933465156824581
 30
0.0
 40
1.5
  1
Ｓ＝１／３０
 41
0.7
 72
     2
 11
42.37887583828302
 21
2.933465156824581
 31
0.0
100
AcDbText
  0
ENDSEC
  0
SECTION
  2
OBJECTS
  0
DICTIONARY
  5
7
330
0
100
AcDbDictionary
281
     1
  3
ACAD_COLOR
350
2D
  3
ACAD_GROUP
350
29
  3
ACAD_LAYOUT
350
B
  3
ACAD_MATERIAL
350
2C
  3
ACAD_MLINESTYLE
350
2A
  3
ACAD_PLOTSETTINGS
350
2B
  3
ACAD_PLOTSTYLENAME
350
6
  3
ACDBHEADERROUNDTRIPXREC
350
3FF
  3
AcDbVariableDictionary
350
3FA
  0
DICTIONARY
  5
11
330
10
100
AcDbDictionary
280
     1
281
     1
  3
ACAD_LAYERSTATES
360
12
  0
DICTIONARY
  5
2D
102
{ACAD_REACTORS
330
7
102
}
330
7
100
AcDbDictionary
281
     1
  0
DICTIONARY
  5
29
102
{ACAD_REACTORS
330
7
102
}
330
7
100
AcDbDictionary
281
     1
  0
DICTIONARY
  5
B
102
{ACAD_REACTORS
330
7
102
}
330
7
100
AcDbDictionary
281
     1
  3
Model
350
A
  3
レイアウト1
350
F
  0
DICTIONARY
  5
2C
102
{ACAD_REACTORS
330
7
102
}
330
7
100
AcDbDictionary
281
     1
  0
DICTIONARY
  5
2A
102
{ACAD_REACTORS
330
7
102
}
330
7
100
AcDbDictionary
281
     1
  3
Standard
350
2F
  0
DICTIONARY
  5
2B
102
{ACAD_REACTORS
330
7
102
}
330
7
100
AcDbDictionary
281
     1
  0
ACDBDICTIONARYWDFLT
  5
6
102
{ACAD_REACTORS
330
7
102
}
330
7
100
AcDbDictionary
281
     1
  3
Normal
350
5
100
AcDbDictionaryWithDefault
340
5
  0
DICTIONARY
  5
3FF
102
{ACAD_REACTORS
330
7
102
}
330
7
100
AcDbDictionary
281
     1
  3
COLORDICT
350
401
  3
MATERIALDICT
350
400
  0
DICTIONARY
  5
3FA
102
{ACAD_REACTORS
330
7
102
}
330
7
100
AcDbDictionary
281
     1
  3
DIMASSOC
350
3FC
  3
HIDETEXT
350
3FB
  3
PROJECTNAME
350
3FD
  0
DICTIONARY
  5
12
102
{ACAD_REACTORS
330
11
102
}
330
11
100
AcDbDictionary
281
     1
  0
LAYOUT
  5
A
102
{ACAD_XDICTIONARY
360
402
102
}
102
{ACAD_REACTORS
330
B
102
}
330
B
100
AcDbPlotSettings
  1

  2
Ａ４－縦3FRIM01.pc3
  4
A4
  6

 40
5.873749732971191
 41
5.873747825622558
 42
5.873748779296875
 43
5.873748779296875
 44
209.9733276367187
 45
296.9259948730469
 46
5.419999999999999
 47
0.0
 48
0.0
 49
0.0
140
0.0
141
0.0
142
1.0
143
1.382430925642159
 70
 11956
 72
     1
 73
     0
 74
     1
  7
tmsacad.ctb
 75
     0
147
0.7233634472807279
148
0.0137509953462995
149
0.0199638970806291
100
AcDbLayout
  1
Model
 70
     1
 71
     0
 10
0.0
 20
0.0
 11
12.0
 21
9.0
 12
0.0
 22
0.0
 32
0.0
 14
0.0
 24
0.0
 34
0.0
 15
0.0
 25
0.0
 35
0.0
146
0.0
 13
0.0
 23
0.0
 33
0.0
 16
1.0
 26
0.0
 36
0.0
 17
0.0
 27
1.0
 37
0.0
 76
     0
330
2
  0
LAYOUT
  5
F
102
{ACAD_XDICTIONARY
360
404
102
}
102
{ACAD_REACTORS
330
B
102
}
330
B
100
AcDbPlotSettings
  1

  2
None
  4

  6

 40
0.0
 41
0.0
 42
0.0
 43
0.0
 44
0.0
 45
0.0
 46
0.0
 47
0.0
 48
0.0
 49
0.0
140
0.0
141
0.0
142
1.0
143
1.0
 70
   688
 72
     0
 73
     0
 74
     5
  7
tmsacad.ctb
 75
    16
147
1.0
148
0.0
149
0.0
100
AcDbLayout
  1
レイアウト1
 70
     1
 71
     1
 10
0.0
 20
0.0
 11
12.0
 21
9.0
 12
0.0
 22
0.0
 32
0.0
 14
0.0
 24
0.0
 34
0.0
 15
0.0
 25
0.0
 35
0.0
146
0.0
 13
0.0
 23
0.0
 33
0.0
 16
1.0
 26
0.0
 36
0.0
 17
0.0
 27
1.0
 37
0.0
 76
     0
330
C
  0
MLINESTYLE
  5
2F
102
{ACAD_REACTORS
330
2A
102
}
330
2A
100
AcDbMlineStyle
  2
STANDARD
 70
     0
  3

 62
   256
 51
90.0
 52
90.0
 71
     2
 49
0.5
 62
   256
  6
BYLAYER
 49
-0.5
 62
   256
  6
BYLAYER
  0
ACDBPLACEHOLDER
  5
5
102
{ACAD_REACTORS
330
6
102
}
330
6
  0
XRECORD
  5
401
102
{ACAD_REACTORS
330
3FF
102
}
330
3FF
100
AcDbXrecord
280
     1
340
2D
  0
XRECORD
  5
400
102
{ACAD_REACTORS
330
3FF
102
}
330
3FF
100
AcDbXrecord
280
     1
340
2C
  0
DICTIONARYVAR
  5
3FC
102
{ACAD_REACTORS
330
3FA
102
}
330
3FA
100
DictionaryVariables
280
     0
  1
1
  0
DICTIONARYVAR
  5
3FB
102
{ACAD_REACTORS
330
3FA
102
}
330
3FA
100
DictionaryVariables
280
     0
  1
1
  0
DICTIONARYVAR
  5
3FD
102
{ACAD_REACTORS
330
3FA
102
}
330
3FA
100
DictionaryVariables
280
     0
  1

  0
DICTIONARY
  5
402
330
A
100
AcDbDictionary
280
     1
281
     1
  3
ACAD_XREC_ROUNDTRIP
360
403
  0
DICTIONARY
  5
404
330
F
100
AcDbDictionary
280
     1
281
     1
  3
ACAD_XREC_ROUNDTRIP
360
405
  0
XRECORD
  5
403
102
{ACAD_REACTORS
330
402
102
}
330
402
100
AcDbXrecord
280
     1
102
SHADEPLOT
 70
     0
102
SHADEPLOTRESLEVEL
 70
     2
102
SHADEPLOTCUSTOMDPI
 70
   300
  0
XRECORD
  5
405
102
{ACAD_REACTORS
330
404
102
}
330
404
100
AcDbXrecord
280
     1
102
SHADEPLOT
 70
     0
102
SHADEPLOTRESLEVEL
 70
     2
102
SHADEPLOTCUSTOMDPI
 70
   300
  0
ENDSEC
  0
EOF
