  0
SECTION
  2
HEADER
  9
$ACADVER
  1
AC1015
  9
$ACADMAINTVER
 70
    20
  9
$DWGCODEPAGE
  3
ANSI_932
  9
$INSBASE
 10
129.499999944041
 20
372.5008351249344
 30
0.0
  9
$EXTMIN
 10
-66.21459870857018
 20
-57.72230467354211
 30
-0.0015258207003583
  9
$EXTMAX
 10
58.81897028398123
 20
55.30229228025098
 30
0.0000000349246037
  9
$LIMMIN
 10
0.0
 20
0.0
  9
$LIMMAX
 10
420.0
 20
297.0
  9
$ORTHOMODE
 70
     1
  9
$REGENMODE
 70
     0
  9
$FILLMODE
 70
     1
  9
$QTEXTMODE
 70
     0
  9
$MIRRTEXT
 70
     0
  9
$LTSCALE
 40
1.0
  9
$ATTMODE
 70
     1
  9
$TEXTSIZE
 40
2.5
  9
$TRACEWID
 40
1.0
  9
$TEXTSTYLE
  7
Standard
  9
$CLAYER
  8
GAIKEI
  9
$CELTYPE
  6
ByLayer
  9
$CECOLOR
 62
   256
  9
$CELTSCALE
 40
1.0
  9
$DISPSILH
 70
     0
  9
$DIMSCALE
 40
1.0
  9
$DIMASZ
 40
2.0
  9
$DIMEXO
 40
2.0
  9
$DIMDLI
 40
8.0
  9
$DIMRND
 40
0.0
  9
$DIMDLE
 40
0.0
  9
$DIMEXE
 40
2.0
  9
$DIMTP
 40
0.0
  9
$DIMTM
 40
0.0
  9
$DIMTXT
 40
2.5
  9
$DIMCEN
 40
0.0
  9
$DIMTSZ
 40
0.0
  9
$DIMTOL
 70
     0
  9
$DIMLIM
 70
     0
  9
$DIMTIH
 70
     0
  9
$DIMTOH
 70
     0
  9
$DIMSE1
 70
     0
  9
$DIMSE2
 70
     0
  9
$DIMTAD
 70
     3
  9
$DIMZIN
 70
     0
  9
$DIMBLK
  1

  9
$DIMASO
 70
     1
  9
$DIMSHO
 70
     1
  9
$DIMPOST
  1

  9
$DIMAPOST
  1

  9
$DIMALT
 70
     0
  9
$DIMALTD
 70
     2
  9
$DIMALTF
 40
25.4
  9
$DIMLFAC
 40
1.0
  9
$DIMTOFL
 70
     1
  9
$DIMTVP
 40
0.0
  9
$DIMTIX
 70
     0
  9
$DIMSOXD
 70
     0
  9
$DIMSAH
 70
     1
  9
$DIMBLK1
  1
OPEN30
  9
$DIMBLK2
  1
OPEN30
  9
$DIMSTYLE
  2
STANDARD
  9
$DIMCLRD
 70
     0
  9
$DIMCLRE
 70
     0
  9
$DIMCLRT
 70
     0
  9
$DIMTFAC
 40
1.0
  9
$DIMGAP
 40
0.5
  9
$DIMJUST
 70
     0
  9
$DIMSD1
 70
     0
  9
$DIMSD2
 70
     0
  9
$DIMTOLJ
 70
     1
  9
$DIMTZIN
 70
     0
  9
$DIMALTZ
 70
     0
  9
$DIMALTTZ
 70
     0
  9
$DIMUPT
 70
     0
  9
$DIMDEC
 70
     4
  9
$DIMTDEC
 70
     4
  9
$DIMALTU
 70
     2
  9
$DIMALTTD
 70
     2
  9
$DIMTXSTY
  7
Standard
  9
$DIMAUNIT
 70
     0
  9
$DIMADEC
 70
     0
  9
$DIMALTRND
 40
0.0
  9
$DIMAZIN
 70
     0
  9
$DIMDSEP
 70
    46
  9
$DIMATFIT
 70
     3
  9
$DIMFRAC
 70
     0
  9
$DIMLDRBLK
  1
OPEN30
  9
$DIMLUNIT
 70
     2
  9
$DIMLWD
 70
    -2
  9
$DIMLWE
 70
    -2
  9
$DIMTMOVE
 70
     0
  9
$LUNITS
 70
     2
  9
$LUPREC
 70
     4
  9
$SKETCHINC
 40
1.0
  9
$FILLETRAD
 40
0.0
  9
$AUNITS
 70
     0
  9
$AUPREC
 70
     0
  9
$MENU
  1
.
  9
$ELEVATION
 40
0.0
  9
$PELEVATION
 40
0.0
  9
$THICKNESS
 40
0.0
  9
$LIMCHECK
 70
     0
  9
$CHAMFERA
 40
0.0
  9
$CHAMFERB
 40
0.0
  9
$CHAMFERC
 40
0.0
  9
$CHAMFERD
 40
0.0
  9
$SKPOLY
 70
     0
  9
$TDCREATE
 40
2454349.434269746
  9
$TDUCREATE
 40
2454349.059269746
  9
$TDUPDATE
 40
2455292.622658993
  9
$TDUUPDATE
 40
2455292.247658993
  9
$TDINDWG
 40
0.1892985301
  9
$TDUSRTIMER
 40
0.1892985301
  9
$USRTIMER
 70
     1
  9
$ANGBASE
 50
0.0
  9
$ANGDIR
 70
     0
  9
$PDMODE
 70
     0
  9
$PDSIZE
 40
0.0
  9
$PLINEWID
 40
0.0
  9
$SPLFRAME
 70
     0
  9
$SPLINETYPE
 70
     6
  9
$SPLINESEGS
 70
     8
  9
$HANDSEED
  5
225
  9
$SURFTAB1
 70
     6
  9
$SURFTAB2
 70
     6
  9
$SURFTYPE
 70
     6
  9
$SURFU
 70
     6
  9
$SURFV
 70
     6
  9
$UCSBASE
  2

  9
$UCSNAME
  2

  9
$UCSORG
 10
0.0
 20
0.0
 30
0.0
  9
$UCSXDIR
 10
1.0
 20
0.0
 30
0.0
  9
$UCSYDIR
 10
0.0
 20
1.0
 30
0.0
  9
$UCSORTHOREF
  2

  9
$UCSORTHOVIEW
 70
     0
  9
$UCSORGTOP
 10
0.0
 20
0.0
 30
0.0
  9
$UCSORGBOTTOM
 10
0.0
 20
0.0
 30
0.0
  9
$UCSORGLEFT
 10
0.0
 20
0.0
 30
0.0
  9
$UCSORGRIGHT
 10
0.0
 20
0.0
 30
0.0
  9
$UCSORGFRONT
 10
0.0
 20
0.0
 30
0.0
  9
$UCSORGBACK
 10
0.0
 20
0.0
 30
0.0
  9
$PUCSBASE
  2

  9
$PUCSNAME
  2

  9
$PUCSORG
 10
0.0
 20
0.0
 30
0.0
  9
$PUCSXDIR
 10
1.0
 20
0.0
 30
0.0
  9
$PUCSYDIR
 10
0.0
 20
1.0
 30
0.0
  9
$PUCSORTHOREF
  2

  9
$PUCSORTHOVIEW
 70
     0
  9
$PUCSORGTOP
 10
0.0
 20
0.0
 30
0.0
  9
$PUCSORGBOTTOM
 10
0.0
 20
0.0
 30
0.0
  9
$PUCSORGLEFT
 10
0.0
 20
0.0
 30
0.0
  9
$PUCSORGRIGHT
 10
0.0
 20
0.0
 30
0.0
  9
$PUCSORGFRONT
 10
0.0
 20
0.0
 30
0.0
  9
$PUCSORGBACK
 10
0.0
 20
0.0
 30
0.0
  9
$USERI1
 70
     0
  9
$USERI2
 70
     0
  9
$USERI3
 70
     0
  9
$USERI4
 70
     0
  9
$USERI5
 70
     0
  9
$USERR1
 40
0.0
  9
$USERR2
 40
0.0
  9
$USERR3
 40
0.0
  9
$USERR4
 40
0.0
  9
$USERR5
 40
0.0
  9
$WORLDVIEW
 70
     1
  9
$SHADEDGE
 70
     3
  9
$SHADEDIF
 70
    70
  9
$TILEMODE
 70
     1
  9
$MAXACTVP
 70
    64
  9
$PINSBASE
 10
0.0
 20
0.0
 30
0.0
  9
$PLIMCHECK
 70
     0
  9
$PEXTMIN
 10
0.0
 20
0.0
 30
0.0
  9
$PEXTMAX
 10
0.0
 20
0.0
 30
0.0
  9
$PLIMMIN
 10
0.0
 20
0.0
  9
$PLIMMAX
 10
12.0
 20
9.0
  9
$UNITMODE
 70
     0
  9
$VISRETAIN
 70
     1
  9
$PLINEGEN
 70
     0
  9
$PSLTSCALE
 70
     1
  9
$TREEDEPTH
 70
  3020
  9
$CMLSTYLE
  2
Standard
  9
$CMLJUST
 70
     0
  9
$CMLSCALE
 40
20.0
  9
$PROXYGRAPHICS
 70
     1
  9
$MEASUREMENT
 70
     1
  9
$CELWEIGHT
370
    -1
  9
$ENDCAPS
280
     0
  9
$JOINSTYLE
280
     0
  9
$LWDISPLAY
290
     0
  9
$INSUNITS
 70
     4
  9
$HYPERLINKBASE
  1

  9
$STYLESHEET
  1

  9
$XEDIT
290
     1
  9
$CEPSNTYPE
380
     0
  9
$PSTYLEMODE
290
     1
  9
$FINGERPRINTGUID
  2
{FDEAD578-A652-11D2-9A35-0060089B3A3F}
  9
$VERSIONGUID
  2
{3EABCA5E-345B-4DE2-9F9F-9FCF626FCB47}
  9
$EXTNAMES
290
     1
  9
$PSVPSCALE
 40
0.0
  9
$OLESTARTUP
290
     0
  0
ENDSEC
  0
SECTION
  2
CLASSES
  0
CLASS
  1
ACDBDICTIONARYWDFLT
  2
AcDbDictionaryWithDefault
  3
ObjectDBX Classes
 90
        0
280
     0
281
     0
  0
CLASS
  1
ACDBPLACEHOLDER
  2
AcDbPlaceHolder
  3
ObjectDBX Classes
 90
        0
280
     0
281
     0
  0
CLASS
  1
LAYOUT
  2
AcDbLayout
  3
ObjectDBX Classes
 90
        0
280
     0
281
     0
  0
CLASS
  1
DICTIONARYVAR
  2
AcDbDictionaryVar
  3
ObjectDBX Classes
 90
        0
280
     0
281
     0
  0
ENDSEC
  0
SECTION
  2
TABLES
  0
TABLE
  2
VPORT
  5
1B
330
0
100
AcDbSymbolTable
 70
     3
  0
VPORT
  5
21D
330
1B
100
AcDbSymbolTableRecord
100
AcDbViewportTableRecord
  2
*Active
 70
     0
 10
0.0
 20
0.0
 11
1.0
 21
1.0
 12
-3.697814212294474
 22
-1.210006196645565
 13
0.0
 23
0.0
 14
10.0
 24
10.0
 15
10.0
 25
10.0
 16
0.0
 26
0.0
 36
1.0
 17
0.0
 27
0.0
 37
0.0
 40
113.8884792235036
 41
1.392857142857142
 42
50.0
 43
0.0
 44
0.0
 50
0.0
 51
0.0
 71
     0
 72
  1000
 73
     1
 74
     2
 75
     0
 76
     0
 77
     0
 78
     0
281
     0
 65
     1
110
0.0
120
0.0
130
0.0
111
1.0
121
0.0
131
0.0
112
0.0
122
1.0
132
0.0
 79
     0
146
0.0
  0
ENDTAB
  0
TABLE
  2
LTYPE
  5
16
330
0
100
AcDbSymbolTable
 70
     1
  0
LTYPE
  5
17
330
16
100
AcDbSymbolTableRecord
100
AcDbLinetypeTableRecord
  2
ByBlock
 70
     0
  3

 72
    65
 73
     0
 40
0.0
  0
LTYPE
  5
18
330
16
100
AcDbSymbolTableRecord
100
AcDbLinetypeTableRecord
  2
ByLayer
 70
     0
  3

 72
    65
 73
     0
 40
0.0
  0
LTYPE
  5
8
330
16
100
AcDbSymbolTableRecord
100
AcDbLinetypeTableRecord
  2
Continuous
 70
     0
  3
Solid line
 72
    65
 73
     0
 40
0.0
  0
ENDTAB
  0
TABLE
  2
LAYER
  5
10
102
{ACAD_XDICTIONARY
360
11
102
}
330
0
100
AcDbSymbolTable
 70
     7
  0
LAYER
  5
4
330
10
100
AcDbSymbolTableRecord
100
AcDbLayerTableRecord
  2
0
 70
     0
 62
     7
  6
Continuous
370
    -3
390
5
  0
LAYER
  5
1C4
330
10
100
AcDbSymbolTableRecord
100
AcDbLayerTableRecord
  2
WAKU
 70
     0
 62
     4
  6
Continuous
370
    -3
390
5
  0
LAYER
  5
30
330
10
100
AcDbSymbolTableRecord
100
AcDbLayerTableRecord
  2
MOJI1
 70
     0
 62
     2
  6
Continuous
370
    -3
390
5
  0
LAYER
  5
32
330
10
100
AcDbSymbolTableRecord
100
AcDbLayerTableRecord
  2
TOUROKU
 70
     0
 62
     1
  6
Continuous
370
    -3
390
5
  0
LAYER
  5
40
330
10
100
AcDbSymbolTableRecord
100
AcDbLayerTableRecord
  2
DEFPOINTS
 70
     0
 62
     7
  6
Continuous
290
     0
370
    -3
390
5
  0
LAYER
  5
2D
330
10
100
AcDbSymbolTableRecord
100
AcDbLayerTableRecord
  2
GAIKEI
 70
     0
 62
     7
  6
Continuous
370
    -3
390
5
  0
LAYER
  5
34
330
10
100
AcDbSymbolTableRecord
100
AcDbLayerTableRecord
  2
SUNPO
 70
     0
 62
     3
  6
Continuous
370
    -3
390
5
  0
ENDTAB
  0
TABLE
  2
STYLE
  5
13
330
0
100
AcDbSymbolTable
 70
     1
  0
STYLE
  5
14
330
13
100
AcDbSymbolTableRecord
100
AcDbTextStyleTableRecord
  2
Standard
 70
     0
 40
0.0
 41
1.0
 50
0.0
 71
     0
 42
2.5
  3
MONOTXT.shx
  4
BIGFONT.shx
  0
ENDTAB
  0
TABLE
  2
VIEW
  5
19
330
0
100
AcDbSymbolTable
 70
     0
  0
ENDTAB
  0
TABLE
  2
UCS
  5
1A
330
0
100
AcDbSymbolTable
 70
     0
  0
ENDTAB
  0
TABLE
  2
APPID
  5
1D
330
0
100
AcDbSymbolTable
 70
     1
  0
APPID
  5
1E
330
1D
100
AcDbSymbolTableRecord
100
AcDbRegAppTableRecord
  2
ACAD
 70
     0
  0
ENDTAB
  0
TABLE
  2
DIMSTYLE
  5
1F
330
0
100
AcDbSymbolTable
 70
     1
100
AcDbDimStyleTable
 71
     1
340
20
  0
DIMSTYLE
105
20
102
{ACAD_REACTORS
330
A4
330
B1
330
33
102
}
330
1F
100
AcDbSymbolTableRecord
100
AcDbDimStyleTableRecord
  2
STANDARD
 70
     0
 40
0.0
 41
2.0
 42
2.0
 43
8.0
 44
2.0
 73
     0
 74
     0
 77
     3
140
3.0
141
0.0
173
     1
279
     2
288
     1
340
14
341
21
343
21
344
21
  0
ENDTAB
  0
TABLE
  2
BLOCK_RECORD
  5
1
330
0
100
AcDbSymbolTable
 70
     7
  0
BLOCK_RECORD
  5
2
330
1
100
AcDbSymbolTableRecord
100
AcDbBlockTableRecord
  2
*Model_Space
340
A
  0
BLOCK_RECORD
  5
C
330
1
100
AcDbSymbolTableRecord
100
AcDbBlockTableRecord
  2
*Paper_Space
340
F
  0
BLOCK_RECORD
  5
21
330
1
100
AcDbSymbolTableRecord
100
AcDbBlockTableRecord
  2
_OPEN30
340
0
102
{BLKREFS
331
AA
331
AB
331
B7
331
B8
331
3C
331
3D
331
1F7
331
1F8
331
203
331
204
331
211
331
212
102
}
  0
BLOCK_RECORD
  5
A5
330
1
100
AcDbSymbolTableRecord
100
AcDbBlockTableRecord
  2
*D1
340
0
  0
BLOCK_RECORD
  5
B2
330
1
100
AcDbSymbolTableRecord
100
AcDbBlockTableRecord
  2
*D2
340
0
  0
BLOCK_RECORD
  5
35
330
1
100
AcDbSymbolTableRecord
100
AcDbBlockTableRecord
  2
*D3
340
0
  0
BLOCK_RECORD
  5
1F3
330
1
100
AcDbSymbolTableRecord
100
AcDbBlockTableRecord
  2
*D4
340
0
  0
BLOCK_RECORD
  5
1FF
330
1
100
AcDbSymbolTableRecord
100
AcDbBlockTableRecord
  2
*D5
340
0
  0
BLOCK_RECORD
  5
20B
330
1
100
AcDbSymbolTableRecord
100
AcDbBlockTableRecord
  2
*D6
340
0
  0
ENDTAB
  0
ENDSEC
  0
SECTION
  2
BLOCKS
  0
BLOCK
  5
3
330
2
100
AcDbEntity
  8
0
100
AcDbBlockBegin
  2
*Model_Space
 70
     0
 10
0.0
 20
0.0
 30
0.0
  3
*Model_Space
  1

  0
ENDBLK
  5
9
330
2
100
AcDbEntity
  8
0
100
AcDbBlockEnd
  0
BLOCK
  5
D
330
C
100
AcDbEntity
 67
     1
  8
0
100
AcDbBlockBegin
  2
*Paper_Space
 70
     0
 10
0.0
 20
0.0
 30
0.0
  3
*Paper_Space
  1

  0
ENDBLK
  5
E
330
C
100
AcDbEntity
 67
     1
  8
0
100
AcDbBlockEnd
  0
BLOCK
  5
22
330
21
100
AcDbEntity
  8
0
100
AcDbBlockBegin
  2
_OPEN30
 70
     0
 10
0.0
 20
0.0
 30
0.0
  3
_OPEN30
  1

  0
LINE
  5
23
330
21
100
AcDbEntity
  8
0
  6
ByBlock
 62
     0
100
AcDbLine
 10
-1.0
 20
0.26794919
 30
0.0
 11
0.0
 21
0.0
 31
0.0
  0
LINE
  5
24
330
21
100
AcDbEntity
  8
0
  6
ByBlock
 62
     0
100
AcDbLine
 10
0.0
 20
0.0
 30
0.0
 11
-1.0
 21
-0.26794919
 31
0.0
  0
LINE
  5
25
330
21
100
AcDbEntity
  8
0
  6
ByBlock
 62
     0
100
AcDbLine
 10
0.0
 20
0.0
 30
0.0
 11
-1.0
 21
0.0
 31
0.0
  0
ENDBLK
  5
26
330
21
100
AcDbEntity
  8
0
100
AcDbBlockEnd
  0
BLOCK
  5
A6
330
A5
100
AcDbEntity
  8
0
100
AcDbBlockBegin
  2
*D1
 70
     1
 10
0.0
 20
0.0
 30
0.0
  3
*D1
  1

  0
LINE
  5
A7
330
A5
100
AcDbEntity
  8
SUNPO
 62
     0
370
    -2
100
AcDbLine
 10
147.5750738872323
 20
348.8581264214169
 30
0.0
 11
147.5750738872323
 21
356.8581264214168
 31
0.0
  0
LINE
  5
A8
330
A5
100
AcDbEntity
  8
SUNPO
 62
     0
370
    -2
100
AcDbLine
 10
208.0750738630322
 20
348.8581264214169
 30
0.0
 11
208.0750738630322
 21
356.8581264214168
 31
0.0
  0
LINE
  5
A9
330
A5
100
AcDbEntity
  8
SUNPO
 62
     0
370
    -2
100
AcDbLine
 10
149.5750738872323
 20
354.8581264214168
 30
0.0
 11
206.0750738630322
 21
354.8581264214168
 31
0.0
  0
INSERT
  5
AA
330
A5
100
AcDbEntity
  8
SUNPO
 62
     0
370
    -2
100
AcDbBlockReference
  2
_OPEN30
 10
147.5750738872323
 20
354.8581264214168
 30
0.0
 41
2.0
 42
2.0
 43
2.0
 50
180.0
  0
INSERT
  5
AB
330
A5
100
AcDbEntity
  8
SUNPO
 62
     0
370
    -2
100
AcDbBlockReference
  2
_OPEN30
 10
208.0750738630322
 20
354.8581264214168
 30
0.0
 41
2.0
 42
2.0
 43
2.0
  0
MTEXT
  5
AC
330
A5
100
AcDbEntity
  8
SUNPO
 62
     0
100
AcDbMText
 10
177.8250738751322
 20
356.6081264214168
 30
0.0
 40
2.5
 41
0.0
 71
     5
 72
     1
  1
\A1;1210
 73
     1
 44
1.0
1001
ACAD
1000
MTEXTBEGIN
1070
    73
1070
     1
1070
    44
1040
1.0
1070
    74
1070
     0
1000
MTEXTEND
  0
POINT
  5
AD
330
A5
100
AcDbEntity
  8
DEFPOINTS
 62
     0
100
AcDbPoint
 10
147.5750738872323
 20
346.8581264214169
 30
0.0
  0
POINT
  5
AE
330
A5
100
AcDbEntity
  8
DEFPOINTS
 62
     0
100
AcDbPoint
 10
208.0750738630322
 20
346.8581264214169
 30
0.0
  0
POINT
  5
AF
330
A5
100
AcDbEntity
  8
DEFPOINTS
 62
     0
100
AcDbPoint
 10
208.0750738630322
 20
354.8581264214168
 30
0.0
  0
ENDBLK
  5
B0
330
A5
100
AcDbEntity
  8
0
100
AcDbBlockEnd
  0
BLOCK
  5
B3
330
B2
100
AcDbEntity
  8
0
100
AcDbBlockBegin
  2
*D2
 70
     1
 10
0.0
 20
0.0
 30
0.0
  3
*D2
  1

  0
LINE
  5
B4
330
B2
100
AcDbEntity
  8
SUNPO
 62
     0
370
    -2
100
AcDbLine
 10
209.6353086733045
 20
310.6661027301074
 30
0.0
 11
217.6353086733045
 21
310.6661027301074
 31
0.0
  0
LINE
  5
B5
330
B2
100
AcDbEntity
  8
SUNPO
 62
     0
370
    -2
100
AcDbLine
 10
209.6353086733045
 20
346.8584128657682
 30
0.0
 11
217.6353086733045
 21
346.8584128657682
 31
0.0
  0
LINE
  5
B6
330
B2
100
AcDbEntity
  8
SUNPO
 62
     0
370
    -2
100
AcDbLine
 10
215.6353086733045
 20
312.6661027301074
 30
0.0
 11
215.6353086733045
 21
344.8584128657682
 31
0.0
  0
INSERT
  5
B7
330
B2
100
AcDbEntity
  8
SUNPO
 62
     0
370
    -2
100
AcDbBlockReference
  2
_OPEN30
 10
215.6353086733045
 20
310.6661027301074
 30
0.0
 41
2.0
 42
2.0
 43
2.0
 50
270.0
  0
INSERT
  5
B8
330
B2
100
AcDbEntity
  8
SUNPO
 62
     0
370
    -2
100
AcDbBlockReference
  2
_OPEN30
 10
215.6353086733045
 20
346.8584128657682
 30
0.0
 41
2.0
 42
2.0
 43
2.0
 50
90.0
  0
MTEXT
  5
B9
330
B2
100
AcDbEntity
  8
SUNPO
 62
     0
100
AcDbMText
 10
213.8853086733045
 20
328.7622577979378
 30
0.0
 40
2.5
 41
0.0
 71
     5
 72
     1
  1
\A1;724
 11
0.0000000000000001
 21
1.0
 31
0.0
 73
     1
 44
1.0
1001
ACAD
1000
MTEXTBEGIN
1070
    73
1070
     1
1070
    44
1040
1.0
1070
    74
1070
     0
1000
MTEXTEND
  0
POINT
  5
BA
330
B2
100
AcDbEntity
  8
DEFPOINTS
 62
     0
100
AcDbPoint
 10
207.6353086733045
 20
310.6661027301074
 30
0.0
  0
POINT
  5
BB
330
B2
100
AcDbEntity
  8
DEFPOINTS
 62
     0
100
AcDbPoint
 10
207.6353086733045
 20
346.8584128657682
 30
0.0
  0
POINT
  5
BC
330
B2
100
AcDbEntity
  8
DEFPOINTS
 62
     0
100
AcDbPoint
 10
215.6353086733045
 20
346.8584128657682
 30
0.0
  0
ENDBLK
  5
BD
330
B2
100
AcDbEntity
  8
0
100
AcDbBlockEnd
  0
BLOCK
  5
36
330
35
100
AcDbEntity
  8
0
100
AcDbBlockBegin
  2
*D3
 70
     1
 10
0.0
 20
0.0
 30
0.0
  3
*D3
  1

  0
LINE
  5
37
330
35
100
AcDbEntity
  8
SUNPO
 62
     0
370
    -2
100
AcDbLine
 10
227.7635311257692
 20
348.864658925976
 30
0.0
 11
227.7635311257692
 21
356.8581264214168
 31
0.0
  0
LINE
  5
38
330
35
100
AcDbEntity
  8
SUNPO
 62
     0
370
    -2
100
AcDbLine
 10
232.2135311257692
 20
348.864658925976
 30
0.0
 11
232.2135311257692
 21
356.8581264214168
 31
0.0
  0
LINE
  5
39
330
35
100
AcDbEntity
  8
SUNPO
 62
     0
370
    -2
100
AcDbLine
 10
225.7635311257692
 20
354.8581264214168
 30
0.0
 11
223.7635311257692
 21
354.8581264214168
 31
0.0
  0
LINE
  5
3A
330
35
100
AcDbEntity
  8
SUNPO
 62
     0
370
    -2
100
AcDbLine
 10
234.2135311257692
 20
354.8581264214168
 30
0.0
 11
241.3801977924358
 21
354.8581264214168
 31
0.0
  0
LINE
  5
3B
330
35
100
AcDbEntity
  8
SUNPO
 62
     0
370
    -2
100
AcDbLine
 10
227.7635311257692
 20
354.8581264214168
 30
0.0
 11
232.2135311257692
 21
354.8581264214168
 31
0.0
  0
INSERT
  5
3C
330
35
100
AcDbEntity
  8
SUNPO
 62
     0
370
    -2
100
AcDbBlockReference
  2
_OPEN30
 10
227.7635311257692
 20
354.8581264214168
 30
0.0
 41
2.0
 42
2.0
 43
2.0
  0
INSERT
  5
3D
330
35
100
AcDbEntity
  8
SUNPO
 62
     0
370
    -2
100
AcDbBlockReference
  2
_OPEN30
 10
232.2135311257692
 20
354.8581264214168
 30
0.0
 41
2.0
 42
2.0
 43
2.0
 50
180.0
  0
MTEXT
  5
3E
330
35
100
AcDbEntity
  8
SUNPO
 62
     0
100
AcDbMText
 10
238.7968644591025
 20
356.6081264214168
 30
0.0
 40
2.5
 41
0.0
 71
     5
 72
     1
  1
\A1;89
 73
     1
 44
1.0
1001
ACAD
1000
MTEXTBEGIN
1070
    73
1070
     1
1070
    44
1040
1.0
1070
    74
1070
     0
1000
MTEXTEND
  0
POINT
  5
3F
330
35
100
AcDbEntity
  8
DEFPOINTS
 62
     0
100
AcDbPoint
 10
227.7635311257692
 20
346.864658925976
 30
0.0
  0
POINT
  5
41
330
35
100
AcDbEntity
  8
DEFPOINTS
 62
     0
100
AcDbPoint
 10
232.2135311257692
 20
346.864658925976
 30
0.0
  0
POINT
  5
42
330
35
100
AcDbEntity
  8
DEFPOINTS
 62
     0
100
AcDbPoint
 10
232.2135311257692
 20
354.8581264214168
 30
0.0
  0
ENDBLK
  5
43
330
35
100
AcDbEntity
  8
0
100
AcDbBlockEnd
  0
BLOCK
  5
1FD
330
1F3
100
AcDbEntity
  8
0
100
AcDbBlockBegin
  2
*D4
 70
     1
 10
0.0
 20
0.0
 30
0.0
  3
*D4
  1

  0
LINE
  5
1F4
330
1F3
100
AcDbEntity
  8
SUNPO
 62
     0
370
    -2
100
AcDbLine
 10
11.93498818216611
 20
-4.539211497403017
 30
0.0
 11
19.9349881821661
 21
-4.539211497403019
 31
0.0
  0
LINE
  5
1F5
330
1F3
100
AcDbEntity
  8
SUNPO
 62
     0
370
    -2
100
AcDbLine
 10
11.93498818216608
 20
31.6530986382578
 30
0.0
 11
19.93498818216611
 21
31.6530986382578
 31
0.0
  0
LINE
  5
1F6
330
1F3
100
AcDbEntity
  8
SUNPO
 62
     0
370
    -2
100
AcDbLine
 10
17.9349881821661
 20
-2.539211497403019
 30
0.0
 11
17.93498818216611
 21
29.6530986382578
 31
0.0
  0
INSERT
  5
1F7
330
1F3
100
AcDbEntity
  8
SUNPO
 62
     0
370
    -2
100
AcDbBlockReference
  2
_OPEN30
 10
17.9349881821661
 20
-4.539211497403019
 30
0.0
 41
2.0
 42
2.0
 43
2.0
 50
270.0
  0
INSERT
  5
1F8
330
1F3
100
AcDbEntity
  8
SUNPO
 62
     0
370
    -2
100
AcDbBlockReference
  2
_OPEN30
 10
17.93498818216611
 20
31.6530986382578
 30
0.0
 41
2.0
 42
2.0
 43
2.0
 50
90.0
  0
MTEXT
  5
1F9
330
1F3
100
AcDbEntity
  8
SUNPO
 62
     0
100
AcDbMText
 10
16.1849881821661
 20
13.55694357042739
 30
0.0
 40
2.5
 41
0.0
 71
     5
 72
     1
  1
\A1;724
 11
0.0000000000000001
 21
1.0
 31
0.0
 73
     1
 44
1.0
1001
ACAD
1000
MTEXTBEGIN
1070
    73
1070
     1
1070
    44
1040
1.0
1070
    74
1070
     0
1000
MTEXTEND
  0
POINT
  5
1FA
330
1F3
100
AcDbEntity
  8
DEFPOINTS
 62
     0
100
AcDbPoint
 10
9.934988182166108
 20
-4.539211497403016
 30
0.0
  0
POINT
  5
1FB
330
1F3
100
AcDbEntity
  8
DEFPOINTS
 62
     0
100
AcDbPoint
 10
9.93498818216608
 20
31.6530986382578
 30
0.0
  0
POINT
  5
1FC
330
1F3
100
AcDbEntity
  8
DEFPOINTS
 62
     0
100
AcDbPoint
 10
17.93498818216611
 20
31.6530986382578
 30
0.0
  0
ENDBLK
  5
1FE
330
1F3
100
AcDbEntity
  8
0
100
AcDbBlockEnd
  0
BLOCK
  5
209
330
1FF
100
AcDbEntity
  8
0
100
AcDbBlockBegin
  2
*D5
 70
     1
 10
0.0
 20
0.0
 30
0.0
  3
*D5
  1

  0
LINE
  5
200
330
1FF
100
AcDbEntity
  8
SUNPO
 62
     0
370
    -2
100
AcDbLine
 10
-50.12524660390614
 20
33.65281219390647
 30
0.0
 11
-50.12524660390614
 21
41.65281219390647
 31
0.0
  0
LINE
  5
201
330
1FF
100
AcDbEntity
  8
SUNPO
 62
     0
370
    -2
100
AcDbLine
 10
10.37475337189377
 20
33.65281219390647
 30
0.0
 11
10.37475337189377
 21
41.65281219390647
 31
0.0
  0
LINE
  5
202
330
1FF
100
AcDbEntity
  8
SUNPO
 62
     0
370
    -2
100
AcDbLine
 10
-48.12524660390613
 20
39.65281219390647
 30
0.0
 11
8.374753371893774
 21
39.65281219390647
 31
0.0
  0
INSERT
  5
203
330
1FF
100
AcDbEntity
  8
SUNPO
 62
     0
370
    -2
100
AcDbBlockReference
  2
_OPEN30
 10
-50.12524660390614
 20
39.65281219390647
 30
0.0
 41
2.0
 42
2.0
 43
2.0
 50
180.0
  0
INSERT
  5
204
330
1FF
100
AcDbEntity
  8
SUNPO
 62
     0
370
    -2
100
AcDbBlockReference
  2
_OPEN30
 10
10.37475337189377
 20
39.65281219390647
 30
0.0
 41
2.0
 42
2.0
 43
2.0
  0
MTEXT
  5
205
330
1FF
100
AcDbEntity
  8
SUNPO
 62
     0
100
AcDbMText
 10
-19.87524661600618
 20
41.40281219390646
 30
0.0
 40
2.5
 41
0.0
 71
     5
 72
     1
  1
\A1;1210
 73
     1
 44
1.0
1001
ACAD
1000
MTEXTBEGIN
1070
    73
1070
     1
1070
    44
1040
1.0
1070
    74
1070
     0
1000
MTEXTEND
  0
POINT
  5
206
330
1FF
100
AcDbEntity
  8
DEFPOINTS
 62
     0
100
AcDbPoint
 10
-50.12524660390614
 20
31.65281219390647
 30
0.0
  0
POINT
  5
207
330
1FF
100
AcDbEntity
  8
DEFPOINTS
 62
     0
100
AcDbPoint
 10
10.37475337189377
 20
31.65281219390647
 30
0.0
  0
POINT
  5
208
330
1FF
100
AcDbEntity
  8
DEFPOINTS
 62
     0
100
AcDbPoint
 10
10.37475337189377
 20
39.65281219390647
 30
0.0
  0
ENDBLK
  5
20A
330
1FF
100
AcDbEntity
  8
0
100
AcDbBlockEnd
  0
BLOCK
  5
217
330
20B
100
AcDbEntity
  8
0
100
AcDbBlockBegin
  2
*D6
 70
     1
 10
0.0
 20
0.0
 30
0.0
  3
*D6
  1

  0
LINE
  5
20C
330
20B
100
AcDbEntity
  8
SUNPO
 62
     0
370
    -2
100
AcDbLine
 10
30.06321063463076
 20
33.65934469846559
 30
0.0
 11
30.06321063463076
 21
41.65281219390647
 31
0.0
  0
LINE
  5
20D
330
20B
100
AcDbEntity
  8
SUNPO
 62
     0
370
    -2
100
AcDbLine
 10
34.51321063463075
 20
33.65934469846559
 30
0.0
 11
34.51321063463075
 21
41.65281219390647
 31
0.0
  0
LINE
  5
20E
330
20B
100
AcDbEntity
  8
SUNPO
 62
     0
370
    -2
100
AcDbLine
 10
28.06321063463077
 20
39.65281219390647
 30
0.0
 11
26.06321063463076
 21
39.65281219390647
 31
0.0
  0
LINE
  5
20F
330
20B
100
AcDbEntity
  8
SUNPO
 62
     0
370
    -2
100
AcDbLine
 10
36.51321063463075
 20
39.65281219390647
 30
0.0
 11
43.67987730129741
 21
39.65281219390647
 31
0.0
  0
LINE
  5
210
330
20B
100
AcDbEntity
  8
SUNPO
 62
     0
370
    -2
100
AcDbLine
 10
30.06321063463076
 20
39.65281219390647
 30
0.0
 11
34.51321063463075
 21
39.65281219390647
 31
0.0
  0
INSERT
  5
211
330
20B
100
AcDbEntity
  8
SUNPO
 62
     0
370
    -2
100
AcDbBlockReference
  2
_OPEN30
 10
30.06321063463076
 20
39.65281219390647
 30
0.0
 41
2.0
 42
2.0
 43
2.0
  0
INSERT
  5
212
330
20B
100
AcDbEntity
  8
SUNPO
 62
     0
370
    -2
100
AcDbBlockReference
  2
_OPEN30
 10
34.51321063463075
 20
39.65281219390647
 30
0.0
 41
2.0
 42
2.0
 43
2.0
 50
180.0
  0
MTEXT
  5
213
330
20B
100
AcDbEntity
  8
SUNPO
 62
     0
100
AcDbMText
 10
41.09654396796408
 20
41.40281219390646
 30
0.0
 40
2.5
 41
0.0
 71
     5
 72
     1
  1
\A1;89
 73
     1
 44
1.0
1001
ACAD
1000
MTEXTBEGIN
1070
    73
1070
     1
1070
    44
1040
1.0
1070
    74
1070
     0
1000
MTEXTEND
  0
POINT
  5
214
330
20B
100
AcDbEntity
  8
DEFPOINTS
 62
     0
100
AcDbPoint
 10
30.06321063463076
 20
31.65934469846559
 30
0.0
  0
POINT
  5
215
330
20B
100
AcDbEntity
  8
DEFPOINTS
 62
     0
100
AcDbPoint
 10
34.51321063463075
 20
31.65934469846559
 30
0.0
  0
POINT
  5
216
330
20B
100
AcDbEntity
  8
DEFPOINTS
 62
     0
100
AcDbPoint
 10
34.51321063463075
 20
39.65281219390647
 30
0.0
  0
ENDBLK
  5
218
330
20B
100
AcDbEntity
  8
0
100
AcDbBlockEnd
  0
ENDSEC
  0
SECTION
  2
ENTITIES
  0
TEXT
  5
2F
330
2
100
AcDbEntity
  8
MOJI1
100
AcDbText
 10
-39.20032054709756
 20
51.29552089742446
 30
0.0
 40
4.0
  1
ハイビジョンプラズマディスプレイ
100
AcDbText
  0
TEXT
  5
31
330
2
100
AcDbEntity
  8
TOUROKU
100
AcDbText
 10
38.26629615249665
 20
45.29552089742401
 30
0.0
 40
2.0
  1
ＴＨ５０ＰＨ２０Ｊ
 72
     2
 11
58.79962948582999
 21
45.29552089742401
 31
0.0
100
AcDbText
  0
DIMENSION
  5
33
330
2
100
AcDbEntity
  8
SUNPO
100
AcDbDimension
  2
*D6
 10
34.51321063463075
 20
39.65281219390647
 30
0.0
 11
41.09654396796408
 21
41.40281219390646
 31
0.0
 70
    33
  1
89
 71
     5
 42
4.449999999999988
  3
STANDARD
100
AcDbAlignedDimension
 13
30.06321063463076
 23
31.65934469846559
 33
0.0
 14
34.51321063463075
 24
31.65934469846559
 34
0.0
1001
ACAD
1000
DSTYLE
1002
{
1070
    40
1040
1.0
1070
   140
1040
2.5
1070
   147
1040
0.5
1070
   172
1070
     1
1070
   279
1070
     0
1070
   288
1070
     0
1002
}
  0
ELLIPSE
  5
44
330
2
100
AcDbEntity
  8
GAIKEI
  6
Continuous
100
AcDbEllipse
 10
10.1744789219739
 20
-4.338937047483227
 30
0.0
 11
-0.1418092486302895
 21
0.1418092486302897
 31
0.0
210
0.0
220
0.0
230
1.0
 40
0.9972649999999998
 41
2.35756401806288
 42
3.925621289116826
  0
ELLIPSE
  5
45
330
2
100
AcDbEntity
  8
GAIKEI
  6
Continuous
100
AcDbEllipse
 10
-49.92497215398628
 20
-4.338937047483227
 30
0.0
 11
-0.1418092486302894
 21
-0.1418092486302897
 31
0.0
210
0.0
220
0.0
230
1.0
 40
0.9972649999999999
 41
5.499156671652512
 42
7.067213942706579
  0
ELLIPSE
  5
46
330
2
100
AcDbEntity
  8
GAIKEI
  6
Continuous
100
AcDbEllipse
 10
10.1744789219739
 20
31.46051403819695
 30
0.0
 11
-0.1418092486302781
 21
-0.1418092486303011
 31
0.0
210
0.0
220
0.0
230
1.0
 40
0.9972649999999998
 41
2.357564018062679
 42
3.925621289116665
  0
ELLIPSE
  5
47
330
2
100
AcDbEntity
  8
GAIKEI
  6
Continuous
100
AcDbEllipse
 10
-49.92497215398628
 20
31.46051403819695
 30
0.0
 11
-0.1418092486302778
 21
0.1418092486303013
 31
0.0
210
0.0
220
0.0
230
1.0
 40
0.9972649999999999
 41
5.499156671652713
 42
7.067213942706739
  0
ELLIPSE
  5
48
330
2
100
AcDbEntity
  8
GAIKEI
  6
Continuous
 62
     1
100
AcDbEllipse
 10
-47.44699560497747
 20
-1.898460498459371
 30
0.0
 11
-0.0717687987905345
 21
-0.071768798790594
 31
0.0
210
0.0
220
0.0
230
1.0
 40
0.985257
 41
5.505213485254125
 42
7.061157129104256
  0
ELLIPSE
  5
49
330
2
100
AcDbEntity
  8
GAIKEI
  6
Continuous
 62
     1
100
AcDbEllipse
 10
7.696502372965085
 20
-1.898460498459371
 30
0.0
 11
-0.0717687987905345
 21
0.071768798790594
 31
0.0
210
0.0
220
0.0
230
1.0
 40
0.985257
 41
2.363620831665123
 42
3.919564475515255
  0
ELLIPSE
  5
4A
330
2
100
AcDbEntity
  8
GAIKEI
  6
Continuous
 62
     1
100
AcDbEllipse
 10
7.696502372965085
 20
29.02003748917321
 30
0.0
 11
-0.0717687987905403
 21
-0.0717687987905877
 31
0.0
210
0.0
220
0.0
230
1.0
 40
0.9852569999999998
 41
2.363620831663935
 42
3.919564475514135
  0
ELLIPSE
  5
4B
330
2
100
AcDbEntity
  8
GAIKEI
  6
Continuous
 62
     1
100
AcDbEllipse
 10
-47.44699560497747
 20
29.02003748917321
 30
0.0
 11
-0.0717687987905402
 21
0.0717687987905878
 31
0.0
210
0.0
220
0.0
230
1.0
 40
0.9852570000000001
 41
5.505213485255321
 42
7.061157129105444
  0
ELLIPSE
  5
4C
330
2
100
AcDbEntity
  8
GAIKEI
  6
Continuous
 62
     1
100
AcDbEllipse
 10
-47.4594063049725
 20
-1.906828798456103
 30
0.0
 11
-0.0866320186582643
 21
-0.127229069338253
 31
0.0
210
0.0
220
0.0
230
1.0
 40
0.973581
 41
6.10967819105908
 42
6.868592923299293
  0
ELLIPSE
  5
4D
330
2
100
AcDbEntity
  8
GAIKEI
  6
Continuous
 62
     1
100
AcDbEllipse
 10
7.708913072960115
 20
-1.906828798456103
 30
0.0
 11
-0.0866320186582643
 21
0.1272290693382531
 31
0.0
210
0.0
220
0.0
230
1.0
 40
0.9735809999999998
 41
2.556185037470086
 42
3.315099769710523
  0
ELLIPSE
  5
4E
330
2
100
AcDbEntity
  8
GAIKEI
  6
Continuous
 62
     1
100
AcDbEllipse
 10
7.70487067296176
 20
-1.910871198454515
 30
0.0
 11
-0.1272290693381955
 21
0.0866320186583462
 31
0.0
210
0.0
220
0.0
230
1.0
 40
0.973581
 41
2.968085537466982
 42
3.727000269710492
  0
ELLIPSE
  5
4F
330
2
100
AcDbEntity
  8
GAIKEI
  6
Continuous
 62
     1
100
AcDbEllipse
 10
7.70487067296176
 20
29.03244818916824
 30
0.0
 11
-0.1272290693382016
 21
-0.0866320186583367
 31
0.0
210
0.0
220
0.0
230
0.9999999999999998
 40
0.9735809999999998
 41
2.556185037469163
 42
3.315099769710879
  0
ELLIPSE
  5
50
330
2
100
AcDbEntity
  8
GAIKEI
  6
Continuous
 62
     1
100
AcDbEllipse
 10
-47.45536390497415
 20
29.03244818916824
 30
0.0
 11
-0.1272290693382015
 21
0.0866320186583368
 31
0.0
210
0.0
220
0.0
230
1.0
 40
0.9735809999999998
 41
6.109678191058712
 42
6.868592923300215
  0
ELLIPSE
  5
51
330
2
100
AcDbEntity
  8
GAIKEI
  6
Continuous
 62
     1
100
AcDbEllipse
 10
-47.45536390497415
 20
-1.910871198454515
 30
0.0
 11
-0.1272290693381955
 21
-0.0866320186583462
 31
0.0
210
0.0
220
0.0
230
1.0
 40
0.9735809999999997
 41
5.697777691058886
 42
6.456692423302397
  0
ELLIPSE
  5
52
330
2
100
AcDbEntity
  8
GAIKEI
  6
Continuous
 62
     1
100
AcDbEllipse
 10
7.708913072960115
 20
29.02840578916983
 30
0.0
 11
-0.0866320186582728
 21
-0.1272290693382461
 31
0.0
210
0.0
220
0.0
230
1.0
 40
0.9735809999999998
 41
2.9680855374661
 42
3.7270002697099
  0
ELLIPSE
  5
53
330
2
100
AcDbEntity
  8
GAIKEI
  6
Continuous
 62
     1
100
AcDbEllipse
 10
-47.45940630497256
 20
29.02840578916983
 30
0.0
 11
-0.0866320186582728
 21
0.1272290693382462
 31
0.0
210
0.0
220
0.0
230
1.0
 40
0.9735809999999998
 41
5.69777769105948
 42
6.456692423303279
  0
ELLIPSE
  5
54
330
2
100
AcDbEntity
  8
GAIKEI
  6
Continuous
 62
     1
100
AcDbEllipse
 10
-48.08541160472208
 20
-2.534855298204888
 30
0.0
 11
-0.0740370952919559
 21
0.0126634681883972
 31
0.0
210
0.0
220
0.0
230
1.0
 40
0.9955149999999999
 41
0.9759762355291181
 42
1.740947781372067
  0
ELLIPSE
  5
55
330
2
100
AcDbEntity
  8
GAIKEI
  6
Continuous
 62
     1
100
AcDbEllipse
 10
8.334918372709751
 20
-2.534855298204888
 30
0.0
 11
-0.074037095291956
 21
-0.0126634681883971
 31
0.0
210
0.0
220
0.0
230
1.0
 40
0.9955149999999999
 41
1.400644872217725
 42
2.165616418060674
  0
ELLIPSE
  5
56
330
2
100
AcDbEntity
  8
GAIKEI
  6
Continuous
 62
     1
100
AcDbEllipse
 10
8.332897172710545
 20
29.65845348891787
 30
0.0
 11
-0.0126634681884039
 21
0.0740370952919547
 31
0.0
210
0.0
220
0.0
230
1.0
 40
0.9955149999999999
 41
4.542237525807408
 42
5.30720907164956
  0
ELLIPSE
  5
57
330
2
100
AcDbEntity
  8
GAIKEI
  6
Continuous
 62
     1
100
AcDbEllipse
 10
-48.08339040472287
 20
29.65845348891776
 30
0.0
 11
-0.012663468188404
 21
-0.0740370952919547
 31
0.0
210
0.0
220
0.0
230
1.0
 40
0.9955149999999997
 41
4.117568889119865
 42
4.882540434962009
  0
ELLIPSE
  5
58
330
2
100
AcDbEntity
  8
GAIKEI
  6
Continuous
 62
     1
100
AcDbEllipse
 10
8.332897172710545
 20
-2.536876498204037
 30
0.0
 11
-0.0126634681884195
 21
-0.0740370952919523
 31
0.0
210
0.0
220
0.0
230
1.0
 40
0.9955149999999999
 41
0.975976235527481
 42
1.740947781372396
  0
ELLIPSE
  5
59
330
2
100
AcDbEntity
  8
GAIKEI
  6
Continuous
 62
     1
100
AcDbEllipse
 10
-48.08339040472287
 20
-2.536876498204037
 30
0.0
 11
-0.0126634681884195
 21
0.0740370952919524
 31
0.0
210
0.0
220
0.0
230
1.0
 40
0.9955149999999999
 41
1.400644872217396
 42
2.165616418062327
  0
ELLIPSE
  5
5A
330
2
100
AcDbEntity
  8
GAIKEI
  6
Continuous
 62
     1
100
AcDbEllipse
 10
-48.08541160472208
 20
29.65643228891861
 30
0.0
 11
-0.0740370952919559
 21
-0.0126634681883976
 31
0.0
210
0.0
220
0.0
230
1.0
 40
0.9955150000000001
 41
4.54223752580752
 42
5.307209071653165
  0
ELLIPSE
  5
5B
330
2
100
AcDbEntity
  8
GAIKEI
  6
Continuous
 62
     1
100
AcDbEllipse
 10
8.334918372709694
 20
29.65643228891861
 30
0.0
 11
-0.0740370952919559
 21
0.0126634681883976
 31
0.0
210
0.0
220
0.0
230
1.0
 40
0.9955149999999999
 41
4.117568889116213
 42
4.882540434961859
  0
ELLIPSE
  5
5C
330
2
100
AcDbEntity
  8
GAIKEI
  6
Continuous
 62
     1
100
AcDbEllipse
 10
-49.20376615427471
 20
-3.617731047771712
 30
0.0
 11
-0.5021965241687356
 21
-0.502196524168813
 31
0.0
210
0.0
220
0.0
230
1.0
 40
0.49281
 41
5.872221302136444
 42
6.694149312222707
  0
ELLIPSE
  5
5D
330
2
100
AcDbEntity
  8
GAIKEI
  6
Continuous
 62
     1
100
AcDbEllipse
 10
9.453272922262385
 20
-3.617731047771712
 30
0.0
 11
-0.5021965241687355
 21
0.502196524168813
 31
0.0
210
0.0
220
0.0
230
1.0
 40
0.49281
 41
2.730628648546692
 42
3.552556658632933
  0
ELLIPSE
  5
5E
330
2
100
AcDbEntity
  8
GAIKEI
  6
Continuous
 62
     1
100
AcDbEllipse
 10
-49.20376615427477
 20
30.73930803848555
 30
0.0
 11
-0.5021965241687404
 21
0.5021965241687347
 31
0.0
210
0.0
220
0.0
230
1.0
 40
0.49281
 41
5.87222130213647
 42
6.694149312222702
  0
ELLIPSE
  5
5F
330
2
100
AcDbEntity
  8
GAIKEI
  6
Continuous
 62
     1
100
AcDbEllipse
 10
9.453272922262385
 20
30.73930803848555
 30
0.0
 11
-0.5021965241687404
 21
-0.5021965241687347
 31
0.0
210
0.0
220
0.0
230
1.0
 40
0.49281
 41
2.730628648546677
 42
3.552556658632908
  0
ELLIPSE
  5
60
330
2
100
AcDbEntity
  8
GAIKEI
  6
Continuous
 62
     1
100
AcDbEllipse
 10
-47.51015110495223
 20
-4.014115997613203
 30
0.0
 11
-0.0178124651901381
 21
-0.0178124651901247
 31
0.0
210
0.0
220
0.0
230
1.0
 40
0.9924329999999999
 41
5.501585242054793
 42
7.064785372306292
  0
ELLIPSE
  5
61
330
2
100
AcDbEntity
  8
GAIKEI
  6
Continuous
 62
     1
100
AcDbEllipse
 10
-47.51015110495223
 20
-3.71430699773316
 30
0.0
 11
-0.0178124651901339
 21
0.0178124651901291
 31
0.0
210
0.0
220
0.0
230
1.0
 40
0.9924329999999999
 41
5.501585242053079
 42
7.064785372305734
  0
ELLIPSE
  5
62
330
2
100
AcDbEntity
  8
GAIKEI
  6
Continuous
 62
     1
100
AcDbEllipse
 10
-47.21034210507212
 20
-3.714306997733046
 30
0.0
 11
-0.0178124651901247
 21
-0.017812465190138
 31
0.0
210
0.0
220
0.0
230
1.0
 40
0.9924329999999999
 41
2.359992588465041
 42
3.923192718713587
  0
ELLIPSE
  5
63
330
2
100
AcDbEntity
  8
GAIKEI
  6
Continuous
 62
     1
100
AcDbEllipse
 10
-47.21034210507212
 20
-4.014115997613203
 30
0.0
 11
-0.0178124651901289
 21
0.0178124651901336
 31
0.0
210
0.0
220
0.0
230
1.0
 40
0.9924329999999997
 41
2.359992588465599
 42
3.923192718713108
  0
ELLIPSE
  5
64
330
2
100
AcDbEntity
  8
GAIKEI
  6
Continuous
 62
     1
100
AcDbEllipse
 10
8.340909472707323
 20
29.66444458891533
 30
0.0
 11
-0.1595354047091992
 21
-0.1595354047089534
 31
0.0
210
0.0
220
0.0
230
1.0
 40
0.9972649999999998
 41
2.357564018063572
 42
3.925621289117657
  0
ELLIPSE
  5
65
330
2
100
AcDbEntity
  8
GAIKEI
  6
Continuous
 62
     1
100
AcDbEllipse
 10
8.340909472707323
 20
-2.54286759820161
 30
0.0
 11
-0.159535404709188
 21
0.1595354047089651
 31
0.0
210
0.0
220
0.0
230
1.0
 40
0.9972649999999998
 41
2.357564018062
 42
3.925621289115982
  0
ELLIPSE
  5
66
330
2
100
AcDbEntity
  8
GAIKEI
  6
Continuous
 62
     1
100
AcDbEllipse
 10
-48.09140270471971
 20
-2.542867598201723
 30
0.0
 11
-0.1595354047091879
 21
-0.1595354047089651
 31
0.0
210
0.0
220
0.0
230
1.0
 40
0.9972649999999999
 41
5.499156671653361
 42
7.067213942707414
  0
ELLIPSE
  5
67
330
2
100
AcDbEntity
  8
GAIKEI
  6
Continuous
 62
     1
100
AcDbEllipse
 10
-48.09140270471971
 20
29.66444458891533
 30
0.0
 11
-0.159535404709199
 21
0.1595354047089534
 31
0.0
210
0.0
220
0.0
230
1.0
 40
0.9972649999999998
 41
5.499156671651721
 42
7.067213942705842
  0
LINE
  5
68
330
2
100
AcDbEntity
  8
GAIKEI
  6
Continuous
100
AcDbLine
 10
-49.92552070398608
 20
-4.539211497403016
 30
0.0
 11
10.17502747197375
 21
-4.539211497403016
 31
0.0
  0
LINE
  5
69
330
2
100
AcDbEntity
  8
GAIKEI
  6
Continuous
100
AcDbLine
 10
-50.12524660390619
 20
31.4610625881968
 30
0.0
 11
-50.12524660390619
 21
-4.339485597482962
 31
0.0
  0
LINE
  5
6A
330
2
100
AcDbEntity
  8
GAIKEI
  6
Continuous
100
AcDbLine
 10
10.3747533718938
 20
31.4610625881968
 30
0.0
 11
10.3747533718938
 21
-4.339485597482962
 31
0.0
  0
LINE
  5
6B
330
2
100
AcDbEntity
  8
GAIKEI
  6
Continuous
100
AcDbLine
 10
-49.92552070398608
 20
31.66078848811697
 30
0.0
 11
10.17502747197375
 21
31.66078848811697
 31
0.0
  0
LINE
  5
6C
330
2
100
AcDbEntity
  8
GAIKEI
  6
Continuous
 62
     1
100
AcDbLine
 10
10.23935322194799
 20
-4.204085447537067
 30
0.0
 11
10.3747533718938
 21
-4.339485597482962
 31
0.0
  0
LINE
  5
6D
330
2
100
AcDbEntity
  8
GAIKEI
  6
Continuous
 62
     1
100
AcDbLine
 10
10.17502747197375
 20
-4.539211497403016
 30
0.0
 11
10.03962732202785
 21
-4.403811347457235
 31
0.0
  0
LINE
  5
6E
330
2
100
AcDbEntity
  8
GAIKEI
  6
Continuous
 62
     1
100
AcDbLine
 10
-49.92552070398608
 20
-4.539211497403016
 30
0.0
 11
-49.79012055404024
 21
-4.403811347457235
 31
0.0
  0
LINE
  5
6F
330
2
100
AcDbEntity
  8
GAIKEI
  6
Continuous
 62
     1
100
AcDbLine
 10
-49.98984645396035
 20
-4.204085447537181
 30
0.0
 11
-50.12524660390619
 21
-4.339485597482962
 31
0.0
  0
LINE
  5
70
330
2
100
AcDbEntity
  8
GAIKEI
  6
Continuous
 62
     1
100
AcDbLine
 10
10.03962732202785
 20
31.52538833817107
 30
0.0
 11
10.17502747197375
 21
31.66078848811697
 31
0.0
  0
LINE
  5
71
330
2
100
AcDbEntity
  8
GAIKEI
  6
Continuous
 62
     1
100
AcDbLine
 10
10.3747533718938
 20
31.4610625881968
 30
0.0
 11
10.23935322194799
 21
31.32566243825102
 31
0.0
  0
LINE
  5
72
330
2
100
AcDbEntity
  8
GAIKEI
  6
Continuous
 62
     1
100
AcDbLine
 10
-50.12524660390619
 20
31.4610625881968
 30
0.0
 11
-49.98984645396035
 21
31.32566243825113
 31
0.0
  0
LINE
  5
73
330
2
100
AcDbEntity
  8
GAIKEI
  6
Continuous
 62
     1
100
AcDbLine
 10
-49.79012055404021
 20
31.52538833817107
 30
0.0
 11
-49.92552070398608
 21
31.66078848811697
 31
0.0
  0
LINE
  5
74
330
2
100
AcDbEntity
  8
GAIKEI
  6
Continuous
 62
     1
100
AcDbLine
 10
-47.44849200497685
 20
-1.999211498419072
 30
0.0
 11
7.697998772964524
 21
-1.999211498419072
 31
0.0
  0
LINE
  5
75
330
2
100
AcDbEntity
  8
GAIKEI
  6
Continuous
 62
     1
100
AcDbLine
 10
-47.54774660493717
 20
29.0215338891727
 30
0.0
 11
-47.54774660493717
 21
-1.899956898458754
 31
0.0
  0
LINE
  5
76
330
2
100
AcDbEntity
  8
GAIKEI
  6
Continuous
 62
     1
100
AcDbLine
 10
7.797253372924842
 20
29.0215338891727
 30
0.0
 11
7.797253372924842
 21
-1.899956898458754
 31
0.0
  0
LINE
  5
77
330
2
100
AcDbEntity
  8
GAIKEI
  6
Continuous
 62
     1
100
AcDbLine
 10
-47.44849200497685
 20
29.12078848913291
 30
0.0
 11
7.697998772964524
 21
29.12078848913291
 31
0.0
  0
LINE
  5
78
330
2
100
AcDbEntity
  8
GAIKEI
  6
Continuous
 62
     1
100
AcDbLine
 10
-47.46317110497102
 20
-2.059475548394971
 30
0.0
 11
7.712677872958693
 21
-2.059475548394971
 31
0.0
  0
LINE
  5
79
330
2
100
AcDbEntity
  8
GAIKEI
  6
Continuous
 62
     1
100
AcDbLine
 10
7.857517422900741
 20
29.03621298916675
 30
0.0
 11
7.857517422900741
 21
-1.914635998452922
 31
0.0
  0
LINE
  5
7A
330
2
100
AcDbEntity
  8
GAIKEI
  6
Continuous
 62
     1
100
AcDbLine
 10
7.815628622917472
 20
-2.017586748411758
 30
0.0
 11
8.38684722268897
 21
-2.5888053481832
 31
0.0
  0
LINE
  5
7B
330
2
100
AcDbEntity
  8
GAIKEI
  6
Continuous
 62
     1
100
AcDbLine
 10
-47.60801065491307
 20
29.03621298916675
 30
0.0
 11
-47.60801065491307
 21
-1.914635998452922
 31
0.0
  0
LINE
  5
7C
330
2
100
AcDbEntity
  8
GAIKEI
  6
Continuous
 62
     1
100
AcDbLine
 10
-47.5661218549298
 20
-2.017586748411758
 30
0.0
 11
-48.1373404547013
 21
-2.5888053481832
 31
0.0
  0
LINE
  5
7D
330
2
100
AcDbEntity
  8
GAIKEI
  6
Continuous
 62
     1
100
AcDbLine
 10
7.712677872958693
 20
29.1810525391088
 30
0.0
 11
-47.46317110497102
 21
29.1810525391088
 31
0.0
  0
LINE
  5
7E
330
2
100
AcDbEntity
  8
GAIKEI
  6
Continuous
 62
     1
100
AcDbLine
 10
8.38684722268897
 20
29.71038233889715
 30
0.0
 11
7.815628622917472
 21
29.13916373912559
 31
0.0
  0
LINE
  5
7F
330
2
100
AcDbEntity
  8
GAIKEI
  6
Continuous
 62
     1
100
AcDbLine
 10
-48.1373404547013
 20
29.71038233889715
 30
0.0
 11
-47.5661218549298
 21
29.13916373912559
 31
0.0
  0
LINE
  5
80
330
2
100
AcDbEntity
  8
GAIKEI
  6
Continuous
 62
     1
100
AcDbLine
 10
8.334806172709818
 20
-2.609640298174895
 30
0.0
 11
-48.08529940472215
 21
-2.609640298174895
 31
0.0
  0
LINE
  5
81
330
2
100
AcDbEntity
  8
GAIKEI
  6
Continuous
 62
     1
100
AcDbLine
 10
8.407682172680665
 20
-2.536764298204047
 30
0.0
 11
8.407682172680665
 21
29.65834128891788
 31
0.0
  0
LINE
  5
82
330
2
100
AcDbEntity
  8
GAIKEI
  6
Continuous
 62
     1
100
AcDbLine
 10
-48.158175404693
 20
-2.536764298204047
 30
0.0
 11
-48.158175404693
 21
29.65834128891788
 31
0.0
  0
LINE
  5
83
330
2
100
AcDbEntity
  8
GAIKEI
  6
Continuous
 62
     1
100
AcDbLine
 10
-48.08529940472215
 20
29.73121728888873
 30
0.0
 11
8.334806172709818
 21
29.73121728888873
 31
0.0
  0
LINE
  5
84
330
2
100
AcDbEntity
  8
GAIKEI
  6
Continuous
 62
     1
100
AcDbLine
 10
10.04161412202711
 20
-4.403811347457235
 30
0.0
 11
-49.79210735403944
 21
-4.403811347457235
 31
0.0
  0
LINE
  5
85
330
2
100
AcDbEntity
  8
GAIKEI
  6
Continuous
 62
     1
100
AcDbLine
 10
10.23935322194802
 20
-4.206072247536326
 30
0.0
 11
10.23935322194802
 21
31.32764923825016
 31
0.0
  0
LINE
  5
86
330
2
100
AcDbEntity
  8
GAIKEI
  6
Continuous
 62
     1
100
AcDbLine
 10
-49.98984645396035
 20
-4.206072247536326
 30
0.0
 11
-49.98984645396035
 21
31.32764923825016
 31
0.0
  0
LINE
  5
87
330
2
100
AcDbEntity
  8
GAIKEI
  6
Continuous
 62
     1
100
AcDbLine
 10
-49.79210735403944
 20
31.52538833817107
 30
0.0
 11
10.04161412202711
 21
31.52538833817107
 31
0.0
  0
LINE
  5
88
330
2
100
AcDbEntity
  8
GAIKEI
  6
Continuous
 62
     1
100
AcDbLine
 10
10.04161412202711
 20
-4.403811347457235
 30
0.0
 11
9.814785072117786
 21
-4.176982297547965
 31
0.0
  0
LINE
  5
89
330
2
100
AcDbEntity
  8
GAIKEI
  6
Continuous
 62
     1
100
AcDbLine
 10
10.01252417203875
 20
-3.979243197627056
 30
0.0
 11
10.23935322194802
 21
-4.206072247536326
 31
0.0
  0
LINE
  5
8A
330
2
100
AcDbEntity
  8
GAIKEI
  6
Continuous
 62
     1
100
AcDbLine
 10
-49.76301740405109
 20
-3.979243197627056
 30
0.0
 11
-49.98984645396035
 21
-4.206072247536326
 31
0.0
  0
LINE
  5
8B
330
2
100
AcDbEntity
  8
GAIKEI
  6
Continuous
 62
     1
100
AcDbLine
 10
-49.79210735403944
 20
-4.403811347457235
 30
0.0
 11
-49.56527830413017
 21
-4.176982297547965
 31
0.0
  0
LINE
  5
8C
330
2
100
AcDbEntity
  8
GAIKEI
  6
Continuous
 62
     1
100
AcDbLine
 10
10.23935322194802
 20
31.32764923825016
 30
0.0
 11
10.01252417203875
 21
31.10082018834089
 31
0.0
  0
LINE
  5
8D
330
2
100
AcDbEntity
  8
GAIKEI
  6
Continuous
 62
     1
100
AcDbLine
 10
9.814785072117786
 20
31.2985592882618
 30
0.0
 11
10.04161412202711
 21
31.52538833817107
 31
0.0
  0
LINE
  5
8E
330
2
100
AcDbEntity
  8
GAIKEI
  6
Continuous
 62
     1
100
AcDbLine
 10
-49.56527830413017
 20
31.2985592882618
 30
0.0
 11
-49.79210735403944
 21
31.52538833817107
 31
0.0
  0
LINE
  5
8F
330
2
100
AcDbEntity
  8
GAIKEI
  6
Continuous
 62
     1
100
AcDbLine
 10
-49.98984645396035
 20
31.32764923825016
 30
0.0
 11
-49.76301740405109
 21
31.10082018834089
 31
0.0
  0
LINE
  5
90
330
2
100
AcDbEntity
  8
GAIKEI
  6
Continuous
 62
     1
100
AcDbLine
 10
-49.56527830413017
 20
-4.176982297547965
 30
0.0
 11
9.814785072117786
 21
-4.176982297547965
 31
0.0
  0
LINE
  5
91
330
2
100
AcDbEntity
  8
GAIKEI
  6
Continuous
 62
     1
100
AcDbLine
 10
-49.76301740405109
 20
31.10082018834089
 30
0.0
 11
-49.76301740405109
 21
-3.979243197627056
 31
0.0
  0
LINE
  5
92
330
2
100
AcDbEntity
  8
GAIKEI
  6
Continuous
 62
     1
100
AcDbLine
 10
10.01252417203875
 20
31.10082018834089
 30
0.0
 11
10.01252417203875
 21
-3.979243197627056
 31
0.0
  0
LINE
  5
93
330
2
100
AcDbEntity
  8
GAIKEI
  6
Continuous
 62
     1
100
AcDbLine
 10
-49.13149660430372
 20
-3.920461497650535
 30
0.0
 11
-49.01899660434867
 21
-3.920461497650535
 31
0.0
  0
LINE
  5
94
330
2
100
AcDbEntity
  8
GAIKEI
  6
Continuous
 62
     1
100
AcDbLine
 10
-49.13149660430372
 20
-3.920461497650535
 30
0.0
 11
-49.13149660430372
 21
-3.8079614976956
 31
0.0
  0
LINE
  5
95
330
2
100
AcDbEntity
  8
GAIKEI
  6
Continuous
 62
     1
100
AcDbLine
 10
-49.13149660430372
 20
-3.8079614976956
 30
0.0
 11
-49.01899660434867
 21
-3.8079614976956
 31
0.0
  0
LINE
  5
96
330
2
100
AcDbEntity
  8
GAIKEI
  6
Continuous
 62
     1
100
AcDbLine
 10
-49.01899660434867
 20
-3.920461497650535
 30
0.0
 11
-49.01899660434867
 21
-3.8079614976956
 31
0.0
  0
LINE
  5
97
330
2
100
AcDbEntity
  8
GAIKEI
  6
Continuous
 62
     1
100
AcDbLine
 10
-47.51034175495215
 20
-4.039211497603105
 30
0.0
 11
-47.2101514550722
 21
-4.039211497603105
 31
0.0
  0
LINE
  5
98
330
2
100
AcDbEntity
  8
GAIKEI
  6
Continuous
 62
     1
100
AcDbLine
 10
-47.53524660494218
 20
-4.014306647613011
 30
0.0
 11
-47.53524660494218
 21
-3.714116347733124
 31
0.0
  0
LINE
  5
99
330
2
100
AcDbEntity
  8
GAIKEI
  6
Continuous
 62
     1
100
AcDbLine
 10
-47.51034175495215
 20
-3.689211497743031
 30
0.0
 11
-47.2101514550722
 21
-3.689211497743031
 31
0.0
  0
LINE
  5
9A
330
2
100
AcDbEntity
  8
GAIKEI
  6
Continuous
 62
     1
100
AcDbLine
 10
-47.18524660508217
 20
-4.014306647613011
 30
0.0
 11
-47.18524660508217
 21
-3.714116347733124
 31
0.0
  0
LINE
  5
9B
330
2
100
AcDbEntity
  8
GAIKEI
  6
Continuous
 62
     1
100
AcDbLine
 10
8.341526622707135
 20
29.8897533888254
 30
0.0
 11
-48.09201985471947
 21
29.8897533888254
 31
0.0
  0
LINE
  5
9C
330
2
100
AcDbEntity
  8
GAIKEI
  6
Continuous
 62
     1
100
AcDbLine
 10
8.56621827261722
 20
29.66506173891526
 30
0.0
 11
8.56621827261722
 21
-2.543484748201308
 31
0.0
  0
LINE
  5
9D
330
2
100
AcDbEntity
  8
GAIKEI
  6
Continuous
 62
     1
100
AcDbLine
 10
-48.09201985471947
 20
-2.768176398111449
 30
0.0
 11
8.341526622707135
 21
-2.768176398111449
 31
0.0
  0
LINE
  5
9E
330
2
100
AcDbEntity
  8
GAIKEI
  6
Continuous
 62
     1
100
AcDbLine
 10
-48.31671150462961
 20
29.66506173891526
 30
0.0
 11
-48.31671150462961
 21
-2.543484748201308
 31
0.0
  0
LINE
  5
9F
330
2
100
AcDbEntity
  8
GAIKEI
  6
Continuous
 62
     1
100
AcDbLine
 10
9.814785072117786
 20
31.2985592882618
 30
0.0
 11
-49.56527830413017
 21
31.2985592882618
 31
0.0
  0
SPLINE
  5
A0
330
2
100
AcDbEntity
  8
GAIKEI
  6
Continuous
 62
     1
100
AcDbSpline
210
0.0
220
0.0
230
1.0
 70
     8
 71
     3
 72
    19
 73
    15
 74
    13
 42
0.0000000001
 43
0.0000000001
 44
0.000001
 12
-0.0752275697466489
 22
-0.9971663917070275
 32
0.0
 13
-0.9971651028676605
 23
-0.0752446517895329
 33
0.0
 40
0.0
 40
0.0
 40
0.0
 40
0.0
 40
0.0307154355815444
 40
0.0474030577359806
 40
0.0651725077224667
 40
0.0907715901219906
 40
0.118784345734872
 40
0.1493748434380363
 40
0.1799684720829405
 40
0.2079831862935573
 40
0.2335829246325227
 40
0.2513519490565883
 40
0.2680383244278111
 40
0.2987487387220726
 40
0.2987487387220726
 40
0.2987487387220726
 40
0.2987487387220726
 10
10.23935320418286
 20
-4.206072258635231
 30
0.0
 10
10.23858298832536
 20
-4.216281725324733
 30
0.0
 10
10.2358613184646
 20
-4.231992349871745
 30
0.0
 10
10.2287306485988
 20
-4.252543673403238
 30
0.0
 10
10.22041423178473
 20
-4.27078450634724
 30
0.0
 10
10.20827568531973
 20
-4.29131242309802
 30
0.0
 10
10.19143816575581
 20
-4.313829957893858
 30
0.0
 10
10.17133432911492
 20
-4.335793956921747
 30
0.0
 10
10.14936847513974
 20
-4.355896712829803
 30
0.0
 10
10.12684877958406
 20
-4.372734498272507
 30
0.0
 10
10.10632004600751
 20
-4.384873066338514
 30
0.0
 10
10.08807953682483
 20
-4.393189348930491
 30
0.0
 10
10.06753042745183
 20
-4.400319585013335
 30
0.0
 10
10.05182191760218
 20
-4.403041064882245
 30
0.0
 10
10.0416141331259
 20
-4.403811329692189
 30
0.0
 11
10.23935320418286
 21
-4.206072258635231
 31
0.0
 11
10.23402004352226
 21
-4.236321253220353
 31
0.0
 11
10.22861314568081
 21
-4.252108471768792
 31
0.0
 11
10.22126763965855
 21
-4.268288479753664
 31
0.0
 11
10.20831963121827
 21
-4.290371391680196
 31
0.0
 11
10.191612415191
 21
-4.312856405116349
 31
0.0
 11
10.17101513285308
 21
-4.335473258362526
 31
0.0
 11
10.14839468151677
 21
-4.356071239695552
 31
0.0
 11
10.12590742513782
 21
-4.372778721058239
 31
0.0
 11
10.10382372002129
 21
-4.385726673633257
 31
0.0
 11
10.0876440980843
 21
-4.393072000704364
 31
0.0
 11
10.07185811495435
 21
-4.398478658203998
 31
0.0
 11
10.0416141331259
 21
-4.403811329692189
 31
0.0
  0
SPLINE
  5
A1
330
2
100
AcDbEntity
  8
GAIKEI
  6
Continuous
 62
     1
100
AcDbSpline
210
0.0
220
0.0
230
1.0
 70
     8
 71
     3
 72
    19
 73
    15
 74
    13
 42
0.0000000001
 43
0.0000000001
 44
0.000001
 12
0.075227569746649
 22
-0.9971663917070275
 32
0.0
 13
0.9971651028676605
 23
-0.0752446517895329
 33
0.0
 40
0.0
 40
0.0
 40
0.0
 40
0.0
 40
0.0307154355815346
 40
0.0474030577359892
 40
0.0651725077224752
 40
0.0907715901219703
 40
0.1187843457348518
 40
0.1493748434379321
 40
0.1799684720829548
 40
0.207983186293526
 40
0.2335829246325404
 40
0.251351949056606
 40
0.2680383244278288
 40
0.2987487387220343
 40
0.2987487387220343
 40
0.2987487387220343
 40
0.2987487387220343
 10
-49.98984643619525
 20
-4.206072258635231
 30
0.0
 10
-49.98907622033775
 20
-4.216281725324733
 30
0.0
 10
-49.98635455047708
 20
-4.231992349871916
 30
0.0
 10
-49.97922388061116
 20
-4.252543673403238
 30
0.0
 10
-49.97090746379709
 20
-4.270784506347411
 30
0.0
 10
-49.95876891733224
 20
-4.291312423097906
 30
0.0
 10
-49.94193139776831
 20
-4.313829957893972
 30
0.0
 10
-49.92182756112715
 20
-4.335793956921577
 30
0.0
 10
-49.89986170715224
 20
-4.355896712829803
 30
0.0
 10
-49.87734201159651
 20
-4.372734498272393
 30
0.0
 10
-49.8568132780199
 20
-4.384873066338627
 30
0.0
 10
-49.83857276883725
 20
-4.393189348930434
 30
0.0
 10
-49.81802365946421
 20
-4.400319585013505
 30
0.0
 10
-49.80231514961459
 20
-4.403041064882245
 30
0.0
 10
-49.79210736513834
 20
-4.403811329692189
 30
0.0
 11
-49.98984643619525
 21
-4.206072258635231
 31
0.0
 11
-49.98451327553471
 21
-4.236321253220353
 31
0.0
 11
-49.9791063776932
 21
-4.252108471768792
 31
0.0
 11
-49.97176087167094
 21
-4.268288479753664
 31
0.0
 11
-49.95881286323072
 21
-4.290371391680196
 31
0.0
 11
-49.94210564720344
 21
-4.312856405116349
 31
0.0
 11
-49.92150836486553
 21
-4.335473258362412
 31
0.0
 11
-49.89888791352917
 21
-4.356071239695552
 31
0.0
 11
-49.87640065715027
 21
-4.372778721058239
 31
0.0
 11
-49.85431695203368
 21
-4.385726673633257
 31
0.0
 11
-49.83813733009668
 21
-4.393072000704364
 31
0.0
 11
-49.82235134696674
 21
-4.398478658203998
 31
0.0
 11
-49.79210736513834
 21
-4.403811329692189
 31
0.0
  0
SPLINE
  5
A2
330
2
100
AcDbEntity
  8
GAIKEI
  6
Continuous
 62
     1
100
AcDbSpline
210
0.0
220
0.0
230
1.0
 70
     8
 71
     3
 72
    19
 73
    15
 74
    13
 42
0.0000000001
 43
0.0000000001
 44
0.000001
 12
0.9971663916962711
 22
-0.075227569889229
 32
0.0
 13
0.075244651693976
 23
-0.9971651028748709
 33
0.0
 40
0.0
 40
0.0
 40
0.0
 40
0.0
 40
0.0307154355883551
 40
0.0474030577445501
 40
0.0651725077316663
 40
0.0907715901302331
 40
0.1187843457395449
 40
0.1493748434368397
 40
0.1799684720857379
 40
0.207983186298663
 40
0.233582924638336
 40
0.2513519490619807
 40
0.2680383244319777
 40
0.2987487387217185
 40
0.2987487387217185
 40
0.2987487387217185
 40
0.2987487387217185
 10
10.0416141331259
 20
31.52538832040591
 30
0.0
 10
10.05182359981756
 20
31.52461810454679
 30
0.0
 10
10.06753422436702
 20
31.52189643468375
 30
0.0
 10
10.0880855479011
 20
31.51476576481627
 30
0.0
 10
10.10632638084541
 20
31.50644934800136
 30
0.0
 10
10.12685429759494
 20
31.49431080153738
 30
0.0
 10
10.14937183238805
 20
31.47747328197528
 30
0.0
 10
10.17133583141466
 20
31.4573694453357
 30
0.0
 10
10.19143858732298
 20
31.43540359136074
 30
0.0
 10
10.20827637276687
 20
31.41288389580296
 30
0.0
 10
10.22041494083356
 20
31.39235516222561
 30
0.0
 10
10.22873122342486
 20
31.37411465304308
 30
0.0
 10
10.23586145950696
 20
31.35356554367201
 30
0.0
 10
10.23858293937411
 20
31.33785703382392
 30
0.0
 10
10.23935320418297
 20
31.32764924934907
 30
0.0
 11
10.0416141331259
 21
31.52538832040591
 31
0.0
 11
10.07186312771716
 21
31.52005515974088
 31
0.0
 11
10.08765034626702
 21
31.51464826189818
 31
0.0
 11
10.10383035425229
 21
31.50730275587523
 31
0.0
 11
10.12591326617791
 21
31.4943547474353
 31
0.0
 11
10.14839827961123
 21
31.47764753141018
 31
0.0
 11
10.17101513285308
 21
31.45705024907625
 31
0.0
 11
10.19161311418895
 21
31.43442979773715
 31
0.0
 11
10.208320595553
 21
31.41194254135633
 31
0.0
 11
10.22126854812825
 21
31.38985883623912
 31
0.0
 11
10.22861387519896
 21
31.37367921430235
 31
0.0
 11
10.23402053269774
 21
31.35789323117342
 31
0.0
 11
10.23935320418297
 21
31.32764924934907
 31
0.0
  0
SPLINE
  5
A3
330
2
100
AcDbEntity
  8
GAIKEI
  6
Continuous
 62
     1
100
AcDbSpline
210
0.0
220
0.0
230
1.0
 70
     8
 71
     3
 72
    19
 73
    15
 74
    13
 42
0.0000000001
 43
0.0000000001
 44
0.000001
 12
-0.9971663916962876
 22
-0.0752275698890099
 32
0.0
 13
-0.0752446516939761
 23
-0.9971651028748709
 33
0.0
 40
0.0
 40
0.0
 40
0.0
 40
0.0
 40
0.0307154355882431
 40
0.0474030577445457
 40
0.0651725077316101
 40
0.0907715901301769
 40
0.1187843457395344
 40
0.1493748434368292
 40
0.1799684720857731
 40
0.2079831862985731
 40
0.2335829246383036
 40
0.2513519490619249
 40
0.2680383244319034
 40
0.2987487387216441
 40
0.2987487387216441
 40
0.2987487387216441
 40
0.2987487387216441
 10
-49.79210736513834
 20
31.52538832040591
 30
0.0
 10
-49.80231683182998
 20
31.52461810454679
 30
0.0
 10
-49.81802745637947
 20
31.52189643468375
 30
0.0
 10
-49.83857877991352
 20
31.51476576481622
 30
0.0
 10
-49.85681961285777
 20
31.50644934800147
 30
0.0
 10
-49.87734752960728
 20
31.49431080153721
 30
0.0
 10
-49.89986506440056
 20
31.47747328197545
 30
0.0
 10
-49.92182906342711
 20
31.45736944533565
 30
0.0
 10
-49.94193181933534
 20
31.43540359136057
 30
0.0
 10
-49.95876960477918
 20
31.41288389580296
 30
0.0
 10
-49.97090817284604
 20
31.39235516222584
 30
0.0
 10
-49.9792244554373
 20
31.37411465304302
 30
0.0
 10
-49.98635469151921
 20
31.35356554367206
 30
0.0
 10
-49.98907617138645
 20
31.33785703382392
 30
0.0
 10
-49.98984643619531
 20
31.32764924934907
 30
0.0
 11
-49.79210736513834
 21
31.52538832040591
 31
0.0
 11
-49.8223563597295
 21
31.52005515974088
 31
0.0
 11
-49.83814357827947
 21
31.51464826189818
 31
0.0
 11
-49.85432358626468
 21
31.50730275587523
 31
0.0
 11
-49.87640649819031
 21
31.4943547474353
 31
0.0
 11
-49.89889151162367
 21
31.47764753141018
 31
0.0
 11
-49.92150836486553
 21
31.45705024907625
 31
0.0
 11
-49.94210634620134
 21
31.43442979773704
 31
0.0
 11
-49.95881382756533
 21
31.41194254135633
 31
0.0
 11
-49.97176178014069
 21
31.38985883623912
 31
0.0
 11
-49.97910710721135
 21
31.37367921430235
 31
0.0
 11
-49.98451376471007
 21
31.35789323117342
 31
0.0
 11
-49.98984643619531
 21
31.32764924934907
 31
0.0
  0
DIMENSION
  5
A4
330
2
100
AcDbEntity
  8
SUNPO
100
AcDbDimension
  2
*D5
 10
10.37475337189377
 20
39.65281219390647
 30
0.0
 11
-19.87524661600618
 21
41.40281219390646
 31
0.0
 70
    33
  1
1210
 71
     5
 42
60.49999997579991
  3
STANDARD
100
AcDbAlignedDimension
 13
-50.12524660390614
 23
31.65281219390647
 33
0.0
 14
10.37475337189377
 24
31.65281219390647
 34
0.0
1001
ACAD
1000
DSTYLE
1002
{
1070
   287
1070
     3
1070
   287
1070
     3
1070
   287
1070
     3
1070
   287
1070
     3
1070
   287
1070
     3
1070
   287
1070
     3
1070
   287
1070
     3
1070
   287
1070
     3
1070
   287
1070
     3
1070
   287
1070
     3
1070
   287
1070
     3
1070
   287
1070
     3
1070
   287
1070
     3
1070
   287
1070
     3
1070
   287
1070
     3
1070
   287
1070
     3
1070
   287
1070
     3
1070
   287
1070
     3
1070
   287
1070
     3
1070
   287
1070
     3
1070
   287
1070
     3
1070
   287
1070
     3
1070
   287
1070
     3
1070
   287
1070
     3
1070
   287
1070
     3
1070
   287
1070
     3
1070
   287
1070
     3
1070
   287
1070
     3
1070
   287
1070
     3
1070
   287
1070
     3
1070
   287
1070
     3
1070
   287
1070
     3
1070
   287
1070
     3
1070
   287
1070
     3
1070
    40
1040
1.0
1070
   140
1040
2.5
1070
   147
1040
0.5
1070
   172
1070
     1
1070
   279
1070
     0
1002
}
  0
DIMENSION
  5
B1
330
2
100
AcDbEntity
  8
SUNPO
100
AcDbDimension
  2
*D4
 10
17.93498818216611
 20
31.6530986382578
 30
0.0
 11
16.1849881821661
 21
13.55694357042739
 31
0.0
 70
    33
  1
724
 71
     5
 42
36.19231013566082
  3
STANDARD
100
AcDbAlignedDimension
 13
9.934988182166108
 23
-4.539211497403016
 33
0.0
 14
9.93498818216608
 24
31.6530986382578
 34
0.0
1001
ACAD
1000
DSTYLE
1002
{
1070
   287
1070
     3
1070
   287
1070
     3
1070
   287
1070
     3
1070
   287
1070
     3
1070
   287
1070
     3
1070
   287
1070
     3
1070
   287
1070
     3
1070
   287
1070
     3
1070
   287
1070
     3
1070
   287
1070
     3
1070
   287
1070
     3
1070
   287
1070
     3
1070
   287
1070
     3
1070
   287
1070
     3
1070
   287
1070
     3
1070
   287
1070
     3
1070
   287
1070
     3
1070
   287
1070
     3
1070
   287
1070
     3
1070
   287
1070
     3
1070
   287
1070
     3
1070
   287
1070
     3
1070
   287
1070
     3
1070
   287
1070
     3
1070
   287
1070
     3
1070
   287
1070
     3
1070
   287
1070
     3
1070
   287
1070
     3
1070
   287
1070
     3
1070
   287
1070
     3
1070
   287
1070
     3
1070
   287
1070
     3
1070
   287
1070
     3
1070
   287
1070
     3
1070
    40
1040
1.0
1070
   140
1040
2.5
1070
   147
1040
0.5
1070
   172
1070
     1
1070
   279
1070
     0
1002
}
  0
LINE
  5
BE
330
2
100
AcDbEntity
  8
GAIKEI
  6
Continuous
 62
     1
100
AcDbLine
 10
32.36066063463079
 20
-3.231521647544013
 30
0.0
 11
32.49164363463069
 21
-3.231521647544013
 31
0.0
  0
LINE
  5
BF
330
2
100
AcDbEntity
  8
GAIKEI
  6
Continuous
 62
     1
100
AcDbLine
 10
34.49928183463078
 20
-1.731521647544013
 30
0.0
 11
34.46316063463076
 21
-1.731521647544013
 31
0.0
  0
LINE
  5
C0
330
2
100
AcDbEntity
  8
GAIKEI
  6
Continuous
 62
     1
100
AcDbLine
 10
34.5005920346307
 20
-1.731521647544013
 30
0.0
 11
34.49928183463078
 21
-1.731521647544013
 31
0.0
  0
LINE
  5
C1
330
2
100
AcDbEntity
  8
GAIKEI
  6
Continuous
 62
     1
100
AcDbLine
 10
32.60344703463073
 20
-3.205128447543984
 30
0.0
 11
34.41246403463072
 21
-2.300619947543964
 31
0.0
  0
LINE
  5
C2
330
2
100
AcDbEntity
  8
GAIKEI
  6
Continuous
 62
     1
100
AcDbLine
 10
34.55066063463073
 20
-2.077013147543993
 30
0.0
 11
34.55066063463073
 21
-1.781521647543968
 31
0.0
  0
ARC
  5
C3
330
2
100
AcDbEntity
  8
GAIKEI
  6
Continuous
 62
     1
100
AcDbCircle
 10
34.30066063463073
 20
-2.077013147543993
 30
0.0
 40
0.25
100
AcDbArc
 50
296.5650509999881
 51
0.0
  0
ARC
  5
C4
330
2
100
AcDbEntity
  8
GAIKEI
  6
Continuous
 62
     1
100
AcDbCircle
 10
32.49164363463069
 20
-2.981521647544013
 30
0.0
 40
0.25
100
AcDbArc
 50
270.0
 51
296.5650509999881
  0
ELLIPSE
  5
C5
330
2
100
AcDbEntity
  8
GAIKEI
  6
Continuous
 62
     1
100
AcDbEllipse
 10
34.5005920346307
 20
-1.781521647543968
 30
0.0
 11
-0.0500686172998712
 21
0.0000000000068056
 31
0.0
210
0.0
220
0.0
230
1.0
 40
0.9986300000009318
 41
3.141592653725905
 42
4.712388980520429
  0
LINE
  5
C6
330
2
100
AcDbEntity
  8
GAIKEI
  6
Continuous
 62
     1
100
AcDbLine
 10
34.53928183463074
 20
0.3684783524560089
 30
0.0
 11
34.46316063463076
 21
0.3684783524560089
 31
0.0
  0
LINE
  5
C7
330
2
100
AcDbEntity
  8
GAIKEI
  6
Continuous
 62
     1
100
AcDbLine
 10
34.54059203463078
 20
0.3684783524560089
 30
0.0
 11
34.53928183463074
 21
0.3684783524560089
 31
0.0
  0
LINE
  5
C8
330
2
100
AcDbEntity
  8
GAIKEI
  6
Continuous
 62
     1
100
AcDbLine
 10
34.59066063463069
 20
0.0229868524560288
 30
0.0
 11
34.59066063463069
 21
0.3184783524559407
 31
0.0
  0
ARC
  5
C9
330
2
100
AcDbEntity
  8
GAIKEI
  6
Continuous
 62
     1
100
AcDbCircle
 10
34.34066063463069
 20
0.0229868524560288
 30
0.0
 40
0.25
100
AcDbArc
 50
299.3405819999889
 51
0.0
  0
ELLIPSE
  5
CA
330
2
100
AcDbEntity
  8
GAIKEI
  6
Continuous
 62
     1
100
AcDbEllipse
 10
34.54059203463078
 20
0.3184783524559407
 30
0.0
 11
0.0500686172998712
 21
0.0000000000139555
 31
0.0
210
0.0
220
0.0
230
1.0
 40
0.9986299999997962
 41
-0.0000000002791107
 42
1.57079632651655
  0
LINE
  5
CB
330
2
100
AcDbEntity
  8
GAIKEI
  6
Continuous
 62
     1
100
AcDbLine
 10
32.53096993463078
 20
-3.469171197544028
 30
0.0
 11
33.40837733463076
 21
-3.42318819754405
 31
0.0
  0
LINE
  5
CC
330
2
100
AcDbEntity
  8
GAIKEI
  6
Continuous
 62
     1
100
AcDbLine
 10
34.04591273463075
 20
-3.343200397544023
 30
0.0
 11
34.04800593463074
 21
-3.223281397544042
 31
0.0
  0
LINE
  5
CD
330
2
100
AcDbEntity
  8
GAIKEI
  6
Continuous
 62
     1
100
AcDbLine
 10
33.40837733463076
 20
-3.42318819754405
 30
0.0
 11
33.99853713463074
 21
-3.392259247543961
 31
0.0
  0
LINE
  5
CE
330
2
100
AcDbEntity
  8
GAIKEI
  6
Continuous
 62
     1
100
AcDbLine
 10
32.53096993463078
 20
-3.469171197544028
 30
0.0
 11
33.53504643463077
 21
-3.416549747543967
 31
0.0
  0
ARC
  5
CF
330
2
100
AcDbEntity
  8
GAIKEI
  6
Continuous
 62
     1
100
AcDbCircle
 10
32.54405388463073
 20
-3.718828547544035
 30
0.0
 40
0.25
100
AcDbArc
 50
93.00000000000558
 51
137.1867789999956
  0
ARC
  5
D0
330
2
100
AcDbEntity
  8
GAIKEI
  6
Continuous
 62
     1
100
AcDbCircle
 10
33.9959203346308
 20
-3.342327747544004
 30
0.0
 40
0.05
100
AcDbArc
 50
273.0000000000056
 51
359.0000000000243
  0
LINE
  5
D1
330
2
100
AcDbEntity
  8
GAIKEI
  6
Continuous
 62
     1
100
AcDbLine
 10
33.56964488463075
 20
29.75950988811689
 30
0.0
 11
32.58240958463074
 21
29.79398488811694
 31
0.0
  0
LINE
  5
D2
330
2
100
AcDbEntity
  8
GAIKEI
  6
Continuous
 62
     1
100
AcDbLine
 10
32.42401813463073
 20
29.69950703811696
 30
0.0
 11
32.42401813463073
 21
24.71221028811692
 31
0.0
  0
LINE
  5
D3
330
2
100
AcDbEntity
  8
GAIKEI
  6
Continuous
 62
     1
100
AcDbLine
 10
33.87125363463076
 20
30.08188683811693
 30
0.0
 11
32.36767543463077
 21
30.40408213811691
 31
0.0
  0
LINE
  5
D4
330
2
100
AcDbEntity
  8
GAIKEI
  6
Continuous
 62
     1
100
AcDbLine
 10
34.40787193463075
 20
27.63056813811693
 30
0.0
 11
34.10545478463075
 21
29.82957258811689
 31
0.0
  0
LINE
  5
D5
330
2
100
AcDbEntity
  8
GAIKEI
  6
Continuous
 62
     1
100
AcDbLine
 10
34.42138413463079
 20
26.97858008811693
 30
0.0
 11
34.42138413463079
 21
27.43313723811684
 31
0.0
  0
LINE
  5
D6
330
2
100
AcDbEntity
  8
GAIKEI
  6
Continuous
 62
     1
100
AcDbLine
 10
34.10545478463075
 20
24.58214478811692
 30
0.0
 11
34.40787193463075
 21
26.78114923811688
 31
0.0
  0
LINE
  5
D7
330
2
100
AcDbEntity
  8
GAIKEI
  6
Continuous
 62
     1
100
AcDbLine
 10
32.36767543463077
 20
24.00763518811686
 30
0.0
 11
33.87125363463076
 21
24.32983053811688
 31
0.0
  0
LINE
  5
D8
330
2
100
AcDbEntity
  8
GAIKEI
  6
Continuous
 62
     1
100
AcDbLine
 10
32.58240958463074
 20
24.61773243811695
 30
0.0
 11
33.56964488463075
 21
24.65220748811692
 31
0.0
  0
LINE
  5
D9
330
2
100
AcDbEntity
  8
GAIKEI
  6
Continuous
 62
     1
100
AcDbLine
 10
33.71281483463076
 20
24.78150233811687
 30
0.0
 11
33.7181913846307
 21
24.82059743811692
 31
0.0
  0
LINE
  5
DA
330
2
100
AcDbEntity
  8
GAIKEI
  6
Continuous
 62
     1
100
AcDbLine
 10
33.73477968463078
 20
24.92000063811691
 30
0.0
 11
33.9002677346308
 21
26.12333518811693
 31
0.0
  0
LINE
  5
DB
330
2
100
AcDbEntity
  8
GAIKEI
  6
Continuous
 62
     1
100
AcDbLine
 10
33.91116518463076
 20
26.22379268811688
 30
0.0
 11
33.99600258463073
 21
26.84068168811689
 31
0.0
  0
LINE
  5
DC
330
2
100
AcDbEntity
  8
GAIKEI
  6
Continuous
 62
     1
100
AcDbLine
 10
34.00524438463071
 20
26.97571673811694
 30
0.0
 11
34.00524438463071
 21
27.43600058811694
 31
0.0
  0
LINE
  5
DD
330
2
100
AcDbEntity
  8
GAIKEI
  6
Continuous
 62
     1
100
AcDbLine
 10
33.84360763463076
 20
28.70038218811692
 30
0.0
 11
33.73477968463078
 21
29.49171668811687
 31
0.0
  0
LINE
  5
DE
330
2
100
AcDbEntity
  8
GAIKEI
  6
Continuous
 62
     1
100
AcDbLine
 10
33.7181913846307
 20
29.59111988811697
 30
0.0
 11
33.71281483463076
 21
29.63021503811683
 31
0.0
  0
LINE
  5
DF
330
2
100
AcDbEntity
  8
GAIKEI
  6
Continuous
 62
     1
100
AcDbLine
 10
33.99600258463073
 20
27.57103568811692
 30
0.0
 11
33.84360763463076
 21
28.70038218811692
 31
0.0
  0
LINE
  5
E0
330
2
100
AcDbEntity
  8
GAIKEI
  6
Continuous
 62
     1
100
AcDbLine
 10
32.43792538463072
 20
24.79137393811686
 30
0.0
 11
32.43792538463072
 21
24.80078848811695
 31
0.0
  0
LINE
  5
E1
330
2
100
AcDbEntity
  8
GAIKEI
  6
Continuous
 62
     1
100
AcDbLine
 10
33.56964488463075
 20
24.65220748811692
 30
0.0
 11
33.56834103463075
 21
24.65365123811694
 31
0.0
  0
LINE
  5
E2
330
2
100
AcDbEntity
  8
GAIKEI
  6
Continuous
 62
     1
100
AcDbLine
 10
32.48791778463072
 20
24.79137393811686
 30
0.0
 11
32.43792538463072
 21
24.79137393811686
 31
0.0
  0
LINE
  5
E3
330
2
100
AcDbEntity
  8
GAIKEI
  6
Continuous
 62
     1
100
AcDbLine
 10
32.48791778463072
 20
24.9219803381169
 30
0.0
 11
32.48791778463072
 21
24.79137393811686
 31
0.0
  0
ARC
  5
E4
330
2
100
AcDbEntity
  8
GAIKEI
  6
Continuous
 62
     1
100
AcDbCircle
 10
33.80846478463076
 20
24.62296323811688
 30
0.0
 40
0.34978195
100
AcDbArc
 50
317.3057001384141
 51
349.609110091751
  0
ELLIPSE
  5
E5
330
2
100
AcDbEntity
  8
GAIKEI
  6
Continuous
 62
     1
100
AcDbEllipse
 10
33.80810588463078
 20
29.7884210381169
 30
0.0
 11
0.2200773139137207
 21
0.2042784547079607
 31
0.0
210
0.0
220
0.0
230
1.0
 40
0.9990919999997052
 41
-0.6110907881875775
 42
0.6110907880307086
  0
ELLIPSE
  5
E6
330
2
100
AcDbEntity
  8
GAIKEI
  6
Continuous
 62
     1
100
AcDbEllipse
 10
32.97050028463076
 20
27.43301628811685
 30
0.0
 11
1.447501845805857
 21
0.0990673047384905
 31
0.0
210
0.0
220
0.0
230
1.0
 40
0.9993880000055288
 41
-0.0682919404817914
 42
0.0682919404888547
  0
ELLIPSE
  5
E7
330
2
100
AcDbEntity
  8
GAIKEI
  6
Continuous
 62
     1
100
AcDbEllipse
 10
32.97050028463076
 20
26.97870103811681
 30
0.0
 11
-1.447501845782709
 21
0.0990673050774751
 31
0.0
210
0.0
220
0.0
230
1.0
 40
0.9993879999934986
 41
3.073300713334443
 42
3.209884594306729
  0
ELLIPSE
  5
E8
330
2
100
AcDbEntity
  8
GAIKEI
  6
Continuous
 62
     1
100
AcDbEllipse
 10
33.80810588463078
 20
24.62329633811692
 30
0.0
 11
-0.2200773139313426
 21
0.2042784546889193
 31
0.0
210
0.0
220
0.0
230
1.0
 40
0.9990920000004408
 41
2.530501865473186
 42
3.75268344169062
  0
ELLIPSE
  5
E9
330
2
100
AcDbEntity
  8
GAIKEI
  6
Continuous
 62
     1
100
AcDbEllipse
 10
33.56441713463073
 20
29.60980668811692
 30
0.0
 11
-0.1113231012655573
 21
0.1005344076653982
 31
0.0
210
0.0
220
0.0
230
1.0
 40
0.9976619999996227
 41
4.013930599346159
 42
5.410847361526342
  0
ELLIPSE
  5
EA
330
2
100
AcDbEntity
  8
GAIKEI
  6
Continuous
 62
     1
100
AcDbEllipse
 10
33.01410458463073
 20
26.97571673811683
 30
0.0
 11
0.0677683607176556
 21
0.9901836694785888
 31
0.0
210
0.0
220
0.0
230
1.0
 40
0.998622999991616
 41
4.644149142570644
 42
4.78062881804572
  0
ELLIPSE
  5
EB
330
2
100
AcDbEntity
  8
GAIKEI
  6
Continuous
 62
     1
100
AcDbEllipse
 10
33.56441713463073
 20
24.80191063811685
 30
0.0
 11
0.1113231012737732
 21
0.1005344076561978
 31
0.0
210
0.0
220
0.0
230
1.0
 40
0.9976620000000806
 41
4.013930599325021
 42
5.410847361505642
  0
ELLIPSE
  5
EC
330
2
100
AcDbEntity
  8
GAIKEI
  6
Continuous
 62
     1
100
AcDbEllipse
 10
33.01410458463073
 20
27.43600058811683
 30
0.0
 11
-0.0677683608693831
 21
0.9901836694613269
 31
0.0
210
0.0
220
0.0
230
1.0
 40
0.9986229999985823
 41
4.644149142569689
 42
4.780628818045713
  0
ELLIPSE
  5
ED
330
2
100
AcDbEntity
  8
GAIKEI
  6
Continuous
 62
     1
100
AcDbEllipse
 10
32.57718183463078
 20
24.76743563811681
 30
0.0
 11
-0.1424851626777184
 21
0.0468826024949143
 31
0.0
210
0.0
220
0.0
230
1.0
 40
0.9984440000005646
 41
0.318339618181823
 42
1.923075432051857
  0
ELLIPSE
  5
EE
330
2
100
AcDbEntity
  8
GAIKEI
  6
Continuous
 62
     1
100
AcDbEllipse
 10
32.57718183463078
 20
29.64428173811689
 30
0.0
 11
0.1424851626795885
 21
0.0468826024892312
 31
0.0
210
0.0
220
0.0
230
1.0
 40
0.9984440000001793
 41
1.218517221577885
 42
2.82325303544779
  0
LINE
  5
EF
330
2
100
AcDbEntity
  8
GAIKEI
  6
Continuous
 62
     1
100
AcDbLine
 10
32.43211183463075
 20
-3.881521647543991
 30
0.0
 11
32.40038273463074
 21
-3.881521647543991
 31
0.0
  0
ARC
  5
F0
330
2
100
AcDbEntity
  8
GAIKEI
  6
Continuous
 62
     1
100
AcDbCircle
 10
32.43211183463075
 20
-3.946521647544045
 30
0.0
 40
0.065
100
AcDbArc
 50
16.60155000001893
 51
90.0
  0
ARC
  5
F1
330
2
100
AcDbEntity
  8
GAIKEI
  6
Continuous
 62
     1
100
AcDbCircle
 10
32.43211183463075
 20
-4.166521647543959
 30
0.0
 40
0.065
100
AcDbArc
 50
299.071346000013
 51
343.3984499999811
  0
ARC
  5
F2
330
2
100
AcDbEntity
  8
GAIKEI
  6
Continuous
 62
     1
100
AcDbCircle
 10
32.06316063463078
 20
-4.056521647544059
 30
0.0
 40
0.45
100
AcDbArc
 50
343.3984499999811
 51
0.0
  0
ARC
  5
F3
330
2
100
AcDbEntity
  8
GAIKEI
  6
Continuous
 62
     1
100
AcDbCircle
 10
32.06316063463078
 20
-4.056521647544059
 30
0.0
 40
0.45
100
AcDbArc
 50
0.0
 51
16.60155000001893
  0
LINE
  5
F4
330
2
100
AcDbEntity
  8
GAIKEI
  6
Continuous
 62
     1
100
AcDbLine
 10
32.39211183463079
 20
-3.881521647543991
 30
0.0
 11
32.36066063463079
 21
-3.881521647543991
 31
0.0
  0
LINE
  5
F5
330
2
100
AcDbEntity
  8
GAIKEI
  6
Continuous
 62
     1
100
AcDbLine
 10
32.39211183463079
 20
13.13371415168888
 30
0.0
 11
32.36066063463079
 21
13.13371415168888
 31
0.0
  0
LINE
  5
F6
330
2
100
AcDbEntity
  8
GAIKEI
  6
Continuous
 62
     1
100
AcDbLine
 10
32.36066063463079
 20
12.78371415168885
 30
0.0
 11
32.39211183463079
 21
12.78371415168885
 31
0.0
  0
ARC
  5
F7
330
2
100
AcDbEntity
  8
GAIKEI
  6
Continuous
 62
     1
100
AcDbCircle
 10
32.39211183463079
 20
13.06871415168882
 30
0.0
 40
0.065
100
AcDbArc
 50
16.60155000001893
 51
90.0
  0
ARC
  5
F8
330
2
100
AcDbEntity
  8
GAIKEI
  6
Continuous
 62
     1
100
AcDbCircle
 10
32.39211183463079
 20
12.84871415168891
 30
0.0
 40
0.065
100
AcDbArc
 50
270.0
 51
343.3984499999811
  0
ARC
  5
F9
330
2
100
AcDbEntity
  8
GAIKEI
  6
Continuous
 62
     1
100
AcDbCircle
 10
32.02316063463076
 20
12.95871415168881
 30
0.0
 40
0.45
100
AcDbArc
 50
343.3984499999811
 51
0.0
  0
ARC
  5
FA
330
2
100
AcDbEntity
  8
GAIKEI
  6
Continuous
 62
     1
100
AcDbCircle
 10
32.02316063463076
 20
12.95871415168881
 30
0.0
 40
0.45
100
AcDbArc
 50
0.0
 51
16.60155000001893
  0
LINE
  5
FB
330
2
100
AcDbEntity
  8
GAIKEI
  6
Continuous
 62
     1
100
AcDbLine
 10
32.39211183463079
 20
31.39828848811692
 30
0.0
 11
32.36066063463079
 21
31.39828848811692
 31
0.0
  0
LINE
  5
FC
330
2
100
AcDbEntity
  8
GAIKEI
  6
Continuous
 62
     1
100
AcDbLine
 10
32.36066063463079
 20
31.0482884881169
 30
0.0
 11
32.39211183463079
 21
31.0482884881169
 31
0.0
  0
ARC
  5
FD
330
2
100
AcDbEntity
  8
GAIKEI
  6
Continuous
 62
     1
100
AcDbCircle
 10
32.39211183463079
 20
31.33328848811686
 30
0.0
 40
0.065
100
AcDbArc
 50
16.60155000001893
 51
90.0
  0
ARC
  5
FE
330
2
100
AcDbEntity
  8
GAIKEI
  6
Continuous
 62
     1
100
AcDbCircle
 10
32.39211183463079
 20
31.11328848811684
 30
0.0
 40
0.065
100
AcDbArc
 50
270.0
 51
343.3984499999811
  0
ARC
  5
FF
330
2
100
AcDbEntity
  8
GAIKEI
  6
Continuous
 62
     1
100
AcDbCircle
 10
32.02316063463076
 20
31.22328848811685
 30
0.0
 40
0.45
100
AcDbArc
 50
343.3984499999811
 51
0.0
  0
ARC
  5
100
330
2
100
AcDbEntity
  8
GAIKEI
  6
Continuous
 62
     1
100
AcDbCircle
 10
32.02316063463076
 20
31.22328848811685
 30
0.0
 40
0.45
100
AcDbArc
 50
0.0
 51
16.60155000001893
  0
LINE
  5
101
330
2
100
AcDbEntity
  8
GAIKEI
  6
Continuous
 62
     1
100
AcDbLine
 10
32.36066063463079
 20
-4.306521647544059
 30
0.0
 11
32.39211183463079
 21
-4.306521647544059
 31
0.0
  0
ARC
  5
102
330
2
100
AcDbEntity
  8
GAIKEI
  6
Continuous
 62
     1
100
AcDbCircle
 10
32.39211183463079
 20
-4.241521647544004
 30
0.0
 40
0.065
100
AcDbArc
 50
270.0
 51
343.3984499999811
  0
ARC
  5
103
330
2
100
AcDbEntity
  8
GAIKEI
  6
Continuous
 62
     1
100
AcDbCircle
 10
32.02316063463076
 20
-4.131521647543991
 30
0.0
 40
0.45
100
AcDbArc
 50
343.3984499999811
 51
348.2276048164396
  0
ARC
  5
104
330
2
100
AcDbEntity
  8
GAIKEI
  6
Continuous
 62
     1
100
AcDbCircle
 10
32.32116528463075
 20
-3.647537597543987
 30
0.0
 40
0.05
100
AcDbArc
 50
16.25702800000541
 51
37.82319200001238
  0
ARC
  5
105
330
2
100
AcDbEntity
  8
GAIKEI
  6
Continuous
 62
     1
100
AcDbCircle
 10
32.36116528463071
 20
-3.682537597544069
 30
0.0
 40
0.05
100
AcDbArc
 50
16.25702800000541
 51
80.92142899999224
  0
ARC
  5
106
330
2
100
AcDbEntity
  8
GAIKEI
  6
Continuous
 62
     1
100
AcDbCircle
 10
32.36116528463071
 20
-3.850505697544008
 30
0.0
 40
0.05
100
AcDbArc
 50
320.9555470000156
 51
343.7429719999946
  0
ARC
  5
107
330
2
100
AcDbEntity
  8
GAIKEI
  6
Continuous
 62
     1
100
AcDbCircle
 10
32.07316063463077
 20
-3.766521647543981
 30
0.0
 40
0.35
100
AcDbArc
 50
343.7429719999946
 51
0.0
  0
ARC
  5
108
330
2
100
AcDbEntity
  8
GAIKEI
  6
Continuous
 62
     1
100
AcDbCircle
 10
32.07316063463077
 20
-3.766521647543981
 30
0.0
 40
0.35
100
AcDbArc
 50
0.0
 51
16.25702800000541
  0
LINE
  5
109
330
2
100
AcDbEntity
  8
GAIKEI
  6
Continuous
 62
     1
100
AcDbLine
 10
32.50316063463072
 20
25.08161103811687
 30
0.0
 11
32.50316063463072
 21
25.06945568811693
 31
0.0
  0
LINE
  5
10A
330
2
100
AcDbEntity
  8
GAIKEI
  6
Continuous
 62
     1
100
AcDbLine
 10
32.51230043463073
 20
25.22828988811693
 30
0.0
 11
32.47230043463077
 21
25.22828988811693
 31
0.0
  0
LINE
  5
10B
330
2
100
AcDbEntity
  8
GAIKEI
  6
Continuous
 62
     1
100
AcDbLine
 10
32.53287313463073
 20
24.87328923811686
 30
0.0
 11
32.49287313463071
 21
24.87328923811686
 31
0.0
  0
LINE
  5
10C
330
2
100
AcDbEntity
  8
GAIKEI
  6
Continuous
 62
     1
100
AcDbLine
 10
32.50316063463072
 20
25.05078848811695
 30
0.0
 11
32.54316063463074
 21
25.05078848811695
 31
0.0
  0
LINE
  5
10D
330
2
100
AcDbEntity
  8
GAIKEI
  6
Continuous
 62
     1
100
AcDbLine
 10
32.46316063463075
 20
25.06945568811693
 30
0.0
 11
32.50316063463072
 21
25.06945568811693
 31
0.0
  0
LINE
  5
10E
330
2
100
AcDbEntity
  8
GAIKEI
  6
Continuous
 62
     1
100
AcDbLine
 10
32.54316063463074
 20
24.87578848811689
 30
0.0
 11
32.54316063463074
 21
25.05078848811695
 31
0.0
  0
LINE
  5
10F
330
2
100
AcDbEntity
  8
GAIKEI
  6
Continuous
 62
     1
100
AcDbLine
 10
32.54316063463074
 20
25.05078848811695
 30
0.0
 11
32.54316063463074
 21
25.2257884881169
 31
0.0
  0
LINE
  5
110
330
2
100
AcDbEntity
  8
GAIKEI
  6
Continuous
 62
     1
100
AcDbLine
 10
32.59211183463071
 20
25.2257884881169
 30
0.0
 11
32.54316063463074
 21
25.2257884881169
 31
0.0
  0
LINE
  5
111
330
2
100
AcDbEntity
  8
GAIKEI
  6
Continuous
 62
     1
100
AcDbLine
 10
32.54316063463074
 20
24.87578848811689
 30
0.0
 11
32.59211183463071
 21
24.87578848811689
 31
0.0
  0
LINE
  5
112
330
2
100
AcDbEntity
  8
GAIKEI
  6
Continuous
 62
     1
100
AcDbLine
 10
32.54316063463074
 20
25.14578848811686
 30
0.0
 11
32.50915098463077
 21
25.14578848811686
 31
0.0
  0
LINE
  5
113
330
2
100
AcDbEntity
  8
GAIKEI
  6
Continuous
 62
     1
100
AcDbLine
 10
32.46316063463075
 20
24.95578848811693
 30
0.0
 11
32.49601833463078
 21
24.95578848811693
 31
0.0
  0
ARC
  5
114
330
2
100
AcDbEntity
  8
GAIKEI
  6
Continuous
 62
     1
100
AcDbCircle
 10
32.59211183463071
 20
25.16078848811685
 30
0.0
 40
0.065
100
AcDbArc
 50
16.60155000001893
 51
90.0
  0
ARC
  5
115
330
2
100
AcDbEntity
  8
GAIKEI
  6
Continuous
 62
     1
100
AcDbCircle
 10
32.59211183463071
 20
24.94078848811694
 30
0.0
 40
0.065
100
AcDbArc
 50
270.0
 51
343.3984499999811
  0
ARC
  5
116
330
2
100
AcDbEntity
  8
GAIKEI
  6
Continuous
 62
     1
100
AcDbCircle
 10
32.22316063463074
 20
25.05078848811695
 30
0.0
 40
0.45
100
AcDbArc
 50
343.3984499999811
 51
0.0
  0
ARC
  5
117
330
2
100
AcDbEntity
  8
GAIKEI
  6
Continuous
 62
     1
100
AcDbCircle
 10
32.22316063463074
 20
25.05078848811695
 30
0.0
 40
0.45
100
AcDbArc
 50
0.0
 51
16.60155000001893
  0
LINE
  5
118
330
2
100
AcDbEntity
  8
GAIKEI
  6
Continuous
 62
     1
100
AcDbLine
 10
32.46316063463075
 20
24.80078848811695
 30
0.0
 11
32.46316063463075
 21
25.05078848811695
 31
0.0
  0
LINE
  5
119
330
2
100
AcDbEntity
  8
GAIKEI
  6
Continuous
 62
     1
100
AcDbLine
 10
32.46316063463075
 20
25.30078848811695
 30
0.0
 11
32.42401813463073
 21
25.30078848811695
 31
0.0
  0
LINE
  5
11A
330
2
100
AcDbEntity
  8
GAIKEI
  6
Continuous
 62
     1
100
AcDbLine
 10
32.42401813463073
 20
24.80078848811695
 30
0.0
 11
32.46316063463075
 21
24.80078848811695
 31
0.0
  0
LINE
  5
11B
330
2
100
AcDbEntity
  8
GAIKEI
  6
Continuous
 62
     1
100
AcDbLine
 10
32.46316063463075
 20
25.05078848811695
 30
0.0
 11
32.46316063463075
 21
25.30078848811695
 31
0.0
  0
LINE
  5
11C
330
2
100
AcDbEntity
  8
GAIKEI
  6
Continuous
 62
     1
100
AcDbLine
 10
32.50316063463072
 20
28.70161103811688
 30
0.0
 11
32.50316063463072
 21
28.68945568811694
 31
0.0
  0
LINE
  5
11D
330
2
100
AcDbEntity
  8
GAIKEI
  6
Continuous
 62
     1
100
AcDbLine
 10
32.51230043463073
 20
28.84828988811694
 30
0.0
 11
32.47230043463077
 21
28.84828988811694
 31
0.0
  0
LINE
  5
11E
330
2
100
AcDbEntity
  8
GAIKEI
  6
Continuous
 62
     1
100
AcDbLine
 10
32.53287313463073
 20
28.49328923811686
 30
0.0
 11
32.49287313463071
 21
28.49328923811686
 31
0.0
  0
LINE
  5
11F
330
2
100
AcDbEntity
  8
GAIKEI
  6
Continuous
 62
     1
100
AcDbLine
 10
32.50316063463072
 20
28.67078848811684
 30
0.0
 11
32.54316063463074
 21
28.67078848811684
 31
0.0
  0
LINE
  5
120
330
2
100
AcDbEntity
  8
GAIKEI
  6
Continuous
 62
     1
100
AcDbLine
 10
32.46316063463075
 20
28.68945568811694
 30
0.0
 11
32.50316063463072
 21
28.68945568811694
 31
0.0
  0
LINE
  5
121
330
2
100
AcDbEntity
  8
GAIKEI
  6
Continuous
 62
     1
100
AcDbLine
 10
32.54316063463074
 20
28.49578848811689
 30
0.0
 11
32.54316063463074
 21
28.67078848811684
 31
0.0
  0
LINE
  5
122
330
2
100
AcDbEntity
  8
GAIKEI
  6
Continuous
 62
     1
100
AcDbLine
 10
32.54316063463074
 20
28.67078848811684
 30
0.0
 11
32.54316063463074
 21
28.84578848811691
 31
0.0
  0
LINE
  5
123
330
2
100
AcDbEntity
  8
GAIKEI
  6
Continuous
 62
     1
100
AcDbLine
 10
32.59211183463071
 20
28.84578848811691
 30
0.0
 11
32.54316063463074
 21
28.84578848811691
 31
0.0
  0
LINE
  5
124
330
2
100
AcDbEntity
  8
GAIKEI
  6
Continuous
 62
     1
100
AcDbLine
 10
32.54316063463074
 20
28.49578848811689
 30
0.0
 11
32.59211183463071
 21
28.49578848811689
 31
0.0
  0
LINE
  5
125
330
2
100
AcDbEntity
  8
GAIKEI
  6
Continuous
 62
     1
100
AcDbLine
 10
32.54316063463074
 20
28.76578848811687
 30
0.0
 11
32.50915098463077
 21
28.76578848811687
 31
0.0
  0
LINE
  5
126
330
2
100
AcDbEntity
  8
GAIKEI
  6
Continuous
 62
     1
100
AcDbLine
 10
32.46571818463076
 20
28.76578848811687
 30
0.0
 11
32.46316063463075
 21
28.76578848811687
 31
0.0
  0
LINE
  5
127
330
2
100
AcDbEntity
  8
GAIKEI
  6
Continuous
 62
     1
100
AcDbLine
 10
32.46316063463075
 20
28.57578848811693
 30
0.0
 11
32.49601833463078
 21
28.57578848811693
 31
0.0
  0
ARC
  5
128
330
2
100
AcDbEntity
  8
GAIKEI
  6
Continuous
 62
     1
100
AcDbCircle
 10
32.59211183463071
 20
28.78078848811686
 30
0.0
 40
0.065
100
AcDbArc
 50
16.60155000001893
 51
90.0
  0
ARC
  5
129
330
2
100
AcDbEntity
  8
GAIKEI
  6
Continuous
 62
     1
100
AcDbCircle
 10
32.59211183463071
 20
28.56078848811694
 30
0.0
 40
0.065
100
AcDbArc
 50
270.0
 51
343.3984499999811
  0
ARC
  5
12A
330
2
100
AcDbEntity
  8
GAIKEI
  6
Continuous
 62
     1
100
AcDbCircle
 10
32.22316063463074
 20
28.67078848811684
 30
0.0
 40
0.45
100
AcDbArc
 50
343.3984499999811
 51
0.0
  0
ARC
  5
12B
330
2
100
AcDbEntity
  8
GAIKEI
  6
Continuous
 62
     1
100
AcDbCircle
 10
32.22316063463074
 20
28.67078848811684
 30
0.0
 40
0.45
100
AcDbArc
 50
0.0
 51
16.60155000001893
  0
LINE
  5
12C
330
2
100
AcDbEntity
  8
GAIKEI
  6
Continuous
 62
     1
100
AcDbLine
 10
32.46316063463075
 20
28.42078848811684
 30
0.0
 11
32.46316063463075
 21
28.67078848811684
 31
0.0
  0
LINE
  5
12D
330
2
100
AcDbEntity
  8
GAIKEI
  6
Continuous
 62
     1
100
AcDbLine
 10
32.46316063463075
 20
28.92078848811684
 30
0.0
 11
32.42983718463074
 21
28.92078848811684
 31
0.0
  0
LINE
  5
12E
330
2
100
AcDbEntity
  8
GAIKEI
  6
Continuous
 62
     1
100
AcDbLine
 10
32.42983718463074
 20
28.42078848811684
 30
0.0
 11
32.46316063463075
 21
28.42078848811684
 31
0.0
  0
LINE
  5
12F
330
2
100
AcDbEntity
  8
GAIKEI
  6
Continuous
 62
     1
100
AcDbLine
 10
32.46316063463075
 20
28.67078848811684
 30
0.0
 11
32.46316063463075
 21
28.92078848811684
 31
0.0
  0
LINE
  5
130
330
2
100
AcDbEntity
  8
GAIKEI
  6
Continuous
 62
     1
100
AcDbLine
 10
34.48816063463073
 20
0.7684783524559862
 30
0.0
 11
34.48816063463073
 21
1.268478352455986
 31
0.0
  0
LINE
  5
131
330
2
100
AcDbEntity
  8
GAIKEI
  6
Continuous
 62
     1
100
AcDbLine
 10
34.46316063463076
 20
0.7684783524559862
 30
0.0
 11
34.48816063463073
 21
0.7684783524559862
 31
0.0
  0
LINE
  5
132
330
2
100
AcDbEntity
  8
GAIKEI
  6
Continuous
 62
     1
100
AcDbLine
 10
34.48816063463073
 20
1.268478352455986
 30
0.0
 11
34.46316063463076
 21
1.268478352455986
 31
0.0
  0
LINE
  5
133
330
2
100
AcDbEntity
  8
GAIKEI
  6
Continuous
 62
     1
100
AcDbLine
 10
34.52316063463076
 20
0.8809783524559406
 30
0.0
 11
34.56552308463074
 21
0.8846846024559908
 31
0.0
  0
LINE
  5
134
330
2
100
AcDbEntity
  8
GAIKEI
  6
Continuous
 62
     1
100
AcDbLine
 10
34.56552308463074
 20
1.152272102455981
 30
0.0
 11
34.52316063463076
 21
1.155978352456031
 31
0.0
  0
LINE
  5
135
330
2
100
AcDbEntity
  8
GAIKEI
  6
Continuous
 62
     1
100
AcDbLine
 10
34.48816063463073
 20
0.8834783524559952
 30
0.0
 11
34.52316063463076
 21
0.8834783524559952
 31
0.0
  0
LINE
  5
136
330
2
100
AcDbEntity
  8
GAIKEI
  6
Continuous
 62
     1
100
AcDbLine
 10
34.52316063463076
 20
1.153478352455977
 30
0.0
 11
34.48816063463073
 21
1.153478352455977
 31
0.0
  0
ARC
  5
137
330
2
100
AcDbEntity
  8
GAIKEI
  6
Continuous
 62
     1
100
AcDbCircle
 10
34.56116528463076
 20
1.102462402456012
 30
0.0
 40
0.05
100
AcDbArc
 50
16.25702800000541
 51
84.99999899997805
  0
ARC
  5
138
330
2
100
AcDbEntity
  8
GAIKEI
  6
Continuous
 62
     1
100
AcDbCircle
 10
34.56116528463076
 20
0.9344943024559597
 30
0.0
 40
0.05
100
AcDbArc
 50
275.0000010000219
 51
343.7429719999946
  0
ARC
  5
139
330
2
100
AcDbEntity
  8
GAIKEI
  6
Continuous
 62
     1
100
AcDbCircle
 10
34.27316063463076
 20
1.018478352455986
 30
0.0
 40
0.35
100
AcDbArc
 50
343.7429719999946
 51
0.0
  0
ARC
  5
13A
330
2
100
AcDbEntity
  8
GAIKEI
  6
Continuous
 62
     1
100
AcDbCircle
 10
34.27316063463076
 20
1.018478352455986
 30
0.0
 40
0.35
100
AcDbArc
 50
0.0
 51
16.25702800000541
  0
LINE
  5
13B
330
2
100
AcDbEntity
  8
GAIKEI
  6
Continuous
 62
     1
100
AcDbLine
 10
34.48816063463073
 20
-1.131521647543991
 30
0.0
 11
34.48816063463073
 21
-0.6315216475439911
 31
0.0
  0
LINE
  5
13C
330
2
100
AcDbEntity
  8
GAIKEI
  6
Continuous
 62
     1
100
AcDbLine
 10
34.46316063463076
 20
-1.131521647543991
 30
0.0
 11
34.48816063463073
 21
-1.131521647543991
 31
0.0
  0
LINE
  5
13D
330
2
100
AcDbEntity
  8
GAIKEI
  6
Continuous
 62
     1
100
AcDbLine
 10
34.48816063463073
 20
-0.6315216475439911
 30
0.0
 11
34.46316063463076
 21
-0.6315216475439911
 31
0.0
  0
LINE
  5
13E
330
2
100
AcDbEntity
  8
GAIKEI
  6
Continuous
 62
     1
100
AcDbLine
 10
34.52316063463076
 20
-1.019021647544036
 30
0.0
 11
34.56552308463074
 21
-1.015315397543986
 31
0.0
  0
LINE
  5
13F
330
2
100
AcDbEntity
  8
GAIKEI
  6
Continuous
 62
     1
100
AcDbLine
 10
34.56552308463074
 20
-0.7477278975439959
 30
0.0
 11
34.52316063463076
 21
-0.7440216475440593
 31
0.0
  0
LINE
  5
140
330
2
100
AcDbEntity
  8
GAIKEI
  6
Continuous
 62
     1
100
AcDbLine
 10
34.48816063463073
 20
-1.016521647543981
 30
0.0
 11
34.52316063463076
 21
-1.016521647543981
 31
0.0
  0
LINE
  5
141
330
2
100
AcDbEntity
  8
GAIKEI
  6
Continuous
 62
     1
100
AcDbLine
 10
34.52316063463076
 20
-0.7465216475440002
 30
0.0
 11
34.48816063463073
 21
-0.7465216475440002
 31
0.0
  0
ARC
  5
142
330
2
100
AcDbEntity
  8
GAIKEI
  6
Continuous
 62
     1
100
AcDbCircle
 10
34.56116528463076
 20
-0.7975375975440784
 30
0.0
 40
0.05
100
AcDbArc
 50
16.25702800000541
 51
84.99999899997805
  0
ARC
  5
143
330
2
100
AcDbEntity
  8
GAIKEI
  6
Continuous
 62
     1
100
AcDbCircle
 10
34.56116528463076
 20
-0.9655056975440174
 30
0.0
 40
0.05
100
AcDbArc
 50
275.0000010000219
 51
343.7429719999946
  0
ARC
  5
144
330
2
100
AcDbEntity
  8
GAIKEI
  6
Continuous
 62
     1
100
AcDbCircle
 10
34.27316063463076
 20
-0.881521647543991
 30
0.0
 40
0.35
100
AcDbArc
 50
343.7429719999946
 51
0.0
  0
ARC
  5
145
330
2
100
AcDbEntity
  8
GAIKEI
  6
Continuous
 62
     1
100
AcDbCircle
 10
34.27316063463076
 20
-0.881521647543991
 30
0.0
 40
0.35
100
AcDbArc
 50
0.0
 51
16.25702800000541
  0
LINE
  5
146
330
2
100
AcDbEntity
  8
GAIKEI
  6
Continuous
 62
     1
100
AcDbLine
 10
32.49618273463074
 20
3.801815502455951
 30
0.0
 11
32.49618273463074
 21
4.535141202455974
 31
0.0
  0
LINE
  5
147
330
2
100
AcDbEntity
  8
GAIKEI
  6
Continuous
 62
     1
100
AcDbLine
 10
32.49618273463074
 20
22.92912563811683
 30
0.0
 11
32.49618273463074
 21
23.66245133811685
 31
0.0
  0
LINE
  5
148
330
2
100
AcDbEntity
  8
GAIKEI
  6
Continuous
 62
     1
100
AcDbLine
 10
33.98693403463074
 20
23.98705643811695
 30
0.0
 11
33.98693403463074
 21
1.259388202455966
 31
0.0
  0
LINE
  5
149
330
2
100
AcDbEntity
  8
GAIKEI
  6
Continuous
 62
     1
100
AcDbLine
 10
34.00417488463074
 20
0.7240711524559629
 30
0.0
 11
34.06711648463073
 21
0.6490603024559505
 31
0.0
  0
LINE
  5
14A
330
2
100
AcDbEntity
  8
GAIKEI
  6
Continuous
 62
     1
100
AcDbLine
 10
34.06711648463073
 20
0.6490603024559505
 30
0.0
 11
34.06711648463073
 21
-1.534291847543954
 31
0.0
  0
LINE
  5
14B
330
2
100
AcDbEntity
  8
GAIKEI
  6
Continuous
 62
     1
100
AcDbLine
 10
34.06711648463073
 20
-1.534291847543954
 30
0.0
 11
32.36066063463079
 21
-2.155391018497198
 31
0.0
  0
LINE
  5
14C
330
2
100
AcDbEntity
  8
GAIKEI
  6
Continuous
 62
     7
100
AcDbLine
 10
32.57462453463074
 20
30.51108253811686
 30
0.0
 11
32.42118273463075
 21
30.54369758811686
 31
0.0
  0
LINE
  5
14D
330
2
100
AcDbEntity
  8
GAIKEI
  6
Continuous
 62
     7
100
AcDbLine
 10
32.36066063463079
 20
-2.89676908266972
 30
0.0
 11
34.29866568463075
 21
-2.191392897544005
 31
0.0
  0
LINE
  5
14E
330
2
100
AcDbEntity
  8
GAIKEI
  6
Continuous
 62
     7
100
AcDbLine
 10
34.46316063463076
 20
-1.956469747544019
 30
0.0
 11
34.46316063463076
 21
0.9278370024560445
 31
0.0
  0
LINE
  5
14F
330
2
100
AcDbEntity
  8
GAIKEI
  6
Continuous
 62
     1
100
AcDbLine
 10
34.29565838463077
 20
24.80720718811688
 30
0.0
 11
34.15234908463072
 21
24.5595969381169
 31
0.0
  0
LINE
  5
150
330
2
100
AcDbEntity
  8
GAIKEI
  6
Continuous
 62
     7
100
AcDbLine
 10
34.51322763463077
 20
1.829108002455996
 30
0.0
 11
34.46072763463076
 21
1.785055252456004
 31
0.0
  0
LINE
  5
151
330
2
100
AcDbEntity
  8
GAIKEI
  6
Continuous
 62
     7
100
AcDbLine
 10
34.46072763463076
 20
1.785055252456004
 30
0.0
 11
34.46072763463076
 21
0.9278370024560445
 31
0.0
  0
LINE
  5
152
330
2
100
AcDbEntity
  8
GAIKEI
  6
Continuous
 62
     1
100
AcDbLine
 10
34.46316063463076
 20
0.7395767024560201
 30
0.0
 11
34.46316063463076
 21
0.7400528524559605
 31
0.0
  0
LINE
  5
153
330
2
100
AcDbEntity
  8
GAIKEI
  6
Continuous
 62
     7
100
AcDbLine
 10
32.61791213463073
 20
30.50188143811693
 30
0.0
 11
32.57418828463074
 21
30.51117523811695
 31
0.0
  0
LINE
  5
154
330
2
100
AcDbEntity
  8
GAIKEI
  6
Continuous
 62
     1
100
AcDbLine
 10
34.39648763463072
 20
26.33137568811685
 30
0.0
 11
34.39648763463072
 21
25.39467443811691
 31
0.0
  0
LINE
  5
155
330
2
100
AcDbEntity
  8
GAIKEI
  6
Continuous
 62
     7
100
AcDbLine
 10
33.96943403463069
 20
30.21460663811695
 30
0.0
 11
33.97318553463072
 21
30.21355698811692
 31
0.0
  0
LINE
  5
156
330
2
100
AcDbEntity
  8
GAIKEI
  6
Continuous
 62
     7
100
AcDbLine
 10
33.96943403463069
 20
30.21460663811695
 30
0.0
 11
32.61791213463073
 21
30.50188143811693
 31
0.0
  0
LINE
  5
157
330
2
100
AcDbEntity
  8
GAIKEI
  6
Continuous
 62
     1
100
AcDbLine
 10
34.46072763463076
 20
0.9278370024560445
 30
0.0
 11
34.46316063463076
 21
0.9278370024560445
 31
0.0
  0
LINE
  5
158
330
2
100
AcDbEntity
  8
GAIKEI
  6
Continuous
 62
     7
100
AcDbLine
 10
33.97382088463075
 20
30.21363288811688
 30
0.0
 11
33.97311538463077
 21
30.21358773811687
 31
0.0
  0
LINE
  5
159
330
2
100
AcDbEntity
  8
GAIKEI
  6
Continuous
 62
     7
100
AcDbLine
 10
34.25543933463075
 20
29.3615182381169
 30
0.0
 11
34.1650231346307
 21
30.00486298811689
 31
0.0
  0
LINE
  5
15A
330
2
100
AcDbEntity
  8
GAIKEI
  6
Continuous
 62
     7
100
AcDbLine
 10
34.51316583463074
 20
27.52769913811687
 30
0.0
 11
34.25543933463075
 21
29.3615182381169
 31
0.0
  0
LINE
  5
15B
330
2
100
AcDbEntity
  8
GAIKEI
  6
Continuous
 62
     1
100
AcDbLine
 10
34.51566063463076
 20
27.50697753811687
 30
0.0
 11
34.51566063463076
 21
27.50994763811696
 31
0.0
  0
LINE
  5
15C
330
2
100
AcDbEntity
  8
GAIKEI
  6
Continuous
 62
     1
100
AcDbLine
 10
34.51566063463076
 20
27.50994763811696
 30
0.0
 11
34.51316583463074
 21
27.52769913811687
 31
0.0
  0
LINE
  5
15D
330
2
100
AcDbEntity
  8
GAIKEI
  6
Continuous
 62
     7
100
AcDbLine
 10
34.51566063463076
 20
1.816721352455942
 30
0.0
 11
34.51566063463076
 21
27.50697753811687
 31
0.0
  0
LINE
  5
15E
330
2
100
AcDbEntity
  8
GAIKEI
  6
Continuous
 62
     7
100
AcDbLine
 10
34.51566063463076
 20
1.782483252456017
 30
0.0
 11
34.51566063463076
 21
1.816721352455942
 31
0.0
  0
LINE
  5
15F
330
2
100
AcDbEntity
  8
GAIKEI
  6
Continuous
 62
     1
100
AcDbLine
 10
34.46316063463076
 20
-1.681521647544059
 30
0.0
 11
34.46316063463076
 21
-1.531521647543968
 31
0.0
  0
LINE
  5
160
330
2
100
AcDbEntity
  8
GAIKEI
  6
Continuous
 62
     1
100
AcDbLine
 10
34.46316063463076
 20
-1.681521647544059
 30
0.0
 11
34.46316063463076
 21
-1.731521647544013
 31
0.0
  0
LINE
  5
161
330
2
100
AcDbEntity
  8
GAIKEI
  6
Continuous
 62
     1
100
AcDbLine
 10
32.5353881346307
 20
-3.35765849754398
 30
0.0
 11
32.56507663463072
 21
-3.356102597544008
 31
0.0
  0
LINE
  5
162
330
2
100
AcDbEntity
  8
GAIKEI
  6
Continuous
 62
     1
100
AcDbLine
 10
32.56507663463072
 20
-3.356102597544008
 30
0.0
 11
33.80575378463073
 21
-3.291081447544002
 31
0.0
  0
LINE
  5
163
330
2
100
AcDbEntity
  8
GAIKEI
  6
Continuous
 62
     1
100
AcDbLine
 10
34.51566063463076
 20
25.47794578811693
 30
0.0
 11
34.51566063463076
 21
25.94697998811694
 31
0.0
  0
LINE
  5
164
330
2
100
AcDbEntity
  8
GAIKEI
  6
Continuous
 62
     1
100
AcDbLine
 10
34.51566063463076
 20
27.50994338811688
 30
0.0
 11
34.51566063463076
 21
27.50994763811696
 31
0.0
  0
LINE
  5
165
330
2
100
AcDbEntity
  8
GAIKEI
  6
Continuous
 62
     1
100
AcDbLine
 10
34.51566063463076
 20
25.94697998811694
 30
0.0
 11
34.51566063463076
 21
27.50994338811688
 31
0.0
  0
LINE
  5
166
330
2
100
AcDbEntity
  8
GAIKEI
  6
Continuous
 62
     1
100
AcDbLine
 10
32.4600766346307
 20
-3.361605397544053
 30
0.0
 11
32.5353881346307
 21
-3.35765849754398
 31
0.0
  0
LINE
  5
167
330
2
100
AcDbEntity
  8
GAIKEI
  6
Continuous
 62
     1
100
AcDbLine
 10
34.3506606346308
 20
-2.716869447544013
 30
0.0
 11
34.3506606346308
 21
-2.331521647544036
 31
0.0
  0
LINE
  5
168
330
2
100
AcDbEntity
  8
GAIKEI
  6
Continuous
 62
     1
100
AcDbLine
 10
34.51566063463076
 20
27.50994338811688
 30
0.0
 11
34.51566063463076
 21
27.50994763811696
 31
0.0
  0
LINE
  5
169
330
2
100
AcDbEntity
  8
GAIKEI
  6
Continuous
 62
     1
100
AcDbLine
 10
34.51566063463076
 20
25.94697998811694
 30
0.0
 11
34.51566063463076
 21
27.50994338811688
 31
0.0
  0
LINE
  5
16A
330
2
100
AcDbEntity
  8
GAIKEI
  6
Continuous
 62
     1
100
AcDbLine
 10
34.51566063463076
 20
1.948065452455921
 30
0.0
 11
34.51566063463076
 21
1.952674352456028
 31
0.0
  0
LINE
  5
16B
330
2
100
AcDbEntity
  8
GAIKEI
  6
Continuous
 62
     1
100
AcDbLine
 10
34.51566063463076
 20
1.790745102455957
 30
0.0
 11
34.51566063463076
 21
1.948065452455921
 31
0.0
  0
LINE
  5
16C
330
2
100
AcDbEntity
  8
GAIKEI
  6
Continuous
 62
     1
100
AcDbLine
 10
34.51566063463076
 20
1.952674352456028
 30
0.0
 11
34.51566063463076
 21
3.049430202456051
 31
0.0
  0
LINE
  5
16D
330
2
100
AcDbEntity
  8
GAIKEI
  6
Continuous
 62
     1
100
AcDbLine
 10
34.51566063463076
 20
25.05657138811694
 30
0.0
 11
34.51566063463076
 21
25.51581683811696
 31
0.0
  0
LINE
  5
16E
330
2
100
AcDbEntity
  8
GAIKEI
  6
Continuous
 62
     1
100
AcDbLine
 10
34.51566063463076
 20
25.01345048811686
 30
0.0
 11
34.51566063463076
 21
25.05657138811694
 31
0.0
  0
LINE
  5
16F
330
2
100
AcDbEntity
  8
GAIKEI
  6
Continuous
 62
     1
100
AcDbLine
 10
34.51566063463076
 20
1.790745102455957
 30
0.0
 11
34.51566063463076
 21
1.948065452455921
 31
0.0
  0
LINE
  5
170
330
2
100
AcDbEntity
  8
GAIKEI
  6
Continuous
 62
     1
100
AcDbLine
 10
34.51566063463076
 20
1.952674352456028
 30
0.0
 11
34.51566063463076
 21
3.049430202456051
 31
0.0
  0
ARC
  5
171
330
2
100
AcDbEntity
  8
GAIKEI
  6
Continuous
 62
     7
100
AcDbCircle
 10
32.47316063463074
 20
30.78823448811693
 30
0.0
 40
0.25
100
AcDbArc
 50
243.2563160000013
 51
257.9999999999834
  0
ARC
  5
172
330
2
100
AcDbEntity
  8
GAIKEI
  6
Continuous
 62
     7
100
AcDbCircle
 10
34.21316063463076
 20
-1.956469747544019
 30
0.0
 40
0.25
100
AcDbArc
 50
289.9999999999963
 51
0.0
  0
ARC
  5
173
330
2
100
AcDbEntity
  8
GAIKEI
  6
Continuous
 62
     7
100
AcDbCircle
 10
33.91745613463076
 20
29.97006973811688
 30
0.0
 40
0.25
100
AcDbArc
 50
7.999999999984337
 51
76.97098900001984
  0
ARC
  5
174
330
2
100
AcDbEntity
  8
GAIKEI
  6
Continuous
 62
     1
100
AcDbCircle
 10
34.36566063463073
 20
1.782483252456017
 30
0.0
 40
0.15
100
AcDbArc
 50
317.5189609999845
 51
0.0
  0
ARC
  5
175
330
2
100
AcDbEntity
  8
GAIKEI
  6
Continuous
 62
     1
100
AcDbCircle
 10
34.51316063463077
 20
1.647414202456047
 30
0.0
 40
0.05
100
AcDbArc
 50
137.5189609999845
 51
180.0
  0
ARC
  5
176
330
2
100
AcDbEntity
  8
GAIKEI
  6
Continuous
 62
     1
100
AcDbCircle
 10
34.51316063463077
 20
1.647399052455966
 30
0.0
 40
0.05
100
AcDbArc
 50
137.5188869999826
 51
180.0
  0
ARC
  5
177
330
2
100
AcDbEntity
  8
GAIKEI
  6
Continuous
 62
     1
100
AcDbCircle
 10
34.36566063463073
 20
1.782468502456026
 30
0.0
 40
0.15
100
AcDbArc
 50
317.5188869999826
 51
0.0
  0
ARC
  5
178
330
2
100
AcDbEntity
  8
GAIKEI
  6
Continuous
 62
     1
100
AcDbCircle
 10
32.47316063463074
 20
-3.611262797543986
 30
0.0
 40
0.25
100
AcDbArc
 50
101.6320759999917
 51
116.7436839999986
  0
ARC
  5
179
330
2
100
AcDbEntity
  8
GAIKEI
  6
Continuous
 62
     1
100
AcDbCircle
 10
33.91745613463076
 20
29.97006973811688
 30
0.0
 40
0.25
100
AcDbArc
 50
7.999999999984337
 51
9.618225999996282
  0
ARC
  5
17A
330
2
100
AcDbEntity
  8
GAIKEI
  6
Continuous
 62
     1
100
AcDbCircle
 10
32.47316063463074
 20
-3.611262797543986
 30
0.0
 40
0.25
100
AcDbArc
 50
93.00000000000558
 51
101.6320759999917
  0
ARC
  5
17B
330
2
100
AcDbEntity
  8
GAIKEI
  6
Continuous
 62
     1
100
AcDbCircle
 10
33.77566063463075
 20
-2.716869447544013
 30
0.0
 40
0.5750000000000001
100
AcDbArc
 50
273.0000000000056
 51
0.0
  0
ELLIPSE
  5
17C
330
2
100
AcDbEntity
  8
GAIKEI
  6
Continuous
 62
     1
100
AcDbEllipse
 10
33.77566063463075
 20
-2.716869447544013
 30
0.0
 11
-0.5749999999999888
 21
0.0000000000000021
 31
0.0
210
0.0
220
0.0
230
1.0
 40
0.3583520000000866
 41
2.345160897092421
 42
3.141592653589802
  0
LINE
  5
17D
330
2
100
AcDbEntity
  8
GAIKEI
  6
Continuous
 62
     1
100
AcDbLine
 10
32.26066063463077
 20
31.46106258811688
 30
0.0
 11
30.28522703463074
 21
31.35818698811693
 31
0.0
  0
LINE
  5
17E
330
2
100
AcDbEntity
  8
GAIKEI
  6
Continuous
 62
     1
100
AcDbLine
 10
32.26066063463077
 20
31.46106258811688
 30
0.0
 11
32.26066063463077
 21
-4.331795747543992
 31
0.0
  0
LINE
  5
17F
330
2
100
AcDbEntity
  8
GAIKEI
  6
Continuous
 62
     1
100
AcDbLine
 10
30.28522703463074
 20
-4.228920147544044
 30
0.0
 11
32.26066063463077
 21
-4.331795747543992
 31
0.0
  0
LINE
  5
180
330
2
100
AcDbEntity
  8
GAIKEI
  6
Continuous
 62
     1
100
AcDbLine
 10
30.28522703463074
 20
31.35818698811693
 30
0.0
 11
30.28522703463074
 21
-4.42864604754402
 31
0.0
  0
LINE
  5
181
330
2
100
AcDbEntity
  8
GAIKEI
  6
Continuous
 62
     7
100
AcDbLine
 10
30.28522703463074
 20
31.5579128881169
 30
0.0
 11
32.26066063463077
 21
31.66078848811685
 31
0.0
  0
LINE
  5
182
330
2
100
AcDbEntity
  8
GAIKEI
  6
Continuous
 62
     1
100
AcDbLine
 10
32.26066063463077
 20
31.66078848811685
 30
0.0
 11
32.26066063463077
 21
31.46106258811688
 31
0.0
  0
LINE
  5
183
330
2
100
AcDbEntity
  8
GAIKEI
  6
Continuous
 62
     7
100
AcDbLine
 10
32.26066063463077
 20
-4.531521647543968
 30
0.0
 11
30.28522703463074
 21
-4.42864604754402
 31
0.0
  0
LINE
  5
184
330
2
100
AcDbEntity
  8
GAIKEI
  6
Continuous
 62
     1
100
AcDbLine
 10
32.26066063463077
 20
-4.331795747543992
 30
0.0
 11
32.26066063463077
 21
-4.531521647543968
 31
0.0
  0
LINE
  5
185
330
2
100
AcDbEntity
  8
GAIKEI
  6
Continuous
 62
     7
100
AcDbLine
 10
32.26066063463077
 20
31.65078848811686
 30
0.0
 11
32.33783953463075
 21
31.64403618811685
 31
0.0
  0
LINE
  5
186
330
2
100
AcDbEntity
  8
GAIKEI
  6
Continuous
 62
     1
100
AcDbLine
 10
32.33783953463075
 20
31.44479728811689
 30
0.0
 11
32.26066063463077
 21
31.45154953811687
 31
0.0
  0
LINE
  5
187
330
2
100
AcDbEntity
  8
GAIKEI
  6
Continuous
 62
     7
100
AcDbLine
 10
32.33783953463075
 20
-4.51476934754396
 30
0.0
 11
32.26066063463077
 21
-4.521521647543977
 31
0.0
  0
LINE
  5
188
330
2
100
AcDbEntity
  8
GAIKEI
  6
Continuous
 62
     7
100
AcDbLine
 10
32.36066063463079
 20
31.44479728811689
 30
0.0
 11
32.36066063463079
 21
-4.489864497543976
 31
0.0
  0
LINE
  5
189
330
2
100
AcDbEntity
  8
GAIKEI
  6
Continuous
 62
     1
100
AcDbLine
 10
32.36066063463079
 20
31.44479728811689
 30
0.0
 11
32.33783953463075
 21
31.44479728811689
 31
0.0
  0
LINE
  5
18A
330
2
100
AcDbEntity
  8
GAIKEI
  6
Continuous
 62
     7
100
AcDbLine
 10
32.36066063463079
 20
31.61913133811686
 30
0.0
 11
32.36066063463079
 21
31.44479728811689
 31
0.0
  0
LINE
  5
18B
330
2
100
AcDbEntity
  8
GAIKEI
  6
Continuous
 62
     1
100
AcDbLine
 10
30.22726883463076
 20
-4.396121497544072
 30
0.0
 11
30.22726883463076
 21
31.32764923811692
 31
0.0
  0
LINE
  5
18C
330
2
100
AcDbEntity
  8
GAIKEI
  6
Continuous
 62
     7
100
AcDbLine
 10
30.22726883463076
 20
-4.396121497544072
 30
0.0
 11
30.07195503463072
 21
-4.169292447543966
 31
0.0
  0
LINE
  5
18D
330
2
100
AcDbEntity
  8
GAIKEI
  6
Continuous
 62
     7
100
AcDbLine
 10
30.07195503463072
 20
31.29855928811685
 30
0.0
 11
30.22726883463076
 21
31.52538833811684
 31
0.0
  0
LINE
  5
18E
330
2
100
AcDbEntity
  8
GAIKEI
  6
Continuous
 62
     1
100
AcDbLine
 10
30.22726883463076
 20
31.32764923811692
 30
0.0
 11
30.07195503463072
 21
31.10082018811693
 31
0.0
  0
LINE
  5
18F
330
2
100
AcDbEntity
  8
GAIKEI
  6
Continuous
 62
     7
100
AcDbLine
 10
30.06321063463076
 20
-4.141043997543988
 30
0.0
 11
30.06321063463076
 21
31.10082018811693
 31
0.0
  0
LINE
  5
190
330
2
100
AcDbEntity
  8
GAIKEI
  6
Continuous
 62
     7
100
AcDbLine
 10
30.06321063463076
 20
31.10082018811693
 30
0.0
 11
30.07195503463072
 21
31.10082018811693
 31
0.0
  0
LINE
  5
191
330
2
100
AcDbEntity
  8
GAIKEI
  6
Continuous
 62
     7
100
AcDbLine
 10
30.06321063463076
 20
31.27031083811687
 30
0.0
 11
30.06321063463076
 21
31.10082018811693
 31
0.0
  0
ARC
  5
192
330
2
100
AcDbEntity
  8
GAIKEI
  6
Continuous
 62
     7
100
AcDbCircle
 10
32.33566063463076
 20
-4.489864497543976
 30
0.0
 40
0.025
100
AcDbArc
 50
275.0000000000228
 51
0.0
  0
ARC
  5
193
330
2
100
AcDbEntity
  8
GAIKEI
  6
Continuous
 62
     7
100
AcDbCircle
 10
32.33566063463076
 20
31.61913133811686
 30
0.0
 40
0.025
100
AcDbArc
 50
0.0
 51
84.99999999997722
  0
ARC
  5
194
330
2
100
AcDbEntity
  8
GAIKEI
  6
Continuous
 62
     7
100
AcDbCircle
 10
30.28915223463076
 20
-4.353748797543971
 30
0.0
 40
0.075
100
AcDbArc
 50
214.4001229999906
 51
266.9999999999944
  0
ARC
  5
195
330
2
100
AcDbEntity
  8
GAIKEI
  6
Continuous
 62
     7
100
AcDbCircle
 10
30.28915223463076
 20
31.48301563811685
 30
0.0
 40
0.075
100
AcDbArc
 50
93.00000000000558
 51
145.5998770000094
  0
ARC
  5
196
330
2
100
AcDbEntity
  8
GAIKEI
  6
Continuous
 62
     7
100
AcDbCircle
 10
30.11321063463078
 20
31.27031083811687
 30
0.0
 40
0.05
100
AcDbArc
 50
145.5998770000094
 51
180.0
  0
ARC
  5
197
330
2
100
AcDbEntity
  8
GAIKEI
  6
Continuous
 62
     7
100
AcDbCircle
 10
30.11321063463078
 20
-4.141043997543988
 30
0.0
 40
0.05
100
AcDbArc
 50
180.0
 51
214.4001229999906
  0
LINE
  5
198
330
2
100
AcDbEntity
  8
GAIKEI
  6
Continuous
 62
     1
100
AcDbLine
 10
32.55761928463073
 20
31.05473943811683
 30
0.0
 11
32.36066063463079
 21
31.02705868811688
 31
0.0
  0
LINE
  5
199
330
2
100
AcDbEntity
  8
GAIKEI
  6
Continuous
 62
     1
100
AcDbLine
 10
32.50649253463075
 20
31.22744743811689
 30
0.0
 11
32.50066063463078
 21
31.16078848811685
 31
0.0
  0
LINE
  5
19A
330
2
100
AcDbEntity
  8
GAIKEI
  6
Continuous
 62
     1
100
AcDbLine
 10
32.50066063463078
 20
31.16078848811685
 30
0.0
 11
32.46879923463075
 21
31.16078848811685
 31
0.0
  0
LINE
  5
19B
330
2
100
AcDbEntity
  8
GAIKEI
  6
Continuous
 62
     1
100
AcDbLine
 10
32.47315713463076
 20
31.22506943811686
 30
0.0
 11
32.50643708463076
 21
31.22681353811686
 31
0.0
  0
LINE
  5
19C
330
2
100
AcDbEntity
  8
GAIKEI
  6
Continuous
 62
     1
100
AcDbLine
 10
32.51085898463077
 20
31.27735598811694
 30
0.0
 11
32.55153323463077
 21
31.27664598811691
 31
0.0
  0
LINE
  5
19D
330
2
100
AcDbEntity
  8
GAIKEI
  6
Continuous
 62
     1
100
AcDbLine
 10
32.50649253463075
 20
31.22744743811689
 30
0.0
 11
32.51085898463077
 21
31.27735598811694
 31
0.0
  0
LINE
  5
19E
330
2
100
AcDbEntity
  8
GAIKEI
  6
Continuous
 62
     1
100
AcDbLine
 10
32.6006606346308
 20
31.22665363811689
 30
0.0
 11
32.6006606346308
 21
31.10425283811685
 31
0.0
  0
ARC
  5
19F
330
2
100
AcDbEntity
  8
GAIKEI
  6
Continuous
 62
     1
100
AcDbCircle
 10
32.55066063463073
 20
31.10425283811685
 30
0.0
 40
0.05
100
AcDbArc
 50
277.9999999999843
 51
0.0
  0
ARC
  5
1A0
330
2
100
AcDbEntity
  8
GAIKEI
  6
Continuous
 62
     1
100
AcDbCircle
 10
32.55066063463073
 20
31.22665363811689
 30
0.0
 40
0.05
100
AcDbArc
 50
0.0
 51
89.00000000002432
  0
SPLINE
  5
1A1
330
2
100
AcDbEntity
  8
GAIKEI
  6
Continuous
 62
     1
100
AcDbSpline
210
0.0
220
0.0
230
1.0
 70
     8
 71
     3
 72
    23
 73
    19
 74
    17
 42
0.0000000001
 43
0.0000000001
 44
0.000001
 12
-0.0195855615079534
 22
0.9998081844936148
 32
0.0
 13
-0.1708806009777295
 23
0.9852917437030972
 33
0.0
 40
0.0
 40
0.0
 40
0.0
 40
0.0
 40
0.0246422057409199
 40
0.0561693393133863
 40
0.094635283471991
 40
0.1238383489245241
 40
0.15607741030752
 40
0.1637317308166684
 40
0.1715387786614525
 40
0.1794984554017576
 40
0.1876106488051613
 40
0.1958752329952508
 40
0.2042920686457121
 40
0.2128610032233838
 40
0.2387981685051535
 40
0.2711882160498587
 40
0.310038769938165
 40
0.3553446180978698
 40
0.3553446180978698
 40
0.3553446180978698
 40
0.3553446180978698
 10
32.42401815623293
 20
29.69950704235476
 30
0.0
 10
32.42385727908752
 20
29.70771953534933
 30
0.0
 10
32.42313860715893
 20
29.72643702027836
 30
0.0
 10
32.42019750682298
 20
29.75785581082357
 30
0.0
 10
32.41620799615086
 20
29.79068122874219
 30
0.0
 10
32.41158008471749
 20
29.8236619737811
 30
0.0
 10
32.40813309629118
 20
29.84643500896993
 30
0.0
 10
32.40568018456528
 20
29.86214480875185
 30
0.0
 10
32.40446333945957
 20
29.86985641257269
 30
0.0
 10
32.40321122249213
 20
29.87771695311676
 30
0.0
 10
32.40192465426389
 20
29.88572643362409
 30
0.0
 10
32.40060446710393
 20
29.89388484735332
 30
0.0
 10
32.39925174258596
 20
29.90219221924588
 30
0.0
 10
32.39693944592705
 20
29.91631178018412
 30
0.0
 10
32.39331367529258
 20
29.93831376447133
 30
0.0
 10
32.3879460521172
 20
29.97025861357144
 30
0.0
 10
32.38137417166419
 20
30.00854756318847
 30
0.0
 10
32.3766064016622
 20
30.0361915621944
 30
0.0
 10
32.37402577147509
 20
30.05107138823883
 30
0.0
 11
32.42401815623293
 21
29.69950704235476
 31
0.0
 11
32.42302804089252
 21
29.72412947079192
 31
0.0
 11
32.42028235546195
 21
29.75553674788932
 31
0.0
 11
32.41570100534421
 21
29.79372887364718
 31
0.0
 11
32.41167023606681
 21
29.82265241674361
 31
0.0
 11
32.40686561231127
 21
29.8545314399164
 31
0.0
 11
32.40568502301085
 21
29.86209416457916
 31
0.0
 11
32.40446841081689
 21
29.86980583263608
 31
0.0
 11
32.40321652607395
 21
29.87766644408714
 31
0.0
 11
32.40193017938816
 21
29.88567599893224
 31
0.0
 11
32.40061024216334
 21
29.8938344971715
 31
0.0
 11
32.39925764705504
 21
29.90214193880479
 31
0.0
 11
32.39787338833731
 21
29.91059832383223
 31
0.0
 11
32.3936504835225
 21
29.93618940671911
 31
0.0
 11
32.38828491404161
 21
29.96813194508252
 31
0.0
 11
32.38173242119728
 21
30.00642593892246
 31
0.0
 11
32.37402577147509
 21
30.05107138823883
 31
0.0
  0
SPLINE
  5
1A2
330
2
100
AcDbEntity
  8
GAIKEI
  6
Continuous
 62
     1
100
AcDbSpline
210
0.0
220
0.0
230
1.0
 70
     8
 71
     3
 72
    13
 73
     9
 74
     7
 42
0.0000000001
 43
0.0000000001
 44
0.000001
 12
0.1686465211669663
 22
0.9856765954907725
 32
0.0
 13
0.1366868105490227
 23
0.9906143123445854
 33
0.0
 40
0.0
 40
0.0
 40
0.0
 40
0.0
 40
0.0148768856753216
 40
0.0303404718420872
 40
0.0467491639371618
 40
0.0635503078503974
 40
0.0820032027515653
 40
0.1007849331553344
 40
0.1007849331553344
 40
0.1007849331553344
 40
0.1007849331553344
 10
33.71819137501927
 20
24.82059743958302
 30
0.0
 10
33.71902768669091
 20
24.82548537225767
 30
0.0
 10
33.7207523766958
 20
24.8354508163556
 30
0.0
 10
33.72352869177934
 20
24.85078461224328
 30
0.0
 10
33.72637775302732
 20
24.86675700519089
 30
0.0
 10
33.72929251325499
 20
24.88372967030091
 30
0.0
 10
33.73214045119215
 20
24.90151555397665
 30
0.0
 10
33.73392394155195
 20
24.91379882258593
 30
0.0
 10
33.73477967982712
 20
24.9200006395688
 30
0.0
 11
33.71819137501927
 21
24.82059743958302
 31
0.0
 11
33.72073850484969
 21
24.83525444291638
 31
0.0
 11
33.72346713928482
 21
24.8504755470077
 31
0.0
 11
33.72633860937572
 21
24.86663103920546
 31
0.0
 11
33.72917056012625
 21
24.88319179316716
 31
0.0
 11
33.73208014833074
 21
24.9014138631029
 31
0.0
 11
33.73477967982712
 21
24.9200006395688
 31
0.0
  0
SPLINE
  5
1A3
330
2
100
AcDbEntity
  8
GAIKEI
  6
Continuous
 62
     1
100
AcDbSpline
210
0.0
220
0.0
230
1.0
 70
     8
 71
     3
 72
    13
 73
     9
 74
     7
 42
0.0000000001
 43
0.0000000001
 44
0.000001
 12
0.1358537149050929
 22
0.9907289074951259
 32
0.0
 13
0.1028701000007821
 23
0.9946947986824044
 33
0.0
 40
0.0
 40
0.0
 40
0.0
 40
0.0
 40
0.0167629848690631
 40
0.0334123275051443
 40
0.0503098774187991
 40
0.0668410117253159
 40
0.0842373612998076
 40
0.1010541529109475
 40
0.1010541529109475
 40
0.1010541529109475
 40
0.1010541529109475
 10
33.90026772870465
 20
26.12333516640649
 30
0.0
 10
33.90102683329377
 20
26.1288710243017
 30
0.0
 10
33.90246987672436
 20
26.13991494475192
 30
0.0
 10
33.90443241391503
 20
26.15657008752788
 30
0.0
 10
33.90619240099483
 20
26.173170004572
 30
0.0
 10
33.90785147040205
 20
26.19003032144099
 30
0.0
 10
33.90943480031592
 20
26.20687086989631
 30
0.0
 10
33.9105885346317
 20
26.21821684191934
 30
0.0
 10
33.91116518297662
 20
26.22379270030137
 30
0.0
 11
33.90026772870465
 21
26.12333516640649
 31
0.0
 11
33.90244062905936
 21
26.13995678752167
 31
0.0
 11
33.90439180040414
 21
26.15649140824792
 31
0.0
 11
33.9061849052672
 21
26.17329355468735
 31
0.0
 11
33.90781262215495
 21
26.18974436422775
 31
0.0
 11
33.90947563303451
 21
26.20706170208462
 31
0.0
 11
33.91116518297662
 21
26.22379270030137
 31
0.0
  0
SPLINE
  5
1A4
330
2
100
AcDbEntity
  8
GAIKEI
  6
Continuous
 62
     1
100
AcDbSpline
210
0.0
220
0.0
230
1.0
 70
     8
 71
     3
 72
    13
 73
     9
 74
     7
 42
0.0000000001
 43
0.0000000001
 44
0.000001
 12
-0.1367026333584174
 22
0.9906121289550588
 32
0.0
 13
-0.1693098136655528
 23
0.9855628782561444
 33
0.0
 40
0.0
 40
0.0
 40
0.0
 40
0.0
 40
0.0167469922486499
 40
0.0333773442702713
 40
0.0502571168680878
 40
0.0667711030724864
 40
0.0840636332563481
 40
0.1007849533910364
 40
0.1007849533910364
 40
0.1007849533910364
 40
0.1007849533910364
 10
33.73477967982712
 20
29.49171671179806
 30
0.0
 10
33.73401656051337
 20
29.4972466363464
 30
0.0
 10
33.73242498918006
 20
29.50825836253216
 30
0.0
 10
33.72981540583112
 20
29.5248066544375
 30
0.0
 10
33.7270277258387
 20
29.54124696061933
 30
0.0
 10
33.72407963455851
 20
29.55788325773227
 30
0.0
 10
33.72107578010463
 20
29.57445588881973
 30
0.0
 10
33.71913506955136
 20
29.58562660765045
 30
0.0
 10
33.71819137501927
 20
29.59111991178384
 30
0.0
 11
33.73477967982712
 21
29.49171671179806
 31
0.0
 11
33.73238477397422
 21
29.50829164315712
 31
0.0
 11
33.72979795454501
 21
29.52471958120282
 31
0.0
 11
33.72698752668055
 21
29.5413637509871
 31
0.0
 11
33.72411551804157
 21
29.55762608560667
 31
0.0
 11
33.72106229188398
 21
29.57464760104074
 31
0.0
 11
33.71819137501927
 21
29.59111991178384
 31
0.0
  0
SPLINE
  5
1A5
330
2
100
AcDbEntity
  8
GAIKEI
  6
Continuous
 62
     1
100
AcDbSpline
210
0.0
220
0.0
230
1.0
 70
     8
 71
     3
 72
    11
 73
     7
 74
     5
 42
0.0000000001
 43
0.0000000001
 44
0.000001
 12
0.0263247353920106
 22
0.9996534441027755
 32
0.0
 13
0.1800564184768131
 23
0.9836562845655503
 33
0.0
 40
0.0
 40
0.0
 40
0.0
 40
0.0
 40
0.0222209517494263
 40
0.0388462874323282
 40
0.049882048448065
 40
0.0553514638909737
 40
0.0553514638909737
 40
0.0553514638909737
 40
0.0553514638909737
 10
32.42401815623293
 20
24.71221030901211
 30
0.0
 10
32.42421314312458
 20
24.71961472599463
 30
0.0
 10
32.4246371998608
 20
24.73255977032386
 30
0.0
 10
32.42546147456653
 20
24.74915924013442
 30
0.0
 10
32.42600104984834
 20
24.76020473092984
 30
0.0
 10
32.42687641700508
 20
24.76564228518839
 30
0.0
 10
32.42720468479035
 20
24.76743562681281
 30
0.0
 11
32.42401815623293
 21
24.71221030901211
 31
0.0
 11
32.42477055868824
 21
24.73441841380918
 31
0.0
 11
32.4255524475995
 21
24.75102533504162
 31
0.0
 11
32.42636382296689
 21
24.76203107270953
 31
0.0
 11
32.42720468479035
 21
24.76743562681281
 31
0.0
  0
SPLINE
  5
1A6
330
2
100
AcDbEntity
  8
GAIKEI
  6
Continuous
 62
     1
100
AcDbSpline
210
0.0
220
0.0
230
1.0
 70
     8
 71
     3
 72
    16
 73
    12
 74
    10
 42
0.0000000001
 43
0.0000000001
 44
0.000001
 12
-0.0430768721966507
 22
0.9990717607268027
 32
0.0
 13
-0.9995301167089067
 23
0.0306520112207888
 33
0.0
 40
0.0
 40
0.0
 40
0.0
 40
0.0
 40
0.0160287203943067
 40
0.0327204960098478
 40
0.047348225372438
 40
0.059679252428639
 40
0.0695126747968542
 40
0.0767030109011102
 40
0.0811430012141333
 40
0.0828762629778445
 40
0.0829034368634637
 40
0.0829034368634637
 40
0.0829034368634637
 40
0.0829034368634637
 10
32.51888716261579
 20
25.14587847058567
 30
0.0
 10
32.51865700690249
 20
25.15121641788784
 30
0.0
 10
32.51816136191724
 20
25.16211039149244
 30
0.0
 10
32.51738320918927
 20
25.17788124153623
 30
0.0
 10
32.51656120032777
 20
25.1923859566582
 30
0.0
 10
32.51576022802695
 20
25.20468840684941
 30
0.0
 10
32.51493045864311
 20
25.21426848726628
 30
0.0
 10
32.51421866255041
 20
25.22178528170446
 30
0.0
 10
32.51337603281462
 20
25.22544311951276
 30
0.0
 10
32.51289921903643
 20
25.22827714405577
 30
0.0
 10
32.51230919160543
 20
25.22828958734374
 30
0.0
 10
32.51230013789973
 20
25.22828986498848
 30
0.0
 11
32.51888716261579
 21
25.14587847058567
 31
0.0
 11
32.51816063463093
 21
25.16189000217389
 31
0.0
 11
32.51732730129754
 21
25.17856095928562
 31
0.0
 11
32.51649396796427
 21
25.193164927505
 31
0.0
 11
32.51566063463088
 21
25.20546775673722
 31
0.0
 11
32.51482730129755
 21
25.21526579239969
 31
0.0
 11
32.51399396796421
 21
25.22240764830929
 31
0.0
 11
32.51316063463093
 21
25.22676865128437
 31
0.0
 11
32.51232730129755
 21
25.22828867550038
 31
0.0
 11
32.51230013789973
 21
25.22828986498848
 31
0.0
  0
SPLINE
  5
1A7
330
2
100
AcDbEntity
  8
GAIKEI
  6
Continuous
 62
     1
100
AcDbSpline
210
0.0
220
0.0
230
1.0
 70
     8
 71
     3
 72
    20
 73
    16
 74
    14
 42
0.0000000001
 43
0.0000000001
 44
0.000001
 12
-0.0366600883891987
 22
-0.9993277930285419
 32
0.0
 13
-0.8962567756003743
 23
-0.4435355591048144
 33
0.0
 40
0.0
 40
0.0
 40
0.0
 40
0.0
 40
0.022544148966109
 40
0.0447243509195016
 40
0.0661807098233034
 40
0.0865702989487708
 40
0.1055600249972011
 40
0.1228469656545381
 40
0.1381506161008299
 40
0.1512251988682471
 40
0.1618642916135558
 40
0.1698958897130186
 40
0.1752100305703422
 40
0.1777642420885721
 40
0.1780980751421503
 40
0.1780980751421503
 40
0.1780980751421503
 40
0.1780980751421503
 10
32.54316063463091
 20
25.05078848811684
 30
0.0
 10
32.54288514446631
 20
25.04327882323952
 30
0.0
 10
32.54233451254098
 20
25.02838088348142
 30
0.0
 10
32.5415086136519
 20
25.00633608630159
 30
0.0
 10
32.54068240241901
 20
24.98501010828795
 30
0.0
 10
32.53985765950233
 20
24.9647480260511
 30
0.0
 10
32.53903276158397
 20
24.94587820243339
 30
0.0
 10
32.53821347534853
 20
24.92870117778966
 30
0.0
 10
32.5373859417191
 20
24.91351123519138
 30
0.0
 10
32.53659646405697
 20
24.90050173058723
 30
0.0
 10
32.5357233388387
 20
24.89002952117187
 30
0.0
 10
32.53510247981217
 20
24.88187788405691
 30
0.0
 10
32.53401966692806
 20
24.87702097150986
 30
0.0
 10
32.53383359193754
 20
24.87381682324735
 30
0.0
 10
32.53297269006723
 20
24.87333860465617
 30
0.0
 10
32.5328729566885
 20
24.87328924904614
 30
0.0
 11
32.54316063463091
 21
25.05078848811684
 31
0.0
 11
32.54232730129752
 21
25.02826028250604
 31
0.0
 11
32.54149396796425
 21
25.00609574209523
 31
0.0
 11
32.54066063463091
 21
24.98465557348618
 31
0.0
 11
32.53982730129758
 21
24.96428302270465
 31
0.0
 11
32.53899396796419
 21
24.94531159263591
 31
0.0
 11
32.53816063463091
 21
24.92804475281014
 31
0.0
 11
32.53732730129758
 21
24.91276381284661
 31
0.0
 11
32.53649396796425
 21
24.89971582141482
 31
0.0
 11
32.53566063463086
 21
24.88910942730968
 31
0.0
 11
32.53482730129758
 21
24.88112120069707
 31
0.0
 11
32.53399396796425
 21
24.87587286083613
 31
0.0
 11
32.53316063463092
 21
24.87345873637548
 31
0.0
 11
32.5328729566885
 21
24.87328924904614
 31
0.0
  0
SPLINE
  5
1A8
330
2
100
AcDbEntity
  8
GAIKEI
  6
Continuous
 62
     1
100
AcDbSpline
210
0.0
220
0.0
230
1.0
 70
     8
 71
     3
 72
    18
 73
    14
 74
    12
 42
0.0000000001
 43
0.0000000001
 44
0.000001
 12
-0.5844656576229886
 22
-0.8114184463390806
 32
0.0
 13
-0.0371796361214176
 23
-0.9993085983107917
 33
0.0
 40
0.0
 40
0.0
 40
0.0
 40
0.0
 40
0.0015785755413335
 40
0.0058611200296627
 40
0.0128957152542898
 40
0.0225825394406309
 40
0.0347746564143365
 40
0.0492779510757347
 40
0.0658578569835893
 40
0.084251227785365
 40
0.1041564934095603
 40
0.1252572874194661
 40
0.1472100295646773
 40
0.1472100295646773
 40
0.1472100295646773
 40
0.1472100295646773
 10
32.51230013789973
 20
25.22828986498848
 30
0.0
 10
32.51199259683577
 20
25.22786290321744
 30
0.0
 10
32.51094318454259
 20
25.22618057752851
 30
0.0
 10
32.51063100725895
 20
25.22176477024891
 30
0.0
 10
32.50963131123706
 20
25.21490100421556
 30
0.0
 10
32.50892767719432
 20
25.20525432054893
 30
0.0
 10
32.50807957968951
 20
25.19316947614289
 30
0.0
 10
32.50727480805068
 20
25.17876192712197
 30
0.0
 10
32.50644934961699
 20
25.16229190405727
 30
0.0
 10
32.50562753072979
 20
25.14401697515666
 30
0.0
 10
32.50480208421914
 20
25.12423450693916
 30
0.0
 10
32.50397714075879
 20
25.10326440282745
 30
0.0
 10
32.50343269961923
 20
25.08892356098016
 30
0.0
 10
32.50316063463094
 20
25.08161103965278
 30
0.0
 11
32.51230013789973
 21
25.22828986498848
 31
0.0
 11
32.51149396796421
 21
25.2269325739145
 31
0.0
 11
32.51066063463088
 21
25.2227320655179
 31
0.0
 11
32.50982730129761
 21
25.21574703427905
 31
0.0
 11
32.50899396796422
 21
25.20609613599811
 31
0.0
 11
32.50816063463088
 21
25.19393254009003
 31
0.0
 11
32.50732730129755
 21
25.17945321161619
 31
0.0
 11
32.50649396796428
 21
25.16289426507558
 31
0.0
 11
32.50566063463089
 21
25.14451978429361
 31
0.0
 11
32.50482730129756
 21
25.12463197218517
 31
0.0
 11
32.50399396796422
 21
25.10354764199258
 31
0.0
 11
32.50316063463094
 21
25.08161103965278
 31
0.0
  0
SPLINE
  5
1A9
330
2
100
AcDbEntity
  8
GAIKEI
  6
Continuous
 62
     1
100
AcDbSpline
210
0.0
220
0.0
230
1.0
 70
     8
 71
     3
 72
    18
 73
    14
 74
    12
 42
0.0000000001
 43
0.0000000001
 44
0.000001
 12
-0.5846562919338174
 22
-0.8112810982034519
 32
0.0
 13
-0.0371796361214128
 23
-0.9993085983107919
 33
0.0
 40
0.0
 40
0.0
 40
0.0
 40
0.0
 40
0.0015787525645385
 40
0.0058612971317751
 40
0.0128958923591801
 40
0.0225827165462093
 40
0.0347748335201119
 40
0.0492781281816677
 40
0.0658580340895537
 40
0.084251404891341
 40
0.1041566705155482
 40
0.1252574645254073
 40
0.1472102067833182
 40
0.1472102067833182
 40
0.1472102067833182
 40
0.1472102067833182
 10
32.47230047769057
 20
25.22828986907348
 30
0.0
 10
32.47199280181715
 20
25.22786293170202
 30
0.0
 10
32.47094300600955
 20
25.22618073311486
 30
0.0
 10
32.47063112028726
 20
25.22176471182445
 30
0.0
 10
32.46963126019045
 20
25.21490103081402
 30
0.0
 10
32.46892769707003
 20
25.20525431038067
 30
0.0
 10
32.46807957271633
 20
25.19316947989182
 30
0.0
 10
32.46727481042368
 20
25.1787619260254
 30
0.0
 10
32.46644934892194
 20
25.16229190455084
 30
0.0
 10
32.46562753099801
 20
25.14401697515132
 30
0.0
 10
32.46480208419058
 20
25.12423450708508
 30
0.0
 10
32.46397714083637
 20
25.10326440288981
 30
0.0
 10
32.46343269962054
 20
25.08892356101774
 30
0.0
 10
32.46316063463087
 20
25.08161103965278
 30
0.0
 11
32.47230047769057
 21
25.22828986907348
 31
0.0
 11
32.47149396796425
 21
25.2269325739145
 31
0.0
 11
32.47066063463092
 21
25.2227320655179
 31
0.0
 11
32.46982730129753
 21
25.21574703427905
 31
0.0
 11
32.46899396796425
 21
25.20609613599811
 31
0.0
 11
32.46816063463092
 21
25.19393254009003
 31
0.0
 11
32.46732730129759
 21
25.17945321161619
 31
0.0
 11
32.4664939679642
 21
25.16289426507558
 31
0.0
 11
32.46566063463092
 21
25.14451978429361
 31
0.0
 11
32.46482730129759
 21
25.12463197218517
 31
0.0
 11
32.46399396796426
 21
25.10354764199258
 31
0.0
 11
32.46316063463087
 21
25.08161103965278
 31
0.0
  0
SPLINE
  5
1AA
330
2
100
AcDbEntity
  8
GAIKEI
  6
Continuous
 62
     1
100
AcDbSpline
210
0.0
220
0.0
230
1.0
 70
     8
 71
     3
 72
    16
 73
    12
 74
    10
 42
0.0000000001
 43
0.0000000001
 44
0.000001
 12
-0.7246933390218108
 22
0.6890715234120614
 32
0.0
 13
-0.043558922455188
 23
0.9990508597036205
 33
0.0
 40
0.0
 40
0.0
 40
0.0
 40
0.0
 40
0.0008245869742722
 40
0.0042427686756351
 40
0.0104169723952155
 40
0.0192855983072083
 40
0.0307089239071528
 40
0.0445088940072491
 40
0.060464448619151
 40
0.0783168924071014
 40
0.0828709020179495
 40
0.0828709020179495
 40
0.0828709020179495
 40
0.0828709020179495
 10
32.49287321676968
 20
24.87328924799772
 30
0.0
 10
32.49267402587378
 20
24.87347864779855
 30
0.0
 10
32.49169330705931
 20
24.87453554707065
 30
0.0
 10
32.49148274526374
 20
24.87824704888055
 30
0.0
 10
32.49042244906278
 20
24.88416606067517
 30
0.0
 10
32.48976463580831
 20
24.89304002258524
 30
0.0
 10
32.48890222658872
 20
24.90434150058149
 30
0.0
 10
32.48810517915331
 20
24.91805584436884
 30
0.0
 10
32.48727923320846
 20
24.93389998950022
 30
0.0
 10
32.48668638587736
 20
24.94667464703673
 30
0.0
 10
32.48635934092616
 20
24.9541362331176
 30
0.0
 10
32.48629321834233
 20
24.95565279552318
 30
0.0
 11
32.49287321676968
 21
24.87328924799772
 31
0.0
 11
32.49232730129757
 21
24.87390737951819
 31
0.0
 11
32.49149396796423
 21
24.87722217097007
 31
0.0
 11
32.4906606346309
 21
24.88333984062308
 31
0.0
 11
32.48982730129763
 21
24.89216921102991
 31
0.0
 11
32.48899396796423
 21
24.90356209085803
 31
0.0
 11
32.4881606346309
 21
24.91733687112287
 31
0.0
 11
32.48732730129757
 21
24.93327064514392
 31
0.0
 11
32.48649396796418
 21
24.95110362536514
 31
0.0
 11
32.48629321834233
 21
24.95565279552318
 31
0.0
  0
SPLINE
  5
1AB
330
2
100
AcDbEntity
  8
GAIKEI
  6
Continuous
 62
     1
100
AcDbSpline
210
0.0
220
0.0
230
1.0
 70
     8
 71
     3
 72
    20
 73
    16
 74
    14
 42
0.0000000001
 43
0.0000000001
 44
0.000001
 12
-0.0366600883891941
 22
-0.9993277930285421
 32
0.0
 13
-0.8960473228605128
 23
-0.4439585512122816
 33
0.0
 40
0.0
 40
0.0
 40
0.0
 40
0.0
 40
0.0225441487658523
 40
0.0447243507194046
 40
0.0661807096233625
 40
0.0865702987490919
 40
0.1055600247977206
 40
0.1228469654554153
 40
0.1381506159022081
 40
0.1512251986702927
 40
0.1618642914167732
 40
0.1698958895183453
 40
0.1752100303814291
 40
0.1777642418023413
 40
0.1780978513807361
 40
0.1780978513807361
 40
0.1780978513807361
 40
0.1780978513807361
 10
32.50316063463094
 20
25.05078848811684
 30
0.0
 10
32.50288514446882
 20
25.0432788233062
 30
0.0
 10
32.50233451273351
 20
25.0283808836034
 30
0.0
 10
32.50150861376255
 20
25.00633608651282
 30
0.0
 10
32.50068240258972
 20
24.9850101084291
 30
0.0
 10
32.49985765952767
 20
24.96474802643036
 30
0.0
 10
32.49903276208409
 20
24.94587820201514
 30
0.0
 10
32.4982134743189
 20
24.9287011799496
 30
0.0
 10
32.49738594543865
 20
24.91351122935015
 30
0.0
 10
32.49659645380726
 20
24.90050174828662
 30
0.0
 10
32.49572336681808
 20
24.89002947445744
 30
0.0
 10
32.49510241412492
 20
24.88187799517664
 30
0.0
 10
32.4940197906347
 20
24.8770207635481
 30
0.0
 10
32.49383346096636
 20
24.87381714033364
 30
0.0
 10
32.49297286009289
 20
24.87333861760607
 30
0.0
 10
32.49287321676968
 20
24.87328924799772
 30
0.0
 11
32.50316063463094
 21
25.05078848811684
 31
0.0
 11
32.50232730129756
 21
25.02826028250604
 31
0.0
 11
32.50149396796422
 21
25.00609574209523
 31
0.0
 11
32.50066063463089
 21
24.98465557348618
 31
0.0
 11
32.49982730129762
 21
24.96428302270465
 31
0.0
 11
32.49899396796422
 21
24.94531159263591
 31
0.0
 11
32.49816063463089
 21
24.92804475281014
 31
0.0
 11
32.49732730129756
 21
24.91276381284661
 31
0.0
 11
32.49649396796428
 21
24.89971582141482
 31
0.0
 11
32.4956606346309
 21
24.88910942730968
 31
0.0
 11
32.49482730129756
 21
24.88112120069707
 31
0.0
 11
32.49399396796423
 21
24.87587286083613
 31
0.0
 11
32.49316063463095
 21
24.87345873637548
 31
0.0
 11
32.49287321676968
 21
24.87328924799772
 31
0.0
  0
SPLINE
  5
1AC
330
2
100
AcDbEntity
  8
GAIKEI
  6
Continuous
 62
     1
100
AcDbSpline
210
0.0
220
0.0
230
1.0
 70
     8
 71
     3
 72
    20
 73
    16
 74
    14
 42
0.0000000001
 43
0.0000000001
 44
0.000001
 12
-0.03666008838921
 22
-0.9993277930285415
 32
0.0
 13
-0.89604732285992
 23
-0.443958551213478
 33
0.0
 40
0.0
 40
0.0
 40
0.0
 40
0.0
 40
0.0225441487658523
 40
0.0447243507194046
 40
0.0661807096233625
 40
0.0865702987490919
 40
0.1055600247977206
 40
0.1228469654554153
 40
0.1381506159022081
 40
0.1512251986702927
 40
0.1618642914167732
 40
0.1698958895183453
 40
0.1752100303814291
 40
0.1777642418023413
 40
0.1780978513807361
 40
0.1780978513807361
 40
0.1780978513807361
 40
0.1780978513807361
 10
32.50316063463094
 20
28.67078848811684
 30
0.0
 10
32.50288514446882
 20
28.6632788233062
 30
0.0
 10
32.50233451273351
 20
28.64838088360341
 30
0.0
 10
32.50150861376255
 20
28.62633608651282
 30
0.0
 10
32.50068240258972
 20
28.60501010842916
 30
0.0
 10
32.49985765952767
 20
28.58474802643048
 30
0.0
 10
32.49903276208409
 20
28.56587820201503
 30
0.0
 10
32.4982134743189
 20
28.54870117994972
 30
0.0
 10
32.49738594543865
 20
28.53351122935015
 30
0.0
 10
32.49659645380726
 20
28.52050174828662
 30
0.0
 10
32.49572336681808
 20
28.51002947445727
 30
0.0
 10
32.49510241412492
 20
28.50187799517687
 30
0.0
 10
32.4940197906347
 20
28.49702076354788
 30
0.0
 10
32.49383346096636
 20
28.49381714033382
 30
0.0
 10
32.49297286009289
 20
28.49333861760607
 30
0.0
 10
32.49287321676968
 20
28.49328924799772
 30
0.0
 11
32.50316063463094
 21
28.67078848811684
 31
0.0
 11
32.50232730129756
 21
28.64826028250604
 31
0.0
 11
32.50149396796422
 21
28.62609574209523
 31
0.0
 11
32.50066063463089
 21
28.60465557348618
 31
0.0
 11
32.49982730129762
 21
28.58428302270466
 31
0.0
 11
32.49899396796422
 21
28.56531159263591
 31
0.0
 11
32.49816063463089
 21
28.54804475281014
 31
0.0
 11
32.49732730129756
 21
28.53276381284661
 31
0.0
 11
32.49649396796428
 21
28.51971582141482
 31
0.0
 11
32.4956606346309
 21
28.50910942730968
 31
0.0
 11
32.49482730129756
 21
28.50112120069707
 31
0.0
 11
32.49399396796423
 21
28.49587286083613
 31
0.0
 11
32.49316063463095
 21
28.49345873637549
 31
0.0
 11
32.49287321676968
 21
28.49328924799772
 31
0.0
  0
SPLINE
  5
1AD
330
2
100
AcDbEntity
  8
GAIKEI
  6
Continuous
 62
     1
100
AcDbSpline
210
0.0
220
0.0
230
1.0
 70
     8
 71
     3
 72
    16
 73
    12
 74
    10
 42
0.0000000001
 43
0.0000000001
 44
0.000001
 12
-0.0430768721965857
 22
0.9990717607268052
 32
0.0
 13
-0.9995301167088943
 23
0.0306520112211923
 33
0.0
 40
0.0
 40
0.0
 40
0.0
 40
0.0
 40
0.0160287203943067
 40
0.0327204960098478
 40
0.047348225372438
 40
0.059679252428639
 40
0.0695126747968542
 40
0.0767030109011102
 40
0.0811430012141333
 40
0.0828762629778445
 40
0.0829034368634637
 40
0.0829034368634637
 40
0.0829034368634637
 40
0.0829034368634637
 10
32.51888716261579
 20
28.76587847058568
 30
0.0
 10
32.51865700690249
 20
28.77121641788784
 30
0.0
 10
32.51816136191724
 20
28.78211039149244
 30
0.0
 10
32.51738320918927
 20
28.79788124153618
 30
0.0
 10
32.51656120032777
 20
28.8123859566582
 30
0.0
 10
32.51576022802695
 20
28.82468840684948
 30
0.0
 10
32.51493045864311
 20
28.83426848726628
 30
0.0
 10
32.51421866255041
 20
28.84178528170435
 30
0.0
 10
32.51337603281462
 20
28.84544311951294
 30
0.0
 10
32.51289921903643
 20
28.84827714405566
 30
0.0
 10
32.51230919160543
 20
28.84828958734374
 30
0.0
 10
32.51230013789973
 20
28.84828986498849
 30
0.0
 11
32.51888716261579
 21
28.76587847058568
 31
0.0
 11
32.51816063463093
 21
28.78189000217389
 31
0.0
 11
32.51732730129754
 21
28.79856095928563
 31
0.0
 11
32.51649396796427
 21
28.813164927505
 31
0.0
 11
32.51566063463088
 21
28.82546775673723
 31
0.0
 11
32.51482730129755
 21
28.83526579239969
 31
0.0
 11
32.51399396796421
 21
28.84240764830929
 31
0.0
 11
32.51316063463093
 21
28.84676865128438
 31
0.0
 11
32.51232730129755
 21
28.84828867550039
 31
0.0
 11
32.51230013789973
 21
28.84828986498849
 31
0.0
  0
SPLINE
  5
1AE
330
2
100
AcDbEntity
  8
GAIKEI
  6
Continuous
 62
     1
100
AcDbSpline
210
0.0
220
0.0
230
1.0
 70
     8
 71
     3
 72
    20
 73
    16
 74
    14
 42
0.0000000001
 43
0.0000000001
 44
0.000001
 12
-0.0366600883891987
 22
-0.9993277930285419
 32
0.0
 13
-0.8962567755996664
 23
-0.4435355591062449
 33
0.0
 40
0.0
 40
0.0
 40
0.0
 40
0.0
 40
0.022544148966109
 40
0.0447243509195016
 40
0.0661807098233034
 40
0.0865702989487708
 40
0.1055600249972011
 40
0.1228469656545381
 40
0.1381506161008299
 40
0.1512251988682471
 40
0.1618642916135558
 40
0.1698958897130186
 40
0.1752100305703422
 40
0.1777642420885721
 40
0.1780980751421503
 40
0.1780980751421503
 40
0.1780980751421503
 40
0.1780980751421503
 10
32.54316063463091
 20
28.67078848811684
 30
0.0
 10
32.54288514446631
 20
28.66327882323952
 30
0.0
 10
32.54233451254098
 20
28.64838088348142
 30
0.0
 10
32.5415086136519
 20
28.62633608630165
 30
0.0
 10
32.54068240241901
 20
28.60501010828796
 30
0.0
 10
32.53985765950233
 20
28.58474802605122
 30
0.0
 10
32.53903276158397
 20
28.5658782024334
 30
0.0
 10
32.53821347534853
 20
28.54870117778967
 30
0.0
 10
32.5373859417191
 20
28.53351123519144
 30
0.0
 10
32.53659646405697
 20
28.52050173058717
 30
0.0
 10
32.5357233388387
 20
28.51002952117188
 30
0.0
 10
32.53510247981217
 20
28.50187788405674
 30
0.0
 10
32.53401966692806
 20
28.49702097151004
 30
0.0
 10
32.53383359193754
 20
28.49381682324719
 30
0.0
 10
32.53297269006723
 20
28.49333860465618
 30
0.0
 10
32.5328729566885
 20
28.49328924904614
 30
0.0
 11
32.54316063463091
 21
28.67078848811684
 31
0.0
 11
32.54232730129752
 21
28.64826028250604
 31
0.0
 11
32.54149396796425
 21
28.62609574209523
 31
0.0
 11
32.54066063463091
 21
28.60465557348618
 31
0.0
 11
32.53982730129758
 21
28.58428302270466
 31
0.0
 11
32.53899396796419
 21
28.56531159263591
 31
0.0
 11
32.53816063463091
 21
28.54804475281014
 31
0.0
 11
32.53732730129758
 21
28.53276381284661
 31
0.0
 11
32.53649396796425
 21
28.51971582141482
 31
0.0
 11
32.53566063463086
 21
28.50910942730968
 31
0.0
 11
32.53482730129758
 21
28.50112120069707
 31
0.0
 11
32.53399396796425
 21
28.49587286083613
 31
0.0
 11
32.53316063463092
 21
28.49345873637549
 31
0.0
 11
32.5328729566885
 21
28.49328924904614
 31
0.0
  0
SPLINE
  5
1AF
330
2
100
AcDbEntity
  8
GAIKEI
  6
Continuous
 62
     1
100
AcDbSpline
210
0.0
220
0.0
230
1.0
 70
     8
 71
     3
 72
    18
 73
    14
 74
    12
 42
0.0000000001
 43
0.0000000001
 44
0.000001
 12
-0.5844656576224157
 22
-0.8114184463394934
 32
0.0
 13
-0.0371796361214128
 23
-0.9993085983107919
 33
0.0
 40
0.0
 40
0.0
 40
0.0
 40
0.0
 40
0.0015785755413335
 40
0.0058611200296627
 40
0.0128957152542898
 40
0.0225825394405176
 40
0.0347746564143366
 40
0.0492779510757349
 40
0.0658578569835894
 40
0.0842512277853651
 40
0.1041564934094469
 40
0.1252572874194663
 40
0.1472100295646774
 40
0.1472100295646774
 40
0.1472100295646774
 40
0.1472100295646774
 10
32.51230013789973
 20
28.84828986498849
 30
0.0
 10
32.51199259683577
 20
28.84786290321745
 30
0.0
 10
32.51094318454259
 20
28.84618057752851
 30
0.0
 10
32.51063100725895
 20
28.84176477024897
 30
0.0
 10
32.50963131123711
 20
28.83490100421557
 30
0.0
 10
32.50892767719427
 20
28.82525432054905
 30
0.0
 10
32.50807957968945
 20
28.81316947614278
 30
0.0
 10
32.50727480805074
 20
28.79876192712209
 30
0.0
 10
32.50644934961693
 20
28.78229190405716
 30
0.0
 10
32.50562753072979
 20
28.76401697515678
 30
0.0
 10
32.50480208421911
 20
28.74423450693917
 30
0.0
 10
32.50397714075879
 20
28.72326440282746
 30
0.0
 10
32.50343269961923
 20
28.70892356098017
 30
0.0
 10
32.50316063463094
 20
28.70161103965279
 30
0.0
 11
32.51230013789973
 21
28.84828986498849
 31
0.0
 11
32.51149396796421
 21
28.8469325739145
 31
0.0
 11
32.51066063463088
 21
28.84273206551791
 31
0.0
 11
32.50982730129761
 21
28.83574703427905
 31
0.0
 11
32.50899396796422
 21
28.82609613599823
 31
0.0
 11
32.50816063463088
 21
28.81393254009004
 31
0.0
 11
32.50732730129755
 21
28.7994532116162
 31
0.0
 11
32.50649396796428
 21
28.78289426507559
 31
0.0
 11
32.50566063463089
 21
28.76451978429361
 31
0.0
 11
32.50482730129756
 21
28.74463197218529
 31
0.0
 11
32.50399396796422
 21
28.72354764199258
 31
0.0
 11
32.50316063463094
 21
28.70161103965279
 31
0.0
  0
SPLINE
  5
1B0
330
2
100
AcDbEntity
  8
GAIKEI
  6
Continuous
 62
     1
100
AcDbSpline
210
0.0
220
0.0
230
1.0
 70
     8
 71
     3
 72
    18
 73
    14
 74
    12
 42
0.0000000001
 43
0.0000000001
 44
0.000001
 12
-0.5846562919338174
 22
-0.8112810982034519
 32
0.0
 13
-0.0371796361213846
 23
-0.9993085983107928
 33
0.0
 40
0.0
 40
0.0
 40
0.0
 40
0.0
 40
0.0015787525645385
 40
0.0058612971317751
 40
0.0128958923591801
 40
0.0225827165460961
 40
0.0347748335201121
 40
0.0492781281816679
 40
0.0658580340895538
 40
0.0842514048913412
 40
0.1041566705154371
 40
0.1252574645254076
 40
0.1472102067833185
 40
0.1472102067833185
 40
0.1472102067833185
 40
0.1472102067833185
 10
32.47230047769057
 20
28.84828986907348
 30
0.0
 10
32.47199280181715
 20
28.84786293170203
 30
0.0
 10
32.47094300600955
 20
28.84618073311486
 30
0.0
 10
32.47063112028732
 20
28.84176471182446
 30
0.0
 10
32.46963126019045
 20
28.83490103081408
 30
0.0
 10
32.46892769707003
 20
28.82525431038073
 30
0.0
 10
32.46807957271625
 20
28.81316947989166
 30
0.0
 10
32.46727481042373
 20
28.79876192602558
 30
0.0
 10
32.46644934892191
 20
28.78229190455079
 30
0.0
 10
32.46562753099806
 20
28.76401697515132
 30
0.0
 10
32.46480208419041
 20
28.74423450708497
 30
0.0
 10
32.46397714083653
 20
28.7232644028901
 30
0.0
 10
32.46343269962054
 20
28.70892356101774
 30
0.0
 10
32.46316063463087
 20
28.70161103965279
 30
0.0
 11
32.47230047769057
 21
28.84828986907348
 31
0.0
 11
32.47149396796425
 21
28.8469325739145
 31
0.0
 11
32.47066063463092
 21
28.84273206551791
 31
0.0
 11
32.46982730129753
 21
28.83574703427905
 31
0.0
 11
32.46899396796425
 21
28.82609613599823
 31
0.0
 11
32.46816063463092
 21
28.81393254009004
 31
0.0
 11
32.46732730129759
 21
28.7994532116162
 31
0.0
 11
32.4664939679642
 21
28.78289426507559
 31
0.0
 11
32.46566063463092
 21
28.76451978429361
 31
0.0
 11
32.46482730129753
 21
28.74463197218529
 31
0.0
 11
32.46399396796426
 21
28.72354764199258
 31
0.0
 11
32.46316063463087
 21
28.70161103965279
 31
0.0
  0
SPLINE
  5
1B1
330
2
100
AcDbEntity
  8
GAIKEI
  6
Continuous
 62
     1
100
AcDbSpline
210
0.0
220
0.0
230
1.0
 70
     8
 71
     3
 72
    16
 73
    12
 74
    10
 42
0.0000000001
 43
0.0000000001
 44
0.000001
 12
-0.7246933390181188
 22
0.6890715234159442
 32
0.0
 13
-0.0435589224551712
 23
0.999050859703621
 33
0.0
 40
0.0
 40
0.0
 40
0.0
 40
0.0
 40
0.0008245869742722
 40
0.0042427686756351
 40
0.0104169723952155
 40
0.019285598307219
 40
0.0307089239071552
 40
0.0445088940072515
 40
0.0604644486191534
 40
0.0783168924071038
 40
0.0828709020179519
 40
0.0828709020179519
 40
0.0828709020179519
 40
0.0828709020179519
 10
32.49287321676968
 20
28.49328924799772
 30
0.0
 10
32.49267402587378
 20
28.49347864779856
 30
0.0
 10
32.49169330705931
 20
28.49453554707066
 30
0.0
 10
32.49148274526368
 20
28.49824704888045
 30
0.0
 10
32.49042244906281
 20
28.50416606067518
 30
0.0
 10
32.48976463580814
 20
28.51304002258519
 30
0.0
 10
32.48890222658875
 20
28.52434150058156
 30
0.0
 10
32.48810517915337
 20
28.53805584436884
 30
0.0
 10
32.48727923320837
 20
28.55389998950006
 30
0.0
 10
32.48668638587736
 20
28.56667464703679
 30
0.0
 10
32.48635934092616
 20
28.5741362331176
 30
0.0
 10
32.48629321834233
 20
28.57565279552318
 30
0.0
 11
32.49287321676968
 21
28.49328924799772
 31
0.0
 11
32.49232730129757
 21
28.49390737951819
 31
0.0
 11
32.49149396796423
 21
28.49722217097008
 31
0.0
 11
32.4906606346309
 21
28.50333984062308
 31
0.0
 11
32.48982730129751
 21
28.51216921102992
 31
0.0
 11
32.48899396796423
 21
28.52356209085804
 31
0.0
 11
32.4881606346309
 21
28.53733687112288
 31
0.0
 11
32.48732730129757
 21
28.55327064514393
 31
0.0
 11
32.48649396796418
 21
28.57110362536514
 31
0.0
 11
32.48629321834233
 21
28.57565279552318
 31
0.0
  0
SPLINE
  5
1B2
330
2
100
AcDbEntity
  8
GAIKEI
  6
Continuous
 62
     1
100
AcDbSpline
210
0.0
220
0.0
230
1.0
 70
     8
 71
     3
 72
    11
 73
     7
 74
     5
 42
0.0000000001
 43
0.0000000001
 44
0.000001
 12
-0.5697183474044964
 22
0.8218400115780987
 32
0.0
 13
-0.725838196782078
 23
0.6878654752872409
 33
0.0
 40
0.0
 40
0.0
 40
0.0
 40
0.0
 40
0.0271269143005459
 40
0.0541651219876461
 40
0.0813877632111765
 40
0.0927557661412386
 40
0.0927557661412386
 40
0.0927557661412386
 40
0.0927557661412386
 10
32.42118271192647
 20
23.83406487937509
 30
0.0
 10
32.41603114499796
 20
23.8414962072294
 30
0.0
 10
32.40527964081673
 20
23.85601916328852
 30
0.0
 10
32.38776971675304
 20
23.87676190403499
 30
0.0
 10
32.37268947284284
 20
23.89262835412808
 30
0.0
 10
32.36345772454413
 20
23.90158776255095
 30
0.0
 10
32.36070728096155
 20
23.90419431479711
 30
0.0
 11
32.42118271192647
 21
23.83406487937509
 31
0.0
 11
32.40503642863081
 21
23.8558636241745
 31
0.0
 11
32.38761240069903
 21
23.87653933416152
 31
0.0
 11
32.36886407129475
 21
23.89627705470969
 31
0.0
 11
32.36070728096155
 21
23.90419431479711
 31
0.0
  0
SPLINE
  5
1B3
330
2
100
AcDbEntity
  8
GAIKEI
  6
Continuous
 62
     1
100
AcDbSpline
210
0.0
220
0.0
230
1.0
 70
     8
 71
     3
 72
    11
 73
     7
 74
     5
 42
0.0000000001
 43
0.0000000001
 44
0.000001
 12
0.7261327727615202
 22
0.6875545042552385
 32
0.0
 13
0.5694961259181754
 23
0.8219940161364862
 33
0.0
 40
0.0
 40
0.0
 40
0.0
 40
0.0
 40
0.0216057200346523
 40
0.0445668898279435
 40
0.0685149071729048
 40
0.0928153822368565
 40
0.0928153822368565
 40
0.0928153822368565
 40
0.0928153822368565
 10
32.36066582257871
 20
3.560033220133618
 30
0.0
 10
32.36589536304413
 20
3.564984923509427
 30
0.0
 10
32.37644990996023
 20
3.575447671617894
 30
0.0
 10
32.39190100647841
 20
3.592277974025307
 30
0.0
 10
32.40703640213391
 20
3.610577994578591
 30
0.0
 10
32.41656970312417
 20
3.623543679500528
 30
0.0
 10
32.42118271192647
 20
3.630201961197826
 30
0.0
 11
32.36066582257871
 21
3.560033220133618
 31
0.0
 11
32.37600953086451
 21
3.575243837030711
 31
0.0
 11
32.39153239716797
 21
3.592162103054874
 31
0.0
 11
32.40678417028266
 21
3.610626090143341
 31
0.0
 11
32.42118271192647
 21
3.630201961197826
 31
0.0
  0
SPLINE
  5
1B4
330
2
100
AcDbEntity
  8
GAIKEI
  6
Continuous
 62
     1
100
AcDbSpline
210
0.0
220
0.0
230
1.0
 70
     8
 71
     3
 72
    11
 73
     7
 74
     5
 42
0.0000000001
 43
0.0000000001
 44
0.000001
 12
0.7261327727614697
 22
0.6875545042552915
 32
0.0
 13
0.5694961259186093
 23
0.8219940161361854
 33
0.0
 40
0.0
 40
0.0
 40
0.0
 40
0.0
 40
0.0216057200346923
 40
0.0445668898279417
 40
0.0685149071729029
 40
0.0928153822368546
 40
0.0928153822368546
 40
0.0928153822368546
 40
0.0928153822368546
 10
32.36066582257871
 20
22.6873433557945
 30
0.0
 10
32.36589536304413
 20
22.69229505917036
 30
0.0
 10
32.37644990996029
 20
22.70275780727889
 30
0.0
 10
32.39190100647835
 20
22.71958810968624
 30
0.0
 10
32.40703640213397
 20
22.73788813023941
 30
0.0
 10
32.41656970312417
 20
22.75085381516141
 30
0.0
 10
32.42118271192647
 20
22.7575120968587
 30
0.0
 11
32.36066582257871
 21
22.6873433557945
 31
0.0
 11
32.37600953086451
 21
22.70255397269159
 31
0.0
 11
32.39153239716797
 21
22.71947223871575
 31
0.0
 11
32.40678417028266
 21
22.73793622580422
 31
0.0
 11
32.42118271192647
 21
22.7575120968587
 31
0.0
  0
SPLINE
  5
1B5
330
2
100
AcDbEntity
  8
GAIKEI
  6
Continuous
 62
     1
100
AcDbSpline
210
0.0
220
0.0
230
1.0
 70
     8
 71
     3
 72
    11
 73
     7
 74
     5
 42
0.0000000001
 43
0.0000000001
 44
0.000001
 12
-0.5697183474043875
 22
0.8218400115781744
 32
0.0
 13
-0.7258381967822672
 23
0.6878654752870411
 33
0.0
 40
0.0
 40
0.0
 40
0.0
 40
0.0
 40
0.0271269143005459
 40
0.0541651219876461
 40
0.0813877632111765
 40
0.0927557661412386
 40
0.0927557661412386
 40
0.0927557661412386
 40
0.0927557661412386
 10
32.42118271192647
 20
4.706754743714213
 30
0.0
 10
32.41603114499796
 20
4.714186071568519
 30
0.0
 10
32.40527964081673
 20
4.728709027627644
 30
0.0
 10
32.38776971675304
 20
4.749451768374115
 30
0.0
 10
32.37268947284284
 20
4.765318218467257
 30
0.0
 10
32.36345772454413
 20
4.774277626890068
 30
0.0
 10
32.36070728096155
 20
4.776884179136231
 30
0.0
 11
32.42118271192647
 21
4.706754743714213
 31
0.0
 11
32.40503642863081
 21
4.728553488513625
 31
0.0
 11
32.38761240069903
 21
4.749229198500643
 31
0.0
 11
32.36886407129475
 21
4.768966919048807
 31
0.0
 11
32.36070728096155
 21
4.776884179136231
 31
0.0
  0
SPLINE
  5
1B6
330
2
100
AcDbEntity
  8
GAIKEI
  6
Continuous
 62
     1
100
AcDbSpline
210
0.0
220
0.0
230
1.0
 70
     8
 71
     3
 72
    13
 73
     9
 74
     7
 42
0.0000000001
 43
0.0000000001
 44
0.000001
 12
-0.3556040416314752
 22
0.9346367024546811
 32
0.0
 13
-0.4792288571630963
 23
0.8776899808372844
 33
0.0
 40
0.0
 40
0.0
 40
0.0
 40
0.0
 40
0.0009841552556807
 40
0.0341752847052837
 40
0.0724502295558645
 40
0.1107098708129618
 40
0.1490911211198958
 40
0.1874325864602257
 40
0.1874325864602257
 40
0.1874325864602257
 40
0.1874325864602257
 10
32.49618271192628
 20
4.53514118158273
 30
0.0
 10
32.49606605539745
 20
4.535447790790328
 30
0.0
 10
32.49201472659379
 20
4.546094807427323
 30
0.0
 10
32.4833623397231
 20
4.568641826526913
 30
0.0
 10
32.4698793125277
 20
4.602643208237054
 30
0.0
 10
32.45499602014985
 20
4.637942240606491
 30
0.0
 10
32.43908157457011
 20
4.672820833056107
 30
0.0
 10
32.4273074907988
 20
4.695537437054269
 30
0.0
 10
32.42118271192647
 20
4.706754743714213
 30
0.0
 11
32.49618271192628
 21
4.53514118158273
 31
0.0
 11
32.49583265365584
 21
4.536060956784695
 31
0.0
 11
32.48391571472359
 21
4.567038335427128
 31
0.0
 11
32.46975013349572
 21
4.602595249901469
 31
0.0
 11
32.45484226165729
 21
4.637830713731659
 31
0.0
 11
32.43878799694483
 21
4.672693762354242
 31
0.0
 11
32.42118271192647
 21
4.706754743714213
 31
0.0
  0
SPLINE
  5
1B7
330
2
100
AcDbEntity
  8
GAIKEI
  6
Continuous
 62
     1
100
AcDbSpline
210
0.0
220
0.0
230
1.0
 70
     8
 71
     3
 72
    13
 73
     9
 74
     7
 42
0.0000000001
 43
0.0000000001
 44
0.000001
 12
-0.355604041378737
 22
0.9346367025508412
 32
0.0
 13
-0.479228857163119
 23
0.8776899808372721
 33
0.0
 40
0.0
 40
0.0
 40
0.0
 40
0.0
 40
0.0009841552555797
 40
0.0341752847051377
 40
0.0724502295557818
 40
0.1107098708129838
 40
0.1490911211199019
 40
0.1874325864602318
 40
0.1874325864602318
 40
0.1874325864602318
 40
0.1874325864602318
 10
32.49618271192628
 20
23.66245131724361
 30
0.0
 10
32.49606605539753
 20
23.66275792645121
 30
0.0
 10
32.49201472659681
 20
23.67340494308905
 30
0.0
 10
32.48336233972157
 20
23.69595196218717
 30
0.0
 10
32.46987931252829
 20
23.72995334389799
 30
0.0
 10
32.45499602014988
 20
23.76525237626743
 30
0.0
 10
32.43908157457005
 20
23.80013096871687
 30
0.0
 10
32.4273074907988
 20
23.82284757271515
 30
0.0
 10
32.42118271192647
 20
23.83406487937509
 30
0.0
 11
32.49618271192628
 21
23.66245131724361
 31
0.0
 11
32.49583265365607
 21
23.66337109244557
 31
0.0
 11
32.48391571472359
 21
23.694348471088
 31
0.0
 11
32.46975013349572
 21
23.72990538556235
 31
0.0
 11
32.45484226165729
 21
23.76514084939254
 31
0.0
 11
32.43878799694483
 21
23.80000389801512
 31
0.0
 11
32.42118271192647
 21
23.83406487937509
 31
0.0
  0
SPLINE
  5
1B8
330
2
100
AcDbEntity
  8
GAIKEI
  6
Continuous
 62
     1
100
AcDbSpline
210
0.0
220
0.0
230
1.0
 70
     8
 71
     3
 72
    12
 73
     8
 74
     6
 42
0.0000000001
 43
0.0000000001
 44
0.000001
 12
0.4769591228668367
 22
0.8789254775657024
 32
0.0
 13
0.3555935532617211
 23
0.9346406929289479
 33
0.0
 40
0.0
 40
0.0
 40
0.0
 40
0.0
 40
0.0463485371772527
 40
0.0928814443548164
 40
0.1396449289866358
 40
0.1864441356849578
 40
0.1874282895021251
 40
0.1874282895021251
 40
0.1874282895021251
 40
0.1874282895021251
 10
32.42118271192647
 20
3.630201961197826
 30
0.0
 10
32.42855149780587
 20
3.643780931255491
 30
0.0
 10
32.44267117314735
 20
3.671355797676426
 30
0.0
 10
32.46149530772508
 20
3.713945070120132
 30
0.0
 10
32.47908534474516
 20
3.757207192745454
 30
0.0
 10
32.49040137296063
 20
3.786622491500907
 30
0.0
 10
32.49606605900869
 20
3.801508913260761
 30
0.0
 10
32.49618271192628
 20
3.80181552332931
 30
0.0
 11
32.42118271192647
 21
3.630201961197826
 31
0.0
 11
32.44224589572394
 21
3.671488200754424
 31
0.0
 11
32.4612506069281
 21
3.713963897508619
 31
0.0
 11
32.47894374699263
 21
3.757251253034382
 31
0.0
 11
32.49583265361724
 21
3.80089574814383
 31
0.0
 11
32.49618271192628
 21
3.80181552332931
 31
0.0
  0
SPLINE
  5
1B9
330
2
100
AcDbEntity
  8
GAIKEI
  6
Continuous
 62
     1
100
AcDbSpline
210
0.0
220
0.0
230
1.0
 70
     8
 71
     3
 72
    12
 73
     8
 74
     6
 42
0.0000000001
 43
0.0000000001
 44
0.000001
 12
0.4769591228667053
 22
0.8789254775657735
 32
0.0
 13
0.3555935529301539
 23
0.9346406930550958
 33
0.0
 40
0.0
 40
0.0
 40
0.0
 40
0.0
 40
0.0463485371772527
 40
0.0928814443547242
 40
0.1396449289868306
 40
0.1864441356850259
 40
0.1874282895021352
 40
0.1874282895021352
 40
0.1874282895021352
 40
0.1874282895021352
 10
32.42118271192647
 20
22.7575120968587
 30
0.0
 10
32.42855149780587
 20
22.77109106691637
 30
0.0
 10
32.4426711731472
 20
22.79866593333742
 30
0.0
 10
32.46149530772541
 20
22.84125520578061
 30
0.0
 10
32.47908534474396
 20
22.88451732840747
 30
0.0
 10
32.4904013729647
 20
22.91393262715917
 30
0.0
 10
32.4960660590088
 20
22.92881904892164
 30
0.0
 10
32.49618271192628
 20
22.92912565899019
 30
0.0
 11
32.42118271192647
 21
22.7575120968587
 31
0.0
 11
32.44224589572394
 21
22.7987983364153
 31
0.0
 11
32.4612506069281
 21
22.8412740331695
 31
0.0
 11
32.47894374699263
 21
22.88456138869538
 31
0.0
 11
32.49583265361753
 21
22.92820588380459
 31
0.0
 11
32.49618271192628
 21
22.92912565899019
 31
0.0
  0
SPLINE
  5
1BA
330
2
100
AcDbEntity
  8
GAIKEI
  6
Continuous
 62
     1
100
AcDbSpline
210
0.0
220
0.0
230
1.0
 70
     8
 71
     3
 72
    30
 73
    26
 74
    24
 42
0.0000000001
 43
0.0000000001
 44
0.000001
 12
-0.0200236380412519
 22
-0.9997995068610471
 32
0.0
 13
0.6382126117635996
 23
-0.7698601575519316
 33
0.0
 40
0.0
 40
0.0
 40
0.0
 40
0.0
 40
0.0166069238215943
 40
0.037301078554889
 40
0.0621612230433258
 40
0.0912321347745211
 40
0.1271247647504617
 40
0.1661149835441988
 40
0.1996843709300465
 40
0.207583012250934
 40
0.2151115874076531
 40
0.2222706400799722
 40
0.2290608027015172
 40
0.235482816674212
 40
0.2415375586176953
 40
0.2695382121070928
 40
0.2966935088714119
 40
0.3230613834754878
 40
0.3487051081642294
 40
0.3736934566496586
 40
0.3981007431757753
 40
0.4408164956220422
 40
0.4807239607646709
 40
0.5184525715331088
 40
0.5547443344004162
 40
0.5547443344004162
 40
0.5547443344004162
 40
0.5547443344004162
 10
33.98693405375184
 20
1.259388223275095
 30
0.0
 10
33.98682321007465
 20
1.253853691859319
 30
0.0
 10
33.98619478771073
 20
1.241421530448349
 30
0.0
 10
33.98332842172675
 20
1.220882076241309
 30
0.0
 10
33.97884071871625
 20
1.196412474674446
 30
0.0
 10
33.97238311575751
 20
1.167169250120309
 30
0.0
 10
33.96399381128265
 20
1.133548064376611
 30
0.0
 10
33.95591125710934
 20
1.09831021822265
 30
0.0
 10
33.9503896107442
 20
1.072062598446507
 30
0.0
 10
33.94732797280699
 20
1.056019748953474
 30
0.0
 10
33.94597638217419
 20
1.04861322074862
 30
0.0
 10
33.9447536054542
 20
1.041559039962294
 30
0.0
 10
33.94366041794376
 20
1.034857099698058
 30
0.0
 10
33.94269407106234
 20
1.02850771819061
 30
0.0
 10
33.94084401743985
 20
1.015142501780246
 30
0.0
 10
33.93860999713599
 20
0.9948539308647355
 30
0.0
 10
33.93681525703079
 20
0.9677297492952448
 30
0.0
 10
33.9363348055943
 20
0.9413342349467939
 30
0.0
 10
33.93716011723376
 20
0.9156698335061719
 30
0.0
 10
33.93929013119453
 20
0.8907339511923737
 30
0.0
 10
33.94362689135687
 20
0.8603255257336854
 30
0.0
 10
33.95142814962677
 20
0.8254340104325592
 30
0.0
 10
33.96474255546258
 20
0.7874833904314187
 30
0.0
 10
33.9819953319053
 20
0.7535077889452282
 30
0.0
 10
33.99645426337199
 20
0.7333843666753524
 30
0.0
 10
34.004174883627
 20
0.7240711725823985
 30
0.0
 11
33.98693405375184
 21
1.259388223275095
 31
0.0
 11
33.9860463074973
 21
1.242805241682731
 31
0.0
 11
33.98338771891594
 21
1.222282605003101
 31
0.0
 11
33.97895828800779
 21
1.197820313236434
 31
0.0
 11
33.97275801477292
 21
1.169418366382615
 31
0.0
 11
33.96434916076908
 21
1.134524713102791
 31
0.0
 11
33.95563000924222
 21
1.096521977144789
 31
0.0
 11
33.94879395594649
 21
1.063656058901074
 31
0.0
 11
33.94731474195089
 21
1.055897174623964
 31
0.0
 11
33.94596469739179
 21
1.048490645756828
 31
0.0
 11
33.94474382226906
 21
1.041436472299892
 31
0.0
 11
33.94365211658294
 21
1.034734654253043
 31
0.0
 11
33.94268958033325
 21
1.02838519161628
 31
0.0
 11
33.94185621352006
 21
1.022388084389717
 31
0.0
 11
33.93878426770573
 21
0.9945564929400916
 31
0.0
 11
33.93701690929538
 21
0.9674588066322939
 31
0.0
 11
33.93655413828913
 21
0.9410950254662111
 31
0.0
 11
33.93739595468685
 21
0.9154651494419567
 31
0.0
 11
33.93954235848867
 21
0.8905691785595308
 31
0.0
 11
33.94299334969446
 21
0.8664071128188197
 31
0.0
 11
33.9524657559789
 21
0.8247548889688687
 31
0.0
 11
33.96582014706246
 21
0.7871481576462429
 31
0.0
 11
33.98305652294516
 21
0.753586918850715
 31
0.0
 11
34.004174883627
 21
0.7240711725823985
 31
0.0
  0
SPLINE
  5
1BB
330
2
100
AcDbEntity
  8
GAIKEI
  6
Continuous
 62
     1
100
AcDbSpline
210
0.0
220
0.0
230
1.0
 70
     8
 71
     3
 72
    27
 73
    23
 74
    21
 42
0.0000000001
 43
0.0000000001
 44
0.000001
 12
-0.3587289631765114
 22
-0.9334417662491352
 32
0.0
 13
-0.3043867708718783
 23
-0.952548525650106
 33
0.0
 40
0.0
 40
0.0
 40
0.0
 40
0.0
 40
0.0000527653160408
 40
0.0137452944831974
 40
0.0277848726959967
 40
0.0420904151999906
 40
0.0621802894338872
 40
0.0825042457509789
 40
0.1029273041857175
 40
0.120440706794757
 40
0.1390172120262873
 40
0.1586623151565397
 40
0.1727209773580775
 40
0.1881397105005391
 40
0.2049363464391852
 40
0.2220007426194554
 40
0.2384281114962991
 40
0.2550330349711557
 40
0.2718074234064881
 40
0.3201416250121696
 40
0.3656184092027229
 40
0.4082186707019197
 40
0.4082186707019197
 40
0.4082186707019197
 40
0.4082186707019197
 10
34.06565638097266
 20
24.38606232000302
 30
0.0
 10
34.0656500714903
 20
24.38604590221974
 30
0.0
 10
34.06400679767072
 20
24.38176896180653
 30
0.0
 10
34.06072588986564
 20
24.37310772689187
 30
0.0
 10
34.05591812253056
 20
24.35994536639828
 30
0.0
 10
34.05058995923753
 20
24.34470429374693
 30
0.0
 10
34.04496090184421
 20
24.32735179277057
 30
0.0
 10
34.03935073467716
 20
24.30786005093853
 30
0.0
 10
34.03467678430428
 20
24.28900495091028
 30
0.0
 10
34.03088107910955
 20
24.27054970742762
 30
0.0
 10
34.02773556795143
 20
24.25223669947866
 30
0.0
 10
34.02528498523344
 20
24.23498068460913
 30
0.0
 10
34.02334678624427
 20
24.21872101094095
 30
0.0
 10
34.02172869592968
 20
24.20338110630132
 30
0.0
 10
34.02016068472807
 20
24.18702932805349
 30
0.0
 10
34.01868274828235
 20
24.17033176075591
 30
0.0
 10
34.01714125777199
 20
24.15370414386558
 30
0.0
 10
34.0155457697156
 20
24.13717862672701
 30
0.0
 10
34.01296614159841
 20
24.11006395928757
 30
0.0
 10
34.00825016561834
 20
24.07347825228482
 30
0.0
 10
33.99922236613608
 20
24.02887093501738
 30
0.0
 10
33.99125637243051
 20
24.00058270893982
 30
0.0
 10
33.98693405375184
 20
23.98705643684536
 30
0.0
 11
34.06565638097266
 21
24.38606232000302
 31
0.0
 11
34.06563745335871
 21
24.38601306594092
 31
0.0
 11
34.06079099996407
 21
24.37320674380601
 31
0.0
 11
34.05597788791954
 21
24.36001796493633
 31
0.0
 11
34.05126774196964
 21
24.34651006870593
 31
0.0
 11
34.0450904030763
 21
24.32739347781626
 31
0.0
 11
34.03948044469223
 21
24.30785909380347
 31
0.0
 11
34.03458595646157
 21
24.28803118692883
 31
0.0
 11
34.03104266759476
 21
24.27087995432794
 31
0.0
 11
34.02788122266282
 21
24.25257443164151
 31
0.0
 11
34.02510706797227
 21
24.23312618370653
 31
0.0
 11
34.02342955369932
 21
24.2191679628246
 31
0.0
 11
34.02179912279144
 21
24.2038356800507
 31
0.0
 11
34.02018845334044
 21
24.18711645882081
 31
0.0
 11
34.01865102900001
 21
24.17012148078391
 31
0.0
 11
34.01713541534986
 21
24.15376420596181
 31
0.0
 11
34.01555405790049
 21
24.13723479711052
 31
0.0
 11
34.01391363469861
 21
24.12054089652827
 31
0.0
 11
34.00754249805044
 21
24.07262926488193
 31
0.0
 11
33.99846324356531
 21
24.02806747109446
 31
0.0
 11
33.98693405375184
 21
23.98705643684536
 31
0.0
  0
SPLINE
  5
1BC
330
2
100
AcDbEntity
  8
GAIKEI
  6
Continuous
 62
     1
100
AcDbSpline
210
0.0
220
0.0
230
1.0
 70
     8
 71
     3
 72
    23
 73
    19
 74
    17
 42
0.0000000001
 43
0.0000000001
 44
0.000001
 12
0.1037512493360999
 22
-0.9946032768200588
 32
0.0
 13
-0.9066396789115103
 23
-0.4219057864301387
 33
0.0
 40
0.0
 40
0.0
 40
0.0
 40
0.0
 40
0.0607026110801313
 40
0.1185986751946618
 40
0.1736064872697771
 40
0.2256490779792209
 40
0.2746574152566548
 40
0.3205734925395612
 40
0.3633544662869458
 40
0.4029783719658756
 40
0.4389238356325089
 40
0.4721139622826841
 40
0.5025974616641572
 40
0.5304770080022311
 40
0.5559339520156578
 40
0.5792613998137357
 40
0.6009024388064012
 40
0.6214788907307542
 40
0.6214788907307542
 40
0.6214788907307542
 40
0.6214788907307542
 10
34.3964876190347
 20
25.39467446039146
 30
0.0
 10
34.39858694294722
 20
25.37454945509415
 30
0.0
 10
34.40219494340619
 20
25.3351770415693
 30
0.0
 10
34.40613705384877
 20
25.27743724301911
 30
0.0
 10
34.40844838285332
 20
25.22249678242002
 30
0.0
 10
34.40916264131175
 20
25.17047446751173
 30
0.0
 10
34.40828961119536
 20
25.12148414317056
 30
0.0
 10
34.40583856297678
 20
25.07563676602513
 30
0.0
 10
34.40181146888435
 20
25.03303943889438
 30
0.0
 10
34.39623238165487
 20
24.99396786185184
 30
0.0
 10
34.38909640672313
 20
24.95840188500733
 30
0.0
 10
34.38046415160485
 20
24.9263091955059
 30
0.0
 10
34.37029662631753
 20
24.8974972802917
 30
0.0
 10
34.35859939083881
 20
24.87207254381826
 30
0.0
 10
34.34536733994938
 20
24.85013289267306
 30
0.0
 10
34.33055448071434
 20
24.83181420020043
 30
0.0
 10
34.3141566705545
 20
24.81718692477711
 30
0.0
 10
34.30187686182623
 20
24.81010096485039
 30
0.0
 10
34.29565838590429
 20
24.80720719014005
 30
0.0
 11
34.3964876190347
 21
25.39467446039146
 31
0.0
 11
34.40204000681968
 21
25.33422715705251
 31
0.0
 11
34.40594390145895
 21
25.27646287246023
 31
0.0
 11
34.40822263088274
 21
25.22150228890144
 31
0.0
 11
34.40889406084159
 21
25.1694640397019
 31
0.0
 11
34.40797061929925
 21
25.12046441462246
 31
0.0
 11
34.40545933551334
 21
25.07461707674315
 31
0.0
 11
34.40136189339262
 21
25.03203279141212
 31
0.0
 11
34.39567469869002
 21
24.99281916778353
 31
0.0
 11
34.3885219305995
 21
24.95759257611394
 31
0.0
 11
34.3798069879781
 21
24.92556707688027
 31
0.0
 11
34.36955333939613
 21
24.89685985637334
 31
0.0
 11
34.35777938530913
 21
24.87158851122683
 31
0.0
 11
34.34449822531553
 21
24.84987068111968
 31
0.0
 11
34.32971743504544
 21
24.83182366623862
 31
0.0
 11
34.31343885402788
 21
24.81756403031329
 31
0.0
 11
34.29565838590429
 21
24.80720719014005
 31
0.0
  0
SPLINE
  5
1BD
330
2
100
AcDbEntity
  8
GAIKEI
  6
Continuous
 62
     1
100
AcDbSpline
210
0.0
220
0.0
230
1.0
 70
     8
 71
     3
 72
    13
 73
     9
 74
     7
 42
0.0000000001
 43
0.0000000001
 44
0.000001
 12
-0.9958439311814659
 22
-0.091076147969947
 32
0.0
 13
-0.9929680145434634
 23
-0.1183829468023682
 33
0.0
 40
0.0
 40
0.0
 40
0.0
 40
0.0
 40
0.2790849670557355
 40
0.4824077539591793
 40
0.6857426128006062
 40
0.889121481304458
 40
1.092568902580971
 40
1.132064281388675
 40
1.132064281388675
 40
1.132064281388675
 40
1.132064281388675
 10
34.17773626724823
 20
-2.864169203931055
 30
0.0
 10
34.08509457700609
 20
-2.87264186518297
 30
0.0
 10
33.92499928047786
 20
-2.887716652453491
 30
0.0
 10
33.69752000244063
 20
-2.910136113662247
 30
0.0
 10
33.49524654454211
 20
-2.930997046012294
 30
0.0
 10
33.2930403357255
 20
-2.952890486700994
 30
0.0
 10
33.14522838510513
 20
-2.969792143171787
 30
0.0
 10
33.0648108649709
 20
-2.979328175588989
 30
0.0
 10
33.05173831567811
 20
-2.980886702031739
 30
0.0
 11
34.17773626724823
 21
-2.864169203931055
 31
0.0
 11
33.89987907611351
 21
-2.890318388868308
 31
0.0
 11
33.69753949686083
 21
-2.910289450418758
 31
0.0
 11
33.49527938589535
 21
-2.931167840101579
 31
0.0
 11
33.29308559656505
 21
-2.953091071551739
 31
0.0
 11
33.09095907930225
 21
-2.97623660198883
 31
0.0
 11
33.05173831567811
 21
-2.980886702031739
 31
0.0
  0
SPLINE
  5
1BE
330
2
100
AcDbEntity
  8
GAIKEI
  6
Continuous
 62
     1
100
AcDbSpline
210
0.0
220
0.0
230
1.0
 70
     8
 71
     3
 72
    15
 73
    11
 74
     9
 42
0.0000000001
 43
0.0000000001
 44
0.000001
 12
0.1151974769613444
 22
0.9933426102316062
 32
0.0
 13
-0.8415501913672637
 23
0.5401789290686209
 33
0.0
 40
0.0
 40
0.0
 40
0.0
 40
0.0
 40
0.0394084963478186
 40
0.0771399072617097
 40
0.1117967484185927
 40
0.1420880407746221
 40
0.1668916500996182
 40
0.1853241616436327
 40
0.196879107761319
 40
0.2022733320264323
 40
0.2022733320264323
 40
0.2022733320264323
 40
0.2022733320264323
 10
30.28522704390343
 20
31.3581869704069
 30
0.0
 10
30.28674029702015
 20
31.37123568328275
 30
0.0
 10
30.28935155126516
 20
31.39682237669666
 30
0.0
 10
30.29210441953959
 20
31.43398078986042
 30
0.0
 10
30.29381441951406
 20
31.46819769156429
 30
0.0
 10
30.29431593744943
 20
31.49803058852649
 30
0.0
 10
30.29422055834022
 20
31.52277290019458
 30
0.0
 10
30.29210972107785
 20
31.54045503882151
 30
0.0
 10
30.2913047574622
 20
31.55313433682989
 30
0.0
 10
30.28674021405758
 20
31.55694159526223
 30
0.0
 10
30.28522704390338
 20
31.55791287735781
 30
0.0
 11
30.28522704390343
 21
31.3581869704069
 31
0.0
 11
30.28922171253805
 21
31.39739186249756
 31
0.0
 11
30.29202253758337
 21
31.43501917076299
 31
0.0
 11
30.29368164292851
 21
31.46963626733725
 31
0.0
 11
30.29423111144377
 21
31.49992256114968
 31
0.0
 11
30.29368175824669
 21
31.52472006026358
 31
0.0
 11
30.29202271855945
 21
31.54307770136177
 31
0.0
 11
30.28922186581872
 21
31.55428774977099
 31
0.0
 11
30.28522704390338
 21
31.55791287735781
 31
0.0
  0
SPLINE
  5
1BF
330
2
100
AcDbEntity
  8
GAIKEI
  6
Continuous
 62
     1
100
AcDbSpline
210
0.0
220
0.0
230
1.0
 70
     8
 71
     3
 72
    11
 73
     7
 74
     5
 42
0.0000000001
 43
0.0000000001
 44
0.000001
 12
-0.9272724310398604
 22
-0.3743872842838379
 32
0.0
 13
-0.8850743362206914
 23
-0.465449695846396
 33
0.0
 40
0.0
 40
0.0
 40
0.0
 40
0.0
 40
0.0143995265551268
 40
0.0364303848129772
 40
0.054352588973912
 40
0.0655662738736491
 40
0.0655662738736491
 40
0.0655662738736491
 40
0.0655662738736491
 10
30.28522704390343
 20
31.3581869704069
 30
0.0
 10
30.28077628257191
 20
31.35638997052627
 30
0.0
 10
30.26963854626547
 20
31.35152564722421
 30
0.0
 10
30.25369476210719
 20
31.34287423966623
 30
0.0
 10
30.23913863412057
 20
31.33398126974419
 30
0.0
 10
30.23057713411731
 20
31.32938905129112
 30
0.0
 10
30.22726881921091
 20
31.32764924921583
 30
0.0
 11
30.28522704390343
 21
31.3581869704069
 31
0.0
 11
30.27204158970005
 21
31.35239946373292
 31
0.0
 11
30.25259651610156
 21
31.34204331059005
 31
0.0
 11
30.2371272235132
 21
31.33299282764312
 31
0.0
 11
30.22726881921091
 21
31.32764924921583
 31
0.0
  0
SPLINE
  5
1C0
330
2
100
AcDbEntity
  8
GAIKEI
  6
Continuous
 62
     1
100
AcDbSpline
210
0.0
220
0.0
230
1.0
 70
     8
 71
     3
 72
    19
 73
    15
 74
    13
 42
0.0000000001
 43
0.0000000001
 44
0.000001
 12
-0.4537847692220346
 22
-0.891111319208832
 32
0.0
 13
0.0558661521317871
 23
-0.9984382670180407
 33
0.0
 40
0.0
 40
0.0
 40
0.0
 40
0.0
 40
0.0058433329848931
 40
0.0115431011623576
 40
0.0191493870676832
 40
0.0323458963040336
 40
0.0491681393602488
 40
0.0697806678864593
 40
0.0924149932146358
 40
0.1149878612986471
 40
0.1372182372400339
 40
0.153517971264878
 40
0.169406717493381
 40
0.1997454480061746
 40
0.1997454480061746
 40
0.1997454480061746
 40
0.1997454480061746
 10
30.22726881921091
 20
31.5253883203518
 30
0.0
 10
30.22638494737421
 20
31.52365263363021
 30
0.0
 10
30.22479175545357
 20
31.52013929358929
 30
0.0
 10
30.22284548248399
 20
31.51405306723564
 30
0.0
 10
30.22055283278525
 20
31.50551912891354
 30
0.0
 10
30.21817940484729
 20
31.49318870477742
 30
0.0
 10
30.21624621181002
 20
31.4764073607189
 30
0.0
 10
30.21552218322594
 20
31.4563748770928
 30
0.0
 10
30.21639355990661
 20
31.43443637687085
 30
0.0
 10
30.21843732202376
 20
31.4120452285859
 30
0.0
 10
30.22084869970451
 20
31.3918200652015
 30
0.0
 10
30.22307421259427
 20
31.3738177333762
 30
0.0
 10
30.22551720221756
 20
31.35311814412626
 30
0.0
 10
30.22670384983281
 20
31.33774636572127
 30
0.0
 10
30.22726881921091
 20
31.32764924921571
 30
0.0
 11
30.22726881921091
 21
31.5253883203518
 31
0.0
 11
30.2248803533239
 21
31.52005515968506
 31
0.0
 11
30.22307702404453
 21
31.51464826184008
 31
0.0
 11
30.22110240559431
 21
31.50730275581429
 31
0.0
 11
30.21855338590922
 21
31.49435474736913
 31
0.0
 11
30.2165892465502
 21
31.47764753133697
 31
0.0
 11
30.2157958064214
 21
31.45705024899474
 31
0.0
 11
30.2165885499
 21
31.4344297976379
 31
0.0
 11
30.2185526190799
 21
31.41194254124286
 31
0.0
 11
30.22110189264533
 21
31.38985883611474
 31
0.0
 11
30.22307676333958
 21
31.37367921417251
 31
0.0
 11
30.2248803034476
 21
31.3578932310403
 31
0.0
 11
30.22726881921091
 21
31.32764924921571
 31
0.0
  0
TEXT
  5
1C1
330
2
100
AcDbEntity
  8
MOJI1
100
AcDbText
 10
-63.70032054709736
 20
-56.70447910257564
 30
0.0
 40
3.0
  1
質　量
100
AcDbText
  0
TEXT
  5
1C2
330
2
100
AcDbEntity
  8
MOJI1
100
AcDbText
 10
-24.70032054709736
 20
-56.70447910257564
 30
0.0
 40
3.0
  1
約３３．０ ｋｇ
100
AcDbText
  0
LINE
  5
1C3
330
2
100
AcDbEntity
  8
WAKU
 62
     1
100
AcDbLine
 10
-66.20032054709736
 20
-52.70447910257565
 30
0.0
 11
58.79967945290241
 21
-52.70447910257565
 31
0.0
  0
TEXT
  5
1C5
330
2
100
AcDbEntity
  8
MOJI1
100
AcDbText
 10
-63.70032054709736
 20
-46.70447910257564
 30
0.0
 40
3.0
  1
入出力端子
100
AcDbText
  0
LINE
  5
1C6
330
2
100
AcDbEntity
  8
WAKU
 62
     1
100
AcDbLine
 10
-66.20032054709736
 20
-47.70447910257565
 30
0.0
 11
58.79967945290241
 21
-47.70447910257565
 31
0.0
  0
TEXT
  5
1C7
330
2
100
AcDbEntity
  8
MOJI1
100
AcDbText
 10
-24.70032054709736
 20
-51.70447910257564
 30
0.0
 40
3.0
  1
ＤＶＩ入力、ＰＣ入力、ＬＡＮ、ＲＳ２３２Ｃ、スロット２．０
 41
0.7900000000000001
100
AcDbText
  0
LINE
  5
1C8
330
2
100
AcDbEntity
  8
WAKU
 62
     4
100
AcDbLine
 10
58.79967945290241
 20
-12.70447910257564
 30
0.0
 11
58.79967945290241
 21
-57.70447910257565
 31
0.0
  0
TEXT
  5
1C9
330
2
100
AcDbEntity
  8
MOJI1
100
AcDbText
 10
-63.70032054709736
 20
-31.70447910257565
 30
0.0
 40
3.0
  1
画素数
100
AcDbText
  0
TEXT
  5
1CA
330
2
100
AcDbEntity
  8
MOJI1
100
AcDbText
 10
-63.70032054709736
 20
-16.70447910257564
 30
0.0
 40
3.0
  1
電  源
100
AcDbText
  0
TEXT
  5
1CB
330
2
100
AcDbEntity
  8
MOJI1
100
AcDbText
 10
-63.70032054709736
 20
-21.70447910257565
 30
0.0
 40
3.0
  1
消費電力
100
AcDbText
  0
TEXT
  5
1CC
330
2
100
AcDbEntity
  8
MOJI1
100
AcDbText
 10
-63.70032054709736
 20
-41.70447910257564
 30
0.0
 40
3.0
  1
音声出力
100
AcDbText
  0
TEXT
  5
1CD
330
2
100
AcDbEntity
  8
MOJI1
100
AcDbText
 10
-63.70032054709736
 20
-36.70447910257565
 30
0.0
 40
3.0
  1
コントラスト
100
AcDbText
  0
TEXT
  5
1CE
330
2
100
AcDbEntity
  8
MOJI1
100
AcDbText
 10
-63.70032054709736
 20
-26.70447910257565
 30
0.0
 40
3.0
  1
画面サイズ
100
AcDbText
  0
LINE
  5
1CF
330
2
100
AcDbEntity
  8
WAKU
 62
     4
100
AcDbLine
 10
-66.20032054709759
 20
-12.70447910257564
 30
0.0
 11
-66.20032054709736
 21
-57.70447910257565
 31
0.0
  0
LINE
  5
1D0
330
2
100
AcDbEntity
  8
WAKU
 62
     4
100
AcDbLine
 10
-26.20032054709759
 20
-12.70447910257564
 30
0.0
 11
-26.20032054709759
 21
-57.70447910257565
 31
0.0
  0
TEXT
  5
1D1
330
2
100
AcDbEntity
  8
MOJI1
100
AcDbText
 10
-24.70032054709736
 20
-46.70447910257564
 30
0.0
 40
3.0
  1
ビデオ入力、ＲＧＢ／コンポーネントビデオ入力、ＨＤＭＩ入力
 41
0.7800000000000001
100
AcDbText
  0
TEXT
  5
1D2
330
2
100
AcDbEntity
  8
MOJI1
100
AcDbText
 10
-24.70032054709736
 20
-16.70447910257564
 30
0.0
 40
3.0
  1
ＡＣ１００Ｖ　５０Ｈｚ／６０Ｈｚ
100
AcDbText
  0
TEXT
  5
1D3
330
2
100
AcDbEntity
  8
MOJI1
100
AcDbText
 10
-24.70032054709736
 20
-41.70447910257564
 30
0.0
 40
3.0
  1
ＲＣＡ×２(左右)
100
AcDbText
  0
TEXT
  5
1D4
330
2
100
AcDbEntity
  8
MOJI1
100
AcDbText
 10
-24.70032054709736
 20
-31.70447910257565
 30
0.0
 40
3.0
  1
１０２４×７６８画素
100
AcDbText
  0
LINE
  5
1D5
330
2
100
AcDbEntity
  8
WAKU
 62
     4
100
AcDbLine
 10
58.79967945290241
 20
-57.70447910257565
 30
0.0
 11
-66.20032054709736
 21
-57.70447910257565
 31
0.0
  0
LINE
  5
1D6
330
2
100
AcDbEntity
  8
WAKU
 62
     1
100
AcDbLine
 10
-66.20032054709736
 20
-42.70447910257565
 30
0.0
 11
58.79967945290241
 21
-42.70447910257565
 31
0.0
  0
LINE
  5
1D7
330
2
100
AcDbEntity
  8
WAKU
 62
     1
100
AcDbLine
 10
-66.20032054709736
 20
-37.70447910257565
 30
0.0
 11
58.79967945290241
 21
-37.70447910257565
 31
0.0
  0
LINE
  5
1D8
330
2
100
AcDbEntity
  8
WAKU
 62
     1
100
AcDbLine
 10
-66.20032054709736
 20
-27.70447910257565
 30
0.0
 11
58.79967945290241
 21
-27.70447910257565
 31
0.0
  0
LINE
  5
1D9
330
2
100
AcDbEntity
  8
WAKU
 62
     1
100
AcDbLine
 10
-66.20032054709736
 20
-17.70447910257565
 30
0.0
 11
58.79967945290241
 21
-17.70447910257565
 31
0.0
  0
LINE
  5
1DA
330
2
100
AcDbEntity
  8
WAKU
 62
     4
100
AcDbLine
 10
-66.20032054709736
 20
-12.70447910257564
 30
0.0
 11
58.79967945290241
 21
-12.70447910257564
 31
0.0
  0
LINE
  5
1DB
330
2
100
AcDbEntity
  8
WAKU
 62
     1
100
AcDbLine
 10
-66.20032054709736
 20
-32.70447910257565
 30
0.0
 11
58.79967945290241
 21
-32.70447910257565
 31
0.0
  0
LINE
  5
1DC
330
2
100
AcDbEntity
  8
WAKU
 62
     1
100
AcDbLine
 10
-66.20032054709736
 20
-22.70447910257565
 30
0.0
 11
58.79967945290241
 21
-22.70447910257565
 31
0.0
  0
TEXT
  5
1DD
330
2
100
AcDbEntity
  8
MOJI1
100
AcDbText
 10
-24.70032054709736
 20
-36.70447910257565
 30
0.0
 40
3.0
  1
２００００００：１
100
AcDbText
  0
TEXT
  5
1DE
330
2
100
AcDbEntity
  8
MOJI1
100
AcDbText
 10
-24.70032054709736
 20
-26.70447910257565
 30
0.0
 40
3.0
  1
５０型（１２６９ｃｍ）１６：９
100
AcDbText
  0
TEXT
  5
1DF
330
2
100
AcDbEntity
  8
MOJI1
100
AcDbText
 10
-24.70032054709736
 20
-21.70447910257565
 30
0.0
 40
3.0
  1
３４０Ｗ
100
AcDbText
  0
ENDSEC
  0
SECTION
  2
OBJECTS
  0
DICTIONARY
  5
7
330
0
100
AcDbDictionary
281
     1
  3
ACAD_COLOR
350
2C
  3
ACAD_GROUP
350
28
  3
ACAD_LAYOUT
350
B
  3
ACAD_MATERIAL
350
2B
  3
ACAD_MLINESTYLE
350
29
  3
ACAD_PLOTSETTINGS
350
2A
  3
ACAD_PLOTSTYLENAME
350
6
  3
ACDBHEADERROUNDTRIPXREC
350
21E
  3
AcDbVariableDictionary
350
219
  0
DICTIONARY
  5
11
330
10
100
AcDbDictionary
280
     1
281
     1
  3
ACAD_LAYERSTATES
360
12
  0
DICTIONARY
  5
2C
102
{ACAD_REACTORS
330
7
102
}
330
7
100
AcDbDictionary
281
     1
  0
DICTIONARY
  5
28
102
{ACAD_REACTORS
330
7
102
}
330
7
100
AcDbDictionary
281
     1
  0
DICTIONARY
  5
B
102
{ACAD_REACTORS
330
7
102
}
330
7
100
AcDbDictionary
281
     1
  3
Model
350
A
  3
レイアウト1
350
F
  0
DICTIONARY
  5
2B
102
{ACAD_REACTORS
330
7
102
}
330
7
100
AcDbDictionary
281
     1
  0
DICTIONARY
  5
29
102
{ACAD_REACTORS
330
7
102
}
330
7
100
AcDbDictionary
281
     1
  3
Standard
350
2E
  0
DICTIONARY
  5
2A
102
{ACAD_REACTORS
330
7
102
}
330
7
100
AcDbDictionary
281
     1
  0
ACDBDICTIONARYWDFLT
  5
6
102
{ACAD_REACTORS
330
7
102
}
330
7
100
AcDbDictionary
281
     1
  3
Normal
350
5
100
AcDbDictionaryWithDefault
340
5
  0
DICTIONARY
  5
21E
102
{ACAD_REACTORS
330
7
102
}
330
7
100
AcDbDictionary
281
     1
  3
COLORDICT
350
220
  3
MATERIALDICT
350
21F
  0
DICTIONARY
  5
219
102
{ACAD_REACTORS
330
7
102
}
330
7
100
AcDbDictionary
281
     1
  3
DIMASSOC
350
21B
  3
HIDETEXT
350
21A
  3
PROJECTNAME
350
21C
  0
DICTIONARY
  5
12
102
{ACAD_REACTORS
330
11
102
}
330
11
100
AcDbDictionary
281
     1
  0
LAYOUT
  5
A
102
{ACAD_XDICTIONARY
360
221
102
}
102
{ACAD_REACTORS
330
B
102
}
330
B
100
AcDbPlotSettings
  1

  2
10F06M_RICOH_SP-8100
  4
A4
  6

 40
5.873749732971191
 41
5.873747825622558
 42
5.873748779296875
 43
5.873748779296875
 44
209.9733276367187
 45
296.9259948730469
 46
5.429999999999999
 47
0.0
 48
0.0
 49
0.0
140
0.0
141
0.0
142
1.0
143
1.382430978808389
 70
 11956
 72
     1
 73
     0
 74
     1
  7
tmsacad.ctb
 75
     0
147
0.7233634194612505
148
0.0126780140091114
149
0.0120236189740126
100
AcDbLayout
  1
Model
 70
     1
 71
     0
 10
0.0
 20
0.0
 11
12.0
 21
9.0
 12
0.0
 22
0.0
 32
0.0
 14
0.0
 24
0.0
 34
0.0
 15
0.0
 25
0.0
 35
0.0
146
0.0
 13
0.0
 23
0.0
 33
0.0
 16
1.0
 26
0.0
 36
0.0
 17
0.0
 27
1.0
 37
0.0
 76
     0
330
2
  0
LAYOUT
  5
F
102
{ACAD_XDICTIONARY
360
223
102
}
102
{ACAD_REACTORS
330
B
102
}
330
B
100
AcDbPlotSettings
  1

  2
None
  4

  6

 40
0.0
 41
0.0
 42
0.0
 43
0.0
 44
0.0
 45
0.0
 46
0.0
 47
0.0
 48
0.0
 49
0.0
140
0.0
141
0.0
142
1.0
143
1.0
 70
   688
 72
     0
 73
     0
 74
     5
  7
tmsacad.ctb
 75
    16
147
1.0
148
0.0
149
0.0
100
AcDbLayout
  1
レイアウト1
 70
     1
 71
     1
 10
0.0
 20
0.0
 11
12.0
 21
9.0
 12
0.0
 22
0.0
 32
0.0
 14
0.0
 24
0.0
 34
0.0
 15
0.0
 25
0.0
 35
0.0
146
0.0
 13
0.0
 23
0.0
 33
0.0
 16
1.0
 26
0.0
 36
0.0
 17
0.0
 27
1.0
 37
0.0
 76
     0
330
C
  0
MLINESTYLE
  5
2E
102
{ACAD_REACTORS
330
29
102
}
330
29
100
AcDbMlineStyle
  2
STANDARD
 70
     0
  3

 62
   256
 51
90.0
 52
90.0
 71
     2
 49
0.5
 62
   256
  6
BYLAYER
 49
-0.5
 62
   256
  6
BYLAYER
  0
ACDBPLACEHOLDER
  5
5
102
{ACAD_REACTORS
330
6
102
}
330
6
  0
XRECORD
  5
220
102
{ACAD_REACTORS
330
21E
102
}
330
21E
100
AcDbXrecord
280
     1
340
2C
  0
XRECORD
  5
21F
102
{ACAD_REACTORS
330
21E
102
}
330
21E
100
AcDbXrecord
280
     1
340
2B
  0
DICTIONARYVAR
  5
21B
102
{ACAD_REACTORS
330
219
102
}
330
219
100
DictionaryVariables
280
     0
  1
1
  0
DICTIONARYVAR
  5
21A
102
{ACAD_REACTORS
330
219
102
}
330
219
100
DictionaryVariables
280
     0
  1
1
  0
DICTIONARYVAR
  5
21C
102
{ACAD_REACTORS
330
219
102
}
330
219
100
DictionaryVariables
280
     0
  1

  0
DICTIONARY
  5
221
330
A
100
AcDbDictionary
280
     1
281
     1
  3
ACAD_XREC_ROUNDTRIP
360
222
  0
DICTIONARY
  5
223
330
F
100
AcDbDictionary
280
     1
281
     1
  3
ACAD_XREC_ROUNDTRIP
360
224
  0
XRECORD
  5
222
102
{ACAD_REACTORS
330
221
102
}
330
221
100
AcDbXrecord
280
     1
102
SHADEPLOT
 70
     0
102
SHADEPLOTRESLEVEL
 70
     2
102
SHADEPLOTCUSTOMDPI
 70
   300
  0
XRECORD
  5
224
102
{ACAD_REACTORS
330
223
102
}
330
223
100
AcDbXrecord
280
     1
102
SHADEPLOT
 70
     0
102
SHADEPLOTRESLEVEL
 70
     2
102
SHADEPLOTCUSTOMDPI
 70
   300
  0
ENDSEC
  0
EOF
