  0
SECTION
  2
HEADER
  9
$ACADVER
  1
AC1015
  9
$ACADMAINTVER
 70
    20
  9
$DWGCODEPAGE
  3
ANSI_932
  9
$INSBASE
 10
129.499999944041
 20
120.5008351249346
 30
0.0
  9
$EXTMIN
 10
-58.65234284039161
 20
-49.13442929733367
 30
-0.0015258207003583
  9
$EXTMAX
 10
66.3812261521598
 20
63.89016765645954
 30
0.0000000349246037
  9
$LIMMIN
 10
0.0
 20
0.0
  9
$LIMMAX
 10
420.0
 20
297.0
  9
$ORTHOMODE
 70
     1
  9
$REGENMODE
 70
     0
  9
$FILLMODE
 70
     1
  9
$QTEXTMODE
 70
     0
  9
$MIRRTEXT
 70
     0
  9
$LTSCALE
 40
1.0
  9
$ATTMODE
 70
     1
  9
$TEXTSIZE
 40
2.5
  9
$TRACEWID
 40
1.0
  9
$TEXTSTYLE
  7
Standard
  9
$CLAYER
  8
GAIKEI
  9
$CELTYPE
  6
ByLayer
  9
$CECOLOR
 62
   256
  9
$CELTSCALE
 40
1.0
  9
$DISPSILH
 70
     0
  9
$DIMSCALE
 40
1.0
  9
$DIMASZ
 40
2.0
  9
$DIMEXO
 40
2.0
  9
$DIMDLI
 40
8.0
  9
$DIMRND
 40
0.0
  9
$DIMDLE
 40
0.0
  9
$DIMEXE
 40
2.0
  9
$DIMTP
 40
0.0
  9
$DIMTM
 40
0.0
  9
$DIMTXT
 40
2.5
  9
$DIMCEN
 40
0.0
  9
$DIMTSZ
 40
0.0
  9
$DIMTOL
 70
     0
  9
$DIMLIM
 70
     0
  9
$DIMTIH
 70
     0
  9
$DIMTOH
 70
     0
  9
$DIMSE1
 70
     0
  9
$DIMSE2
 70
     0
  9
$DIMTAD
 70
     3
  9
$DIMZIN
 70
     0
  9
$DIMBLK
  1

  9
$DIMASO
 70
     1
  9
$DIMSHO
 70
     1
  9
$DIMPOST
  1

  9
$DIMAPOST
  1

  9
$DIMALT
 70
     0
  9
$DIMALTD
 70
     2
  9
$DIMALTF
 40
25.4
  9
$DIMLFAC
 40
1.0
  9
$DIMTOFL
 70
     1
  9
$DIMTVP
 40
0.0
  9
$DIMTIX
 70
     0
  9
$DIMSOXD
 70
     0
  9
$DIMSAH
 70
     1
  9
$DIMBLK1
  1
OPEN30
  9
$DIMBLK2
  1
OPEN30
  9
$DIMSTYLE
  2
STANDARD
  9
$DIMCLRD
 70
     0
  9
$DIMCLRE
 70
     0
  9
$DIMCLRT
 70
     0
  9
$DIMTFAC
 40
1.0
  9
$DIMGAP
 40
0.5
  9
$DIMJUST
 70
     0
  9
$DIMSD1
 70
     0
  9
$DIMSD2
 70
     0
  9
$DIMTOLJ
 70
     1
  9
$DIMTZIN
 70
     0
  9
$DIMALTZ
 70
     0
  9
$DIMALTTZ
 70
     0
  9
$DIMUPT
 70
     0
  9
$DIMDEC
 70
     4
  9
$DIMTDEC
 70
     4
  9
$DIMALTU
 70
     2
  9
$DIMALTTD
 70
     2
  9
$DIMTXSTY
  7
Standard
  9
$DIMAUNIT
 70
     0
  9
$DIMADEC
 70
     0
  9
$DIMALTRND
 40
0.0
  9
$DIMAZIN
 70
     0
  9
$DIMDSEP
 70
    46
  9
$DIMATFIT
 70
     3
  9
$DIMFRAC
 70
     0
  9
$DIMLDRBLK
  1
OPEN30
  9
$DIMLUNIT
 70
     2
  9
$DIMLWD
 70
    -2
  9
$DIMLWE
 70
    -2
  9
$DIMTMOVE
 70
     0
  9
$LUNITS
 70
     2
  9
$LUPREC
 70
     4
  9
$SKETCHINC
 40
1.0
  9
$FILLETRAD
 40
0.0
  9
$AUNITS
 70
     0
  9
$AUPREC
 70
     0
  9
$MENU
  1
.
  9
$ELEVATION
 40
0.0
  9
$PELEVATION
 40
0.0
  9
$THICKNESS
 40
0.0
  9
$LIMCHECK
 70
     0
  9
$CHAMFERA
 40
0.0
  9
$CHAMFERB
 40
0.0
  9
$CHAMFERC
 40
0.0
  9
$CHAMFERD
 40
0.0
  9
$SKPOLY
 70
     0
  9
$TDCREATE
 40
2454349.434269746
  9
$TDUCREATE
 40
2454349.059269746
  9
$TDUPDATE
 40
2455756.336057338
  9
$TDUUPDATE
 40
2455755.961057338
  9
$TDINDWG
 40
0.5902444444
  9
$TDUSRTIMER
 40
0.5902444444
  9
$USRTIMER
 70
     1
  9
$ANGBASE
 50
0.0
  9
$ANGDIR
 70
     0
  9
$PDMODE
 70
     0
  9
$PDSIZE
 40
0.0
  9
$PLINEWID
 40
0.0
  9
$SPLFRAME
 70
     0
  9
$SPLINETYPE
 70
     6
  9
$SPLINESEGS
 70
     8
  9
$HANDSEED
  5
308
  9
$SURFTAB1
 70
     6
  9
$SURFTAB2
 70
     6
  9
$SURFTYPE
 70
     6
  9
$SURFU
 70
     6
  9
$SURFV
 70
     6
  9
$UCSBASE
  2

  9
$UCSNAME
  2

  9
$UCSORG
 10
0.0
 20
0.0
 30
0.0
  9
$UCSXDIR
 10
1.0
 20
0.0
 30
0.0
  9
$UCSYDIR
 10
0.0
 20
1.0
 30
0.0
  9
$UCSORTHOREF
  2

  9
$UCSORTHOVIEW
 70
     0
  9
$UCSORGTOP
 10
0.0
 20
0.0
 30
0.0
  9
$UCSORGBOTTOM
 10
0.0
 20
0.0
 30
0.0
  9
$UCSORGLEFT
 10
0.0
 20
0.0
 30
0.0
  9
$UCSORGRIGHT
 10
0.0
 20
0.0
 30
0.0
  9
$UCSORGFRONT
 10
0.0
 20
0.0
 30
0.0
  9
$UCSORGBACK
 10
0.0
 20
0.0
 30
0.0
  9
$PUCSBASE
  2

  9
$PUCSNAME
  2

  9
$PUCSORG
 10
0.0
 20
0.0
 30
0.0
  9
$PUCSXDIR
 10
1.0
 20
0.0
 30
0.0
  9
$PUCSYDIR
 10
0.0
 20
1.0
 30
0.0
  9
$PUCSORTHOREF
  2

  9
$PUCSORTHOVIEW
 70
     0
  9
$PUCSORGTOP
 10
0.0
 20
0.0
 30
0.0
  9
$PUCSORGBOTTOM
 10
0.0
 20
0.0
 30
0.0
  9
$PUCSORGLEFT
 10
0.0
 20
0.0
 30
0.0
  9
$PUCSORGRIGHT
 10
0.0
 20
0.0
 30
0.0
  9
$PUCSORGFRONT
 10
0.0
 20
0.0
 30
0.0
  9
$PUCSORGBACK
 10
0.0
 20
0.0
 30
0.0
  9
$USERI1
 70
     0
  9
$USERI2
 70
     0
  9
$USERI3
 70
     0
  9
$USERI4
 70
     0
  9
$USERI5
 70
     0
  9
$USERR1
 40
0.0
  9
$USERR2
 40
0.0
  9
$USERR3
 40
0.0
  9
$USERR4
 40
0.0
  9
$USERR5
 40
0.0
  9
$WORLDVIEW
 70
     1
  9
$SHADEDGE
 70
     3
  9
$SHADEDIF
 70
    70
  9
$TILEMODE
 70
     1
  9
$MAXACTVP
 70
    64
  9
$PINSBASE
 10
0.0
 20
0.0
 30
0.0
  9
$PLIMCHECK
 70
     0
  9
$PEXTMIN
 10
0.0
 20
0.0
 30
0.0
  9
$PEXTMAX
 10
0.0
 20
0.0
 30
0.0
  9
$PLIMMIN
 10
0.0
 20
0.0
  9
$PLIMMAX
 10
12.0
 20
9.0
  9
$UNITMODE
 70
     0
  9
$VISRETAIN
 70
     1
  9
$PLINEGEN
 70
     0
  9
$PSLTSCALE
 70
     1
  9
$TREEDEPTH
 70
  3020
  9
$CMLSTYLE
  2
Standard
  9
$CMLJUST
 70
     0
  9
$CMLSCALE
 40
20.0
  9
$PROXYGRAPHICS
 70
     1
  9
$MEASUREMENT
 70
     1
  9
$CELWEIGHT
370
    -1
  9
$ENDCAPS
280
     0
  9
$JOINSTYLE
280
     0
  9
$LWDISPLAY
290
     0
  9
$INSUNITS
 70
     4
  9
$HYPERLINKBASE
  1

  9
$STYLESHEET
  1

  9
$XEDIT
290
     1
  9
$CEPSNTYPE
380
     0
  9
$PSTYLEMODE
290
     1
  9
$FINGERPRINTGUID
  2
{FDEAD578-A652-11D2-9A35-0060089B3A3F}
  9
$VERSIONGUID
  2
{95CBBCDD-705F-4577-8D8E-B45F9CDC3A75}
  9
$EXTNAMES
290
     1
  9
$PSVPSCALE
 40
0.0
  9
$OLESTARTUP
290
     0
  0
ENDSEC
  0
SECTION
  2
CLASSES
  0
CLASS
  1
ACDBDICTIONARYWDFLT
  2
AcDbDictionaryWithDefault
  3
ObjectDBX Classes
 90
        0
280
     0
281
     0
  0
CLASS
  1
ACDBPLACEHOLDER
  2
AcDbPlaceHolder
  3
ObjectDBX Classes
 90
        0
280
     0
281
     0
  0
CLASS
  1
LAYOUT
  2
AcDbLayout
  3
ObjectDBX Classes
 90
        0
280
     0
281
     0
  0
CLASS
  1
DICTIONARYVAR
  2
AcDbDictionaryVar
  3
ObjectDBX Classes
 90
        0
280
     0
281
     0
  0
CLASS
  1
SORTENTSTABLE
  2
AcDbSortentsTable
  3
ObjectDBX Classes
 90
    32768
280
     0
281
     0
  0
ENDSEC
  0
SECTION
  2
TABLES
  0
TABLE
  2
VPORT
  5
1C
330
0
100
AcDbSymbolTable
 70
     3
  0
VPORT
  5
300
330
1C
100
AcDbSymbolTableRecord
100
AcDbViewportTableRecord
  2
*Active
 70
     0
 10
0.0
 20
0.0
 11
1.0
 21
1.0
 12
3.864441655884093
 22
7.377869179562935
 13
0.0
 23
0.0
 14
10.0
 24
10.0
 15
10.0
 25
10.0
 16
0.0
 26
0.0
 36
1.0
 17
0.0
 27
0.0
 37
0.0
 40
113.8786871070964
 41
2.184110970996216
 42
50.0
 43
0.0
 44
0.0
 50
0.0
 51
0.0
 71
     0
 72
  1000
 73
     1
 74
     2
 75
     0
 76
     0
 77
     0
 78
     0
281
     0
 65
     1
110
0.0
120
0.0
130
0.0
111
1.0
121
0.0
131
0.0
112
0.0
122
1.0
132
0.0
 79
     0
146
0.0
  0
ENDTAB
  0
TABLE
  2
LTYPE
  5
17
330
0
100
AcDbSymbolTable
 70
     1
  0
LTYPE
  5
18
330
17
100
AcDbSymbolTableRecord
100
AcDbLinetypeTableRecord
  2
ByBlock
 70
     0
  3

 72
    65
 73
     0
 40
0.0
  0
LTYPE
  5
19
330
17
100
AcDbSymbolTableRecord
100
AcDbLinetypeTableRecord
  2
ByLayer
 70
     0
  3

 72
    65
 73
     0
 40
0.0
  0
LTYPE
  5
8
330
17
100
AcDbSymbolTableRecord
100
AcDbLinetypeTableRecord
  2
Continuous
 70
     0
  3
Solid line
 72
    65
 73
     0
 40
0.0
  0
ENDTAB
  0
TABLE
  2
LAYER
  5
10
102
{ACAD_XDICTIONARY
360
11
102
}
330
0
100
AcDbSymbolTable
 70
     7
  0
LAYER
  5
4
330
10
100
AcDbSymbolTableRecord
100
AcDbLayerTableRecord
  2
0
 70
     0
 62
     7
  6
Continuous
370
    -3
390
5
  0
LAYER
  5
29D
330
10
100
AcDbSymbolTableRecord
100
AcDbLayerTableRecord
  2
WAKU
 70
     0
 62
     4
  6
Continuous
370
    -3
390
5
  0
LAYER
  5
31
330
10
100
AcDbSymbolTableRecord
100
AcDbLayerTableRecord
  2
MOJI1
 70
     0
 62
     2
  6
Continuous
370
    -3
390
5
  0
LAYER
  5
33
330
10
100
AcDbSymbolTableRecord
100
AcDbLayerTableRecord
  2
TOUROKU
 70
     0
 62
     1
  6
Continuous
370
    -3
390
5
  0
LAYER
  5
41
330
10
100
AcDbSymbolTableRecord
100
AcDbLayerTableRecord
  2
DEFPOINTS
 70
     0
 62
     7
  6
Continuous
290
     0
370
    -3
390
5
  0
LAYER
  5
2E
330
10
100
AcDbSymbolTableRecord
100
AcDbLayerTableRecord
  2
GAIKEI
 70
     0
 62
     7
  6
Continuous
370
    -3
390
5
  0
LAYER
  5
35
330
10
100
AcDbSymbolTableRecord
100
AcDbLayerTableRecord
  2
SUNPO
 70
     0
 62
     3
  6
Continuous
370
    -3
390
5
  0
ENDTAB
  0
TABLE
  2
STYLE
  5
14
330
0
100
AcDbSymbolTable
 70
     1
  0
STYLE
  5
15
330
14
100
AcDbSymbolTableRecord
100
AcDbTextStyleTableRecord
  2
Standard
 70
     0
 40
0.0
 41
1.0
 50
0.0
 71
     0
 42
2.5
  3
MONOTXT.shx
  4
BIGFONT.shx
  0
ENDTAB
  0
TABLE
  2
VIEW
  5
1A
330
0
100
AcDbSymbolTable
 70
     0
  0
ENDTAB
  0
TABLE
  2
UCS
  5
1B
330
0
100
AcDbSymbolTable
 70
     0
  0
ENDTAB
  0
TABLE
  2
APPID
  5
1E
330
0
100
AcDbSymbolTable
 70
     1
  0
APPID
  5
1F
330
1E
100
AcDbSymbolTableRecord
100
AcDbRegAppTableRecord
  2
ACAD
 70
     0
  0
ENDTAB
  0
TABLE
  2
DIMSTYLE
  5
20
330
0
100
AcDbSymbolTable
 70
     1
100
AcDbDimStyleTable
 71
     1
340
21
  0
DIMSTYLE
105
21
102
{ACAD_REACTORS
330
34
330
28E
330
185
330
178
102
}
330
20
100
AcDbSymbolTableRecord
100
AcDbDimStyleTableRecord
  2
STANDARD
 70
     0
 40
0.0
 41
2.0
 42
2.0
 43
8.0
 44
2.0
 73
     0
 74
     0
 77
     3
140
3.0
141
0.0
173
     1
279
     2
288
     1
340
15
341
22
343
22
344
22
  0
ENDTAB
  0
TABLE
  2
BLOCK_RECORD
  5
1
330
0
100
AcDbSymbolTable
 70
     9
  0
BLOCK_RECORD
  5
2
330
1
100
AcDbSymbolTableRecord
100
AcDbBlockTableRecord
  2
*Model_Space
340
A
  0
BLOCK_RECORD
  5
C
330
1
100
AcDbSymbolTableRecord
100
AcDbBlockTableRecord
  2
*Paper_Space
340
F
  0
BLOCK_RECORD
  5
22
330
1
100
AcDbSymbolTableRecord
100
AcDbBlockTableRecord
  2
_OPEN30
340
0
102
{BLKREFS
331
294
331
295
331
18B
331
18C
331
17E
331
17F
331
3D
331
3E
331
2CE
331
2CF
331
2DA
331
2DB
331
2E6
331
2E7
331
2F4
331
2F5
102
}
  0
BLOCK_RECORD
  5
36
330
1
100
AcDbSymbolTableRecord
100
AcDbBlockTableRecord
  2
*D1
340
0
  0
BLOCK_RECORD
  5
28F
330
1
100
AcDbSymbolTableRecord
100
AcDbBlockTableRecord
  2
*D2
340
0
  0
BLOCK_RECORD
  5
186
330
1
100
AcDbSymbolTableRecord
100
AcDbBlockTableRecord
  2
*D3
340
0
  0
BLOCK_RECORD
  5
179
330
1
100
AcDbSymbolTableRecord
100
AcDbBlockTableRecord
  2
*D4
340
0
  0
BLOCK_RECORD
  5
2CA
330
1
100
AcDbSymbolTableRecord
100
AcDbBlockTableRecord
  2
*D5
340
0
  0
BLOCK_RECORD
  5
2D6
330
1
100
AcDbSymbolTableRecord
100
AcDbBlockTableRecord
  2
*D6
340
0
  0
BLOCK_RECORD
  5
2E2
330
1
100
AcDbSymbolTableRecord
100
AcDbBlockTableRecord
  2
*D7
340
0
  0
BLOCK_RECORD
  5
2EE
330
1
100
AcDbSymbolTableRecord
100
AcDbBlockTableRecord
  2
*D8
340
0
  0
ENDTAB
  0
ENDSEC
  0
SECTION
  2
BLOCKS
  0
BLOCK
  5
3
330
2
100
AcDbEntity
  8
0
100
AcDbBlockBegin
  2
*Model_Space
 70
     0
 10
0.0
 20
0.0
 30
0.0
  3
*Model_Space
  1

  0
ENDBLK
  5
9
330
2
100
AcDbEntity
  8
0
100
AcDbBlockEnd
  0
BLOCK
  5
D
330
C
100
AcDbEntity
 67
     1
  8
0
100
AcDbBlockBegin
  2
*Paper_Space
 70
     0
 10
0.0
 20
0.0
 30
0.0
  3
*Paper_Space
  1

  0
ENDBLK
  5
E
330
C
100
AcDbEntity
 67
     1
  8
0
100
AcDbBlockEnd
  0
BLOCK
  5
23
330
22
100
AcDbEntity
  8
0
100
AcDbBlockBegin
  2
_OPEN30
 70
     0
 10
0.0
 20
0.0
 30
0.0
  3
_OPEN30
  1

  0
LINE
  5
24
330
22
100
AcDbEntity
  8
0
  6
ByBlock
 62
     0
100
AcDbLine
 10
-1.0
 20
0.26794919
 30
0.0
 11
0.0
 21
0.0
 31
0.0
  0
LINE
  5
25
330
22
100
AcDbEntity
  8
0
  6
ByBlock
 62
     0
100
AcDbLine
 10
0.0
 20
0.0
 30
0.0
 11
-1.0
 21
-0.26794919
 31
0.0
  0
LINE
  5
26
330
22
100
AcDbEntity
  8
0
  6
ByBlock
 62
     0
100
AcDbLine
 10
0.0
 20
0.0
 30
0.0
 11
-1.0
 21
0.0
 31
0.0
  0
ENDBLK
  5
27
330
22
100
AcDbEntity
  8
0
100
AcDbBlockEnd
  0
BLOCK
  5
37
330
36
100
AcDbEntity
  8
0
100
AcDbBlockBegin
  2
*D1
 70
     1
 10
0.0
 20
0.0
 30
0.0
  3
*D1
  1

  0
LINE
  5
38
330
36
100
AcDbEntity
  8
SUNPO
 62
     0
370
    -2
100
AcDbLine
 10
230.5293522297889
 20
90.89146376508535
 30
0.0
 11
230.5293522297889
 21
98.89144138566726
 31
0.0
  0
LINE
  5
39
330
36
100
AcDbEntity
  8
SUNPO
 62
     0
370
    -2
100
AcDbLine
 10
234.9793522297889
 20
90.89146376508535
 30
0.0
 11
234.9793522297889
 21
98.89144138566726
 31
0.0
  0
LINE
  5
3A
330
36
100
AcDbEntity
  8
SUNPO
 62
     0
370
    -2
100
AcDbLine
 10
228.5293522297889
 20
96.89144138566724
 30
0.0
 11
226.5293522297889
 21
96.89144138566724
 31
0.0
  0
LINE
  5
3B
330
36
100
AcDbEntity
  8
SUNPO
 62
     0
370
    -2
100
AcDbLine
 10
236.9793522297889
 20
96.89144138566724
 30
0.0
 11
244.1460188964556
 21
96.89144138566724
 31
0.0
  0
LINE
  5
3C
330
36
100
AcDbEntity
  8
SUNPO
 62
     0
370
    -2
100
AcDbLine
 10
230.5293522297889
 20
96.89144138566724
 30
0.0
 11
234.9793522297889
 21
96.89144138566724
 31
0.0
  0
INSERT
  5
3D
330
36
100
AcDbEntity
  8
SUNPO
 62
     0
370
    -2
100
AcDbBlockReference
  2
_OPEN30
 10
230.5293522297889
 20
96.89144138566724
 30
0.0
 41
2.0
 42
2.0
 43
2.0
  0
INSERT
  5
3E
330
36
100
AcDbEntity
  8
SUNPO
 62
     0
370
    -2
100
AcDbBlockReference
  2
_OPEN30
 10
234.9793522297889
 20
96.89144138566724
 30
0.0
 41
2.0
 42
2.0
 43
2.0
 50
180.0
  0
MTEXT
  5
3F
330
36
100
AcDbEntity
  8
SUNPO
 62
     0
100
AcDbMText
 10
241.5626855631222
 20
98.64144138566725
 30
0.0
 40
2.5
 41
0.0
 71
     5
 72
     1
  1
\A1;89
 73
     1
 44
1.0
1001
ACAD
1000
MTEXTBEGIN
1070
    73
1070
     1
1070
    44
1040
1.0
1070
    74
1070
     0
1000
MTEXTEND
  0
POINT
  5
40
330
36
100
AcDbEntity
  8
DEFPOINTS
 62
     0
100
AcDbPoint
 10
230.5293522297889
 20
88.89146376508534
 30
0.0
  0
POINT
  5
42
330
36
100
AcDbEntity
  8
DEFPOINTS
 62
     0
100
AcDbPoint
 10
234.9793522297889
 20
88.89146376508534
 30
0.0
  0
POINT
  5
43
330
36
100
AcDbEntity
  8
DEFPOINTS
 62
     0
100
AcDbPoint
 10
234.9793522297889
 20
96.89144138566724
 30
0.0
  0
ENDBLK
  5
44
330
36
100
AcDbEntity
  8
0
100
AcDbBlockEnd
  0
BLOCK
  5
290
330
28F
100
AcDbEntity
  8
0
100
AcDbBlockBegin
  2
*D2
 70
     1
 10
0.0
 20
0.0
 30
0.0
  3
*D2
  1

  0
LINE
  5
291
330
28F
100
AcDbEntity
  8
SUNPO
 62
     0
370
    -2
100
AcDbLine
 10
145.1600366188207
 20
90.88493126052624
 30
0.0
 11
145.1600366188207
 21
98.8849413856672
 31
0.0
  0
LINE
  5
292
330
28F
100
AcDbEntity
  8
SUNPO
 62
     0
370
    -2
100
AcDbLine
 10
205.6600366188208
 20
90.88493126052624
 30
0.0
 11
205.6600366188208
 21
98.8849413856672
 31
0.0
  0
LINE
  5
293
330
28F
100
AcDbEntity
  8
SUNPO
 62
     0
370
    -2
100
AcDbLine
 10
147.1600366188207
 20
96.88494138566719
 30
0.0
 11
203.6600366188208
 21
96.88494138566719
 31
0.0
  0
INSERT
  5
294
330
28F
100
AcDbEntity
  8
SUNPO
 62
     0
370
    -2
100
AcDbBlockReference
  2
_OPEN30
 10
145.1600366188207
 20
96.88494138566719
 30
0.0
 41
2.0
 42
2.0
 43
2.0
 50
180.0
  0
INSERT
  5
295
330
28F
100
AcDbEntity
  8
SUNPO
 62
     0
370
    -2
100
AcDbBlockReference
  2
_OPEN30
 10
205.6600366188208
 20
96.88494138566719
 30
0.0
 41
2.0
 42
2.0
 43
2.0
  0
MTEXT
  5
296
330
28F
100
AcDbEntity
  8
SUNPO
 62
     0
100
AcDbMText
 10
175.4100366188207
 20
98.6349413856672
 30
0.0
 40
2.5
 41
0.0
 71
     5
 72
     1
  1
\A1;1210
 73
     1
 44
1.0
1001
ACAD
1000
MTEXTBEGIN
1070
    73
1070
     1
1070
    44
1040
1.0
1070
    74
1070
     0
1000
MTEXTEND
  0
POINT
  5
297
330
28F
100
AcDbEntity
  8
DEFPOINTS
 62
     0
100
AcDbPoint
 10
145.1600366188207
 20
88.88493126052622
 30
0.0
  0
POINT
  5
298
330
28F
100
AcDbEntity
  8
DEFPOINTS
 62
     0
100
AcDbPoint
 10
205.6600366188208
 20
88.88493126052622
 30
0.0
  0
POINT
  5
299
330
28F
100
AcDbEntity
  8
DEFPOINTS
 62
     0
100
AcDbPoint
 10
205.6600366188208
 20
96.88494138566719
 30
0.0
  0
ENDBLK
  5
29A
330
28F
100
AcDbEntity
  8
0
100
AcDbBlockEnd
  0
BLOCK
  5
187
330
186
100
AcDbEntity
  8
0
100
AcDbBlockBegin
  2
*D3
 70
     1
 10
0.0
 20
0.0
 30
0.0
  3
*D3
  1

  0
LINE
  5
188
330
186
100
AcDbEntity
  8
SUNPO
 62
     0
370
    -2
100
AcDbLine
 10
139.9148326188207
 20
90.87396504921157
 30
0.0
 11
139.9148326188207
 21
103.8849413856671
 31
0.0
  0
LINE
  5
189
330
186
100
AcDbEntity
  8
SUNPO
 62
     0
370
    -2
100
AcDbLine
 10
210.9052406188208
 20
90.86130379151393
 30
0.0
 11
210.9052406188208
 21
103.8849413856671
 31
0.0
  0
LINE
  5
18A
330
186
100
AcDbEntity
  8
SUNPO
 62
     0
370
    -2
100
AcDbLine
 10
141.9148326188207
 20
101.8849413856671
 30
0.0
 11
208.9052406188208
 21
101.8849413856671
 31
0.0
  0
INSERT
  5
18B
330
186
100
AcDbEntity
  8
SUNPO
 62
     0
370
    -2
100
AcDbBlockReference
  2
_OPEN30
 10
139.9148326188207
 20
101.8849413856671
 30
0.0
 41
2.0
 42
2.0
 43
2.0
 50
180.0
  0
INSERT
  5
18C
330
186
100
AcDbEntity
  8
SUNPO
 62
     0
370
    -2
100
AcDbBlockReference
  2
_OPEN30
 10
210.9052406188208
 20
101.8849413856671
 30
0.0
 41
2.0
 42
2.0
 43
2.0
  0
MTEXT
  5
18D
330
186
100
AcDbEntity
  8
SUNPO
 62
     0
100
AcDbMText
 10
175.4100366188207
 20
103.6349413856671
 30
0.0
 40
2.5
 41
0.0
 71
     5
 72
     1
  1
\A1;1427
 73
     1
 44
1.0
1001
ACAD
1000
MTEXTBEGIN
1070
    73
1070
     1
1070
    44
1040
1.0
1070
    74
1070
     0
1000
MTEXTEND
  0
POINT
  5
18E
330
186
100
AcDbEntity
  8
DEFPOINTS
 62
     0
100
AcDbPoint
 10
139.9148326188207
 20
88.87396504921156
 30
0.0
  0
POINT
  5
18F
330
186
100
AcDbEntity
  8
DEFPOINTS
 62
     0
100
AcDbPoint
 10
210.9052406188208
 20
88.86130379151394
 30
0.0
  0
POINT
  5
190
330
186
100
AcDbEntity
  8
DEFPOINTS
 62
     0
100
AcDbPoint
 10
210.9052406188208
 20
101.8849413856671
 30
0.0
  0
ENDBLK
  5
191
330
186
100
AcDbEntity
  8
0
100
AcDbBlockEnd
  0
BLOCK
  5
17A
330
179
100
AcDbEntity
  8
0
100
AcDbBlockBegin
  2
*D4
 70
     1
 10
0.0
 20
0.0
 30
0.0
  3
*D4
  1

  0
LINE
  5
17B
330
179
100
AcDbEntity
  8
SUNPO
 62
     0
370
    -2
100
AcDbLine
 10
212.9235383955429
 20
52.68521770487757
 30
0.0
 11
220.9235383955429
 21
52.68521770487757
 31
0.0
  0
LINE
  5
17C
330
179
100
AcDbEntity
  8
SUNPO
 62
     0
370
    -2
100
AcDbLine
 10
212.9235383955429
 20
88.88521770487756
 30
0.0
 11
220.9235383955429
 21
88.88521770487756
 31
0.0
  0
LINE
  5
17D
330
179
100
AcDbEntity
  8
SUNPO
 62
     0
370
    -2
100
AcDbLine
 10
218.9235383955429
 20
54.68521770487758
 30
0.0
 11
218.9235383955429
 21
86.88521770487756
 31
0.0
  0
INSERT
  5
17E
330
179
100
AcDbEntity
  8
SUNPO
 62
     0
370
    -2
100
AcDbBlockReference
  2
_OPEN30
 10
218.9235383955429
 20
52.68521770487757
 30
0.0
 41
2.0
 42
2.0
 43
2.0
 50
270.0
  0
INSERT
  5
17F
330
179
100
AcDbEntity
  8
SUNPO
 62
     0
370
    -2
100
AcDbBlockReference
  2
_OPEN30
 10
218.9235383955429
 20
88.88521770487756
 30
0.0
 41
2.0
 42
2.0
 43
2.0
 50
90.0
  0
MTEXT
  5
180
330
179
100
AcDbEntity
  8
SUNPO
 62
     0
100
AcDbMText
 10
217.1735383955429
 20
70.7852177048776
 30
0.0
 40
2.5
 41
0.0
 71
     5
 72
     1
  1
\A1;724
 11
0.0000000000000001
 21
1.0
 31
0.0
 73
     1
 44
1.0
1001
ACAD
1000
MTEXTBEGIN
1070
    73
1070
     1
1070
    44
1040
1.0
1070
    74
1070
     0
1000
MTEXTEND
  0
POINT
  5
181
330
179
100
AcDbEntity
  8
DEFPOINTS
 62
     0
100
AcDbPoint
 10
210.9235383955429
 20
52.68521770487757
 30
0.0
  0
POINT
  5
182
330
179
100
AcDbEntity
  8
DEFPOINTS
 62
     0
100
AcDbPoint
 10
210.9235383955429
 20
88.88521770487756
 30
0.0
  0
POINT
  5
183
330
179
100
AcDbEntity
  8
DEFPOINTS
 62
     0
100
AcDbPoint
 10
218.9235383955429
 20
88.88521770487756
 30
0.0
  0
ENDBLK
  5
184
330
179
100
AcDbEntity
  8
0
100
AcDbBlockEnd
  0
BLOCK
  5
2D4
330
2CA
100
AcDbEntity
  8
0
100
AcDbBlockBegin
  2
*D5
 70
     1
 10
0.0
 20
0.0
 30
0.0
  3
*D5
  1

  0
LINE
  5
2CB
330
2CA
100
AcDbEntity
  8
SUNPO
 62
     0
370
    -2
100
AcDbLine
 10
-44.97518377405697
 20
36.26182320364847
 30
0.0
 11
-44.97518377405697
 21
44.26183332878943
 31
0.0
  0
LINE
  5
2CC
330
2CA
100
AcDbEntity
  8
SUNPO
 62
     0
370
    -2
100
AcDbLine
 10
15.52481622594305
 20
36.26182320364847
 30
0.0
 11
15.52481622594305
 21
44.26183332878943
 31
0.0
  0
LINE
  5
2CD
330
2CA
100
AcDbEntity
  8
SUNPO
 62
     0
370
    -2
100
AcDbLine
 10
-42.97518377405697
 20
42.26183332878943
 30
0.0
 11
13.52481622594305
 21
42.26183332878943
 31
0.0
  0
INSERT
  5
2CE
330
2CA
100
AcDbEntity
  8
SUNPO
 62
     0
370
    -2
100
AcDbBlockReference
  2
_OPEN30
 10
-44.97518377405697
 20
42.26183332878943
 30
0.0
 41
2.0
 42
2.0
 43
2.0
 50
180.0
  0
INSERT
  5
2CF
330
2CA
100
AcDbEntity
  8
SUNPO
 62
     0
370
    -2
100
AcDbBlockReference
  2
_OPEN30
 10
15.52481622594305
 20
42.26183332878943
 30
0.0
 41
2.0
 42
2.0
 43
2.0
  0
MTEXT
  5
2D0
330
2CA
100
AcDbEntity
  8
SUNPO
 62
     0
100
AcDbMText
 10
-14.72518377405696
 20
44.01183332878943
 30
0.0
 40
2.5
 41
0.0
 71
     5
 72
     1
  1
\A1;1210
 73
     1
 44
1.0
1001
ACAD
1000
MTEXTBEGIN
1070
    73
1070
     1
1070
    44
1040
1.0
1070
    74
1070
     0
1000
MTEXTEND
  0
POINT
  5
2D1
330
2CA
100
AcDbEntity
  8
DEFPOINTS
 62
     0
100
AcDbPoint
 10
-44.97518377405697
 20
34.26182320364848
 30
0.0
  0
POINT
  5
2D2
330
2CA
100
AcDbEntity
  8
DEFPOINTS
 62
     0
100
AcDbPoint
 10
15.52481622594305
 20
34.26182320364848
 30
0.0
  0
POINT
  5
2D3
330
2CA
100
AcDbEntity
  8
DEFPOINTS
 62
     0
100
AcDbPoint
 10
15.52481622594305
 20
42.26183332878943
 30
0.0
  0
ENDBLK
  5
2D5
330
2CA
100
AcDbEntity
  8
0
100
AcDbBlockEnd
  0
BLOCK
  5
2E0
330
2D6
100
AcDbEntity
  8
0
100
AcDbBlockBegin
  2
*D6
 70
     1
 10
0.0
 20
0.0
 30
0.0
  3
*D6
  1

  0
LINE
  5
2D7
330
2D6
100
AcDbEntity
  8
SUNPO
 62
     0
370
    -2
100
AcDbLine
 10
-50.22038777405703
 20
36.25085699233381
 30
0.0
 11
-50.22038777405703
 21
49.26183332878938
 31
0.0
  0
LINE
  5
2D8
330
2D6
100
AcDbEntity
  8
SUNPO
 62
     0
370
    -2
100
AcDbLine
 10
20.77002022594306
 20
36.23819573463618
 30
0.0
 11
20.77002022594306
 21
49.26183332878938
 31
0.0
  0
LINE
  5
2D9
330
2D6
100
AcDbEntity
  8
SUNPO
 62
     0
370
    -2
100
AcDbLine
 10
-48.22038777405703
 20
47.26183332878938
 30
0.0
 11
18.77002022594306
 21
47.26183332878938
 31
0.0
  0
INSERT
  5
2DA
330
2D6
100
AcDbEntity
  8
SUNPO
 62
     0
370
    -2
100
AcDbBlockReference
  2
_OPEN30
 10
-50.22038777405703
 20
47.26183332878938
 30
0.0
 41
2.0
 42
2.0
 43
2.0
 50
180.0
  0
INSERT
  5
2DB
330
2D6
100
AcDbEntity
  8
SUNPO
 62
     0
370
    -2
100
AcDbBlockReference
  2
_OPEN30
 10
20.77002022594306
 20
47.26183332878938
 30
0.0
 41
2.0
 42
2.0
 43
2.0
  0
MTEXT
  5
2DC
330
2D6
100
AcDbEntity
  8
SUNPO
 62
     0
100
AcDbMText
 10
-14.72518377405698
 20
49.01183332878938
 30
0.0
 40
2.5
 41
0.0
 71
     5
 72
     1
  1
\A1;1427
 73
     1
 44
1.0
1001
ACAD
1000
MTEXTBEGIN
1070
    73
1070
     1
1070
    44
1040
1.0
1070
    74
1070
     0
1000
MTEXTEND
  0
POINT
  5
2DD
330
2D6
100
AcDbEntity
  8
DEFPOINTS
 62
     0
100
AcDbPoint
 10
-50.22038777405703
 20
34.25085699233381
 30
0.0
  0
POINT
  5
2DE
330
2D6
100
AcDbEntity
  8
DEFPOINTS
 62
     0
100
AcDbPoint
 10
20.77002022594306
 20
34.23819573463618
 30
0.0
  0
POINT
  5
2DF
330
2D6
100
AcDbEntity
  8
DEFPOINTS
 62
     0
100
AcDbPoint
 10
20.77002022594306
 20
47.26183332878938
 30
0.0
  0
ENDBLK
  5
2E1
330
2D6
100
AcDbEntity
  8
0
100
AcDbBlockEnd
  0
BLOCK
  5
2EC
330
2E2
100
AcDbEntity
  8
0
100
AcDbBlockBegin
  2
*D7
 70
     1
 10
0.0
 20
0.0
 30
0.0
  3
*D7
  1

  0
LINE
  5
2E3
330
2E2
100
AcDbEntity
  8
SUNPO
 62
     0
370
    -2
100
AcDbLine
 10
22.78831800266516
 20
-1.937890352000182
 30
0.0
 11
30.78831800266516
 21
-1.937890352000184
 31
0.0
  0
LINE
  5
2E4
330
2E2
100
AcDbEntity
  8
SUNPO
 62
     0
370
    -2
100
AcDbLine
 10
22.78831800266516
 20
34.26210964799981
 30
0.0
 11
30.78831800266517
 21
34.26210964799981
 31
0.0
  0
LINE
  5
2E5
330
2E2
100
AcDbEntity
  8
SUNPO
 62
     0
370
    -2
100
AcDbLine
 10
28.78831800266516
 20
0.0621096479998165
 30
0.0
 11
28.78831800266516
 21
32.26210964799981
 31
0.0
  0
INSERT
  5
2E6
330
2E2
100
AcDbEntity
  8
SUNPO
 62
     0
370
    -2
100
AcDbBlockReference
  2
_OPEN30
 10
28.78831800266516
 20
-1.937890352000183
 30
0.0
 41
2.0
 42
2.0
 43
2.0
 50
270.0
  0
INSERT
  5
2E7
330
2E2
100
AcDbEntity
  8
SUNPO
 62
     0
370
    -2
100
AcDbBlockReference
  2
_OPEN30
 10
28.78831800266516
 20
34.26210964799981
 30
0.0
 41
2.0
 42
2.0
 43
2.0
 50
90.0
  0
MTEXT
  5
2E8
330
2E2
100
AcDbEntity
  8
SUNPO
 62
     0
100
AcDbMText
 10
27.03831800266516
 20
16.16210964799982
 30
0.0
 40
2.5
 41
0.0
 71
     5
 72
     1
  1
\A1;724
 11
0.0000000000000001
 21
1.0
 31
0.0
 73
     1
 44
1.0
1001
ACAD
1000
MTEXTBEGIN
1070
    73
1070
     1
1070
    44
1040
1.0
1070
    74
1070
     0
1000
MTEXTEND
  0
POINT
  5
2E9
330
2E2
100
AcDbEntity
  8
DEFPOINTS
 62
     0
100
AcDbPoint
 10
20.78831800266517
 20
-1.937890352000181
 30
0.0
  0
POINT
  5
2EA
330
2E2
100
AcDbEntity
  8
DEFPOINTS
 62
     0
100
AcDbPoint
 10
20.78831800266517
 20
34.26210964799981
 30
0.0
  0
POINT
  5
2EB
330
2E2
100
AcDbEntity
  8
DEFPOINTS
 62
     0
100
AcDbPoint
 10
28.78831800266516
 20
34.26210964799981
 30
0.0
  0
ENDBLK
  5
2ED
330
2E2
100
AcDbEntity
  8
0
100
AcDbBlockEnd
  0
BLOCK
  5
2FA
330
2EE
100
AcDbEntity
  8
0
100
AcDbBlockBegin
  2
*D8
 70
     1
 10
0.0
 20
0.0
 30
0.0
  3
*D8
  1

  0
LINE
  5
2EF
330
2EE
100
AcDbEntity
  8
SUNPO
 62
     0
370
    -2
100
AcDbLine
 10
40.39413183691118
 20
36.26835570820759
 30
0.0
 11
40.39413183691118
 21
44.26833332878949
 31
0.0
  0
LINE
  5
2F0
330
2EE
100
AcDbEntity
  8
SUNPO
 62
     0
370
    -2
100
AcDbLine
 10
44.84413183691117
 20
36.26835570820759
 30
0.0
 11
44.84413183691117
 21
44.26833332878949
 31
0.0
  0
LINE
  5
2F1
330
2EE
100
AcDbEntity
  8
SUNPO
 62
     0
370
    -2
100
AcDbLine
 10
38.39413183691119
 20
42.26833332878949
 30
0.0
 11
36.39413183691118
 21
42.26833332878949
 31
0.0
  0
LINE
  5
2F2
330
2EE
100
AcDbEntity
  8
SUNPO
 62
     0
370
    -2
100
AcDbLine
 10
46.84413183691117
 20
42.26833332878949
 30
0.0
 11
54.01079850357784
 21
42.26833332878949
 31
0.0
  0
LINE
  5
2F3
330
2EE
100
AcDbEntity
  8
SUNPO
 62
     0
370
    -2
100
AcDbLine
 10
40.39413183691118
 20
42.26833332878949
 30
0.0
 11
44.84413183691117
 21
42.26833332878949
 31
0.0
  0
INSERT
  5
2F4
330
2EE
100
AcDbEntity
  8
SUNPO
 62
     0
370
    -2
100
AcDbBlockReference
  2
_OPEN30
 10
40.39413183691118
 20
42.26833332878949
 30
0.0
 41
2.0
 42
2.0
 43
2.0
  0
INSERT
  5
2F5
330
2EE
100
AcDbEntity
  8
SUNPO
 62
     0
370
    -2
100
AcDbBlockReference
  2
_OPEN30
 10
44.84413183691117
 20
42.26833332878949
 30
0.0
 41
2.0
 42
2.0
 43
2.0
 50
180.0
  0
MTEXT
  5
2F6
330
2EE
100
AcDbEntity
  8
SUNPO
 62
     0
100
AcDbMText
 10
51.42746517024451
 20
44.0183333287895
 30
0.0
 40
2.5
 41
0.0
 71
     5
 72
     1
  1
\A1;89
 73
     1
 44
1.0
1001
ACAD
1000
MTEXTBEGIN
1070
    73
1070
     1
1070
    44
1040
1.0
1070
    74
1070
     0
1000
MTEXTEND
  0
POINT
  5
2F7
330
2EE
100
AcDbEntity
  8
DEFPOINTS
 62
     0
100
AcDbPoint
 10
40.39413183691118
 20
34.2683557082076
 30
0.0
  0
POINT
  5
2F8
330
2EE
100
AcDbEntity
  8
DEFPOINTS
 62
     0
100
AcDbPoint
 10
44.84413183691117
 20
34.2683557082076
 30
0.0
  0
POINT
  5
2F9
330
2EE
100
AcDbEntity
  8
DEFPOINTS
 62
     0
100
AcDbPoint
 10
44.84413183691117
 20
42.26833332878949
 30
0.0
  0
ENDBLK
  5
2FB
330
2EE
100
AcDbEntity
  8
0
100
AcDbBlockEnd
  0
ENDSEC
  0
SECTION
  2
ENTITIES
  0
TEXT
  5
30
330
2
100
AcDbEntity
  8
MOJI1
100
AcDbText
 10
-31.63522044883701
 20
59.87772706805731
 30
0.0
 40
4.0
  1
ハイビジョンプラズマディスプレイスピーカ付
 41
0.95
100
AcDbText
  0
TEXT
  5
32
330
2
100
AcDbEntity
  8
TOUROKU
100
AcDbText
 10
23.96472958409065
 20
53.87772706805685
 30
0.0
 40
2.0
  1
ＴＨ５０ＰＨ３０＋ＴＹＳＰ５０Ｐ８Ｋ
 72
     2
 11
66.36472958409064
 21
53.87772706805685
 31
0.0
100
AcDbText
  0
DIMENSION
  5
34
330
2
100
AcDbEntity
  8
SUNPO
100
AcDbDimension
  2
*D8
 10
44.84413183691117
 20
42.26833332878949
 30
0.0
 11
51.42746517024451
 21
44.0183333287895
 31
0.0
 70
    33
  1
89
 71
     5
 42
4.449999999999988
  3
STANDARD
100
AcDbAlignedDimension
 13
40.39413183691118
 23
34.2683557082076
 33
0.0
 14
44.84413183691117
 24
34.2683557082076
 34
0.0
1001
ACAD
1000
DSTYLE
1002
{
1070
    40
1040
1.0
1070
   140
1040
2.5
1070
   147
1040
0.5
1070
   172
1070
     1
1070
   279
1070
     0
1070
   288
1070
     0
1002
}
  0
ARC
  5
45
330
2
100
AcDbEntity
  8
GAIKEI
  6
Continuous
 62
     1
100
AcDbCircle
 10
42.86913183691121
 20
33.70557399799981
 30
0.0
 40
0.05
100
AcDbArc
 50
278.0000000000008
 51
0.0
  0
ARC
  5
46
330
2
100
AcDbEntity
  8
GAIKEI
  6
Continuous
 62
     1
100
AcDbCircle
 10
42.86913183691121
 20
33.82797479799979
 30
0.0
 40
0.05
100
AcDbArc
 50
0.0
 51
88.99999999999822
  0
LINE
  5
47
330
2
100
AcDbEntity
  8
GAIKEI
  6
Continuous
 62
     1
100
AcDbLine
 10
42.91913183691121
 20
33.82797479799979
 30
0.0
 11
42.91913183691121
 21
33.70557399799981
 31
0.0
  0
LINE
  5
48
330
2
100
AcDbEntity
  8
GAIKEI
  6
Continuous
 62
     1
100
AcDbLine
 10
42.82496373691123
 20
33.82876859799978
 30
0.0
 11
42.82933018691119
 21
33.87867714799978
 31
0.0
  0
LINE
  5
49
330
2
100
AcDbEntity
  8
GAIKEI
  6
Continuous
 62
     1
100
AcDbLine
 10
42.82933018691119
 20
33.87867714799978
 30
0.0
 11
42.87000443691119
 21
33.87796714799981
 31
0.0
  0
LINE
  5
4A
330
2
100
AcDbEntity
  8
GAIKEI
  6
Continuous
 62
     1
100
AcDbLine
 10
42.81938583691124
 20
33.76501274799978
 30
0.0
 11
42.78762648691122
 21
33.76470344799981
 31
0.0
  0
LINE
  5
4B
330
2
100
AcDbEntity
  8
GAIKEI
  6
Continuous
 62
     1
100
AcDbLine
 10
42.81913183691119
 20
33.76210964799981
 30
0.0
 11
42.78727043691122
 21
33.76210964799981
 31
0.0
  0
LINE
  5
4C
330
2
100
AcDbEntity
  8
GAIKEI
  6
Continuous
 62
     1
100
AcDbLine
 10
42.82496373691123
 20
33.82876859799978
 30
0.0
 11
42.81913183691119
 21
33.76210964799981
 31
0.0
  0
LINE
  5
4D
330
2
100
AcDbEntity
  8
GAIKEI
  6
Continuous
 62
     1
100
AcDbLine
 10
42.87609048691121
 20
33.65606059799978
 30
0.0
 11
42.67913183691121
 21
33.62837984799978
 31
0.0
  0
ELLIPSE
  5
4E
330
2
100
AcDbEntity
  8
GAIKEI
  6
Continuous
 62
     7
100
AcDbEllipse
 10
42.65413183691123
 20
34.04478404799977
 30
0.0
 11
0.0021771064512899
 21
0.2005734268692124
 31
0.0
210
0.0
220
0.0
230
1.0
 40
0.0107899999999471
 41
-1.564026235558141
 42
-0.0008261053339396
  0
ARC
  5
4F
330
2
100
AcDbEntity
  8
GAIKEI
  6
Continuous
 62
     7
100
AcDbCircle
 10
40.44413183691119
 20
-1.547412702000201
 30
0.0
 40
0.05
100
AcDbArc
 50
180.0
 51
214.4001230000025
  0
ARC
  5
50
330
2
100
AcDbEntity
  8
GAIKEI
  6
Continuous
 62
     7
100
AcDbCircle
 10
40.44413183691119
 20
33.87163199799977
 30
0.0
 40
0.05
100
AcDbArc
 50
145.5998769999974
 51
180.0
  0
ARC
  5
51
330
2
100
AcDbEntity
  8
GAIKEI
  6
Continuous
 62
     7
100
AcDbCircle
 10
40.62007343691118
 20
34.08433679799981
 30
0.0
 40
0.075
100
AcDbArc
 50
93.00000000000558
 51
145.5998769999974
  0
ARC
  5
52
330
2
100
AcDbEntity
  8
GAIKEI
  6
Continuous
 62
     7
100
AcDbCircle
 10
40.62007343691118
 20
-1.760117502000184
 30
0.0
 40
0.075
100
AcDbArc
 50
214.4001230000025
 51
266.9999999999944
  0
ARC
  5
53
330
2
100
AcDbEntity
  8
GAIKEI
  6
Continuous
 62
     1
100
AcDbCircle
 10
42.65413183691123
 20
34.22045249799976
 30
0.0
 40
0.025
100
AcDbArc
 50
0.0
 51
85.00000000000019
  0
ARC
  5
54
330
2
100
AcDbEntity
  8
GAIKEI
  6
Continuous
 62
     1
100
AcDbCircle
 10
42.65413183691123
 20
-1.896233202000189
 30
0.0
 40
0.025
100
AcDbArc
 50
274.9999999999998
 51
0.0
  0
LINE
  5
55
330
2
100
AcDbEntity
  8
GAIKEI
  6
Continuous
 62
     7
100
AcDbLine
 10
40.39413183691118
 20
-1.547412702000201
 30
0.0
 11
40.39413183691118
 21
33.70214134799983
 31
0.0
  0
LINE
  5
56
330
2
100
AcDbEntity
  8
GAIKEI
  6
Continuous
 62
     7
100
AcDbLine
 10
40.39413183691118
 20
33.87163199799977
 30
0.0
 11
40.39413183691118
 21
33.70214134799983
 31
0.0
  0
LINE
  5
57
330
2
100
AcDbEntity
  8
GAIKEI
  6
Continuous
 62
     7
100
AcDbLine
 10
40.4028762369112
 20
33.89988044799981
 30
0.0
 11
40.55819003691119
 21
34.1267094979998
 31
0.0
  0
LINE
  5
58
330
2
100
AcDbEntity
  8
GAIKEI
  6
Continuous
 62
     7
100
AcDbLine
 10
40.55819003691119
 20
-1.802490202000228
 30
0.0
 11
40.4028762369112
 21
-1.575661152000179
 31
0.0
  0
LINE
  5
59
330
2
100
AcDbEntity
  8
GAIKEI
  6
Continuous
 62
     1
100
AcDbLine
 10
42.67913183691121
 20
34.22045249799976
 30
0.0
 11
42.67913183691121
 21
34.04611844799979
 31
0.0
  0
LINE
  5
5A
330
2
100
AcDbEntity
  8
GAIKEI
  6
Continuous
 62
     1
100
AcDbLine
 10
42.67913183691121
 20
-1.721899152000162
 30
0.0
 11
42.67913183691121
 21
-1.896233202000189
 31
0.0
  0
LINE
  5
5B
330
2
100
AcDbEntity
  8
GAIKEI
  6
Continuous
 62
     1
100
AcDbLine
 10
42.67913183691121
 20
34.04611844799979
 30
0.0
 11
42.65631073691122
 21
34.04611844799979
 31
0.0
  0
LINE
  5
5C
330
2
100
AcDbEntity
  8
GAIKEI
  6
Continuous
 62
     1
100
AcDbLine
 10
42.67913183691121
 20
-0.786596373627674
 30
0.0
 11
42.67913183691121
 21
-1.721899152000162
 31
0.0
  0
LINE
  5
5D
330
2
100
AcDbEntity
  8
GAIKEI
  6
Continuous
 62
     1
100
AcDbLine
 10
42.67913183691121
 20
34.04611844799979
 30
0.0
 11
42.67913183691121
 21
33.08504599799983
 31
0.0
  0
LINE
  5
5E
330
2
100
AcDbEntity
  8
GAIKEI
  6
Continuous
 62
     7
100
AcDbLine
 10
42.65631073691122
 20
33.15007872054639
 30
0.0
 11
42.65631073691122
 21
34.04611844799979
 31
0.0
  0
LINE
  5
5F
330
2
100
AcDbEntity
  8
GAIKEI
  6
Continuous
 62
     1
100
AcDbLine
 10
42.65631073691122
 20
-1.921138052000173
 30
0.0
 11
42.63280523691122
 21
-1.923194552000211
 31
0.0
  0
LINE
  5
60
330
2
100
AcDbEntity
  8
GAIKEI
  6
Continuous
 62
     1
100
AcDbLine
 10
42.65631073691122
 20
34.04611844799979
 30
0.0
 11
42.64163183691119
 21
34.04740264799978
 31
0.0
  0
LINE
  5
61
330
2
100
AcDbEntity
  8
GAIKEI
  6
Continuous
 62
     7
100
AcDbLine
 10
42.57913183691118
 20
34.25210964799976
 30
0.0
 11
42.65631073691122
 21
34.2453573479998
 31
0.0
  0
LINE
  5
62
330
2
100
AcDbEntity
  8
GAIKEI
  6
Continuous
 62
     7
100
AcDbLine
 10
40.61614823691122
 20
34.1592340479998
 30
0.0
 11
40.88142503691119
 21
34.17313659799982
 31
0.0
  0
LINE
  5
63
330
2
100
AcDbEntity
  8
GAIKEI
  6
Continuous
 62
     7
100
AcDbLine
 10
40.61614823691122
 20
-1.835014752000176
 30
0.0
 11
40.61885293691119
 21
-1.833573702000194
 31
0.0
  0
ELLIPSE
  5
64
330
2
100
AcDbEntity
  8
GAIKEI
  6
Continuous
 62
     7
100
AcDbEllipse
 10
42.59152713691122
 20
-1.89520045200021
 30
0.0
 11
0.0353550241821352
 21
0.0353550241821352
 31
0.0
210
0.0
220
0.0
230
1.0
 40
0.9999998118951952
 41
4.816435925500389
 42
5.497787051848177
  0
ELLIPSE
  5
65
330
2
100
AcDbEntity
  8
GAIKEI
  6
Continuous
 62
     7
100
AcDbEllipse
 10
43.09104788691121
 20
-0.961936952000201
 30
0.0
 11
-0.110739905774419
 21
0.4361612927222231
 31
0.0
210
0.0
220
0.0
230
0.9999999999999998
 40
0.999903999999907
 41
0.9699193908611597
 42
1.322176525119691
  0
ELLIPSE
  5
66
330
2
100
AcDbEntity
  8
GAIKEI
  6
Continuous
 62
     7
100
AcDbEllipse
 10
43.09104788691121
 20
33.2661561979998
 30
0.0
 11
0.3181900624921142
 21
0.3181900624921142
 31
0.0
210
0.0
220
0.0
230
1.0
 40
0.9999542077870351
 41
2.617093918051603
 42
2.708415030973279
  0
ELLIPSE
  5
67
330
2
100
AcDbEntity
  8
GAIKEI
  6
Continuous
 62
     1
100
AcDbEllipse
 10
44.13372628691121
 20
4.525507023140789
 30
0.0
 11
-0.3438561985162959
 21
0.2902807515869122
 31
0.0
210
0.0
220
0.0
230
1.0
 40
0.113014
 41
3.130877737714352
 42
3.14150348040864
  0
ELLIPSE
  5
68
330
2
100
AcDbEntity
  8
GAIKEI
  6
Continuous
 62
     1
100
AcDbEllipse
 10
44.13372628691121
 20
27.76333252314078
 30
0.0
 11
-0.343856198516359
 21
-0.2902807515869154
 31
0.0
210
0.0
220
0.0
230
1.0
 40
0.113014
 41
3.141768349447379
 42
3.152307569470352
  0
ELLIPSE
  5
69
330
2
100
AcDbEntity
  8
GAIKEI
  6
Continuous
 62
     1
100
AcDbEllipse
 10
44.31036768691126
 20
30.41117589799978
 30
0.0
 11
0.3445865199815878
 21
0.2894134244415523
 31
0.0
210
0.0
220
0.0
230
1.0
 40
0.6039990000613244
 41
-0.0002846291689877
 42
0.0084124181329617
  0
ELLIPSE
  5
6A
330
2
100
AcDbEntity
  8
GAIKEI
  6
Continuous
 62
     7
100
AcDbEllipse
 10
42.59152713691122
 20
-1.89520045200021
 30
0.0
 11
0.0353550241822256
 21
0.0353550241822256
 31
0.0
210
0.0
220
0.0
230
1.0
 40
0.9999998118931008
 41
3.973502160345834
 42
4.816435925500172
  0
ELLIPSE
  5
6B
330
2
100
AcDbEntity
  8
GAIKEI
  6
Continuous
 62
     7
100
AcDbEllipse
 10
43.09104788691121
 20
33.2661561979998
 30
0.0
 11
0.1107271695606408
 21
0.4361645262069404
 31
0.0
210
0.0
220
0.0
230
0.9999999999999996
 40
0.9999039999999698
 41
2.171603098779832
 42
2.518422350654637
  0
ELLIPSE
  5
6C
330
2
100
AcDbEntity
  8
GAIKEI
  6
Continuous
 62
     7
100
AcDbEllipse
 10
43.09104788691121
 20
-0.961936952000201
 30
0.0
 11
-0.1107399054551541
 21
0.4361612928033433
 31
0.0
210
0.0
220
0.0
230
1.0
 40
0.9999039999998128
 41
0.6231415498564515
 42
0.9699193915931996
  0
ELLIPSE
  5
6D
330
2
100
AcDbEntity
  8
GAIKEI
  6
Continuous
 62
     1
100
AcDbEllipse
 10
44.54013043691122
 20
4.468662473140739
 30
0.0
 11
-0.0331278013229312
 21
0.0374506178788601
 31
0.0
210
0.0
220
0.0
230
1.0
 40
0.4749580000000001
 41
3.120750243315308
 42
3.142591199854433
  0
ELLIPSE
  5
6E
330
2
100
AcDbEntity
  8
GAIKEI
  6
Continuous
 62
     1
100
AcDbEllipse
 10
44.08163183691124
 20
11.48370827314079
 30
0.0
 11
0.7500000000000002
 21
0.0
 31
0.0
210
0.0
220
0.0
230
1.0
 40
0.9666670000000001
 41
0.0
 42
0.1041276120068568
  0
ELLIPSE
  5
6F
330
2
100
AcDbEntity
  8
GAIKEI
  6
Continuous
 62
     1
100
AcDbEllipse
 10
41.74401543691124
 20
33.30036649799979
 30
0.0
 11
0.0236739119823138
 21
0.008034045771143
 31
0.0
210
0.0
220
0.0
230
0.9999999999999998
 40
0.768047999981101
 41
-0.4160567989350552
 42
-0.0008255432148825
  0
ELLIPSE
  5
70
330
2
100
AcDbEntity
  8
GAIKEI
  6
Continuous
 62
     1
100
AcDbEllipse
 10
42.87185338691119
 20
33.27364339799976
 30
0.0
 11
0.0193870350424885
 21
0.4495821870050824
 31
0.0
210
0.0
220
0.0
230
1.0
 40
0.9658659999999928
 41
1.612422652194193
 42
2.342160655069867
  0
ELLIPSE
  5
71
330
2
100
AcDbEntity
  8
GAIKEI
  6
Continuous
 62
     1
100
AcDbEllipse
 10
41.8108459869112
 20
33.50210964799976
 30
0.0
 11
-0.0000000000000108
 21
0.2570486010155661
 31
0.0
210
0.0
220
0.0
230
1.0
 40
0.2679519999999809
 41
3.790000710869833
 42
8.756426638127511
  0
ELLIPSE
  5
72
330
2
100
AcDbEntity
  8
GAIKEI
  6
Continuous
 62
     1
100
AcDbEllipse
 10
44.13372628691121
 20
30.4938642479998
 30
0.0
 11
0.2907057944480269
 21
0.3434969302255366
 31
0.0
210
0.0
220
0.0
230
1.0
 40
0.1333920000000015
 41
-1.458380742976126
 42
-0.0278998439660725
  0
ELLIPSE
  5
73
330
2
100
AcDbEntity
  8
GAIKEI
  6
Continuous
 62
     1
100
AcDbEllipse
 10
42.10843753691119
 20
33.3038048479998
 30
0.0
 11
0.0161869617639733
 21
0.4497087749520076
 31
0.0
210
0.0
220
0.0
230
1.0
 40
0.9658839999999806
 41
1.605548642406345
 42
2.450753644648623
  0
ELLIPSE
  5
74
330
2
100
AcDbEntity
  8
GAIKEI
  6
Continuous
 62
     7
100
AcDbEllipse
 10
40.66283858691122
 20
-1.771103352000181
 30
0.0
 11
0.0528915914006684
 21
0.0528915914006684
 31
0.0
210
0.0
220
0.0
230
1.0
 40
0.9985021258155997
 41
3.809312810420805
 42
3.825745011191881
  0
ELLIPSE
  5
75
330
2
100
AcDbEntity
  8
GAIKEI
  6
Continuous
 62
     1
100
AcDbEllipse
 10
40.66283858691122
 20
34.07532264799977
 30
0.0
 11
-0.052891591344551
 21
0.052891591344551
 31
0.0
210
0.0
220
0.0
230
1.0
 40
0.9985021252113433
 41
-0.6841523578984687
 42
-0.667266823267458
  0
ELLIPSE
  5
76
330
2
100
AcDbEntity
  8
GAIKEI
  6
Continuous
 62
     7
100
AcDbEllipse
 10
41.60120038691121
 20
-1.892377152000165
 30
0.0
 11
0.0347438088505755
 21
0.0347438088505755
 31
0.0
210
0.0
220
0.0
230
1.0
 40
0.9996262438498131
 41
3.903110081489661
 42
3.921635253276855
  0
ARC
  5
77
330
2
100
AcDbEntity
  8
GAIKEI
  6
Continuous
 62
     1
100
AcDbCircle
 10
-45.29613301308882
 20
77.14231924799981
 30
0.0
 40
117.4618751
100
AcDbArc
 50
319.8429449999994
 51
319.9773099999972
  0
ARC
  5
78
330
2
100
AcDbEntity
  8
GAIKEI
  6
Continuous
 62
     7
100
AcDbCircle
 10
-44.96510071308882
 20
-44.55950980200021
 30
0.0
 40
117.0292152
100
AcDbArc
 50
40.02245900000189
 51
40.1573269999973
  0
ARC
  5
79
330
2
100
AcDbEntity
  8
GAIKEI
  6
Continuous
 62
     7
100
AcDbCircle
 10
44.07795223691119
 20
2.088119397999832
 30
0.0
 40
0.7534202500000001
100
AcDbArc
 50
319.8070549999944
 51
339.4956769999968
  0
ARC
  5
7A
330
2
100
AcDbEntity
  8
GAIKEI
  6
Continuous
 62
     7
100
AcDbCircle
 10
44.20063458691117
 20
2.04376364799981
 30
0.0
 40
0.6229566000000001
100
AcDbArc
 50
339.968429000001
 51
359.9901120000005
  0
ARC
  5
7B
330
2
100
AcDbEntity
  8
GAIKEI
  6
Continuous
 62
     7
100
AcDbCircle
 10
44.07297028691118
 20
30.2145727479998
 30
0.0
 40
0.7586615500000001
100
AcDbArc
 50
359.9992490000013
 51
6.903190000001132
  0
ARC
  5
7C
330
2
100
AcDbEntity
  8
GAIKEI
  6
Continuous
 62
     1
100
AcDbCircle
 10
44.08204263691118
 20
30.21970984799981
 30
0.0
 40
0.7480767000000001
100
AcDbArc
 50
34.78967999999847
 51
40.00000300000237
  0
ARC
  5
7D
330
2
100
AcDbEntity
  8
GAIKEI
  6
Continuous
 62
     1
100
AcDbCircle
 10
44.08163183691118
 20
11.48370827314079
 30
0.0
 40
0.75
100
AcDbArc
 50
2.452836000002987
 51
5.883938000002939
  0
ARC
  5
7E
330
2
100
AcDbEntity
  8
GAIKEI
  6
Continuous
 62
     1
100
AcDbCircle
 10
46.92608533691123
 20
-1.071327952000217
 30
0.0
 40
3.55142435
100
AcDbArc
 50
131.4916920000011
 51
131.6839700000032
  0
ARC
  5
7F
330
2
100
AcDbEntity
  8
GAIKEI
  6
Continuous
 62
     1
100
AcDbCircle
 10
44.0801998869112
 20
2.156435297999792
 30
0.0
 40
0.7514787
100
AcDbArc
 50
316.8862330000004
 51
332.4185359999961
  0
ARC
  5
80
330
2
100
AcDbEntity
  8
GAIKEI
  6
Continuous
 62
     1
100
AcDbCircle
 10
44.0301444369112
 20
2.203671697999823
 30
0.0
 40
0.8203027999999999
100
AcDbArc
 50
311.4962360000053
 51
316.8672290000018
  0
ARC
  5
81
330
2
100
AcDbEntity
  8
GAIKEI
  6
Continuous
 62
     1
100
AcDbCircle
 10
44.09610343691122
 20
30.15133094799978
 30
0.0
 40
0.7355284
100
AcDbArc
 50
0.0007010000002193
 51
5.224650999999753
  0
ARC
  5
82
330
2
100
AcDbEntity
  8
GAIKEI
  6
Continuous
 62
     1
100
AcDbCircle
 10
73.96769353691121
 20
118.4896167979998
 30
0.0
 40
92.89058949999999
100
AcDbArc
 50
251.3169980000066
 51
251.5493929999992
  0
ARC
  5
83
330
2
100
AcDbEntity
  8
GAIKEI
  6
Continuous
 62
     1
100
AcDbCircle
 10
40.66302323691121
 20
34.05866909799977
 30
0.0
 40
0.09156935
100
AcDbArc
 50
96.37846500000591
 51
98.78995799999522
  0
ARC
  5
84
330
2
100
AcDbEntity
  8
GAIKEI
  6
Continuous
 62
     1
100
AcDbCircle
 10
40.66068053691123
 20
34.07506039799978
 30
0.0
 40
0.07500915
100
AcDbArc
 50
98.93950799999487
 51
147.8875560000019
  0
ARC
  5
85
330
2
100
AcDbEntity
  8
GAIKEI
  6
Continuous
 62
     7
100
AcDbCircle
 10
40.6638800869112
 20
-1.748233602000198
 30
0.0
 40
0.09784355
100
AcDbArc
 50
261.270591999999
 51
263.7463639999976
  0
ARC
  5
86
330
2
100
AcDbEntity
  8
GAIKEI
  6
Continuous
 62
     7
100
AcDbCircle
 10
40.66068053691123
 20
-1.77084110200019
 30
0.0
 40
0.0750092
100
AcDbArc
 50
212.1124469999995
 51
261.0218240000017
  0
ARC
  5
87
330
2
100
AcDbEntity
  8
GAIKEI
  6
Continuous
 62
     1
100
AcDbCircle
 10
41.53600203691121
 20
-73.26083520200018
 30
0.0
 40
72.59843590000001
100
AcDbArc
 50
89.20207300000571
 51
89.98256801461675
  0
ARC
  5
88
330
2
100
AcDbEntity
  8
GAIKEI
  6
Continuous
 62
     7
100
AcDbCircle
 10
-40.10786101308883
 20
72.77921014799983
 30
0.0
 40
110.68285545
100
AcDbArc
 50
319.8368629999968
 51
319.9785399999958
  0
ARC
  5
89
330
2
100
AcDbEntity
  8
GAIKEI
  6
Continuous
 62
     1
100
AcDbCircle
 10
63.38834373691122
 20
53.2949487479998
 30
0.0
 40
29.39359775
100
AcDbArc
 50
229.8244369999984
 51
230.1893719999996
  0
ARC
  5
8A
330
2
100
AcDbEntity
  8
GAIKEI
  6
Continuous
 62
     1
100
AcDbCircle
 10
41.53600203691121
 20
105.5650549979998
 30
0.0
 40
72.59843639999999
100
AcDbArc
 50
270.2234979999951
 51
270.7979269999943
  0
ARC
  5
8B
330
2
100
AcDbEntity
  8
GAIKEI
  6
Continuous
 62
     7
100
AcDbCircle
 10
43.86128078691121
 20
649.7765172979999
 30
0.0
 40
651.72281555
100
AcDbArc
 50
269.801282
 51
269.870526999997
  0
ARC
  5
8C
330
2
100
AcDbEntity
  8
GAIKEI
  6
Continuous
 62
     1
100
AcDbCircle
 10
-363.4614432130888
 20
-3948.569220552001
 30
0.0
 40
3967.557841600001
100
AcDbArc
 50
84.14087800000245
 51
84.15394400000305
  0
ARC
  5
8D
330
2
100
AcDbEntity
  8
GAIKEI
  6
Continuous
 62
     1
100
AcDbCircle
 10
-363.4614362130888
 20
3980.873371447998
 30
0.0
 40
3967.55777285
100
AcDbArc
 50
275.8460559999969
 51
275.8599494945873
  0
LINE
  5
8E
330
2
100
AcDbEntity
  8
GAIKEI
  6
Continuous
 62
     7
100
AcDbLine
 10
42.64163183691119
 20
-1.744140352000215
 30
0.0
 11
42.64163183691119
 21
-1.890988652000203
 31
0.0
  0
LINE
  5
8F
330
2
100
AcDbEntity
  8
GAIKEI
  6
Continuous
 62
     1
100
AcDbLine
 10
44.78535198691122
 20
1.828829847999827
 30
0.0
 11
44.78584578691118
 21
1.830180647999839
 31
0.0
  0
LINE
  5
90
330
2
100
AcDbEntity
  8
GAIKEI
  6
Continuous
 62
     7
100
AcDbLine
 10
44.82359723691121
 20
2.043664397999805
 30
0.0
 11
44.82359723691121
 21
2.74627774799984
 31
0.0
  0
LINE
  5
91
330
2
100
AcDbEntity
  8
GAIKEI
  6
Continuous
 62
     1
100
AcDbLine
 10
44.78535153691121
 20
1.828816847999803
 30
0.0
 11
44.7859194869112
 21
1.830370047999792
 31
0.0
  0
LINE
  5
92
330
2
100
AcDbEntity
  8
GAIKEI
  6
Continuous
 62
     1
100
AcDbLine
 10
44.78364013691122
 20
1.824212847999831
 30
0.0
 11
44.78535153691121
 21
1.828816847999803
 31
0.0
  0
LINE
  5
93
330
2
100
AcDbEntity
  8
GAIKEI
  6
Continuous
 62
     1
100
AcDbLine
 10
44.83163183691118
 20
16.42085762314076
 30
0.0
 11
44.83163183691118
 21
16.42502132314075
 31
0.0
  0
LINE
  5
94
330
2
100
AcDbEntity
  8
GAIKEI
  6
Continuous
 62
     1
100
AcDbLine
 10
44.83163183691118
 20
15.86772142314078
 30
0.0
 11
44.83163183691118
 21
15.86798192314074
 31
0.0
  0
LINE
  5
95
330
2
100
AcDbEntity
  8
GAIKEI
  6
Continuous
 62
     7
100
AcDbLine
 10
44.83163183691118
 20
11.48370827314079
 30
0.0
 11
44.83163183691118
 21
15.86772142314078
 31
0.0
  0
LINE
  5
96
330
2
100
AcDbEntity
  8
GAIKEI
  6
Continuous
 62
     7
100
AcDbLine
 10
44.83163183691118
 20
11.39441977314078
 30
0.0
 11
44.83163183691118
 21
11.48370827314079
 31
0.0
  0
LINE
  5
97
330
2
100
AcDbEntity
  8
GAIKEI
  6
Continuous
 62
     7
100
AcDbLine
 10
42.64163183691119
 20
-1.744140352000215
 30
0.0
 11
42.64163183691119
 21
-0.9525459520002073
 31
0.0
  0
LINE
  5
98
330
2
100
AcDbEntity
  8
GAIKEI
  6
Continuous
 62
     7
100
AcDbLine
 10
42.64163183691119
 20
-1.890988652000203
 30
0.0
 11
42.64163168691118
 21
-1.891287452000199
 31
0.0
  0
LINE
  5
99
330
2
100
AcDbEntity
  8
GAIKEI
  6
Continuous
 62
     1
100
AcDbLine
 10
42.43718678691118
 20
34.04835964799981
 30
0.0
 11
42.64163183691119
 21
34.04835964799981
 31
0.0
  0
LINE
  5
9A
330
2
100
AcDbEntity
  8
GAIKEI
  6
Continuous
 62
     1
100
AcDbLine
 10
42.64163183691119
 20
-1.744140352000215
 30
0.0
 11
42.43718678691118
 21
-1.744140352000215
 31
0.0
  0
LINE
  5
9B
330
2
100
AcDbEntity
  8
GAIKEI
  6
Continuous
 62
     1
100
AcDbLine
 10
44.83163183691118
 20
11.04537762314078
 30
0.0
 11
44.83163183691118
 21
10.49346192314078
 31
0.0
  0
LINE
  5
9C
330
2
100
AcDbEntity
  8
GAIKEI
  6
Continuous
 62
     7
100
AcDbLine
 10
44.83163183691118
 20
16.42212738306381
 30
0.0
 11
44.83163183691118
 21
15.86846192314078
 31
0.0
  0
LINE
  5
9D
330
2
100
AcDbEntity
  8
GAIKEI
  6
Continuous
 62
     7
100
AcDbLine
 10
44.83163183691118
 20
3.578067497999825
 30
0.0
 11
44.83163183691118
 21
3.02615179799983
 31
0.0
  0
LINE
  5
9E
330
2
100
AcDbEntity
  8
GAIKEI
  6
Continuous
 62
     1
100
AcDbLine
 10
44.57365313691122
 20
1.589265497999804
 30
0.0
 11
44.57288033691122
 21
1.588581947999784
 31
0.0
  0
LINE
  5
9F
330
2
100
AcDbEntity
  8
GAIKEI
  6
Continuous
 62
     1
100
AcDbLine
 10
44.5732503369112
 20
1.588900747999844
 30
0.0
 11
44.5739612369112
 21
1.589530797999771
 31
0.0
  0
LINE
  5
A0
330
2
100
AcDbEntity
  8
GAIKEI
  6
Continuous
 62
     1
100
AcDbLine
 10
44.81856788691118
 20
2.096583297999814
 30
0.0
 11
44.81763478691118
 21
2.096583297999814
 31
0.0
  0
LINE
  5
A1
330
2
100
AcDbEntity
  8
GAIKEI
  6
Continuous
 62
     7
100
AcDbLine
 10
44.83163183691118
 20
30.15133994799976
 30
0.0
 11
44.83163183691118
 21
30.21456279799981
 31
0.0
  0
LINE
  5
A2
330
2
100
AcDbEntity
  8
GAIKEI
  6
Continuous
 62
     7
100
AcDbLine
 10
44.79478763691122
 20
3.02104664799981
 30
0.0
 11
44.79455088691122
 21
3.021053247999816
 31
0.0
  0
LINE
  5
A3
330
2
100
AcDbEntity
  8
GAIKEI
  6
Continuous
 62
     1
100
AcDbLine
 10
44.83163183691118
 20
15.86798192314074
 30
0.0
 11
44.83163183691118
 21
15.86846192314078
 31
0.0
  0
LINE
  5
A4
330
2
100
AcDbEntity
  8
GAIKEI
  6
Continuous
 62
     1
100
AcDbLine
 10
44.83163183691118
 20
16.42037762314078
 30
0.0
 11
44.83163183691118
 21
16.42085762314076
 31
0.0
  0
LINE
  5
A5
330
2
100
AcDbEntity
  8
GAIKEI
  6
Continuous
 62
     7
100
AcDbLine
 10
44.83163183691118
 20
22.12037762314077
 30
0.0
 11
44.83163183691118
 21
30.15133994799976
 31
0.0
  0
LINE
  5
A6
330
2
100
AcDbEntity
  8
GAIKEI
  6
Continuous
 62
     7
100
AcDbLine
 10
44.83163183691118
 20
2.847122747999776
 30
0.0
 11
44.83163183691118
 21
3.02615179799983
 31
0.0
  0
LINE
  5
A7
330
2
100
AcDbEntity
  8
GAIKEI
  6
Continuous
 62
     7
100
AcDbLine
 10
44.83163183691118
 20
3.578067497999825
 30
0.0
 11
44.83163183691118
 21
10.49346192314078
 31
0.0
  0
LINE
  5
A8
330
2
100
AcDbEntity
  8
GAIKEI
  6
Continuous
 62
     7
100
AcDbLine
 10
44.83163183691118
 20
11.04537762314078
 30
0.0
 11
44.83163183691118
 21
11.48370827314079
 31
0.0
  0
LINE
  5
A9
330
2
100
AcDbEntity
  8
GAIKEI
  6
Continuous
 62
     1
100
AcDbLine
 10
40.4416318369112
 20
33.67934559799983
 30
0.0
 11
40.4416318369112
 21
-1.375126302000182
 31
0.0
  0
LINE
  5
AA
330
2
100
AcDbEntity
  8
GAIKEI
  6
Continuous
 62
     1
100
AcDbLine
 10
40.4416318369112
 20
33.67934559799983
 30
0.0
 11
40.4416318369112
 21
33.85272084799976
 31
0.0
  0
LINE
  5
AB
330
2
100
AcDbEntity
  8
GAIKEI
  6
Continuous
 62
     1
100
AcDbLine
 10
40.4416318369112
 20
-1.548501552000175
 30
0.0
 11
40.4416318369112
 21
-1.375126302000182
 31
0.0
  0
LINE
  5
AC
330
2
100
AcDbEntity
  8
GAIKEI
  6
Continuous
 62
     7
100
AcDbLine
 10
40.59714728691119
 20
-1.810714652000172
 30
0.0
 11
40.59713428691122
 21
-1.810693952000178
 31
0.0
  0
LINE
  5
AD
330
2
100
AcDbEntity
  8
GAIKEI
  6
Continuous
 62
     1
100
AcDbLine
 10
44.57288033691122
 20
1.588581947999784
 30
0.0
 11
44.5650496869112
 21
1.581635947999814
 31
0.0
  0
LINE
  5
AE
330
2
100
AcDbEntity
  8
GAIKEI
  6
Continuous
 62
     1
100
AcDbLine
 10
44.5690280869112
 20
1.588396947999797
 30
0.0
 11
44.57288033691122
 21
1.588581947999784
 31
0.0
  0
LINE
  5
AF
330
2
100
AcDbEntity
  8
GAIKEI
  6
Continuous
 62
     1
100
AcDbLine
 10
42.43718678691118
 20
33.27364339799976
 30
0.0
 11
42.43718678691118
 21
34.04835964799981
 31
0.0
  0
LINE
  5
B0
330
2
100
AcDbEntity
  8
GAIKEI
  6
Continuous
 62
     1
100
AcDbLine
 10
41.61510856873536
 20
34.04835964799981
 30
0.0
 11
42.43718678691118
 21
34.04835964799981
 31
0.0
  0
LINE
  5
B1
330
2
100
AcDbEntity
  8
GAIKEI
  6
Continuous
 62
     1
100
AcDbLine
 10
41.76816358691121
 20
33.30036649799979
 30
0.0
 11
41.67377083691121
 21
33.30380489799978
 31
0.0
  0
LINE
  5
B2
330
2
100
AcDbEntity
  8
GAIKEI
  6
Continuous
 62
     1
100
AcDbLine
 10
42.43718678691118
 20
-1.744140352000215
 30
0.0
 11
41.6326717869112
 21
-1.744140352000215
 31
0.0
  0
LINE
  5
B3
330
2
100
AcDbEntity
  8
GAIKEI
  6
Continuous
 62
     1
100
AcDbLine
 10
41.6326717869112
 20
33.27835129799979
 30
0.0
 11
41.6326717869112
 21
34.24651801569235
 31
0.0
  0
LINE
  5
B4
330
2
100
AcDbEntity
  8
GAIKEI
  6
Continuous
 62
     1
100
AcDbLine
 10
41.6326717869112
 20
-1.744140352000215
 30
0.0
 11
41.55795883200982
 21
-1.744140352000215
 31
0.0
  0
LINE
  5
B5
330
2
100
AcDbEntity
  8
GAIKEI
  6
Continuous
 62
     1
100
AcDbLine
 10
40.44927983691121
 20
33.87929719799979
 30
0.0
 11
40.59713428691122
 21
34.11491324799977
 31
0.0
  0
LINE
  5
B6
330
2
100
AcDbEntity
  8
GAIKEI
  6
Continuous
 62
     1
100
AcDbLine
 10
40.44927983691121
 20
-1.575077902000202
 30
0.0
 11
40.59713428691122
 21
-1.810693952000178
 31
0.0
  0
LINE
  5
B7
330
2
100
AcDbEntity
  8
GAIKEI
  6
Continuous
 62
     1
100
AcDbLine
 10
44.21186798691121
 20
30.4938642479998
 30
0.0
 11
44.21186798691121
 21
1.287865041662655
 31
0.0
  0
LINE
  5
B8
330
2
100
AcDbEntity
  8
GAIKEI
  6
Continuous
 62
     1
100
AcDbLine
 10
40.59592768691118
 20
33.91398309799979
 30
0.0
 11
40.59592768691118
 21
-1.609763802000202
 31
0.0
  0
LINE
  5
B9
330
2
100
AcDbEntity
  8
GAIKEI
  6
Continuous
 62
     1
100
AcDbLine
 10
40.59588223691122
 20
-1.609729102000187
 30
0.0
 11
40.59592768691118
 21
-1.609763802000202
 31
0.0
  0
LINE
  5
BA
330
2
100
AcDbEntity
  8
GAIKEI
  6
Continuous
 62
     1
100
AcDbLine
 10
40.59588223691122
 20
33.91394839799978
 30
0.0
 11
40.59592768691118
 21
33.91398309799979
 31
0.0
  0
LINE
  5
BB
330
2
100
AcDbEntity
  8
GAIKEI
  6
Continuous
 62
     1
100
AcDbLine
 10
40.65553018691121
 20
-1.609706102000188
 30
0.0
 11
40.65553018691121
 21
33.91392539799984
 31
0.0
  0
LINE
  5
BC
330
2
100
AcDbEntity
  8
GAIKEI
  6
Continuous
 62
     1
100
AcDbLine
 10
41.55808978691107
 20
34.2424232668983
 30
0.0
 11
41.55808978691118
 21
-1.738288752000187
 31
0.0
  0
LINE
  5
BD
330
2
100
AcDbEntity
  8
GAIKEI
  6
Continuous
 62
     7
100
AcDbLine
 10
41.5940961869112
 20
-1.941905452000185
 30
0.0
 11
41.59508033691122
 21
-1.942061102000195
 31
0.0
  0
LINE
  5
BE
330
2
100
AcDbEntity
  8
GAIKEI
  6
Continuous
 62
     7
100
AcDbLine
 10
41.5950683369112
 20
-1.942059852000227
 30
0.0
 11
40.65521203691122
 21
-1.845714652000197
 31
0.0
  0
LINE
  5
BF
330
2
100
AcDbEntity
  8
GAIKEI
  6
Continuous
 62
     7
100
AcDbLine
 10
41.59508033691122
 20
-1.942061102000195
 30
0.0
 11
41.59528443691118
 21
-1.942079652000188
 31
0.0
  0
ELLIPSE
  5
C0
330
2
100
AcDbEntity
  8
GAIKEI
  6
Continuous
 62
     7
100
AcDbEllipse
 10
42.59152713691122
 20
-1.89520045200021
 30
0.0
 11
0.0353550241816267
 21
0.0353550241816267
 31
0.0
210
0.0
220
0.0
230
1.0
 40
0.9999998118927134
 41
3.874615684312717
 42
3.973502160353997
  0
ARC
  5
C1
330
2
100
AcDbEntity
  8
GAIKEI
  6
Continuous
 62
     7
100
AcDbCircle
 10
-790.9647003130888
 20
8156.861059148001
 30
0.0
 40
8165.171627100001
100
AcDbArc
 50
275.8472929999958
 51
275.8523220000004
  0
ARC
  5
C2
330
2
100
AcDbEntity
  8
GAIKEI
  6
Continuous
 62
     7
100
AcDbCircle
 10
-796.2327134130889
 20
-8175.969703452
 30
0.0
 40
8216.853679149998
100
AcDbArc
 50
84.14769000000196
 51
84.15359199999761
  0
ARC
  5
C3
330
2
100
AcDbEntity
  8
GAIKEI
  6
Continuous
 62
     7
100
AcDbCircle
 10
45.08107313691119
 20
1182.879688447999
 30
0.0
 40
1184.8274414
100
AcDbArc
 50
269.8696709999958
 51
269.8794839999994
  0
LINE
  5
C4
330
2
100
AcDbEntity
  8
GAIKEI
  6
Continuous
 62
     7
100
AcDbLine
 10
40.73066723691119
 20
-1.853440252000211
 30
0.0
 11
40.65520338691124
 21
-1.845713652000199
 31
0.0
  0
LINE
  5
C5
330
2
100
AcDbEntity
  8
GAIKEI
  6
Continuous
 62
     7
100
AcDbLine
 10
41.59616363691123
 20
-1.942106402000206
 30
0.0
 11
41.59517053691121
 21
-1.942004652000207
 31
0.0
  0
LINE
  5
C6
330
2
100
AcDbEntity
  8
GAIKEI
  6
Continuous
 62
     7
100
AcDbLine
 10
41.59616363691123
 20
-1.942106402000206
 30
0.0
 11
41.60045718691122
 21
-1.942131502000222
 31
0.0
  0
ARC
  5
C7
330
2
100
AcDbEntity
  8
GAIKEI
  6
Continuous
 62
     1
100
AcDbCircle
 10
44.31439153691122
 20
-0.7486964520001607
 30
0.0
 40
0.05
100
AcDbArc
 50
273.0000000000056
 51
358.9999999999982
  0
ARC
  5
C8
330
2
100
AcDbEntity
  8
GAIKEI
  6
Continuous
 62
     1
100
AcDbCircle
 10
42.8625250869112
 20
-1.125197252000191
 30
0.0
 40
0.25
100
AcDbArc
 50
93.00000000000558
 51
137.1867790000003
  0
LINE
  5
C9
330
2
100
AcDbEntity
  8
GAIKEI
  6
Continuous
 62
     1
100
AcDbLine
 10
42.84944113691119
 20
-0.8755399020001846
 30
0.0
 11
43.85351763691119
 21
-0.8229184520001808
 31
0.0
  0
LINE
  5
CA
330
2
100
AcDbEntity
  8
GAIKEI
  6
Continuous
 62
     1
100
AcDbLine
 10
43.72684853691123
 20
-0.8295569020002062
 30
0.0
 11
44.31700833691121
 21
-0.7986279520001745
 31
0.0
  0
LINE
  5
CB
330
2
100
AcDbEntity
  8
GAIKEI
  6
Continuous
 62
     1
100
AcDbLine
 10
44.36438393691122
 20
-0.74956910200018
 30
0.0
 11
44.36647713691121
 21
-0.6296501020001984
 31
0.0
  0
LINE
  5
CC
330
2
100
AcDbEntity
  8
GAIKEI
  6
Continuous
 62
     1
100
AcDbLine
 10
42.84944113691119
 20
-0.8755399020001846
 30
0.0
 11
43.72684853691123
 21
-0.8295569020002062
 31
0.0
  0
ELLIPSE
  5
CD
330
2
100
AcDbEntity
  8
GAIKEI
  6
Continuous
 62
     1
100
AcDbEllipse
 10
44.8590632369112
 20
2.912109647999784
 30
0.0
 11
0.0500686172998997
 21
0.0000000000078924
 31
0.0
210
0.0
220
0.0
230
1.0
 40
0.9986299999997967
 41
-0.0000000001578486
 42
1.57079632663748
  0
ARC
  5
CE
330
2
100
AcDbEntity
  8
GAIKEI
  6
Continuous
 62
     1
100
AcDbCircle
 10
44.65913183691123
 20
2.616618147999815
 30
0.0
 40
0.25
100
AcDbArc
 50
311.1369879999968
 51
0.0
  0
LINE
  5
CF
330
2
100
AcDbEntity
  8
GAIKEI
  6
Continuous
 62
     1
100
AcDbLine
 10
44.90913183691122
 20
2.616618147999815
 30
0.0
 11
44.90913183691122
 21
2.912109647999784
 31
0.0
  0
LINE
  5
D0
330
2
100
AcDbEntity
  8
GAIKEI
  6
Continuous
 62
     7
100
AcDbLine
 10
44.8590632369112
 20
2.962109647999795
 30
0.0
 11
44.85775303691122
 21
2.962109647999795
 31
0.0
  0
LINE
  5
D1
330
2
100
AcDbEntity
  8
GAIKEI
  6
Continuous
 62
     7
100
AcDbLine
 10
44.85775303691122
 20
2.962109647999795
 30
0.0
 11
44.83163183691118
 21
2.962109647999795
 31
0.0
  0
ELLIPSE
  5
D2
330
2
100
AcDbEntity
  8
GAIKEI
  6
Continuous
 62
     1
100
AcDbEllipse
 10
44.81906323691123
 20
0.8121096479998186
 30
0.0
 11
0.0500686172998996
 21
0.0000000000052936
 31
0.0
210
0.0
220
0.0
230
1.0
 40
0.9986299999999392
 41
-0.0000000001058715
 42
1.570796326689314
  0
ARC
  5
D3
330
2
100
AcDbEntity
  8
GAIKEI
  6
Continuous
 62
     1
100
AcDbCircle
 10
44.6191318369112
 20
0.5166181479997931
 30
0.0
 40
0.25
100
AcDbArc
 50
296.5650509999956
 51
0.0
  0
ARC
  5
D4
330
2
100
AcDbEntity
  8
GAIKEI
  6
Continuous
 62
     1
100
AcDbCircle
 10
42.81011483691123
 20
-0.38789035200017
 30
0.0
 40
0.25
100
AcDbArc
 50
262.4671324998627
 51
296.5650509999956
  0
LINE
  5
D5
330
2
100
AcDbEntity
  8
GAIKEI
  6
Continuous
 62
     1
100
AcDbLine
 10
42.92191823691121
 20
-0.6114971520001973
 30
0.0
 11
44.73093523691119
 21
0.2930113479998226
 31
0.0
  0
LINE
  5
D6
330
2
100
AcDbEntity
  8
GAIKEI
  6
Continuous
 62
     1
100
AcDbLine
 10
44.86913183691121
 20
0.5166181479997931
 30
0.0
 11
44.86913183691121
 21
0.8121096479998186
 31
0.0
  0
LINE
  5
D7
330
2
100
AcDbEntity
  8
GAIKEI
  6
Continuous
 62
     1
100
AcDbLine
 10
44.81906323691123
 20
0.86210964799983
 30
0.0
 11
44.8177530369112
 21
0.86210964799983
 31
0.0
  0
LINE
  5
D8
330
2
100
AcDbEntity
  8
GAIKEI
  6
Continuous
 62
     1
100
AcDbLine
 10
44.8177530369112
 20
0.86210964799983
 30
0.0
 11
44.78163183691117
 21
0.86210964799983
 31
0.0
  0
ELLIPSE
  5
D9
330
2
100
AcDbEntity
  8
GAIKEI
  6
Continuous
 62
     1
100
AcDbEllipse
 10
44.09413183691123
 20
-0.1232381520001695
 30
0.0
 11
-0.0300931748396614
 21
0.5742119824838828
 31
0.0
210
0.0
220
0.0
230
1.0
 40
0.7162020000000488
 41
3.141592653589866
 42
4.415633639596251
  0
ELLIPSE
  5
DA
330
2
100
AcDbEntity
  8
GAIKEI
  6
Continuous
 62
     1
100
AcDbEllipse
 10
44.6841318369112
 20
4.410352647999786
 30
0.0
 11
0.1500000000000057
 21
0.0000000000002912
 31
0.0
210
0.0
220
0.0
230
1.0
 40
0.75021000000489
 41
-0.1853190537477316
 42
-0.0000000000025875
  0
ELLIPSE
  5
DB
330
2
100
AcDbEntity
  8
GAIKEI
  6
Continuous
 62
     1
100
AcDbEllipse
 10
44.58413183691123
 20
4.422739297999839
 30
0.0
 11
-0.2499505998823104
 21
0.0141361910263936
 31
0.0
210
0.0
220
0.0
230
1.0
 40
0.3515569999918309
 41
3.161472642457675
 42
3.30109898262038
  0
ELLIPSE
  5
DC
330
2
100
AcDbEntity
  8
GAIKEI
  6
Continuous
 62
     1
100
AcDbEllipse
 10
44.58413183691123
 20
4.422739297999839
 30
0.0
 11
-0.2210674003015576
 21
0.121767860627333
 31
0.0
210
0.0
220
0.0
230
1.0
 40
0.9249590000073469
 41
3.542915323544484
 42
3.678700396373161
  0
ELLIPSE
  5
DD
330
2
100
AcDbEntity
  8
GAIKEI
  6
Continuous
 62
     1
100
AcDbEllipse
 10
44.53163183691123
 20
1.169250397999803
 30
0.0
 11
-0.0848044079948102
 21
0.767177052496921
 31
0.0
210
0.0
220
0.0
230
1.0
 40
0.0616449999999753
 41
3.15661004303882
 42
3.73389512968818
  0
ARC
  5
DE
330
2
100
AcDbEntity
  8
GAIKEI
  6
Continuous
 62
     1
100
AcDbCircle
 10
44.09591683691121
 20
-0.1261394020002058
 30
0.0
 40
0.57159935
100
AcDbArc
 50
298.277253
 51
304.9271009999994
  0
ARC
  5
DF
330
2
100
AcDbEntity
  8
GAIKEI
  6
Continuous
 62
     1
100
AcDbCircle
 10
44.09413183691117
 20
-0.1232381520001695
 30
0.0
 40
0.5750000000000001
100
AcDbArc
 50
273.0000000000056
 51
0.0
  0
ARC
  5
E0
330
2
100
AcDbEntity
  8
GAIKEI
  6
Continuous
 62
     1
100
AcDbCircle
 10
42.79163183691122
 20
-1.017631502000199
 30
0.0
 40
0.25
100
AcDbArc
 50
93.00000000000558
 51
101.6320760000016
  0
ARC
  5
E1
330
2
100
AcDbEntity
  8
GAIKEI
  6
Continuous
 62
     1
100
AcDbCircle
 10
44.23592733691123
 20
32.57139089799978
 30
0.0
 40
0.25
100
AcDbArc
 50
8.000000000000873
 51
9.618225999999451
  0
ARC
  5
E2
330
2
100
AcDbEntity
  8
GAIKEI
  6
Continuous
 62
     1
100
AcDbCircle
 10
44.6841318369112
 20
4.376099797999813
 30
0.0
 40
0.15
100
AcDbArc
 50
349.5246860000031
 51
0.0
  0
ARC
  5
E3
330
2
100
AcDbEntity
  8
GAIKEI
  6
Continuous
 62
     1
100
AcDbCircle
 10
44.6841318369112
 20
4.376114547999804
 30
0.0
 40
0.15
100
AcDbArc
 50
349.524713000003
 51
0.0
  0
ARC
  5
E4
330
2
100
AcDbEntity
  8
GAIKEI
  6
Continuous
 62
     1
100
AcDbCircle
 10
44.23592733691123
 20
32.57139089799978
 30
0.0
 40
0.25
100
AcDbArc
 50
8.000000000000873
 51
76.97098900000298
  0
ARC
  5
E5
330
2
100
AcDbEntity
  8
GAIKEI
  6
Continuous
 62
     1
100
AcDbCircle
 10
44.53163183691117
 20
0.6371615479998241
 30
0.0
 40
0.25
100
AcDbArc
 50
290.0000000000034
 51
0.0
  0
ARC
  5
E6
330
2
100
AcDbEntity
  8
GAIKEI
  6
Continuous
 62
     1
100
AcDbCircle
 10
42.79163183691122
 20
33.38955564799983
 30
0.0
 40
0.25
100
AcDbArc
 50
243.2563159999966
 51
257.999999999997
  0
LINE
  5
E7
330
2
100
AcDbEntity
  8
GAIKEI
  6
Continuous
 62
     1
100
AcDbLine
 10
44.83413183691118
 20
8.823467923140754
 30
0.0
 11
44.83413183691118
 21
9.092033423140776
 31
0.0
  0
LINE
  5
E8
330
2
100
AcDbEntity
  8
GAIKEI
  6
Continuous
 62
     1
100
AcDbLine
 10
44.83413183691118
 20
4.546305647999815
 30
0.0
 11
44.83413183691118
 21
8.485371623140736
 31
0.0
  0
LINE
  5
E9
330
2
100
AcDbEntity
  8
GAIKEI
  6
Continuous
 62
     1
100
AcDbLine
 10
44.83413183691118
 20
4.384376397999801
 30
0.0
 11
44.83413183691118
 21
4.541696747999822
 31
0.0
  0
LINE
  5
EA
330
2
100
AcDbEntity
  8
GAIKEI
  6
Continuous
 62
     1
100
AcDbLine
 10
44.83413183691118
 20
23.48532237314078
 30
0.0
 11
44.83413183691118
 21
22.67637557314078
 31
0.0
  0
LINE
  5
EB
330
2
100
AcDbEntity
  8
GAIKEI
  6
Continuous
 62
     7
100
AcDbLine
 10
44.83413183691118
 20
22.67637557314078
 30
0.0
 11
44.83413183691118
 21
22.55175777314077
 31
0.0
  0
LINE
  5
EC
330
2
100
AcDbEntity
  8
GAIKEI
  6
Continuous
 62
     1
100
AcDbLine
 10
44.83413183691118
 20
27.61477164799976
 30
0.0
 11
44.83413183691118
 21
27.65789254799978
 31
0.0
  0
LINE
  5
ED
330
2
100
AcDbEntity
  8
GAIKEI
  6
Continuous
 62
     7
100
AcDbLine
 10
44.83413183691118
 20
22.50863687314074
 30
0.0
 11
44.83413183691118
 21
22.55175777314077
 31
0.0
  0
LINE
  5
EE
330
2
100
AcDbEntity
  8
GAIKEI
  6
Continuous
 62
     1
100
AcDbLine
 10
44.83413183691118
 20
27.65789254799978
 30
0.0
 11
44.83413183691118
 21
28.11713799799981
 31
0.0
  0
LINE
  5
EF
330
2
100
AcDbEntity
  8
GAIKEI
  6
Continuous
 62
     7
100
AcDbLine
 10
44.83163183691118
 20
22.12037762314077
 30
0.0
 11
44.83163183691118
 21
16.42212738306381
 31
0.0
  0
LINE
  5
F0
330
2
100
AcDbEntity
  8
GAIKEI
  6
Continuous
 62
     1
100
AcDbLine
 10
44.83413183691118
 20
8.823467923140754
 30
0.0
 11
44.83413183691118
 21
9.092033423140776
 31
0.0
  0
LINE
  5
F1
330
2
100
AcDbEntity
  8
GAIKEI
  6
Continuous
 62
     1
100
AcDbLine
 10
44.83413183691118
 20
4.546305647999815
 30
0.0
 11
44.83413183691118
 21
8.485371623140736
 31
0.0
  0
LINE
  5
F2
330
2
100
AcDbEntity
  8
GAIKEI
  6
Continuous
 62
     1
100
AcDbLine
 10
44.83413183691118
 20
9.092033423140776
 30
0.0
 11
44.83413183691118
 21
9.102504873140787
 31
0.0
  0
LINE
  5
F3
330
2
100
AcDbEntity
  8
GAIKEI
  6
Continuous
 62
     1
100
AcDbLine
 10
44.83413183691118
 20
4.541696747999822
 30
0.0
 11
44.83413183691118
 21
4.546305647999815
 31
0.0
  0
LINE
  5
F4
330
2
100
AcDbEntity
  8
GAIKEI
  6
Continuous
 62
     1
100
AcDbLine
 10
44.83413183691118
 20
4.384376397999801
 30
0.0
 11
44.83413183691118
 21
4.541696747999822
 31
0.0
  0
LINE
  5
F5
330
2
100
AcDbEntity
  8
GAIKEI
  6
Continuous
 62
     1
100
AcDbLine
 10
44.83413183691118
 20
9.102504873140787
 30
0.0
 11
44.83413183691118
 21
9.732382723140744
 31
0.0
  0
LINE
  5
F6
330
2
100
AcDbEntity
  8
GAIKEI
  6
Continuous
 62
     1
100
AcDbLine
 10
44.83413183691118
 20
9.732382723140744
 30
0.0
 11
44.83413183691118
 21
9.732449173140764
 31
0.0
  0
LINE
  5
F7
330
2
100
AcDbEntity
  8
GAIKEI
  6
Continuous
 62
     1
100
AcDbLine
 10
44.66913183691121
 20
-0.1232381520001695
 30
0.0
 11
44.66913183691121
 21
0.2621096479998641
 31
0.0
  0
LINE
  5
F8
330
2
100
AcDbEntity
  8
GAIKEI
  6
Continuous
 62
     1
100
AcDbLine
 10
42.77854783691123
 20
-0.7679741020002098
 30
0.0
 11
42.85385933691123
 21
-0.7640272020001931
 31
0.0
  0
LINE
  5
F9
330
2
100
AcDbEntity
  8
GAIKEI
  6
Continuous
 62
     1
100
AcDbLine
 10
44.83413183691118
 20
28.07926694799983
 30
0.0
 11
44.83413183691118
 21
28.54830114799984
 31
0.0
  0
LINE
  5
FA
330
2
100
AcDbEntity
  8
GAIKEI
  6
Continuous
 62
     1
100
AcDbLine
 10
42.88354783691119
 20
-0.762471302000165
 30
0.0
 11
44.1242249869112
 21
-0.6974501520001582
 31
0.0
  0
LINE
  5
FB
330
2
100
AcDbEntity
  8
GAIKEI
  6
Continuous
 62
     1
100
AcDbLine
 10
42.85385933691123
 20
-0.7640272020001931
 30
0.0
 11
42.88354783691119
 21
-0.762471302000165
 31
0.0
  0
LINE
  5
FC
330
2
100
AcDbEntity
  8
GAIKEI
  6
Continuous
 62
     1
100
AcDbLine
 10
44.78163183691117
 20
0.9121096479997845
 30
0.0
 11
44.78163183691117
 21
0.86210964799983
 31
0.0
  0
LINE
  5
FD
330
2
100
AcDbEntity
  8
GAIKEI
  6
Continuous
 62
     1
100
AcDbLine
 10
44.78163183691117
 20
0.9121096479997845
 30
0.0
 11
44.78163183691117
 21
1.062109647999818
 31
0.0
  0
LINE
  5
FE
330
2
100
AcDbEntity
  8
GAIKEI
  6
Continuous
 62
     1
100
AcDbLine
 10
44.83413183691118
 20
4.376114547999804
 30
0.0
 11
44.83413183691118
 21
4.410352647999786
 31
0.0
  0
LINE
  5
FF
330
2
100
AcDbEntity
  8
GAIKEI
  6
Continuous
 62
     1
100
AcDbLine
 10
44.78157463691121
 20
30.48523284799979
 30
0.0
 11
44.57391053691122
 21
31.9628393979998
 31
0.0
  0
LINE
  5
100
330
2
100
AcDbEntity
  8
GAIKEI
  6
Continuous
 62
     1
100
AcDbLine
 10
44.57391053691122
 20
31.9628393979998
 30
0.0
 11
44.48349433691123
 21
32.60618414799978
 31
0.0
  0
LINE
  5
101
330
2
100
AcDbEntity
  8
GAIKEI
  6
Continuous
 62
     1
100
AcDbLine
 10
44.29229208691118
 20
32.81495404799978
 30
0.0
 11
44.29158658691119
 21
32.81490889799977
 31
0.0
  0
LINE
  5
102
330
2
100
AcDbEntity
  8
GAIKEI
  6
Continuous
 62
     1
100
AcDbLine
 10
44.28790523691122
 20
32.81592779799979
 30
0.0
 11
42.9363833369112
 21
33.10320259799983
 31
0.0
  0
LINE
  5
103
330
2
100
AcDbEntity
  8
GAIKEI
  6
Continuous
 62
     1
100
AcDbLine
 10
44.28790523691122
 20
32.81592779799979
 30
0.0
 11
44.29165673691119
 21
32.81487814799982
 31
0.0
  0
LINE
  5
104
330
2
100
AcDbEntity
  8
GAIKEI
  6
Continuous
 62
     1
100
AcDbLine
 10
42.9363833369112
 20
33.10320259799983
 30
0.0
 11
42.89265948691121
 21
33.11249639799979
 31
0.0
  0
LINE
  5
105
330
2
100
AcDbEntity
  8
GAIKEI
  6
Continuous
 62
     1
100
AcDbLine
 10
44.78163183691117
 20
0.6371615479998241
 30
0.0
 11
44.78163183691117
 21
0.7233878979997713
 31
0.0
  0
LINE
  5
106
330
2
100
AcDbEntity
  8
GAIKEI
  6
Continuous
 62
     1
100
AcDbLine
 10
44.83169883691118
 20
4.422739297999839
 30
0.0
 11
44.83163183691118
 21
4.422683047999782
 31
0.0
  0
LINE
  5
107
330
2
100
AcDbEntity
  8
GAIKEI
  6
Continuous
 62
     7
100
AcDbLine
 10
44.83169883691118
 20
11.49067207314078
 30
0.0
 11
44.83169883691118
 21
4.422739297999839
 31
0.0
  0
LINE
  5
108
330
2
100
AcDbEntity
  8
GAIKEI
  6
Continuous
 62
     7
100
AcDbLine
 10
44.83169883691118
 20
15.86772232314075
 30
0.0
 11
44.83169883691118
 21
11.49067207314078
 31
0.0
  0
LINE
  5
109
330
2
100
AcDbEntity
  8
GAIKEI
  6
Continuous
 62
     1
100
AcDbLine
 10
44.78163183691117
 20
0.7233878979997713
 30
0.0
 11
44.78163183691117
 21
1.819188297999801
 31
0.0
  0
LINE
  5
10A
330
2
100
AcDbEntity
  8
GAIKEI
  6
Continuous
 62
     1
100
AcDbLine
 10
43.22115748691124
 20
-0.1058565520002048
 30
0.0
 11
44.61713688691122
 21
0.4022383979998381
 31
0.0
  0
LINE
  5
10B
330
2
100
AcDbEntity
  8
GAIKEI
  6
Continuous
 62
     1
100
AcDbLine
 10
42.89309573691122
 20
33.11240369799981
 30
0.0
 11
42.73965393691122
 21
33.14501874799982
 31
0.0
  0
LINE
  5
10C
330
2
100
AcDbEntity
  8
GAIKEI
  6
Continuous
 62
     1
100
AcDbLine
 10
44.3855876869112
 20
1.283880597999825
 30
0.0
 11
44.3855876869112
 21
1.059339447999775
 31
0.0
  0
ARC
  5
10D
330
2
100
AcDbEntity
  8
GAIKEI
  6
Continuous
 62
     1
100
AcDbCircle
 10
42.63963648691123
 20
-1.621874402000173
 30
0.0
 40
0.05
100
AcDbArc
 50
322.1768079999999
 51
341.3177600000024
  0
ARC
  5
10E
330
2
100
AcDbEntity
  8
GAIKEI
  6
Continuous
 62
     1
100
AcDbCircle
 10
44.59163183691123
 20
1.712109647999795
 30
0.0
 40
0.35
100
AcDbArc
 50
0.0
 51
16.25702800000192
  0
ARC
  5
10F
330
2
100
AcDbEntity
  8
GAIKEI
  6
Continuous
 62
     1
100
AcDbCircle
 10
44.59163183691123
 20
1.712109647999795
 30
0.0
 40
0.35
100
AcDbArc
 50
343.7429719999981
 51
0.0
  0
ARC
  5
110
330
2
100
AcDbEntity
  8
GAIKEI
  6
Continuous
 62
     1
100
AcDbCircle
 10
44.87963648691118
 20
1.628125597999826
 30
0.0
 40
0.05
100
AcDbArc
 50
275.0000009999959
 51
343.7429719999981
  0
ARC
  5
111
330
2
100
AcDbEntity
  8
GAIKEI
  6
Continuous
 62
     1
100
AcDbCircle
 10
44.87963648691118
 20
1.796093697999822
 30
0.0
 40
0.05
100
AcDbArc
 50
16.25702800000192
 51
84.99999900000409
  0
LINE
  5
112
330
2
100
AcDbEntity
  8
GAIKEI
  6
Continuous
 62
     1
100
AcDbLine
 10
44.8066318369112
 20
1.577109647999805
 30
0.0
 11
44.84163183691123
 21
1.577109647999805
 31
0.0
  0
LINE
  5
113
330
2
100
AcDbEntity
  8
GAIKEI
  6
Continuous
 62
     1
100
AcDbLine
 10
44.88399428691121
 20
1.845903397999791
 30
0.0
 11
44.8066318369112
 21
1.852671764331603
 31
0.0
  0
LINE
  5
114
330
2
100
AcDbEntity
  8
GAIKEI
  6
Continuous
 62
     1
100
AcDbLine
 10
44.84163183691123
 20
1.574609647999807
 30
0.0
 11
44.88399428691121
 21
1.5783158979998
 31
0.0
  0
LINE
  5
115
330
2
100
AcDbEntity
  8
GAIKEI
  6
Continuous
 62
     1
100
AcDbLine
 10
44.78163183691117
 20
1.462109647999795
 30
0.0
 11
44.8066318369112
 21
1.462109647999795
 31
0.0
  0
LINE
  5
116
330
2
100
AcDbEntity
  8
GAIKEI
  6
Continuous
 62
     1
100
AcDbLine
 10
44.8066318369112
 20
1.462109647999795
 30
0.0
 11
44.8066318369112
 21
1.900186447999828
 31
0.0
  0
ARC
  5
117
330
2
100
AcDbEntity
  8
GAIKEI
  6
Continuous
 62
     1
100
AcDbCircle
 10
44.59163183691123
 20
3.61210964799983
 30
0.0
 40
0.35
100
AcDbArc
 50
0.0
 51
16.25702800000192
  0
ARC
  5
118
330
2
100
AcDbEntity
  8
GAIKEI
  6
Continuous
 62
     1
100
AcDbCircle
 10
44.59163183691123
 20
3.61210964799983
 30
0.0
 40
0.35
100
AcDbArc
 50
343.7429719999981
 51
0.0
  0
ARC
  5
119
330
2
100
AcDbEntity
  8
GAIKEI
  6
Continuous
 62
     1
100
AcDbCircle
 10
44.87963648691118
 20
3.528125597999803
 30
0.0
 40
0.05
100
AcDbArc
 50
275.0000009999959
 51
343.7429719999981
  0
ARC
  5
11A
330
2
100
AcDbEntity
  8
GAIKEI
  6
Continuous
 62
     1
100
AcDbCircle
 10
44.87963648691118
 20
3.696093697999799
 30
0.0
 40
0.05
100
AcDbArc
 50
16.25702800000192
 51
84.99999900000409
  0
LINE
  5
11B
330
2
100
AcDbEntity
  8
GAIKEI
  6
Continuous
 62
     1
100
AcDbLine
 10
44.84163183691123
 20
3.74710964799982
 30
0.0
 11
44.83163183691118
 21
3.74710964799982
 31
0.0
  0
LINE
  5
11C
330
2
100
AcDbEntity
  8
GAIKEI
  6
Continuous
 62
     1
100
AcDbLine
 10
44.83163183691118
 20
3.477109647999839
 30
0.0
 11
44.84163183691123
 21
3.477109647999839
 31
0.0
  0
LINE
  5
11D
330
2
100
AcDbEntity
  8
GAIKEI
  6
Continuous
 62
     1
100
AcDbLine
 10
44.88399428691121
 20
3.745903397999825
 30
0.0
 11
44.84163183691123
 21
3.749609647999818
 31
0.0
  0
LINE
  5
11E
330
2
100
AcDbEntity
  8
GAIKEI
  6
Continuous
 62
     1
100
AcDbLine
 10
44.84163183691123
 20
3.474609647999784
 30
0.0
 11
44.88399428691121
 21
3.478315897999834
 31
0.0
  0
ARC
  5
11F
330
2
100
AcDbEntity
  8
GAIKEI
  6
Continuous
 62
     1
100
AcDbCircle
 10
42.39163183691118
 20
-1.172890352000194
 30
0.0
 40
0.35
100
AcDbArc
 50
0.0
 51
16.25702800000192
  0
ARC
  5
120
330
2
100
AcDbEntity
  8
GAIKEI
  6
Continuous
 62
     1
100
AcDbCircle
 10
42.39163183691118
 20
-1.172890352000194
 30
0.0
 40
0.35
100
AcDbArc
 50
343.7429719999981
 51
0.0
  0
ARC
  5
121
330
2
100
AcDbEntity
  8
GAIKEI
  6
Continuous
 62
     1
100
AcDbCircle
 10
42.67963648691119
 20
-1.256874402000164
 30
0.0
 40
0.05
100
AcDbArc
 50
320.9555469999992
 51
343.7429719999981
  0
ARC
  5
122
330
2
100
AcDbEntity
  8
GAIKEI
  6
Continuous
 62
     1
100
AcDbCircle
 10
42.67963648691119
 20
-1.088906302000225
 30
0.0
 40
0.05
100
AcDbArc
 50
16.25702800000192
 51
80.92142900000551
  0
ARC
  5
123
330
2
100
AcDbEntity
  8
GAIKEI
  6
Continuous
 62
     1
100
AcDbCircle
 10
42.63963648691123
 20
-1.0539063020002
 30
0.0
 40
0.05
100
AcDbArc
 50
16.25702800000192
 51
37.82319200000003
  0
ARC
  5
124
330
2
100
AcDbEntity
  8
GAIKEI
  6
Continuous
 62
     1
100
AcDbCircle
 10
42.34163183691123
 20
-1.537890352000204
 30
0.0
 40
0.45
100
AcDbArc
 50
0.0
 51
4.780191999998843
  0
ARC
  5
125
330
2
100
AcDbEntity
  8
GAIKEI
  6
Continuous
 62
     1
100
AcDbCircle
 10
42.34163183691123
 20
-1.537890352000204
 30
0.0
 40
0.45
100
AcDbArc
 50
343.3984500000017
 51
0.0
  0
ARC
  5
126
330
2
100
AcDbEntity
  8
GAIKEI
  6
Continuous
 62
     1
100
AcDbCircle
 10
42.7105830369112
 20
-1.64789035200016
 30
0.0
 40
0.065
100
AcDbArc
 50
270.0
 51
343.3984500000017
  0
LINE
  5
127
330
2
100
AcDbEntity
  8
GAIKEI
  6
Continuous
 62
     1
100
AcDbLine
 10
42.67913183691121
 20
-1.712890352000215
 30
0.0
 11
42.7105830369112
 21
-1.712890352000215
 31
0.0
  0
LINE
  5
128
330
2
100
AcDbEntity
  8
GAIKEI
  6
Continuous
 62
     1
100
AcDbLine
 10
42.7105830369112
 20
-1.712890352000215
 30
0.0
 11
42.7105830369112
 21
-1.637890352000169
 31
0.0
  0
LINE
  5
129
330
2
100
AcDbEntity
  8
GAIKEI
  6
Continuous
 62
     1
100
AcDbLine
 10
42.77287353691122
 20
-1.666461802000185
 30
0.0
 11
42.77287353691122
 21
-1.591461802000196
 31
0.0
  0
ARC
  5
12A
330
2
100
AcDbEntity
  8
GAIKEI
  6
Continuous
 62
     1
100
AcDbCircle
 10
42.34163183691123
 20
33.82460964799981
 30
0.0
 40
0.45
100
AcDbArc
 50
0.0
 51
16.60154999999833
  0
ARC
  5
12B
330
2
100
AcDbEntity
  8
GAIKEI
  6
Continuous
 62
     1
100
AcDbCircle
 10
42.34163183691123
 20
33.82460964799981
 30
0.0
 40
0.45
100
AcDbArc
 50
343.3984500000017
 51
0.0
  0
ARC
  5
12C
330
2
100
AcDbEntity
  8
GAIKEI
  6
Continuous
 62
     1
100
AcDbCircle
 10
42.7105830369112
 20
33.71460964799979
 30
0.0
 40
0.065
100
AcDbArc
 50
270.0
 51
343.3984500000017
  0
ARC
  5
12D
330
2
100
AcDbEntity
  8
GAIKEI
  6
Continuous
 62
     1
100
AcDbCircle
 10
42.7105830369112
 20
33.93460964799976
 30
0.0
 40
0.065
100
AcDbArc
 50
16.60154999999833
 51
90.0
  0
LINE
  5
12E
330
2
100
AcDbEntity
  8
GAIKEI
  6
Continuous
 62
     1
100
AcDbLine
 10
42.67913183691121
 20
33.6496096479998
 30
0.0
 11
42.7105830369112
 21
33.6496096479998
 31
0.0
  0
LINE
  5
12F
330
2
100
AcDbEntity
  8
GAIKEI
  6
Continuous
 62
     1
100
AcDbLine
 10
42.7105830369112
 20
33.99960964799982
 30
0.0
 11
42.67913183691121
 21
33.99960964799982
 31
0.0
  0
ARC
  5
130
330
2
100
AcDbEntity
  8
GAIKEI
  6
Continuous
 62
     1
100
AcDbCircle
 10
42.34163183691123
 20
-1.462890352000215
 30
0.0
 40
0.45
100
AcDbArc
 50
0.0
 51
16.60154999999833
  0
ARC
  5
131
330
2
100
AcDbEntity
  8
GAIKEI
  6
Continuous
 62
     1
100
AcDbCircle
 10
42.34163183691123
 20
-1.462890352000215
 30
0.0
 40
0.45
100
AcDbArc
 50
343.3984500000017
 51
0.0
  0
ARC
  5
132
330
2
100
AcDbEntity
  8
GAIKEI
  6
Continuous
 62
     1
100
AcDbCircle
 10
42.7105830369112
 20
-1.572890352000172
 30
0.0
 40
0.065
100
AcDbArc
 50
270.0
 51
343.3984500000017
  0
ARC
  5
133
330
2
100
AcDbEntity
  8
GAIKEI
  6
Continuous
 62
     1
100
AcDbCircle
 10
42.7105830369112
 20
-1.352890352000201
 30
0.0
 40
0.065
100
AcDbArc
 50
16.60154999999833
 51
90.0
  0
LINE
  5
134
330
2
100
AcDbEntity
  8
GAIKEI
  6
Continuous
 62
     1
100
AcDbLine
 10
42.67913183691121
 20
-1.637890352000169
 30
0.0
 11
42.7105830369112
 21
-1.637890352000169
 31
0.0
  0
LINE
  5
135
330
2
100
AcDbEntity
  8
GAIKEI
  6
Continuous
 62
     1
100
AcDbLine
 10
42.7105830369112
 20
-1.287890352000204
 30
0.0
 11
42.67913183691121
 21
-1.287890352000204
 31
0.0
  0
ARC
  5
136
330
2
100
AcDbEntity
  8
GAIKEI
  6
Continuous
 62
     1
100
AcDbCircle
 10
42.3816318369112
 20
-1.462890352000215
 30
0.0
 40
0.45
100
AcDbArc
 50
0.0
 51
16.60154999999833
  0
ARC
  5
137
330
2
100
AcDbEntity
  8
GAIKEI
  6
Continuous
 62
     1
100
AcDbCircle
 10
42.3816318369112
 20
-1.462890352000215
 30
0.0
 40
0.45
100
AcDbArc
 50
343.3984500000017
 51
0.0
  0
ARC
  5
138
330
2
100
AcDbEntity
  8
GAIKEI
  6
Continuous
 62
     1
100
AcDbCircle
 10
42.75058303691122
 20
-1.572890352000172
 30
0.0
 40
0.065
100
AcDbArc
 50
299.0713460000007
 51
343.3984500000017
  0
ARC
  5
139
330
2
100
AcDbEntity
  8
GAIKEI
  6
Continuous
 62
     1
100
AcDbCircle
 10
42.75058303691122
 20
-1.352890352000201
 30
0.0
 40
0.065
100
AcDbArc
 50
16.60154999999833
 51
90.0
  0
LINE
  5
13A
330
2
100
AcDbEntity
  8
GAIKEI
  6
Continuous
 62
     1
100
AcDbLine
 10
42.75058303691122
 20
-1.287890352000204
 30
0.0
 11
42.71885393691121
 21
-1.287890352000204
 31
0.0
  0
LINE
  5
13B
330
2
100
AcDbEntity
  8
GAIKEI
  6
Continuous
 62
     1
100
AcDbLine
 10
42.75058303691122
 20
-1.301655602000209
 30
0.0
 11
42.75058303691122
 21
-1.287890352000204
 31
0.0
  0
ELLIPSE
  5
13C
330
2
100
AcDbEntity
  8
GAIKEI
  6
Continuous
 62
     1
100
AcDbEllipse
 10
43.8828883369112
 20
32.21112784799982
 30
0.0
 11
-0.1113231012696504
 21
0.100534407660774
 31
0.0
210
0.0
220
0.0
230
1.0
 40
0.997662000000159
 41
4.013930599304742
 42
5.410847361485449
  0
ARC
  5
13D
330
2
100
AcDbEntity
  8
GAIKEI
  6
Continuous
 62
     1
100
AcDbCircle
 10
42.68614663691119
 20
33.00540329799981
 30
0.0
 40
0.05
100
AcDbArc
 50
77.90524300000484
 51
81.20675999999384
  0
ARC
  5
13E
330
2
100
AcDbEntity
  8
GAIKEI
  6
Continuous
 62
     1
100
AcDbCircle
 10
44.12693598691123
 20
32.39007529799983
 30
0.0
 40
0.34978195
100
AcDbArc
 50
7.826403999997514
 51
77.90929700000479
  0
LINE
  5
13F
330
2
100
AcDbEntity
  8
GAIKEI
  6
Continuous
 62
     1
100
AcDbLine
 10
44.20020128691123
 20
32.73209809799983
 30
0.0
 11
42.69662308691119
 21
33.05429344799978
 31
0.0
  0
LINE
  5
140
330
2
100
AcDbEntity
  8
GAIKEI
  6
Continuous
 62
     1
100
AcDbLine
 10
42.69662308691119
 20
33.05429344799978
 30
0.0
 11
42.69589638691122
 21
33.05090224799983
 31
0.0
  0
LINE
  5
141
330
2
100
AcDbEntity
  8
GAIKEI
  6
Continuous
 62
     1
100
AcDbLine
 10
44.16207883691117
 20
31.30170334799982
 30
0.0
 11
44.0532508869112
 21
32.09303784799977
 31
0.0
  0
LINE
  5
142
330
2
100
AcDbEntity
  8
GAIKEI
  6
Continuous
 62
     1
100
AcDbLine
 10
44.72620443691119
 20
30.59989114799981
 30
0.0
 11
44.47345978691124
 21
32.43770584799984
 31
0.0
  0
LINE
  5
143
330
2
100
AcDbEntity
  8
GAIKEI
  6
Continuous
 62
     1
100
AcDbLine
 10
44.2328124869112
 20
32.5986035479998
 30
0.0
 11
44.46237998691117
 21
30.92931959799978
 31
0.0
  0
LINE
  5
144
330
2
100
AcDbEntity
  8
GAIKEI
  6
Continuous
 62
     1
100
AcDbLine
 10
43.88811608691122
 20
32.3608310479998
 30
0.0
 11
43.24351973691119
 21
32.38334084799976
 31
0.0
  0
LINE
  5
145
330
2
100
AcDbEntity
  8
GAIKEI
  6
Continuous
 62
     1
100
AcDbLine
 10
43.02814763691123
 20
32.64067134799979
 30
0.0
 11
44.2328124869112
 21
32.5986035479998
 31
0.0
  0
SPLINE
  5
146
330
2
100
AcDbEntity
  8
GAIKEI
  6
Continuous
 62
     7
100
AcDbSpline
210
0.0
220
0.0
230
1.0
 70
     8
 71
     3
 72
    14
 73
    10
 74
     8
 42
0.0000000001
 43
0.0000000001
 44
0.000001
 12
0.1947808622282301
 22
0.9808467850330282
 32
0.0
 13
0.0153479363363905
 23
0.9998822134882757
 33
0.0
 40
0.0
 40
0.0
 40
0.0
 40
0.0
 40
0.0013591386716992
 40
0.0035651883618917
 40
0.0052671280297612
 40
0.006666679763429
 40
0.0078708380490388
 40
0.0090561891698571
 40
0.0104212077209439
 40
0.0104212077209439
 40
0.0104212077209439
 40
0.0104212077209439
 10
42.64056822890672
 20
-1.90476685115351
 30
0.0
 10
42.64065647364083
 20
-1.904322482221324
 30
0.0
 10
42.6408707038027
 20
-1.903153408360566
 30
0.0
 10
42.64112962498171
 20
-1.90141632201626
 30
0.0
 10
42.64132271084273
 20
-1.899657391757486
 30
0.0
 10
42.6414376090729
 20
-1.898226629883197
 30
0.0
 10
42.64150983888493
 20
-1.896965580704033
 30
0.0
 10
42.6415567587693
 20
-1.895714910179059
 30
0.0
 10
42.64157846787506
 20
-1.894865023394885
 30
0.0
 10
42.641585451281
 20
-1.894410070804781
 30
0.0
 11
42.64056822890672
 21
-1.90476685115351
 31
0.0
 11
42.64081514863209
 21
-1.903430107219094
 31
0.0
 11
42.6411394915645
 21
-1.901248017610328
 31
0.0
 11
42.64132565639499
 21
-1.899556287245673
 31
0.0
 11
42.6414380867298
 21
-1.898161250751684
 31
0.0
 11
42.64150720986623
 21
-1.896959060575795
 31
0.0
 11
42.64155330441155
 21
-1.895774521671455
 31
0.0
 11
42.641585451281
 21
-1.894410070804781
 31
0.0
  0
SPLINE
  5
147
330
2
100
AcDbEntity
  8
GAIKEI
  6
Continuous
 62
     7
100
AcDbSpline
210
0.0
220
0.0
230
1.0
 70
     8
 71
     3
 72
     9
 73
     5
 74
     3
 42
0.0000000001
 43
0.0000000001
 44
0.000001
 12
0.0384362357486041
 22
-0.9992610548707869
 32
0.0
 13
-0.0923148581174367
 23
-0.995729866465176
 33
0.0
 40
0.0
 40
0.0
 40
0.0
 40
0.0
 40
0.0028425387675167
 40
0.0039161070031314
 40
0.0039161070031314
 40
0.0039161070031314
 40
0.0039161070031314
 10
42.64163170298854
 20
-1.891287453178165
 30
0.0
 10
42.64166812181861
 20
-1.892234265940615
 30
0.0
 10
42.64165637868262
 20
-1.893542243699428
 30
0.0
 10
42.64155930773827
 20
-1.894844143744926
 30
0.0
 10
42.64152627230515
 20
-1.89520047173022
 30
0.0
 11
42.64163170298854
 21
-1.891287453178165
 31
0.0
 11
42.64160617859738
 21
-1.894130027910989
 31
0.0
 11
42.64152627230515
 21
-1.89520047173022
 31
0.0
  0
SPLINE
  5
148
330
2
100
AcDbEntity
  8
GAIKEI
  6
Continuous
 62
     1
100
AcDbSpline
210
0.0
220
0.0
230
1.0
 70
     8
 71
     3
 72
    25
 73
    21
 74
    19
 42
0.0000000001
 43
0.0000000001
 44
0.000001
 12
0.6426013748113089
 22
0.7662006741648142
 32
0.0
 13
0.6450872868150431
 23
0.7641088877834143
 33
0.0
 40
0.0
 40
0.0
 40
0.0
 40
0.0
 40
0.1326317859703268
 40
0.2853164647643686
 40
0.437657623649872
 40
0.5897066217165989
 40
0.7415140041421128
 40
0.9400270843770522
 40
1.138322514449763
 40
1.336512972729854
 40
1.487863052283618
 40
1.639279180542459
 40
1.790817643098574
 40
1.942535579609289
 40
2.094494994475092
 40
2.214104019007496
 40
2.333933796202126
 40
2.454016354398273
 40
2.574382521159546
 40
2.695062719916482
 40
2.695062719916482
 40
2.695062719916482
 40
2.695062719916482
 10
42.74641388446332
 20
-0.6726114353638195
 30
0.0
 10
42.7748236737994
 20
-0.6387372474217728
 30
0.0
 10
42.83592992567929
 20
-0.5658600904175515
 30
0.0
 10
42.92964185066057
 20
-0.4540532755210478
 30
0.0
 10
43.02748076405518
 20
-0.3372603275329311
 30
0.0
 10
43.12509877645621
 20
-0.2206638185088821
 30
0.0
 10
43.2325614458683
 20
-0.092236989543153
 30
0.0
 10
43.34987293974094
 20
0.048049039201544
 30
0.0
 10
43.47706498743753
 20
0.2002270864730065
 30
0.0
 10
43.59416178376114
 20
0.3403537394032412
 30
0.0
 10
43.70125250362986
 20
0.4684777174877653
 30
0.0
 10
43.79840230686556
 20
0.58464329935412
 30
0.0
 10
43.8956725923887
 20
0.70086795935228
 30
0.0
 10
43.99312177588154
 20
0.8171790236674212
 30
0.0
 10
44.08380872193748
 20
0.9252706964247607
 30
0.0
 10
44.16772816199764
 20
1.025165267847015
 30
0.0
 10
44.2448675277568
 20
1.116878158412049
 30
0.0
 10
44.32222546442907
 20
1.208736963940452
 30
0.0
 10
44.39981650778861
 20
1.30077003675403
 30
0.0
 10
44.4516327363022
 20
1.362178560495728
 30
0.0
 10
44.47758249029834
 20
1.392916164645612
 30
0.0
 11
42.74641388446332
 21
-0.6726114353638195
 31
0.0
 11
42.83163296836209
 21
-0.57098024883868
 31
0.0
 11
42.92971104522052
 21
-0.4539618659317739
 31
0.0
 11
43.02753853373213
 21
-0.3371816830547232
 31
0.0
 11
43.12514589690283
 21
-0.2205982350091631
 31
0.0
 11
43.22256606365948
 21
-0.1041731848541758
 31
0.0
 11
43.34991396499083
 21
0.0481092979514415
 31
0.0
 11
43.47708578421901
 21
0.2002552970388933
 31
0.0
 11
43.60417756864558
 21
0.352331375612664
 31
0.0
 11
43.7012444583616
 21
0.4684557047010003
 31
0.0
 11
43.79838228228902
 21
0.5846067613542232
 31
0.0
 11
43.89564384254561
 21
0.7008139798793991
 31
0.0
 11
43.99308237654468
 21
0.8171070022322624
 31
0.0
 11
44.09075284084752
 21
0.9335206837826035
 31
0.0
 11
44.16768913808096
 21
1.025101933687551
 31
0.0
 11
44.24482184395088
 21
1.116806467340836
 31
0.0
 11
44.32217218726361
 21
1.208658224825001
 31
0.0
 11
44.39975468819909
 21
1.300685229810426
 31
0.0
 11
44.47758249029834
 21
1.392916164645612
 31
0.0
  0
SPLINE
  5
149
330
2
100
AcDbEntity
  8
GAIKEI
  6
Continuous
 62
     7
100
AcDbSpline
210
0.0
220
0.0
230
1.0
 70
     8
 71
     3
 72
    24
 73
    20
 74
    18
 42
0.0000000001
 43
0.0000000001
 44
0.000001
 12
-0.6450891826635058
 22
0.764107287238206
 32
0.0
 13
-0.6426010606713997
 23
0.7662009376292831
 33
0.0
 40
0.0
 40
0.0
 40
0.0
 40
0.0
 40
0.1279172834885418
 40
0.2554857142357851
 40
0.3827436792159488
 40
0.5097301885678475
 40
0.6364847985758504
 40
0.7630456544739852
 40
0.9616300444448327
 40
1.159970670116569
 40
1.358188676903859
 40
1.54739082842433
 40
1.736690393909553
 40
1.926182773689498
 40
2.115963864905431
 40
2.265343010524392
 40
2.415007555575902
 40
2.565005854690993
 40
2.695047218680627
 40
2.695047218680627
 40
2.695047218680627
 40
2.695047218680627
 10
44.47758249029834
 20
30.91130313135398
 30
0.0
 10
44.45007647168028
 20
30.94388397417974
 30
0.0
 10
44.39515729754674
 20
31.00897187623902
 30
0.0
 10
44.3129270080764
 20
31.10651750733428
 30
0.0
 10
44.23095453429971
 20
31.20387466009634
 30
0.0
 10
44.14922010116405
 20
31.30107757735404
 30
0.0
 10
44.06769537500736
 20
31.39815319570249
 30
0.0
 10
43.97089036525613
 20
31.51356194427099
 30
0.0
 10
43.85884626743956
 20
31.64733313971126
 30
0.0
 10
43.73155602372799
 20
31.7994916780781
 30
0.0
 10
43.6063329044889
 20
31.94930201681663
 30
0.0
 10
43.48306150582323
 20
32.09681589522806
 30
0.0
 10
43.36164333394345
 20
32.24208803224852
 30
0.0
 10
43.2400695493136
 20
32.38748161319592
 30
0.0
 10
43.12698687576971
 20
32.52262942581249
 30
0.0
 10
43.0223851328885
 20
32.64756316448954
 30
0.0
 10
42.92626448227259
 20
32.76230253028108
 30
0.0
 10
42.83425495547038
 20
32.87207701233254
 30
0.0
 10
42.77427874211517
 20
32.94360625928836
 30
0.0
 10
42.74642383597154
 20
32.97681886429484
 30
0.0
 11
44.47758249029834
 21
30.91130313135398
 31
0.0
 11
44.39508894185422
 21
31.00906635452492
 31
0.0
 11
44.31286921218651
 21
31.10660414503048
 31
0.0
 11
44.23090607101932
 21
31.2039521463829
 31
0.0
 11
44.14917963490092
 21
31.30114455132468
 31
0.0
 11
44.06766261787033
 21
31.39821003246863
 31
0.0
 11
43.98632734278703
 21
31.49517509910936
 31
0.0
 11
43.85880849307784
 21
31.64740752156536
 31
0.0
 11
43.7315407660867
 21
31.79953226505631
 31
0.0
 11
43.60440959583058
 21
31.95161128683901
 31
0.0
 11
43.48308111858244
 21
32.09678997861806
 31
0.0
 11
43.36168001486202
 21
32.24203493242806
 31
0.0
 11
43.24012402781067
 21
32.38740172207867
 31
0.0
 11
43.11833699663174
 21
32.53295164943779
 31
0.0
 11
43.02244167294742
 21
32.64748642990776
 31
0.0
 11
42.92633177301854
 21
32.76221377239813
 31
0.0
 11
42.82997866808204
 21
32.87717276016281
 31
0.0
 11
42.74642383597154
 21
32.97681886429484
 31
0.0
  0
SPLINE
  5
14A
330
2
100
AcDbEntity
  8
GAIKEI
  6
Continuous
 62
     7
100
AcDbSpline
210
0.0
220
0.0
230
1.0
 70
     8
 71
     3
 72
    23
 73
    19
 74
    17
 42
0.0000000001
 43
0.0000000001
 44
0.000001
 12
0.0049688130497012
 22
0.9999876553722437
 32
0.0
 13
0.1822247323104926
 23
0.9832569079006614
 33
0.0
 40
0.0
 40
0.0
 40
0.0
 40
0.0
 40
0.0072074501703136
 40
0.016160804614415
 40
0.0250756285633327
 40
0.0338013202979102
 40
0.0421697133357867
 40
0.050022301499075
 40
0.0572230662354535
 40
0.0636517750001245
 40
0.0694283394929529
 40
0.0747395269944793
 40
0.0796635137653787
 40
0.0946187857611875
 40
0.0978764069160453
 40
0.0998931476227535
 40
0.1009987819249754
 40
0.1012579302451571
 40
0.1012579302451571
 40
0.1012579302451571
 40
0.1012579302451571
 10
44.82373333819004
 20
2.746271213488
 30
0.0
 10
44.82374527568086
 20
2.748673667220344
 30
0.0
 10
44.82379714876603
 20
2.754060455560143
 30
0.0
 10
44.82397547697153
 20
2.762417313164704
 30
0.0
 10
44.82426834766155
 20
2.771277293383349
 30
0.0
 10
44.82465606321653
 20
2.779938455616012
 30
0.0
 10
44.8251246054923
 20
2.788240990291541
 30
0.0
 10
44.82565701100336
 20
2.796030265878329
 30
0.0
 10
44.8262345167725
 20
2.803167798935874
 30
0.0
 10
44.82684091513357
 20
2.80960827360613
 30
0.0
 10
44.8274803160175
 20
2.81541207042467
 30
0.0
 10
44.82810142804308
 20
2.82071323269124
 30
0.0
 10
44.82922170540772
 20
2.829035116940957
 30
0.0
 10
44.82999968862304
 20
2.836711416885719
 30
0.0
 10
44.83100791012126
 20
2.843379342987518
 30
0.0
 10
44.83134392886543
 20
2.845479270187851
 30
0.0
 10
44.83153275500902
 20
2.846590580124093
 30
0.0
 10
44.83161609583342
 20
2.847037811541113
 30
0.0
 10
44.83163183691118
 20
2.847122747999776
 30
0.0
 11
44.82373333819004
 21
2.746271213488
 31
0.0
 11
44.82380507116204
 21
2.753478140674815
 31
0.0
 11
44.82399423679436
 21
2.762429495157562
 31
0.0
 11
44.82428895838711
 21
2.771339440596364
 31
0.0
 11
44.82467962986504
 21
2.780056377036544
 31
0.0
 11
44.82515232566157
 21
2.788411405374404
 31
0.0
 11
44.82568981658068
 21
2.796245575905459
 31
0.0
 11
44.8262728588952
 21
2.803422700282794
 31
0.0
 11
44.82688007019163
 21
2.809822675416228
 31
0.0
 11
44.82750517473095
 21
2.815565327138131
 31
0.0
 11
44.82813309192425
 21
2.820839273555577
 31
0.0
 11
44.82876334847515
 21
2.825722764484225
 31
0.0
 11
44.83059311784518
 21
2.840565664432176
 31
0.0
 11
44.83107642971822
 21
2.843787230059149
 31
0.0
 11
44.8313970313402
 21
2.845778321144848
 31
0.0
 11
44.83158511369583
 21
2.846867844067276
 31
0.0
 11
44.83163183691118
 21
2.847122747999776
 31
0.0
  0
SPLINE
  5
14B
330
2
100
AcDbEntity
  8
GAIKEI
  6
Continuous
 62
     1
100
AcDbSpline
210
0.0
220
0.0
230
1.0
 70
     8
 71
     3
 72
     9
 73
     5
 74
     3
 42
0.0000000001
 43
0.0000000001
 44
0.000001
 12
-0.1197400498887226
 22
0.9928052782155454
 32
0.0
 13
-0.1402453033452655
 23
0.9901167885101203
 33
0.0
 40
0.0
 40
0.0
 40
0.0
 40
0.0
 40
0.0092459895577719
 40
0.0156881724027867
 40
0.0156881724027867
 40
0.0156881724027867
 40
0.0156881724027867
 10
44.82617349403341
 20
30.3053936867812
 30
0.0
 10
44.82580445561644
 20
30.30845350919296
 30
0.0
 10
44.82514663934745
 20
30.31364152262368
 30
0.0
 10
44.82443522736301
 20
30.31882235783472
 30
0.0
 10
44.82413406540058
 20
30.32094852896455
 30
0.0
 11
44.82617349403341
 21
30.3053936867812
 31
0.0
 11
44.82501045785181
 21
30.31456624543199
 31
0.0
 11
44.82413406540058
 21
30.32094852896455
 31
0.0
  0
SPLINE
  5
14C
330
2
100
AcDbEntity
  8
GAIKEI
  6
Continuous
 62
     7
100
AcDbSpline
210
0.0
220
0.0
230
1.0
 70
     8
 71
     3
 72
    33
 73
    29
 74
    27
 42
0.0000000001
 43
0.0000000001
 44
0.000001
 12
-0.9989727477710509
 22
0.045314999842833
 32
0.0
 13
-0.9999928005234256
 23
-0.0037945884251499
 33
0.0
 40
0.0
 40
0.0
 40
0.0
 40
0.0
 40
0.0003193646769821
 40
0.0011748899394403
 40
0.0019753776501472
 40
0.0028201779244463
 40
0.0037318287471469
 40
0.0049417168605845
 40
0.0075302588399667
 40
0.0110310545682711
 40
0.0154384379156915
 40
0.0207475065557477
 40
0.0269566282603146
 40
0.034065384364909
 40
0.0420740035210246
 40
0.0509831623433055
 40
0.0607939595965728
 40
0.0715076027536322
 40
0.0831059906884473
 40
0.095590036124345
 40
0.1089601796620204
 40
0.1232171652372821
 40
0.1383615413946444
 40
0.1543938196920376
 40
0.1713154071310187
 40
0.1869950681571027
 40
0.2032650978171542
 40
0.205092653612687
 40
0.205092653612687
 40
0.205092653612687
 40
0.205092653612687
 10
42.59379545364891
 20
34.24935842942819
 30
0.0
 10
42.59368910811261
 20
34.24936325343161
 30
0.0
 10
42.59329791771608
 20
34.24938189255241
 30
0.0
 10
42.59263968917323
 20
34.24940114862444
 30
0.0
 10
42.59180620193999
 20
34.24941570892298
 30
0.0
 10
42.59095387521071
 20
34.24941953144389
 30
0.0
 10
42.58996510255918
 20
34.24941568836553
 30
0.0
 10
42.58839507880284
 20
34.2494123334227
 30
0.0
 10
42.58596201043499
 20
34.24940662061002
 30
0.0
 10
42.58246311076925
 20
34.24939938715591
 30
0.0
 10
42.57805737079223
 20
34.24939037567728
 30
0.0
 10
42.57274885672347
 20
34.24937981045713
 30
0.0
 10
42.56653988663962
 20
34.24936757275194
 30
0.0
 10
42.55943106793302
 20
34.24935365850636
 30
0.0
 10
42.5514222385076
 20
34.24933802002151
 30
0.0
 10
42.54251273042086
 20
34.24932062009276
 30
0.0
 10
42.53270154945854
 20
34.24930142259884
 30
0.0
 10
42.52199396064216
 20
34.24928040259541
 30
0.0
 10
42.51039529118171
 20
34.24925744688238
 30
0.0
 10
42.49791112387941
 20
34.24923246239738
 30
0.0
 10
42.48454075987015
 20
34.24920533805006
 30
0.0
 10
42.47028362171789
 20
34.24917596596545
 30
0.0
 10
42.45513910820702
 20
34.24914423423286
 30
0.0
 10
42.43910639765664
 20
34.24911004636965
 30
0.0
 10
42.42289525923768
 20
34.24907478897117
 30
0.0
 10
42.40660487696731
 20
34.24903885674087
 30
0.0
 10
42.39534581292059
 20
34.24901322206731
 30
0.0
 10
42.38931334414352
 20
34.24898620992421
 30
0.0
 10
42.38870416326415
 20
34.24898389831685
 30
0.0
 11
42.59379545364891
 21
34.24935842942819
 31
0.0
 11
42.59347637474554
 21
34.24937196192224
 31
0.0
 11
42.59262127916104
 21
34.24939895078944
 31
0.0
 11
42.59182091572836
 21
34.24941276621087
 31
0.0
 11
42.59097613206188
 21
34.24941729810564
 31
0.0
 11
42.59006448673801
 21
34.2494153036073
 31
0.0
 11
42.58885460422294
 21
34.24941228861803
 31
0.0
 11
42.58626607030618
 21
34.24940643780656
 31
0.0
 11
42.58276528313376
 21
34.2493990235032
 31
0.0
 11
42.57835790935337
 21
34.24939002745089
 31
0.0
 11
42.57304885154002
 21
34.24937942352836
 31
0.0
 11
42.56683974207407
 21
34.24936717721767
 31
0.0
 11
42.55973099973272
 21
34.24935325105315
 31
0.0
 11
42.55172239596032
 21
34.24933760602034
 31
0.0
 11
42.5428132542309
 21
34.24932020200674
 31
0.0
 11
42.53300247585843
 21
34.24930100169547
 31
0.0
 11
42.52228885347437
 21
34.24927995420967
 31
0.0
 11
42.51069048838497
 21
34.24925699020241
 31
0.0
 11
42.49820646809815
 21
34.24923199868556
 31
0.0
 11
42.48483635225187
 21
34.24920487009649
 31
0.0
 11
42.47057939716285
 21
34.24917549469876
 31
0.0
 11
42.45543505455981
 21
34.24914376355105
 31
0.0
 11
42.43940281319561
 21
34.24910956817632
 31
0.0
 11
42.422481266445
 21
34.24907279850823
 31
0.0
 11
42.40680164453999
 21
34.24903810867858
 31
0.0
 11
42.39053168717726
 21
34.24899068558585
 31
0.0
 11
42.38870416326415
 21
34.24898389831685
 31
0.0
  0
SPLINE
  5
14D
330
2
100
AcDbEntity
  8
GAIKEI
  6
Continuous
 62
     7
100
AcDbSpline
210
0.0
220
0.0
230
1.0
 70
     8
 71
     3
 72
    31
 73
    27
 74
    25
 42
0.0000000001
 43
0.0000000001
 44
0.000001
 12
0.999992804131436
 22
-0.0037936374823846
 32
0.0
 13
0.9989808044861298
 23
0.045137038762472
 33
0.0
 40
0.0
 40
0.0
 40
0.0
 40
0.0
 40
0.0026515889139971
 40
0.0190927368870625
 40
0.0353660989886413
 40
0.0521905496061845
 40
0.0681247117096913
 40
0.0831708709086167
 40
0.0973305489381677
 40
0.11060498366266
 40
0.1229945225111862
 40
0.1344996903740392
 40
0.1451210522003011
 40
0.1548589278232497
 40
0.1637121493750056
 40
0.1716610059610677
 40
0.1787060528869275
 40
0.1848481303573379
 40
0.190087663371175
 40
0.1944245152608512
 40
0.1978575922584349
 40
0.2003834863694502
 40
0.2020573366526684
 40
0.2033054059350345
 40
0.2045049137450708
 40
0.20509282600629
 40
0.20509282600629
 40
0.20509282600629
 40
0.20509282600629
 10
42.38870375202782
 20
-1.944764600756457
 30
0.0
 10
42.389587608639
 20
-1.944767953812153
 30
0.0
 10
42.39595179537054
 20
-1.944795505124645
 30
0.0
 10
42.40774047496171
 20
-1.944822013162408
 30
0.0
 10
42.42425341794649
 20
-1.944858496376085
 30
0.0
 10
42.44059737209096
 20
-1.944893950184507
 30
0.0
 10
42.45653225969135
 20
-1.944927881516385
 30
0.0
 10
42.47157889327787
 20
-1.944959357611899
 30
0.0
 10
42.48573895395054
 20
-1.944988488994091
 30
0.0
 10
42.49901347724249
 20
-1.945015385129423
 30
0.0
 10
42.51140316629522
 20
-1.945040154617835
 30
0.0
 10
42.52290849997763
 20
-1.945062907379309
 30
0.0
 10
42.53352994796784
 20
-1.945083748599586
 30
0.0
 10
42.54326741566678
 20
-1.945102799011209
 30
0.0
 10
42.5521140500503
 20
-1.945120075266927
 30
0.0
 10
42.56006307659129
 20
-1.945135594746808
 30
0.0
 10
42.56710839004742
 20
-1.945149401682371
 30
0.0
 10
42.57325059733395
 20
-1.945161481027405
 30
0.0
 10
42.57849007409705
 20
-1.945172029869681
 30
0.0
 10
42.58282655310196
 20
-1.945180621557483
 30
0.0
 10
42.58625848455364
 20
-1.945188534675672
 30
0.0
 10
42.58880275644131
 20
-1.945192677708988
 30
0.0
 10
42.59061867879012
 20
-1.945200685755679
 30
0.0
 10
42.59199250636615
 20
-1.945196223045897
 30
0.0
 10
42.59300420221978
 20
-1.945173745694255
 30
0.0
 10
42.59359946360504
 20
-1.945147988917746
 30
0.0
 10
42.59379523462627
 20
-1.945139143378241
 30
0.0
 11
42.38870375202782
 21
-1.944764600756457
 31
0.0
 11
42.3913553003407
 21
-1.944774351231842
 31
0.0
 11
42.40779638224966
 21
-1.94482103104093
 31
0.0
 11
42.4240697038166
 21
-1.944856983659235
 31
0.0
 11
42.44089411414409
 21
-1.9448934793337
 31
0.0
 11
42.45682823967491
 21
-1.944927409660522
 31
0.0
 11
42.47187436564678
 21
-1.944958886545975
 31
0.0
 11
42.48603401348709
 21
-1.944988020411187
 31
0.0
 11
42.49930842078862
 21
-1.945014921328493
 31
0.0
 11
42.51169793473104
 21
-1.945039697899574
 31
0.0
 11
42.52320307996751
 21
-1.945062459497933
 31
0.0
 11
42.53382442121801
 21
-1.945083316010652
 31
0.0
 11
42.54356227810575
 21
-1.945102370138272
 31
0.0
 11
42.55241548267219
 21
-1.94511966344595
 31
0.0
 11
42.56036432398178
 21
-1.945135193513351
 31
0.0
 11
42.56740935725036
 21
-1.945149000414744
 31
0.0
 11
42.57355142258353
 21
-1.945161124549542
 31
0.0
 11
42.57879094486168
 21
-1.945171605267205
 31
0.0
 11
42.583127787252
 21
-1.945180480499402
 31
0.0
 11
42.58656085570152
 21
-1.945187785625023
 31
0.0
 11
42.58908674159624
 21
-1.945193549034627
 31
0.0
 11
42.59076058226304
 21
-1.945197864268322
 31
0.0
 11
42.59200862676863
 21
-1.945191147662569
 31
0.0
 11
42.59320778678147
 21
-1.945162578913823
 31
0.0
 11
42.59379523462627
 21
-1.945139143378241
 31
0.0
  0
SPLINE
  5
14E
330
2
100
AcDbEntity
  8
GAIKEI
  6
Continuous
 62
     1
100
AcDbSpline
210
0.0
220
0.0
230
1.0
 70
     8
 71
     3
 72
    15
 73
    11
 74
     9
 42
0.0000000001
 43
0.0000000001
 44
0.000001
 12
-0.9993069237086784
 22
0.0372246185728951
 32
0.0
 13
-0.9993043250040532
 23
0.0372943162987813
 33
0.0
 40
0.0
 40
0.0
 40
0.0
 40
0.0
 40
0.0135550260818612
 40
0.0286448009222158
 40
0.0452836984744065
 40
0.1309398183227203
 40
0.1506979104907946
 40
0.171985562236962
 40
0.1948202008235673
 40
0.2191826589616368
 40
0.2191826589616368
 40
0.2191826589616368
 40
0.2191826589616368
 10
42.65631073691122
 20
33.26925840637944
 30
0.0
 10
42.65179552643968
 20
33.26942659993799
 30
0.0
 10
42.642253437632
 20
33.26977201621153
 30
0.0
 10
42.62716689896078
 20
33.27025716037852
 30
0.0
 10
42.58806003576359
 20
33.27162495392979
 30
0.0
 10
42.54735232483449
 20
33.27051814996182
 30
0.0
 10
42.50513784359995
 20
33.27187603188982
 30
0.0
 10
42.48385225325458
 20
33.27245263364787
 30
0.0
 10
42.46102630395728
 20
33.27281568672989
 30
0.0
 10
42.44530196457401
 20
33.2733405272953
 30
0.0
 10
42.43718679464564
 20
33.27364338770184
 30
0.0
 11
42.65631073691122
 21
33.26925840637944
 31
0.0
 11
42.64276445951281
 21
33.2697458807603
 31
0.0
 11
42.62768305118487
 21
33.27024830099129
 31
0.0
 11
42.61105219990668
 21
33.27076567171889
 31
0.0
 11
42.52539771162446
 21
33.27129666000747
 31
0.0
 11
42.50564718427051
 21
33.27184255775774
 31
0.0
 11
42.48436687315131
 21
33.27240140914432
 31
0.0
 11
42.46153721966033
 21
33.27287285625096
 31
0.0
 11
42.43718679464564
 21
33.27364338770184
 31
0.0
  0
SPLINE
  5
14F
330
2
100
AcDbEntity
  8
GAIKEI
  6
Continuous
 62
     1
100
AcDbSpline
210
0.0
220
0.0
230
1.0
 70
     8
 71
     3
 72
     9
 73
     5
 74
     3
 42
0.0000000001
 43
0.0000000001
 44
0.000001
 12
-0.0000018445944591
 22
0.9999999999982989
 32
0.0
 13
-0.0427938538119136
 23
0.9990839234398302
 33
0.0
 40
0.0
 40
0.0
 40
0.0
 40
0.0
 40
0.0139258080615728
 40
0.0321069066857096
 40
0.0321069066857096
 40
0.0321069066857096
 40
0.0321069066857096
 10
44.83163183691124
 20
11.48370826345933
 30
0.0
 10
44.83163182834874
 20
11.48835019947985
 30
0.0
 10
44.83153243140478
 20
11.4990526614673
 30
0.0
 10
44.83120402500552
 20
11.50975119519793
 30
0.0
 10
44.83094467857995
 20
11.51580600964655
 30
0.0
 11
44.83163183691124
 21
11.48370826345933
 31
0.0
 11
44.83150255257578
 21
11.49763341296432
 31
0.0
 11
44.83094467857995
 21
11.51580600964655
 31
0.0
  0
SPLINE
  5
150
330
2
100
AcDbEntity
  8
GAIKEI
  6
Continuous
 62
     1
100
AcDbSpline
210
0.0
220
0.0
230
1.0
 70
     8
 71
     3
 72
     9
 73
     5
 74
     3
 42
0.0000000001
 43
0.0000000001
 44
0.000001
 12
-0.0085731655573233
 22
-0.9999632497408725
 32
0.0
 13
-0.2441696530740563
 23
-0.9697325304008808
 33
0.0
 40
0.0
 40
0.0
 40
0.0
 40
0.0
 40
0.0009645689144569
 40
0.0010700851662007
 40
0.0010700851662007
 40
0.0010700851662007
 40
0.0010700851662007
 10
44.82770493525594
 20
11.56012523663321
 30
0.0
 10
44.8277021787863
 20
11.55980372547777
 30
0.0
 10
44.82766104794836
 20
11.55944540805548
 30
0.0
 10
44.82757813748023
 20
11.55909854159533
 30
0.0
 10
44.8275695495247
 20
11.55906443408139
 30
0.0
 11
44.82770493525594
 21
11.56012523663321
 31
0.0
 11
44.82759409734484
 21
11.55916700889776
 31
0.0
 11
44.8275695495247
 21
11.55906443408139
 31
0.0
  0
SPLINE
  5
151
330
2
100
AcDbEntity
  8
GAIKEI
  6
Continuous
 62
     7
100
AcDbSpline
210
0.0
220
0.0
230
1.0
 70
     8
 71
     3
 72
    19
 73
    15
 74
    13
 42
0.0000000001
 43
0.0000000001
 44
0.000001
 12
0.6454515731427639
 22
-0.7638011958144158
 32
0.0
 13
0.1202067029641735
 23
-0.9927488849464818
 33
0.0
 40
0.0
 40
0.0
 40
0.0
 40
0.0
 40
0.0355153739049589
 40
0.0709953650762931
 40
0.1065946142794694
 40
0.14216633649175
 40
0.1784911525315489
 40
0.2148012359927105
 40
0.2512585163379541
 40
0.2877170051074889
 40
0.3352601626282626
 40
0.382880637567705
 40
0.4192250038097903
 40
0.4386283337596443
 40
0.4386283337596443
 40
0.4386283337596443
 40
0.4386283337596443
 10
44.65347151881331
 20
30.70232993237943
 30
0.0
 10
44.66111267013255
 20
30.69328770402663
 30
0.0
 10
44.67596263328068
 20
30.67484836157439
 30
0.0
 10
44.69692662236758
 20
30.64614486912748
 30
0.0
 10
44.71652261305877
 20
30.61646693688768
 30
0.0
 10
44.73483849219656
 20
30.58565455745443
 30
0.0
 10
44.75177572811361
 20
30.55379381041493
 30
0.0
 10
44.76728534960978
 20
30.52088769983506
 30
0.0
 10
44.7812083212587
 20
30.48723083928297
 30
0.0
 10
44.79475405515631
 20
30.44941600987101
 30
0.0
 10
44.80724123500928
 20
30.40732534962743
 30
0.0
 10
44.81705012026085
 20
30.36457055376876
 30
0.0
 10
44.82288290997715
 20
30.3305982608434
 30
0.0
 10
44.82535456564434
 20
30.3121787368911
 30
0.0
 10
44.82613203575096
 20
30.30575785883377
 30
0.0
 11
44.65347151881331
 21
30.70232993237943
 31
0.0
 11
44.67574893992889
 21
30.6746697974952
 31
0.0
 11
44.69667509416047
 21
30.64601804755028
 31
0.0
 11
44.71629083847164
 21
30.61631066920972
 31
0.0
 11
44.73446717047181
 21
30.58573342011164
 31
0.0
 11
44.75151815330036
 21
30.55365918947337
 31
0.0
 11
44.76699900628529
 21
30.52081462530464
 31
0.0
 11
44.78093533314456
 21
30.48712616984062
 31
0.0
 11
44.79323032337094
 21
30.45280337441454
 31
0.0
 11
44.80675304479302
 21
30.40722390152519
 31
0.0
 11
44.81740163996938
 21
30.36080926543395
 31
0.0
 11
44.82355329926855
 21
30.32498928489008
 31
0.0
 11
44.82613203575096
 21
30.30575785883377
 31
0.0
  0
SPLINE
  5
152
330
2
100
AcDbEntity
  8
GAIKEI
  6
Continuous
 62
     1
100
AcDbSpline
210
0.0
220
0.0
230
1.0
 70
     8
 71
     3
 72
    16
 73
    12
 74
    10
 42
0.0000000001
 43
0.0000000001
 44
0.000001
 12
0.0063007628878109
 22
-0.9999801499965045
 32
0.0
 13
-0.4249637329286279
 23
-0.905210376484586
 33
0.0
 40
0.0
 40
0.0
 40
0.0
 40
0.0
 40
0.0456928155558235
 40
0.0729223277433817
 40
0.1001494218405929
 40
0.1275729237482571
 40
0.1553508338207632
 40
0.1831848896977218
 40
0.2113769263847817
 40
0.2397509725392922
 40
0.2997926694746515
 40
0.2997926694746515
 40
0.2997926694746515
 40
0.2997926694746515
 10
44.81763476991062
 20
2.096583321262585
 30
0.0
 10
44.81773073644279
 20
2.081352685078158
 30
0.0
 10
44.81695510827234
 20
2.05702684587105
 30
0.0
 10
44.8138501841106
 20
2.023779543060975
 30
0.0
 10
44.81008058389761
 20
1.996737763726208
 30
0.0
 10
44.8050514518477
 20
1.969716033040121
 30
0.0
 10
44.79874022440634
 20
1.942757243117938
 30
0.0
 10
44.79113765397187
 20
1.915864769800769
 30
0.0
 10
44.7821864594147
 20
1.889188263832281
 30
0.0
 10
44.76837033916445
 20
1.852823070210241
 30
0.0
 10
44.75478078071214
 20
1.826610451601496
 30
0.0
 10
44.74627559949181
 20
1.808493662572288
 30
0.0
 11
44.81763476991062
 21
2.096583321262585
 31
0.0
 11
44.81617650283351
 21
2.050913354418128
 31
0.0
 11
44.81364629503246
 21
2.023801661668017
 31
0.0
 11
44.80988740538953
 21
1.996835289147384
 31
0.0
 11
44.80486969256236
 21
1.969874744702167
 31
0.0
 11
44.79854125969251
 21
1.942827319772561
 31
0.0
 11
44.79095892853576
 21
1.916045928970447
 31
0.0
 11
44.78203205155842
 21
1.88930454237942
 31
0.0
 11
44.77180266242635
 21
1.862838602033662
 31
0.0
 11
44.74627559949181
 21
1.808493662572288
 31
0.0
  0
SPLINE
  5
153
330
2
100
AcDbEntity
  8
GAIKEI
  6
Continuous
 62
     1
100
AcDbSpline
210
0.0
220
0.0
230
1.0
 70
     8
 71
     3
 72
    19
 73
    15
 74
    13
 42
0.0000000001
 43
0.0000000001
 44
0.000001
 12
-0.0912154340821383
 22
0.995831182774072
 32
0.0
 13
-0.7628105112760477
 23
0.646622087379309
 33
0.0
 40
0.0
 40
0.0
 40
0.0
 40
0.0
 40
0.0467890381476132
 40
0.0987195309954746
 40
0.1429451523508886
 40
0.1873884241884096
 40
0.2319948084613284
 40
0.2767107229894731
 40
0.3214864445947492
 40
0.3716404223558689
 40
0.4222145537762471
 40
0.4731010924728824
 40
0.5241952257139959
 40
0.5754007836255317
 40
0.5754007836255317
 40
0.5754007836255317
 40
0.5754007836255317
 10
44.82857594670543
 20
30.21830894493735
 30
0.0
 10
44.82715331923046
 20
30.23384027267048
 30
0.0
 10
44.82311067028348
 20
30.26652281621203
 30
0.0
 10
44.81410819241602
 20
30.31335379361596
 30
0.0
 10
44.80224269797142
 20
30.35872224781505
 30
0.0
 10
44.78842503054884
 20
30.40097203197061
 30
0.0
 10
44.77204756724879
 20
30.44247242070048
 30
0.0
 10
44.75316478368791
 20
30.48301729774086
 30
0.0
 10
44.73098743629194
 20
30.52397569403789
 30
0.0
 10
44.7051327752425
 20
30.56505710389155
 30
0.0
 10
44.67535073614135
 20
30.60593486653875
 30
0.0
 10
44.64268330973754
 20
30.64495635913566
 30
0.0
 10
44.60731441259858
 20
30.68183771975096
 30
0.0
 10
44.58204813052524
 20
30.70478547418183
 30
0.0
 10
44.56902808458835
 20
30.71582235576256
 30
0.0
 11
44.82857594670543
 21
30.21830894493735
 31
0.0
 11
44.82283359069817
 21
30.26474467097387
 31
0.0
 11
44.8130232558035
 21
30.31574008286554
 31
0.0
 11
44.80183652257011
 21
30.3585275024318
 31
0.0
 11
44.78802676661587
 21
30.40077079656783
 31
0.0
 11
44.77165242216642
 21
30.44226309466274
 31
0.0
 11
44.75277192344719
 21
30.48279752610568
 31
0.0
 11
44.73144370468378
 21
30.52216722028567
 31
0.0
 11
44.70474025152003
 21
30.56462128767589
 31
0.0
 11
44.67496666887126
 21
30.6055025339216
 31
0.0
 11
44.64230325079478
 21
30.64452226001993
 31
0.0
 11
44.6069302913479
 21
30.68139176696798
 31
0.0
 11
44.56902808458835
 21
30.71582235576256
 31
0.0
  0
SPLINE
  5
154
330
2
100
AcDbEntity
  8
GAIKEI
  6
Continuous
 62
     1
100
AcDbSpline
210
0.0
220
0.0
230
1.0
 70
     8
 71
     3
 72
    59
 73
    55
 74
     0
 42
0.0000000001
 43
0.0000000001
 40
0.0349945438237978
 40
0.0349945438237978
 40
0.0349945438237978
 40
0.0349945438237978
 40
0.1421083323969185
 40
0.2660578875024012
 40
0.3736716343104173
 40
0.4641651363129852
 40
0.5729806802563652
 40
0.6644289759125779
 40
0.7668179451501672
 40
0.8978485888745707
 40
1.077150255517389
 40
1.300954130308442
 40
1.578693083064459
 40
1.901060028867446
 40
2.228200577322882
 40
2.587102481366617
 40
2.985686782952937
 40
3.412976968399689
 40
3.782224978463207
 40
4.16806053834409
 40
4.57769907473212
 40
5.00216417850695
 40
5.382916273834956
 40
5.772877394409236
 40
6.180441335270956
 40
6.594961553926577
 40
7.02931283558277
 40
7.467179523693534
 40
7.92187462311888
 40
8.375274510883524
 40
8.810045305201219
 40
9.239116053932869
 40
9.673242891533488
 40
10.09758443760665
 40
10.62710224024265
 40
11.1352924621226
 40
11.6359740092462
 40
12.10879480318595
 40
12.50732858316551
 40
12.87948121950628
 40
13.23096746971053
 40
13.55048345776405
 40
13.80806064780194
 40
14.03656835537501
 40
14.23876351157454
 40
14.40848075290273
 40
14.54164476715823
 40
14.64784989521401
 40
14.73663931130097
 40
14.82121640271464
 40
14.91769663157091
 40
15.0401044011609
 40
15.19883933843787
 40
15.39301392549999
 40
15.39301392549999
 40
15.39301392549999
 40
15.39301392549999
 10
44.83163183691118
 20
16.42212738306381
 30
0.0
 10
44.83161607607946
 20
16.42391271903938
 30
0.0
 10
44.83148000680467
 20
16.42776376652182
 30
0.0
 10
44.83101578269287
 20
16.43339162762618
 30
0.0
 10
44.83009027287567
 20
16.43869472077881
 30
0.0
 10
44.82857337552298
 20
16.44358234277251
 30
0.0
 10
44.82611888309373
 20
16.44790840670828
 30
0.0
 10
44.8215919145623
 20
16.45068761897784
 30
0.0
 10
44.81595122034014
 20
16.45044181723193
 30
0.0
 10
44.80955725577871
 20
16.44775713110778
 30
0.0
 10
44.80216336476326
 20
16.44272499122297
 30
0.0
 10
44.79365248519883
 20
16.43519400567942
 30
0.0
 10
44.78420057062066
 20
16.42521336130733
 30
0.0
 10
44.77434388048777
 20
16.4132990305049
 30
0.0
 10
44.76431796829831
 20
16.39980262038858
 30
0.0
 10
44.75419823374375
 20
16.38481664882533
 30
0.0
 10
44.743858583769
 20
16.36798668883153
 30
0.0
 10
44.73417283929791
 20
16.35057399221426
 30
0.0
 10
44.72528994449032
 20
16.33297855155831
 30
0.0
 10
44.71720301222762
 20
16.31532575856386
 30
0.0
 10
44.70948796795641
 20
16.29650758833156
 30
0.0
 10
44.70262668611724
 20
16.27745046185509
 30
0.0
 10
44.69670210123479
 20
16.25842634524474
 30
0.0
 10
44.69167125678388
 20
16.23943701416431
 30
0.0
 10
44.68740847108631
 20
16.21968324445225
 30
0.0
 10
44.68399227380007
 20
16.19901425016189
 30
0.0
 10
44.68161238759637
 20
16.17769057658591
 30
0.0
 10
44.68034940068332
 20
16.1556002028617
 30
0.0
 10
44.68035289154335
 20
16.13315498348697
 30
0.0
 10
44.68162764835329
 20
16.11079796696731
 30
0.0
 10
44.68411020965925
 20
16.08897399841146
 30
0.0
 10
44.68768068457229
 20
16.06762811986129
 30
0.0
 10
44.69231681470097
 20
16.04666621156616
 30
0.0
 10
44.69841773182906
 20
16.02434337200111
 30
0.0
 10
44.70608731386204
 20
16.00119948905109
 30
0.0
 10
44.71547797632092
 20
15.97732877662167
 30
0.0
 10
44.72569694194578
 20
15.95483579972961
 30
0.0
 10
44.73616446542627
 20
15.93449518812412
 30
0.0
 10
44.74645523755305
 20
15.91649882677751
 30
0.0
 10
44.75640071395583
 20
15.90065322736274
 30
0.0
 10
44.76625780835411
 20
15.8863250094455
 30
0.0
 10
44.77560404755888
 20
15.87398182451124
 30
0.0
 10
44.78422712884025
 20
15.86368313865517
 30
0.0
 10
44.79206367944868
 20
15.85529620592297
 30
0.0
 10
44.79939140949852
 20
15.84846643161461
 30
0.0
 10
44.80607291294961
 20
15.8433164052447
 30
0.0
 10
44.81201716372379
 20
15.83991778765482
 30
0.0
 10
44.81727055824319
 20
15.8382025697623
 30
0.0
 10
44.82209609027177
 20
15.83839778320873
 30
0.0
 10
44.82603516324019
 20
15.84095986148941
 30
0.0
 10
44.82868620498595
 20
15.84538845947236
 30
0.0
 10
44.83047002557339
 20
15.85145922122683
 30
0.0
 10
44.83143707086623
 20
15.85934065421543
 30
0.0
 10
44.83169627034476
 20
15.86522634628727
 30
0.0
 10
44.83163183691124
 20
15.8684619479082
 30
0.0
  0
SPLINE
  5
155
330
2
100
AcDbEntity
  8
GAIKEI
  6
Continuous
 62
     1
100
AcDbSpline
210
0.0
220
0.0
230
1.0
 70
     8
 71
     3
 72
    59
 73
    55
 74
    53
 42
0.0000000001
 43
0.0000000001
 44
0.000001
 12
0.0089977794764132
 22
0.9999595191628978
 32
0.0
 13
-0.0199099484095603
 23
0.9998017773310511
 33
0.0
 40
0.0
 40
0.0
 40
0.0
 40
0.0
 40
0.0071046365435678
 40
0.0133021197046978
 40
0.0186828374794995
 40
0.0232075507583481
 40
0.028648383534503
 40
0.0332208135312005
 40
0.0383402093168016
 40
0.0448916697000419
 40
0.0538566994810577
 40
0.0650468629298887
 40
0.078933793167566
 40
0.095052130952689
 40
0.1114091544808202
 40
0.1293542498607449
 40
0.1492834698740802
 40
0.1706479900161457
 40
0.1891104049333079
 40
0.2084022034233687
 40
0.2288841586038415
 40
0.2501074508351508
 40
0.2691450956822456
 40
0.2886431994282632
 40
0.30902145314036
 40
0.3297475279782577
 40
0.3514651643548455
 40
0.3733585751870891
 40
0.3960934107885849
 40
0.4187634841688161
 40
0.4405020959231329
 40
0.4619556989649912
 40
0.4836621002265855
 40
0.5048792278714522
 40
0.5313551695999541
 40
0.5567647186619837
 40
0.5817988231016499
 40
0.6054398798716556
 40
0.6253665774674308
 40
0.6439742128153517
 40
0.661548524561959
 40
0.6775243190967271
 40
0.6904031703393416
 40
0.7018285423540794
 40
0.7119382780790817
 40
0.7204241040762673
 40
0.7270822523453582
 40
0.7323924469401239
 40
0.7368318806871078
 40
0.7410607540037201
 40
0.7458848144140044
 40
0.7520052499215884
 40
0.7599420076096849
 40
0.7696500026631242
 40
0.7696500026631242
 40
0.7696500026631242
 40
0.7696500026631242
 10
44.83163183691124
 20
22.12037759837335
 30
0.0
 10
44.83165314556219
 20
22.12274571468733
 30
0.0
 10
44.83152873841681
 20
22.12718175673433
 30
0.0
 10
44.83101629043301
 20
22.13339087295452
 30
0.0
 10
44.83009089524631
 20
22.13869400003648
 30
0.0
 10
44.8285740539693
 20
22.14358168733502
 30
0.0
 10
44.82611967626263
 20
22.14790783825015
 30
0.0
 10
44.82159285975185
 20
22.15068728639139
 30
0.0
 10
44.81595218285778
 20
22.1504418013337
 30
0.0
 10
44.80955816598916
 20
22.147757355084
 30
0.0
 10
44.80216421591842
 20
22.14272538808993
 30
0.0
 10
44.79365328206435
 20
22.13519450995773
 30
0.0
 10
44.78420132848896
 20
22.12521392740887
 30
0.0
 10
44.77434461627098
 20
22.11329962728949
 30
0.0
 10
44.76431869510503
 20
22.09980322901234
 30
0.0
 10
44.75419896165544
 20
22.08481725595465
 30
0.0
 10
44.74385932152495
 20
22.06798728347691
 30
0.0
 10
44.73417359355974
 20
22.05057456600977
 30
0.0
 10
44.72529071907547
 20
22.03297909793297
 30
0.0
 10
44.71720380908232
 20
22.01532627148208
 30
0.0
 10
44.70948878973212
 20
21.99650806004503
 30
0.0
 10
44.70262753339369
 20
21.97745088699929
 30
0.0
 10
44.69670297286026
 20
21.95842671922921
 30
0.0
 10
44.69167215065922
 20
21.93943733246623
 30
0.0
 10
44.68740938516077
 20
21.919683501066
 30
0.0
 10
44.68399320492631
 20
21.89901443888668
 30
0.0
 10
44.68161333114724
 20
21.87769069273824
 30
0.0
 10
44.68035035094399
 20
21.85560024220984
 30
0.0
 10
44.68035384184529
 20
21.83315494433032
 30
0.0
 10
44.68162859183553
 20
21.81079785024374
 30
0.0
 10
44.68411114033867
 20
21.78897380768455
 30
0.0
 10
44.68768159751414
 20
21.76762785967785
 30
0.0
 10
44.69231770595951
 20
21.7466658867997
 30
0.0
 10
44.69841859635093
 20
21.72434298421801
 30
0.0
 10
44.70608814802022
 20
21.70119904207607
 30
0.0
 10
44.71547877896012
 20
21.67732827539662
 30
0.0
 10
44.72569771635358
 20
21.65483525549817
 30
0.0
 10
44.73616521784186
 20
21.63449461264787
 30
0.0
 10
44.74645597518531
 20
21.61649823149593
 30
0.0
 10
44.75640144412977
 20
21.60065262275211
 30
0.0
 10
44.76625853944859
 20
21.58632440607356
 30
0.0
 10
44.77560478962629
 20
21.57398123484615
 30
0.0
 10
44.78422789250294
 20
21.56368257810649
 30
0.0
 10
44.79206447469613
 20
21.55529569389067
 30
0.0
 10
44.79939224712814
 20
21.54846599843285
 30
0.0
 10
44.80607380133022
 20
21.54331609355796
 30
0.0
 10
44.8120180980328
 20
21.53991765045816
 30
0.0
 10
44.817271521468
 20
21.53820265386615
 30
0.0
 10
44.8220970187759
 20
21.53839813337073
 30
0.0
 10
44.82603596198538
 20
21.54096040545332
 30
0.0
 10
44.82868691069373
 20
21.54538909540351
 30
0.0
 10
44.83047060270047
 20
21.55145991512495
 30
0.0
 10
44.83143790617691
 20
21.5593411083886
 30
0.0
 10
44.83169626547146
 20
21.56522659100527
 30
0.0
 10
44.83163183691124
 20
21.56846194790819
 30
0.0
 11
44.83163183691124
 21
22.12037759837335
 31
0.0
 11
44.83145107078536
 21
22.1274807562919
 31
0.0
 11
44.83089363868612
 21
22.13365311373906
 31
0.0
 11
44.82992012134298
 21
22.138944998375
 31
0.0
 11
44.82852010929895
 21
22.14324762929743
 31
0.0
 11
44.82558697157213
 21
22.14783006617705
 31
0.0
 11
44.82165173664583
 21
22.15015834788278
 31
0.0
 11
44.81653250093643
 21
22.15020532336183
 31
0.0
 11
44.8103962897203
 21
22.14790977649454
 31
0.0
 11
44.80288639774443
 21
22.14301342150327
 31
0.0
 11
44.79442936589594
 21
22.13568545562436
 31
0.0
 11
44.78482073131732
 21
22.12565941544562
 31
0.0
 11
44.77450462632311
 21
22.11327478330566
 31
0.0
 11
44.76472920473151
 21
22.10016015462156
 31
0.0
 11
44.75467098926924
 21
22.08529883761423
 31
0.0
 11
44.74422884846837
 21
22.06832428905398
 31
0.0
 11
44.73383801223469
 21
22.04965686410128
 31
0.0
 11
44.72551736189956
 21
22.0331757542379
 31
0.0
 11
44.71748410259204
 21
22.01563610197656
 31
0.0
 11
44.70971774786221
 21
21.99668371428265
 31
0.0
 11
44.70253431521996
 21
21.97671311655688
 31
0.0
 11
44.69687700795446
 21
21.95853551524573
 31
0.0
 11
44.6918898794878
 21
21.93968604202712
 31
0.0
 11
44.68759414221375
 21
21.91976576506016
 31
0.0
 11
44.68422212906506
 21
21.89931590156209
 31
0.0
 11
44.68181301839189
 21
21.87773237520082
 31
0.0
 11
44.68057038248196
 21
21.85587433843494
 31
0.0
 11
44.68056837896154
 21
21.8331395877957
 31
0.0
 11
44.6818617826679
 21
21.81050652428417
 31
0.0
 11
44.68431043443621
 21
21.78890633797357
 31
0.0
 11
44.68784800446684
 21
21.76774647694691
 31
0.0
 11
44.69252647962242
 21
21.74655032134376
 31
0.0
 11
44.69811589024897
 21
21.72608271899946
 31
0.0
 11
44.70643110086984
 21
21.70094649241696
 31
0.0
 11
44.7157266640018
 21
21.67729832845987
 31
0.0
 11
44.72607764088485
 21
21.65450442060546
 31
0.0
 11
44.73689702288658
 21
21.63348443752818
 31
0.0
 11
44.74679451148381
 21
21.61618956441805
 31
0.0
 11
44.75669610755
 21
21.60043512535265
 31
0.0
 11
44.76667324251929
 21
21.58596746350202
 31
0.0
 11
44.77634043800924
 21
21.5732485206961
 31
0.0
 11
44.78463130321046
 21
21.56339323848397
 31
0.0
 11
44.7924624705966
 21
21.5550738476112
 31
0.0
 11
44.79990034009563
 21
21.54822656174053
 31
0.0
 11
44.80668022294901
 21
21.5431233200527
 31
0.0
 11
44.81251834454349
 21
21.53992206877587
 31
0.0
 11
44.81762171906382
 21
21.53845427242766
 31
0.0
 11
44.82204765433436
 21
21.53880070470723
 31
0.0
 11
44.82562978555279
 21
21.54104826751427
 31
0.0
 11
44.82828904873923
 21
21.54507311295743
 31
0.0
 11
44.8301550617233
 21
21.55090210261136
 31
0.0
 11
44.83127211400386
 21
21.55875984630404
 31
0.0
 11
44.83163183691124
 21
21.56846194790819
 31
0.0
  0
SPLINE
  5
156
330
2
100
AcDbEntity
  8
GAIKEI
  6
Continuous
 62
     1
100
AcDbSpline
210
0.0
220
0.0
230
1.0
 70
     8
 71
     3
 72
    28
 73
    24
 74
    22
 42
0.0000000001
 43
0.0000000001
 44
0.000001
 12
0.9487589978366965
 22
-0.3160005759866704
 32
0.0
 13
0.0000054313803437
 23
-0.9999999999852501
 33
0.0
 40
0.0
 40
0.0
 40
0.0
 40
0.0
 40
0.0250363978119375
 40
0.0492743128618559
 40
0.0728614350637536
 40
0.0956093481586832
 40
0.1179746860340971
 40
0.1394496267202395
 40
0.1601754566906428
 40
0.1800039393190089
 40
0.1965316207031554
 40
0.2124004227282538
 40
0.2277014845916788
 40
0.2423732225697875
 40
0.2566537090712524
 40
0.2703439991034581
 40
0.2835481095936195
 40
0.2962417674944317
 40
0.3185295474440469
 40
0.3397575339669954
 40
0.3518752639972074
 40
0.3638915827049836
 40
0.3643443720623475
 40
0.3643443720623475
 40
0.3643443720623475
 40
0.3643443720623475
 10
44.56902808458778
 20
30.37389691773114
 30
0.0
 10
44.57694592048696
 20
30.37125974568808
 30
0.0
 10
44.59245733120482
 20
30.36585171424247
 30
0.0
 10
44.6151741676482
 20
30.35725227747902
 30
0.0
 10
44.63692716981188
 20
30.34828740005433
 30
0.0
 10
44.65782560069527
 20
30.33891481742472
 30
0.0
 10
44.67776913764391
 20
30.32916189837728
 30
0.0
 10
44.69675511328069
 20
30.31901565821514
 30
0.0
 10
44.71460217102029
 20
30.30856437877037
 30
0.0
 10
44.73060626731279
 20
30.29826149388562
 30
0.0
 10
44.74482827278672
 20
30.28821389252869
 30
0.0
 10
44.75741181292323
 20
30.27848728774704
 30
0.0
 10
44.76905819301234
 20
30.26858579321291
 30
0.0
 10
44.77980602517769
 20
30.25847257950342
 30
0.0
 10
44.78961200654242
 20
30.24817154488849
 30
0.0
 10
44.79846766745635
 20
30.23767435320789
 30
0.0
 10
44.80630744837855
 20
30.22704611640336
 30
0.0
 10
44.81491326472164
 20
30.21347106030079
 30
0.0
 10
44.8232368942339
 20
30.19660516463711
 30
0.0
 10
44.82873272005417
 20
30.17879601661987
 30
0.0
 10
44.83115762689908
 20
30.16384772731246
 30
0.0
 10
44.83162662871907
 20
30.1556472153722
 30
0.0
 10
44.83163183609147
 20
30.1514908992465
 30
0.0
 10
44.83163183691124
 20
30.15133996946071
 30
0.0
 11
44.56902808458778
 21
30.37389691773114
 31
0.0
 11
44.59266932939482
 21
30.36565892005445
 31
0.0
 11
44.61533250500354
 21
30.35706493687104
 31
0.0
 11
44.6371363701345
 21
30.34806807697737
 31
0.0
 11
44.65788717857299
 21
30.33874760460083
 31
0.0
 11
44.67797263680705
 21
30.32890980038076
 31
0.0
 11
44.69690518238434
 21
30.31877414735999
 31
0.0
 11
44.71478152806071
 21
30.30828625289172
 31
0.0
 11
44.73144370468378
 21
30.29753729015096
 31
0.0
 11
44.74493504288756
 21
30.28799015847039
 31
0.0
 11
44.75748176728274
 21
30.27827428295058
 31
0.0
 11
44.76912975345647
 21
30.26835226031869
 31
0.0
 11
44.77980410610024
 21
30.25828659191882
 31
0.0
 11
44.78963829213336
 21
30.2479318528666
 31
0.0
 11
44.79845257701533
 21
30.23745655220324
 31
0.0
 11
44.80627680277035
 21
30.22682031808518
 31
0.0
 11
44.81305836530856
 21
30.21609004500459
 31
0.0
 11
44.82283029993403
 21
30.19605876573559
 31
0.0
 11
44.82901938686398
 21
30.17575310222429
 31
0.0
 11
44.83095318994304
 21
30.16379071639284
 31
0.0
 11
44.83163093869381
 21
30.15179302972069
 31
0.0
 11
44.83163183691124
 21
30.15133996946071
 31
0.0
  0
SPLINE
  5
157
330
2
100
AcDbEntity
  8
GAIKEI
  6
Continuous
 62
     1
100
AcDbSpline
210
0.0
220
0.0
230
1.0
 70
     8
 71
     3
 72
    59
 73
    55
 74
    53
 42
0.0000000001
 43
0.0000000001
 44
0.000001
 12
0.0089977794764248
 22
0.9999595191628976
 32
0.0
 13
-0.0199099484093985
 23
0.9998017773310543
 33
0.0
 40
0.0
 40
0.0
 40
0.0
 40
0.0
 40
0.0071046365436246
 40
0.0133021197047476
 40
0.0186828374795563
 40
0.0232075507583981
 40
0.028648383534553
 40
0.0332208135312287
 40
0.0383402093168304
 40
0.0448916697000707
 40
0.0538566994810943
 40
0.0650468629299207
 40
0.078933793167639
 40
0.0950521309527183
 40
0.1114091544808438
 40
0.1293542498608214
 40
0.1492834698740539
 40
0.1706479900162312
 40
0.1891104049333426
 40
0.2084022034233905
 40
0.2288841586038698
 40
0.2501074508352326
 40
0.2691450956822663
 40
0.2886431994283458
 40
0.30902145314038
 40
0.3297475279782847
 40
0.3514651643548796
 40
0.3733585751871199
 40
0.3960934107886655
 40
0.418763484168847
 40
0.4405020959232062
 40
0.4619556989650225
 40
0.4836621002266029
 40
0.5048792278715381
 40
0.5313551695999792
 40
0.5567647186620553
 40
0.5817988231016309
 40
0.6054398798716872
 40
0.6253665774674562
 40
0.6439742128153771
 40
0.6615485245619785
 40
0.677524319096758
 40
0.690403170339367
 40
0.7018285423540995
 40
0.7119382780791068
 40
0.7204241040763222
 40
0.7270822523453927
 40
0.7323924469401544
 40
0.7368318806871417
 40
0.7410607540037237
 40
0.7458848144140453
 40
0.7520052499216119
 40
0.7599420076097165
 40
0.7696500026631536
 40
0.7696500026631536
 40
0.7696500026631536
 40
0.7696500026631536
 10
44.83163183691124
 20
3.578067473232351
 30
0.0
 10
44.83165314556219
 20
3.580435589546347
 30
0.0
 10
44.83152873841677
 20
3.584871631593351
 30
0.0
 10
44.83101629043306
 20
3.591080747813592
 30
0.0
 10
44.83009089524637
 20
3.596383874895536
 30
0.0
 10
44.82857405396925
 20
3.601271562194057
 30
0.0
 10
44.82611967626275
 20
3.605597713109204
 30
0.0
 10
44.82159285975185
 20
3.608377161250395
 30
0.0
 10
44.81595218285781
 20
3.608131676192783
 30
0.0
 10
44.80955816598918
 20
3.605447229943031
 30
0.0
 10
44.80216421591845
 20
3.600415262948985
 30
0.0
 10
44.79365328206429
 20
3.592884384816784
 30
0.0
 10
44.78420132848913
 20
3.582903802267892
 30
0.0
 10
44.7743446162709
 20
3.570989502148549
 30
0.0
 10
44.76431869510494
 20
3.557493103871379
 30
0.0
 10
44.75419896165553
 20
3.542507130813689
 30
0.0
 10
44.74385932152486
 20
3.52567715833598
 30
0.0
 10
44.73417359355983
 20
3.508264440868799
 30
0.0
 10
44.72529071907544
 20
3.490668972792001
 30
0.0
 10
44.71720380908237
 20
3.473016146341166
 30
0.0
 10
44.70948878973206
 20
3.45419793490408
 30
0.0
 10
44.70262753339375
 20
3.435140761858313
 30
0.0
 10
44.69670297286015
 20
3.416116594088236
 30
0.0
 10
44.69167215065929
 20
3.397127207325254
 30
0.0
 10
44.68740938516066
 20
3.377373375925031
 30
0.0
 10
44.68399320492642
 20
3.356704313745744
 30
0.0
 10
44.68161333114721
 20
3.335380567597304
 30
0.0
 10
44.68035035094411
 20
3.313290117068873
 30
0.0
 10
44.68035384184526
 20
3.290844819189359
 30
0.0
 10
44.68162859183553
 20
3.268487725102772
 30
0.0
 10
44.68411114033867
 20
3.246663682543584
 30
0.0
 10
44.68768159751411
 20
3.225317734536886
 30
0.0
 10
44.69231770595953
 20
3.204355761658732
 30
0.0
 10
44.69841859635081
 20
3.18203285907704
 30
0.0
 10
44.70608814802036
 20
3.158888916935133
 30
0.0
 10
44.71547877896009
 20
3.135018150255639
 30
0.0
 10
44.72569771635369
 20
3.112525130357262
 30
0.0
 10
44.7361652178418
 20
3.092184487506912
 30
0.0
 10
44.74645597518531
 20
3.074188106354966
 30
0.0
 10
44.75640144412977
 20
3.058342497611178
 30
0.0
 10
44.76625853944859
 20
3.044014280932607
 30
0.0
 10
44.77560478962627
 20
3.031671109705179
 30
0.0
 10
44.78422789250294
 20
3.021372452965557
 30
0.0
 10
44.79206447469613
 20
3.012985568749741
 30
0.0
 10
44.79939224712814
 20
3.006155873291916
 30
0.0
 10
44.80607380133017
 20
3.001005968416919
 30
0.0
 10
44.81201809803292
 20
2.997607525317235
 30
0.0
 10
44.817271521468
 20
2.995892528725192
 30
0.0
 10
44.82209701877581
 20
2.996088008229854
 30
0.0
 10
44.82603596198543
 20
2.998650280312389
 30
0.0
 10
44.82868691069384
 20
3.003078970262535
 30
0.0
 10
44.83047060270036
 20
3.009149789984029
 30
0.0
 10
44.831437906177
 20
3.017030983247622
 30
0.0
 10
44.83169626547146
 20
3.022916465864334
 30
0.0
 10
44.83163183691124
 20
3.026151822767246
 30
0.0
 11
44.83163183691124
 21
3.578067473232351
 31
0.0
 11
44.83145107078536
 21
3.585170631150958
 31
0.0
 11
44.83089363868612
 21
3.591342988598114
 31
0.0
 11
44.82992012134298
 21
3.596634873234052
 31
0.0
 11
44.82852010929895
 21
3.60093750415649
 31
0.0
 11
44.82558697157213
 21
3.605519941036106
 31
0.0
 11
44.82165173664583
 21
3.607848222741779
 31
0.0
 11
44.81653250093643
 21
3.607895198220887
 31
0.0
 11
44.8103962897203
 21
3.6055996513536
 31
0.0
 11
44.80288639774443
 21
3.600703296362326
 31
0.0
 11
44.79442936589594
 21
3.593375330483411
 31
0.0
 11
44.78482073131732
 21
3.583349290304624
 31
0.0
 11
44.77450462632311
 21
3.570964658164712
 31
0.0
 11
44.76472920473151
 21
3.557850029480619
 31
0.0
 11
44.75467098926924
 21
3.542988712473231
 31
0.0
 11
44.74422884846837
 21
3.526014163913089
 31
0.0
 11
44.73383801223469
 21
3.507346738960279
 31
0.0
 11
44.72551736189956
 21
3.490865629096958
 31
0.0
 11
44.71748410259204
 21
3.47332597683561
 31
0.0
 11
44.70971774786221
 21
3.454373589141709
 31
0.0
 11
44.70253431521996
 21
3.434402991415879
 31
0.0
 11
44.69687700795446
 21
3.416225390104784
 31
0.0
 11
44.6918898794878
 21
3.397375916886119
 31
0.0
 11
44.68759414221375
 21
3.377455639919219
 31
0.0
 11
44.68422212906506
 21
3.357005776421146
 31
0.0
 11
44.68181301839189
 21
3.335422250059878
 31
0.0
 11
44.68057038248201
 21
3.313564213294
 31
0.0
 11
44.68056837896154
 21
3.290829462654699
 31
0.0
 11
44.6818617826679
 21
3.268196399143221
 31
0.0
 11
44.68431043443621
 21
3.246596212832571
 31
0.0
 11
44.68784800446684
 21
3.225436351805967
 31
0.0
 11
44.69252647962242
 21
3.204240196202817
 31
0.0
 11
44.69811589024897
 21
3.183772593858464
 31
0.0
 11
44.70643110086984
 21
3.158636367276017
 31
0.0
 11
44.7157266640018
 21
3.134988203318869
 31
0.0
 11
44.72607764088485
 21
3.112194295464576
 31
0.0
 11
44.73689702288658
 21
3.091174312387238
 31
0.0
 11
44.74679451148381
 21
3.073879439277106
 31
0.0
 11
44.75669610755
 21
3.058125000211703
 31
0.0
 11
44.76667324251929
 21
3.043657338361072
 31
0.0
 11
44.77634043800924
 21
3.030938395555153
 31
0.0
 11
44.78463130321046
 21
3.021083113343024
 31
0.0
 11
44.7924624705966
 21
3.012763722470253
 31
0.0
 11
44.79990034009563
 21
3.005916436599591
 31
0.0
 11
44.80668022294901
 21
3.0008131949117
 31
0.0
 11
44.81251834454349
 21
2.997611943634922
 31
0.0
 11
44.81762171906382
 21
2.996144147286713
 31
0.0
 11
44.82204765433436
 21
2.996490579566341
 31
0.0
 11
44.82562978555279
 21
2.998738142373326
 31
0.0
 11
44.82828904873929
 21
3.002762987816481
 31
0.0
 11
44.8301550617233
 21
3.008591977470416
 31
0.0
 11
44.83127211400392
 21
3.016449721163098
 31
0.0
 11
44.83163183691124
 21
3.026151822767246
 31
0.0
  0
SPLINE
  5
158
330
2
100
AcDbEntity
  8
GAIKEI
  6
Continuous
 62
     1
100
AcDbSpline
210
0.0
220
0.0
230
1.0
 70
     8
 71
     3
 72
    59
 73
    55
 74
    53
 42
0.0000000001
 43
0.0000000001
 44
0.000001
 12
0.0089977794764152
 22
0.9999595191628978
 32
0.0
 13
-0.0199099484093854
 23
0.9998017773310547
 33
0.0
 40
0.0
 40
0.0
 40
0.0
 40
0.0
 40
0.0071046365436246
 40
0.0133021197047546
 40
0.0186828374795563
 40
0.023207550758405
 40
0.0286483835345599
 40
0.0332208135312284
 40
0.03834020931683
 40
0.0448916697000703
 40
0.0538566994810862
 40
0.0650468629299171
 40
0.0789337931676355
 40
0.0950521309527147
 40
0.111409154480846
 40
0.1293542498608177
 40
0.1492834698740562
 40
0.1706479900162211
 40
0.1891104049333325
 40
0.2084022034233933
 40
0.2288841586038661
 40
0.2501074508352288
 40
0.2691450956822694
 40
0.288643199428342
 40
0.3090214531403832
 40
0.3297475279782809
 40
0.3514651643548687
 40
0.3733585751871123
 40
0.396093410788665
 40
0.4187634841688394
 40
0.4405020959232127
 40
0.461955698965015
 40
0.4836621002266093
 40
0.5048792278715308
 40
0.5313551695999787
 40
0.5567647186620614
 40
0.5817988231016758
 40
0.6054398798716815
 40
0.625366577467506
 40
0.6439742128153788
 40
0.661548524561986
 40
0.6775243190967542
 40
0.6904031703393687
 40
0.7018285423541064
 40
0.7119382780791089
 40
0.7204241040763286
 40
0.7270822523453921
 40
0.7323924469401421
 40
0.7368318806871216
 40
0.7410607540037339
 40
0.7458848144140494
 40
0.7520052499216162
 40
0.7599420076097207
 40
0.7696500026631578
 40
0.7696500026631578
 40
0.7696500026631578
 40
0.7696500026631578
 10
44.83163183691124
 20
11.0453775983733
 30
0.0
 10
44.83165314556219
 20
11.04774571468731
 30
0.0
 10
44.83152873841677
 20
11.05218175673431
 30
0.0
 10
44.83101629043301
 20
11.05839087295453
 30
0.0
 10
44.83009089524634
 20
11.0636940000365
 30
0.0
 10
44.8285740539693
 20
11.06858168733499
 30
0.0
 10
44.82611967626275
 20
11.07290783825021
 30
0.0
 10
44.82159285975177
 20
11.0756872863913
 30
0.0
 10
44.81595218285781
 20
11.07544180133376
 30
0.0
 10
44.80955816598907
 20
11.07275735508396
 30
0.0
 10
44.80216421591845
 20
11.06772538808995
 30
0.0
 10
44.79365328206421
 20
11.06019450995772
 30
0.0
 10
44.78420132848905
 20
11.05021392740882
 30
0.0
 10
44.77434461627086
 20
11.03829962728949
 30
0.0
 10
44.76431869510503
 20
11.02480322901235
 30
0.0
 10
44.75419896165559
 20
11.00981725595464
 30
0.0
 10
44.74385932152483
 20
10.99298728347692
 30
0.0
 10
44.73417359355986
 20
10.97557456600977
 30
0.0
 10
44.72529071907544
 20
10.95797909793295
 30
0.0
 10
44.7172038090824
 20
10.94032627148212
 30
0.0
 10
44.70948878973198
 20
10.92150806004503
 30
0.0
 10
44.70262753339381
 20
10.90245088699927
 30
0.0
 10
44.69670297286015
 20
10.88342671922918
 30
0.0
 10
44.69167215065925
 20
10.86443733246622
 30
0.0
 10
44.68740938516069
 20
10.84468350106599
 30
0.0
 10
44.68399320492639
 20
10.82401443888669
 30
0.0
 10
44.68161333114716
 20
10.80269069273825
 30
0.0
 10
44.68035035094405
 20
10.78060024220985
 30
0.0
 10
44.6803538418452
 20
10.7581549443303
 30
0.0
 10
44.68162859183562
 20
10.73579785024371
 30
0.0
 10
44.68411114033858
 20
10.71397380768454
 30
0.0
 10
44.68768159751414
 20
10.69262785967783
 30
0.0
 10
44.69231770595948
 20
10.6716658867997
 30
0.0
 10
44.69841859635088
 20
10.64934298421798
 30
0.0
 10
44.70608814802034
 20
10.62619904207606
 30
0.0
 10
44.71547877896006
 20
10.60232827539659
 30
0.0
 10
44.72569771635369
 20
10.57983525549818
 30
0.0
 10
44.73616521784182
 20
10.55949461264787
 30
0.0
 10
44.74645597518531
 20
10.54149823149589
 30
0.0
 10
44.75640144412984
 20
10.52565262275209
 30
0.0
 10
44.76625853944855
 20
10.51132440607358
 30
0.0
 10
44.77560478962636
 20
10.49898123484612
 30
0.0
 10
44.78422789250294
 20
10.4886825781065
 30
0.0
 10
44.79206447469613
 20
10.48029569389068
 30
0.0
 10
44.79939224712819
 20
10.47346599843288
 30
0.0
 10
44.80607380133017
 20
10.46831609355787
 30
0.0
 10
44.81201809803289
 20
10.46491765045817
 30
0.0
 10
44.81727152146791
 20
10.46320265386623
 30
0.0
 10
44.8220970187759
 20
10.46339813337073
 30
0.0
 10
44.82603596198535
 20
10.46596040545334
 30
0.0
 10
44.82868691069387
 20
10.4703890954035
 30
0.0
 10
44.83047060270036
 20
10.47645991512499
 30
0.0
 10
44.831437906177
 20
10.48434110838856
 30
0.0
 10
44.83169626547146
 20
10.49022659100528
 30
0.0
 10
44.83163183691124
 20
10.4934619479082
 30
0.0
 11
44.83163183691124
 21
11.0453775983733
 31
0.0
 11
44.83145107078536
 21
11.05248075629191
 31
0.0
 11
44.83089363868612
 21
11.05865311373907
 31
0.0
 11
44.82992012134298
 21
11.06394499837501
 31
0.0
 11
44.82852010929895
 21
11.06824762929744
 31
0.0
 11
44.82558697157213
 21
11.07283006617706
 31
0.0
 11
44.82165173664583
 21
11.07515834788273
 31
0.0
 11
44.81653250093643
 21
11.07520532336184
 31
0.0
 11
44.8103962897203
 21
11.07290977649455
 31
0.0
 11
44.80288639774443
 21
11.06801342150328
 31
0.0
 11
44.79442936589594
 21
11.06068545562436
 31
0.0
 11
44.78482073131732
 21
11.05065941544558
 31
0.0
 11
44.77450462632311
 21
11.03827478330567
 31
0.0
 11
44.76472920473151
 21
11.02516015462157
 31
0.0
 11
44.75467098926924
 21
11.01029883761418
 31
0.0
 11
44.74422884846837
 21
10.99332428905404
 31
0.0
 11
44.73383801223469
 21
10.97465686410123
 31
0.0
 11
44.72551736189956
 21
10.95817575423791
 31
0.0
 11
44.71748410259204
 21
10.94063610197656
 31
0.0
 11
44.70971774786221
 21
10.92168371428266
 31
0.0
 11
44.70253431521996
 21
10.90171311655683
 31
0.0
 11
44.69687700795446
 21
10.88353551524574
 31
0.0
 11
44.6918898794878
 21
10.86468604202707
 31
0.0
 11
44.68759414221375
 21
10.84476576506017
 31
0.0
 11
44.68422212906506
 21
10.8243159015621
 31
0.0
 11
44.68181301839189
 21
10.80273237520083
 31
0.0
 11
44.68057038248196
 21
10.78087433843495
 31
0.0
 11
44.68056837896154
 21
10.75813958779565
 31
0.0
 11
44.6818617826679
 21
10.73550652428417
 31
0.0
 11
44.68431043443621
 21
10.71390633797352
 31
0.0
 11
44.68784800446684
 21
10.69274647694692
 31
0.0
 11
44.69252647962242
 21
10.67155032134377
 31
0.0
 11
44.69811589024897
 21
10.65108271899942
 31
0.0
 11
44.70643110086984
 21
10.62594649241697
 31
0.0
 11
44.7157266640018
 21
10.60229832845982
 31
0.0
 11
44.72607764088485
 21
10.57950442060547
 31
0.0
 11
44.73689702288658
 21
10.55848443752819
 31
0.0
 11
44.74679451148381
 21
10.541189564418
 31
0.0
 11
44.75669610755
 21
10.52543512535266
 31
0.0
 11
44.76667324251929
 21
10.51096746350203
 31
0.0
 11
44.77634043800924
 21
10.49824852069611
 31
0.0
 11
44.78463130321046
 21
10.48839323848398
 31
0.0
 11
44.7924624705966
 21
10.48007384761121
 31
0.0
 11
44.79990034009563
 21
10.47322656174054
 31
0.0
 11
44.80668022294901
 21
10.46812332005265
 31
0.0
 11
44.81251834454349
 21
10.46492206877587
 31
0.0
 11
44.81762171906382
 21
10.46345427242772
 31
0.0
 11
44.82204765433436
 21
10.46380070470724
 31
0.0
 11
44.82562978555279
 21
10.46604826751428
 31
0.0
 11
44.82828904873929
 21
10.47007311295743
 31
0.0
 11
44.8301550617233
 21
10.47590210261137
 31
0.0
 11
44.83127211400392
 21
10.48375984630405
 31
0.0
 11
44.83163183691124
 21
10.4934619479082
 31
0.0
  0
SPLINE
  5
159
330
2
100
AcDbEntity
  8
GAIKEI
  6
Continuous
 62
     1
100
AcDbSpline
210
0.0
220
0.0
230
1.0
 70
     8
 71
     3
 72
     9
 73
     5
 74
     3
 42
0.0000000001
 43
0.0000000001
 44
0.000001
 12
0.0052933080883382
 22
0.9999859903466058
 32
0.0
 13
0.5270313734190872
 23
0.8498458280370568
 33
0.0
 40
0.0
 40
0.0
 40
0.0
 40
0.0
 40
0.0139639987875651
 40
0.0279279975751697
 40
0.0279279975751697
 40
0.0279279975751697
 40
0.0279279975751697
 10
40.4416318369112
 20
33.8527207717325
 30
0.0
 10
40.44165647549377
 20
33.85737537278476
 30
0.0
 10
40.4429240649834
 20
33.8667373698474
 30
0.0
 10
40.44682647263004
 20
33.87534114731274
 30
0.0
 10
40.44927962778319
 20
33.87929689601686
 30
0.0
 11
40.4416318369112
 21
33.8527207717325
 31
0.0
 11
40.44358180852202
 21
33.86654809149445
 31
0.0
 11
40.44927962778319
 21
33.87929689601686
 31
0.0
  0
SPLINE
  5
15A
330
2
100
AcDbEntity
  8
GAIKEI
  6
Continuous
 62
     1
100
AcDbSpline
210
0.0
220
0.0
230
1.0
 70
     8
 71
     3
 72
     9
 73
     5
 74
     3
 42
0.0000000001
 43
0.0000000001
 44
0.000001
 12
0.0052933080883875
 22
-0.9999859903466054
 32
0.0
 13
0.5270313734190337
 23
-0.8498458280370901
 33
0.0
 40
0.0
 40
0.0
 40
0.0
 40
0.0
 40
0.0139639987875722
 40
0.0279279975751703
 40
0.0279279975751703
 40
0.0279279975751703
 40
0.0279279975751703
 10
40.4416318369112
 20
-1.548501475732905
 30
0.0
 10
40.44165647549377
 20
-1.553156076785171
 30
0.0
 10
40.44292406498328
 20
-1.56251807384779
 30
0.0
 10
40.44682647263004
 20
-1.571121851313151
 30
0.0
 10
40.44927962778319
 20
-1.575077600017266
 30
0.0
 11
40.4416318369112
 21
-1.548501475732905
 31
0.0
 11
40.44358180852202
 21
-1.562328795494863
 31
0.0
 11
40.44927962778319
 21
-1.575077600017266
 31
0.0
  0
SPLINE
  5
15B
330
2
100
AcDbEntity
  8
GAIKEI
  6
Continuous
 62
     1
100
AcDbSpline
210
0.0
220
0.0
230
1.0
 70
     8
 71
     3
 72
    18
 73
    14
 74
    12
 42
0.0000000001
 43
0.0000000001
 44
0.000001
 12
-0.9974326142388006
 22
0.0716113123239069
 32
0.0
 13
-0.9998995674987709
 23
0.0141723292288498
 33
0.0
 40
0.0
 40
0.0
 40
0.0
 40
0.0
 40
0.0030194903368492
 40
0.0093326477798688
 40
0.0197551294145397
 40
0.0339541950662335
 40
0.0519723480691575
 40
0.0737685187587457
 40
0.0995369569738442
 40
0.1291137252950859
 40
0.1510865399618099
 40
0.1747062822794232
 40
0.1996259723085328
 40
0.1996259723085328
 40
0.1996259723085328
 40
0.1996259723085328
 10
42.74660732986592
 20
-0.6723727656672623
 30
0.0
 10
42.74560341715246
 20
-0.6723006891120705
 30
0.0
 10
42.74249858199368
 20
-0.6720999734381508
 30
0.0
 10
42.73591404067298
 20
-0.67194737660639
 30
0.0
 10
42.72560616278044
 20
-0.6716967772989122
 30
0.0
 10
42.7113946490345
 20
-0.6714526250936786
 30
0.0
 10
42.69339246970474
 20
-0.6711741361607082
 30
0.0
 10
42.67153344259386
 20
-0.6708817026374661
 30
0.0
 10
42.64582154974379
 20
-0.6705702775185785
 30
0.0
 10
42.62005043793164
 20
-0.6702855455623294
 30
0.0
 10
42.59499532331097
 20
-0.6700278890467147
 30
0.0
 10
42.57149264602782
 20
-0.6697700805448648
 30
0.0
 10
42.55531422115547
 20
-0.6695570282682866
 30
0.0
 10
42.54700849206137
 20
-0.6694393049178303
 30
0.0
 11
42.74660732986592
 21
-0.6723727656672623
 31
0.0
 11
42.74359365643107
 21
-0.6721852715964474
 31
0.0
 11
42.73728387858489
 21
-0.671979220537537
 31
0.0
 11
42.72686417304737
 21
-0.6717388478951421
 31
0.0
 11
42.71266748601187
 21
-0.6714790587801645
 31
0.0
 11
42.6946514904767
 21
-0.6712002969708806
 31
0.0
 11
42.67285732569456
 21
-0.6709046279961513
 31
0.0
 11
42.64709079729408
 21
-0.6705909035216564
 31
0.0
 11
42.61751584785332
 21
-0.670262868011605
 31
0.0
 11
42.5955442451305
 21
-0.6700321128371911
 31
0.0
 11
42.5719259873536
 21
-0.6697674070542803
 31
0.0
 11
42.54700849206137
 21
-0.6694393049178303
 31
0.0
  0
SPLINE
  5
15C
330
2
100
AcDbEntity
  8
GAIKEI
  6
Continuous
 62
     7
100
AcDbSpline
210
0.0
220
0.0
230
1.0
 70
     8
 71
     3
 72
    25
 73
    21
 74
    19
 42
0.0000000001
 43
0.0000000001
 44
0.000001
 12
-0.6451586320068095
 22
-0.764048649987095
 32
0.0
 13
-0.6425976094944907
 23
-0.7662038320655713
 33
0.0
 40
0.0
 40
0.0
 40
0.0
 40
0.0
 40
0.1346775211142815
 40
0.2689615854355115
 40
0.4028938603756683
 40
0.5365171031036788
 40
0.6698748802144531
 40
0.8030107075722039
 40
0.9596952600508295
 40
1.11619837675817
 40
1.272586262931826
 40
1.428923207316386
 40
1.605307533803209
 40
1.781795357924578
 40
1.958471045709827
 40
2.135417707816523
 40
2.274690598981896
 40
2.414220734252835
 40
2.554047619677736
 40
2.694210893736128
 40
2.694210893736128
 40
2.694210893736128
 40
2.694210893736128
 10
44.47721124468194
 20
1.392516445535932
 30
0.0
 10
44.44824845625388
 20
1.358216386138941
 30
0.0
 10
44.39042738078933
 20
1.289699680288137
 30
0.0
 10
44.30386286363702
 20
1.187022874870727
 30
0.0
 10
44.21759105374852
 20
1.084558978964395
 30
0.0
 10
44.1315900075947
 20
0.9822707827996239
 30
0.0
 10
44.04582764026892
 20
0.8801288002062079
 30
0.0
 10
43.95519177545156
 20
0.7720413689354686
 30
0.0
 10
43.85967035023935
 20
0.6579821225708287
 30
0.0
 10
43.75923535651174
 20
0.5379281888791497
 30
0.0
 10
43.65891488271779
 20
0.4179295338324707
 30
0.0
 10
43.55437275132636
 20
0.2928223558740228
 30
0.0
 10
43.44553879133451
 20
0.1625702821415729
 30
0.0
 10
43.33234134327049
 20
0.0271294561316751
 30
0.0
 10
43.21899006515567
 20
-0.1084270898656641
 30
0.0
 10
43.11355518315031
 20
-0.2344328654029226
 30
0.0
 10
43.01603099043961
 20
-0.3509132260583598
 30
0.0
 10
42.92642142500969
 20
-0.4578826606073747
 30
0.0
 10
42.83659479560703
 20
-0.5650574244284315
 30
0.0
 10
42.7766302141164
 20
-0.6365748904740443
 30
0.0
 10
42.74660735250011
 20
-0.6723727697068398
 30
0.0
 11
44.47721124468194
 21
1.392516445535932
 31
0.0
 11
44.39035025813359
 21
1.289593145454944
 31
0.0
 11
44.30379758399721
 21
1.186924530353792
 31
0.0
 11
44.21753596054725
 21
1.084470702537828
 31
0.0
 11
44.13154362896086
 21
0.9821941641613989
 31
0.0
 11
44.04579026131694
 21
0.8800635751570098
 31
0.0
 11
43.96024446611733
 21
0.7780485449389403
 31
0.0
 11
43.85964122191779
 21
0.6579276071705067
 31
0.0
 11
43.75921647189
 21
0.5378934644388096
 31
0.0
 11
43.65890936760268
 21
0.4179119806011613
 31
0.0
 11
43.55865906062478
 21
0.2979490195148173
 31
0.0
 11
43.44555893408596
 21
0.1625983992091733
 31
0.0
 11
43.33237667125468
 21
0.0271815364309873
 31
0.0
 11
43.21904140716742
 21
-0.1083522828849937
 31
0.0
 11
43.10548955424377
 21
-0.2440582064916157
 31
0.0
 11
43.01608206656459
 21
-0.3508441572074616
 31
0.0
 11
42.92648131327325
 21
-0.457803792584457
 31
0.0
 11
42.83666414771374
 21
-0.5649692470154833
 31
0.0
 11
42.74660735250011
 21
-0.6723727697068398
 31
0.0
  0
SPLINE
  5
15D
330
2
100
AcDbEntity
  8
GAIKEI
  6
Continuous
 62
     1
100
AcDbSpline
210
0.0
220
0.0
230
1.0
 70
     8
 71
     3
 72
    13
 73
     9
 74
     7
 42
0.0000000001
 43
0.0000000001
 44
0.000001
 12
0.7637990337596269
 22
0.6454541316219614
 32
0.0
 13
0.7678688356383296
 23
0.640607095851612
 33
0.0
 40
0.0
 40
0.0
 40
0.0
 40
0.0
 40
0.0372574737544062
 40
0.0738478101340961
 40
0.110432910852573
 40
0.1457620816897375
 40
0.1668062753165458
 40
0.1872171619431539
 40
0.1872171619431539
 40
0.1872171619431539
 40
0.1872171619431539
 10
44.42559715088788
 20
1.468073547424239
 30
0.0
 10
44.43508289170586
 20
1.476089544213763
 30
0.0
 10
44.45389833422126
 20
1.49196166325332
 30
0.0
 10
44.48207330382802
 20
1.515651735305354
 30
0.0
 10
44.50978700007479
 20
1.538891584406457
 30
0.0
 10
44.5335524844167
 20
1.558774841185893
 30
0.0
 10
44.55319487531883
 20
1.575184221696147
 30
0.0
 10
44.56380379000558
 20
1.584038487301825
 30
0.0
 10
44.56902808458835
 20
1.588396940237032
 30
0.0
 11
44.42559715088788
 21
1.468073547424239
 31
0.0
 11
44.45407417119116
 21
1.492098118715432
 31
0.0
 11
44.4820797431447
 21
1.515646852981831
 31
0.0
 11
44.51011294447801
 21
1.539154492644399
 31
0.0
 11
44.53720864346467
 21
1.561825436407275
 31
0.0
 11
44.55335826141845
 21
1.575317924872763
 31
0.0
 11
44.56902808458835
 21
1.588396940237032
 31
0.0
  0
SPLINE
  5
15E
330
2
100
AcDbEntity
  8
GAIKEI
  6
Continuous
 62
     1
100
AcDbSpline
210
0.0
220
0.0
230
1.0
 70
     8
 71
     3
 72
    18
 73
    14
 74
    12
 42
0.0000000001
 43
0.0000000001
 44
0.000001
 12
0.9998994732917083
 22
0.0141789742564268
 32
0.0
 13
0.9974225315167563
 23
0.0717516105931105
 33
0.0
 40
0.0
 40
0.0
 40
0.0
 40
0.0
 40
0.0246557873785945
 40
0.0480435918468772
 40
0.0698213471902205
 40
0.0993046363999563
 40
0.1250283545728647
 40
0.1471181734152186
 40
0.1653689307141082
 40
0.1798007874401328
 40
0.1903565079763488
 40
0.1966250082130421
 40
0.1996259748885314
 40
0.1996259748885314
 40
0.1996259748885314
 40
0.1996259748885314
 10
42.54700849244488
 20
32.97365860092305
 30
0.0
 10
42.55522626204935
 20
32.97377513218122
 30
0.0
 10
42.57123941896236
 20
32.97398613670981
 30
0.0
 10
42.59451180306706
 20
32.97424205805749
 30
0.0
 10
42.61939343428679
 20
32.97449798111528
 30
0.0
 10
42.64505347461699
 20
32.97478074971613
 30
0.0
 10
42.67081719047763
 20
32.97509191812381
 30
0.0
 10
42.69283672986515
 20
32.97538539197123
 30
0.0
 10
42.7110919044303
 20
32.97566687068266
 30
0.0
 10
42.72550295645726
 20
32.975913677168
 30
0.0
 10
42.73591791755916
 20
32.97616676873223
 30
0.0
 10
42.74252579371167
 20
32.97632054332594
 30
0.0
 10
42.74560958582836
 20
32.97652028692159
 30
0.0
 10
42.7466073297545
 20
32.97659206165235
 30
0.0
 11
42.54700849244488
 21
32.97365860092305
 31
0.0
 11
42.57166210416142
 21
32.97398351105113
 31
0.0
 11
42.59504843338953
 21
32.97424608785155
 31
0.0
 11
42.61682498720591
 21
32.97447482642315
 31
0.0
 11
42.64630647121822
 21
32.97480110920924
 31
0.0
 11
42.67202829479242
 21
32.9751133113644
 31
0.0
 11
42.6941160954841
 21
32.97541187345155
 31
0.0
 11
42.71236468200362
 21
32.97569329391706
 31
0.0
 11
42.72679413257333
 21
32.97595671652402
 31
0.0
 11
42.73734704006597
 21
32.97620022506453
 31
0.0
 11
42.74361216708882
 21
32.97640535105052
 31
0.0
 11
42.7466073297545
 21
32.97659206165235
 31
0.0
  0
SPLINE
  5
15F
330
2
100
AcDbEntity
  8
GAIKEI
  6
Continuous
 62
     1
100
AcDbSpline
210
0.0
220
0.0
230
1.0
 70
     8
 71
     3
 72
    23
 73
    19
 74
    17
 42
0.0000000001
 43
0.0000000001
 44
0.000001
 12
0.3343172427704102
 22
-0.9424605992753177
 32
0.0
 13
0.3418030246288111
 23
0.9397716171254568
 33
0.0
 40
0.0
 40
0.0
 40
0.0
 40
0.0
 40
0.0110606287305111
 40
0.0213816636358984
 40
0.0308284440343225
 40
0.0395086579665473
 40
0.0486747493217483
 40
0.0567474334353731
 40
0.0639195722325976
 40
0.0703086053834799
 40
0.0760678104611677
 40
0.0819273845724734
 40
0.0884765884175895
 40
0.0960764009306272
 40
0.1045711874195131
 40
0.1145725698843008
 40
0.1260215743937907
 40
0.1391753226881902
 40
0.1391753226881902
 40
0.1391753226881902
 40
0.1391753226881902
 10
41.7681635820611
 20
33.30036649150321
 30
0.0
 10
41.76939616836128
 20
33.2968917559093
 30
0.0
 10
41.77203506541568
 20
33.2902632368351
 30
0.0
 10
41.77648309604379
 20
33.28099044485464
 30
0.0
 10
41.78124059970741
 20
33.27277511773744
 30
0.0
 10
41.78645804905037
 20
33.26530816865561
 30
0.0
 10
41.79213771262712
 20
33.25876731078015
 30
0.0
 10
41.79830256993523
 20
33.25340631163772
 30
0.0
 10
41.80454521803278
 20
33.24969677020957
 30
0.0
 10
41.81077546403415
 20
33.24777848975548
 30
0.0
 10
41.81687311568029
 20
33.24775759353688
 30
0.0
 10
41.82272501496476
 20
33.24965036777606
 30
0.0
 10
41.82829584207837
 20
33.25344608340915
 30
0.0
 10
41.83349072855853
 20
33.25897986117857
 30
0.0
 10
41.83842926369578
 20
33.26616654647771
 30
0.0
 10
41.84318867896888
 20
33.27495605028278
 30
0.0
 10
41.84790772829777
 20
33.28548697517239
 30
0.0
 10
41.85094324323467
 20
33.29310952795754
 30
0.0
 10
41.85244190688542
 20
33.29723003439284
 30
0.0
 11
41.7681635820611
 21
33.30036649150321
 31
0.0
 11
41.77224530921409
 21
33.29008581416792
 31
0.0
 11
41.77673253603592
 21
33.28079123801905
 31
0.0
 11
41.78148626733985
 21
33.27262763393412
 31
0.0
 11
41.78648296240726
 21
33.26552975318146
 31
0.0
 11
41.79253994664196
 21
33.25864998477107
 31
0.0
 11
41.79868380668347
 21
33.25341336054544
 31
0.0
 11
41.80489975463546
 21
33.24983528847236
 31
0.0
 11
41.81103281983848
 21
33.24804467757713
 31
0.0
 11
41.81679209366393
 21
33.24805743851198
 31
0.0
 11
41.8223822135372
 21
33.24981417499714
 31
0.0
 11
41.82785503624813
 21
33.2534115711145
 31
0.0
 11
41.83314157274231
 21
33.25887148484572
 31
0.0
 11
41.83802629462905
 21
33.26582143262863
 31
0.0
 11
41.84285380909432
 21
33.27458063495101
 31
0.0
 11
41.84760650077794
 21
33.284996595243
 31
0.0
 11
41.85244190688542
 21
33.29723003439284
 31
0.0
  0
SPLINE
  5
160
330
2
100
AcDbEntity
  8
GAIKEI
  6
Continuous
 62
     7
100
AcDbSpline
210
0.0
220
0.0
230
1.0
 70
     8
 71
     3
 72
    12
 73
     8
 74
     6
 42
0.0000000001
 43
0.0000000001
 44
0.000001
 12
-0.9999805350888751
 22
-0.0062393463894028
 32
0.0
 13
-0.9999865056737116
 23
-0.0051950428756892
 33
0.0
 40
0.0
 40
0.0
 40
0.0
 40
0.0
 40
0.0822251272315459
 40
0.2143529371258685
 40
0.3902500169262791
 40
0.5839592036668935
 40
0.7876350594105253
 40
0.7876350594105253
 40
0.7876350594105253
 40
0.7876350594105253
 10
42.38855951160582
 20
34.24885355543017
 30
0.0
 10
42.36115166936357
 20
34.24868254507993
 30
0.0
 10
42.28970143995669
 20
34.24831654509571
 30
0.0
 10
42.15961783878191
 20
34.24828054594104
 30
0.0
 10
41.99237311170253
 20
34.24823142982115
 30
0.0
 10
41.80128011159744
 20
34.24752568032025
 30
0.0
 10
41.66881970441884
 20
34.2469504732012
 30
0.0
 10
41.60092866866046
 20
34.24659777160008
 30
0.0
 11
42.38855951160582
 21
34.24885355543017
 31
0.0
 11
42.30633535316139
 21
34.24845369819093
 31
0.0
 11
42.17420765494324
 21
34.24828526347528
 31
0.0
 11
41.99831063666311
 21
34.24813931522874
 31
0.0
 11
41.80460244471265
 21
34.2475185151585
 31
0.0
 11
41.60092866866046
 21
34.24659777160008
 31
0.0
  0
SPLINE
  5
161
330
2
100
AcDbEntity
  8
GAIKEI
  6
Continuous
 62
     1
100
AcDbSpline
210
0.0
220
0.0
230
1.0
 70
     8
 71
     3
 72
     9
 73
     5
 74
     3
 42
0.0000000001
 43
0.0000000001
 44
0.000001
 12
-0.9990717831929515
 22
0.0430763511413879
 32
0.0
 13
-0.999295462920273
 23
0.0375310243259837
 33
0.0
 40
0.0
 40
0.0
 40
0.0
 40
0.0
 40
0.3820310702061925
 40
0.5852208952986771
 40
0.5852208952986771
 40
0.5852208952986771
 40
0.5852208952986771
 10
42.43718678231693
 20
33.2736434020361
 30
0.0
 10
42.30996129480158
 20
33.27912890354514
 30
0.0
 10
42.11505327708263
 20
33.28717893278578
 30
0.0
 10
41.92012413032756
 20
33.2946880603034
 30
0.0
 10
41.85244190688542
 20
33.29723003439284
 30
0.0
 11
42.43718678231693
 21
33.2736434020361
 31
0.0
 11
42.05548110038046
 21
33.28940849027885
 31
0.0
 11
41.85244190688542
 21
33.29723003439284
 31
0.0
  0
SPLINE
  5
162
330
2
100
AcDbEntity
  8
GAIKEI
  6
Continuous
 62
     1
100
AcDbSpline
210
0.0
220
0.0
230
1.0
 70
     8
 71
     3
 72
    24
 73
    20
 74
    18
 42
0.0000000001
 43
0.0000000001
 44
0.000001
 12
-0.763673541079552
 22
0.6456026042814714
 32
0.0
 13
-0.7763366358761542
 23
0.6303185129730015
 33
0.0
 40
0.0
 40
0.0
 40
0.0
 40
0.0
 40
0.1681222979462012
 40
0.3359656667857203
 40
0.5035547199692778
 40
0.6709132512745523
 40
0.8380651924213889
 40
1.005035010179513
 40
1.267110524497988
 40
1.528908353362705
 40
1.79054478854399
 40
2.010629314999003
 40
2.230766503968597
 40
2.451037449810018
 40
2.67152427472332
 40
2.844969077275459
 40
3.018637932547799
 40
3.192569038560268
 40
3.366800025634332
 40
3.366800025634332
 40
3.366800025634332
 40
3.366800025634332
 10
44.42559715088788
 20
30.8361457485754
 30
0.0
 10
44.38280030068554
 20
30.87232581303935
 30
0.0
 10
44.29721803820865
 20
30.94455547470435
 30
0.0
 10
44.16878627286453
 20
31.05262700816846
 30
0.0
 10
44.04034506741047
 20
31.16029151343881
 30
0.0
 10
43.91185411512021
 20
31.26753733235657
 30
0.0
 10
43.78329013138716
 20
31.37437293803311
 30
0.0
 10
43.63015806607541
 20
31.50104262262603
 30
0.0
 10
43.45229176190565
 20
31.64730665471913
 30
0.0
 10
43.24950276771474
 20
31.8129425400291
 30
0.0
 10
43.0570939136852
 20
31.96915856991342
 30
0.0
 10
42.87514487379971
 20
32.11622478738134
 30
0.0
 10
42.70371039266083
 20
32.25436430953099
 30
0.0
 10
42.53204202264228
 20
32.39242706921078
 30
0.0
 10
42.37246031745553
 20
32.52068371726541
 30
0.0
 10
42.22502746555244
 20
32.63925967778812
 30
0.0
 10
42.08976835331009
 20
32.74821046560567
 30
0.0
 10
41.95443439232204
 20
32.85748597507602
 30
0.0
 10
41.8642781243029
 20
32.93056404016677
 30
0.0
 10
41.81919082484609
 20
32.96717104572889
 30
0.0
 11
44.42559715088788
 21
30.8361457485754
 31
0.0
 11
44.29712110204389
 21
30.94458475988205
 31
0.0
 11
44.16868792238278
 21
31.05264175771532
 31
0.0
 11
44.0402490012903
 21
31.16029645855895
 31
0.0
 11
43.91176322130934
 21
31.26753582980609
 31
0.0
 11
43.78320401068435
 21
31.37436420238055
 31
0.0
 11
43.65454645717477
 21
31.48078860911028
 31
0.0
 11
43.45212916436662
 21
31.64725426819018
 31
0.0
 11
43.24938065367405
 21
31.81287777296234
 31
0.0
 11
43.04627664414726
 21
31.97780923168591
 31
0.0
 11
42.87512433222275
 21
32.11617138389988
 31
0.0
 11
42.70372417510055
 21
32.25431032930612
 31
0.0
 11
42.53209123658382
 21
32.39237344530051
 31
0.0
 11
42.36024736711778
 21
32.53051874692142
 31
0.0
 11
42.22509975799579
 21
32.63923039827495
 31
0.0
 11
42.08985854305104
 21
32.74818307113901
 31
0.0
 11
41.95454713704037
 21
32.8574664329351
 31
0.0
 11
41.81919082484609
 21
32.96717104572889
 31
0.0
  0
SPLINE
  5
163
330
2
100
AcDbEntity
  8
GAIKEI
  6
Continuous
 62
     1
100
AcDbSpline
210
0.0
220
0.0
230
1.0
 70
     8
 71
     3
 72
    24
 73
    20
 74
    18
 42
0.0000000001
 43
0.0000000001
 44
0.000001
 12
0.7763403989906265
 22
0.6303138780758956
 32
0.0
 13
0.7636803984192571
 23
0.6455944927508327
 33
0.0
 40
0.0
 40
0.0
 40
0.0
 40
0.0
 40
0.1773959314708884
 40
0.354481689505558
 40
0.5312969872922505
 40
0.7078822487365557
 40
0.8842795981092773
 40
1.115062369227088
 40
1.345689816078973
 40
1.576255225736605
 40
1.825996539094067
 40
2.075879877313447
 40
2.326007099412219
 40
2.576472834072538
 40
2.734121019363011
 40
2.891957822213213
 40
3.050003090005589
 40
3.208276939979012
 40
3.366799997369962
 40
3.366799997369962
 40
3.366799997369962
 40
3.366799997369962
 10
41.81919082893739
 20
-0.6629517464065203
 30
0.0
 10
41.86509737167654
 20
-0.6256800405664223
 30
0.0
 10
41.95689127610768
 20
-0.5512769683318908
 30
0.0
 10
42.0946850401408
 20
-0.4400251856960154
 30
0.0
 10
42.23240016643873
 20
-0.3291064477213581
 30
0.0
 10
42.37001763470948
 20
-0.2184323814449982
 30
0.0
 10
42.52168704445279
 20
-0.0965264407269473
 30
0.0
 10
42.68736936914945
 20
0.0366996972268368
 30
0.0
 10
42.86698872817015
 20
0.1814072518587011
 30
0.0
 10
43.05129792243511
 20
0.3303662414079511
 30
0.0
 10
43.24026563373684
 20
0.4837718446653838
 30
0.0
 10
43.4338568632535
 20
0.6418264994250081
 30
0.0
 10
43.62713783235835
 20
0.800641155894695
 30
0.0
 10
43.79619464548139
 20
0.9405066941504216
 30
0.0
 10
43.94121873587434
 20
1.061158969674515
 30
0.0
 10
44.06235546862584
 20
1.162354182394167
 30
0.0
 10
44.18345274030961
 20
1.263921436659792
 30
0.0
 10
44.30454721369756
 20
1.36584756115608
 30
0.0
 10
44.38524350034555
 20
1.433959676482366
 30
0.0
 10
44.42559715088788
 20
1.468073547424239
 30
0.0
 11
41.81919082893739
 21
-0.6629517464065203
 31
0.0
 11
41.95700782595383
 21
-0.5512566783866646
 31
0.0
 11
42.09477779102394
 21
-0.4399966111689651
 31
0.0
 11
42.23247404023766
 21
-0.3290759533298342
 31
0.0
 11
42.3700721576692
 21
-0.2184002446185218
 31
0.0
 11
42.50755432190135
 21
-0.107880204349442
 31
0.0
 11
42.68738796536462
 21
0.0367591682644957
 31
0.0
 11
42.86696792721023
 21
0.181465963828316
 31
0.0
 11
43.04627664444701
 21
0.3264100645563417
 31
0.0
 11
43.24015641833824
 21
0.4838310205013841
 31
0.0
 11
43.43371176081939
 21
0.6418753584800357
 31
0.0
 11
43.62696213047581
 21
0.8006768781387449
 31
0.0
 11
43.81994416743896
 21
0.9603359478098241
 31
0.0
 11
43.94113696913848
 21
1.061158839556526
 31
0.0
 11
44.06226958240381
 21
1.162348496630499
 31
0.0
 11
44.18336537828969
 21
1.263906928909705
 31
0.0
 11
44.30446097386402
 21
1.365820952866954
 31
0.0
 11
44.42559715088788
 21
1.468073547424239
 31
0.0
  0
SPLINE
  5
164
330
2
100
AcDbEntity
  8
GAIKEI
  6
Continuous
 62
     7
100
AcDbSpline
210
0.0
220
0.0
230
1.0
 70
     8
 71
     3
 72
    12
 73
     8
 74
     6
 42
0.0000000001
 43
0.0000000001
 44
0.000001
 12
-0.5210043848710568
 22
0.853554000017065
 32
0.0
 13
0.4724306694582073
 23
0.8813678361247761
 33
0.0
 40
0.0
 40
0.0
 40
0.0
 40
0.0
 40
0.0000005781458884
 40
0.0017333552898061
 40
0.0031452536161891
 40
0.0043832590831246
 40
0.0055717860833932
 40
0.0055717860833932
 40
0.0055717860833932
 40
0.0055717860833932
 10
40.59713427859913
 20
-1.810693955993144
 30
0.0
 10
40.59713417819361
 20
-1.810693791500234
 30
0.0
 10
40.5968331713739
 20
-1.810200608072989
 30
0.0
 10
40.59634033271914
 20
-1.80926621119427
 30
0.0
 10
40.59599199698143
 20
-1.807828257418506
 30
0.0
 10
40.59606855100017
 20
-1.806532139338877
 30
0.0
 10
40.59635768595325
 20
-1.805763120613548
 30
0.0
 10
40.59654485148871
 20
-1.805413944123415
 30
0.0
 11
40.59713427859913
 21
-1.810693955993144
 31
0.0
 11
40.59713397739955
 21
-1.810693462510073
 31
0.0
 11
40.59636313052215
 21
-1.809142032778822
 31
0.0
 11
40.59605220403091
 21
-1.807764646873636
 31
0.0
 11
40.59613133929803
 21
-1.806529042196473
 31
0.0
 11
40.59654485148871
 21
-1.805413944123415
 31
0.0
  0
SPLINE
  5
165
330
2
100
AcDbEntity
  8
GAIKEI
  6
Continuous
 62
     1
100
AcDbSpline
210
0.0
220
0.0
230
1.0
 70
     8
 71
     3
 72
    12
 73
     8
 74
     6
 42
0.0000000001
 43
0.0000000001
 44
0.000001
 12
-0.9997199128824609
 22
0.0236663429005118
 32
0.0
 13
-0.5897290979336681
 23
-0.8076011336361174
 33
0.0
 40
0.0
 40
0.0
 40
0.0
 40
0.0
 40
0.0096251542167735
 40
0.0199387934551342
 40
0.0318105192887571
 40
0.0457159054561243
 40
0.050248664879283
 40
0.050248664879283
 40
0.050248664879283
 40
0.050248664879283
 10
41.67377081214761
 20
33.30380486147965
 30
0.0
 10
41.67056332603593
 20
33.30388079221304
 30
0.0
 10
41.66385049661164
 20
33.30322688107437
 30
0.0
 10
41.65393364812851
 20
33.299116718902
 30
0.0
 10
41.64417559398015
 20
33.29192467780166
 30
0.0
 10
41.63731676782399
 20
33.28443791711784
 30
0.0
 10
41.63356282290701
 20
33.27957151335015
 30
0.0
 10
41.63267178953174
 20
33.27835129280061
 30
0.0
 11
41.67377081214761
 21
33.30380486147965
 31
0.0
 11
41.66419717300676
 21
33.30280187192227
 31
0.0
 11
41.65461674207228
 21
33.29898206648659
 31
0.0
 11
41.64496554559781
 21
33.29206862463491
 31
0.0
 11
41.63543322029835
 21
33.28194452870326
 31
0.0
 11
41.63267178953174
 21
33.27835129280061
 31
0.0
  0
SPLINE
  5
166
330
2
100
AcDbEntity
  8
GAIKEI
  6
Continuous
 62
     1
100
AcDbSpline
210
0.0
220
0.0
230
1.0
 70
     8
 71
     3
 72
    11
 73
     7
 74
     5
 42
0.0000000001
 43
0.0000000001
 44
0.000001
 12
-0.0654000757818637
 22
0.9978591233674855
 32
0.0
 13
0.098288505086618
 23
0.9951579622189827
 33
0.0
 40
0.0
 40
0.0
 40
0.0
 40
0.0
 40
0.0110413870343056
 40
0.0220816452102942
 40
0.0331549967803434
 40
0.0442276311424072
 40
0.0442276311424072
 40
0.0442276311424072
 40
0.0442276311424072
 10
40.59548460009057
 20
-1.653908587292789
 30
0.0
 10
40.5952438975743
 20
-1.650236004363854
 30
0.0
 10
40.59488773970935
 20
-1.642882535216955
 30
0.0
 10
40.5947104675534
 20
-1.631830234630626
 30
0.0
 10
40.5949697953915
 20
-1.620767385767827
 30
0.0
 10
40.59551947750333
 20
-1.613402103228878
 30
0.0
 10
40.59588224839626
 20
-1.609729096479497
 30
0.0
 11
40.59548460009057
 21
-1.653908587292789
 31
0.0
 11
40.59494823223224
 21
-1.642880474764297
 31
0.0
 11
40.59478392528165
 21
-1.631841918625411
 31
0.0
 11
40.59506300706743
 21
-1.620771744548733
 31
0.0
 11
40.59588224839626
 21
-1.609729096479497
 31
0.0
  0
SPLINE
  5
167
330
2
100
AcDbEntity
  8
GAIKEI
  6
Continuous
 62
     1
100
AcDbSpline
210
0.0
220
0.0
230
1.0
 70
     8
 71
     3
 72
    11
 73
     7
 74
     5
 42
0.0000000001
 43
0.0000000001
 44
0.000001
 12
-0.0654000757821216
 22
-0.9978591233674684
 32
0.0
 13
0.0982885050871231
 23
-0.9951579622189326
 33
0.0
 40
0.0
 40
0.0
 40
0.0
 40
0.0
 40
0.0110413870342985
 40
0.0220816452102942
 40
0.0331549967802795
 40
0.0442276311423504
 40
0.0442276311423504
 40
0.0442276311423504
 40
0.0442276311423504
 10
40.59548460009057
 20
33.95812788329238
 30
0.0
 10
40.5952438975743
 20
33.95445530036344
 30
0.0
 10
40.59488773970935
 20
33.94710183121657
 30
0.0
 10
40.59471046755336
 20
33.93604953063024
 30
0.0
 10
40.5949697953915
 20
33.92498668176747
 30
0.0
 10
40.59551947750333
 20
33.91762139922852
 30
0.0
 10
40.59588224839626
 20
33.91394839247914
 30
0.0
 11
40.59548460009057
 21
33.95812788329238
 31
0.0
 11
40.59494823223224
 21
33.94709977076388
 31
0.0
 11
40.59478392528165
 21
33.936061214625
 31
0.0
 11
40.59506300706743
 21
33.92499104054838
 31
0.0
 11
40.59588224839626
 21
33.91394839247914
 31
0.0
  0
SPLINE
  5
168
330
2
100
AcDbEntity
  8
GAIKEI
  6
Continuous
 62
     1
100
AcDbSpline
210
0.0
220
0.0
230
1.0
 70
     8
 71
     3
 72
    17
 73
    13
 74
    11
 42
0.0000000001
 43
0.0000000001
 44
0.000001
 12
0.3612359225583266
 22
0.9324744544776734
 32
0.0
 13
-0.0627016803875014
 23
0.9980323137436903
 33
0.0
 40
0.0
 40
0.0
 40
0.0
 40
0.0
 40
0.0028300885610925
 40
0.0073793218411953
 40
0.0162740123556482
 40
0.0284944018718171
 40
0.0435304452717957
 40
0.0615754826925055
 40
0.0817126975661946
 40
0.1041653858556463
 40
0.1273126048373657
 40
0.1517927467179393
 40
0.1517927467179393
 40
0.1517927467179393
 40
0.1517927467179393
 10
40.59654485148871
 20
-1.805413944123415
 30
0.0
 10
40.59688562803947
 20
-1.804534282361039
 30
0.0
 10
40.59765963144207
 20
-1.802186816948953
 30
0.0
 10
40.59825332016072
 20
-1.796770742947067
 30
0.0
 10
40.59883535583241
 20
-1.788245729164039
 30
0.0
 10
40.59911580540716
 20
-1.776190457898046
 30
0.0
 10
40.59919121732829
 20
-1.761092182577449
 30
0.0
 10
40.59900919011463
 20
-1.743352224908058
 30
0.0
 10
40.59857777656944
 20
-1.723145137940363
 30
0.0
 10
40.59787932358091
 20
-1.70124340292827
 30
0.0
 10
40.59688859978035
 20
-1.677903897861163
 30
0.0
 10
40.5959962487679
 20
-1.662052578173401
 30
0.0
 10
40.59548460009057
 20
-1.653908587292789
 30
0.0
 11
40.59654485148871
 21
-1.805413944123415
 31
0.0
 11
40.59740413591305
 21
-1.802717386169206
 31
0.0
 11
40.59807258980089
 21
-1.798217617964951
 31
0.0
 11
40.59870305799563
 21
-1.789345334784741
 31
0.0
 11
40.59905960675012
 21
-1.777130165428616
 31
0.0
 11
40.59915048167107
 21
-1.762094407045083
 31
0.0
 11
40.59898386259084
 21
-1.744050145901496
 31
0.0
 11
40.59855985439793
 21
-1.723917400393133
 31
0.0
 11
40.59784689764296
 21
-1.701476038066232
 31
0.0
 11
40.59685472700169
 21
-1.678350094202642
 31
0.0
 11
40.59548460009057
 21
-1.653908587292789
 31
0.0
  0
SPLINE
  5
169
330
2
100
AcDbEntity
  8
GAIKEI
  6
Continuous
 62
     1
100
AcDbSpline
210
0.0
220
0.0
230
1.0
 70
     8
 71
     3
 72
    17
 73
    13
 74
    11
 42
0.0000000001
 43
0.0000000001
 44
0.000001
 12
0.3612359225596014
 22
-0.9324744544771796
 32
0.0
 13
-0.0627016803872264
 23
-0.9980323137437075
 33
0.0
 40
0.0
 40
0.0
 40
0.0
 40
0.0
 40
0.0028300885610925
 40
0.0073793218412024
 40
0.0162740123555915
 40
0.0284944018718172
 40
0.0435304452718028
 40
0.0615754826925127
 40
0.0817126975661947
 40
0.1041653858556464
 40
0.1273126048373586
 40
0.1517927467179394
 40
0.1517927467179394
 40
0.1517927467179394
 40
0.1517927467179394
 10
40.59654485148871
 20
34.109633240123
 30
0.0
 10
40.59688562803947
 20
34.10875357836064
 30
0.0
 10
40.5976596314421
 20
34.10640611294852
 30
0.0
 10
40.59825332016075
 20
34.10099003894667
 30
0.0
 10
40.59883535583241
 20
34.09246502516365
 30
0.0
 10
40.59911580540716
 20
34.08040975389764
 30
0.0
 10
40.59919121732827
 20
34.06531147857706
 30
0.0
 10
40.59900919011454
 20
34.04757152090764
 30
0.0
 10
40.59857777656946
 20
34.02736443393995
 30
0.0
 10
40.59787932358093
 20
34.00546269892789
 30
0.0
 10
40.59688859978038
 20
33.98212319386072
 30
0.0
 10
40.5959962487679
 20
33.96627187417299
 30
0.0
 10
40.59548460009057
 20
33.95812788329238
 30
0.0
 11
40.59654485148871
 21
34.109633240123
 31
0.0
 11
40.59740413591305
 21
34.10693668216879
 31
0.0
 11
40.59807258980089
 21
34.10243691396454
 31
0.0
 11
40.59870305799563
 21
34.09356463078438
 31
0.0
 11
40.59905960675012
 21
34.0813494614282
 31
0.0
 11
40.59915048167107
 21
34.06631370304467
 31
0.0
 11
40.59898386259084
 21
34.04826944190109
 31
0.0
 11
40.59855985439793
 21
34.02813669639272
 31
0.0
 11
40.59784689764296
 21
34.00569533406582
 31
0.0
 11
40.59685472700169
 21
33.98256939020223
 31
0.0
 11
40.59548460009057
 21
33.95812788329238
 31
0.0
  0
SPLINE
  5
16A
330
2
100
AcDbEntity
  8
GAIKEI
  6
Continuous
 62
     1
100
AcDbSpline
210
0.0
220
0.0
230
1.0
 70
     8
 71
     3
 72
     9
 73
     5
 74
     3
 42
0.0000000001
 43
0.0000000001
 44
0.000001
 12
0.0107468806355603
 22
-0.9999422506108064
 32
0.0
 13
0.1266484047959066
 23
-0.9919476707783793
 33
0.0
 40
0.0
 40
0.0
 40
0.0
 40
0.0
 40
0.0181772876333676
 40
0.0364254517196732
 40
0.0364254517196732
 40
0.0364254517196732
 40
0.0364254517196732
 10
40.65553020861648
 20
-1.609706092560031
 30
0.0
 10
40.65559532499665
 20
-1.615764838528733
 30
0.0
 10
40.65607852663871
 20
-1.627904690150387
 30
0.0
 10
40.65726536631632
 20
-1.639996126193857
 30
0.0
 10
40.65803573327366
 20
-1.64602986748099
 30
0.0
 11
40.65553020861648
 21
-1.609706092560031
 31
0.0
 11
40.656252142504
 21
-1.627869050360743
 31
0.0
 11
40.65803573327366
 21
-1.64602986748099
 31
0.0
  0
SPLINE
  5
16B
330
2
100
AcDbEntity
  8
GAIKEI
  6
Continuous
 62
     1
100
AcDbSpline
210
0.0
220
0.0
230
1.0
 70
     8
 71
     3
 72
     9
 73
     5
 74
     3
 42
0.0000000001
 43
0.0000000001
 44
0.000001
 12
0.0107468806351511
 22
0.9999422506108111
 32
0.0
 13
0.1266484047962899
 23
0.9919476707783307
 33
0.0
 40
0.0
 40
0.0
 40
0.0
 40
0.0
 40
0.0181772876333758
 40
0.0364254517197337
 40
0.0364254517197337
 40
0.0364254517197337
 40
0.0364254517197337
 10
40.65553020861642
 20
33.91392538855962
 30
0.0
 10
40.65559532499657
 20
33.91998413452832
 30
0.0
 10
40.65607852663868
 20
33.93212398614996
 30
0.0
 10
40.65726536631632
 20
33.94421542219348
 30
0.0
 10
40.65803573327366
 20
33.95024916348063
 30
0.0
 11
40.65553020861642
 21
33.91392538855962
 31
0.0
 11
40.656252142504
 21
33.93208834636033
 31
0.0
 11
40.65803573327366
 21
33.95024916348063
 31
0.0
  0
SPLINE
  5
16C
330
2
100
AcDbEntity
  8
GAIKEI
  6
Continuous
 62
     7
100
AcDbSpline
210
0.0
220
0.0
230
1.0
 70
     8
 71
     3
 72
     9
 73
     5
 74
     3
 42
0.0000000001
 43
0.0000000001
 44
0.000001
 12
0.9946733934099068
 22
-0.1030768666695919
 32
0.0
 13
0.9996677582123131
 23
-0.0257754377415425
 33
0.0
 40
0.0
 40
0.0
 40
0.0
 40
0.0
 40
0.00192921952105
 40
0.0047028439137039
 40
0.0047028439137039
 40
0.0047028439137039
 40
0.0047028439137039
 10
41.59528903283813
 20
-1.941774940872221
 30
0.0
 10
41.59592868061401
 20
-1.941841226840004
 30
0.0
 10
41.59749057093245
 20
-1.941978011697599
 30
0.0
 10
41.59905700731949
 20
-1.942054244534482
 30
0.0
 10
41.5999812416124
 20
-1.942078074995436
 30
0.0
 11
41.59528903283813
 21
-1.941774940872221
 31
0.0
 11
41.59721085697441
 21
-1.941943283360444
 31
0.0
 11
41.5999812416124
 21
-1.942078074995436
 31
0.0
  0
SPLINE
  5
16D
330
2
100
AcDbEntity
  8
GAIKEI
  6
Continuous
 62
     1
100
AcDbSpline
210
0.0
220
0.0
230
1.0
 70
     8
 71
     3
 72
    21
 73
    17
 74
    15
 42
0.0000000001
 43
0.0000000001
 44
0.000001
 12
0.0382553536963009
 22
-0.9992679960418882
 32
0.0
 13
-0.7595848949307547
 23
-0.6504081698387826
 33
0.0
 40
0.0
 40
0.0
 40
0.0
 40
0.0
 40
0.0221910289687439
 40
0.0441849332590944
 40
0.0655784734027641
 40
0.0863132603141809
 40
0.1060380685475536
 40
0.1243777896297098
 40
0.1409618325684899
 40
0.1558604188063247
 40
0.1687945410197601
 40
0.1794887649079913
 40
0.1880571758779442
 40
0.194354631534726
 40
0.1985899972598988
 40
0.2003118835017926
 40
0.2003118835017926
 40
0.2003118835017926
 40
0.2003118835017926
 10
40.65803573327366
 20
-1.64602986748099
 30
0.0
 10
40.65831870849436
 20
-1.653421462496893
 30
0.0
 10
40.65881063808766
 20
-1.668141887594437
 30
0.0
 10
40.65930456589399
 20
-1.689996119248903
 30
0.0
 10
40.65961720066934
 20
-1.711368092633925
 30
0.0
 10
40.65977928089916
 20
-1.731985284878518
 30
0.0
 10
40.65981320731611
 20
-1.751585230398504
 30
0.0
 10
40.65973699466704
 20
-1.769801079220329
 30
0.0
 10
40.65957119936439
 20
-1.786408721141071
 30
0.0
 10
40.65931187324847
 20
-1.801209357256837
 30
0.0
 10
40.65898815608375
 20
-1.814056228395088
 30
0.0
 10
40.65852316945387
 20
-1.82475572831774
 30
0.0
 10
40.6581230176331
 20
-1.833327378630215
 30
0.0
 10
40.65723657019455
 20
-1.839508752171312
 30
0.0
 10
40.65705974851272
 20
-1.843852534589622
 30
0.0
 10
40.65563933703219
 20
-1.845340336735425
 30
0.0
 10
40.65520336410549
 20
-1.845713646361843
 30
0.0
 11
40.65803573327366
 21
-1.64602986748099
 31
0.0
 11
40.65877179708548
 21
-1.668208212222793
 31
0.0
 11
40.65927857674632
 21
-1.690196277082861
 31
0.0
 11
40.65959501648939
 21
-1.711587475367366
 31
0.0
 11
40.65975931931558
 21
-1.732321609259031
 31
0.0
 11
40.65979296128955
 21
-1.752046386277697
 31
0.0
 11
40.65971503697056
 21
-1.770385938644949
 31
0.0
 11
40.65954276744633
 21
-1.786969082721384
 31
0.0
 11
40.65927907003277
 21
-1.80186532953985
 31
0.0
 11
40.65892569162719
 21
-1.814794615461948
 31
0.0
 11
40.65848438873996
 21
-1.825479718075939
 31
0.0
 11
40.65793472353703
 21
-1.834030459786902
 31
0.0
 11
40.65726043873212
 21
-1.840291670928593
 31
0.0
 11
40.65634829071086
 21
-1.844427412513198
 31
0.0
 11
40.65520336410549
 21
-1.845713646361843
 31
0.0
  0
SPLINE
  5
16E
330
2
100
AcDbEntity
  8
GAIKEI
  6
Continuous
 62
     1
100
AcDbSpline
210
0.0
220
0.0
230
1.0
 70
     8
 71
     3
 72
    25
 73
    21
 74
    19
 42
0.0000000001
 43
0.0000000001
 44
0.000001
 12
-0.0255134206165988
 22
-0.9996744797024883
 32
0.0
 13
0.9743074816367307
 23
-0.2252219599121975
 33
0.0
 40
0.0
 40
0.0
 40
0.0
 40
0.0
 40
0.0204813486621756
 40
0.0409688729825677
 40
0.0576179634096592
 40
0.0741051539890635
 40
0.0901792402221535
 40
0.1058345015999207
 40
0.1202818072328477
 40
0.1339991181210809
 40
0.1470723265839186
 40
0.1591864839562975
 40
0.1697261044376251
 40
0.1792402916126943
 40
0.1877892930673852
 40
0.1951896496431825
 40
0.2012055425433604
 40
0.2062281867816495
 40
0.2104862133427884
 40
0.2122113217879108
 40
0.2122113217879108
 40
0.2122113217879108
 40
0.2122113217879108
 10
41.55808980669235
 20
-1.738288741066469
 30
0.0
 10
41.5579156236046
 20
-1.74511363492229
 30
0.0
 10
41.55771643177007
 20
-1.758769724627583
 30
0.0
 10
41.55785352478289
 20
-1.777976769158243
 30
0.0
 10
41.55834930612641
 20
-1.795845543317099
 30
0.0
 10
41.55912371170654
 20
-1.81223182463362
 30
0.0
 10
41.56021596786885
 20
-1.828268084122996
 30
0.0
 10
41.56160768776859
 20
-1.843598712054067
 30
0.0
 10
41.56328365624486
 20
-1.858110424698743
 30
0.0
 10
41.56522612330099
 20
-1.871720300472063
 30
0.0
 10
41.56745275828038
 20
-1.884498362529939
 30
0.0
 10
41.56992165289861
 20
-1.896151840361326
 30
0.0
 10
41.57259009970636
 20
-1.906540997789541
 30
0.0
 10
41.57543037032797
 20
-1.915647626144277
 30
0.0
 10
41.57848142657468
 20
-1.923576722219905
 30
0.0
 10
41.58169769356777
 20
-1.930167139871372
 30
0.0
 10
41.58503968295224
 20
-1.935351247193992
 30
0.0
 10
41.58849257549479
 20
-1.939137642307372
 30
0.0
 10
41.5916159992557
 20
-1.941200198170839
 30
0.0
 10
41.59353594384339
 20
-1.941775961944827
 30
0.0
 10
41.59409620586496
 20
-1.941905472713187
 30
0.0
 11
41.55808980669235
 21
-1.738288741066469
 31
0.0
 11
41.55779123267609
 21
-1.758767123983375
 31
0.0
 11
41.55794088347699
 21
-1.779254097406408
 31
0.0
 11
41.55840571775536
 21
-1.795896693759175
 31
0.0
 11
41.55918856288741
 21
-1.812365283903147
 31
0.0
 11
41.5602870180262
 21
-1.828401788479709
 31
0.0
 11
41.56171070184655
 21
-1.843992174626293
 31
0.0
 11
41.56337780425326
 21
-1.85834296565946
 31
0.0
 11
41.56532818307749
 21
-1.871920903724628
 31
0.0
 11
41.56758876608523
 21
-1.884797170978458
 31
0.0
 11
41.57012072490732
 21
-1.89664375947035
 31
0.0
 11
41.57276624268081
 21
-1.906845939665231
 31
0.0
 11
41.57562955077724
 21
-1.915919021079673
 31
0.0
 11
41.57874144052487
 21
-1.923881499066567
 31
0.0
 11
41.58204297998861
 21
-1.930504526796539
 31
0.0
 11
41.58536590941117
 21
-1.935519346097862
 31
0.0
 11
41.58882328313097
 21
-1.939162510856021
 31
0.0
 11
41.59244736827639
 21
-1.941397600848915
 31
0.0
 11
41.59409620586496
 21
-1.941905472713187
 31
0.0
  0
SPLINE
  5
16F
330
2
100
AcDbEntity
  8
GAIKEI
  6
Continuous
 62
     1
100
AcDbSpline
210
0.0
220
0.0
230
1.0
 70
     8
 71
     3
 72
    21
 73
    17
 74
    15
 42
0.0000000001
 43
0.0000000001
 44
0.000001
 12
0.0382553536958656
 22
0.9992679960419048
 32
0.0
 13
-0.7595848949301688
 23
0.6504081698394668
 33
0.0
 40
0.0
 40
0.0
 40
0.0
 40
0.0
 40
0.0221910289686871
 40
0.0441849332591015
 40
0.0655784734027641
 40
0.0863132603141312
 40
0.1060380685474968
 40
0.1243777896296458
 40
0.1409618325684401
 40
0.1558604188062607
 40
0.16879454101976
 40
0.1794887649079415
 40
0.1880571758778945
 40
0.1943546315347328
 40
0.1985899972598501
 40
0.200311883501781
 40
0.200311883501781
 40
0.200311883501781
 40
0.200311883501781
 10
40.65803573327366
 20
33.95024916348063
 30
0.0
 10
40.65831870849436
 20
33.95764075849653
 30
0.0
 10
40.65881063808762
 20
33.97236118359407
 30
0.0
 10
40.65930456589405
 20
33.99421541524852
 30
0.0
 10
40.65961720066929
 20
34.01558738863358
 30
0.0
 10
40.65977928089927
 20
34.03620458087809
 30
0.0
 10
40.65981320731606
 20
34.05580452639811
 30
0.0
 10
40.65973699466716
 20
34.07402037521993
 30
0.0
 10
40.65957119936434
 20
34.09062801714062
 30
0.0
 10
40.65931187324849
 20
34.10542865325647
 30
0.0
 10
40.65898815608377
 20
34.11827552439471
 30
0.0
 10
40.65852316945387
 20
34.12897502431734
 30
0.0
 10
40.65812301763307
 20
34.13754667462985
 30
0.0
 10
40.65723657019463
 20
34.14372804817094
 30
0.0
 10
40.65705974851266
 20
34.14807183058923
 30
0.0
 10
40.65563933703219
 20
34.14955963273506
 30
0.0
 10
40.65520336410549
 20
34.14993294236149
 30
0.0
 11
40.65803573327366
 21
33.95024916348063
 31
0.0
 11
40.65877179708548
 21
33.97242750822238
 31
0.0
 11
40.65927857674632
 21
33.99441557308251
 31
0.0
 11
40.65959501648939
 21
34.01580677136701
 31
0.0
 11
40.65975931931558
 21
34.03654090525862
 31
0.0
 11
40.65979296128955
 21
34.05626568227729
 31
0.0
 11
40.65971503697056
 21
34.07460523464454
 31
0.0
 11
40.65954276744633
 21
34.09118837872097
 31
0.0
 11
40.65927907003277
 21
34.10608462553944
 31
0.0
 11
40.65892569162719
 21
34.11901391146159
 31
0.0
 11
40.65848438873996
 21
34.12969901407553
 31
0.0
 11
40.65793472353703
 21
34.13824975578649
 31
0.0
 11
40.65726043873212
 21
34.14451096692824
 31
0.0
 11
40.65634829071086
 21
34.14864670851279
 31
0.0
 11
40.65520336410549
 21
34.14993294236149
 31
0.0
  0
SPLINE
  5
170
330
2
100
AcDbEntity
  8
GAIKEI
  6
Continuous
 62
     7
100
AcDbSpline
210
0.0
220
0.0
230
1.0
 70
     8
 71
     3
 72
     9
 73
     5
 74
     3
 42
0.0000000001
 43
0.0000000001
 44
0.000001
 12
-0.9947747753350332
 22
-0.1020938115516043
 32
0.0
 13
-0.9947988961165853
 23
-0.1018585111084175
 33
0.0
 40
0.0
 40
0.0
 40
0.0
 40
0.0
 40
0.1977011781494299
 40
0.944782611872483
 40
0.944782611872483
 40
0.944782611872483
 40
0.944782611872483
 10
41.59506896017996
 20
34.24627920420164
 30
0.0
 10
41.52951291182094
 20
34.23955118192647
 30
0.0
 10
41.21623014604955
 20
34.20740678239255
 30
0.0
 10
40.90294357830686
 20
34.17529943376158
 30
0.0
 10
40.65521164978122
 20
34.14993389958965
 30
0.0
 11
41.59506896017996
 21
34.24627920420164
 31
0.0
 11
41.39840031575249
 21
34.22610000453597
 31
0.0
 11
40.65521164978122
 21
34.14993389958965
 31
0.0
  0
SPLINE
  5
171
330
2
100
AcDbEntity
  8
GAIKEI
  6
Continuous
 62
     7
100
AcDbSpline
210
0.0
220
0.0
230
1.0
 70
     8
 71
     3
 72
     9
 73
     5
 74
     3
 42
0.0000000001
 43
0.0000000001
 44
0.000001
 12
-0.9999967948792836
 22
-0.0025318434312368
 32
0.0
 13
-0.9999860532931538
 23
-0.0052814031451416
 33
0.0
 40
0.0
 40
0.0
 40
0.0
 40
0.0
 40
0.0968157403298449
 40
0.4877122289167754
 40
0.4877122289167754
 40
0.4877122289167754
 40
0.4877122289167754
 10
42.08816893509555
 20
34.24825612725215
 30
0.0
 10
42.05589712508765
 20
34.24817441982009
 30
0.0
 10
41.89332702167277
 20
34.24771844906743
 30
0.0
 10
41.7307575134815
 20
34.2470389780527
 30
0.0
 10
41.60046050119212
 20
34.24635081740462
 30
0.0
 11
42.08816893509555
 21
34.24825612725215
 31
0.0
 11
41.99135358260849
 21
34.24798458311619
 31
0.0
 11
41.60046050119212
 21
34.24635081740462
 31
0.0
  0
SPLINE
  5
172
330
2
100
AcDbEntity
  8
GAIKEI
  6
Continuous
 62
     1
100
AcDbSpline
210
0.0
220
0.0
230
1.0
 70
     8
 71
     3
 72
     9
 73
     5
 74
     3
 42
0.0000000001
 43
0.0000000001
 44
0.000001
 12
0.9999857704525481
 22
-0.0053346876594615
 32
0.0
 13
0.9999959155307976
 23
-0.0028581325584514
 33
0.0
 40
0.0
 40
0.0
 40
0.0
 40
0.0
 40
0.3908998216266075
 40
0.4190327266555318
 40
0.4190327266555318
 40
0.4190327266555318
 40
0.4190327266555318
 10
41.60045717414845
 20
-1.942131502053882
 30
0.0
 10
41.73075526058148
 20
-1.94282661153872
 30
0.0
 10
41.87043179916639
 20
-1.943410401784468
 30
0.0
 10
42.01010876814959
 20
-1.943821231005436
 30
0.0
 10
42.01948636485655
 20
-1.943848033529377
 30
0.0
 11
41.60045717414845
 21
-1.942131502053882
 31
0.0
 11
41.99135358260855
 21
-1.943765287116605
 31
0.0
 11
42.01948636485655
 21
-1.943848033529377
 31
0.0
  0
SPLINE
  5
173
330
2
100
AcDbEntity
  8
GAIKEI
  6
Continuous
 62
     1
100
AcDbSpline
210
0.0
220
0.0
230
1.0
 70
     8
 71
     3
 72
    11
 73
     7
 74
     5
 42
0.0000000001
 43
0.0000000001
 44
0.000001
 12
0.9703345670641711
 22
0.2417660603980373
 32
0.0
 13
0.9797500259308318
 23
0.2002245906189711
 33
0.0
 40
0.0
 40
0.0
 40
0.0
 40
0.0
 40
0.0041473159911531
 40
0.0230972194081771
 40
0.0430134616241683
 40
0.063731099072353
 40
0.063731099072353
 40
0.063731099072353
 40
0.063731099072353
 10
42.67902320008488
 20
-0.786623435228421
 30
0.0
 10
42.68036462810712
 20
-0.786289208478955
 30
0.0
 10
42.68783904296157
 20
-0.7844428173661413
 30
0.0
 10
42.70180056002243
 20
-0.7811757145677234
 30
0.0
 10
42.72120322299199
 20
-0.7769308944083449
 30
0.0
 10
42.73445922929113
 20
-0.7741485890563667
 30
0.0
 10
42.74122526456682
 20
-0.7727658622308127
 30
0.0
 11
42.67902320008488
 21
-0.786623435228421
 31
0.0
 11
42.68304956758714
 21
-0.7856289310131502
 31
0.0
 11
42.70149690611629
 21
-0.78129362698769
 31
0.0
 11
42.72094830262921
 21
-0.7770159824942767
 31
0.0
 11
42.74122526456682
 21
-0.7727658622308127
 31
0.0
  0
SPLINE
  5
174
330
2
100
AcDbEntity
  8
GAIKEI
  6
Continuous
 62
     1
100
AcDbSpline
210
0.0
220
0.0
230
1.0
 70
     8
 71
     3
 72
    18
 73
    14
 74
    12
 42
0.0000000001
 43
0.0000000001
 44
0.000001
 12
-0.9988897441339355
 22
-0.0471092248295469
 32
0.0
 13
-0.3585121632137753
 23
0.9335250552758502
 33
0.0
 40
0.0
 40
0.0
 40
0.0
 40
0.0
 40
0.0119805905300651
 40
0.024331061290752
 40
0.0376234896336699
 40
0.0522411295060456
 40
0.0668180788349941
 40
0.0830395302716152
 40
0.1011283162673229
 40
0.1216709828861066
 40
0.1446528964452394
 40
0.1703155568409978
 40
0.1739624955742539
 40
0.1739624955742539
 40
0.1739624955742539
 40
0.1739624955742539
 10
42.88354784785053
 20
-0.7624712931655609
 30
0.0
 10
42.87955875151413
 20
-0.7626594252765173
 30
0.0
 10
42.87138943165939
 20
-0.7622543162722338
 30
0.0
 10
42.85920603967722
 20
-0.7589324483975731
 30
0.0
 10
42.8471094555328
 20
-0.7529535782401524
 30
0.0
 10
42.83560819624648
 20
-0.7445918965246677
 30
0.0
 10
42.82463233710195
 20
-0.7341180636346963
 30
0.0
 10
42.81411225725958
 20
-0.721636954058738
 30
0.0
 10
42.80365175726541
 20
-0.7066143984016833
 30
0.0
 10
42.79326934335819
 20
-0.6888723409577296
 30
0.0
 10
42.7830232850483
 20
-0.6681934169447175
 30
0.0
 10
42.77624298645415
 20
-0.6521241518690602
 30
0.0
 10
42.77270489060106
 20
-0.6430175375813505
 30
0.0
 10
42.77226906663628
 20
-0.6418827013538362
 30
0.0
 11
42.88354784785053
 21
-0.7624712931655609
 31
0.0
 11
42.87158314898391
 21
-0.7618373397507981
 31
0.0
 11
42.8596493313596
 21
-0.7586567673865261
 31
0.0
 11
42.84769539488246
 21
-0.7528438099400319
 31
0.0
 11
42.83580912409854
 21
-0.7443355398574454
 31
0.0
 11
42.8252120597416
 21
-0.7343261049634294
 31
0.0
 11
42.81470156293011
 21
-0.7219703709751571
 31
0.0
 11
42.80430739148562
 21
-0.7071661592069063
 31
0.0
 11
42.79387810881376
 21
-0.6894678375028321
 31
0.0
 11
42.78362018752574
 21
-0.6689022635049469
 31
0.0
 11
42.77358932512828
 21
-0.6452812369939239
 31
0.0
 11
42.77226906663628
 21
-0.6418827013538362
 31
0.0
  0
SPLINE
  5
175
330
2
100
AcDbEntity
  8
GAIKEI
  6
Continuous
 62
     1
100
AcDbSpline
210
0.0
220
0.0
230
1.0
 70
     8
 71
     3
 72
    20
 73
    16
 74
    14
 42
0.0000000001
 43
0.0000000001
 44
0.000001
 12
0.299379595244951
 22
-0.9541340880353082
 32
0.0
 13
0.0543241289414467
 23
-0.9985233542660647
 33
0.0
 40
0.0
 40
0.0
 40
0.0
 40
0.0
 40
0.0063807478429947
 40
0.0340721766799074
 40
0.0639604415144966
 40
0.096044420709983
 40
0.1303192580884646
 40
0.1667773842440195
 40
0.203422368353348
 40
0.2421105810853491
 40
0.2827305287953021
 40
0.3157167484610425
 40
0.3498659610588975
 40
0.3850650557778393
 40
0.4212011070297878
 40
0.4212011070297878
 40
0.4212011070297878
 40
0.4212011070297878
 10
44.43494231685218
 20
0.1452179161055369
 30
0.0
 10
44.4355790720877
 20
0.143188553097481
 30
0.0
 10
44.4389381230223
 20
0.1323391594892413
 30
0.0
 10
44.44475691327716
 20
0.1118230916138074
 30
0.0
 10
44.45196666333117
 20
0.0828133125609583
 30
0.0
 10
44.45880214104954
 20
0.0514634294038245
 30
0.0
 10
44.46523427805755
 20
0.0177966239711296
 30
0.0
 10
44.47112502133174
 20
-0.0175110030254402
 30
0.0
 10
44.47649233083132
 20
-0.0543885133753577
 30
0.0
 10
44.48135339566976
 20
-0.0927346885906673
 30
0.0
 10
44.48542356108293
 20
-0.1299460016037699
 30
0.0
 10
44.48881585464954
 20
-0.1657047593493246
 30
0.0
 10
44.49163003696895
 20
-0.1997007991186095
 30
0.0
 10
44.49412707202333
 20
-0.2347741727459081
 30
0.0
 10
44.4955531163595
 20
-0.2585103446852059
 30
0.0
 10
44.49620746952871
 20
-0.2705379083872117
 30
0.0
 11
44.43494231685218
 21
0.1452179161055369
 31
0.0
 11
44.43682722419606
 21
0.1391216874218344
 31
0.0
 11
44.44441545154785
 21
0.11249030435431
 31
0.0
 11
44.45165387060029
 21
0.0834918165584213
 31
0.0
 11
44.45851438744461
 21
0.052149925108381
 31
0.0
 11
44.46496890817207
 21
0.0184883310784017
 31
0.0
 11
44.47098933887389
 21
-0.0174692644571337
 31
0.0
 11
44.47628476760707
 21
-0.0537296099311107
 31
0.0
 11
44.48116434341375
 21
-0.0921088614092582
 31
0.0
 11
44.4855925297652
 21
-0.1324867109914862
 31
0.0
 11
44.48871378133548
 21
-0.1653249211372554
 31
0.0
 11
44.49153586521521
 21
-0.1993573174924563
 31
0.0
 11
44.49404001631075
 21
-0.2344672099461036
 31
0.0
 11
44.49620746952871
 21
-0.2705379083872117
 31
0.0
  0
SPLINE
  5
176
330
2
100
AcDbEntity
  8
GAIKEI
  6
Continuous
 62
     1
100
AcDbSpline
210
0.0
220
0.0
230
1.0
 70
     8
 71
     3
 72
    35
 73
    31
 74
    29
 42
0.0000000001
 43
0.0000000001
 44
0.000001
 12
-0.0254197298119269
 22
0.9996768664605022
 32
0.0
 13
-0.555524397846804
 23
0.8315002365585627
 33
0.0
 40
0.0
 40
0.0
 40
0.0
 40
0.0
 40
0.0275806639849073
 40
0.0463466764000972
 40
0.0658667687191301
 40
0.0863243287775273
 40
0.107556179521046
 40
0.1301098550111812
 40
0.1534456693045686
 40
0.1777301339391415
 40
0.2027520453587402
 40
0.2283265340758608
 40
0.2545592826343661
 40
0.2816029609292953
 40
0.309234403936909
 40
0.3380150010157092
 40
0.3673196186614396
 40
0.3973079319911159
 40
0.4277336080971323
 40
0.4740829563056059
 40
0.5213227404662599
 40
0.5580878557223703
 40
0.5729895593536203
 40
0.5734845308519342
 40
0.579249939372056
 40
0.5800416187173556
 40
0.5816820830763396
 40
0.5817084320311905
 40
0.5819521501676825
 40
0.5831999734319623
 40
0.5831999734319623
 40
0.5831999734319623
 40
0.5831999734319623
 10
44.62839282590789
 20
0.535674788111578
 30
0.0
 10
44.6281591282324
 20
0.5448653720273527
 30
0.0
 10
44.62709762644396
 20
0.5603054493464441
 30
0.0
 10
44.62387102928315
 20
0.5820325632626151
 30
0.0
 10
44.62003950335474
 20
0.6012427453242424
 30
0.0
 10
44.61514088553758
 20
0.6210555748916562
 30
0.0
 10
44.60917431667295
 20
0.6416271191551175
 30
0.0
 10
44.6021710654266
 20
0.6628812450720716
 30
0.0
 10
44.59413748339665
 20
0.6848535584511098
 30
0.0
 10
44.58516911403168
 20
0.7073487859616279
 30
0.0
 10
44.57532933372246
 20
0.7302904113679958
 30
0.0
 10
44.56469324042632
 20
0.7535892256514245
 30
0.0
 10
44.55328517754679
 20
0.7772699019076655
 30
0.0
 10
44.54112587128264
 20
0.8013441938352343
 30
0.0
 10
44.52816294288311
 20
0.8259592897720864
 30
0.0
 10
44.5144553019602
 20
0.8510298728817886
 30
0.0
 10
44.5000031216569
 20
0.8765851219027638
 30
0.0
 10
44.48494109121159
 20
0.9024223773196311
 30
0.0
 10
44.46665057674926
 20
0.932951039385216
 30
0.0
 10
44.44491981142775
 20
0.9681187940221889
 30
0.0
 10
44.42155057404522
 20
1.004752330213108
 30
0.0
 10
44.40351175656002
 20
1.032349032612998
 30
0.0
 10
44.39390987104713
 20
1.046844607233623
 30
0.0
 10
44.3900041690446
 20
1.052718685938678
 30
0.0
 10
44.38870127884036
 20
1.054675266809098
 30
0.0
 10
44.38718503245849
 20
1.056948512858397
 30
0.0
 10
44.38673022673628
 20
1.05763022278063
 30
0.0
 10
44.38637623483507
 20
1.058159618456535
 30
0.0
 10
44.38609501215213
 20
1.05858022850974
 30
0.0
 10
44.38581874774183
 20
1.058993588406799
 30
0.0
 10
44.38558768231934
 20
1.059339443519945
 30
0.0
 11
44.62839282590789
 21
0.535674788111578
 31
0.0
 11
44.62646667397945
 21
0.5631884605932669
 31
0.0
 11
44.62375763248331
 21
0.5817578337731675
 31
0.0
 11
44.61995854633596
 21
0.6009046231437765
 31
0.0
 11
44.61507291860534
 21
0.6207702056374274
 31
0.0
 11
44.60917807870709
 21
0.6411673010831578
 31
0.0
 11
44.60213923653014
 21
0.6625944384341551
 31
0.0
 11
44.59414241555475
 21
0.6845172669422368
 31
0.0
 11
44.58516411874188
 21
0.7070810608660736
 31
0.0
 11
44.57531392553312
 21
0.7300825649755325
 31
0.0
 11
44.56470458334922
 21
0.7533526280053593
 31
0.0
 11
44.5533290793777
 21
0.7769906175796564
 31
0.0
 11
44.54114577097425
 21
0.8011345010420996
 31
0.0
 11
44.52827830151164
 21
0.8255869954646186
 31
0.0
 11
44.51447857685252
 21
0.8508434796714823
 31
0.0
 11
44.5000594395712
 21
0.8763552172126196
 31
0.0
 11
44.48496234643005
 21
0.9022661491616759
 31
0.0
 11
44.46933046175854
 21
0.9283691308460788
 31
0.0
 11
44.44498192929972
 21
0.9678078231416975
 31
0.0
 11
44.41958917875604
 21
1.007642542914197
 31
0.0
 11
44.39947887209479
 21
1.038419953287814
 31
0.0
 11
44.39124993824856
 21
1.050843534748651
 31
0.0
 11
44.39097588064578
 21
1.051255710883083
 31
0.0
 11
44.38778030168328
 21
1.056054481957175
 31
0.0
 11
44.38734101904162
 21
1.05671310688416
 31
0.0
 11
44.38643050433057
 21
1.058077466291535
 31
0.0
 11
44.38641588070561
 21
1.058099370343654
 31
0.0
 11
44.38628060606663
 21
1.058301978963413
 31
0.0
 11
44.38558768231934
 21
1.059339443519945
 31
0.0
  0
SPLINE
  5
177
330
2
100
AcDbEntity
  8
GAIKEI
  6
Continuous
 62
     1
100
AcDbSpline
210
0.0
220
0.0
230
1.0
 70
     8
 71
     3
 72
    13
 73
     9
 74
     7
 42
0.0000000001
 43
0.0000000001
 44
0.000001
 12
-0.1367026333584174
 22
0.9906121289550588
 32
0.0
 13
-0.1693098136655528
 23
0.9855628782561444
 33
0.0
 40
0.0
 40
0.0
 40
0.0
 40
0.0
 40
0.0167470476316635
 40
0.0333774141265641
 40
0.0502571988826622
 40
0.0667711969075428
 40
0.1235173939548199
 40
0.1402380169356289
 40
0.1402380169356289
 40
0.1402380169356289
 40
0.1402380169356289
 10
44.05325088210759
 20
32.09303787168096
 30
0.0
 10
44.05248776027017
 20
32.098567814517
 30
0.0
 10
44.05090105501076
 20
32.10958030878959
 30
0.0
 10
44.04828140020453
 20
32.12612698667591
 30
0.0
 10
44.04552688364819
 20
32.1425727850085
 30
0.0
 10
44.04006665020685
 20
32.17212265199217
 30
0.0
 10
44.03664628681823
 20
32.20195264976759
 30
0.0
 10
44.03222965767861
 20
32.22604308179122
 30
0.0
 10
44.03128600249153
 20
32.23153615689495
 30
0.0
 11
44.05325088210759
 21
32.09303787168096
 31
0.0
 11
44.05085597625475
 21
32.10961280304002
 31
0.0
 11
44.04826915682554
 21
32.12604074108572
 31
0.0
 11
44.04545872896102
 21
32.14268491087
 31
0.0
 11
44.04258672032205
 21
32.15894724548957
 31
0.0
 11
44.03415691935629
 21
32.21506384615191
 31
0.0
 11
44.03128600249153
 21
32.23153615689495
 31
0.0
  0
DIMENSION
  5
178
330
2
100
AcDbEntity
  8
SUNPO
100
AcDbDimension
  2
*D7
 10
28.78831800266516
 20
34.26210964799981
 30
0.0
 11
27.03831800266516
 21
16.16210964799982
 31
0.0
 70
    33
  1
724
 71
     5
 42
36.19999999999999
  3
STANDARD
100
AcDbAlignedDimension
 13
20.78831800266517
 23
-1.937890352000181
 33
0.0
 14
20.78831800266517
 24
34.26210964799981
 34
0.0
1001
ACAD
1000
DSTYLE
1002
{
1070
   287
1070
     3
1070
   287
1070
     3
1070
   287
1070
     3
1070
   287
1070
     3
1070
   287
1070
     3
1070
   287
1070
     3
1070
   287
1070
     3
1070
   287
1070
     3
1070
   287
1070
     3
1070
   287
1070
     3
1070
   287
1070
     3
1070
   287
1070
     3
1070
   287
1070
     3
1070
   287
1070
     3
1070
   287
1070
     3
1070
   287
1070
     3
1070
   287
1070
     3
1070
   287
1070
     3
1070
   287
1070
     3
1070
   287
1070
     3
1070
   287
1070
     3
1070
   287
1070
     3
1070
   287
1070
     3
1070
   287
1070
     3
1070
   287
1070
     3
1070
   287
1070
     3
1070
   287
1070
     3
1070
   287
1070
     3
1070
   287
1070
     3
1070
   287
1070
     3
1070
   287
1070
     3
1070
   287
1070
     3
1070
   287
1070
     3
1070
   287
1070
     3
1070
    40
1040
1.0
1070
   140
1040
2.5
1070
   147
1040
0.5
1070
   172
1070
     1
1070
   279
1070
     0
1002
}
  0
DIMENSION
  5
185
330
2
100
AcDbEntity
  8
SUNPO
100
AcDbDimension
  2
*D6
 10
20.77002022594306
 20
47.26183332878938
 30
0.0
 11
-14.72518377405698
 21
49.01183332878938
 31
0.0
 70
    32
  1
1427
 71
     5
 42
70.99040800000008
  3
STANDARD
100
AcDbAlignedDimension
 13
-50.22038777405703
 23
34.25085699233381
 33
0.0
 14
20.77002022594306
 24
34.23819573463618
 34
0.0
100
AcDbRotatedDimension
1001
ACAD
1000
DSTYLE
1002
{
1070
   287
1070
     3
1070
   287
1070
     3
1070
    40
1040
1.0
1070
   140
1040
2.5
1070
   147
1040
0.5
1070
   172
1070
     1
1070
   279
1070
     0
1070
   288
1070
     0
1002
}
  0
LINE
  5
192
330
2
100
AcDbEntity
  8
GAIKEI
  6
Continuous
 62
     7
100
AcDbLine
 10
-45.469191474057
 20
33.53701752285889
 30
0.0
 11
-45.469191474057
 21
-1.197430677141142
 31
0.0
  0
SPLINE
  5
193
330
2
100
AcDbEntity
  8
GAIKEI
  6
Continuous
 62
     7
100
AcDbSpline
210
0.0
220
0.0
230
1.0
 70
     8
 71
     3
 72
     9
 73
     5
 74
     0
 42
0.0000000001
 43
0.0000000001
 40
0.0
 40
0.0
 40
0.0
 40
0.0
 40
14.91719755737096
 40
30.09423971494808
 40
30.09423971494808
 40
30.09423971494808
 40
30.09423971494808
 10
-47.07966511780703
 20
-1.927093787688022
 30
0.0
 10
-46.83104520259113
 20
-1.927241825458168
 30
0.0
 10
-46.32947456787039
 20
-1.927439109227748
 30
0.0
 10
-45.82790390619751
 20
-1.927499464339746
 30
0.0
 10
-45.57495320374451
 20
-1.927508826750511
 30
0.0
  0
SPLINE
  5
194
330
2
100
AcDbEntity
  8
GAIKEI
  6
Continuous
 62
     7
100
AcDbSpline
210
0.0
220
0.0
230
1.0
 70
     8
 71
     3
 72
     9
 73
     5
 74
     0
 42
0.0000000001
 43
0.0000000001
 40
0.0
 40
0.0
 40
0.0
 40
0.0
 40
3.131012357143871
 40
6.214320535329698
 40
6.214320535329698
 40
6.214320535329698
 40
6.214320535329698
 10
-50.220387774057
 20
-1.720599647063011
 30
0.0
 10
-50.22031835584735
 20
-1.772783140176215
 30
0.0
 10
-50.17704088929528
 20
-1.880516867709161
 30
0.0
 10
-50.06943209342788
 20
-1.924623272669464
 30
0.0
 10
-50.01804402405705
 20
-1.924420447844227
 30
0.0
  0
SPLINE
  5
195
330
2
100
AcDbEntity
  8
GAIKEI
  6
Continuous
 62
     1
100
AcDbSpline
210
0.0
220
0.0
230
1.0
 70
     8
 71
     3
 72
     9
 73
     5
 74
     0
 42
0.0000000001
 43
0.0000000001
 40
0.0
 40
0.0
 40
0.0
 40
0.0
 40
0.0078534411293542
 40
0.0157394946032041
 40
0.0157394946032041
 40
0.0157394946032041
 40
0.0157394946032041
 10
-47.07888386780703
 20
-1.927008338469249
 30
0.0
 10
-47.07901163434499
 20
-1.927036765275488
 30
0.0
 10
-47.07927133018827
 20
-1.927078186058338
 30
0.0
 10
-47.07953369106602
 20
-1.927092385142771
 30
0.0
 10
-47.07966511780703
 20
-1.927093787688022
 30
0.0
  0
SPLINE
  5
196
330
2
100
AcDbEntity
  8
GAIKEI
  6
Continuous
 62
     7
100
AcDbSpline
210
0.0
220
0.0
230
1.0
 70
     8
 71
     3
 72
     9
 73
     5
 74
     0
 42
0.0000000001
 43
0.0000000001
 40
0.0
 40
0.0
 40
0.0
 40
0.0
 40
29.39737301754986
 40
58.7946987442469
 40
58.7946987442469
 40
58.7946987442469
 40
58.7946987442469
 10
-50.01939900452575
 20
-1.924701209563011
 30
0.0
 10
-49.52944327116424
 20
-1.925389601232154
 30
0.0
 10
-48.54953200184784
 20
-1.926345662605285
 30
0.0
 10
-47.56962048769307
 20
-1.92685356046303
 30
0.0
 10
-47.07966511780703
 20
-1.927093787688022
 30
0.0
  0
SPLINE
  5
197
330
2
100
AcDbEntity
  8
GAIKEI
  6
Continuous
 62
     1
100
AcDbSpline
210
0.0
220
0.0
230
1.0
 70
     8
 71
     3
 72
     9
 73
     5
 74
     0
 42
0.0000000001
 43
0.0000000001
 40
0.0
 40
0.0
 40
0.0
 40
0.0
 40
0.0137885163468726
 40
0.0277971563202312
 40
0.0277971563202312
 40
0.0277971563202312
 40
0.0277971563202312
 10
-50.01939900452575
 20
-1.924701209563011
 30
0.0
 10
-50.01916919859573
 20
-1.924700100599523
 30
0.0
 10
-50.01870522233409
 20
-1.924646198978336
 30
0.0
 10
-50.01826091661232
 20
-1.924506872866288
 30
0.0
 10
-50.01804402405705
 20
-1.924420447844227
 30
0.0
  0
SPLINE
  5
198
330
2
100
AcDbEntity
  8
GAIKEI
  6
Continuous
 62
     7
100
AcDbSpline
210
0.0
220
0.0
230
1.0
 70
     8
 71
     3
 72
     9
 73
     5
 74
     0
 42
0.0000000001
 43
0.0000000001
 40
0.0
 40
0.0
 40
0.0
 40
0.0
 40
2.608801521942092
 40
5.218901201754872
 40
5.218901201754872
 40
5.218901201754872
 40
5.218901201754872
 10
-45.37525837952578
 20
-1.727728553312999
 30
0.0
 10
-45.3752903376849
 20
-1.771208566933978
 30
0.0
 10
-45.40632739839961
 20
-1.86033320867034
 30
0.0
 10
-45.4856337154279
 20
-1.911532499214729
 30
0.0
 10
-45.52790730530702
 20
-1.921795936125477
 30
0.0
  0
LINE
  5
199
330
2
100
AcDbEntity
  8
GAIKEI
  6
Continuous
 62
     1
100
AcDbLine
 10
-45.37525845969343
 20
-1.727811856617734
 30
0.0
 11
-45.74531472405701
 21
-1.357391777141117
 31
0.0
  0
SPLINE
  5
19A
330
2
100
AcDbEntity
  8
GAIKEI
  6
Continuous
 62
     1
100
AcDbSpline
210
0.0
220
0.0
230
1.0
 70
     8
 71
     3
 72
     9
 73
     5
 74
     0
 42
0.0000000001
 43
0.0000000001
 40
0.0
 40
0.0
 40
0.0
 40
0.0
 40
3.00649021551401
 40
6.013928399846387
 40
6.013928399846387
 40
6.013928399846387
 40
6.013928399846387
 10
-45.94530232483825
 20
-1.557391639250511
 30
0.0
 10
-45.89547196098178
 20
-1.552122525037248
 30
0.0
 10
-45.7954357944495
 20
-1.507245835463891
 30
0.0
 10
-45.75058193142112
 20
-1.407242484788412
 30
0.0
 10
-45.74524128968201
 20
-1.357403846281727
 30
0.0
  0
LINE
  5
19B
330
2
100
AcDbEntity
  8
GAIKEI
  6
Continuous
 62
     1
100
AcDbLine
 10
-45.57488658336398
 20
-1.927447730139249
 30
0.0
 11
-45.94530837405701
 21
-1.557389677141145
 31
0.0
  0
SPLINE
  5
19C
330
2
100
AcDbEntity
  8
GAIKEI
  6
Continuous
 62
     1
100
AcDbSpline
210
0.0
220
0.0
230
1.0
 70
     8
 71
     3
 72
     9
 73
     5
 74
     0
 42
0.0000000001
 43
0.0000000001
 40
0.0
 40
0.0
 40
0.0
 40
0.0
 40
0.0029296476091856
 40
0.8659950720233828
 40
0.8659950720233828
 40
0.8659950720233828
 40
0.8659950720233828
 10
-45.71148884827576
 20
-1.791095252531761
 30
0.0
 10
-45.71144016675506
 20
-1.791099024852996
 30
0.0
 10
-45.69698477311582
 20
-1.790554056701637
 30
0.0
 10
-45.68286876313132
 20
-1.786940025483545
 30
0.0
 10
-45.66856892640075
 20
-1.785382361906727
 30
0.0
  0
LINE
  5
19D
330
2
100
AcDbEntity
  8
GAIKEI
  6
Continuous
 62
     1
100
AcDbLine
 10
-45.94530232405699
 20
-1.5573916271411
 30
0.0
 11
-49.70439657405703
 21
-1.5573916271411
 31
0.0
  0
LINE
  5
19E
330
2
100
AcDbEntity
  8
GAIKEI
  6
Continuous
 62
     1
100
AcDbLine
 10
-50.13797857405697
 20
-1.592041777141105
 30
0.0
 11
-49.90436047405703
 21
-1.357444377141121
 31
0.0
  0
SPLINE
  5
19F
330
2
100
AcDbEntity
  8
GAIKEI
  6
Continuous
 62
     1
100
AcDbSpline
210
0.0
220
0.0
230
1.0
 70
     8
 71
     3
 72
     9
 73
     5
 74
     0
 42
0.0000000001
 43
0.0000000001
 40
0.0
 40
0.0
 40
0.0
 40
0.0
 40
0.432326092216564
 40
0.8912202709941183
 40
0.8912202709941183
 40
0.8912202709941183
 40
0.8912202709941183
 10
-50.1321309381195
 20
-1.636224647062988
 30
0.0
 10
-50.13290341051774
 20
-1.629060739046849
 30
0.0
 10
-50.13456178409629
 20
-1.614299127054835
 30
0.0
 10
-50.13671946240506
 20
-1.599597366809064
 30
0.0
 10
-50.13801472718203
 20
-1.592059608000511
 30
0.0
  0
SPLINE
  5
1A0
330
2
100
AcDbEntity
  8
GAIKEI
  6
Continuous
 62
     1
100
AcDbSpline
210
0.0
220
0.0
230
1.0
 70
     8
 71
     3
 72
     9
 73
     5
 74
     0
 42
0.0000000001
 43
0.0000000001
 40
0.0
 40
0.0
 40
0.0
 40
0.0
 40
1.656235736553358
 40
4.523581821308481
 40
4.523581821308481
 40
4.523581821308481
 40
4.523581821308481
 10
-49.9810078912445
 20
-1.787726111906749
 30
0.0
 10
-50.00846227216439
 20
-1.784856641333249
 30
0.0
 10
-50.0827499688726
 20
-1.759306202297352
 30
0.0
 10
-50.12704356074201
 20
-1.683742189142094
 30
0.0
 10
-50.1321309381195
 20
-1.636224647062988
 30
0.0
  0
SPLINE
  5
1A1
330
2
100
AcDbEntity
  8
GAIKEI
  6
Continuous
 62
     1
100
AcDbSpline
210
0.0
220
0.0
230
1.0
 70
     8
 71
     3
 72
     9
 73
     5
 74
     0
 42
0.0000000001
 43
0.0000000001
 40
0.0
 40
0.0
 40
0.0
 40
0.0
 40
0.4082020433341026
 40
0.8156013125728581
 40
0.8156013125728581
 40
0.8156013125728581
 40
0.8156013125728581
 10
-49.94057820374454
 20
-1.793023963469238
 30
0.0
 10
-49.94728935725598
 20
-1.791907618373045
 30
0.0
 10
-49.96074666876054
 20
-1.789963214787064
 30
0.0
 10
-49.97425438795691
 20
-1.788429054257619
 30
0.0
 10
-49.9810078912445
 20
-1.787726111906749
 30
0.0
  0
LINE
  5
1A2
330
2
100
AcDbEntity
  8
GAIKEI
  6
Continuous
 62
     1
100
AcDbLine
 10
-49.70439652405699
 20
-1.557383027141099
 30
0.0
 11
-49.94068677405701
 21
-1.79300327714111
 31
0.0
  0
SPLINE
  5
1A3
330
2
100
AcDbEntity
  8
GAIKEI
  6
Continuous
 62
     1
100
AcDbSpline
210
0.0
220
0.0
230
1.0
 70
     8
 71
     3
 72
     9
 73
     5
 74
     0
 42
0.0000000001
 43
0.0000000001
 40
0.0
 40
0.0
 40
0.0
 40
0.0
 40
1.517294349229331
 40
5.91932657678531
 40
5.91932657678531
 40
5.91932657678531
 40
5.91932657678531
 10
-49.90435994202576
 20
-1.357440467375511
 30
0.0
 10
-49.90248296481334
 20
-1.382658952580698
 30
0.0
 10
-49.87639636542761
 20
-1.479652016876684
 30
0.0
 10
-49.77735402469519
 20
-1.549648552477265
 30
0.0
 10
-49.7043965631195
 20
-1.557391639250511
 30
0.0
  0
SPLINE
  5
1A4
330
2
100
AcDbEntity
  8
GAIKEI
  6
Continuous
 62
     1
100
AcDbSpline
210
0.0
220
0.0
230
1.0
 70
     8
 71
     3
 72
     9
 73
     5
 74
     0
 42
0.0000000001
 43
0.0000000001
 40
0.0
 40
0.0
 40
0.0
 40
0.0
 40
0.4323703203184989
 40
0.8655681094042307
 40
0.8655681094042307
 40
0.8655681094042307
 40
0.8655681094042307
 10
-45.51732380921325
 20
-1.634125037688022
 30
0.0
 10
-45.51654223685491
 20
-1.626961375243467
 30
0.0
 10
-45.51486376439808
 20
-1.612632261013175
 30
0.0
 10
-45.51279074022997
 20
-1.598352442819077
 30
0.0
 10
-45.51161091858827
 20
-1.591229529875477
 30
0.0
  0
SPLINE
  5
1A5
330
2
100
AcDbEntity
  8
GAIKEI
  6
Continuous
 62
     7
100
AcDbSpline
210
0.0
220
0.0
230
1.0
 70
     8
 71
     3
 72
     9
 73
     5
 74
     0
 42
0.0000000001
 43
0.0000000001
 40
0.0
 40
0.0
 40
0.0
 40
0.0
 40
0.4745863747763912
 40
0.9491031297469218
 40
0.9491031297469218
 40
0.9491031297469218
 40
0.9491031297469218
 10
-45.57494099671325
 20
-1.927447791594261
 30
0.0
 10
-45.56703122769855
 20
-1.927439938694703
 30
0.0
 10
-45.55120067513181
 20
-1.926478235664546
 30
0.0
 10
-45.53559187628477
 20
-1.923665032664814
 30
0.0
 10
-45.52790730530702
 20
-1.921795936125477
 30
0.0
  0
LINE
  5
1A6
330
2
100
AcDbEntity
  8
GAIKEI
  6
Continuous
 62
     7
100
AcDbLine
 10
-45.52790672405703
 20
-1.921794627141139
 30
0.0
 11
-45.52788212405701
 21
-1.921896227141132
 31
0.0
  0
SPLINE
  5
1A7
330
2
100
AcDbEntity
  8
GAIKEI
  6
Continuous
 62
     7
100
AcDbSpline
210
0.0
220
0.0
230
1.0
 70
     8
 71
     3
 72
     9
 73
     5
 74
     0
 42
0.0000000001
 43
0.0000000001
 40
0.0
 40
0.0
 40
0.0
 40
0.0
 40
0.000307133192375
 40
0.0012511406223669
 40
0.0012511406223669
 40
0.0012511406223669
 40
0.0012511406223669
 10
-45.57495320374451
 20
-1.927508826750511
 30
0.0
 10
-45.57494828152946
 20
-1.927510232025724
 30
0.0
 10
-45.57494741729866
 20
-1.927475444651349
 30
0.0
 10
-45.57494236651669
 20
-1.927463465308335
 30
0.0
 10
-45.57494099671325
 20
-1.927447791594261
 30
0.0
  0
SPLINE
  5
1A8
330
2
100
AcDbEntity
  8
GAIKEI
  6
Continuous
 62
     7
100
AcDbSpline
210
0.0
220
0.0
230
1.0
 70
     8
 71
     3
 72
     9
 73
     5
 74
     0
 42
0.0000000001
 43
0.0000000001
 40
0.0
 40
0.0
 40
0.0
 40
0.0
 40
29.39312756231776
 40
58.78322706070662
 40
58.78322706070662
 40
58.78322706070662
 40
58.78322706070662
 10
-47.07888386780703
 20
-1.927008338469249
 30
0.0
 10
-47.56876917728194
 20
-1.926625109123506
 30
0.0
 10
-48.54848946337639
 20
-1.926101891561984
 30
0.0
 10
-49.52820963874675
 20
-1.925191163417537
 30
0.0
 10
-50.01804402405705
 20
-1.924420447844227
 30
0.0
  0
SPLINE
  5
1A9
330
2
100
AcDbEntity
  8
GAIKEI
  6
Continuous
 62
     7
100
AcDbSpline
210
0.0
220
0.0
230
1.0
 70
     8
 71
     3
 72
     9
 73
     5
 74
     0
 42
0.0000000001
 43
0.0000000001
 40
0.0
 40
0.0
 40
0.0
 40
0.0
 40
15.17019098155854
 40
30.07885903948136
 40
30.07885903948136
 40
30.07885903948136
 40
30.07885903948136
 10
-45.57494099671325
 20
-1.927447791594261
 30
0.0
 10
-45.8277775128636
 20
-1.927437511394202
 30
0.0
 10
-46.32909183009163
 20
-1.927376474453581
 30
0.0
 10
-46.83040611736132
 20
-1.927166787340809
 30
0.0
 10
-47.07888386780703
 20
-1.927008338469249
 30
0.0
  0
LINE
  5
1AA
330
2
100
AcDbEntity
  8
GAIKEI
  6
Continuous
 62
     7
100
AcDbLine
 10
-45.45586933082279
 20
-1.655206577141143
 30
0.0
 11
-45.46919772405701
 21
-1.197429327141094
 31
0.0
  0
LINE
  5
1AB
330
2
100
AcDbEntity
  8
GAIKEI
  6
Continuous
 62
     1
100
AcDbLine
 10
-45.469191474057
 20
-1.197430677141142
 30
0.0
 11
-44.90738727405701
 21
-1.197430677141142
 31
0.0
  0
SPLINE
  5
1AC
330
2
100
AcDbEntity
  8
GAIKEI
  6
Continuous
 62
     1
100
AcDbSpline
210
0.0
220
0.0
230
1.0
 70
     8
 71
     3
 72
     9
 73
     5
 74
     0
 42
0.0000000001
 43
0.0000000001
 40
0.0
 40
0.0
 40
0.0
 40
0.0
 40
42.29127472562083
 40
84.58180013910597
 40
84.58180013910597
 40
84.58180013910597
 40
84.58180013910597
 10
-49.94057820374454
 20
-1.793023963469238
 30
0.0
 10
-49.23572399744191
 20
-1.792299355335501
 30
0.0
 10
-47.82602771570814
 20
-1.791167576478244
 30
0.0
 10
-46.41633091859731
 20
-1.790927749537104
 30
0.0
 10
-45.71148884827576
 20
-1.791095252531761
 30
0.0
  0
SPLINE
  5
1AD
330
2
100
AcDbEntity
  8
GAIKEI
  6
Continuous
 62
     1
100
AcDbSpline
210
0.0
220
0.0
230
1.0
 70
     8
 71
     3
 72
     9
 73
     5
 74
     0
 42
0.0000000001
 43
0.0000000001
 40
0.0
 40
0.0
 40
0.0
 40
0.0
 40
1.945368404595981
 40
4.533175250603751
 40
4.533175250603751
 40
4.533175250603751
 40
4.533175250603751
 10
-45.66856892640075
 20
-1.785382361906727
 30
0.0
 10
-45.6362298243811
 20
-1.783054084072489
 30
0.0
 10
-45.5619136544881
 20
-1.751353860219182
 30
0.0
 10
-45.52196056036521
 20
-1.677005187886493
 30
0.0
 10
-45.51732380921325
 20
-1.634125037688022
 30
0.0
  0
LINE
  5
1AE
330
2
100
AcDbEntity
  8
GAIKEI
  6
Continuous
 62
     7
100
AcDbLine
 10
-45.37525837405698
 20
-1.727728577141135
 30
0.0
 11
-45.37525837405698
 21
-1.655206577141143
 31
0.0
  0
LINE
  5
1AF
330
2
100
AcDbEntity
  8
GAIKEI
  6
Continuous
 62
     1
100
AcDbLine
 10
-45.37525837405698
 20
-1.727728577141135
 30
0.0
 11
-45.37519732405698
 21
-1.727728577141135
 31
0.0
  0
LINE
  5
1B0
330
2
100
AcDbEntity
  8
GAIKEI
  6
Continuous
 62
     1
100
AcDbLine
 10
-45.37519782405704
 20
-1.727725827141114
 30
0.0
 11
-45.37518562405702
 21
-1.727725827141114
 31
0.0
  0
LINE
  5
1B1
330
2
100
AcDbEntity
  8
GAIKEI
  6
Continuous
 62
     1
100
AcDbLine
 10
-50.220387774057
 20
-1.720599627141154
 30
0.0
 11
-50.220448824057
 21
-1.720599627141154
 31
0.0
  0
SPLINE
  5
1B2
330
2
100
AcDbEntity
  8
GAIKEI
  6
Continuous
 62
     7
100
AcDbSpline
210
0.0
220
0.0
230
1.0
 70
     8
 71
     3
 72
     9
 73
     5
 74
     0
 42
0.0000000001
 43
0.0000000001
 40
0.0
 40
0.0
 40
0.0
 40
0.0
 40
15.17688766217361
 40
30.09423971492175
 40
30.09423971492175
 40
30.09423971492175
 40
30.09423971492175
 10
-45.57495320374451
 20
34.26710787246822
 30
0.0
 10
-45.82790133129654
 20
34.26709913634812
 30
0.0
 10
-46.32947199312761
 20
34.26703816522485
 30
0.0
 10
-46.83104262728707
 20
34.26684023042623
 30
0.0
 10
-47.07966511780703
 20
34.26669283340578
 30
0.0
  0
SPLINE
  5
1B3
330
2
100
AcDbEntity
  8
GAIKEI
  6
Continuous
 62
     7
100
AcDbSpline
210
0.0
220
0.0
230
1.0
 70
     8
 71
     3
 72
    10
 73
     6
 74
     0
 42
0.0000000001
 43
0.0000000001
 40
0.0
 40
0.0
 40
0.0
 40
0.0
 40
0.2724492370619989
 40
0.9948730228349431
 40
6.021982962936184
 40
6.021982962936184
 40
6.021982962936184
 40
6.021982962936184
 10
-50.02469685608829
 20
34.27633638809329
 30
0.0
 10
-50.0240819039254
 20
34.2718374009051
 30
0.0
 10
-50.03445854106636
 20
34.25457789854426
 30
0.0
 10
-50.14731185792496
 20
34.27716165213514
 30
0.0
 10
-50.22098206483665
 20
34.14398223826817
 30
0.0
 10
-50.22046101624451
 20
34.06019869278072
 30
0.0
  0
SPLINE
  5
1B4
330
2
100
AcDbEntity
  8
GAIKEI
  6
Continuous
 62
     1
100
AcDbSpline
210
0.0
220
0.0
230
1.0
 70
     8
 71
     3
 72
     9
 73
     5
 74
     0
 42
0.0000000001
 43
0.0000000001
 40
0.0
 40
0.0
 40
0.0
 40
0.0
 40
0.0078759195154627
 40
0.0157679125147925
 40
0.0157679125147925
 40
0.0157679125147925
 40
0.0157679125147925
 10
-47.07888386780703
 20
34.26659517715575
 30
0.0
 10
-47.07901200004275
 20
34.26662368532618
 30
0.0
 10
-47.0792708397677
 20
34.26667108573457
 30
0.0
 10
-47.07953359207957
 20
34.26669142980415
 30
0.0
 10
-47.07966511780703
 20
34.26669283340578
 30
0.0
  0
SPLINE
  5
1B5
330
2
100
AcDbEntity
  8
GAIKEI
  6
Continuous
 62
     7
100
AcDbSpline
210
0.0
220
0.0
230
1.0
 70
     8
 71
     3
 72
     9
 73
     5
 74
     0
 42
0.0000000001
 43
0.0000000001
 40
0.0
 40
0.0
 40
0.0
 40
0.0
 40
29.41054305853916
 40
58.9011871801054
 40
58.9011871801054
 40
58.9011871801054
 40
58.9011871801054
 10
-47.07966511780703
 20
34.26669283340578
 30
0.0
 10
-47.56984078041719
 20
34.26646056017649
 30
0.0
 10
-48.55152639959905
 20
34.26594066630395
 30
0.0
 10
-49.5332150186255
 20
34.27100662095103
 30
0.0
 10
-50.02469685608829
 20
34.27633638809329
 30
0.0
  0
SPLINE
  5
1B6
330
2
100
AcDbEntity
  8
GAIKEI
  6
Continuous
 62
     7
100
AcDbSpline
210
0.0
220
0.0
230
1.0
 70
     8
 71
     3
 72
     9
 73
     5
 74
     0
 42
0.0000000001
 43
0.0000000001
 40
0.0
 40
0.0
 40
0.0
 40
0.0
 40
2.608801521942092
 40
5.218901201754872
 40
5.218901201754872
 40
5.218901201754872
 40
5.218901201754872
 10
-45.37525837952578
 20
34.0673153919995
 30
0.0
 10
-45.3752903376849
 20
34.11079540562042
 30
0.0
 10
-45.40632739839961
 20
34.19992004735679
 30
0.0
 10
-45.4856337154279
 20
34.25111933790123
 30
0.0
 10
-45.52790730530702
 20
34.26138277481204
 30
0.0
  0
LINE
  5
1B7
330
2
100
AcDbEntity
  8
GAIKEI
  6
Continuous
 62
     1
100
AcDbLine
 10
-45.74531022405702
 20
33.69700887285887
 30
0.0
 11
-45.3752584919942
 21
34.06742433640346
 31
0.0
  0
SPLINE
  5
1B8
330
2
100
AcDbEntity
  8
GAIKEI
  6
Continuous
 62
     1
100
AcDbSpline
210
0.0
220
0.0
230
1.0
 70
     8
 71
     3
 72
     9
 73
     5
 74
     0
 42
0.0000000001
 43
0.0000000001
 40
0.0
 40
0.0
 40
0.0
 40
0.0
 40
3.00649021551401
 40
6.013928399846387
 40
6.013928399846387
 40
6.013928399846387
 40
6.013928399846387
 10
-45.94530232483825
 20
33.89699068496822
 30
0.0
 10
-45.89547196098178
 20
33.89172157075496
 30
0.0
 10
-45.7954357944495
 20
33.84684488118165
 30
0.0
 10
-45.75058193142112
 20
33.74684153050618
 30
0.0
 10
-45.74524128968201
 20
33.69700289199949
 30
0.0
  0
LINE
  5
1B9
330
2
100
AcDbEntity
  8
GAIKEI
  6
Continuous
 62
     1
100
AcDbLine
 10
-45.57488231878821
 20
34.26704677035184
 30
0.0
 11
-45.94530327405701
 21
33.89698947285888
 31
0.0
  0
SPLINE
  5
1BA
330
2
100
AcDbEntity
  8
GAIKEI
  6
Continuous
 62
     1
100
AcDbSpline
210
0.0
220
0.0
230
1.0
 70
     8
 71
     3
 72
     9
 73
     5
 74
     0
 42
0.0000000001
 43
0.0000000001
 40
0.0
 40
0.0
 40
0.0
 40
0.0
 40
0.0029398165566283
 40
0.8660048802469422
 40
0.8660048802469422
 40
0.8660048802469422
 40
0.8660048802469422
 10
-45.71148884827576
 20
34.13068209121826
 30
0.0
 10
-45.71143999777919
 20
34.13068587663344
 30
0.0
 10
-45.69705886361711
 20
34.1319301976651
 30
0.0
 10
-45.68286875715457
 20
34.12653907055022
 30
0.0
 10
-45.66856892640075
 20
34.12498140762449
 30
0.0
  0
LINE
  5
1BB
330
2
100
AcDbEntity
  8
GAIKEI
  6
Continuous
 62
     1
100
AcDbLine
 10
-45.94530232405699
 20
33.89697847285885
 30
0.0
 11
-49.70439657405703
 21
33.89697847285885
 31
0.0
  0
LINE
  5
1BC
330
2
100
AcDbEntity
  8
GAIKEI
  6
Continuous
 62
     1
100
AcDbLine
 10
-50.13797942405702
 20
33.93164532285886
 30
0.0
 11
-49.90436132405702
 21
33.69704792285887
 31
0.0
  0
SPLINE
  5
1BD
330
2
100
AcDbEntity
  8
GAIKEI
  6
Continuous
 62
     1
100
AcDbSpline
210
0.0
220
0.0
230
1.0
 70
     8
 71
     3
 72
     9
 73
     5
 74
     0
 42
0.0000000001
 43
0.0000000001
 40
0.0
 40
0.0
 40
0.0
 40
0.0
 40
0.4322048384549121
 40
0.8909782849838181
 40
0.8909782849838181
 40
0.8909782849838181
 40
0.8909782849838181
 10
-50.1321309381195
 20
33.97581148574949
 30
0.0
 10
-50.13290319386371
 20
33.9686495869824
 30
0.0
 10
-50.13456177160581
 20
33.9538920455268
 30
0.0
 10
-50.13671980318131
 20
33.93919442938864
 30
0.0
 10
-50.13801472718203
 20
33.93165865371822
 30
0.0
  0
SPLINE
  5
1BE
330
2
100
AcDbEntity
  8
GAIKEI
  6
Continuous
 62
     1
100
AcDbSpline
210
0.0
220
0.0
230
1.0
 70
     8
 71
     3
 72
     9
 73
     5
 74
     0
 42
0.0000000001
 43
0.0000000001
 40
0.0
 40
0.0
 40
0.0
 40
0.0
 40
1.656235735949052
 40
4.523791651747365
 40
4.523791651747365
 40
4.523791651747365
 40
4.523791651747365
 10
-49.9810078912445
 20
34.12732515762451
 30
0.0
 10
-50.00846227215439
 20
34.12445568705204
 30
0.0
 10
-50.08275470894412
 20
34.09890455937676
 30
0.0
 10
-50.12704318845013
 20
34.0233325051401
 30
0.0
 10
-50.1321309381195
 20
33.97581148574949
 30
0.0
  0
SPLINE
  5
1BF
330
2
100
AcDbEntity
  8
GAIKEI
  6
Continuous
 62
     1
100
AcDbSpline
210
0.0
220
0.0
230
1.0
 70
     8
 71
     3
 72
     9
 73
     5
 74
     0
 42
0.0000000001
 43
0.0000000001
 40
0.0
 40
0.0
 40
0.0
 40
0.0
 40
0.4081843447942165
 40
0.8155696340608679
 40
0.8155696340608679
 40
0.8155696340608679
 40
0.8155696340608679
 10
-49.94057820374454
 20
34.13261080215574
 30
0.0
 10
-49.9472890662785
 20
34.13149450546126
 30
0.0
 10
-49.96074681894012
 20
34.12955612090343
 30
0.0
 10
-49.97425461970445
 20
34.12802807585376
 30
0.0
 10
-49.9810078912445
 20
34.12732515762451
 30
0.0
  0
LINE
  5
1C0
330
2
100
AcDbEntity
  8
GAIKEI
  6
Continuous
 62
     1
100
AcDbLine
 10
-49.704389024057
 20
33.8969950228589
 30
0.0
 11
-49.94067922405699
 21
34.13261522285888
 31
0.0
  0
SPLINE
  5
1C1
330
2
100
AcDbEntity
  8
GAIKEI
  6
Continuous
 62
     1
100
AcDbSpline
210
0.0
220
0.0
230
1.0
 70
     8
 71
     3
 72
     9
 73
     5
 74
     0
 42
0.0000000001
 43
0.0000000001
 40
0.0
 40
0.0
 40
0.0
 40
0.0
 40
1.517294350060504
 40
5.919467210682682
 40
5.919467210682682
 40
5.919467210682682
 40
5.919467210682682
 10
-49.90435994202576
 20
33.69702730606201
 30
0.0
 10
-49.90248296481232
 20
33.72224579128101
 30
0.0
 10
-49.87639453294931
 20
33.81923967210941
 30
0.0
 10
-49.7773563554895
 20
33.88924735082429
 30
0.0
 10
-49.7043965631195
 20
33.89699068496822
 30
0.0
  0
SPLINE
  5
1C2
330
2
100
AcDbEntity
  8
GAIKEI
  6
Continuous
 62
     1
100
AcDbSpline
210
0.0
220
0.0
230
1.0
 70
     8
 71
     3
 72
     9
 73
     5
 74
     0
 42
0.0000000001
 43
0.0000000001
 40
0.0
 40
0.0
 40
0.0
 40
0.0
 40
0.4322491288119172
 40
0.8653261276181417
 40
0.8653261276181417
 40
0.8653261276181417
 40
0.8653261276181417
 10
-45.51732380921325
 20
33.97371187637447
 30
0.0
 10
-45.51654245592621
 20
33.96655022187321
 30
0.0
 10
-45.51486381102498
 20
33.9522251776537
 30
0.0
 10
-45.51279041125562
 20
33.93794950242642
 30
0.0
 10
-45.51161091858827
 20
33.93082857559324
 30
0.0
  0
SPLINE
  5
1C3
330
2
100
AcDbEntity
  8
GAIKEI
  6
Continuous
 62
     7
100
AcDbSpline
210
0.0
220
0.0
230
1.0
 70
     8
 71
     3
 72
     9
 73
     5
 74
     0
 42
0.0000000001
 43
0.0000000001
 40
0.0
 40
0.0
 40
0.0
 40
0.0
 40
0.4745936221338634
 40
0.9491322391598641
 40
0.9491322391598641
 40
0.9491322391598641
 40
0.9491322391598641
 10
-45.57494099671325
 20
34.26704683731197
 30
0.0
 10
-45.56703110690929
 20
34.26703898429253
 30
0.0
 10
-45.55120008797851
 20
34.26607107963036
 30
0.0
 10
-45.53559223033025
 20
34.26325195746477
 30
0.0
 10
-45.52790730530702
 20
34.26138277481204
 30
0.0
  0
LINE
  5
1C4
330
2
100
AcDbEntity
  8
GAIKEI
  6
Continuous
 62
     7
100
AcDbLine
 10
-45.52791147405699
 20
34.26139517285884
 30
0.0
 11
-45.52788847405699
 21
34.26149007285886
 31
0.0
  0
SPLINE
  5
1C5
330
2
100
AcDbEntity
  8
GAIKEI
  6
Continuous
 62
     7
100
AcDbSpline
210
0.0
220
0.0
230
1.0
 70
     8
 71
     3
 72
     9
 73
     5
 74
     0
 42
0.0000000001
 43
0.0000000001
 40
0.0
 40
0.0
 40
0.0
 40
0.0
 40
0.000307133192375
 40
0.0012511406223669
 40
0.0012511406223669
 40
0.0012511406223669
 40
0.0012511406223669
 10
-45.57495320374451
 20
34.26710787246822
 30
0.0
 10
-45.57494828152946
 20
34.26710927774349
 30
0.0
 10
-45.57494741729866
 20
34.26707449036911
 30
0.0
 10
-45.57494236651669
 20
34.26706251102604
 30
0.0
 10
-45.57494099671325
 20
34.26704683731197
 30
0.0
  0
SPLINE
  5
1C6
330
2
100
AcDbEntity
  8
GAIKEI
  6
Continuous
 62
     7
100
AcDbSpline
210
0.0
220
0.0
230
1.0
 70
     8
 71
     3
 72
     9
 73
     5
 74
     0
 42
0.0000000001
 43
0.0000000001
 40
0.0
 40
0.0
 40
0.0
 40
0.0
 40
15.17019099972979
 40
30.07885911212641
 40
30.07885911212641
 40
30.07885911212641
 40
30.07885911212641
 10
-45.57494099671325
 20
34.26704683731197
 30
0.0
 10
-45.82777751316641
 20
34.26703655711191
 30
0.0
 10
-46.3290918316392
 20
34.26696952279804
 30
0.0
 10
-46.83040611645341
 20
34.26675362602788
 30
0.0
 10
-47.07888386780703
 20
34.26659517715575
 30
0.0
  0
LINE
  5
1C7
330
2
100
AcDbEntity
  8
GAIKEI
  6
Continuous
 62
     7
100
AcDbLine
 10
-45.45586983272687
 20
33.99479342285895
 30
0.0
 11
-45.46919812405699
 21
33.53701967285889
 31
0.0
  0
LINE
  5
1C8
330
2
100
AcDbEntity
  8
GAIKEI
  6
Continuous
 62
     1
100
AcDbLine
 10
-44.90581257405702
 20
33.53701752285889
 30
0.0
 11
-45.469191474057
 21
33.53701752285889
 31
0.0
  0
SPLINE
  5
1C9
330
2
100
AcDbEntity
  8
GAIKEI
  6
Continuous
 62
     1
100
AcDbSpline
210
0.0
220
0.0
230
1.0
 70
     8
 71
     3
 72
     9
 73
     5
 74
     0
 42
0.0000000001
 43
0.0000000001
 40
0.0
 40
0.0
 40
0.0
 40
0.0
 40
42.29127472562083
 40
84.58180013910597
 40
84.58180013910597
 40
84.58180013910597
 40
84.58180013910597
 10
-49.94057820374454
 20
34.13261080215574
 30
0.0
 10
-49.23572399744191
 20
34.131886194022
 30
0.0
 10
-47.82602771570819
 20
34.13075441516475
 30
0.0
 10
-46.41633091859731
 20
34.13051458822366
 30
0.0
 10
-45.71148884827576
 20
34.13068209121826
 30
0.0
  0
SPLINE
  5
1CA
330
2
100
AcDbEntity
  8
GAIKEI
  6
Continuous
 62
     1
100
AcDbSpline
210
0.0
220
0.0
230
1.0
 70
     8
 71
     3
 72
     9
 73
     5
 74
     0
 42
0.0000000001
 43
0.0000000001
 40
0.0
 40
0.0
 40
0.0
 40
0.0
 40
1.945462263820249
 40
4.533269112037771
 40
4.533269112037771
 40
4.533269112037771
 40
4.533269112037771
 10
-45.66856892640075
 20
34.12498140762449
 30
0.0
 10
-45.63622826409923
 20
34.12265301745657
 30
0.0
 10
-45.56191756629826
 20
34.09093506742988
 30
0.0
 10
-45.52196056036919
 20
34.0165920266096
 30
0.0
 10
-45.51732380921325
 20
33.97371187637447
 30
0.0
  0
LINE
  5
1CB
330
2
100
AcDbEntity
  8
GAIKEI
  6
Continuous
 62
     7
100
AcDbLine
 10
-45.37525837405698
 20
33.99479342285889
 30
0.0
 11
-45.37525837405698
 21
34.0673153728589
 31
0.0
  0
LINE
  5
1CC
330
2
100
AcDbEntity
  8
GAIKEI
  6
Continuous
 62
     1
100
AcDbLine
 10
-45.37525837405698
 20
34.0673153728589
 30
0.0
 11
-45.37519732405698
 21
34.0673153728589
 31
0.0
  0
LINE
  5
1CD
330
2
100
AcDbEntity
  8
GAIKEI
  6
Continuous
 62
     1
100
AcDbLine
 10
-45.74531452405702
 20
33.69699067285888
 30
0.0
 11
-45.74531452405702
 21
-1.357403827141126
 31
0.0
  0
LINE
  5
1CE
330
2
100
AcDbEntity
  8
GAIKEI
  6
Continuous
 62
     7
100
AcDbLine
 10
-50.220387774057
 20
34.06019867285886
 30
0.0
 11
-50.220387774057
 21
-1.720599627141154
 31
0.0
  0
LINE
  5
1CF
330
2
100
AcDbEntity
  8
GAIKEI
  6
Continuous
 62
     7
100
AcDbLine
 10
-50.220387774057
 20
34.06019867285886
 30
0.0
 11
-50.220448824057
 21
34.06019867285886
 31
0.0
  0
LINE
  5
1D0
330
2
100
AcDbEntity
  8
GAIKEI
  6
Continuous
 62
     1
100
AcDbLine
 10
-49.90435992405699
 20
33.6970273228589
 30
0.0
 11
-49.90435992405699
 21
-1.357428277141139
 31
0.0
  0
LINE
  5
1D1
330
2
100
AcDbEntity
  8
GAIKEI
  6
Continuous
 62
     1
100
AcDbLine
 10
-50.13805132405699
 20
33.93165867285887
 30
0.0
 11
-50.13805132405699
 21
-1.592059627141111
 31
0.0
  0
LINE
  5
1D2
330
2
100
AcDbEntity
  8
GAIKEI
  6
Continuous
 62
     1
100
AcDbLine
 10
-45.51162312405702
 20
33.93082857285885
 30
0.0
 11
-45.51162312405702
 21
-1.591229527141138
 31
0.0
  0
LINE
  5
1D3
330
2
100
AcDbEntity
  8
GAIKEI
  6
Continuous
 62
     7
100
AcDbLine
 10
-44.91892413620689
 20
33.99479342285889
 30
0.0
 11
-44.905822074057
 21
33.54479012285884
 31
0.0
  0
LINE
  5
1D4
330
2
100
AcDbEntity
  8
GAIKEI
  6
Continuous
 62
     7
100
AcDbLine
 10
-44.90582282405703
 20
-1.205199777141103
 30
0.0
 11
-44.91892493811081
 21
-1.655206577141143
 31
0.0
  0
LINE
  5
1D5
330
2
100
AcDbEntity
  8
GAIKEI
  6
Continuous
 62
     7
100
AcDbLine
 10
-44.90581257405702
 20
-1.205206577141098
 30
0.0
 11
-44.90581257405702
 21
33.54479342285884
 31
0.0
  0
LINE
  5
1D6
330
2
100
AcDbEntity
  8
GAIKEI
  6
Continuous
 62
     7
100
AcDbLine
 10
-44.91892413620689
 20
33.99479342285889
 30
0.0
 11
-45.45586983272687
 21
33.99479342285895
 31
0.0
  0
LINE
  5
1D7
330
2
100
AcDbEntity
  8
GAIKEI
  6
Continuous
 62
     7
100
AcDbLine
 10
-44.91892493811081
 20
-1.655206577141143
 30
0.0
 11
-45.45586933082279
 21
-1.655206577141143
 31
0.0
  0
LINE
  5
1D8
330
2
100
AcDbEntity
  8
GAIKEI
  6
Continuous
 62
     1
100
AcDbLine
 10
-44.918922924057
 20
-1.655206577141143
 30
0.0
 11
-44.937257874057
 21
-1.655206577141143
 31
0.0
  0
LINE
  5
1D9
330
2
100
AcDbEntity
  8
GAIKEI
  6
Continuous
 62
     7
100
AcDbLine
 10
-44.97518377405699
 20
-1.655206577141086
 30
0.0
 11
-44.97518377405699
 21
-1.73047457714108
 31
0.0
  0
LINE
  5
1DA
330
2
100
AcDbEntity
  8
GAIKEI
  6
Continuous
 62
     1
100
AcDbLine
 10
-44.61295457405699
 20
33.70983122285884
 30
0.0
 11
-44.61295457405699
 21
-1.370232227141173
 31
0.0
  0
LINE
  5
1DB
330
2
100
AcDbEntity
  8
GAIKEI
  6
Continuous
 62
     1
100
AcDbLine
 10
-44.61295457405699
 20
-1.370232227141173
 30
0.0
 11
-44.83978357405701
 21
-1.597061227141125
 31
0.0
  0
LINE
  5
1DC
330
2
100
AcDbEntity
  8
GAIKEI
  6
Continuous
 62
     1
100
AcDbLine
 10
-44.64204452405701
 20
-1.79480032714116
 30
0.0
 11
-44.41521547405701
 21
-1.567971277141111
 31
0.0
  0
LINE
  5
1DD
330
2
100
AcDbEntity
  8
GAIKEI
  6
Continuous
 62
     1
100
AcDbLine
 10
-44.41521547405701
 20
33.90757032285887
 30
0.0
 11
-44.64204452405701
 21
34.13439932285888
 31
0.0
  0
LINE
  5
1DE
330
2
100
AcDbEntity
  8
GAIKEI
  6
Continuous
 62
     1
100
AcDbLine
 10
-44.83978357405701
 20
33.93666027285883
 30
0.0
 11
-44.61295457405699
 21
33.70983122285884
 31
0.0
  0
LINE
  5
1DF
330
2
100
AcDbEntity
  8
GAIKEI
  6
Continuous
 62
     1
100
AcDbLine
 10
-44.83978357405701
 20
-1.597061227141125
 30
0.0
 11
-44.83978357405701
 21
33.93666027285883
 31
0.0
  0
LINE
  5
1E0
330
2
100
AcDbEntity
  8
GAIKEI
  6
Continuous
 62
     1
100
AcDbLine
 10
-44.97518377405699
 20
34.0700736228589
 30
0.0
 11
-44.83978357405701
 21
33.93467342285897
 31
0.0
  0
LINE
  5
1E1
330
2
100
AcDbEntity
  8
GAIKEI
  6
Continuous
 62
     1
100
AcDbLine
 10
-44.64005763324922
 20
34.13439934785885
 30
0.0
 11
-44.77545787405702
 21
34.26979952285888
 31
0.0
  0
LINE
  5
1E2
330
2
100
AcDbEntity
  8
GAIKEI
  6
Continuous
 62
     1
100
AcDbLine
 10
-44.77545787405702
 20
-1.930200477141113
 30
0.0
 11
-44.64005768324932
 21
-1.794800352141123
 31
0.0
  0
LINE
  5
1E3
330
2
100
AcDbEntity
  8
GAIKEI
  6
Continuous
 62
     1
100
AcDbLine
 10
-44.83978357405701
 20
-1.595074266394419
 30
0.0
 11
-44.97518377443538
 21
-1.730474927812451
 31
0.0
  0
LINE
  5
1E4
330
2
100
AcDbEntity
  8
GAIKEI
  6
Continuous
 62
     7
100
AcDbLine
 10
-44.97518377405699
 20
34.0700736228589
 30
0.0
 11
-44.97518377405699
 21
33.99479342285889
 31
0.0
  0
ELLIPSE
  5
1E5
330
2
100
AcDbEntity
  8
GAIKEI
  6
Continuous
 62
     1
100
AcDbEllipse
 10
-44.05370332405701
 20
-1.008720027141123
 30
0.0
 11
0.502196524369623
 21
0.502196524369623
 31
0.0
210
0.0
220
0.0
230
-1.0
 40
0.4928099999998565
 41
2.730628648546518
 42
3.552556658633039
  0
ELLIPSE
  5
1E6
330
2
100
AcDbEntity
  8
GAIKEI
  6
Continuous
 62
     1
100
AcDbEllipse
 10
-44.05370332405701
 20
33.34831907285883
 30
0.0
 11
-0.502196524369623
 21
0.502196524369623
 31
0.0
210
0.0
220
0.0
230
-1.0
 40
0.4928099999999944
 41
5.872221302136416
 42
6.694149312222723
  0
ELLIPSE
  5
1E7
330
2
100
AcDbEntity
  8
GAIKEI
  6
Continuous
 62
     7
100
AcDbEllipse
 10
-44.77490927405702
 20
34.0695250228589
 30
0.0
 11
-0.1418092486869966
 21
0.1418092486869966
 31
0.0
210
0.0
220
0.0
230
-1.0
 40
0.9972650000003218
 41
5.499156671652783
 42
7.067213942706318
  0
ELLIPSE
  5
1E8
330
2
100
AcDbEntity
  8
GAIKEI
  6
Continuous
 62
     7
100
AcDbEllipse
 10
-44.77490927405702
 20
-1.729926027141118
 30
0.0
 11
0.1418092486870215
 21
0.1418092486870215
 31
0.0
210
0.0
220
0.0
230
-1.0
 40
0.9972649999999706
 41
2.357564018062885
 42
3.925621289116736
  0
SPLINE
  5
1E9
330
2
100
AcDbEntity
  8
GAIKEI
  6
Continuous
 62
     1
100
AcDbSpline
210
0.0
220
0.0
230
1.0
 70
     8
 71
     3
 72
    19
 73
    15
 74
    13
 42
0.0000000001
 43
0.0000000001
 44
0.000001
 12
0.0752275696311223
 22
-0.997166391715743
 32
0.0
 13
0.9971651028730411
 23
-0.075244651718227
 33
0.0
 40
0.0
 40
0.0
 40
0.0
 40
0.0
 40
0.0307154355883356
 40
0.0474030577480272
 40
0.065172507741036
 40
0.09077159015165
 40
0.1187843457784919
 40
0.1493748434985914
 40
0.1799684721587743
 40
0.2079831863822805
 40
0.2335829247320371
 40
0.251351949162842
 40
0.2680383245397899
 40
0.2987487388429288
 40
0.2987487388429288
 40
0.2987487388429288
 40
0.2987487388429288
 10
-44.83978359268578
 20
-1.597061252127446
 30
0.0
 10
-44.83901337682931
 20
-1.607270718819314
 30
0.0
 10
-44.8362917069694
 20
-1.622981343370746
 30
0.0
 10
-44.82916103710212
 20
-1.643532666908221
 30
0.0
 10
-44.82084462028504
 20
-1.661773499859364
 30
0.0
 10
-44.80870607381499
 20
-1.682301416619168
 30
0.0
 10
-44.7918685542424
 20
-1.704818951426233
 30
0.0
 10
-44.771764717591
 20
-1.726782950465349
 30
0.0
 10
-44.74979886360498
 20
-1.746885706383785
 30
0.0
 10
-44.72727916803878
 20
-1.763723491834113
 30
0.0
 10
-44.70675043445351
 20
-1.775862059905634
 30
0.0
 10
-44.68850992526362
 20
-1.78417834250024
 30
0.0
 10
-44.66796081588381
 20
-1.791308578585493
 30
0.0
 10
-44.65225230602911
 20
-1.794030058454076
 30
0.0
 10
-44.64204452154982
 20
-1.79480032326353
 30
0.0
 11
-44.83978359268578
 21
-1.597061252127446
 31
0.0
 11
-44.83445043202678
 21
-1.62731024671973
 31
0.0
 11
-44.82904353418419
 21
-1.643097465273342
 31
0.0
 11
-44.82169802815948
 21
-1.659277473264296
 31
0.0
 11
-44.80875001971376
 21
-1.681360385200491
 31
0.0
 11
-44.79204280367807
 21
-1.703845398647786
 31
0.0
 11
-44.77144552132867
 21
-1.726462251906355
 31
0.0
 11
-44.74882506998116
 21
-1.747060233249783
 31
0.0
 11
-44.72633781359187
 21
-1.7637677146202
 31
0.0
 11
-44.70425410846601
 21
-1.776715667200619
 31
0.0
 11
-44.68807448652277
 21
-1.784060994274284
 31
0.0
 11
-44.6722885033873
 21
-1.789467651775453
 31
0.0
 11
-44.64204452154982
 21
-1.79480032326353
 31
0.0
  0
SPLINE
  5
1EA
330
2
100
AcDbEntity
  8
GAIKEI
  6
Continuous
 62
     1
100
AcDbSpline
210
0.0
220
0.0
230
1.0
 70
     8
 71
     3
 72
    19
 73
    15
 74
    13
 42
0.0000000001
 43
0.0000000001
 44
0.000001
 12
-0.9971663916999085
 22
-0.0752275698410131
 32
0.0
 13
-0.0752446515490343
 23
-0.9971651028858081
 33
0.0
 40
0.0
 40
0.0
 40
0.0
 40
0.0
 40
0.0307154356042622
 40
0.047403057768145
 40
0.0651725077625378
 40
0.0907715901708528
 40
0.1187843457902544
 40
0.1493748434977984
 40
0.1799684721688314
 40
0.2079831863987802
 40
0.2335829247505551
 40
0.2513519491801077
 40
0.2680383245533526
 40
0.2987487388425655
 40
0.2987487388425655
 40
0.2987487388425655
 40
0.2987487388425655
 10
-44.64204452154976
 20
34.13439934120635
 30
0.0
 10
-44.65225398824677
 20
34.13362912534732
 30
0.0
 10
-44.66796461280426
 20
34.13090745548363
 30
0.0
 10
-44.68851593634804
 20
34.12377678561288
 30
0.0
 10
-44.70675676930002
 20
34.11546036879491
 30
0.0
 10
-44.72728468605715
 20
34.10332182232583
 30
0.0
 10
-44.74980222085767
 20
34.08648430275689
 30
0.0
 10
-44.77176621989321
 20
34.06638046610607
 30
0.0
 10
-44.79186897581107
 20
34.04441461211728
 30
0.0
 10
-44.80870676126443
 20
34.02189491654551
 30
0.0
 10
-44.82084532933678
 20
34.00136618295791
 30
0.0
 10
-44.8291616119306
 20
33.98312567376871
 30
0.0
 10
-44.83629184801301
 20
33.96257656439452
 30
0.0
 10
-44.8390133278784
 20
33.94686805454516
 30
0.0
 10
-44.83978359268578
 20
33.93666027007038
 30
0.0
 11
-44.64204452154976
 21
34.13439934120635
 31
0.0
 11
-44.67229351615688
 21
34.12906618053967
 31
0.0
 11
-44.68808073471407
 21
34.12365928269463
 31
0.0
 11
-44.70426074270605
 21
34.11631377666885
 31
0.0
 11
-44.72634365463991
 21
34.10336576822369
 31
0.0
 11
-44.74882866808056
 21
34.08665855219152
 31
0.0
 11
-44.77144552132867
 21
34.06606126984929
 31
0.0
 11
-44.79204350267795
 21
34.04344081849246
 31
0.0
 11
-44.80875098405133
 21
34.02095356209731
 31
0.0
 11
-44.8216989366322
 21
33.99886985696941
 31
0.0
 11
-44.8290442637049
 21
33.98269023502706
 31
0.0
 11
-44.83445092120407
 21
33.96690425189485
 31
0.0
 11
-44.83978359268578
 21
33.93666027007038
 31
0.0
  0
SPLINE
  5
1EB
330
2
100
AcDbEntity
  8
GAIKEI
  6
Continuous
 62
     1
100
AcDbSpline
210
0.0
220
0.0
230
1.0
 70
     8
 71
     3
 72
    19
 73
    15
 74
    13
 42
0.0000000001
 43
0.0000000001
 44
0.000001
 12
0.9971663916999085
 22
-0.0752275698410131
 32
0.0
 13
0.0752446515490343
 23
-0.9971651028858081
 33
0.0
 40
0.0
 40
0.0
 40
0.0
 40
0.0
 40
0.0307154356042622
 40
0.047403057768145
 40
0.0651725077625378
 40
0.0907715901708528
 40
0.1187843457902544
 40
0.1493748434977984
 40
0.1799684721688314
 40
0.2079831863987802
 40
0.2335829247505551
 40
0.2513519491801077
 40
0.2680383245533526
 40
0.2987487388425655
 40
0.2987487388425655
 40
0.2987487388425655
 40
0.2987487388425655
 10
15.19167697343582
 20
34.13439934120635
 30
0.0
 10
15.20188644013282
 20
34.13362912534732
 30
0.0
 10
15.21759706469035
 20
34.13090745548363
 30
0.0
 10
15.23814838823409
 20
34.12377678561288
 30
0.0
 10
15.25638922118611
 20
34.11546036879491
 30
0.0
 10
15.27691713794311
 20
34.10332182232583
 30
0.0
 10
15.29943467274378
 20
34.08648430275689
 30
0.0
 10
15.32139867177935
 20
34.06638046610607
 30
0.0
 10
15.34150142769698
 20
34.04441461211728
 30
0.0
 10
15.35833921315048
 20
34.02189491654551
 30
0.0
 10
15.37047778122294
 20
34.00136618295791
 30
0.0
 10
15.37879406381654
 20
33.98312567376871
 30
0.0
 10
15.38592429989913
 20
33.96257656439452
 30
0.0
 10
15.38864577976446
 20
33.94686805454516
 30
0.0
 10
15.38941604457184
 20
33.93666027007038
 30
0.0
 11
15.19167697343582
 21
34.13439934120635
 31
0.0
 11
15.22192596804294
 21
34.12906618053967
 31
0.0
 11
15.23771318660013
 21
34.12365928269463
 31
0.0
 11
15.25389319459211
 21
34.11631377666885
 31
0.0
 11
15.27597610652597
 21
34.10336576822369
 31
0.0
 11
15.29846111996661
 21
34.08665855219152
 31
0.0
 11
15.32107797321472
 21
34.06606126984929
 31
0.0
 11
15.34167595456401
 21
34.04344081849246
 31
0.0
 11
15.35838343593738
 21
34.02095356209731
 31
0.0
 11
15.37133138851826
 21
33.99886985696941
 31
0.0
 11
15.37867671559095
 21
33.98269023502706
 31
0.0
 11
15.38408337309013
 21
33.96690425189485
 31
0.0
 11
15.38941604457184
 21
33.93666027007038
 31
0.0
  0
SPLINE
  5
1EC
330
2
100
AcDbEntity
  8
GAIKEI
  6
Continuous
 62
     1
100
AcDbSpline
210
0.0
220
0.0
230
1.0
 70
     8
 71
     3
 72
    19
 73
    15
 74
    13
 42
0.0000000001
 43
0.0000000001
 44
0.000001
 12
-0.0752275696311223
 22
-0.997166391715743
 32
0.0
 13
-0.9971651028730411
 23
-0.075244651718227
 33
0.0
 40
0.0
 40
0.0
 40
0.0
 40
0.0
 40
0.0307154355883356
 40
0.0474030577480272
 40
0.065172507741036
 40
0.09077159015165
 40
0.1187843457784919
 40
0.1493748434985914
 40
0.1799684721587743
 40
0.2079831863822805
 40
0.2335829247320371
 40
0.251351949162842
 40
0.2680383245397899
 40
0.2987487388429288
 40
0.2987487388429288
 40
0.2987487388429288
 40
0.2987487388429288
 10
15.38941604457184
 20
-1.597061252127446
 30
0.0
 10
15.38864582871537
 20
-1.607270718819314
 30
0.0
 10
15.3859241588554
 20
-1.622981343370746
 30
0.0
 10
15.37879348898821
 20
-1.643532666908221
 30
0.0
 10
15.37047707217118
 20
-1.661773499859364
 30
0.0
 10
15.3583385257011
 20
-1.682301416619168
 30
0.0
 10
15.34150100612851
 20
-1.704818951426233
 30
0.0
 10
15.32139716947688
 20
-1.726782950465349
 30
0.0
 10
15.29943131549103
 20
-1.746885706383785
 30
0.0
 10
15.27691161992487
 20
-1.763723491834113
 30
0.0
 10
15.25638288633956
 20
-1.775862059905634
 30
0.0
 10
15.23814237714972
 20
-1.78417834250024
 30
0.0
 10
15.21759326776984
 20
-1.791308578585493
 30
0.0
 10
15.20188475791516
 20
-1.794030058454076
 30
0.0
 10
15.19167697343587
 20
-1.79480032326353
 30
0.0
 11
15.38941604457184
 21
-1.597061252127446
 31
0.0
 11
15.38408288391284
 21
-1.62731024671973
 31
0.0
 11
15.37867598607025
 21
-1.643097465273342
 31
0.0
 11
15.37133048004554
 21
-1.659277473264296
 31
0.0
 11
15.35838247159981
 21
-1.681360385200491
 31
0.0
 11
15.34167525556412
 21
-1.703845398647786
 31
0.0
 11
15.32107797321472
 21
-1.726462251906355
 31
0.0
 11
15.29845752186722
 21
-1.747060233249783
 31
0.0
 11
15.27597026547792
 21
-1.7637677146202
 31
0.0
 11
15.25388656035207
 21
-1.776715667200619
 31
0.0
 11
15.23770693840882
 21
-1.784060994274284
 31
0.0
 11
15.22192095527336
 21
-1.789467651775453
 31
0.0
 11
15.19167697343587
 21
-1.79480032326353
 31
0.0
  0
ELLIPSE
  5
1ED
330
2
100
AcDbEntity
  8
GAIKEI
  6
Continuous
 62
     7
100
AcDbEllipse
 10
15.32454172594308
 20
-1.729926027141118
 30
0.0
 11
-0.1418092486870215
 21
0.1418092486870215
 31
0.0
210
0.0
220
0.0
230
1.0
 40
0.9972649999999706
 41
2.357564018062885
 42
3.925621289116736
  0
ELLIPSE
  5
1EE
330
2
100
AcDbEntity
  8
GAIKEI
  6
Continuous
 62
     7
100
AcDbEllipse
 10
15.32454172594308
 20
34.0695250228589
 30
0.0
 11
0.1418092486869966
 21
0.1418092486869966
 31
0.0
210
0.0
220
0.0
230
1.0
 40
0.9972650000003218
 41
5.499156671652783
 42
7.067213942706318
  0
ELLIPSE
  5
1EF
330
2
100
AcDbEntity
  8
GAIKEI
  6
Continuous
 62
     1
100
AcDbEllipse
 10
14.60333577594306
 20
33.34831907285883
 30
0.0
 11
0.502196524369623
 21
0.502196524369623
 31
0.0
210
0.0
220
0.0
230
1.0
 40
0.4928099999999944
 41
5.872221302136416
 42
6.694149312222723
  0
ELLIPSE
  5
1F0
330
2
100
AcDbEntity
  8
GAIKEI
  6
Continuous
 62
     1
100
AcDbEllipse
 10
14.60333577594306
 20
-1.008720027141123
 30
0.0
 11
-0.502196524369623
 21
0.502196524369623
 31
0.0
210
0.0
220
0.0
230
1.0
 40
0.4928099999998565
 41
2.730628648546518
 42
3.552556658633039
  0
LINE
  5
1F1
330
2
100
AcDbEntity
  8
GAIKEI
  6
Continuous
 62
     7
100
AcDbLine
 10
15.52481622594305
 20
34.0700736228589
 30
0.0
 11
15.52481622594305
 21
33.99479342285889
 31
0.0
  0
LINE
  5
1F2
330
2
100
AcDbEntity
  8
GAIKEI
  6
Continuous
 62
     1
100
AcDbLine
 10
15.38941602594306
 20
-1.595074266394419
 30
0.0
 11
15.52481622632143
 21
-1.730474927812451
 31
0.0
  0
LINE
  5
1F3
330
2
100
AcDbEntity
  8
GAIKEI
  6
Continuous
 62
     1
100
AcDbLine
 10
15.32509032594308
 20
-1.930200477141113
 30
0.0
 11
15.18969013513538
 21
-1.794800352141123
 31
0.0
  0
LINE
  5
1F4
330
2
100
AcDbEntity
  8
GAIKEI
  6
Continuous
 62
     1
100
AcDbLine
 10
15.18969008513528
 20
34.13439934785885
 30
0.0
 11
15.32509032594308
 21
34.26979952285888
 31
0.0
  0
LINE
  5
1F5
330
2
100
AcDbEntity
  8
GAIKEI
  6
Continuous
 62
     1
100
AcDbLine
 10
15.52481622594305
 20
34.0700736228589
 30
0.0
 11
15.38941602594306
 21
33.93467342285897
 31
0.0
  0
LINE
  5
1F6
330
2
100
AcDbEntity
  8
GAIKEI
  6
Continuous
 62
     1
100
AcDbLine
 10
15.38941602594306
 20
-1.597061227141125
 30
0.0
 11
15.38941602594306
 21
33.93666027285883
 31
0.0
  0
LINE
  5
1F7
330
2
100
AcDbEntity
  8
GAIKEI
  6
Continuous
 62
     1
100
AcDbLine
 10
15.38941602594306
 20
33.93666027285883
 30
0.0
 11
15.16258702594305
 21
33.70983122285884
 31
0.0
  0
LINE
  5
1F8
330
2
100
AcDbEntity
  8
GAIKEI
  6
Continuous
 62
     1
100
AcDbLine
 10
14.96484792594307
 20
33.90757032285887
 30
0.0
 11
15.19167697594307
 21
34.13439932285888
 31
0.0
  0
LINE
  5
1F9
330
2
100
AcDbEntity
  8
GAIKEI
  6
Continuous
 62
     1
100
AcDbLine
 10
15.19167697594307
 20
-1.79480032714116
 30
0.0
 11
14.96484792594307
 21
-1.567971277141111
 31
0.0
  0
LINE
  5
1FA
330
2
100
AcDbEntity
  8
GAIKEI
  6
Continuous
 62
     1
100
AcDbLine
 10
15.16258702594305
 20
-1.370232227141173
 30
0.0
 11
15.38941602594306
 21
-1.597061227141125
 31
0.0
  0
LINE
  5
1FB
330
2
100
AcDbEntity
  8
GAIKEI
  6
Continuous
 62
     1
100
AcDbLine
 10
15.16258702594305
 20
33.70983122285884
 30
0.0
 11
15.16258702594305
 21
-1.370232227141173
 31
0.0
  0
LINE
  5
1FC
330
2
100
AcDbEntity
  8
GAIKEI
  6
Continuous
 62
     7
100
AcDbLine
 10
15.52481622594305
 20
-1.655206577141086
 30
0.0
 11
15.52481622594305
 21
-1.73047457714108
 31
0.0
  0
LINE
  5
1FD
330
2
100
AcDbEntity
  8
GAIKEI
  6
Continuous
 62
     1
100
AcDbLine
 10
15.46855537594305
 20
-1.655206577141143
 30
0.0
 11
15.48689032594305
 21
-1.655206577141143
 31
0.0
  0
LINE
  5
1FE
330
2
100
AcDbEntity
  8
GAIKEI
  6
Continuous
 62
     7
100
AcDbLine
 10
15.46855738999687
 20
-1.655206577141143
 30
0.0
 11
16.00550178270885
 21
-1.655206577141143
 31
0.0
  0
LINE
  5
1FF
330
2
100
AcDbEntity
  8
GAIKEI
  6
Continuous
 62
     7
100
AcDbLine
 10
15.46855658809295
 20
33.99479342285889
 30
0.0
 11
16.00550228461293
 21
33.99479342285895
 31
0.0
  0
LINE
  5
200
330
2
100
AcDbEntity
  8
GAIKEI
  6
Continuous
 62
     7
100
AcDbLine
 10
15.45544502594308
 20
-1.205206577141098
 30
0.0
 11
15.45544502594308
 21
33.54479342285884
 31
0.0
  0
LINE
  5
201
330
2
100
AcDbEntity
  8
GAIKEI
  6
Continuous
 62
     7
100
AcDbLine
 10
15.45545527594308
 20
-1.205199777141103
 30
0.0
 11
15.46855738999687
 21
-1.655206577141143
 31
0.0
  0
LINE
  5
202
330
2
100
AcDbEntity
  8
GAIKEI
  6
Continuous
 62
     7
100
AcDbLine
 10
15.46855658809295
 20
33.99479342285889
 30
0.0
 11
15.45545452594305
 21
33.54479012285884
 31
0.0
  0
LINE
  5
203
330
2
100
AcDbEntity
  8
GAIKEI
  6
Continuous
 62
     1
100
AcDbLine
 10
16.06125557594308
 20
33.93082857285885
 30
0.0
 11
16.06125557594308
 21
-1.591229527141138
 31
0.0
  0
LINE
  5
204
330
2
100
AcDbEntity
  8
GAIKEI
  6
Continuous
 62
     1
100
AcDbLine
 10
20.68768377594304
 20
33.93165867285887
 30
0.0
 11
20.68768377594304
 21
-1.592059627141111
 31
0.0
  0
LINE
  5
205
330
2
100
AcDbEntity
  8
GAIKEI
  6
Continuous
 62
     1
100
AcDbLine
 10
20.45399237594304
 20
33.6970273228589
 30
0.0
 11
20.45399237594304
 21
-1.357428277141139
 31
0.0
  0
LINE
  5
206
330
2
100
AcDbEntity
  8
GAIKEI
  6
Continuous
 62
     7
100
AcDbLine
 10
20.77002022594306
 20
34.06019867285886
 30
0.0
 11
20.77008127594305
 21
34.06019867285886
 31
0.0
  0
LINE
  5
207
330
2
100
AcDbEntity
  8
GAIKEI
  6
Continuous
 62
     7
100
AcDbLine
 10
20.77002022594306
 20
34.06019867285886
 30
0.0
 11
20.77002022594306
 21
-1.720599627141154
 31
0.0
  0
LINE
  5
208
330
2
100
AcDbEntity
  8
GAIKEI
  6
Continuous
 62
     1
100
AcDbLine
 10
16.29494697594308
 20
33.69699067285888
 30
0.0
 11
16.29494697594308
 21
-1.357403827141126
 31
0.0
  0
LINE
  5
209
330
2
100
AcDbEntity
  8
GAIKEI
  6
Continuous
 62
     1
100
AcDbLine
 10
15.92489082594304
 20
34.0673153728589
 30
0.0
 11
15.92482977594304
 21
34.0673153728589
 31
0.0
  0
LINE
  5
20A
330
2
100
AcDbEntity
  8
GAIKEI
  6
Continuous
 62
     7
100
AcDbLine
 10
15.92489082594304
 20
33.99479342285889
 30
0.0
 11
15.92489082594304
 21
34.0673153728589
 31
0.0
  0
SPLINE
  5
20B
330
2
100
AcDbEntity
  8
GAIKEI
  6
Continuous
 62
     1
100
AcDbSpline
210
0.0
220
0.0
230
1.0
 70
     8
 71
     3
 72
     9
 73
     5
 74
     0
 42
0.0000000001
 43
0.0000000001
 40
0.0
 40
0.0
 40
0.0
 40
0.0
 40
1.945462263820249
 40
4.533269112037771
 40
4.533269112037771
 40
4.533269112037771
 40
4.533269112037771
 10
16.2182013782868
 20
34.12498140762449
 30
0.0
 10
16.18586071598528
 20
34.12265301745657
 30
0.0
 10
16.11155001818431
 20
34.09093506742988
 30
0.0
 10
16.07159301225525
 20
34.0165920266096
 30
0.0
 10
16.06695626109931
 20
33.97371187637447
 30
0.0
  0
SPLINE
  5
20C
330
2
100
AcDbEntity
  8
GAIKEI
  6
Continuous
 62
     1
100
AcDbSpline
210
0.0
220
0.0
230
1.0
 70
     8
 71
     3
 72
     9
 73
     5
 74
     0
 42
0.0000000001
 43
0.0000000001
 40
0.0
 40
0.0
 40
0.0
 40
0.0
 40
42.29127472562083
 40
84.58180013910597
 40
84.58180013910597
 40
84.58180013910597
 40
84.58180013910597
 10
20.49021065563059
 20
34.13261080215574
 30
0.0
 10
19.78535644932796
 20
34.131886194022
 30
0.0
 10
18.37566016759424
 20
34.13075441516475
 30
0.0
 10
16.96596337048336
 20
34.13051458822366
 30
0.0
 10
16.26112130016182
 20
34.13068209121826
 30
0.0
  0
LINE
  5
20D
330
2
100
AcDbEntity
  8
GAIKEI
  6
Continuous
 62
     1
100
AcDbLine
 10
15.45544502594308
 20
33.53701752285889
 30
0.0
 11
16.01882392594305
 21
33.53701752285889
 31
0.0
  0
LINE
  5
20E
330
2
100
AcDbEntity
  8
GAIKEI
  6
Continuous
 62
     7
100
AcDbLine
 10
16.00550228461293
 20
33.99479342285895
 30
0.0
 11
16.01883057594304
 21
33.53701967285889
 31
0.0
  0
SPLINE
  5
20F
330
2
100
AcDbEntity
  8
GAIKEI
  6
Continuous
 62
     7
100
AcDbSpline
210
0.0
220
0.0
230
1.0
 70
     8
 71
     3
 72
     9
 73
     5
 74
     0
 42
0.0000000001
 43
0.0000000001
 40
0.0
 40
0.0
 40
0.0
 40
0.0
 40
15.17019099972979
 40
30.07885911212641
 40
30.07885911212641
 40
30.07885911212641
 40
30.07885911212641
 10
16.12457344859931
 20
34.26704683731197
 30
0.0
 10
16.37740996505246
 20
34.26703655711191
 30
0.0
 10
16.87872428352526
 20
34.26696952279804
 30
0.0
 10
17.38003856833947
 20
34.26675362602788
 30
0.0
 10
17.62851631969309
 20
34.26659517715575
 30
0.0
  0
SPLINE
  5
210
330
2
100
AcDbEntity
  8
GAIKEI
  6
Continuous
 62
     7
100
AcDbSpline
210
0.0
220
0.0
230
1.0
 70
     8
 71
     3
 72
     9
 73
     5
 74
     0
 42
0.0000000001
 43
0.0000000001
 40
0.0
 40
0.0
 40
0.0
 40
0.0
 40
0.000307133192375
 40
0.0012511406223669
 40
0.0012511406223669
 40
0.0012511406223669
 40
0.0012511406223669
 10
16.12458565563057
 20
34.26710787246822
 30
0.0
 10
16.12458073341551
 20
34.26710927774349
 30
0.0
 10
16.12457986918471
 20
34.26707449036911
 30
0.0
 10
16.12457481840275
 20
34.26706251102604
 30
0.0
 10
16.12457344859931
 20
34.26704683731197
 30
0.0
  0
LINE
  5
211
330
2
100
AcDbEntity
  8
GAIKEI
  6
Continuous
 62
     7
100
AcDbLine
 10
16.07754392594304
 20
34.26139517285884
 30
0.0
 11
16.07752092594305
 21
34.26149007285886
 31
0.0
  0
SPLINE
  5
212
330
2
100
AcDbEntity
  8
GAIKEI
  6
Continuous
 62
     7
100
AcDbSpline
210
0.0
220
0.0
230
1.0
 70
     8
 71
     3
 72
     9
 73
     5
 74
     0
 42
0.0000000001
 43
0.0000000001
 40
0.0
 40
0.0
 40
0.0
 40
0.0
 40
0.4745936221338634
 40
0.9491322391598641
 40
0.9491322391598641
 40
0.9491322391598641
 40
0.9491322391598641
 10
16.12457344859931
 20
34.26704683731197
 30
0.0
 10
16.11666355879535
 20
34.26703898429253
 30
0.0
 10
16.10083253986457
 20
34.26607107963036
 30
0.0
 10
16.08522468221631
 20
34.26325195746477
 30
0.0
 10
16.07753975719308
 20
34.26138277481204
 30
0.0
  0
SPLINE
  5
213
330
2
100
AcDbEntity
  8
GAIKEI
  6
Continuous
 62
     1
100
AcDbSpline
210
0.0
220
0.0
230
1.0
 70
     8
 71
     3
 72
     9
 73
     5
 74
     0
 42
0.0000000001
 43
0.0000000001
 40
0.0
 40
0.0
 40
0.0
 40
0.0
 40
0.4322491288119172
 40
0.8653261276181417
 40
0.8653261276181417
 40
0.8653261276181417
 40
0.8653261276181417
 10
16.06695626109931
 20
33.97371187637447
 30
0.0
 10
16.06617490781227
 20
33.96655022187321
 30
0.0
 10
16.06449626291103
 20
33.9522251776537
 30
0.0
 10
16.06242286314168
 20
33.93794950242642
 30
0.0
 10
16.06124337047433
 20
33.93082857559324
 30
0.0
  0
SPLINE
  5
214
330
2
100
AcDbEntity
  8
GAIKEI
  6
Continuous
 62
     1
100
AcDbSpline
210
0.0
220
0.0
230
1.0
 70
     8
 71
     3
 72
     9
 73
     5
 74
     0
 42
0.0000000001
 43
0.0000000001
 40
0.0
 40
0.0
 40
0.0
 40
0.0
 40
1.517294350060504
 40
5.919467210682682
 40
5.919467210682682
 40
5.919467210682682
 40
5.919467210682682
 10
20.45399239391182
 20
33.69702730606201
 30
0.0
 10
20.45211541669837
 20
33.72224579128101
 30
0.0
 10
20.42602698483538
 20
33.81923967210941
 30
0.0
 10
20.32698880737556
 20
33.88924735082429
 30
0.0
 10
20.25402901500556
 20
33.89699068496822
 30
0.0
  0
LINE
  5
215
330
2
100
AcDbEntity
  8
GAIKEI
  6
Continuous
 62
     1
100
AcDbLine
 10
20.25402147594306
 20
33.8969950228589
 30
0.0
 11
20.49031167594305
 21
34.13261522285888
 31
0.0
  0
SPLINE
  5
216
330
2
100
AcDbEntity
  8
GAIKEI
  6
Continuous
 62
     1
100
AcDbSpline
210
0.0
220
0.0
230
1.0
 70
     8
 71
     3
 72
     9
 73
     5
 74
     0
 42
0.0000000001
 43
0.0000000001
 40
0.0
 40
0.0
 40
0.0
 40
0.0
 40
0.4081843447942165
 40
0.8155696340608679
 40
0.8155696340608679
 40
0.8155696340608679
 40
0.8155696340608679
 10
20.49021065563059
 20
34.13261080215574
 30
0.0
 10
20.49692151816456
 20
34.13149450546126
 30
0.0
 10
20.51037927082618
 20
34.12955612090343
 30
0.0
 10
20.52388707159051
 20
34.12802807585376
 30
0.0
 10
20.53064034313056
 20
34.12732515762451
 30
0.0
  0
SPLINE
  5
217
330
2
100
AcDbEntity
  8
GAIKEI
  6
Continuous
 62
     1
100
AcDbSpline
210
0.0
220
0.0
230
1.0
 70
     8
 71
     3
 72
     9
 73
     5
 74
     0
 42
0.0000000001
 43
0.0000000001
 40
0.0
 40
0.0
 40
0.0
 40
0.0
 40
1.656235735949052
 40
4.523791651747365
 40
4.523791651747365
 40
4.523791651747365
 40
4.523791651747365
 10
20.53064034313056
 20
34.12732515762451
 30
0.0
 10
20.55809472404044
 20
34.12445568705204
 30
0.0
 10
20.63238716083018
 20
34.09890455937676
 30
0.0
 10
20.67667564033619
 20
34.0233325051401
 30
0.0
 10
20.68176339000556
 20
33.97581148574949
 30
0.0
  0
SPLINE
  5
218
330
2
100
AcDbEntity
  8
GAIKEI
  6
Continuous
 62
     1
100
AcDbSpline
210
0.0
220
0.0
230
1.0
 70
     8
 71
     3
 72
     9
 73
     5
 74
     0
 42
0.0000000001
 43
0.0000000001
 40
0.0
 40
0.0
 40
0.0
 40
0.0
 40
0.4322048384549121
 40
0.8909782849838181
 40
0.8909782849838181
 40
0.8909782849838181
 40
0.8909782849838181
 10
20.68176339000556
 20
33.97581148574949
 30
0.0
 10
20.68253564574977
 20
33.9686495869824
 30
0.0
 10
20.68419422349186
 20
33.9538920455268
 30
0.0
 10
20.68635225506736
 20
33.93919442938864
 30
0.0
 10
20.68764717906808
 20
33.93165865371822
 30
0.0
  0
LINE
  5
219
330
2
100
AcDbEntity
  8
GAIKEI
  6
Continuous
 62
     1
100
AcDbLine
 10
20.68761187594308
 20
33.93164532285886
 30
0.0
 11
20.45399377594308
 21
33.69704792285887
 31
0.0
  0
LINE
  5
21A
330
2
100
AcDbEntity
  8
GAIKEI
  6
Continuous
 62
     1
100
AcDbLine
 10
16.49493477594305
 20
33.89697847285885
 30
0.0
 11
20.25402902594308
 21
33.89697847285885
 31
0.0
  0
SPLINE
  5
21B
330
2
100
AcDbEntity
  8
GAIKEI
  6
Continuous
 62
     1
100
AcDbSpline
210
0.0
220
0.0
230
1.0
 70
     8
 71
     3
 72
     9
 73
     5
 74
     0
 42
0.0000000001
 43
0.0000000001
 40
0.0
 40
0.0
 40
0.0
 40
0.0
 40
0.0029398165566283
 40
0.8660048802469422
 40
0.8660048802469422
 40
0.8660048802469422
 40
0.8660048802469422
 10
16.26112130016182
 20
34.13068209121826
 30
0.0
 10
16.26107244966525
 20
34.13068587663344
 30
0.0
 10
16.24669131550317
 20
34.1319301976651
 30
0.0
 10
16.23250120904063
 20
34.12653907055022
 30
0.0
 10
16.2182013782868
 20
34.12498140762449
 30
0.0
  0
LINE
  5
21C
330
2
100
AcDbEntity
  8
GAIKEI
  6
Continuous
 62
     1
100
AcDbLine
 10
16.12451477067426
 20
34.26704677035184
 30
0.0
 11
16.49493572594306
 21
33.89698947285888
 31
0.0
  0
SPLINE
  5
21D
330
2
100
AcDbEntity
  8
GAIKEI
  6
Continuous
 62
     1
100
AcDbSpline
210
0.0
220
0.0
230
1.0
 70
     8
 71
     3
 72
     9
 73
     5
 74
     0
 42
0.0000000001
 43
0.0000000001
 40
0.0
 40
0.0
 40
0.0
 40
0.0
 40
3.00649021551401
 40
6.013928399846387
 40
6.013928399846387
 40
6.013928399846387
 40
6.013928399846387
 10
16.49493477672431
 20
33.89699068496822
 30
0.0
 10
16.44510441286783
 20
33.89172157075496
 30
0.0
 10
16.34506824633556
 20
33.84684488118165
 30
0.0
 10
16.30021438330718
 20
33.74684153050618
 30
0.0
 10
16.29487374156807
 20
33.69700289199949
 30
0.0
  0
LINE
  5
21E
330
2
100
AcDbEntity
  8
GAIKEI
  6
Continuous
 62
     1
100
AcDbLine
 10
16.29494267594307
 20
33.69700887285887
 30
0.0
 11
15.92489094388026
 21
34.06742433640346
 31
0.0
  0
SPLINE
  5
21F
330
2
100
AcDbEntity
  8
GAIKEI
  6
Continuous
 62
     7
100
AcDbSpline
210
0.0
220
0.0
230
1.0
 70
     8
 71
     3
 72
     9
 73
     5
 74
     0
 42
0.0000000001
 43
0.0000000001
 40
0.0
 40
0.0
 40
0.0
 40
0.0
 40
2.608801521942092
 40
5.218901201754872
 40
5.218901201754872
 40
5.218901201754872
 40
5.218901201754872
 10
15.92489083141183
 20
34.0673153919995
 30
0.0
 10
15.92492278957095
 20
34.11079540562042
 30
0.0
 10
15.95595985028566
 20
34.19992004735679
 30
0.0
 10
16.03526616731395
 20
34.25111933790123
 30
0.0
 10
16.07753975719308
 20
34.26138277481204
 30
0.0
  0
SPLINE
  5
220
330
2
100
AcDbEntity
  8
GAIKEI
  6
Continuous
 62
     7
100
AcDbSpline
210
0.0
220
0.0
230
1.0
 70
     8
 71
     3
 72
     9
 73
     5
 74
     0
 42
0.0000000001
 43
0.0000000001
 40
0.0
 40
0.0
 40
0.0
 40
0.0
 40
29.41054305853916
 40
58.9011871801054
 40
58.9011871801054
 40
58.9011871801054
 40
58.9011871801054
 10
17.62929756969308
 20
34.26669283340578
 30
0.0
 10
18.11947323230325
 20
34.26646056017649
 30
0.0
 10
19.10115885148511
 20
34.26594066630395
 30
0.0
 10
20.08284747051155
 20
34.27100662095103
 30
0.0
 10
20.57432930797435
 20
34.27633638809329
 30
0.0
  0
SPLINE
  5
221
330
2
100
AcDbEntity
  8
GAIKEI
  6
Continuous
 62
     1
100
AcDbSpline
210
0.0
220
0.0
230
1.0
 70
     8
 71
     3
 72
     9
 73
     5
 74
     0
 42
0.0000000001
 43
0.0000000001
 40
0.0
 40
0.0
 40
0.0
 40
0.0
 40
0.0078759195154627
 40
0.0157679125147925
 40
0.0157679125147925
 40
0.0157679125147925
 40
0.0157679125147925
 10
17.62851631969309
 20
34.26659517715575
 30
0.0
 10
17.62864445192881
 20
34.26662368532618
 30
0.0
 10
17.62890329165375
 20
34.26667108573457
 30
0.0
 10
17.62916604396562
 20
34.26669142980415
 30
0.0
 10
17.62929756969308
 20
34.26669283340578
 30
0.0
  0
SPLINE
  5
222
330
2
100
AcDbEntity
  8
GAIKEI
  6
Continuous
 62
     7
100
AcDbSpline
210
0.0
220
0.0
230
1.0
 70
     8
 71
     3
 72
    10
 73
     6
 74
     0
 42
0.0000000001
 43
0.0000000001
 40
0.0
 40
0.0
 40
0.0
 40
0.0
 40
0.2724492370619989
 40
0.9948730228349431
 40
6.021982962936184
 40
6.021982962936184
 40
6.021982962936184
 40
6.021982962936184
 10
20.57432930797435
 20
34.27633638809329
 30
0.0
 10
20.57371435581146
 20
34.2718374009051
 30
0.0
 10
20.58409099295241
 20
34.25457789854426
 30
0.0
 10
20.69694430981102
 20
34.27716165213514
 30
0.0
 10
20.7706145167227
 20
34.14398223826817
 30
0.0
 10
20.77009346813057
 20
34.06019869278072
 30
0.0
  0
SPLINE
  5
223
330
2
100
AcDbEntity
  8
GAIKEI
  6
Continuous
 62
     7
100
AcDbSpline
210
0.0
220
0.0
230
1.0
 70
     8
 71
     3
 72
     9
 73
     5
 74
     0
 42
0.0000000001
 43
0.0000000001
 40
0.0
 40
0.0
 40
0.0
 40
0.0
 40
15.17688766217361
 40
30.09423971492175
 40
30.09423971492175
 40
30.09423971492175
 40
30.09423971492175
 10
16.12458565563057
 20
34.26710787246822
 30
0.0
 10
16.3775337831826
 20
34.26709913634812
 30
0.0
 10
16.87910444501367
 20
34.26703816522485
 30
0.0
 10
17.38067507917313
 20
34.26684023042623
 30
0.0
 10
17.62929756969308
 20
34.26669283340578
 30
0.0
  0
LINE
  5
224
330
2
100
AcDbEntity
  8
GAIKEI
  6
Continuous
 62
     1
100
AcDbLine
 10
20.77002022594306
 20
-1.720599627141154
 30
0.0
 11
20.77008127594305
 21
-1.720599627141154
 31
0.0
  0
LINE
  5
225
330
2
100
AcDbEntity
  8
GAIKEI
  6
Continuous
 62
     1
100
AcDbLine
 10
15.92483027594309
 20
-1.727725827141114
 30
0.0
 11
15.92481807594308
 21
-1.727725827141114
 31
0.0
  0
LINE
  5
226
330
2
100
AcDbEntity
  8
GAIKEI
  6
Continuous
 62
     1
100
AcDbLine
 10
15.92489082594304
 20
-1.727728577141135
 30
0.0
 11
15.92482977594304
 21
-1.727728577141135
 31
0.0
  0
LINE
  5
227
330
2
100
AcDbEntity
  8
GAIKEI
  6
Continuous
 62
     7
100
AcDbLine
 10
15.92489082594304
 20
-1.727728577141135
 30
0.0
 11
15.92489082594304
 21
-1.655206577141143
 31
0.0
  0
SPLINE
  5
228
330
2
100
AcDbEntity
  8
GAIKEI
  6
Continuous
 62
     1
100
AcDbSpline
210
0.0
220
0.0
230
1.0
 70
     8
 71
     3
 72
     9
 73
     5
 74
     0
 42
0.0000000001
 43
0.0000000001
 40
0.0
 40
0.0
 40
0.0
 40
0.0
 40
1.945368404595981
 40
4.533175250603751
 40
4.533175250603751
 40
4.533175250603751
 40
4.533175250603751
 10
16.2182013782868
 20
-1.785382361906727
 30
0.0
 10
16.18586227626716
 20
-1.783054084072489
 30
0.0
 10
16.11154610637416
 20
-1.751353860219182
 30
0.0
 10
16.07159301225127
 20
-1.677005187886493
 30
0.0
 10
16.06695626109931
 20
-1.634125037688022
 30
0.0
  0
SPLINE
  5
229
330
2
100
AcDbEntity
  8
GAIKEI
  6
Continuous
 62
     1
100
AcDbSpline
210
0.0
220
0.0
230
1.0
 70
     8
 71
     3
 72
     9
 73
     5
 74
     0
 42
0.0000000001
 43
0.0000000001
 40
0.0
 40
0.0
 40
0.0
 40
0.0
 40
42.29127472562083
 40
84.58180013910597
 40
84.58180013910597
 40
84.58180013910597
 40
84.58180013910597
 10
20.49021065563059
 20
-1.793023963469238
 30
0.0
 10
19.78535644932796
 20
-1.792299355335501
 30
0.0
 10
18.37566016759419
 20
-1.791167576478244
 30
0.0
 10
16.96596337048336
 20
-1.790927749537104
 30
0.0
 10
16.26112130016182
 20
-1.791095252531761
 30
0.0
  0
LINE
  5
22A
330
2
100
AcDbEntity
  8
GAIKEI
  6
Continuous
 62
     1
100
AcDbLine
 10
16.01882392594305
 20
-1.197430677141142
 30
0.0
 11
15.45701972594307
 21
-1.197430677141142
 31
0.0
  0
LINE
  5
22B
330
2
100
AcDbEntity
  8
GAIKEI
  6
Continuous
 62
     7
100
AcDbLine
 10
16.00550178270885
 20
-1.655206577141143
 30
0.0
 11
16.01883017594306
 21
-1.197429327141094
 31
0.0
  0
SPLINE
  5
22C
330
2
100
AcDbEntity
  8
GAIKEI
  6
Continuous
 62
     7
100
AcDbSpline
210
0.0
220
0.0
230
1.0
 70
     8
 71
     3
 72
     9
 73
     5
 74
     0
 42
0.0000000001
 43
0.0000000001
 40
0.0
 40
0.0
 40
0.0
 40
0.0
 40
15.17019098155854
 40
30.07885903948136
 40
30.07885903948136
 40
30.07885903948136
 40
30.07885903948136
 10
16.12457344859931
 20
-1.927447791594261
 30
0.0
 10
16.37740996474966
 20
-1.927437511394202
 30
0.0
 10
16.87872428197769
 20
-1.927376474453581
 30
0.0
 10
17.38003856924737
 20
-1.927166787340809
 30
0.0
 10
17.62851631969309
 20
-1.927008338469249
 30
0.0
  0
SPLINE
  5
22D
330
2
100
AcDbEntity
  8
GAIKEI
  6
Continuous
 62
     7
100
AcDbSpline
210
0.0
220
0.0
230
1.0
 70
     8
 71
     3
 72
     9
 73
     5
 74
     0
 42
0.0000000001
 43
0.0000000001
 40
0.0
 40
0.0
 40
0.0
 40
0.0
 40
29.39312756231776
 40
58.78322706070662
 40
58.78322706070662
 40
58.78322706070662
 40
58.78322706070662
 10
17.62851631969309
 20
-1.927008338469249
 30
0.0
 10
18.118401629168
 20
-1.926625109123506
 30
0.0
 10
19.09812191526245
 20
-1.926101891561984
 30
0.0
 10
20.0778420906328
 20
-1.925191163417537
 30
0.0
 10
20.5676764759431
 20
-1.924420447844227
 30
0.0
  0
SPLINE
  5
22E
330
2
100
AcDbEntity
  8
GAIKEI
  6
Continuous
 62
     7
100
AcDbSpline
210
0.0
220
0.0
230
1.0
 70
     8
 71
     3
 72
     9
 73
     5
 74
     0
 42
0.0000000001
 43
0.0000000001
 40
0.0
 40
0.0
 40
0.0
 40
0.0
 40
0.000307133192375
 40
0.0012511406223669
 40
0.0012511406223669
 40
0.0012511406223669
 40
0.0012511406223669
 10
16.12458565563057
 20
-1.927508826750511
 30
0.0
 10
16.12458073341551
 20
-1.927510232025724
 30
0.0
 10
16.12457986918471
 20
-1.927475444651349
 30
0.0
 10
16.12457481840275
 20
-1.927463465308335
 30
0.0
 10
16.12457344859931
 20
-1.927447791594261
 30
0.0
  0
LINE
  5
22F
330
2
100
AcDbEntity
  8
GAIKEI
  6
Continuous
 62
     7
100
AcDbLine
 10
16.07753917594308
 20
-1.921794627141139
 30
0.0
 11
16.07751457594307
 21
-1.921896227141132
 31
0.0
  0
SPLINE
  5
230
330
2
100
AcDbEntity
  8
GAIKEI
  6
Continuous
 62
     7
100
AcDbSpline
210
0.0
220
0.0
230
1.0
 70
     8
 71
     3
 72
     9
 73
     5
 74
     0
 42
0.0000000001
 43
0.0000000001
 40
0.0
 40
0.0
 40
0.0
 40
0.0
 40
0.4745863747763912
 40
0.9491031297469218
 40
0.9491031297469218
 40
0.9491031297469218
 40
0.9491031297469218
 10
16.12457344859931
 20
-1.927447791594261
 30
0.0
 10
16.1166636795846
 20
-1.927439938694703
 30
0.0
 10
16.10083312701786
 20
-1.926478235664546
 30
0.0
 10
16.08522432817082
 20
-1.923665032664814
 30
0.0
 10
16.07753975719308
 20
-1.921795936125477
 30
0.0
  0
SPLINE
  5
231
330
2
100
AcDbEntity
  8
GAIKEI
  6
Continuous
 62
     1
100
AcDbSpline
210
0.0
220
0.0
230
1.0
 70
     8
 71
     3
 72
     9
 73
     5
 74
     0
 42
0.0000000001
 43
0.0000000001
 40
0.0
 40
0.0
 40
0.0
 40
0.0
 40
0.4323703203184989
 40
0.8655681094042307
 40
0.8655681094042307
 40
0.8655681094042307
 40
0.8655681094042307
 10
16.06695626109931
 20
-1.634125037688022
 30
0.0
 10
16.06617468874097
 20
-1.626961375243467
 30
0.0
 10
16.06449621628414
 20
-1.612632261013175
 30
0.0
 10
16.06242319211603
 20
-1.598352442819077
 30
0.0
 10
16.06124337047433
 20
-1.591229529875477
 30
0.0
  0
SPLINE
  5
232
330
2
100
AcDbEntity
  8
GAIKEI
  6
Continuous
 62
     1
100
AcDbSpline
210
0.0
220
0.0
230
1.0
 70
     8
 71
     3
 72
     9
 73
     5
 74
     0
 42
0.0000000001
 43
0.0000000001
 40
0.0
 40
0.0
 40
0.0
 40
0.0
 40
1.517294349229331
 40
5.91932657678531
 40
5.91932657678531
 40
5.91932657678531
 40
5.91932657678531
 10
20.45399239391182
 20
-1.357440467375511
 30
0.0
 10
20.4521154166994
 20
-1.382658952580698
 30
0.0
 10
20.42602881731367
 20
-1.479652016876684
 30
0.0
 10
20.32698647658126
 20
-1.549648552477265
 30
0.0
 10
20.25402901500556
 20
-1.557391639250511
 30
0.0
  0
LINE
  5
233
330
2
100
AcDbEntity
  8
GAIKEI
  6
Continuous
 62
     1
100
AcDbLine
 10
20.25402897594304
 20
-1.557383027141099
 30
0.0
 11
20.49031922594307
 21
-1.79300327714111
 31
0.0
  0
SPLINE
  5
234
330
2
100
AcDbEntity
  8
GAIKEI
  6
Continuous
 62
     1
100
AcDbSpline
210
0.0
220
0.0
230
1.0
 70
     8
 71
     3
 72
     9
 73
     5
 74
     0
 42
0.0000000001
 43
0.0000000001
 40
0.0
 40
0.0
 40
0.0
 40
0.0
 40
0.4082020433341026
 40
0.8156013125728581
 40
0.8156013125728581
 40
0.8156013125728581
 40
0.8156013125728581
 10
20.49021065563059
 20
-1.793023963469238
 30
0.0
 10
20.49692180914204
 20
-1.791907618373045
 30
0.0
 10
20.51037912064661
 20
-1.789963214787064
 30
0.0
 10
20.52388683984296
 20
-1.788429054257619
 30
0.0
 10
20.53064034313056
 20
-1.787726111906749
 30
0.0
  0
SPLINE
  5
235
330
2
100
AcDbEntity
  8
GAIKEI
  6
Continuous
 62
     1
100
AcDbSpline
210
0.0
220
0.0
230
1.0
 70
     8
 71
     3
 72
     9
 73
     5
 74
     0
 42
0.0000000001
 43
0.0000000001
 40
0.0
 40
0.0
 40
0.0
 40
0.0
 40
1.656235736553358
 40
4.523581821308481
 40
4.523581821308481
 40
4.523581821308481
 40
4.523581821308481
 10
20.53064034313056
 20
-1.787726111906749
 30
0.0
 10
20.55809472405045
 20
-1.784856641333249
 30
0.0
 10
20.63238242075866
 20
-1.759306202297352
 30
0.0
 10
20.67667601262806
 20
-1.683742189142094
 30
0.0
 10
20.68176339000556
 20
-1.636224647062988
 30
0.0
  0
SPLINE
  5
236
330
2
100
AcDbEntity
  8
GAIKEI
  6
Continuous
 62
     1
100
AcDbSpline
210
0.0
220
0.0
230
1.0
 70
     8
 71
     3
 72
     9
 73
     5
 74
     0
 42
0.0000000001
 43
0.0000000001
 40
0.0
 40
0.0
 40
0.0
 40
0.0
 40
0.432326092216564
 40
0.8912202709941183
 40
0.8912202709941183
 40
0.8912202709941183
 40
0.8912202709941183
 10
20.68176339000556
 20
-1.636224647062988
 30
0.0
 10
20.6825358624038
 20
-1.629060739046849
 30
0.0
 10
20.68419423598235
 20
-1.614299127054835
 30
0.0
 10
20.68635191429113
 20
-1.599597366809064
 30
0.0
 10
20.68764717906808
 20
-1.592059608000511
 30
0.0
  0
LINE
  5
237
330
2
100
AcDbEntity
  8
GAIKEI
  6
Continuous
 62
     1
100
AcDbLine
 10
20.68761102594303
 20
-1.592041777141105
 30
0.0
 11
20.45399292594308
 21
-1.357444377141121
 31
0.0
  0
LINE
  5
238
330
2
100
AcDbEntity
  8
GAIKEI
  6
Continuous
 62
     1
100
AcDbLine
 10
16.49493477594305
 20
-1.5573916271411
 30
0.0
 11
20.25402902594308
 21
-1.5573916271411
 31
0.0
  0
SPLINE
  5
239
330
2
100
AcDbEntity
  8
GAIKEI
  6
Continuous
 62
     1
100
AcDbSpline
210
0.0
220
0.0
230
1.0
 70
     8
 71
     3
 72
     9
 73
     5
 74
     0
 42
0.0000000001
 43
0.0000000001
 40
0.0
 40
0.0
 40
0.0
 40
0.0
 40
0.0029296476091856
 40
0.8659950720233828
 40
0.8659950720233828
 40
0.8659950720233828
 40
0.8659950720233828
 10
16.26112130016182
 20
-1.791095252531761
 30
0.0
 10
16.26107261864112
 20
-1.791099024852996
 30
0.0
 10
16.24661722500187
 20
-1.790554056701637
 30
0.0
 10
16.23250121501738
 20
-1.786940025483545
 30
0.0
 10
16.2182013782868
 20
-1.785382361906727
 30
0.0
  0
LINE
  5
23A
330
2
100
AcDbEntity
  8
GAIKEI
  6
Continuous
 62
     1
100
AcDbLine
 10
16.12451903525004
 20
-1.927447730139249
 30
0.0
 11
16.49494082594307
 21
-1.557389677141145
 31
0.0
  0
SPLINE
  5
23B
330
2
100
AcDbEntity
  8
GAIKEI
  6
Continuous
 62
     1
100
AcDbSpline
210
0.0
220
0.0
230
1.0
 70
     8
 71
     3
 72
     9
 73
     5
 74
     0
 42
0.0000000001
 43
0.0000000001
 40
0.0
 40
0.0
 40
0.0
 40
0.0
 40
3.00649021551401
 40
6.013928399846387
 40
6.013928399846387
 40
6.013928399846387
 40
6.013928399846387
 10
16.49493477672431
 20
-1.557391639250511
 30
0.0
 10
16.44510441286783
 20
-1.552122525037248
 30
0.0
 10
16.34506824633556
 20
-1.507245835463891
 30
0.0
 10
16.30021438330718
 20
-1.407242484788412
 30
0.0
 10
16.29487374156807
 20
-1.357403846281727
 30
0.0
  0
LINE
  5
23C
330
2
100
AcDbEntity
  8
GAIKEI
  6
Continuous
 62
     1
100
AcDbLine
 10
15.92489091157949
 20
-1.727811856617734
 30
0.0
 11
16.29494717594306
 21
-1.357391777141117
 31
0.0
  0
SPLINE
  5
23D
330
2
100
AcDbEntity
  8
GAIKEI
  6
Continuous
 62
     7
100
AcDbSpline
210
0.0
220
0.0
230
1.0
 70
     8
 71
     3
 72
     9
 73
     5
 74
     0
 42
0.0000000001
 43
0.0000000001
 40
0.0
 40
0.0
 40
0.0
 40
0.0
 40
2.608801521942092
 40
5.218901201754872
 40
5.218901201754872
 40
5.218901201754872
 40
5.218901201754872
 10
15.92489083141183
 20
-1.727728553312999
 30
0.0
 10
15.92492278957095
 20
-1.771208566933978
 30
0.0
 10
15.95595985028566
 20
-1.86033320867034
 30
0.0
 10
16.03526616731395
 20
-1.911532499214729
 30
0.0
 10
16.07753975719308
 20
-1.921795936125477
 30
0.0
  0
SPLINE
  5
23E
330
2
100
AcDbEntity
  8
GAIKEI
  6
Continuous
 62
     1
100
AcDbSpline
210
0.0
220
0.0
230
1.0
 70
     8
 71
     3
 72
     9
 73
     5
 74
     0
 42
0.0000000001
 43
0.0000000001
 40
0.0
 40
0.0
 40
0.0
 40
0.0
 40
0.0137885163468726
 40
0.0277971563202312
 40
0.0277971563202312
 40
0.0277971563202312
 40
0.0277971563202312
 10
20.56903145641181
 20
-1.924701209563011
 30
0.0
 10
20.56880165048179
 20
-1.924700100599523
 30
0.0
 10
20.56833767422014
 20
-1.924646198978336
 30
0.0
 10
20.56789336849838
 20
-1.924506872866288
 30
0.0
 10
20.5676764759431
 20
-1.924420447844227
 30
0.0
  0
SPLINE
  5
23F
330
2
100
AcDbEntity
  8
GAIKEI
  6
Continuous
 62
     7
100
AcDbSpline
210
0.0
220
0.0
230
1.0
 70
     8
 71
     3
 72
     9
 73
     5
 74
     0
 42
0.0000000001
 43
0.0000000001
 40
0.0
 40
0.0
 40
0.0
 40
0.0
 40
29.39737301754986
 40
58.7946987442469
 40
58.7946987442469
 40
58.7946987442469
 40
58.7946987442469
 10
20.56903145641181
 20
-1.924701209563011
 30
0.0
 10
20.07907572305029
 20
-1.925389601232154
 30
0.0
 10
19.09916445373389
 20
-1.926345662605285
 30
0.0
 10
18.11925293957912
 20
-1.92685356046303
 30
0.0
 10
17.62929756969308
 20
-1.927093787688022
 30
0.0
  0
SPLINE
  5
240
330
2
100
AcDbEntity
  8
GAIKEI
  6
Continuous
 62
     1
100
AcDbSpline
210
0.0
220
0.0
230
1.0
 70
     8
 71
     3
 72
     9
 73
     5
 74
     0
 42
0.0000000001
 43
0.0000000001
 40
0.0
 40
0.0
 40
0.0
 40
0.0
 40
0.0078534411293542
 40
0.0157394946032041
 40
0.0157394946032041
 40
0.0157394946032041
 40
0.0157394946032041
 10
17.62851631969309
 20
-1.927008338469249
 30
0.0
 10
17.62864408623105
 20
-1.927036765275488
 30
0.0
 10
17.62890378207433
 20
-1.927078186058338
 30
0.0
 10
17.62916614295207
 20
-1.927092385142771
 30
0.0
 10
17.62929756969308
 20
-1.927093787688022
 30
0.0
  0
SPLINE
  5
241
330
2
100
AcDbEntity
  8
GAIKEI
  6
Continuous
 62
     7
100
AcDbSpline
210
0.0
220
0.0
230
1.0
 70
     8
 71
     3
 72
     9
 73
     5
 74
     0
 42
0.0000000001
 43
0.0000000001
 40
0.0
 40
0.0
 40
0.0
 40
0.0
 40
3.131012357143871
 40
6.214320535329698
 40
6.214320535329698
 40
6.214320535329698
 40
6.214320535329698
 10
20.77002022594306
 20
-1.720599647063011
 30
0.0
 10
20.76995080773341
 20
-1.772783140176215
 30
0.0
 10
20.72667334118134
 20
-1.880516867709161
 30
0.0
 10
20.61906454531393
 20
-1.924623272669464
 30
0.0
 10
20.5676764759431
 20
-1.924420447844227
 30
0.0
  0
SPLINE
  5
242
330
2
100
AcDbEntity
  8
GAIKEI
  6
Continuous
 62
     7
100
AcDbSpline
210
0.0
220
0.0
230
1.0
 70
     8
 71
     3
 72
     9
 73
     5
 74
     0
 42
0.0000000001
 43
0.0000000001
 40
0.0
 40
0.0
 40
0.0
 40
0.0
 40
14.91719755737096
 40
30.09423971494808
 40
30.09423971494808
 40
30.09423971494808
 40
30.09423971494808
 10
17.62929756969308
 20
-1.927093787688022
 30
0.0
 10
17.38067765447718
 20
-1.927241825458168
 30
0.0
 10
16.87910701975645
 20
-1.927439109227748
 30
0.0
 10
16.37753635808357
 20
-1.927499464339746
 30
0.0
 10
16.12458565563057
 20
-1.927508826750511
 30
0.0
  0
LINE
  5
243
330
2
100
AcDbEntity
  8
GAIKEI
  6
Continuous
 62
     7
100
AcDbLine
 10
16.01882392594305
 20
33.53701752285889
 30
0.0
 11
16.01882392594305
 21
-1.197430677141142
 31
0.0
  0
ELLIPSE
  5
244
330
2
100
AcDbEntity
  8
GAIKEI
  6
Continuous
 62
     1
100
AcDbEllipse
 10
12.98906522594308
 20
31.88654849785883
 30
0.0
 11
0.0717687988192637
 21
0.0717687988192637
 31
0.0
210
0.0
220
0.0
230
1.0
 40
0.9852570000004959
 41
5.505213485254499
 42
7.061157129104673
  0
ELLIPSE
  5
245
330
2
100
AcDbEntity
  8
GAIKEI
  6
Continuous
 62
     1
100
AcDbEllipse
 10
-42.43943277405697
 20
31.88654849785883
 30
0.0
 11
-0.0717687988192637
 21
0.0717687988192637
 31
0.0
210
0.0
220
0.0
230
1.0
 40
0.9852570000004961
 41
-0.7779718219248054
 42
0.7779718219250871
  0
ELLIPSE
  5
246
330
2
100
AcDbEntity
  8
GAIKEI
  6
Continuous
 62
     1
100
AcDbEllipse
 10
-42.43943277405697
 20
0.4530504978588965
 30
0.0
 11
0.0717687988192779
 21
0.0717687988192779
 31
0.0
210
0.0
220
0.0
230
1.0
 40
0.9852570000000294
 41
2.363620831664963
 42
3.91956447551427
  0
ELLIPSE
  5
247
330
2
100
AcDbEntity
  8
GAIKEI
  6
Continuous
 62
     1
100
AcDbEllipse
 10
12.98906522594308
 20
0.4530504978588965
 30
0.0
 11
-0.0717687988192779
 21
0.0717687988192779
 31
0.0
210
0.0
220
0.0
230
1.0
 40
0.9852569999999586
 41
2.363620831665282
 42
3.919564475514587
  0
ELLIPSE
  5
248
330
2
100
AcDbEntity
  8
GAIKEI
  6
Continuous
 62
     1
100
AcDbEllipse
 10
-42.44714237405696
 20
0.4407846978588737
 30
0.0
 11
0.1284635822291533
 21
0.0852052787034152
 31
0.0
210
0.0
220
0.0
230
1.0
 40
0.9719460000057027
 41
2.568982864154635
 42
2.879815371837112
  0
ELLIPSE
  5
249
330
2
100
AcDbEntity
  8
GAIKEI
  6
Continuous
 62
     1
100
AcDbEllipse
 10
-42.44714237405696
 20
31.89881429785885
 30
0.0
 11
-0.1284635822448187
 21
0.085205278679174
 31
0.0
210
0.0
220
0.0
230
1.0
 40
0.9719459999970283
 41
0.2617772815647359
 42
0.5726097892496785
  0
ELLIPSE
  5
24A
330
2
100
AcDbEntity
  8
GAIKEI
  6
Continuous
 62
     1
100
AcDbEllipse
 10
12.99677482594308
 20
31.89881429785885
 30
0.0
 11
0.1284635822350019
 21
0.0852052786943477
 31
0.0
210
0.0
220
0.0
230
1.0
 40
0.9719460000026607
 41
-0.5726097893656941
 42
-0.2617772816832753
  0
ELLIPSE
  5
24B
330
2
100
AcDbEntity
  8
GAIKEI
  6
Continuous
 62
     1
100
AcDbEllipse
 10
12.99677482594308
 20
0.4407846978588737
 30
0.0
 11
-0.12846358223822
 21
0.0852052786893615
 31
0.0
210
0.0
220
0.0
230
1.0
 40
0.9719460000015663
 41
3.403369935232094
 42
3.714202442917041
  0
ELLIPSE
  5
24C
330
2
100
AcDbEntity
  8
GAIKEI
  6
Continuous
 62
     1
100
AcDbEllipse
 10
13.00133682594304
 20
0.4453144478588911
 30
0.0
 11
-0.0852591893577444
 21
0.1284167499135195
 31
0.0
210
0.0
220
0.0
230
1.0
 40
0.9720119999996089
 41
2.568497788419069
 42
2.880029666783867
  0
ELLIPSE
  5
24D
330
2
100
AcDbEntity
  8
GAIKEI
  6
Continuous
 62
     1
100
AcDbEllipse
 10
-42.45170437405696
 20
0.4453144478588911
 30
0.0
 11
0.0852591893545455
 21
0.1284167499155941
 31
0.0
210
0.0
220
0.0
230
1.0
 40
0.9720119999983715
 41
3.403155640370685
 42
3.714687518736063
  0
ELLIPSE
  5
24E
330
2
100
AcDbEntity
  8
GAIKEI
  6
Continuous
 62
     1
100
AcDbEllipse
 10
-42.45170437405696
 20
31.89428454785883
 30
0.0
 11
-0.0852591893556044
 21
0.1284167499149068
 31
0.0
210
0.0
220
0.0
230
1.0
 40
0.9720119999987918
 41
-0.5730948651545499
 42
-0.2615629867885796
  0
ELLIPSE
  5
24F
330
2
100
AcDbEntity
  8
GAIKEI
  6
Continuous
 62
     1
100
AcDbEllipse
 10
13.00133682594304
 20
31.89428454785883
 30
0.0
 11
0.085259189355603
 21
0.1284167499149077
 31
0.0
210
0.0
220
0.0
230
1.0
 40
0.9720119999987916
 41
0.2615629867885685
 42
0.5730948651545389
  0
ELLIPSE
  5
250
330
2
100
AcDbEntity
  8
GAIKEI
  6
Continuous
 62
     1
100
AcDbEllipse
 10
-42.36008827405695
 20
-1.405105002141169
 30
0.0
 11
0.0178124651972631
 21
0.0178124651972631
 31
0.0
210
0.0
220
0.0
230
1.0
 40
0.9924330000003765
 41
2.359992588465516
 42
3.923192718713782
  0
ELLIPSE
  5
251
330
2
100
AcDbEntity
  8
GAIKEI
  6
Continuous
 62
     1
100
AcDbEllipse
 10
-42.36008827405695
 20
-1.10529600214113
 30
0.0
 11
-0.0178124651972667
 21
0.0178124651972667
 31
0.0
210
0.0
220
0.0
230
1.0
 40
0.992432999998279
 41
-0.7816000651239091
 42
0.7816000651241919
  0
ELLIPSE
  5
252
330
2
100
AcDbEntity
  8
GAIKEI
  6
Continuous
 62
     1
100
AcDbEllipse
 10
-42.06027927405694
 20
-1.405105002141169
 30
0.0
 11
-0.0178124651972667
 21
0.0178124651972667
 31
0.0
210
0.0
220
0.0
230
1.0
 40
0.9924329999999773
 41
2.359992588465603
 42
3.923192718713703
  0
ELLIPSE
  5
253
330
2
100
AcDbEntity
  8
GAIKEI
  6
Continuous
 62
     1
100
AcDbEllipse
 10
-43.01383987405694
 20
32.46345559785885
 30
0.0
 11
-0.159535404772889
 21
0.159535404772889
 31
0.0
210
0.0
220
0.0
230
0.9999999999999998
 40
0.9972650000000992
 41
-0.7840286355270326
 42
0.7840286355269695
  0
ELLIPSE
  5
254
330
2
100
AcDbEntity
  8
GAIKEI
  6
Continuous
 62
     1
100
AcDbEllipse
 10
13.56347232594302
 20
32.46345559785885
 30
0.0
 11
0.159535404772889
 21
0.159535404772889
 31
0.0
210
0.0
220
0.0
230
0.9999999999999998
 40
0.9972650000000992
 41
5.499156671652616
 42
7.067213942706619
  0
ELLIPSE
  5
255
330
2
100
AcDbEntity
  8
GAIKEI
  6
Continuous
 62
     1
100
AcDbEllipse
 10
13.56347232594302
 20
-0.1238566021411316
 30
0.0
 11
-0.1595354047728925
 21
0.1595354047728925
 31
0.0
210
0.0
220
0.0
230
1.0
 40
0.997265000000023
 41
2.357564018062596
 42
3.925621289117021
  0
ELLIPSE
  5
256
330
2
100
AcDbEntity
  8
GAIKEI
  6
Continuous
 62
     1
100
AcDbEllipse
 10
-43.01383987405694
 20
-0.1238566021411316
 30
0.0
 11
0.1595354047728925
 21
0.1595354047728925
 31
0.0
210
0.0
220
0.0
230
1.0
 40
0.997265000000023
 41
2.357564018062564
 42
3.925621289116989
  0
ELLIPSE
  5
257
330
2
100
AcDbEntity
  8
GAIKEI
  6
Continuous
 62
     1
100
AcDbEllipse
 10
-42.06027927405694
 20
-1.10529600214113
 30
0.0
 11
0.0178124651972453
 21
0.0178124651972453
 31
0.0
210
0.0
220
0.0
230
1.0
 40
0.9924330000012384
 41
5.50158524205745
 42
7.064785372302008
  0
LINE
  5
258
330
2
100
AcDbEntity
  8
GAIKEI
  6
Continuous
100
AcDbLine
 10
15.32509032594302
 20
-1.930200502141133
 30
0.0
 11
-44.77545787405694
 21
-1.930200502141133
 31
0.0
  0
LINE
  5
259
330
2
100
AcDbEntity
  8
GAIKEI
  6
Continuous
100
AcDbLine
 10
15.32509032594302
 20
34.26979949785886
 30
0.0
 11
-44.77545787405694
 21
34.26979949785886
 31
0.0
  0
LINE
  5
25A
330
2
100
AcDbEntity
  8
GAIKEI
  6
Continuous
 62
     1
100
AcDbLine
 10
12.99056162594306
 20
0.3522994978588372
 30
0.0
 11
-42.44092917405697
 21
0.3522994978588372
 31
0.0
  0
LINE
  5
25B
330
2
100
AcDbEntity
  8
GAIKEI
  6
Continuous
 62
     1
100
AcDbLine
 10
12.99056162594306
 20
31.98729949785889
 30
0.0
 11
-42.44092917405697
 21
31.98729949785889
 31
0.0
  0
LINE
  5
25C
330
2
100
AcDbEntity
  8
GAIKEI
  6
Continuous
 62
     1
100
AcDbLine
 10
-42.54018377405697
 20
31.88804489785889
 30
0.0
 11
-42.54018377405697
 21
0.451554097858832
 31
0.0
  0
LINE
  5
25D
330
2
100
AcDbEntity
  8
GAIKEI
  6
Continuous
 62
     1
100
AcDbLine
 10
13.08981622594305
 20
31.88804489785889
 30
0.0
 11
13.08981622594305
 21
0.451554097858832
 31
0.0
  0
LINE
  5
25E
330
2
100
AcDbEntity
  8
GAIKEI
  6
Continuous
 62
     1
100
AcDbLine
 10
-42.59998612405695
 20
0.4368228978589173
 30
0.0
 11
-42.59998612405695
 21
31.9027760978588
 31
0.0
  0
LINE
  5
25F
330
2
100
AcDbEntity
  8
GAIKEI
  6
Continuous
 62
     1
100
AcDbLine
 10
13.14961857594301
 20
0.4368228978589173
 30
0.0
 11
13.14961857594301
 21
31.9027760978588
 31
0.0
  0
LINE
  5
260
330
2
100
AcDbEntity
  8
GAIKEI
  6
Continuous
 62
     1
100
AcDbLine
 10
-42.45565827405693
 20
0.292478647858843
 30
0.0
 11
13.00529072594304
 21
0.292478647858843
 31
0.0
  0
LINE
  5
261
330
2
100
AcDbEntity
  8
GAIKEI
  6
Continuous
 62
     1
100
AcDbLine
 10
13.00529072594304
 20
32.04712034785888
 30
0.0
 11
-42.45565827405693
 21
32.04712034785888
 31
0.0
  0
LINE
  5
262
330
2
100
AcDbEntity
  8
GAIKEI
  6
Continuous
 62
     1
100
AcDbLine
 10
13.63000212594306
 20
32.43874264785882
 30
0.0
 11
13.63000212594306
 21
-0.0991436521410947
 31
0.0
  0
LINE
  5
263
330
2
100
AcDbEntity
  8
GAIKEI
  6
Continuous
 62
     1
100
AcDbLine
 10
-43.08036967405695
 20
32.43874264785882
 30
0.0
 11
-43.08036967405695
 21
-0.0991436521410947
 31
0.0
  0
LINE
  5
264
330
2
100
AcDbEntity
  8
GAIKEI
  6
Continuous
 62
     1
100
AcDbLine
 10
13.53941697594303
 20
-0.1903961021411646
 30
0.0
 11
-42.98978452405697
 21
-0.1903961021411646
 31
0.0
  0
LINE
  5
265
330
2
100
AcDbEntity
  8
GAIKEI
  6
Continuous
 62
     1
100
AcDbLine
 10
-42.98978452405697
 20
32.52999509785889
 30
0.0
 11
13.53941697594303
 21
32.52999509785889
 31
0.0
  0
LINE
  5
266
330
2
100
AcDbEntity
  8
GAIKEI
  6
Continuous
 62
     1
100
AcDbLine
 10
13.63000212594306
 20
-0.0991436521410947
 30
0.0
 11
13.14229417594305
 21
0.3907956478588517
 31
0.0
  0
LINE
  5
267
330
2
100
AcDbEntity
  8
GAIKEI
  6
Continuous
 62
     1
100
AcDbLine
 10
13.05141817594301
 20
0.2998353978588852
 30
0.0
 11
13.53941697594303
 21
-0.1903961021411646
 31
0.0
  0
LINE
  5
268
330
2
100
AcDbEntity
  8
GAIKEI
  6
Continuous
 62
     1
100
AcDbLine
 10
13.55715737594306
 20
-0.1906102521411412
 30
0.0
 11
13.53941697594303
 21
-0.1903961021411646
 31
0.0
  0
LINE
  5
269
330
2
100
AcDbEntity
  8
GAIKEI
  6
Continuous
 62
     1
100
AcDbLine
 10
13.63000212594306
 20
-0.0991436521410947
 30
0.0
 11
13.63022397594304
 21
-0.1175359021411282
 31
0.0
  0
LINE
  5
26A
330
2
100
AcDbEntity
  8
GAIKEI
  6
Continuous
 62
     1
100
AcDbLine
 10
-43.08036967405695
 20
-0.0991436521410947
 30
0.0
 11
-42.59266172405697
 21
0.3907956478588517
 31
0.0
  0
LINE
  5
26B
330
2
100
AcDbEntity
  8
GAIKEI
  6
Continuous
 62
     1
100
AcDbLine
 10
-43.08036967405695
 20
-0.0991436521410947
 30
0.0
 11
-43.08059152405696
 21
-0.1175359021411282
 31
0.0
  0
LINE
  5
26C
330
2
100
AcDbEntity
  8
GAIKEI
  6
Continuous
 62
     1
100
AcDbLine
 10
-43.00752492405695
 20
-0.1906102521411412
 30
0.0
 11
-42.98978452405697
 21
-0.1903961021411646
 31
0.0
  0
LINE
  5
26D
330
2
100
AcDbEntity
  8
GAIKEI
  6
Continuous
 62
     1
100
AcDbLine
 10
-42.50178572405696
 20
0.2998353978588852
 30
0.0
 11
-42.98978452405697
 21
-0.1903961021411646
 31
0.0
  0
LINE
  5
26E
330
2
100
AcDbEntity
  8
GAIKEI
  6
Continuous
 62
     1
100
AcDbLine
 10
-42.59266172405697
 20
31.94880334785887
 30
0.0
 11
-43.08036967405695
 21
32.43874264785882
 31
0.0
  0
LINE
  5
26F
330
2
100
AcDbEntity
  8
GAIKEI
  6
Continuous
 62
     1
100
AcDbLine
 10
-42.98978452405697
 20
32.52999509785889
 30
0.0
 11
-42.50178572405696
 21
32.03976359785884
 31
0.0
  0
LINE
  5
270
330
2
100
AcDbEntity
  8
GAIKEI
  6
Continuous
 62
     1
100
AcDbLine
 10
-42.98978452405697
 20
32.52999509785889
 30
0.0
 11
-43.00752492405695
 21
32.53020924785886
 31
0.0
  0
LINE
  5
271
330
2
100
AcDbEntity
  8
GAIKEI
  6
Continuous
 62
     1
100
AcDbLine
 10
-43.08059152405696
 20
32.45713489785885
 30
0.0
 11
-43.08036967405695
 21
32.43874264785882
 31
0.0
  0
LINE
  5
272
330
2
100
AcDbEntity
  8
GAIKEI
  6
Continuous
 62
     1
100
AcDbLine
 10
13.14229417594305
 20
31.94880334785887
 30
0.0
 11
13.63000212594306
 21
32.43874264785882
 31
0.0
  0
LINE
  5
273
330
2
100
AcDbEntity
  8
GAIKEI
  6
Continuous
 62
     1
100
AcDbLine
 10
13.63022397594304
 20
32.45713489785885
 30
0.0
 11
13.63000212594306
 21
32.43874264785882
 31
0.0
  0
LINE
  5
274
330
2
100
AcDbEntity
  8
GAIKEI
  6
Continuous
 62
     1
100
AcDbLine
 10
13.53941697594303
 20
32.52999509785889
 30
0.0
 11
13.55715737594306
 21
32.53020924785886
 31
0.0
  0
LINE
  5
275
330
2
100
AcDbEntity
  8
GAIKEI
  6
Continuous
 62
     1
100
AcDbLine
 10
13.53941697594303
 20
32.52999509785889
 30
0.0
 11
13.05141817594301
 21
32.03976359785884
 31
0.0
  0
LINE
  5
276
330
2
100
AcDbEntity
  8
GAIKEI
  6
Continuous
 62
     1
100
AcDbLine
 10
15.19167697594307
 20
34.13439934785885
 30
0.0
 11
-44.64204452405698
 21
34.13439934785885
 31
0.0
  0
LINE
  5
277
330
2
100
AcDbEntity
  8
GAIKEI
  6
Continuous
 62
     1
100
AcDbLine
 10
-44.64204452405698
 20
-1.79480035214118
 30
0.0
 11
15.19167697594307
 21
-1.79480035214118
 31
0.0
  0
LINE
  5
278
330
2
100
AcDbEntity
  8
GAIKEI
  6
Continuous
 62
     1
100
AcDbLine
 10
-44.41521547405696
 20
33.90757029785886
 30
0.0
 11
14.96484792594305
 21
33.90757029785886
 31
0.0
  0
LINE
  5
279
330
2
100
AcDbEntity
  8
GAIKEI
  6
Continuous
 62
     1
100
AcDbLine
 10
-42.36027892405695
 20
-1.430200502141133
 30
0.0
 11
-42.06008862405693
 21
-1.430200502141133
 31
0.0
  0
LINE
  5
27A
330
2
100
AcDbEntity
  8
GAIKEI
  6
Continuous
 62
     1
100
AcDbLine
 10
-42.36027892405695
 20
-1.080200502141167
 30
0.0
 11
-42.06008862405693
 21
-1.080200502141167
 31
0.0
  0
LINE
  5
27B
330
2
100
AcDbEntity
  8
GAIKEI
  6
Continuous
 62
     1
100
AcDbLine
 10
-43.98143377405694
 20
-1.311450502141099
 30
0.0
 11
-43.98143377405694
 21
-1.198950502141144
 31
0.0
  0
LINE
  5
27C
330
2
100
AcDbEntity
  8
GAIKEI
  6
Continuous
 62
     1
100
AcDbLine
 10
-43.86893377405695
 20
-1.311450502141099
 30
0.0
 11
-43.86893377405695
 21
-1.198950502141144
 31
0.0
  0
LINE
  5
27D
330
2
100
AcDbEntity
  8
GAIKEI
  6
Continuous
 62
     1
100
AcDbLine
 10
-42.38518377405694
 20
-1.405295652141148
 30
0.0
 11
-42.38518377405694
 21
-1.105105352141151
 31
0.0
  0
LINE
  5
27E
330
2
100
AcDbEntity
  8
GAIKEI
  6
Continuous
 62
     1
100
AcDbLine
 10
-42.03518377405695
 20
-1.405295652141148
 30
0.0
 11
-42.03518377405695
 21
-1.105105352141151
 31
0.0
  0
LINE
  5
27F
330
2
100
AcDbEntity
  8
GAIKEI
  6
Continuous
 62
     1
100
AcDbLine
 10
-43.98143377405694
 20
-1.198950502141144
 30
0.0
 11
-43.86893377405695
 21
-1.198950502141144
 31
0.0
  0
LINE
  5
280
330
2
100
AcDbEntity
  8
GAIKEI
  6
Continuous
 62
     1
100
AcDbLine
 10
-43.98143377405694
 20
-1.311450502141099
 30
0.0
 11
-43.86893377405695
 21
-1.311450502141099
 31
0.0
  0
LINE
  5
281
330
2
100
AcDbEntity
  8
GAIKEI
  6
Continuous
 62
     1
100
AcDbLine
 10
-43.01445702405695
 20
32.68876439785885
 30
0.0
 11
13.56408947594303
 21
32.68876439785885
 31
0.0
  0
LINE
  5
282
330
2
100
AcDbEntity
  8
GAIKEI
  6
Continuous
 62
     1
100
AcDbLine
 10
13.78878112594305
 20
32.46407274785884
 30
0.0
 11
13.78878112594305
 21
-0.1244737521411139
 31
0.0
  0
LINE
  5
283
330
2
100
AcDbEntity
  8
GAIKEI
  6
Continuous
 62
     1
100
AcDbLine
 10
13.56408947594303
 20
-0.349165402141125
 30
0.0
 11
-43.01445702405695
 21
-0.349165402141125
 31
0.0
  0
LINE
  5
284
330
2
100
AcDbEntity
  8
GAIKEI
  6
Continuous
 62
     1
100
AcDbLine
 10
-43.23914867405699
 20
32.46407274785884
 30
0.0
 11
-43.23914867405699
 21
-0.1244737521411139
 31
0.0
  0
LINE
  5
285
330
2
100
AcDbEntity
  8
GAIKEI
  6
Continuous
 62
     1
100
AcDbLine
 10
14.96484792594305
 20
-1.567971302141131
 30
0.0
 11
-44.41521547405696
 21
-1.567971302141131
 31
0.0
  0
SPLINE
  5
286
330
2
100
AcDbEntity
  8
GAIKEI
  6
Continuous
 62
     1
100
AcDbSpline
210
0.0
220
0.0
230
1.0
 70
     8
 71
     3
 72
    15
 73
    11
 74
     9
 42
0.0000000001
 43
0.0000000001
 44
0.000001
 12
0.9560175965647365
 22
0.2933093163515013
 32
0.0
 13
0.2924928147293096
 23
0.9562677205321351
 33
0.0
 40
0.0
 40
0.0
 40
0.0
 40
0.0
 40
0.0168063827191905
 40
0.0336212646659017
 40
0.0503584224868117
 40
0.0670009486665861
 40
0.0837881260374065
 40
0.100473375475
 40
0.1170569269589506
 40
0.1337837630426141
 40
0.1337837630426141
 40
0.1337837630426141
 40
0.1337837630426141
 10
13.05141815741984
 20
0.2998353875702264
 30
0.0
 10
13.05677388995789
 20
0.3014785437787921
 30
0.0
 10
13.06730069244736
 20
0.3054173231861057
 30
0.0
 10
13.08222578887614
 20
0.3131867814559257
 30
0.0
 10
13.09604440446287
 20
0.3226956923301785
 30
0.0
 10
13.10858759987121
 20
0.3338176826903663
 30
0.0
 10
13.11965973594533
 20
0.3463830428060532
 30
0.0
 10
13.12909493402071
 20
0.3601956571356339
 30
0.0
 10
13.13677310621395
 20
0.3750301304651487
 30
0.0
 10
13.14066335770639
 20
0.3854638484597856
 30
0.0
 10
13.14229418416227
 20
0.3907956262642642
 30
0.0
 11
13.05141815741984
 21
0.2998353875702264
 31
0.0
 11
13.06715823192218
 21
0.3057275450739212
 31
0.0
 11
13.08207189322624
 21
0.3134943094522669
 31
0.0
 11
13.0958590612114
 21
0.3229836229834291
 31
0.0
 11
13.10831108406626
 21
0.3340254355769616
 31
0.0
 11
13.11940984888764
 21
0.3466201803924491
 31
0.0
 11
13.1288226601402
 21
0.3603968691220984
 31
0.0
 11
13.13644809900398
 21
0.3751232567647662
 31
0.0
 11
13.14229418416227
 21
0.3907956262642642
 31
0.0
  0
SPLINE
  5
287
330
2
100
AcDbEntity
  8
GAIKEI
  6
Continuous
 62
     1
100
AcDbSpline
210
0.0
220
0.0
230
1.0
 70
     8
 71
     3
 72
    15
 73
    11
 74
     9
 42
0.0000000001
 43
0.0000000001
 44
0.000001
 12
0.0109562642203223
 22
-0.999939978335867
 32
0.0
 13
-0.9999396584535913
 23
0.0109854199608153
 33
0.0
 40
0.0
 40
0.0
 40
0.0
 40
0.0
 40
0.0144545160023002
 40
0.0288481527290683
 40
0.0432449883426167
 40
0.0575864997005861
 40
0.0720054578610122
 40
0.0863379547938461
 40
0.100748565253533
 40
0.115118677686579
 40
0.115118677686579
 40
0.115118677686579
 40
0.115118677686579
 10
13.63022395919802
 20
-0.1175359050391194
 30
0.0
 10
13.63027674836351
 20
-0.122353787845185
 30
0.0
 10
13.62945475716526
 20
-0.1320074043144928
 30
0.0
 10
13.6254005075919
 20
-0.1459356604428166
 30
0.0
 10
13.61867820098956
 20
-0.158755675666832
 30
0.0
 10
13.60951813775441
 20
-0.1699746405565108
 30
0.0
 10
13.59830427000057
 20
-0.1791091722656688
 30
0.0
 10
13.58546792902515
 20
-0.1858194723984212
 30
0.0
 10
13.57157766979026
 20
-0.1898480917178418
 30
0.0
 10
13.56194710990775
 20
-0.1906628543561979
 30
0.0
 10
13.55715736146834
 20
-0.190610233782877
 30
0.0
 11
13.63022395919802
 21
-0.1175359050391194
 31
0.0
 11
13.62898119260407
 21
-0.1319374351919009
 31
0.0
 11
13.62495468202479
 21
-0.1457564408072471
 31
0.0
 11
13.61826359213668
 21
-0.1585039708258478
 31
0.0
 11
13.60919218014629
 21
-0.1696120702978305
 31
0.0
 11
13.59801363266075
 21
-0.1787196437266516
 31
0.0
 11
13.58531468142507
 21
-0.1853648239033987
 31
0.0
 11
13.57147548795063
 21
-0.189382703404874
 31
0.0
 11
13.55715736146834
 21
-0.190610233782877
 31
0.0
  0
SPLINE
  5
288
330
2
100
AcDbEntity
  8
GAIKEI
  6
Continuous
 62
     1
100
AcDbSpline
210
0.0
220
0.0
230
1.0
 70
     8
 71
     3
 72
    15
 73
    11
 74
     9
 42
0.0000000001
 43
0.0000000001
 44
0.000001
 12
-0.0109562642203222
 22
-0.999939978335867
 32
0.0
 13
0.9999396584535913
 23
0.0109854199608156
 33
0.0
 40
0.0
 40
0.0
 40
0.0
 40
0.0
 40
0.0144545160022977
 40
0.0288481527290739
 40
0.043244988342609
 40
0.0575864997005964
 40
0.0720054578610224
 40
0.0863379547938061
 40
0.1007485652535202
 40
0.1151186776865662
 40
0.1151186776865662
 40
0.1151186776865662
 40
0.1151186776865662
 10
-43.08059150731191
 20
-0.1175359050391194
 30
0.0
 10
-43.0806442964774
 20
-0.122353787845185
 30
0.0
 10
-43.07982230527923
 20
-0.1320074043144999
 30
0.0
 10
-43.07576805570568
 20
-0.1459356604428024
 30
0.0
 10
-43.06904574910356
 20
-0.1587556756668533
 30
0.0
 10
-43.05988568586826
 20
-0.1699746405564895
 30
0.0
 10
-43.04867181811443
 20
-0.1791091722656404
 30
0.0
 10
-43.03583547713913
 20
-0.1858194723984425
 30
0.0
 10
-43.02194521790414
 20
-0.1898480917178347
 30
0.0
 10
-43.01231465802167
 20
-0.1906628543561979
 30
0.0
 10
-43.00752490958226
 20
-0.190610233782877
 30
0.0
 11
-43.08059150731191
 21
-0.1175359050391194
 31
0.0
 11
-43.07934874071799
 21
-0.1319374351919009
 31
0.0
 11
-43.07532223013867
 21
-0.1457564408072471
 31
0.0
 11
-43.0686311402506
 21
-0.1585039708258478
 31
0.0
 11
-43.05955972826018
 21
-0.1696120702978305
 31
0.0
 11
-43.04838118077464
 21
-0.1787196437266516
 31
0.0
 11
-43.03568222953901
 21
-0.1853648239033987
 31
0.0
 11
-43.02184303606455
 21
-0.189382703404874
 31
0.0
 11
-43.00752490958226
 21
-0.190610233782877
 31
0.0
  0
SPLINE
  5
289
330
2
100
AcDbEntity
  8
GAIKEI
  6
Continuous
 62
     1
100
AcDbSpline
210
0.0
220
0.0
230
1.0
 70
     8
 71
     3
 72
    15
 73
    11
 74
     9
 42
0.0000000001
 43
0.0000000001
 44
0.000001
 12
-0.9560175965648596
 22
0.2933093163510996
 32
0.0
 13
-0.2924928147296205
 23
0.9562677205320401
 33
0.0
 40
0.0
 40
0.0
 40
0.0
 40
0.0
 40
0.0168063827191639
 40
0.0336212646659003
 40
0.0503584224868337
 40
0.0670009486666081
 40
0.0837881260374097
 40
0.1004733754750033
 40
0.1170569269589407
 40
0.1337837630426042
 40
0.1337837630426042
 40
0.1337837630426042
 40
0.1337837630426042
 10
-42.50178570553376
 20
0.2998353875702264
 30
0.0
 10
-42.50714143807181
 20
0.3014785437787921
 30
0.0
 10
-42.51766824056128
 20
0.305417323186127
 30
0.0
 10
-42.53259333699006
 20
0.3131867814559328
 30
0.0
 10
-42.54641195257676
 20
0.3226956923301643
 30
0.0
 10
-42.55895514798521
 20
0.3338176826903805
 30
0.0
 10
-42.57002728405922
 20
0.346383042806039
 30
0.0
 10
-42.57946248213457
 20
0.3601956571356411
 30
0.0
 10
-42.58714065432783
 20
0.3750301304651415
 30
0.0
 10
-42.59103090582027
 20
0.3854638484597856
 30
0.0
 10
-42.59266173227615
 20
0.3907956262642642
 30
0.0
 11
-42.50178570553376
 21
0.2998353875702264
 31
0.0
 11
-42.51752578003606
 21
0.3057275450739212
 31
0.0
 11
-42.53243944134015
 21
0.3134943094522669
 31
0.0
 11
-42.54622660932534
 21
0.3229836229834291
 31
0.0
 11
-42.5586786321802
 21
0.3340254355769616
 31
0.0
 11
-42.56977739700156
 21
0.3466201803924491
 31
0.0
 11
-42.57919020825411
 21
0.3603968691220984
 31
0.0
 11
-42.58681564711787
 21
0.3751232567647662
 31
0.0
 11
-42.59266173227615
 21
0.3907956262642642
 31
0.0
  0
SPLINE
  5
28A
330
2
100
AcDbEntity
  8
GAIKEI
  6
Continuous
 62
     1
100
AcDbSpline
210
0.0
220
0.0
230
1.0
 70
     8
 71
     3
 72
    15
 73
    11
 74
     9
 42
0.0000000001
 43
0.0000000001
 44
0.000001
 12
0.2924958065310856
 22
0.9562668054270886
 32
0.0
 13
0.9560185359243778
 23
0.293306254568513
 33
0.0
 40
0.0
 40
0.0
 40
0.0
 40
0.0
 40
0.0168063404896156
 40
0.0336211194742401
 40
0.0503583126183694
 40
0.0670008429354026
 40
0.083788016649717
 40
0.1004733571095572
 40
0.1170568982760752
 40
0.1337837633034863
 40
0.1337837633034863
 40
0.1337837633034863
 40
0.1337837633034863
 10
-42.59266173227587
 20
31.94880336945329
 30
0.0
 10
-42.59102313757042
 20
31.95416048463027
 30
0.0
 10
-42.58709355751739
 20
31.96469064519042
 30
0.0
 10
-42.57933788693324
 20
31.97962283809957
 30
0.0
 10
-42.56984214186101
 20
31.99345046078126
 30
0.0
 10
-42.55873227390407
 20
32.00600440298295
 30
0.0
 10
-42.54617759097155
 20
32.01708869952576
 30
0.0
 10
-42.53237391262516
 20
32.0265370391698
 30
0.0
 10
-42.51754645796535
 20
32.03422889298201
 30
0.0
 10
-42.50711610320533
 20
32.03812824343653
 30
0.0
 10
-42.50178570553396
 20
32.03976360814716
 30
0.0
 11
-42.59266173227587
 21
31.94880336945329
 31
0.0
 11
-42.58678333124544
 21
31.96454853971085
 31
0.0
 11
-42.57903031051694
 21
31.97946923414793
 31
0.0
 11
-42.56955406142185
 21
31.99326542768802
 31
0.0
 11
-42.55852425202184
 21
32.0057280895403
 31
0.0
 11
-42.54594021073478
 21
32.01683898329509
 31
0.0
 11
-42.53217237443656
 21
32.02626489920931
 31
0.0
 11
-42.51745299604595
 21
32.03390383730192
 31
0.0
 11
-42.50178570553396
 21
32.03976360814716
 31
0.0
  0
SPLINE
  5
28B
330
2
100
AcDbEntity
  8
GAIKEI
  6
Continuous
 62
     1
100
AcDbSpline
210
0.0
220
0.0
230
1.0
 70
     8
 71
     3
 72
    15
 73
    11
 74
     9
 42
0.0000000001
 43
0.0000000001
 44
0.000001
 12
-0.9999398593324002
 22
0.0109671198725968
 32
0.0
 13
0.0109745129035741
 23
-0.9999397782199332
 33
0.0
 40
0.0
 40
0.0
 40
0.0
 40
0.0
 40
0.0144545412891382
 40
0.0288481230524572
 40
0.0432449733898229
 40
0.0575864329608388
 40
0.0720053976517915
 40
0.0863379338912105
 40
0.1007485460548578
 40
0.1151186774904759
 40
0.1151186774904759
 40
0.1151186774904759
 40
0.1151186774904759
 10
-43.00752490958228
 20
32.53020922950077
 30
0.0
 10
-43.0123428002434
 20
32.53026207106311
 30
0.0
 10
-43.02199644084004
 20
32.52943990921061
 30
0.0
 10
-43.03592439926695
 20
32.52538444574006
 30
0.0
 10
-43.04874349148067
 20
32.51866035484919
 30
0.0
 10
-43.05996091274877
 20
32.50949839424246
 30
0.0
 10
-43.06909354371643
 20
32.49828300147033
 30
0.0
 10
-43.07580205822088
 20
32.48544575540457
 30
0.0
 10
-43.07982947892486
 20
32.47155518964245
 30
0.0
 10
-43.08064407570973
 20
32.46192465610375
 30
0.0
 10
-43.0805915073121
 20
32.45713490075684
 30
0.0
 11
-43.00752490958228
 21
32.53020922950077
 31
0.0
 11
-43.02192644151046
 21
32.52896617870897
 31
0.0
 11
-43.03574505858302
 21
32.5249385309545
 31
0.0
 11
-43.04849169844589
 21
32.51824571369321
 31
0.0
 11
-43.05959827219663
 21
32.50917251558684
 31
0.0
 11
-43.06870402391075
 21
32.4979924757256
 31
0.0
 11
-43.07534751506444
 21
32.48529259648035
 31
0.0
 11
-43.07936424857643
 21
32.47145306867504
 31
0.0
 11
-43.0805915073121
 21
32.45713490075684
 31
0.0
  0
SPLINE
  5
28C
330
2
100
AcDbEntity
  8
GAIKEI
  6
Continuous
 62
     1
100
AcDbSpline
210
0.0
220
0.0
230
1.0
 70
     8
 71
     3
 72
    15
 73
    11
 74
     9
 42
0.0000000001
 43
0.0000000001
 44
0.000001
 12
0.9999398593324002
 22
0.0109671198725969
 32
0.0
 13
-0.0109745129035742
 23
-0.9999397782199332
 33
0.0
 40
0.0
 40
0.0
 40
0.0
 40
0.0
 40
0.0144545412891382
 40
0.0288481230524299
 40
0.0432449733897705
 40
0.0575864329608084
 40
0.0720053976517431
 40
0.0863379338911621
 40
0.1007485460548252
 40
0.1151186774904409
 40
0.1151186774904409
 40
0.1151186774904409
 40
0.1151186774904409
 10
13.5571573614684
 20
32.53020922950077
 30
0.0
 10
13.56197525212951
 20
32.53026207106311
 30
0.0
 10
13.57162889272615
 20
32.5294399092106
 30
0.0
 10
13.58555685115297
 20
32.52538444574006
 30
0.0
 10
13.59837594336676
 20
32.51866035484918
 30
0.0
 10
13.60959336463489
 20
32.50949839424251
 30
0.0
 10
13.61872599560249
 20
32.4982830014703
 30
0.0
 10
13.62543451010685
 20
32.48544575540459
 30
0.0
 10
13.62946193081106
 20
32.47155518964245
 30
0.0
 10
13.63027652759581
 20
32.46192465610375
 30
0.0
 10
13.63022395919819
 20
32.45713490075684
 30
0.0
 11
13.5571573614684
 21
32.53020922950077
 31
0.0
 11
13.57155889339657
 21
32.52896617870897
 31
0.0
 11
13.5853775104691
 21
32.5249385309545
 31
0.0
 11
13.59812415033195
 21
32.51824571369321
 31
0.0
 11
13.60923072408272
 21
32.50917251558684
 31
0.0
 11
13.61833647579681
 21
32.4979924757256
 31
0.0
 11
13.62497996695049
 21
32.48529259648035
 31
0.0
 11
13.62899670046255
 21
32.47145306867504
 31
0.0
 11
13.63022395919819
 21
32.45713490075684
 31
0.0
  0
SPLINE
  5
28D
330
2
100
AcDbEntity
  8
GAIKEI
  6
Continuous
 62
     1
100
AcDbSpline
210
0.0
220
0.0
230
1.0
 70
     8
 71
     3
 72
    15
 73
    11
 74
     9
 42
0.0000000001
 43
0.0000000001
 44
0.000001
 12
-0.2924958065310857
 22
0.9562668054270888
 32
0.0
 13
-0.9560185359242824
 23
0.2933062545688235
 33
0.0
 40
0.0
 40
0.0
 40
0.0
 40
0.0
 40
0.0168063404896156
 40
0.0336211194742663
 40
0.0503583126183956
 40
0.06700084293541
 40
0.0837880166497456
 40
0.1004733571095624
 40
0.1170568982760804
 40
0.1337837633035181
 40
0.1337837633035181
 40
0.1337837633035181
 40
0.1337837633035181
 10
13.14229418416198
 20
31.94880336945329
 30
0.0
 10
13.14065558945654
 20
31.95416048463027
 30
0.0
 10
13.1367260094035
 20
31.96469064519039
 30
0.0
 10
13.12897033881933
 20
31.97962283809957
 30
0.0
 10
13.11947459374704
 20
31.99345046078126
 30
0.0
 10
13.10836472579018
 20
32.00600440298298
 30
0.0
 10
13.09581004285758
 20
32.01708869952574
 30
0.0
 10
13.08200636451127
 20
32.0265370391698
 30
0.0
 10
13.0671789098514
 20
32.03422889298201
 30
0.0
 10
13.05674855509139
 20
32.03812824343653
 30
0.0
 10
13.05141815742002
 20
32.03976360814716
 30
0.0
 11
13.14229418416198
 21
31.94880336945329
 31
0.0
 11
13.13641578313155
 21
31.96454853971085
 31
0.0
 11
13.12866276240299
 21
31.97946923414793
 31
0.0
 11
13.11918651330791
 21
31.99326542768802
 31
0.0
 11
13.10815670390792
 21
32.0057280895403
 31
0.0
 11
13.09557266262084
 21
32.01683898329509
 31
0.0
 11
13.08180482632264
 21
32.02626489920931
 31
0.0
 11
13.06708544793204
 21
32.03390383730192
 31
0.0
 11
13.05141815742002
 21
32.03976360814716
 31
0.0
  0
DIMENSION
  5
28E
330
2
100
AcDbEntity
  8
SUNPO
100
AcDbDimension
  2
*D5
 10
15.52481622594305
 20
42.26183332878943
 30
0.0
 11
-14.72518377405696
 21
44.01183332878943
 31
0.0
 70
    33
  1
1210
 71
     5
 42
60.50000000000003
  3
STANDARD
100
AcDbAlignedDimension
 13
-44.97518377405697
 23
34.26182320364848
 33
0.0
 14
15.52481622594305
 24
34.26182320364848
 34
0.0
1001
ACAD
1000
DSTYLE
1002
{
1070
   287
1070
     3
1070
   287
1070
     3
1070
   287
1070
     3
1070
   287
1070
     3
1070
   287
1070
     3
1070
   287
1070
     3
1070
   287
1070
     3
1070
   287
1070
     3
1070
   287
1070
     3
1070
   287
1070
     3
1070
   287
1070
     3
1070
   287
1070
     3
1070
   287
1070
     3
1070
   287
1070
     3
1070
   287
1070
     3
1070
   287
1070
     3
1070
   287
1070
     3
1070
   287
1070
     3
1070
   287
1070
     3
1070
   287
1070
     3
1070
   287
1070
     3
1070
   287
1070
     3
1070
   287
1070
     3
1070
   287
1070
     3
1070
   287
1070
     3
1070
   287
1070
     3
1070
   287
1070
     3
1070
   287
1070
     3
1070
   287
1070
     3
1070
   287
1070
     3
1070
   287
1070
     3
1070
   287
1070
     3
1070
   287
1070
     3
1070
   287
1070
     3
1070
    40
1040
1.0
1070
   140
1040
2.5
1070
   147
1040
0.5
1070
   172
1070
     1
1070
   279
1070
     0
1002
}
  0
TEXT
  5
29B
330
2
100
AcDbEntity
  8
MOJI1
100
AcDbText
 10
-56.13522044883675
 20
-48.12227293194315
 30
0.0
 40
3.0
  1
質　量
100
AcDbText
  0
LINE
  5
29C
330
2
100
AcDbEntity
  8
WAKU
 62
     1
100
AcDbLine
 10
-58.63522044883675
 20
-44.12227293194314
 30
0.0
 11
66.364779551163
 21
-44.12227293194314
 31
0.0
  0
TEXT
  5
29E
330
2
100
AcDbEntity
  8
MOJI1
100
AcDbText
 10
-56.13522044883675
 20
-38.12227293194315
 30
0.0
 40
3.0
  1
入出力端子
100
AcDbText
  0
LINE
  5
29F
330
2
100
AcDbEntity
  8
WAKU
 62
     1
100
AcDbLine
 10
-58.63522044883675
 20
-39.12227293194315
 30
0.0
 11
66.364779551163
 21
-39.12227293194315
 31
0.0
  0
LINE
  5
2A0
330
2
100
AcDbEntity
  8
WAKU
 62
     4
100
AcDbLine
 10
66.364779551163
 20
-9.122272931943143
 30
0.0
 11
66.364779551163
 21
-49.12227293194314
 31
0.0
  0
TEXT
  5
2A1
330
2
100
AcDbEntity
  8
MOJI1
100
AcDbText
 10
-56.13522044883675
 20
-28.12227293194315
 30
0.0
 40
3.0
  1
画素数
100
AcDbText
  0
TEXT
  5
2A2
330
2
100
AcDbEntity
  8
MOJI1
100
AcDbText
 10
-56.13522044883675
 20
-13.12227293194314
 30
0.0
 40
3.0
  1
電  源
100
AcDbText
  0
TEXT
  5
2A3
330
2
100
AcDbEntity
  8
MOJI1
100
AcDbText
 10
-56.13522044883675
 20
-18.12227293194314
 30
0.0
 40
3.0
  1
消費電力
100
AcDbText
  0
TEXT
  5
2A4
330
2
100
AcDbEntity
  8
MOJI1
100
AcDbText
 10
-56.13522044883675
 20
-33.12227293194315
 30
0.0
 40
3.0
  1
コントラスト
100
AcDbText
  0
TEXT
  5
2A5
330
2
100
AcDbEntity
  8
MOJI1
100
AcDbText
 10
-56.13522044883675
 20
-23.12227293194315
 30
0.0
 40
3.0
  1
画面サイズ
100
AcDbText
  0
LINE
  5
2A6
330
2
100
AcDbEntity
  8
WAKU
 62
     4
100
AcDbLine
 10
-58.63522044883698
 20
-9.122272931943143
 30
0.0
 11
-58.63522044883675
 21
-49.12227293194314
 31
0.0
  0
LINE
  5
2A7
330
2
100
AcDbEntity
  8
WAKU
 62
     4
100
AcDbLine
 10
-18.63522044883697
 20
-9.122272931943143
 30
0.0
 11
-18.63522044883697
 21
-49.12227293194314
 31
0.0
  0
LINE
  5
2A8
330
2
100
AcDbEntity
  8
WAKU
 62
     4
100
AcDbLine
 10
66.364779551163
 20
-49.12227293194314
 30
0.0
 11
-58.63522044883675
 21
-49.12227293194314
 31
0.0
  0
LINE
  5
2A9
330
2
100
AcDbEntity
  8
WAKU
 62
     1
100
AcDbLine
 10
-58.63522044883675
 20
-34.12227293194315
 30
0.0
 11
66.364779551163
 21
-34.12227293194315
 31
0.0
  0
LINE
  5
2AA
330
2
100
AcDbEntity
  8
WAKU
 62
     1
100
AcDbLine
 10
-58.63522044883675
 20
-24.12227293194315
 30
0.0
 11
66.364779551163
 21
-24.12227293194315
 31
0.0
  0
LINE
  5
2AB
330
2
100
AcDbEntity
  8
WAKU
 62
     1
100
AcDbLine
 10
-58.63522044883675
 20
-14.12227293194314
 30
0.0
 11
66.364779551163
 21
-14.12227293194314
 31
0.0
  0
LINE
  5
2AC
330
2
100
AcDbEntity
  8
WAKU
 62
     4
100
AcDbLine
 10
-58.63522044883675
 20
-9.122272931943143
 30
0.0
 11
66.364779551163
 21
-9.122272931943143
 31
0.0
  0
LINE
  5
2AD
330
2
100
AcDbEntity
  8
WAKU
 62
     1
100
AcDbLine
 10
-58.63522044883675
 20
-29.12227293194315
 30
0.0
 11
66.364779551163
 21
-29.12227293194315
 31
0.0
  0
LINE
  5
2AE
330
2
100
AcDbEntity
  8
WAKU
 62
     1
100
AcDbLine
 10
-58.63522044883675
 20
-19.12227293194314
 30
0.0
 11
66.364779551163
 21
-19.12227293194314
 31
0.0
  0
TEXT
  5
2AF
330
2
100
AcDbEntity
  8
MOJI1
100
AcDbText
 10
-17.13522044883677
 20
-48.24812533562408
 30
0.0
 40
3.0
  1
本体：約３１．０ ｋｇ、金具：２ ｋｇ
100
AcDbText
  0
TEXT
  5
2B0
330
2
100
AcDbEntity
  8
MOJI1
100
AcDbText
 10
-17.13522044883674
 20
-38.12227293194315
 30
0.0
 40
3.0
  1
ビデオ入力、ＲＧＢ／コンポーネントビデオ入力、ＨＤＭＩ入力
 41
0.7800000000000001
100
AcDbText
  0
TEXT
  5
2B1
330
2
100
AcDbEntity
  8
MOJI1
100
AcDbText
 10
-17.13522044883674
 20
-18.12227293194314
 30
0.0
 40
3.0
  1
２３５Ｗ
100
AcDbText
  0
TEXT
  5
2B2
330
2
100
AcDbEntity
  8
MOJI1
100
AcDbText
 10
-17.13522044883674
 20
-23.12227293194315
 30
0.0
 40
3.0
  1
５０型（１２６８ｃｍ）１６：９
100
AcDbText
  0
TEXT
  5
2B3
330
2
100
AcDbEntity
  8
MOJI1
100
AcDbText
 10
-17.13522044883674
 20
-33.12227293194315
 30
0.0
 40
3.0
  1
２００００００：１
100
AcDbText
  0
TEXT
  5
2B4
330
2
100
AcDbEntity
  8
MOJI1
100
AcDbText
 10
-17.13522044883674
 20
-28.12227293194315
 30
0.0
 40
3.0
  1
１９２０×１０８０画素
100
AcDbText
  0
TEXT
  5
2B5
330
2
100
AcDbEntity
  8
MOJI1
100
AcDbText
 10
-17.13522044883674
 20
-13.12227293194314
 30
0.0
 40
3.0
  1
ＡＣ１００Ｖ　５０Ｈｚ／６０Ｈｚ
100
AcDbText
  0
TEXT
  5
2B6
330
2
100
AcDbEntity
  8
MOJI1
100
AcDbText
 10
-17.13522044883677
 20
-43.12227293194314
 30
0.0
 40
3.0
  1
ＤＶＩ－Ｄ入力、ＰＣ入力、ＲＳ２３２Ｃ、音声入力
 41
0.95
100
AcDbText
  0
ENDSEC
  0
SECTION
  2
OBJECTS
  0
DICTIONARY
  5
7
330
0
100
AcDbDictionary
281
     1
  3
ACAD_COLOR
350
2D
  3
ACAD_GROUP
350
29
  3
ACAD_LAYOUT
350
B
  3
ACAD_MATERIAL
350
2C
  3
ACAD_MLINESTYLE
350
2A
  3
ACAD_PLOTSETTINGS
350
2B
  3
ACAD_PLOTSTYLENAME
350
6
  3
ACDBHEADERROUNDTRIPXREC
350
301
  3
AcDbVariableDictionary
350
2FC
  0
DICTIONARY
  5
11
330
10
100
AcDbDictionary
280
     1
281
     1
  3
ACAD_LAYERFILTERS
360
12
  3
ACAD_LAYERSTATES
360
13
  0
DICTIONARY
  5
2D
102
{ACAD_REACTORS
330
7
102
}
330
7
100
AcDbDictionary
281
     1
  0
DICTIONARY
  5
29
102
{ACAD_REACTORS
330
7
102
}
330
7
100
AcDbDictionary
281
     1
  0
DICTIONARY
  5
B
102
{ACAD_REACTORS
330
7
102
}
330
7
100
AcDbDictionary
281
     1
  3
Model
350
A
  3
レイアウト1
350
F
  0
DICTIONARY
  5
2C
102
{ACAD_REACTORS
330
7
102
}
330
7
100
AcDbDictionary
281
     1
  0
DICTIONARY
  5
2A
102
{ACAD_REACTORS
330
7
102
}
330
7
100
AcDbDictionary
281
     1
  3
Standard
350
2F
  0
DICTIONARY
  5
2B
102
{ACAD_REACTORS
330
7
102
}
330
7
100
AcDbDictionary
281
     1
  0
ACDBDICTIONARYWDFLT
  5
6
102
{ACAD_REACTORS
330
7
102
}
330
7
100
AcDbDictionary
281
     1
  3
Normal
350
5
100
AcDbDictionaryWithDefault
340
5
  0
DICTIONARY
  5
301
102
{ACAD_REACTORS
330
7
102
}
330
7
100
AcDbDictionary
281
     1
  3
COLORDICT
350
303
  3
MATERIALDICT
350
302
  0
DICTIONARY
  5
2FC
102
{ACAD_REACTORS
330
7
102
}
330
7
100
AcDbDictionary
281
     1
  3
DIMASSOC
350
2FE
  3
HIDETEXT
350
2FD
  3
PROJECTNAME
350
2FF
  0
DICTIONARY
  5
12
102
{ACAD_REACTORS
330
11
102
}
330
11
100
AcDbDictionary
281
     1
  0
DICTIONARY
  5
13
102
{ACAD_REACTORS
330
11
102
}
330
11
100
AcDbDictionary
281
     1
  0
LAYOUT
  5
A
102
{ACAD_XDICTIONARY
360
304
102
}
102
{ACAD_REACTORS
330
B
102
}
330
B
100
AcDbPlotSettings
  1

  2
10F06M_RICOH_SP-8100
  4
A4
  6

 40
5.873749732971191
 41
5.873747825622558
 42
5.873748779296875
 43
5.873748779296875
 44
209.9733276367187
 45
296.9259948730469
 46
5.429999999999999
 47
0.0
 48
0.0
 49
0.0
140
0.0
141
0.0
142
1.0
143
1.382388793903341
 70
 11956
 72
     1
 73
     0
 74
     1
  7
tmsacad.ctb
 75
     0
147
0.7233854935820042
148
0.0064050313486632
149
0.0060110292993159
100
AcDbLayout
  1
Model
 70
     1
 71
     0
 10
0.0
 20
0.0
 11
12.0
 21
9.0
 12
0.0
 22
0.0
 32
0.0
 14
0.0
 24
0.0
 34
0.0
 15
0.0
 25
0.0
 35
0.0
146
0.0
 13
0.0
 23
0.0
 33
0.0
 16
1.0
 26
0.0
 36
0.0
 17
0.0
 27
1.0
 37
0.0
 76
     0
330
2
  0
LAYOUT
  5
F
102
{ACAD_XDICTIONARY
360
306
102
}
102
{ACAD_REACTORS
330
B
102
}
330
B
100
AcDbPlotSettings
  1

  2
None
  4

  6

 40
0.0
 41
0.0
 42
0.0
 43
0.0
 44
0.0
 45
0.0
 46
0.0
 47
0.0
 48
0.0
 49
0.0
140
0.0
141
0.0
142
1.0
143
1.0
 70
   688
 72
     0
 73
     0
 74
     5
  7
tmsacad.ctb
 75
    16
147
1.0
148
0.0
149
0.0
100
AcDbLayout
  1
レイアウト1
 70
     1
 71
     1
 10
0.0
 20
0.0
 11
12.0
 21
9.0
 12
0.0
 22
0.0
 32
0.0
 14
0.0
 24
0.0
 34
0.0
 15
0.0
 25
0.0
 35
0.0
146
0.0
 13
0.0
 23
0.0
 33
0.0
 16
1.0
 26
0.0
 36
0.0
 17
0.0
 27
1.0
 37
0.0
 76
     0
330
C
  0
MLINESTYLE
  5
2F
102
{ACAD_REACTORS
330
2A
102
}
330
2A
100
AcDbMlineStyle
  2
STANDARD
 70
     0
  3

 62
   256
 51
90.0
 52
90.0
 71
     2
 49
0.5
 62
   256
  6
BYLAYER
 49
-0.5
 62
   256
  6
BYLAYER
  0
ACDBPLACEHOLDER
  5
5
102
{ACAD_REACTORS
330
6
102
}
330
6
  0
XRECORD
  5
303
102
{ACAD_REACTORS
330
301
102
}
330
301
100
AcDbXrecord
280
     1
340
2D
  0
XRECORD
  5
302
102
{ACAD_REACTORS
330
301
102
}
330
301
100
AcDbXrecord
280
     1
340
2C
  0
DICTIONARYVAR
  5
2FE
102
{ACAD_REACTORS
330
2FC
102
}
330
2FC
100
DictionaryVariables
280
     0
  1
1
  0
DICTIONARYVAR
  5
2FD
102
{ACAD_REACTORS
330
2FC
102
}
330
2FC
100
DictionaryVariables
280
     0
  1
1
  0
DICTIONARYVAR
  5
2FF
102
{ACAD_REACTORS
330
2FC
102
}
330
2FC
100
DictionaryVariables
280
     0
  1

  0
DICTIONARY
  5
304
330
A
100
AcDbDictionary
280
     1
281
     1
  3
ACAD_XREC_ROUNDTRIP
360
305
  0
DICTIONARY
  5
306
330
F
100
AcDbDictionary
280
     1
281
     1
  3
ACAD_XREC_ROUNDTRIP
360
307
  0
XRECORD
  5
305
102
{ACAD_REACTORS
330
304
102
}
330
304
100
AcDbXrecord
280
     1
102
SHADEPLOT
 70
     0
102
SHADEPLOTRESLEVEL
 70
     2
102
SHADEPLOTCUSTOMDPI
 70
   300
  0
XRECORD
  5
307
102
{ACAD_REACTORS
330
306
102
}
330
306
100
AcDbXrecord
280
     1
102
SHADEPLOT
 70
     0
102
SHADEPLOTRESLEVEL
 70
     2
102
SHADEPLOTCUSTOMDPI
 70
   300
  0
ENDSEC
  0
EOF
