  0
SECTION
  2
HEADER
  9
$ACADVER
  1
AC1015
  9
$ACADMAINTVER
 70
    20
  9
$DWGCODEPAGE
  3
ANSI_932
  9
$INSBASE
 10
129.499999944041
 20
372.5008351249344
 30
0.0
  9
$EXTMIN
 10
-60.95947174932746
 20
-47.11775143854061
 30
-0.0015258207003583
  9
$EXTMAX
 10
64.07409724322395
 20
65.9068455152526
 30
0.0000000349246037
  9
$LIMMIN
 10
0.0
 20
0.0
  9
$LIMMAX
 10
420.0
 20
297.0
  9
$ORTHOMODE
 70
     0
  9
$REGENMODE
 70
     0
  9
$FILLMODE
 70
     1
  9
$QTEXTMODE
 70
     0
  9
$MIRRTEXT
 70
     0
  9
$LTSCALE
 40
1.0
  9
$ATTMODE
 70
     1
  9
$TEXTSIZE
 40
2.5
  9
$TRACEWID
 40
1.0
  9
$TEXTSTYLE
  7
Standard
  9
$CLAYER
  8
GAIKEI
  9
$CELTYPE
  6
ByLayer
  9
$CECOLOR
 62
   256
  9
$CELTSCALE
 40
1.0
  9
$DISPSILH
 70
     0
  9
$DIMSCALE
 40
1.0
  9
$DIMASZ
 40
2.0
  9
$DIMEXO
 40
2.0
  9
$DIMDLI
 40
8.0
  9
$DIMRND
 40
0.0
  9
$DIMDLE
 40
0.0
  9
$DIMEXE
 40
2.0
  9
$DIMTP
 40
0.0
  9
$DIMTM
 40
0.0
  9
$DIMTXT
 40
2.5
  9
$DIMCEN
 40
0.0
  9
$DIMTSZ
 40
0.0
  9
$DIMTOL
 70
     0
  9
$DIMLIM
 70
     0
  9
$DIMTIH
 70
     0
  9
$DIMTOH
 70
     0
  9
$DIMSE1
 70
     0
  9
$DIMSE2
 70
     0
  9
$DIMTAD
 70
     3
  9
$DIMZIN
 70
     0
  9
$DIMBLK
  1

  9
$DIMASO
 70
     1
  9
$DIMSHO
 70
     1
  9
$DIMPOST
  1

  9
$DIMAPOST
  1

  9
$DIMALT
 70
     0
  9
$DIMALTD
 70
     2
  9
$DIMALTF
 40
25.4
  9
$DIMLFAC
 40
1.0
  9
$DIMTOFL
 70
     1
  9
$DIMTVP
 40
0.0
  9
$DIMTIX
 70
     0
  9
$DIMSOXD
 70
     0
  9
$DIMSAH
 70
     1
  9
$DIMBLK1
  1
OPEN30
  9
$DIMBLK2
  1
OPEN30
  9
$DIMSTYLE
  2
STANDARD
  9
$DIMCLRD
 70
     0
  9
$DIMCLRE
 70
     0
  9
$DIMCLRT
 70
     0
  9
$DIMTFAC
 40
1.0
  9
$DIMGAP
 40
0.5
  9
$DIMJUST
 70
     0
  9
$DIMSD1
 70
     0
  9
$DIMSD2
 70
     0
  9
$DIMTOLJ
 70
     1
  9
$DIMTZIN
 70
     0
  9
$DIMALTZ
 70
     0
  9
$DIMALTTZ
 70
     0
  9
$DIMUPT
 70
     0
  9
$DIMDEC
 70
     4
  9
$DIMTDEC
 70
     4
  9
$DIMALTU
 70
     2
  9
$DIMALTTD
 70
     2
  9
$DIMTXSTY
  7
Standard
  9
$DIMAUNIT
 70
     0
  9
$DIMADEC
 70
     0
  9
$DIMALTRND
 40
0.0
  9
$DIMAZIN
 70
     0
  9
$DIMDSEP
 70
    46
  9
$DIMATFIT
 70
     3
  9
$DIMFRAC
 70
     0
  9
$DIMLDRBLK
  1
OPEN30
  9
$DIMLUNIT
 70
     2
  9
$DIMLWD
 70
    -2
  9
$DIMLWE
 70
    -2
  9
$DIMTMOVE
 70
     0
  9
$LUNITS
 70
     2
  9
$LUPREC
 70
     4
  9
$SKETCHINC
 40
1.0
  9
$FILLETRAD
 40
0.0
  9
$AUNITS
 70
     0
  9
$AUPREC
 70
     0
  9
$MENU
  1
.
  9
$ELEVATION
 40
0.0
  9
$PELEVATION
 40
0.0
  9
$THICKNESS
 40
0.0
  9
$LIMCHECK
 70
     0
  9
$CHAMFERA
 40
0.0
  9
$CHAMFERB
 40
0.0
  9
$CHAMFERC
 40
0.0
  9
$CHAMFERD
 40
0.0
  9
$SKPOLY
 70
     0
  9
$TDCREATE
 40
2454349.434269746
  9
$TDUCREATE
 40
2454349.059269746
  9
$TDUPDATE
 40
2455756.336489896
  9
$TDUUPDATE
 40
2455755.961489896
  9
$TDINDWG
 40
0.2801301968
  9
$TDUSRTIMER
 40
0.2801301968
  9
$USRTIMER
 70
     1
  9
$ANGBASE
 50
0.0
  9
$ANGDIR
 70
     0
  9
$PDMODE
 70
     0
  9
$PDSIZE
 40
0.0
  9
$PLINEWID
 40
0.0
  9
$SPLFRAME
 70
     0
  9
$SPLINETYPE
 70
     6
  9
$SPLINESEGS
 70
     8
  9
$HANDSEED
  5
223
  9
$SURFTAB1
 70
     6
  9
$SURFTAB2
 70
     6
  9
$SURFTYPE
 70
     6
  9
$SURFU
 70
     6
  9
$SURFV
 70
     6
  9
$UCSBASE
  2

  9
$UCSNAME
  2

  9
$UCSORG
 10
0.0
 20
0.0
 30
0.0
  9
$UCSXDIR
 10
1.0
 20
0.0
 30
0.0
  9
$UCSYDIR
 10
0.0
 20
1.0
 30
0.0
  9
$UCSORTHOREF
  2

  9
$UCSORTHOVIEW
 70
     0
  9
$UCSORGTOP
 10
0.0
 20
0.0
 30
0.0
  9
$UCSORGBOTTOM
 10
0.0
 20
0.0
 30
0.0
  9
$UCSORGLEFT
 10
0.0
 20
0.0
 30
0.0
  9
$UCSORGRIGHT
 10
0.0
 20
0.0
 30
0.0
  9
$UCSORGFRONT
 10
0.0
 20
0.0
 30
0.0
  9
$UCSORGBACK
 10
0.0
 20
0.0
 30
0.0
  9
$PUCSBASE
  2

  9
$PUCSNAME
  2

  9
$PUCSORG
 10
0.0
 20
0.0
 30
0.0
  9
$PUCSXDIR
 10
1.0
 20
0.0
 30
0.0
  9
$PUCSYDIR
 10
0.0
 20
1.0
 30
0.0
  9
$PUCSORTHOREF
  2

  9
$PUCSORTHOVIEW
 70
     0
  9
$PUCSORGTOP
 10
0.0
 20
0.0
 30
0.0
  9
$PUCSORGBOTTOM
 10
0.0
 20
0.0
 30
0.0
  9
$PUCSORGLEFT
 10
0.0
 20
0.0
 30
0.0
  9
$PUCSORGRIGHT
 10
0.0
 20
0.0
 30
0.0
  9
$PUCSORGFRONT
 10
0.0
 20
0.0
 30
0.0
  9
$PUCSORGBACK
 10
0.0
 20
0.0
 30
0.0
  9
$USERI1
 70
     0
  9
$USERI2
 70
     0
  9
$USERI3
 70
     0
  9
$USERI4
 70
     0
  9
$USERI5
 70
     0
  9
$USERR1
 40
0.0
  9
$USERR2
 40
0.0
  9
$USERR3
 40
0.0
  9
$USERR4
 40
0.0
  9
$USERR5
 40
0.0
  9
$WORLDVIEW
 70
     1
  9
$SHADEDGE
 70
     3
  9
$SHADEDIF
 70
    70
  9
$TILEMODE
 70
     1
  9
$MAXACTVP
 70
    64
  9
$PINSBASE
 10
0.0
 20
0.0
 30
0.0
  9
$PLIMCHECK
 70
     0
  9
$PEXTMIN
 10
0.0
 20
0.0
 30
0.0
  9
$PEXTMAX
 10
0.0
 20
0.0
 30
0.0
  9
$PLIMMIN
 10
0.0
 20
0.0
  9
$PLIMMAX
 10
12.0
 20
9.0
  9
$UNITMODE
 70
     0
  9
$VISRETAIN
 70
     1
  9
$PLINEGEN
 70
     0
  9
$PSLTSCALE
 70
     1
  9
$TREEDEPTH
 70
  3020
  9
$CMLSTYLE
  2
Standard
  9
$CMLJUST
 70
     0
  9
$CMLSCALE
 40
20.0
  9
$PROXYGRAPHICS
 70
     1
  9
$MEASUREMENT
 70
     1
  9
$CELWEIGHT
370
    -1
  9
$ENDCAPS
280
     0
  9
$JOINSTYLE
280
     0
  9
$LWDISPLAY
290
     0
  9
$INSUNITS
 70
     4
  9
$HYPERLINKBASE
  1

  9
$STYLESHEET
  1

  9
$XEDIT
290
     1
  9
$CEPSNTYPE
380
     0
  9
$PSTYLEMODE
290
     1
  9
$FINGERPRINTGUID
  2
{FDEAD578-A652-11D2-9A35-0060089B3A3F}
  9
$VERSIONGUID
  2
{C4CD4C56-9FEC-472E-B272-F67A5EA8B164}
  9
$EXTNAMES
290
     1
  9
$PSVPSCALE
 40
0.0
  9
$OLESTARTUP
290
     0
  0
ENDSEC
  0
SECTION
  2
CLASSES
  0
CLASS
  1
ACDBDICTIONARYWDFLT
  2
AcDbDictionaryWithDefault
  3
ObjectDBX Classes
 90
        0
280
     0
281
     0
  0
CLASS
  1
ACDBPLACEHOLDER
  2
AcDbPlaceHolder
  3
ObjectDBX Classes
 90
        0
280
     0
281
     0
  0
CLASS
  1
LAYOUT
  2
AcDbLayout
  3
ObjectDBX Classes
 90
        0
280
     0
281
     0
  0
CLASS
  1
DICTIONARYVAR
  2
AcDbDictionaryVar
  3
ObjectDBX Classes
 90
        0
280
     0
281
     0
  0
ENDSEC
  0
SECTION
  2
TABLES
  0
TABLE
  2
VPORT
  5
1B
330
0
100
AcDbSymbolTable
 70
     3
  0
VPORT
  5
21B
330
1B
100
AcDbSymbolTableRecord
100
AcDbViewportTableRecord
  2
*Active
 70
     0
 10
0.0
 20
0.0
 11
1.0
 21
1.0
 12
1.557312746948241
 22
9.394547038355995
 13
0.0
 23
0.0
 14
10.0
 24
10.0
 15
10.0
 25
10.0
 16
0.0
 26
0.0
 36
1.0
 17
0.0
 27
0.0
 37
0.0
 40
113.8786871070964
 41
2.184110970996216
 42
50.0
 43
0.0
 44
0.0
 50
0.0
 51
0.0
 71
     0
 72
  1000
 73
     1
 74
     2
 75
     0
 76
     0
 77
     0
 78
     0
281
     0
 65
     1
110
0.0
120
0.0
130
0.0
111
1.0
121
0.0
131
0.0
112
0.0
122
1.0
132
0.0
 79
     0
146
0.0
  0
ENDTAB
  0
TABLE
  2
LTYPE
  5
16
330
0
100
AcDbSymbolTable
 70
     1
  0
LTYPE
  5
17
330
16
100
AcDbSymbolTableRecord
100
AcDbLinetypeTableRecord
  2
ByBlock
 70
     0
  3

 72
    65
 73
     0
 40
0.0
  0
LTYPE
  5
18
330
16
100
AcDbSymbolTableRecord
100
AcDbLinetypeTableRecord
  2
ByLayer
 70
     0
  3

 72
    65
 73
     0
 40
0.0
  0
LTYPE
  5
8
330
16
100
AcDbSymbolTableRecord
100
AcDbLinetypeTableRecord
  2
Continuous
 70
     0
  3
Solid line
 72
    65
 73
     0
 40
0.0
  0
ENDTAB
  0
TABLE
  2
LAYER
  5
10
102
{ACAD_XDICTIONARY
360
11
102
}
330
0
100
AcDbSymbolTable
 70
     7
  0
LAYER
  5
4
330
10
100
AcDbSymbolTableRecord
100
AcDbLayerTableRecord
  2
0
 70
     0
 62
     7
  6
Continuous
370
    -3
390
5
  0
LAYER
  5
1C6
330
10
100
AcDbSymbolTableRecord
100
AcDbLayerTableRecord
  2
WAKU
 70
     0
 62
     4
  6
Continuous
370
    -3
390
5
  0
LAYER
  5
30
330
10
100
AcDbSymbolTableRecord
100
AcDbLayerTableRecord
  2
MOJI1
 70
     0
 62
     2
  6
Continuous
370
    -3
390
5
  0
LAYER
  5
32
330
10
100
AcDbSymbolTableRecord
100
AcDbLayerTableRecord
  2
TOUROKU
 70
     0
 62
     1
  6
Continuous
370
    -3
390
5
  0
LAYER
  5
9E
330
10
100
AcDbSymbolTableRecord
100
AcDbLayerTableRecord
  2
DEFPOINTS
 70
     0
 62
     7
  6
Continuous
290
     0
370
    -3
390
5
  0
LAYER
  5
2D
330
10
100
AcDbSymbolTableRecord
100
AcDbLayerTableRecord
  2
GAIKEI
 70
     0
 62
     7
  6
Continuous
370
    -3
390
5
  0
LAYER
  5
94
330
10
100
AcDbSymbolTableRecord
100
AcDbLayerTableRecord
  2
SUNPO
 70
     0
 62
     3
  6
Continuous
370
    -3
390
5
  0
ENDTAB
  0
TABLE
  2
STYLE
  5
13
330
0
100
AcDbSymbolTable
 70
     1
  0
STYLE
  5
14
330
13
100
AcDbSymbolTableRecord
100
AcDbTextStyleTableRecord
  2
Standard
 70
     0
 40
0.0
 41
1.0
 50
0.0
 71
     0
 42
2.5
  3
MONOTXT.shx
  4
BIGFONT.shx
  0
ENDTAB
  0
TABLE
  2
VIEW
  5
19
330
0
100
AcDbSymbolTable
 70
     0
  0
ENDTAB
  0
TABLE
  2
UCS
  5
1A
330
0
100
AcDbSymbolTable
 70
     0
  0
ENDTAB
  0
TABLE
  2
APPID
  5
1D
330
0
100
AcDbSymbolTable
 70
     1
  0
APPID
  5
1E
330
1D
100
AcDbSymbolTableRecord
100
AcDbRegAppTableRecord
  2
ACAD
 70
     0
  0
ENDTAB
  0
TABLE
  2
DIMSTYLE
  5
1F
330
0
100
AcDbSymbolTable
 70
     1
100
AcDbDimStyleTable
 71
     1
340
20
  0
DIMSTYLE
105
20
102
{ACAD_REACTORS
330
93
330
A2
330
AF
102
}
330
1F
100
AcDbSymbolTableRecord
100
AcDbDimStyleTableRecord
  2
STANDARD
 70
     0
 40
0.0
 41
2.0
 42
2.0
 43
8.0
 44
2.0
 73
     0
 74
     0
 77
     3
140
3.0
141
0.0
173
     1
279
     2
288
     1
340
14
341
21
343
21
344
21
  0
ENDTAB
  0
TABLE
  2
BLOCK_RECORD
  5
1
330
0
100
AcDbSymbolTable
 70
     7
  0
BLOCK_RECORD
  5
2
330
1
100
AcDbSymbolTableRecord
100
AcDbBlockTableRecord
  2
*Model_Space
340
A
  0
BLOCK_RECORD
  5
C
330
1
100
AcDbSymbolTableRecord
100
AcDbBlockTableRecord
  2
*Paper_Space
340
F
  0
BLOCK_RECORD
  5
21
330
1
100
AcDbSymbolTableRecord
100
AcDbBlockTableRecord
  2
_OPEN30
340
0
102
{BLKREFS
331
9A
331
9B
331
A8
331
A9
331
B7
331
B8
331
1F7
331
1F8
331
203
331
204
331
20F
331
210
102
}
  0
BLOCK_RECORD
  5
95
330
1
100
AcDbSymbolTableRecord
100
AcDbBlockTableRecord
  2
*D1
340
0
  0
BLOCK_RECORD
  5
A3
330
1
100
AcDbSymbolTableRecord
100
AcDbBlockTableRecord
  2
*D2
340
0
  0
BLOCK_RECORD
  5
B0
330
1
100
AcDbSymbolTableRecord
100
AcDbBlockTableRecord
  2
*D3
340
0
  0
BLOCK_RECORD
  5
1F1
330
1
100
AcDbSymbolTableRecord
100
AcDbBlockTableRecord
  2
*D4
340
0
  0
BLOCK_RECORD
  5
1FF
330
1
100
AcDbSymbolTableRecord
100
AcDbBlockTableRecord
  2
*D5
340
0
  0
BLOCK_RECORD
  5
20B
330
1
100
AcDbSymbolTableRecord
100
AcDbBlockTableRecord
  2
*D6
340
0
  0
ENDTAB
  0
ENDSEC
  0
SECTION
  2
BLOCKS
  0
BLOCK
  5
3
330
2
100
AcDbEntity
  8
0
100
AcDbBlockBegin
  2
*Model_Space
 70
     0
 10
0.0
 20
0.0
 30
0.0
  3
*Model_Space
  1

  0
ENDBLK
  5
9
330
2
100
AcDbEntity
  8
0
100
AcDbBlockEnd
  0
BLOCK
  5
D
330
C
100
AcDbEntity
 67
     1
  8
0
100
AcDbBlockBegin
  2
*Paper_Space
 70
     0
 10
0.0
 20
0.0
 30
0.0
  3
*Paper_Space
  1

  0
ENDBLK
  5
E
330
C
100
AcDbEntity
 67
     1
  8
0
100
AcDbBlockEnd
  0
BLOCK
  5
22
330
21
100
AcDbEntity
  8
0
100
AcDbBlockBegin
  2
_OPEN30
 70
     0
 10
0.0
 20
0.0
 30
0.0
  3
_OPEN30
  1

  0
LINE
  5
23
330
21
100
AcDbEntity
  8
0
  6
ByBlock
 62
     0
100
AcDbLine
 10
-1.0
 20
0.26794919
 30
0.0
 11
0.0
 21
0.0
 31
0.0
  0
LINE
  5
24
330
21
100
AcDbEntity
  8
0
  6
ByBlock
 62
     0
100
AcDbLine
 10
0.0
 20
0.0
 30
0.0
 11
-1.0
 21
-0.26794919
 31
0.0
  0
LINE
  5
25
330
21
100
AcDbEntity
  8
0
  6
ByBlock
 62
     0
100
AcDbLine
 10
0.0
 20
0.0
 30
0.0
 11
-1.0
 21
0.0
 31
0.0
  0
ENDBLK
  5
26
330
21
100
AcDbEntity
  8
0
100
AcDbBlockEnd
  0
BLOCK
  5
96
330
95
100
AcDbEntity
  8
0
100
AcDbBlockBegin
  2
*D1
 70
     1
 10
0.0
 20
0.0
 30
0.0
  3
*D1
  1

  0
LINE
  5
97
330
95
100
AcDbEntity
  8
SUNPO
 62
     0
370
    -2
100
AcDbLine
 10
147.5750738872323
 20
345.8581264214168
 30
0.0
 11
147.5750738872323
 21
353.8581264214168
 31
0.0
  0
LINE
  5
98
330
95
100
AcDbEntity
  8
SUNPO
 62
     0
370
    -2
100
AcDbLine
 10
208.0750738630322
 20
345.8581264214168
 30
0.0
 11
208.0750738630322
 21
353.8581264214168
 31
0.0
  0
LINE
  5
99
330
95
100
AcDbEntity
  8
SUNPO
 62
     0
370
    -2
100
AcDbLine
 10
149.5750738872323
 20
351.8581264214168
 30
0.0
 11
206.0750738630322
 21
351.8581264214168
 31
0.0
  0
INSERT
  5
9A
330
95
100
AcDbEntity
  8
SUNPO
 62
     0
370
    -2
100
AcDbBlockReference
  2
_OPEN30
 10
147.5750738872323
 20
351.8581264214168
 30
0.0
 41
2.0
 42
2.0
 43
2.0
 50
180.0
  0
INSERT
  5
9B
330
95
100
AcDbEntity
  8
SUNPO
 62
     0
370
    -2
100
AcDbBlockReference
  2
_OPEN30
 10
208.0750738630322
 20
351.8581264214168
 30
0.0
 41
2.0
 42
2.0
 43
2.0
  0
MTEXT
  5
9C
330
95
100
AcDbEntity
  8
SUNPO
 62
     0
100
AcDbMText
 10
177.8250738751322
 20
353.6081264214169
 30
0.0
 40
2.5
 41
0.0
 71
     5
 72
     1
  1
\A1;1210
 73
     1
 44
1.0
1001
ACAD
1000
MTEXTBEGIN
1070
    73
1070
     1
1070
    44
1040
1.0
1070
    74
1070
     0
1000
MTEXTEND
  0
POINT
  5
9D
330
95
100
AcDbEntity
  8
DEFPOINTS
 62
     0
100
AcDbPoint
 10
147.5750738872323
 20
343.8581264214168
 30
0.0
  0
POINT
  5
9F
330
95
100
AcDbEntity
  8
DEFPOINTS
 62
     0
100
AcDbPoint
 10
208.0750738630322
 20
343.8581264214168
 30
0.0
  0
POINT
  5
A0
330
95
100
AcDbEntity
  8
DEFPOINTS
 62
     0
100
AcDbPoint
 10
208.0750738630322
 20
351.8581264214168
 30
0.0
  0
ENDBLK
  5
A1
330
95
100
AcDbEntity
  8
0
100
AcDbBlockEnd
  0
BLOCK
  5
A4
330
A3
100
AcDbEntity
  8
0
100
AcDbBlockBegin
  2
*D2
 70
     1
 10
0.0
 20
0.0
 30
0.0
  3
*D2
  1

  0
LINE
  5
A5
330
A3
100
AcDbEntity
  8
SUNPO
 62
     0
370
    -2
100
AcDbLine
 10
209.6353086733045
 20
307.6661027301073
 30
0.0
 11
217.6353086733045
 21
307.6661027301073
 31
0.0
  0
LINE
  5
A6
330
A3
100
AcDbEntity
  8
SUNPO
 62
     0
370
    -2
100
AcDbLine
 10
209.6353086733045
 20
343.8584128657682
 30
0.0
 11
217.6353086733045
 21
343.8584128657682
 31
0.0
  0
LINE
  5
A7
330
A3
100
AcDbEntity
  8
SUNPO
 62
     0
370
    -2
100
AcDbLine
 10
215.6353086733045
 20
309.6661027301073
 30
0.0
 11
215.6353086733045
 21
341.8584128657682
 31
0.0
  0
INSERT
  5
A8
330
A3
100
AcDbEntity
  8
SUNPO
 62
     0
370
    -2
100
AcDbBlockReference
  2
_OPEN30
 10
215.6353086733045
 20
307.6661027301073
 30
0.0
 41
2.0
 42
2.0
 43
2.0
 50
270.0
  0
INSERT
  5
A9
330
A3
100
AcDbEntity
  8
SUNPO
 62
     0
370
    -2
100
AcDbBlockReference
  2
_OPEN30
 10
215.6353086733045
 20
343.8584128657682
 30
0.0
 41
2.0
 42
2.0
 43
2.0
 50
90.0
  0
MTEXT
  5
AA
330
A3
100
AcDbEntity
  8
SUNPO
 62
     0
100
AcDbMText
 10
213.8853086733045
 20
325.7622577979378
 30
0.0
 40
2.5
 41
0.0
 71
     5
 72
     1
  1
\A1;724
 11
0.0000000000000001
 21
1.0
 31
0.0
 73
     1
 44
1.0
1001
ACAD
1000
MTEXTBEGIN
1070
    73
1070
     1
1070
    44
1040
1.0
1070
    74
1070
     0
1000
MTEXTEND
  0
POINT
  5
AB
330
A3
100
AcDbEntity
  8
DEFPOINTS
 62
     0
100
AcDbPoint
 10
207.6353086733045
 20
307.6661027301073
 30
0.0
  0
POINT
  5
AC
330
A3
100
AcDbEntity
  8
DEFPOINTS
 62
     0
100
AcDbPoint
 10
207.6353086733045
 20
343.8584128657682
 30
0.0
  0
POINT
  5
AD
330
A3
100
AcDbEntity
  8
DEFPOINTS
 62
     0
100
AcDbPoint
 10
215.6353086733045
 20
343.8584128657682
 30
0.0
  0
ENDBLK
  5
AE
330
A3
100
AcDbEntity
  8
0
100
AcDbBlockEnd
  0
BLOCK
  5
B1
330
B0
100
AcDbEntity
  8
0
100
AcDbBlockBegin
  2
*D3
 70
     1
 10
0.0
 20
0.0
 30
0.0
  3
*D3
  1

  0
LINE
  5
B2
330
B0
100
AcDbEntity
  8
SUNPO
 62
     0
370
    -2
100
AcDbLine
 10
227.7635311257692
 20
345.8646589259759
 30
0.0
 11
227.7635311257692
 21
353.8581264214168
 31
0.0
  0
LINE
  5
B3
330
B0
100
AcDbEntity
  8
SUNPO
 62
     0
370
    -2
100
AcDbLine
 10
232.2135311257692
 20
345.8646589259759
 30
0.0
 11
232.2135311257692
 21
353.8581264214168
 31
0.0
  0
LINE
  5
B4
330
B0
100
AcDbEntity
  8
SUNPO
 62
     0
370
    -2
100
AcDbLine
 10
225.7635311257692
 20
351.8581264214168
 30
0.0
 11
223.7635311257692
 21
351.8581264214168
 31
0.0
  0
LINE
  5
B5
330
B0
100
AcDbEntity
  8
SUNPO
 62
     0
370
    -2
100
AcDbLine
 10
234.2135311257692
 20
351.8581264214168
 30
0.0
 11
241.3801977924358
 21
351.8581264214168
 31
0.0
  0
LINE
  5
B6
330
B0
100
AcDbEntity
  8
SUNPO
 62
     0
370
    -2
100
AcDbLine
 10
227.7635311257692
 20
351.8581264214168
 30
0.0
 11
232.2135311257692
 21
351.8581264214168
 31
0.0
  0
INSERT
  5
B7
330
B0
100
AcDbEntity
  8
SUNPO
 62
     0
370
    -2
100
AcDbBlockReference
  2
_OPEN30
 10
227.7635311257692
 20
351.8581264214168
 30
0.0
 41
2.0
 42
2.0
 43
2.0
  0
INSERT
  5
B8
330
B0
100
AcDbEntity
  8
SUNPO
 62
     0
370
    -2
100
AcDbBlockReference
  2
_OPEN30
 10
232.2135311257692
 20
351.8581264214168
 30
0.0
 41
2.0
 42
2.0
 43
2.0
 50
180.0
  0
MTEXT
  5
B9
330
B0
100
AcDbEntity
  8
SUNPO
 62
     0
100
AcDbMText
 10
238.7968644591025
 20
353.6081264214169
 30
0.0
 40
2.5
 41
0.0
 71
     5
 72
     1
  1
\A1;89
 73
     1
 44
1.0
1001
ACAD
1000
MTEXTBEGIN
1070
    73
1070
     1
1070
    44
1040
1.0
1070
    74
1070
     0
1000
MTEXTEND
  0
POINT
  5
BA
330
B0
100
AcDbEntity
  8
DEFPOINTS
 62
     0
100
AcDbPoint
 10
227.7635311257692
 20
343.8646589259759
 30
0.0
  0
POINT
  5
BB
330
B0
100
AcDbEntity
  8
DEFPOINTS
 62
     0
100
AcDbPoint
 10
232.2135311257692
 20
343.8646589259759
 30
0.0
  0
POINT
  5
BC
330
B0
100
AcDbEntity
  8
DEFPOINTS
 62
     0
100
AcDbPoint
 10
232.2135311257692
 20
351.8581264214168
 30
0.0
  0
ENDBLK
  5
BD
330
B0
100
AcDbEntity
  8
0
100
AcDbBlockEnd
  0
BLOCK
  5
1FD
330
1F1
100
AcDbEntity
  8
0
100
AcDbBlockBegin
  2
*D4
 70
     1
 10
0.0
 20
0.0
 30
0.0
  3
*D4
  1

  0
LINE
  5
1F2
330
1F1
100
AcDbEntity
  8
SUNPO
 62
     0
370
    -2
100
AcDbLine
 10
35.33195711704173
 20
41.25539290107361
 30
0.0
 11
35.33195711704173
 21
49.24886039651449
 31
0.0
  0
LINE
  5
1F3
330
1F1
100
AcDbEntity
  8
SUNPO
 62
     0
370
    -2
100
AcDbLine
 10
39.78195711704172
 20
41.25539290107361
 30
0.0
 11
39.78195711704172
 21
49.24886039651449
 31
0.0
  0
LINE
  5
1F4
330
1F1
100
AcDbEntity
  8
SUNPO
 62
     0
370
    -2
100
AcDbLine
 10
33.33195711704173
 20
47.24886039651448
 30
0.0
 11
31.33195711704173
 21
47.24886039651448
 31
0.0
  0
LINE
  5
1F5
330
1F1
100
AcDbEntity
  8
SUNPO
 62
     0
370
    -2
100
AcDbLine
 10
41.78195711704171
 20
47.24886039651448
 30
0.0
 11
48.94862378370838
 21
47.24886039651448
 31
0.0
  0
LINE
  5
1F6
330
1F1
100
AcDbEntity
  8
SUNPO
 62
     0
370
    -2
100
AcDbLine
 10
35.33195711704173
 20
47.24886039651448
 30
0.0
 11
39.78195711704172
 21
47.24886039651448
 31
0.0
  0
INSERT
  5
1F7
330
1F1
100
AcDbEntity
  8
SUNPO
 62
     0
370
    -2
100
AcDbBlockReference
  2
_OPEN30
 10
35.33195711704173
 20
47.24886039651448
 30
0.0
 41
2.0
 42
2.0
 43
2.0
  0
INSERT
  5
1F8
330
1F1
100
AcDbEntity
  8
SUNPO
 62
     0
370
    -2
100
AcDbBlockReference
  2
_OPEN30
 10
39.78195711704172
 20
47.24886039651448
 30
0.0
 41
2.0
 42
2.0
 43
2.0
 50
180.0
  0
MTEXT
  5
1F9
330
1F1
100
AcDbEntity
  8
SUNPO
 62
     0
100
AcDbMText
 10
46.36529045037504
 20
48.99886039651448
 30
0.0
 40
2.5
 41
0.0
 71
     5
 72
     1
  1
\A1;89
 73
     1
 44
1.0
1001
ACAD
1000
MTEXTBEGIN
1070
    73
1070
     1
1070
    44
1040
1.0
1070
    74
1070
     0
1000
MTEXTEND
  0
POINT
  5
1FA
330
1F1
100
AcDbEntity
  8
DEFPOINTS
 62
     0
100
AcDbPoint
 10
35.33195711704173
 20
39.25539290107361
 30
0.0
  0
POINT
  5
1FB
330
1F1
100
AcDbEntity
  8
DEFPOINTS
 62
     0
100
AcDbPoint
 10
39.78195711704172
 20
39.25539290107361
 30
0.0
  0
POINT
  5
1FC
330
1F1
100
AcDbEntity
  8
DEFPOINTS
 62
     0
100
AcDbPoint
 10
39.78195711704172
 20
47.24886039651448
 30
0.0
  0
ENDBLK
  5
1FE
330
1F1
100
AcDbEntity
  8
0
100
AcDbBlockEnd
  0
BLOCK
  5
209
330
1FF
100
AcDbEntity
  8
0
100
AcDbBlockBegin
  2
*D5
 70
     1
 10
0.0
 20
0.0
 30
0.0
  3
*D5
  1

  0
LINE
  5
200
330
1FF
100
AcDbEntity
  8
SUNPO
 62
     0
370
    -2
100
AcDbLine
 10
17.20373466457707
 20
3.056836705205
 30
0.0
 11
25.20373466457706
 21
3.056836705204998
 31
0.0
  0
LINE
  5
201
330
1FF
100
AcDbEntity
  8
SUNPO
 62
     0
370
    -2
100
AcDbLine
 10
17.20373466457704
 20
39.24914684086581
 30
0.0
 11
25.20373466457707
 21
39.24914684086581
 31
0.0
  0
LINE
  5
202
330
1FF
100
AcDbEntity
  8
SUNPO
 62
     0
370
    -2
100
AcDbLine
 10
23.20373466457706
 20
5.056836705204998
 30
0.0
 11
23.20373466457707
 21
37.24914684086581
 31
0.0
  0
INSERT
  5
203
330
1FF
100
AcDbEntity
  8
SUNPO
 62
     0
370
    -2
100
AcDbBlockReference
  2
_OPEN30
 10
23.20373466457706
 20
3.056836705204998
 30
0.0
 41
2.0
 42
2.0
 43
2.0
 50
270.0
  0
INSERT
  5
204
330
1FF
100
AcDbEntity
  8
SUNPO
 62
     0
370
    -2
100
AcDbBlockReference
  2
_OPEN30
 10
23.20373466457707
 20
39.24914684086581
 30
0.0
 41
2.0
 42
2.0
 43
2.0
 50
90.0
  0
MTEXT
  5
205
330
1FF
100
AcDbEntity
  8
SUNPO
 62
     0
100
AcDbMText
 10
21.45373466457706
 20
21.15299177303541
 30
0.0
 40
2.5
 41
0.0
 71
     5
 72
     1
  1
\A1;724
 11
0.0000000000000001
 21
1.0
 31
0.0
 73
     1
 44
1.0
1001
ACAD
1000
MTEXTBEGIN
1070
    73
1070
     1
1070
    44
1040
1.0
1070
    74
1070
     0
1000
MTEXTEND
  0
POINT
  5
206
330
1FF
100
AcDbEntity
  8
DEFPOINTS
 62
     0
100
AcDbPoint
 10
15.20373466457707
 20
3.056836705205
 30
0.0
  0
POINT
  5
207
330
1FF
100
AcDbEntity
  8
DEFPOINTS
 62
     0
100
AcDbPoint
 10
15.20373466457704
 20
39.24914684086582
 30
0.0
  0
POINT
  5
208
330
1FF
100
AcDbEntity
  8
DEFPOINTS
 62
     0
100
AcDbPoint
 10
23.20373466457707
 20
39.24914684086581
 30
0.0
  0
ENDBLK
  5
20A
330
1FF
100
AcDbEntity
  8
0
100
AcDbBlockEnd
  0
BLOCK
  5
215
330
20B
100
AcDbEntity
  8
0
100
AcDbBlockBegin
  2
*D6
 70
     1
 10
0.0
 20
0.0
 30
0.0
  3
*D6
  1

  0
LINE
  5
20C
330
20B
100
AcDbEntity
  8
SUNPO
 62
     0
370
    -2
100
AcDbLine
 10
-44.85650012149517
 20
41.24886039651449
 30
0.0
 11
-44.85650012149517
 21
49.24886039651449
 31
0.0
  0
LINE
  5
20D
330
20B
100
AcDbEntity
  8
SUNPO
 62
     0
370
    -2
100
AcDbLine
 10
15.64349985430473
 20
41.24886039651449
 30
0.0
 11
15.64349985430473
 21
49.24886039651449
 31
0.0
  0
LINE
  5
20E
330
20B
100
AcDbEntity
  8
SUNPO
 62
     0
370
    -2
100
AcDbLine
 10
-42.85650012149517
 20
47.24886039651448
 30
0.0
 11
13.64349985430473
 21
47.24886039651448
 31
0.0
  0
INSERT
  5
20F
330
20B
100
AcDbEntity
  8
SUNPO
 62
     0
370
    -2
100
AcDbBlockReference
  2
_OPEN30
 10
-44.85650012149517
 20
47.24886039651448
 30
0.0
 41
2.0
 42
2.0
 43
2.0
 50
180.0
  0
INSERT
  5
210
330
20B
100
AcDbEntity
  8
SUNPO
 62
     0
370
    -2
100
AcDbBlockReference
  2
_OPEN30
 10
15.64349985430473
 20
47.24886039651448
 30
0.0
 41
2.0
 42
2.0
 43
2.0
  0
MTEXT
  5
211
330
20B
100
AcDbEntity
  8
SUNPO
 62
     0
100
AcDbMText
 10
-14.60650013359522
 20
48.99886039651448
 30
0.0
 40
2.5
 41
0.0
 71
     5
 72
     1
  1
\A1;1210
 73
     1
 44
1.0
1001
ACAD
1000
MTEXTBEGIN
1070
    73
1070
     1
1070
    44
1040
1.0
1070
    74
1070
     0
1000
MTEXTEND
  0
POINT
  5
212
330
20B
100
AcDbEntity
  8
DEFPOINTS
 62
     0
100
AcDbPoint
 10
-44.85650012149517
 20
39.24886039651449
 30
0.0
  0
POINT
  5
213
330
20B
100
AcDbEntity
  8
DEFPOINTS
 62
     0
100
AcDbPoint
 10
15.64349985430473
 20
39.24886039651449
 30
0.0
  0
POINT
  5
214
330
20B
100
AcDbEntity
  8
DEFPOINTS
 62
     0
100
AcDbPoint
 10
15.64349985430473
 20
47.24886039651448
 30
0.0
  0
ENDBLK
  5
216
330
20B
100
AcDbEntity
  8
0
100
AcDbBlockEnd
  0
ENDSEC
  0
SECTION
  2
ENTITIES
  0
TEXT
  5
2F
330
2
100
AcDbEntity
  8
MOJI1
100
AcDbText
 10
-33.9315740646866
 20
61.89156910003248
 30
0.0
 40
4.0
  1
ハイビジョンプラズマディスプレイ
100
AcDbText
  0
TEXT
  5
31
330
2
100
AcDbEntity
  8
TOUROKU
100
AcDbText
 10
45.80170930157428
 20
55.89156910003203
 30
0.0
 40
2.0
  1
ＴＨ５０ＰＨ３０
 72
     2
 11
64.06837596824096
 21
55.89156910003203
 31
0.0
100
AcDbText
  0
ELLIPSE
  5
33
330
2
100
AcDbEntity
  8
GAIKEI
  6
Continuous
100
AcDbEllipse
 10
15.44322540438486
 20
3.257111155124789
 30
0.0
 11
-0.1418092486302895
 21
0.1418092486302897
 31
0.0
210
0.0
220
0.0
230
1.0
 40
0.9972649999999998
 41
2.35756401806288
 42
3.925621289116826
  0
ELLIPSE
  5
34
330
2
100
AcDbEntity
  8
GAIKEI
  6
Continuous
100
AcDbEllipse
 10
-44.65622567157533
 20
3.257111155124789
 30
0.0
 11
-0.1418092486302894
 21
-0.1418092486302897
 31
0.0
210
0.0
220
0.0
230
1.0
 40
0.9972649999999999
 41
5.499156671652512
 42
7.067213942706579
  0
ELLIPSE
  5
35
330
2
100
AcDbEntity
  8
GAIKEI
  6
Continuous
100
AcDbEllipse
 10
15.44322540438486
 20
39.05656224080497
 30
0.0
 11
-0.1418092486302781
 21
-0.1418092486303011
 31
0.0
210
0.0
220
0.0
230
1.0
 40
0.9972649999999998
 41
2.357564018062679
 42
3.925621289116665
  0
ELLIPSE
  5
36
330
2
100
AcDbEntity
  8
GAIKEI
  6
Continuous
100
AcDbEllipse
 10
-44.65622567157533
 20
39.05656224080497
 30
0.0
 11
-0.1418092486302778
 21
0.1418092486303013
 31
0.0
210
0.0
220
0.0
230
1.0
 40
0.9972649999999999
 41
5.499156671652713
 42
7.067213942706739
  0
ELLIPSE
  5
37
330
2
100
AcDbEntity
  8
GAIKEI
  6
Continuous
 62
     1
100
AcDbEllipse
 10
-42.17824912256651
 20
5.697587704148645
 30
0.0
 11
-0.0717687987905345
 21
-0.071768798790594
 31
0.0
210
0.0
220
0.0
230
1.0
 40
0.985257
 41
5.505213485254125
 42
7.061157129104256
  0
ELLIPSE
  5
38
330
2
100
AcDbEntity
  8
GAIKEI
  6
Continuous
 62
     1
100
AcDbEllipse
 10
12.96524885537605
 20
5.697587704148645
 30
0.0
 11
-0.0717687987905345
 21
0.071768798790594
 31
0.0
210
0.0
220
0.0
230
1.0
 40
0.985257
 41
2.363620831665123
 42
3.919564475515255
  0
ELLIPSE
  5
39
330
2
100
AcDbEntity
  8
GAIKEI
  6
Continuous
 62
     1
100
AcDbEllipse
 10
12.96524885537605
 20
36.61608569178123
 30
0.0
 11
-0.0717687987905403
 21
-0.0717687987905877
 31
0.0
210
0.0
220
0.0
230
1.0
 40
0.9852569999999998
 41
2.363620831663935
 42
3.919564475514135
  0
ELLIPSE
  5
3A
330
2
100
AcDbEntity
  8
GAIKEI
  6
Continuous
 62
     1
100
AcDbEllipse
 10
-42.17824912256651
 20
36.61608569178123
 30
0.0
 11
-0.0717687987905402
 21
0.0717687987905878
 31
0.0
210
0.0
220
0.0
230
1.0
 40
0.9852570000000001
 41
5.505213485255321
 42
7.061157129105444
  0
ELLIPSE
  5
3B
330
2
100
AcDbEntity
  8
GAIKEI
  6
Continuous
 62
     1
100
AcDbEllipse
 10
-42.19065982256154
 20
5.689219404151913
 30
0.0
 11
-0.0866320186582643
 21
-0.127229069338253
 31
0.0
210
0.0
220
0.0
230
1.0
 40
0.973581
 41
6.10967819105908
 42
6.868592923299293
  0
ELLIPSE
  5
3C
330
2
100
AcDbEntity
  8
GAIKEI
  6
Continuous
 62
     1
100
AcDbEllipse
 10
12.97765955537107
 20
5.689219404151913
 30
0.0
 11
-0.0866320186582643
 21
0.1272290693382531
 31
0.0
210
0.0
220
0.0
230
1.0
 40
0.9735809999999998
 41
2.556185037470086
 42
3.315099769710523
  0
ELLIPSE
  5
3D
330
2
100
AcDbEntity
  8
GAIKEI
  6
Continuous
 62
     1
100
AcDbEllipse
 10
12.97361715537272
 20
5.685177004153501
 30
0.0
 11
-0.1272290693381955
 21
0.0866320186583462
 31
0.0
210
0.0
220
0.0
230
1.0
 40
0.973581
 41
2.968085537466982
 42
3.727000269710492
  0
ELLIPSE
  5
3E
330
2
100
AcDbEntity
  8
GAIKEI
  6
Continuous
 62
     1
100
AcDbEllipse
 10
12.97361715537272
 20
36.62849639177625
 30
0.0
 11
-0.1272290693382016
 21
-0.0866320186583367
 31
0.0
210
0.0
220
0.0
230
0.9999999999999998
 40
0.9735809999999998
 41
2.556185037469163
 42
3.315099769710879
  0
ELLIPSE
  5
3F
330
2
100
AcDbEntity
  8
GAIKEI
  6
Continuous
 62
     1
100
AcDbEllipse
 10
-42.18661742256318
 20
36.62849639177625
 30
0.0
 11
-0.1272290693382015
 21
0.0866320186583368
 31
0.0
210
0.0
220
0.0
230
1.0
 40
0.9735809999999998
 41
6.109678191058712
 42
6.868592923300215
  0
ELLIPSE
  5
40
330
2
100
AcDbEntity
  8
GAIKEI
  6
Continuous
 62
     1
100
AcDbEllipse
 10
-42.18661742256318
 20
5.685177004153501
 30
0.0
 11
-0.1272290693381955
 21
-0.0866320186583462
 31
0.0
210
0.0
220
0.0
230
1.0
 40
0.9735809999999997
 41
5.697777691058886
 42
6.456692423302397
  0
ELLIPSE
  5
41
330
2
100
AcDbEntity
  8
GAIKEI
  6
Continuous
 62
     1
100
AcDbEllipse
 10
12.97765955537107
 20
36.62445399177784
 30
0.0
 11
-0.0866320186582728
 21
-0.1272290693382461
 31
0.0
210
0.0
220
0.0
230
1.0
 40
0.9735809999999998
 41
2.9680855374661
 42
3.7270002697099
  0
ELLIPSE
  5
42
330
2
100
AcDbEntity
  8
GAIKEI
  6
Continuous
 62
     1
100
AcDbEllipse
 10
-42.1906598225616
 20
36.62445399177784
 30
0.0
 11
-0.0866320186582728
 21
0.1272290693382462
 31
0.0
210
0.0
220
0.0
230
1.0
 40
0.9735809999999998
 41
5.69777769105948
 42
6.456692423303279
  0
ELLIPSE
  5
43
330
2
100
AcDbEntity
  8
GAIKEI
  6
Continuous
 62
     1
100
AcDbEllipse
 10
-42.81666512231112
 20
5.061192904403128
 30
0.0
 11
-0.0740370952919559
 21
0.0126634681883972
 31
0.0
210
0.0
220
0.0
230
1.0
 40
0.9955149999999999
 41
0.9759762355291181
 42
1.740947781372067
  0
ELLIPSE
  5
44
330
2
100
AcDbEntity
  8
GAIKEI
  6
Continuous
 62
     1
100
AcDbEllipse
 10
13.60366485512071
 20
5.061192904403128
 30
0.0
 11
-0.074037095291956
 21
-0.0126634681883971
 31
0.0
210
0.0
220
0.0
230
1.0
 40
0.9955149999999999
 41
1.400644872217725
 42
2.165616418060674
  0
ELLIPSE
  5
45
330
2
100
AcDbEntity
  8
GAIKEI
  6
Continuous
 62
     1
100
AcDbEllipse
 10
13.6016436551215
 20
37.25450169152589
 30
0.0
 11
-0.0126634681884039
 21
0.0740370952919547
 31
0.0
210
0.0
220
0.0
230
1.0
 40
0.9955149999999999
 41
4.542237525807408
 42
5.30720907164956
  0
ELLIPSE
  5
46
330
2
100
AcDbEntity
  8
GAIKEI
  6
Continuous
 62
     1
100
AcDbEllipse
 10
-42.81464392231192
 20
37.25450169152578
 30
0.0
 11
-0.012663468188404
 21
-0.0740370952919547
 31
0.0
210
0.0
220
0.0
230
1.0
 40
0.9955149999999997
 41
4.117568889119865
 42
4.882540434962009
  0
ELLIPSE
  5
47
330
2
100
AcDbEntity
  8
GAIKEI
  6
Continuous
 62
     1
100
AcDbEllipse
 10
13.6016436551215
 20
5.059171704403979
 30
0.0
 11
-0.0126634681884195
 21
-0.0740370952919523
 31
0.0
210
0.0
220
0.0
230
1.0
 40
0.9955149999999999
 41
0.975976235527481
 42
1.740947781372396
  0
ELLIPSE
  5
48
330
2
100
AcDbEntity
  8
GAIKEI
  6
Continuous
 62
     1
100
AcDbEllipse
 10
-42.81464392231192
 20
5.059171704403979
 30
0.0
 11
-0.0126634681884195
 21
0.0740370952919524
 31
0.0
210
0.0
220
0.0
230
1.0
 40
0.9955149999999999
 41
1.400644872217396
 42
2.165616418062327
  0
ELLIPSE
  5
49
330
2
100
AcDbEntity
  8
GAIKEI
  6
Continuous
 62
     1
100
AcDbEllipse
 10
-42.81666512231112
 20
37.25248049152663
 30
0.0
 11
-0.0740370952919559
 21
-0.0126634681883976
 31
0.0
210
0.0
220
0.0
230
1.0
 40
0.9955150000000001
 41
4.54223752580752
 42
5.307209071653165
  0
ELLIPSE
  5
4A
330
2
100
AcDbEntity
  8
GAIKEI
  6
Continuous
 62
     1
100
AcDbEllipse
 10
13.60366485512065
 20
37.25248049152663
 30
0.0
 11
-0.0740370952919559
 21
0.0126634681883976
 31
0.0
210
0.0
220
0.0
230
1.0
 40
0.9955149999999999
 41
4.117568889116213
 42
4.882540434961859
  0
ELLIPSE
  5
4B
330
2
100
AcDbEntity
  8
GAIKEI
  6
Continuous
 62
     1
100
AcDbEllipse
 10
-43.93501967186375
 20
3.978317154836304
 30
0.0
 11
-0.5021965241687356
 21
-0.502196524168813
 31
0.0
210
0.0
220
0.0
230
1.0
 40
0.49281
 41
5.872221302136444
 42
6.694149312222707
  0
ELLIPSE
  5
4C
330
2
100
AcDbEntity
  8
GAIKEI
  6
Continuous
 62
     1
100
AcDbEllipse
 10
14.72201940467335
 20
3.978317154836304
 30
0.0
 11
-0.5021965241687355
 21
0.502196524168813
 31
0.0
210
0.0
220
0.0
230
1.0
 40
0.49281
 41
2.730628648546692
 42
3.552556658632933
  0
ELLIPSE
  5
4D
330
2
100
AcDbEntity
  8
GAIKEI
  6
Continuous
 62
     1
100
AcDbEllipse
 10
-43.93501967186381
 20
38.33535624109357
 30
0.0
 11
-0.5021965241687404
 21
0.5021965241687347
 31
0.0
210
0.0
220
0.0
230
1.0
 40
0.49281
 41
5.87222130213647
 42
6.694149312222702
  0
ELLIPSE
  5
4E
330
2
100
AcDbEntity
  8
GAIKEI
  6
Continuous
 62
     1
100
AcDbEllipse
 10
14.72201940467335
 20
38.33535624109357
 30
0.0
 11
-0.5021965241687404
 21
-0.5021965241687347
 31
0.0
210
0.0
220
0.0
230
1.0
 40
0.49281
 41
2.730628648546677
 42
3.552556658632908
  0
ELLIPSE
  5
4F
330
2
100
AcDbEntity
  8
GAIKEI
  6
Continuous
 62
     1
100
AcDbEllipse
 10
-42.24140462254126
 20
3.581932204994814
 30
0.0
 11
-0.0178124651901381
 21
-0.0178124651901247
 31
0.0
210
0.0
220
0.0
230
1.0
 40
0.9924329999999999
 41
5.501585242054793
 42
7.064785372306292
  0
ELLIPSE
  5
50
330
2
100
AcDbEntity
  8
GAIKEI
  6
Continuous
 62
     1
100
AcDbEllipse
 10
-42.24140462254126
 20
3.881741204874856
 30
0.0
 11
-0.0178124651901339
 21
0.0178124651901291
 31
0.0
210
0.0
220
0.0
230
1.0
 40
0.9924329999999999
 41
5.501585242053079
 42
7.064785372305734
  0
ELLIPSE
  5
51
330
2
100
AcDbEntity
  8
GAIKEI
  6
Continuous
 62
     1
100
AcDbEllipse
 10
-41.94159562266117
 20
3.88174120487497
 30
0.0
 11
-0.0178124651901247
 21
-0.017812465190138
 31
0.0
210
0.0
220
0.0
230
1.0
 40
0.9924329999999999
 41
2.359992588465041
 42
3.923192718713587
  0
ELLIPSE
  5
52
330
2
100
AcDbEntity
  8
GAIKEI
  6
Continuous
 62
     1
100
AcDbEllipse
 10
-41.94159562266117
 20
3.581932204994814
 30
0.0
 11
-0.0178124651901289
 21
0.0178124651901336
 31
0.0
210
0.0
220
0.0
230
1.0
 40
0.9924329999999997
 41
2.359992588465599
 42
3.923192718713108
  0
ELLIPSE
  5
53
330
2
100
AcDbEntity
  8
GAIKEI
  6
Continuous
 62
     1
100
AcDbEllipse
 10
13.60965595511828
 20
37.26049279152335
 30
0.0
 11
-0.1595354047091992
 21
-0.1595354047089533
 31
0.0
210
0.0
220
0.0
230
1.0
 40
0.9972649999999998
 41
2.357564018063572
 42
3.925621289117657
  0
ELLIPSE
  5
54
330
2
100
AcDbEntity
  8
GAIKEI
  6
Continuous
 62
     1
100
AcDbEllipse
 10
13.60965595511828
 20
5.053180604406406
 30
0.0
 11
-0.159535404709188
 21
0.1595354047089651
 31
0.0
210
0.0
220
0.0
230
1.0
 40
0.9972649999999998
 41
2.357564018062
 42
3.925621289115982
  0
ELLIPSE
  5
55
330
2
100
AcDbEntity
  8
GAIKEI
  6
Continuous
 62
     1
100
AcDbEllipse
 10
-42.82265622230875
 20
5.053180604406293
 30
0.0
 11
-0.1595354047091879
 21
-0.1595354047089651
 31
0.0
210
0.0
220
0.0
230
1.0
 40
0.9972649999999999
 41
5.499156671653361
 42
7.067213942707414
  0
ELLIPSE
  5
56
330
2
100
AcDbEntity
  8
GAIKEI
  6
Continuous
 62
     1
100
AcDbEllipse
 10
-42.82265622230875
 20
37.26049279152335
 30
0.0
 11
-0.159535404709199
 21
0.1595354047089534
 31
0.0
210
0.0
220
0.0
230
1.0
 40
0.9972649999999998
 41
5.499156671651721
 42
7.067213942705842
  0
LINE
  5
57
330
2
100
AcDbEntity
  8
GAIKEI
  6
Continuous
100
AcDbLine
 10
-44.65677422157511
 20
3.056836705205
 30
0.0
 11
15.44377395438471
 21
3.056836705205
 31
0.0
  0
LINE
  5
58
330
2
100
AcDbEntity
  8
GAIKEI
  6
Continuous
100
AcDbLine
 10
-44.85650012149522
 20
39.05711079080481
 30
0.0
 11
-44.85650012149522
 21
3.256562605125054
 31
0.0
  0
LINE
  5
59
330
2
100
AcDbEntity
  8
GAIKEI
  6
Continuous
100
AcDbLine
 10
15.64349985430476
 20
39.05711079080481
 30
0.0
 11
15.64349985430476
 21
3.256562605125054
 31
0.0
  0
LINE
  5
5A
330
2
100
AcDbEntity
  8
GAIKEI
  6
Continuous
100
AcDbLine
 10
-44.65677422157511
 20
39.25683669072498
 30
0.0
 11
15.44377395438471
 21
39.25683669072498
 31
0.0
  0
LINE
  5
5B
330
2
100
AcDbEntity
  8
GAIKEI
  6
Continuous
 62
     1
100
AcDbLine
 10
15.50809970435895
 20
3.391962755070949
 30
0.0
 11
15.64349985430476
 21
3.256562605125054
 31
0.0
  0
LINE
  5
5C
330
2
100
AcDbEntity
  8
GAIKEI
  6
Continuous
 62
     1
100
AcDbLine
 10
15.44377395438471
 20
3.056836705205
 30
0.0
 11
15.30837380443881
 21
3.192236855150781
 31
0.0
  0
LINE
  5
5D
330
2
100
AcDbEntity
  8
GAIKEI
  6
Continuous
 62
     1
100
AcDbLine
 10
-44.65677422157511
 20
3.056836705205
 30
0.0
 11
-44.52137407162928
 21
3.192236855150781
 31
0.0
  0
LINE
  5
5E
330
2
100
AcDbEntity
  8
GAIKEI
  6
Continuous
 62
     1
100
AcDbLine
 10
-44.72109997154939
 20
3.391962755070835
 30
0.0
 11
-44.85650012149522
 21
3.256562605125054
 31
0.0
  0
LINE
  5
5F
330
2
100
AcDbEntity
  8
GAIKEI
  6
Continuous
 62
     1
100
AcDbLine
 10
15.30837380443881
 20
39.12143654077909
 30
0.0
 11
15.44377395438471
 21
39.25683669072498
 31
0.0
  0
LINE
  5
60
330
2
100
AcDbEntity
  8
GAIKEI
  6
Continuous
 62
     1
100
AcDbLine
 10
15.64349985430476
 20
39.05711079080481
 30
0.0
 11
15.50809970435895
 21
38.92171064085903
 31
0.0
  0
LINE
  5
61
330
2
100
AcDbEntity
  8
GAIKEI
  6
Continuous
 62
     1
100
AcDbLine
 10
-44.85650012149522
 20
39.05711079080481
 30
0.0
 11
-44.72109997154939
 21
38.92171064085914
 31
0.0
  0
LINE
  5
62
330
2
100
AcDbEntity
  8
GAIKEI
  6
Continuous
 62
     1
100
AcDbLine
 10
-44.52137407162925
 20
39.12143654077909
 30
0.0
 11
-44.65677422157511
 21
39.25683669072498
 31
0.0
  0
LINE
  5
63
330
2
100
AcDbEntity
  8
GAIKEI
  6
Continuous
 62
     1
100
AcDbLine
 10
-42.17974552256589
 20
5.596836704188945
 30
0.0
 11
12.96674525537548
 21
5.596836704188945
 31
0.0
  0
LINE
  5
64
330
2
100
AcDbEntity
  8
GAIKEI
  6
Continuous
 62
     1
100
AcDbLine
 10
-42.27900012252621
 20
36.61758209178072
 30
0.0
 11
-42.27900012252621
 21
5.696091304149263
 31
0.0
  0
LINE
  5
65
330
2
100
AcDbEntity
  8
GAIKEI
  6
Continuous
 62
     1
100
AcDbLine
 10
13.0659998553358
 20
36.61758209178072
 30
0.0
 11
13.0659998553358
 21
5.696091304149263
 31
0.0
  0
LINE
  5
66
330
2
100
AcDbEntity
  8
GAIKEI
  6
Continuous
 62
     1
100
AcDbLine
 10
-42.17974552256589
 20
36.71683669174092
 30
0.0
 11
12.96674525537548
 21
36.71683669174092
 31
0.0
  0
LINE
  5
67
330
2
100
AcDbEntity
  8
GAIKEI
  6
Continuous
 62
     1
100
AcDbLine
 10
-42.19442462256006
 20
5.536572654213046
 30
0.0
 11
12.98142435536965
 21
5.536572654213046
 31
0.0
  0
LINE
  5
68
330
2
100
AcDbEntity
  8
GAIKEI
  6
Continuous
 62
     1
100
AcDbLine
 10
13.1262639053117
 20
36.63226119177477
 30
0.0
 11
13.1262639053117
 21
5.681412204155094
 31
0.0
  0
LINE
  5
69
330
2
100
AcDbEntity
  8
GAIKEI
  6
Continuous
 62
     1
100
AcDbLine
 10
13.08437510532843
 20
5.578461454196258
 30
0.0
 11
13.65559370509993
 21
5.007242854424816
 31
0.0
  0
LINE
  5
6A
330
2
100
AcDbEntity
  8
GAIKEI
  6
Continuous
 62
     1
100
AcDbLine
 10
-42.33926417250211
 20
36.63226119177477
 30
0.0
 11
-42.33926417250211
 21
5.681412204155094
 31
0.0
  0
LINE
  5
6B
330
2
100
AcDbEntity
  8
GAIKEI
  6
Continuous
 62
     1
100
AcDbLine
 10
-42.29737537251884
 20
5.578461454196258
 30
0.0
 11
-42.86859397229034
 21
5.007242854424816
 31
0.0
  0
LINE
  5
6C
330
2
100
AcDbEntity
  8
GAIKEI
  6
Continuous
 62
     1
100
AcDbLine
 10
12.98142435536965
 20
36.77710074171682
 30
0.0
 11
-42.19442462256006
 21
36.77710074171682
 31
0.0
  0
LINE
  5
6D
330
2
100
AcDbEntity
  8
GAIKEI
  6
Continuous
 62
     1
100
AcDbLine
 10
13.65559370509993
 20
37.30643054150517
 30
0.0
 11
13.08437510532843
 21
36.73521194173361
 31
0.0
  0
LINE
  5
6E
330
2
100
AcDbEntity
  8
GAIKEI
  6
Continuous
 62
     1
100
AcDbLine
 10
-42.86859397229034
 20
37.30643054150517
 30
0.0
 11
-42.29737537251884
 21
36.73521194173361
 31
0.0
  0
LINE
  5
6F
330
2
100
AcDbEntity
  8
GAIKEI
  6
Continuous
 62
     1
100
AcDbLine
 10
13.60355265512078
 20
4.986407904433121
 30
0.0
 11
-42.81655292231119
 21
4.986407904433121
 31
0.0
  0
LINE
  5
70
330
2
100
AcDbEntity
  8
GAIKEI
  6
Continuous
 62
     1
100
AcDbLine
 10
13.67642865509163
 20
5.059283904403969
 30
0.0
 11
13.67642865509163
 21
37.2543894915259
 31
0.0
  0
LINE
  5
71
330
2
100
AcDbEntity
  8
GAIKEI
  6
Continuous
 62
     1
100
AcDbLine
 10
-42.88942892228203
 20
5.059283904403969
 30
0.0
 11
-42.88942892228203
 21
37.2543894915259
 31
0.0
  0
LINE
  5
72
330
2
100
AcDbEntity
  8
GAIKEI
  6
Continuous
 62
     1
100
AcDbLine
 10
-42.81655292231119
 20
37.32726549149675
 30
0.0
 11
13.60355265512078
 21
37.32726549149675
 31
0.0
  0
LINE
  5
73
330
2
100
AcDbEntity
  8
GAIKEI
  6
Continuous
 62
     1
100
AcDbLine
 10
15.31036060443807
 20
3.192236855150781
 30
0.0
 11
-44.52336087162848
 21
3.192236855150781
 31
0.0
  0
LINE
  5
74
330
2
100
AcDbEntity
  8
GAIKEI
  6
Continuous
 62
     1
100
AcDbLine
 10
15.50809970435898
 20
3.38997595507169
 30
0.0
 11
15.50809970435898
 21
38.92369744085818
 31
0.0
  0
LINE
  5
75
330
2
100
AcDbEntity
  8
GAIKEI
  6
Continuous
 62
     1
100
AcDbLine
 10
-44.72109997154939
 20
3.38997595507169
 30
0.0
 11
-44.72109997154939
 21
38.92369744085818
 31
0.0
  0
LINE
  5
76
330
2
100
AcDbEntity
  8
GAIKEI
  6
Continuous
 62
     1
100
AcDbLine
 10
-44.52336087162848
 20
39.12143654077909
 30
0.0
 11
15.31036060443807
 21
39.12143654077909
 31
0.0
  0
LINE
  5
77
330
2
100
AcDbEntity
  8
GAIKEI
  6
Continuous
 62
     1
100
AcDbLine
 10
15.31036060443807
 20
3.192236855150781
 30
0.0
 11
15.08353155452875
 21
3.419065905060051
 31
0.0
  0
LINE
  5
78
330
2
100
AcDbEntity
  8
GAIKEI
  6
Continuous
 62
     1
100
AcDbLine
 10
15.28127065444971
 20
3.61680500498096
 30
0.0
 11
15.50809970435898
 21
3.38997595507169
 31
0.0
  0
LINE
  5
79
330
2
100
AcDbEntity
  8
GAIKEI
  6
Continuous
 62
     1
100
AcDbLine
 10
-44.49427092164012
 20
3.61680500498096
 30
0.0
 11
-44.72109997154939
 21
3.38997595507169
 31
0.0
  0
LINE
  5
7A
330
2
100
AcDbEntity
  8
GAIKEI
  6
Continuous
 62
     1
100
AcDbLine
 10
-44.52336087162848
 20
3.192236855150781
 30
0.0
 11
-44.29653182171921
 21
3.419065905060051
 31
0.0
  0
LINE
  5
7B
330
2
100
AcDbEntity
  8
GAIKEI
  6
Continuous
 62
     1
100
AcDbLine
 10
15.50809970435898
 20
38.92369744085818
 30
0.0
 11
15.28127065444971
 21
38.69686839094891
 31
0.0
  0
LINE
  5
7C
330
2
100
AcDbEntity
  8
GAIKEI
  6
Continuous
 62
     1
100
AcDbLine
 10
15.08353155452875
 20
38.89460749086982
 30
0.0
 11
15.31036060443807
 21
39.12143654077909
 31
0.0
  0
LINE
  5
7D
330
2
100
AcDbEntity
  8
GAIKEI
  6
Continuous
 62
     1
100
AcDbLine
 10
-44.29653182171921
 20
38.89460749086982
 30
0.0
 11
-44.52336087162848
 21
39.12143654077909
 31
0.0
  0
LINE
  5
7E
330
2
100
AcDbEntity
  8
GAIKEI
  6
Continuous
 62
     1
100
AcDbLine
 10
-44.72109997154939
 20
38.92369744085818
 30
0.0
 11
-44.49427092164012
 21
38.69686839094891
 31
0.0
  0
LINE
  5
7F
330
2
100
AcDbEntity
  8
GAIKEI
  6
Continuous
 62
     1
100
AcDbLine
 10
-44.29653182171921
 20
3.419065905060051
 30
0.0
 11
15.08353155452875
 21
3.419065905060051
 31
0.0
  0
LINE
  5
80
330
2
100
AcDbEntity
  8
GAIKEI
  6
Continuous
 62
     1
100
AcDbLine
 10
-44.49427092164012
 20
38.69686839094891
 30
0.0
 11
-44.49427092164012
 21
3.61680500498096
 31
0.0
  0
LINE
  5
81
330
2
100
AcDbEntity
  8
GAIKEI
  6
Continuous
 62
     1
100
AcDbLine
 10
15.28127065444971
 20
38.69686839094891
 30
0.0
 11
15.28127065444971
 21
3.61680500498096
 31
0.0
  0
LINE
  5
82
330
2
100
AcDbEntity
  8
GAIKEI
  6
Continuous
 62
     1
100
AcDbLine
 10
-43.86275012189275
 20
3.675586704957481
 30
0.0
 11
-43.75025012193771
 21
3.675586704957481
 31
0.0
  0
LINE
  5
83
330
2
100
AcDbEntity
  8
GAIKEI
  6
Continuous
 62
     1
100
AcDbLine
 10
-43.86275012189275
 20
3.675586704957481
 30
0.0
 11
-43.86275012189275
 21
3.788086704912416
 31
0.0
  0
LINE
  5
84
330
2
100
AcDbEntity
  8
GAIKEI
  6
Continuous
 62
     1
100
AcDbLine
 10
-43.86275012189275
 20
3.788086704912416
 30
0.0
 11
-43.75025012193771
 21
3.788086704912416
 31
0.0
  0
LINE
  5
85
330
2
100
AcDbEntity
  8
GAIKEI
  6
Continuous
 62
     1
100
AcDbLine
 10
-43.75025012193771
 20
3.675586704957481
 30
0.0
 11
-43.75025012193771
 21
3.788086704912416
 31
0.0
  0
LINE
  5
86
330
2
100
AcDbEntity
  8
GAIKEI
  6
Continuous
 62
     1
100
AcDbLine
 10
-42.24159527254118
 20
3.556836705004911
 30
0.0
 11
-41.94140497266125
 21
3.556836705004911
 31
0.0
  0
LINE
  5
87
330
2
100
AcDbEntity
  8
GAIKEI
  6
Continuous
 62
     1
100
AcDbLine
 10
-42.26650012253123
 20
3.581741554995005
 30
0.0
 11
-42.26650012253123
 21
3.881931854874892
 31
0.0
  0
LINE
  5
88
330
2
100
AcDbEntity
  8
GAIKEI
  6
Continuous
 62
     1
100
AcDbLine
 10
-42.24159527254118
 20
3.906836704864986
 30
0.0
 11
-41.94140497266125
 21
3.906836704864986
 31
0.0
  0
LINE
  5
89
330
2
100
AcDbEntity
  8
GAIKEI
  6
Continuous
 62
     1
100
AcDbLine
 10
-41.9165001226712
 20
3.581741554995005
 30
0.0
 11
-41.9165001226712
 21
3.881931854874892
 31
0.0
  0
LINE
  5
8A
330
2
100
AcDbEntity
  8
GAIKEI
  6
Continuous
 62
     1
100
AcDbLine
 10
13.6102731051181
 20
37.48580159143342
 30
0.0
 11
-42.8232733723085
 21
37.48580159143342
 31
0.0
  0
LINE
  5
8B
330
2
100
AcDbEntity
  8
GAIKEI
  6
Continuous
 62
     1
100
AcDbLine
 10
13.83496475502818
 20
37.26110994152327
 30
0.0
 11
13.83496475502818
 21
5.052563454406708
 31
0.0
  0
LINE
  5
8C
330
2
100
AcDbEntity
  8
GAIKEI
  6
Continuous
 62
     1
100
AcDbLine
 10
-42.8232733723085
 20
4.827871804496567
 30
0.0
 11
13.6102731051181
 21
4.827871804496567
 31
0.0
  0
LINE
  5
8D
330
2
100
AcDbEntity
  8
GAIKEI
  6
Continuous
 62
     1
100
AcDbLine
 10
-43.04796502221864
 20
37.26110994152327
 30
0.0
 11
-43.04796502221864
 21
5.052563454406708
 31
0.0
  0
LINE
  5
8E
330
2
100
AcDbEntity
  8
GAIKEI
  6
Continuous
 62
     1
100
AcDbLine
 10
15.08353155452875
 20
38.89460749086982
 30
0.0
 11
-44.29653182171921
 21
38.89460749086982
 31
0.0
  0
SPLINE
  5
8F
330
2
100
AcDbEntity
  8
GAIKEI
  6
Continuous
 62
     1
100
AcDbSpline
210
0.0
220
0.0
230
1.0
 70
     8
 71
     3
 72
    19
 73
    15
 74
    13
 42
0.0000000001
 43
0.0000000001
 44
0.000001
 12
-0.0752275697466489
 22
-0.9971663917070275
 32
0.0
 13
-0.9971651028676605
 23
-0.0752446517895329
 33
0.0
 40
0.0
 40
0.0
 40
0.0
 40
0.0
 40
0.0307154355815444
 40
0.0474030577359806
 40
0.0651725077224667
 40
0.0907715901219906
 40
0.118784345734872
 40
0.1493748434380363
 40
0.1799684720829405
 40
0.2079831862935573
 40
0.2335829246325227
 40
0.2513519490565883
 40
0.2680383244278111
 40
0.2987487387220726
 40
0.2987487387220726
 40
0.2987487387220726
 40
0.2987487387220726
 10
15.50809968659382
 20
3.389975943972785
 30
0.0
 10
15.50732947073632
 20
3.379766477283283
 30
0.0
 10
15.50460780087556
 20
3.364055852736214
 30
0.0
 10
15.49747713100976
 20
3.343504529204778
 30
0.0
 10
15.48916071419569
 20
3.325263696260833
 30
0.0
 10
15.47702216773069
 20
3.304735779509996
 30
0.0
 10
15.46018464816677
 20
3.282218244714158
 30
0.0
 10
15.44008081152589
 20
3.260254245686326
 30
0.0
 10
15.4181149575507
 20
3.240151489778213
 30
0.0
 10
15.39559526199503
 20
3.22331370433551
 30
0.0
 10
15.37506652841847
 20
3.211175136269503
 30
0.0
 10
15.3568260192358
 20
3.202858853677525
 30
0.0
 10
15.33627690986279
 20
3.195728617594625
 30
0.0
 10
15.32056840001314
 20
3.193007137725771
 30
0.0
 10
15.31036061553686
 20
3.192236872915827
 30
0.0
 11
15.50809968659382
 21
3.389975943972785
 31
0.0
 11
15.50276652593322
 21
3.359726949387663
 31
0.0
 11
15.49735962809177
 21
3.343939730839224
 31
0.0
 11
15.49001412206951
 21
3.327759722854352
 31
0.0
 11
15.47706611362923
 21
3.30567681092782
 31
0.0
 11
15.46035889760196
 21
3.283191797491667
 31
0.0
 11
15.43976161526404
 21
3.26057494424549
 31
0.0
 11
15.41714116392774
 21
3.239976962912464
 31
0.0
 11
15.39465390754878
 21
3.223269481549777
 31
0.0
 11
15.37257020243226
 21
3.210321528974759
 31
0.0
 11
15.35639058049526
 21
3.202976201903652
 31
0.0
 11
15.34060459736531
 21
3.197569544404018
 31
0.0
 11
15.31036061553686
 21
3.192236872915827
 31
0.0
  0
SPLINE
  5
90
330
2
100
AcDbEntity
  8
GAIKEI
  6
Continuous
 62
     1
100
AcDbSpline
210
0.0
220
0.0
230
1.0
 70
     8
 71
     3
 72
    19
 73
    15
 74
    13
 42
0.0000000001
 43
0.0000000001
 44
0.000001
 12
0.075227569746649
 22
-0.9971663917070275
 32
0.0
 13
0.9971651028676605
 23
-0.0752446517895329
 33
0.0
 40
0.0
 40
0.0
 40
0.0
 40
0.0
 40
0.0307154355815346
 40
0.0474030577359892
 40
0.0651725077224752
 40
0.0907715901219703
 40
0.1187843457348518
 40
0.1493748434379321
 40
0.1799684720829548
 40
0.207983186293526
 40
0.2335829246325404
 40
0.251351949056606
 40
0.2680383244278288
 40
0.2987487387220343
 40
0.2987487387220343
 40
0.2987487387220343
 40
0.2987487387220343
 10
-44.72109995378429
 20
3.389975943972785
 30
0.0
 10
-44.72032973792678
 20
3.379766477283283
 30
0.0
 10
-44.71760806806611
 20
3.3640558527361
 30
0.0
 10
-44.71047739820019
 20
3.343504529204778
 30
0.0
 10
-44.70216098138613
 20
3.325263696260662
 30
0.0
 10
-44.69002243492127
 20
3.30473577951011
 30
0.0
 10
-44.67318491535735
 20
3.282218244714101
 30
0.0
 10
-44.65308107871618
 20
3.260254245686439
 30
0.0
 10
-44.63111522474128
 20
3.240151489778213
 30
0.0
 10
-44.60859552918555
 20
3.223313704335623
 30
0.0
 10
-44.58806679560893
 20
3.211175136269332
 30
0.0
 10
-44.56982628642629
 20
3.202858853677639
 30
0.0
 10
-44.54927717705325
 20
3.195728617594511
 30
0.0
 10
-44.53356866720364
 20
3.193007137725771
 30
0.0
 10
-44.52336088272739
 20
3.192236872915827
 30
0.0
 11
-44.72109995378429
 21
3.389975943972785
 31
0.0
 11
-44.71576679312375
 21
3.359726949387663
 31
0.0
 11
-44.71035989528224
 21
3.343939730839224
 31
0.0
 11
-44.70301438925997
 21
3.327759722854352
 31
0.0
 11
-44.69006638081975
 21
3.30567681092782
 31
0.0
 11
-44.67335916479249
 21
3.283191797491667
 31
0.0
 11
-44.65276188245456
 21
3.260574944245604
 31
0.0
 11
-44.6301414311182
 21
3.239976962912464
 31
0.0
 11
-44.60765417473931
 21
3.223269481549777
 31
0.0
 11
-44.58557046962272
 21
3.210321528974759
 31
0.0
 11
-44.56939084768572
 21
3.202976201903652
 31
0.0
 11
-44.55360486455577
 21
3.197569544404018
 31
0.0
 11
-44.52336088272739
 21
3.192236872915827
 31
0.0
  0
SPLINE
  5
91
330
2
100
AcDbEntity
  8
GAIKEI
  6
Continuous
 62
     1
100
AcDbSpline
210
0.0
220
0.0
230
1.0
 70
     8
 71
     3
 72
    19
 73
    15
 74
    13
 42
0.0000000001
 43
0.0000000001
 44
0.000001
 12
0.9971663916962711
 22
-0.075227569889229
 32
0.0
 13
0.075244651693976
 23
-0.9971651028748709
 33
0.0
 40
0.0
 40
0.0
 40
0.0
 40
0.0
 40
0.0307154355883551
 40
0.0474030577445501
 40
0.0651725077316663
 40
0.0907715901302331
 40
0.1187843457395449
 40
0.1493748434368397
 40
0.1799684720857379
 40
0.207983186298663
 40
0.233582924638336
 40
0.2513519490619807
 40
0.2680383244319777
 40
0.2987487387217185
 40
0.2987487387217185
 40
0.2987487387217185
 40
0.2987487387217185
 10
15.31036061553686
 20
39.12143652301393
 30
0.0
 10
15.32057008222853
 20
39.12066630715481
 30
0.0
 10
15.33628070677798
 20
39.11794463729171
 30
0.0
 10
15.35683203031206
 20
39.11081396742429
 30
0.0
 10
15.37507286325638
 20
39.10249755060937
 30
0.0
 10
15.3956007800059
 20
39.0903590041454
 30
0.0
 10
15.41811831479902
 20
39.07352148458335
 30
0.0
 10
15.44008231382562
 20
39.05341764794366
 30
0.0
 10
15.46018506973394
 20
39.0314517939687
 30
0.0
 10
15.47702285517783
 20
39.00893209841098
 30
0.0
 10
15.48916142324452
 20
38.98840336483369
 30
0.0
 10
15.49747770583582
 20
38.9701628556511
 30
0.0
 10
15.50460794191792
 20
38.94961374627996
 30
0.0
 10
15.50732942178507
 20
38.93390523643194
 30
0.0
 10
15.50809968659393
 20
38.92369745195708
 30
0.0
 11
15.31036061553686
 21
39.12143652301393
 31
0.0
 11
15.34060961012812
 21
39.1161033623489
 31
0.0
 11
15.35639682867798
 21
39.11069646450619
 31
0.0
 11
15.37257683666325
 21
39.10335095848325
 31
0.0
 11
15.39465974858888
 21
39.09040295004331
 31
0.0
 11
15.41714476202219
 21
39.0736957340182
 31
0.0
 11
15.43976161526404
 21
39.05309845168427
 31
0.0
 11
15.46035959659991
 21
39.03047800034517
 31
0.0
 11
15.47706707796396
 21
39.00799074396434
 31
0.0
 11
15.49001503053921
 21
38.98590703884713
 31
0.0
 11
15.49736035760992
 21
38.96972741691036
 31
0.0
 11
15.5027670151087
 21
38.95394143378144
 31
0.0
 11
15.50809968659393
 21
38.92369745195708
 31
0.0
  0
SPLINE
  5
92
330
2
100
AcDbEntity
  8
GAIKEI
  6
Continuous
 62
     1
100
AcDbSpline
210
0.0
220
0.0
230
1.0
 70
     8
 71
     3
 72
    19
 73
    15
 74
    13
 42
0.0000000001
 43
0.0000000001
 44
0.000001
 12
-0.9971663916962876
 22
-0.0752275698890099
 32
0.0
 13
-0.0752446516939761
 23
-0.9971651028748709
 33
0.0
 40
0.0
 40
0.0
 40
0.0
 40
0.0
 40
0.0307154355882431
 40
0.0474030577445457
 40
0.0651725077316101
 40
0.0907715901301769
 40
0.1187843457395344
 40
0.1493748434368292
 40
0.1799684720857731
 40
0.2079831862985731
 40
0.2335829246383036
 40
0.2513519490619249
 40
0.2680383244319034
 40
0.2987487387216441
 40
0.2987487387216441
 40
0.2987487387216441
 40
0.2987487387216441
 10
-44.52336088272739
 20
39.12143652301393
 30
0.0
 10
-44.53357034941902
 20
39.12066630715481
 30
0.0
 10
-44.54928097396851
 20
39.11794463729177
 30
0.0
 10
-44.56983229750256
 20
39.11081396742429
 30
0.0
 10
-44.58807313044681
 20
39.10249755060943
 30
0.0
 10
-44.60860104719631
 20
39.09035900414528
 30
0.0
 10
-44.63111858198959
 20
39.07352148458341
 30
0.0
 10
-44.65308258101615
 20
39.05341764794372
 30
0.0
 10
-44.67318533692437
 20
39.03145179396853
 30
0.0
 10
-44.69002312236821
 20
39.00893209841104
 30
0.0
 10
-44.70216169043507
 20
38.98840336483374
 30
0.0
 10
-44.71047797302634
 20
38.9701628556511
 30
0.0
 10
-44.71760820910825
 20
38.94961374628002
 30
0.0
 10
-44.72032968897548
 20
38.93390523643194
 30
0.0
 10
-44.72109995378434
 20
38.92369745195708
 30
0.0
 11
-44.52336088272739
 21
39.12143652301393
 31
0.0
 11
-44.55360987731853
 21
39.1161033623489
 31
0.0
 11
-44.5693970958685
 21
39.11069646450619
 31
0.0
 11
-44.58557710385372
 21
39.10335095848325
 31
0.0
 11
-44.60766001577934
 21
39.09040295004331
 31
0.0
 11
-44.63014502921271
 21
39.0736957340182
 31
0.0
 11
-44.65276188245456
 21
39.05309845168427
 31
0.0
 11
-44.67335986379038
 21
39.03047800034506
 31
0.0
 11
-44.69006734515438
 21
39.00799074396434
 31
0.0
 11
-44.70301529772974
 21
38.98590703884713
 31
0.0
 11
-44.71036062480038
 21
38.96972741691036
 31
0.0
 11
-44.71576728229911
 21
38.95394143378144
 31
0.0
 11
-44.72109995378434
 21
38.92369745195708
 31
0.0
  0
DIMENSION
  5
93
330
2
100
AcDbEntity
  8
SUNPO
100
AcDbDimension
  2
*D6
 10
15.64349985430473
 20
47.24886039651448
 30
0.0
 11
-14.60650013359522
 21
48.99886039651448
 31
0.0
 70
    33
  1
1210
 71
     5
 42
60.49999997579991
  3
STANDARD
100
AcDbAlignedDimension
 13
-44.85650012149517
 23
39.24886039651449
 33
0.0
 14
15.64349985430473
 24
39.24886039651449
 34
0.0
1001
ACAD
1000
DSTYLE
1002
{
1070
   287
1070
     3
1070
   287
1070
     3
1070
   287
1070
     3
1070
   287
1070
     3
1070
   287
1070
     3
1070
   287
1070
     3
1070
   287
1070
     3
1070
   287
1070
     3
1070
   287
1070
     3
1070
   287
1070
     3
1070
   287
1070
     3
1070
   287
1070
     3
1070
   287
1070
     3
1070
   287
1070
     3
1070
   287
1070
     3
1070
   287
1070
     3
1070
   287
1070
     3
1070
   287
1070
     3
1070
   287
1070
     3
1070
   287
1070
     3
1070
   287
1070
     3
1070
   287
1070
     3
1070
   287
1070
     3
1070
   287
1070
     3
1070
   287
1070
     3
1070
   287
1070
     3
1070
   287
1070
     3
1070
   287
1070
     3
1070
   287
1070
     3
1070
   287
1070
     3
1070
   287
1070
     3
1070
   287
1070
     3
1070
   287
1070
     3
1070
   287
1070
     3
1070
    40
1040
1.0
1070
   140
1040
2.5
1070
   147
1040
0.5
1070
   172
1070
     1
1070
   279
1070
     0
1002
}
  0
DIMENSION
  5
A2
330
2
100
AcDbEntity
  8
SUNPO
100
AcDbDimension
  2
*D5
 10
23.20373466457707
 20
39.24914684086581
 30
0.0
 11
21.45373466457706
 21
21.15299177303541
 31
0.0
 70
    33
  1
724
 71
     5
 42
36.19231013566082
  3
STANDARD
100
AcDbAlignedDimension
 13
15.20373466457707
 23
3.056836705205
 33
0.0
 14
15.20373466457704
 24
39.24914684086582
 34
0.0
1001
ACAD
1000
DSTYLE
1002
{
1070
   287
1070
     3
1070
   287
1070
     3
1070
   287
1070
     3
1070
   287
1070
     3
1070
   287
1070
     3
1070
   287
1070
     3
1070
   287
1070
     3
1070
   287
1070
     3
1070
   287
1070
     3
1070
   287
1070
     3
1070
   287
1070
     3
1070
   287
1070
     3
1070
   287
1070
     3
1070
   287
1070
     3
1070
   287
1070
     3
1070
   287
1070
     3
1070
   287
1070
     3
1070
   287
1070
     3
1070
   287
1070
     3
1070
   287
1070
     3
1070
   287
1070
     3
1070
   287
1070
     3
1070
   287
1070
     3
1070
   287
1070
     3
1070
   287
1070
     3
1070
   287
1070
     3
1070
   287
1070
     3
1070
   287
1070
     3
1070
   287
1070
     3
1070
   287
1070
     3
1070
   287
1070
     3
1070
   287
1070
     3
1070
   287
1070
     3
1070
   287
1070
     3
1070
    40
1040
1.0
1070
   140
1040
2.5
1070
   147
1040
0.5
1070
   172
1070
     1
1070
   279
1070
     0
1002
}
  0
DIMENSION
  5
AF
330
2
100
AcDbEntity
  8
SUNPO
100
AcDbDimension
  2
*D4
 10
39.78195711704172
 20
47.24886039651448
 30
0.0
 11
46.36529045037504
 21
48.99886039651448
 31
0.0
 70
    33
  1
89
 71
     5
 42
4.449999999999988
  3
STANDARD
100
AcDbAlignedDimension
 13
35.33195711704173
 23
39.25539290107361
 33
0.0
 14
39.78195711704172
 24
39.25539290107361
 34
0.0
1001
ACAD
1000
DSTYLE
1002
{
1070
    40
1040
1.0
1070
   140
1040
2.5
1070
   147
1040
0.5
1070
   172
1070
     1
1070
   279
1070
     0
1070
   288
1070
     0
1002
}
  0
LINE
  5
BE
330
2
100
AcDbEntity
  8
GAIKEI
  6
Continuous
 62
     1
100
AcDbLine
 10
37.62940711704175
 20
4.364526555064003
 30
0.0
 11
37.76039011704166
 21
4.364526555064003
 31
0.0
  0
LINE
  5
BF
330
2
100
AcDbEntity
  8
GAIKEI
  6
Continuous
 62
     1
100
AcDbLine
 10
39.76802831704174
 20
5.864526555064003
 30
0.0
 11
39.73190711704172
 21
5.864526555064003
 31
0.0
  0
LINE
  5
C0
330
2
100
AcDbEntity
  8
GAIKEI
  6
Continuous
 62
     1
100
AcDbLine
 10
39.76933851704166
 20
5.864526555064003
 30
0.0
 11
39.76802831704174
 21
5.864526555064003
 31
0.0
  0
LINE
  5
C1
330
2
100
AcDbEntity
  8
GAIKEI
  6
Continuous
 62
     1
100
AcDbLine
 10
37.8721935170417
 20
4.390919755064032
 30
0.0
 11
39.68121051704168
 21
5.295428255064052
 31
0.0
  0
LINE
  5
C2
330
2
100
AcDbEntity
  8
GAIKEI
  6
Continuous
 62
     1
100
AcDbLine
 10
39.81940711704169
 20
5.519035055064023
 30
0.0
 11
39.81940711704169
 21
5.814526555064048
 31
0.0
  0
ARC
  5
C3
330
2
100
AcDbEntity
  8
GAIKEI
  6
Continuous
 62
     1
100
AcDbCircle
 10
39.56940711704169
 20
5.519035055064023
 30
0.0
 40
0.25
100
AcDbArc
 50
296.5650509999881
 51
0.0
  0
ARC
  5
C4
330
2
100
AcDbEntity
  8
GAIKEI
  6
Continuous
 62
     1
100
AcDbCircle
 10
37.76039011704166
 20
4.614526555064003
 30
0.0
 40
0.25
100
AcDbArc
 50
270.0
 51
296.5650509999881
  0
ELLIPSE
  5
C5
330
2
100
AcDbEntity
  8
GAIKEI
  6
Continuous
 62
     1
100
AcDbEllipse
 10
39.76933851704166
 20
5.814526555064048
 30
0.0
 11
-0.0500686172998712
 21
0.0000000000068056
 31
0.0
210
0.0
220
0.0
230
1.0
 40
0.9986300000009318
 41
3.141592653725905
 42
4.712388980520429
  0
LINE
  5
C6
330
2
100
AcDbEntity
  8
GAIKEI
  6
Continuous
 62
     1
100
AcDbLine
 10
39.80802831704171
 20
7.964526555064026
 30
0.0
 11
39.73190711704172
 21
7.964526555064026
 31
0.0
  0
LINE
  5
C7
330
2
100
AcDbEntity
  8
GAIKEI
  6
Continuous
 62
     1
100
AcDbLine
 10
39.80933851704174
 20
7.964526555064026
 30
0.0
 11
39.80802831704171
 21
7.964526555064026
 31
0.0
  0
LINE
  5
C8
330
2
100
AcDbEntity
  8
GAIKEI
  6
Continuous
 62
     1
100
AcDbLine
 10
39.85940711704166
 20
7.619035055064045
 30
0.0
 11
39.85940711704166
 21
7.914526555063957
 31
0.0
  0
ARC
  5
C9
330
2
100
AcDbEntity
  8
GAIKEI
  6
Continuous
 62
     1
100
AcDbCircle
 10
39.60940711704166
 20
7.619035055064045
 30
0.0
 40
0.25
100
AcDbArc
 50
299.3405819999889
 51
0.0
  0
ELLIPSE
  5
CA
330
2
100
AcDbEntity
  8
GAIKEI
  6
Continuous
 62
     1
100
AcDbEllipse
 10
39.80933851704174
 20
7.914526555063957
 30
0.0
 11
0.0500686172998712
 21
0.0000000000139555
 31
0.0
210
0.0
220
0.0
230
1.0
 40
0.9986299999997962
 41
-0.0000000002791107
 42
1.57079632651655
  0
LINE
  5
CB
330
2
100
AcDbEntity
  8
GAIKEI
  6
Continuous
 62
     1
100
AcDbLine
 10
37.79971641704174
 20
4.126877005063988
 30
0.0
 11
38.67712381704172
 21
4.172860005063967
 31
0.0
  0
LINE
  5
CC
330
2
100
AcDbEntity
  8
GAIKEI
  6
Continuous
 62
     1
100
AcDbLine
 10
39.31465921704171
 20
4.252847805063993
 30
0.0
 11
39.3167524170417
 21
4.372766805063974
 31
0.0
  0
LINE
  5
CD
330
2
100
AcDbEntity
  8
GAIKEI
  6
Continuous
 62
     1
100
AcDbLine
 10
38.67712381704172
 20
4.172860005063967
 30
0.0
 11
39.2672836170417
 21
4.203788955064055
 31
0.0
  0
LINE
  5
CE
330
2
100
AcDbEntity
  8
GAIKEI
  6
Continuous
 62
     1
100
AcDbLine
 10
37.79971641704174
 20
4.126877005063988
 30
0.0
 11
38.80379291704173
 21
4.179498455064049
 31
0.0
  0
ARC
  5
CF
330
2
100
AcDbEntity
  8
GAIKEI
  6
Continuous
 62
     1
100
AcDbCircle
 10
37.81280036704169
 20
3.877219655063981
 30
0.0
 40
0.25
100
AcDbArc
 50
93.00000000000558
 51
137.1867789999956
  0
ARC
  5
D0
330
2
100
AcDbEntity
  8
GAIKEI
  6
Continuous
 62
     1
100
AcDbCircle
 10
39.26466681704176
 20
4.253720455064012
 30
0.0
 40
0.05
100
AcDbArc
 50
273.0000000000056
 51
359.0000000000243
  0
LINE
  5
D1
330
2
100
AcDbEntity
  8
GAIKEI
  6
Continuous
 62
     1
100
AcDbLine
 10
38.83839136704171
 20
37.35555809072491
 30
0.0
 11
37.8511560670417
 21
37.39003309072496
 31
0.0
  0
LINE
  5
D2
330
2
100
AcDbEntity
  8
GAIKEI
  6
Continuous
 62
     1
100
AcDbLine
 10
37.69276461704169
 20
37.29555524072498
 30
0.0
 11
37.69276461704169
 21
32.30825849072494
 31
0.0
  0
LINE
  5
D3
330
2
100
AcDbEntity
  8
GAIKEI
  6
Continuous
 62
     1
100
AcDbLine
 10
39.14000011704172
 20
37.67793504072495
 30
0.0
 11
37.63642191704173
 21
38.00013034072492
 31
0.0
  0
LINE
  5
D4
330
2
100
AcDbEntity
  8
GAIKEI
  6
Continuous
 62
     1
100
AcDbLine
 10
39.67661841704171
 20
35.22661634072495
 30
0.0
 11
39.37420126704171
 21
37.42562079072491
 31
0.0
  0
LINE
  5
D5
330
2
100
AcDbEntity
  8
GAIKEI
  6
Continuous
 62
     1
100
AcDbLine
 10
39.69013061704174
 20
34.57462829072495
 30
0.0
 11
39.69013061704174
 21
35.02918544072486
 31
0.0
  0
LINE
  5
D6
330
2
100
AcDbEntity
  8
GAIKEI
  6
Continuous
 62
     1
100
AcDbLine
 10
39.37420126704171
 20
32.17819299072494
 30
0.0
 11
39.67661841704171
 21
34.3771974407249
 31
0.0
  0
LINE
  5
D7
330
2
100
AcDbEntity
  8
GAIKEI
  6
Continuous
 62
     1
100
AcDbLine
 10
37.63642191704173
 20
31.60368339072488
 30
0.0
 11
39.14000011704172
 21
31.9258787407249
 31
0.0
  0
LINE
  5
D8
330
2
100
AcDbEntity
  8
GAIKEI
  6
Continuous
 62
     1
100
AcDbLine
 10
37.8511560670417
 20
32.21378064072496
 30
0.0
 11
38.83839136704171
 21
32.24825569072493
 31
0.0
  0
LINE
  5
D9
330
2
100
AcDbEntity
  8
GAIKEI
  6
Continuous
 62
     1
100
AcDbLine
 10
38.98156131704173
 20
32.37755054072489
 30
0.0
 11
38.98693786704166
 21
32.41664564072494
 31
0.0
  0
LINE
  5
DA
330
2
100
AcDbEntity
  8
GAIKEI
  6
Continuous
 62
     1
100
AcDbLine
 10
39.00352616704174
 20
32.51604884072492
 30
0.0
 11
39.16901421704177
 21
33.71938339072495
 31
0.0
  0
LINE
  5
DB
330
2
100
AcDbEntity
  8
GAIKEI
  6
Continuous
 62
     1
100
AcDbLine
 10
39.17991166704172
 20
33.81984089072489
 30
0.0
 11
39.26474906704169
 21
34.43672989072491
 31
0.0
  0
LINE
  5
DC
330
2
100
AcDbEntity
  8
GAIKEI
  6
Continuous
 62
     1
100
AcDbLine
 10
39.27399086704168
 20
34.57176494072496
 30
0.0
 11
39.27399086704168
 21
35.03204879072496
 31
0.0
  0
LINE
  5
DD
330
2
100
AcDbEntity
  8
GAIKEI
  6
Continuous
 62
     1
100
AcDbLine
 10
39.11235411704172
 20
36.29643039072494
 30
0.0
 11
39.00352616704174
 21
37.08776489072489
 31
0.0
  0
LINE
  5
DE
330
2
100
AcDbEntity
  8
GAIKEI
  6
Continuous
 62
     1
100
AcDbLine
 10
38.98693786704166
 20
37.18716809072498
 30
0.0
 11
38.98156131704173
 21
37.22626324072485
 31
0.0
  0
LINE
  5
DF
330
2
100
AcDbEntity
  8
GAIKEI
  6
Continuous
 62
     1
100
AcDbLine
 10
39.26474906704169
 20
35.16708389072494
 30
0.0
 11
39.11235411704172
 21
36.29643039072494
 31
0.0
  0
LINE
  5
E0
330
2
100
AcDbEntity
  8
GAIKEI
  6
Continuous
 62
     1
100
AcDbLine
 10
37.70667186704168
 20
32.38742214072488
 30
0.0
 11
37.70667186704168
 21
32.39683669072497
 31
0.0
  0
LINE
  5
E1
330
2
100
AcDbEntity
  8
GAIKEI
  6
Continuous
 62
     1
100
AcDbLine
 10
38.83839136704171
 20
32.24825569072493
 30
0.0
 11
38.83708751704171
 21
32.24969944072495
 31
0.0
  0
LINE
  5
E2
330
2
100
AcDbEntity
  8
GAIKEI
  6
Continuous
 62
     1
100
AcDbLine
 10
37.75666426704169
 20
32.38742214072488
 30
0.0
 11
37.70667186704168
 21
32.38742214072488
 31
0.0
  0
LINE
  5
E3
330
2
100
AcDbEntity
  8
GAIKEI
  6
Continuous
 62
     1
100
AcDbLine
 10
37.75666426704169
 20
32.51802854072491
 30
0.0
 11
37.75666426704169
 21
32.38742214072488
 31
0.0
  0
ARC
  5
E4
330
2
100
AcDbEntity
  8
GAIKEI
  6
Continuous
 62
     1
100
AcDbCircle
 10
39.07721126704172
 20
32.2190114407249
 30
0.0
 40
0.34978195
100
AcDbArc
 50
317.3057001384141
 51
349.609110091751
  0
ELLIPSE
  5
E5
330
2
100
AcDbEntity
  8
GAIKEI
  6
Continuous
 62
     1
100
AcDbEllipse
 10
39.07685236704174
 20
37.38446924072491
 30
0.0
 11
0.2200773139137207
 21
0.2042784547079607
 31
0.0
210
0.0
220
0.0
230
1.0
 40
0.9990919999997052
 41
-0.6110907881875775
 42
0.6110907880307086
  0
ELLIPSE
  5
E6
330
2
100
AcDbEntity
  8
GAIKEI
  6
Continuous
 62
     1
100
AcDbEllipse
 10
38.23924676704172
 20
35.02906449072487
 30
0.0
 11
1.447501845805857
 21
0.0990673047384905
 31
0.0
210
0.0
220
0.0
230
1.0
 40
0.9993880000055288
 41
-0.0682919404817914
 42
0.0682919404888547
  0
ELLIPSE
  5
E7
330
2
100
AcDbEntity
  8
GAIKEI
  6
Continuous
 62
     1
100
AcDbEllipse
 10
38.23924676704172
 20
34.57474924072483
 30
0.0
 11
-1.447501845782709
 21
0.0990673050774751
 31
0.0
210
0.0
220
0.0
230
1.0
 40
0.9993879999934986
 41
3.073300713334443
 42
3.209884594306729
  0
ELLIPSE
  5
E8
330
2
100
AcDbEntity
  8
GAIKEI
  6
Continuous
 62
     1
100
AcDbEllipse
 10
39.07685236704174
 20
32.21934454072493
 30
0.0
 11
-0.2200773139313426
 21
0.2042784546889193
 31
0.0
210
0.0
220
0.0
230
1.0
 40
0.9990920000004408
 41
2.530501865473186
 42
3.75268344169062
  0
ELLIPSE
  5
E9
330
2
100
AcDbEntity
  8
GAIKEI
  6
Continuous
 62
     1
100
AcDbEllipse
 10
38.83316361704169
 20
37.20585489072494
 30
0.0
 11
-0.1113231012655573
 21
0.1005344076653982
 31
0.0
210
0.0
220
0.0
230
1.0
 40
0.9976619999996227
 41
4.013930599346159
 42
5.410847361526342
  0
ELLIPSE
  5
EA
330
2
100
AcDbEntity
  8
GAIKEI
  6
Continuous
 62
     1
100
AcDbEllipse
 10
38.28285106704169
 20
34.57176494072485
 30
0.0
 11
0.0677683607176556
 21
0.9901836694785888
 31
0.0
210
0.0
220
0.0
230
1.0
 40
0.998622999991616
 41
4.644149142570644
 42
4.78062881804572
  0
ELLIPSE
  5
EB
330
2
100
AcDbEntity
  8
GAIKEI
  6
Continuous
 62
     1
100
AcDbEllipse
 10
38.83316361704169
 20
32.39795884072487
 30
0.0
 11
0.1113231012737732
 21
0.1005344076561978
 31
0.0
210
0.0
220
0.0
230
1.0
 40
0.9976620000000806
 41
4.013930599325021
 42
5.410847361505642
  0
ELLIPSE
  5
EC
330
2
100
AcDbEntity
  8
GAIKEI
  6
Continuous
 62
     1
100
AcDbEllipse
 10
38.28285106704169
 20
35.03204879072484
 30
0.0
 11
-0.0677683608693831
 21
0.9901836694613271
 31
0.0
210
0.0
220
0.0
230
1.0
 40
0.9986229999985823
 41
4.644149142569689
 42
4.780628818045713
  0
ELLIPSE
  5
ED
330
2
100
AcDbEntity
  8
GAIKEI
  6
Continuous
 62
     1
100
AcDbEllipse
 10
37.84592831704174
 20
32.36348384072483
 30
0.0
 11
-0.1424851626777184
 21
0.0468826024949143
 31
0.0
210
0.0
220
0.0
230
1.0
 40
0.9984440000005646
 41
0.318339618181823
 42
1.923075432051857
  0
ELLIPSE
  5
EE
330
2
100
AcDbEntity
  8
GAIKEI
  6
Continuous
 62
     1
100
AcDbEllipse
 10
37.84592831704174
 20
37.24032994072491
 30
0.0
 11
0.1424851626795885
 21
0.0468826024892312
 31
0.0
210
0.0
220
0.0
230
1.0
 40
0.9984440000001793
 41
1.218517221577885
 42
2.82325303544779
  0
LINE
  5
EF
330
2
100
AcDbEntity
  8
GAIKEI
  6
Continuous
 62
     1
100
AcDbLine
 10
37.70085831704171
 20
3.714526555064026
 30
0.0
 11
37.6691292170417
 21
3.714526555064026
 31
0.0
  0
ARC
  5
F0
330
2
100
AcDbEntity
  8
GAIKEI
  6
Continuous
 62
     1
100
AcDbCircle
 10
37.70085831704171
 20
3.649526555063971
 30
0.0
 40
0.065
100
AcDbArc
 50
16.60155000001893
 51
90.0
  0
ARC
  5
F1
330
2
100
AcDbEntity
  8
GAIKEI
  6
Continuous
 62
     1
100
AcDbCircle
 10
37.70085831704171
 20
3.429526555064057
 30
0.0
 40
0.065
100
AcDbArc
 50
299.071346000013
 51
343.3984499999811
  0
ARC
  5
F2
330
2
100
AcDbEntity
  8
GAIKEI
  6
Continuous
 62
     1
100
AcDbCircle
 10
37.33190711704174
 20
3.539526555063957
 30
0.0
 40
0.45
100
AcDbArc
 50
343.3984499999811
 51
0.0
  0
ARC
  5
F3
330
2
100
AcDbEntity
  8
GAIKEI
  6
Continuous
 62
     1
100
AcDbCircle
 10
37.33190711704174
 20
3.539526555063957
 30
0.0
 40
0.45
100
AcDbArc
 50
0.0
 51
16.60155000001893
  0
LINE
  5
F4
330
2
100
AcDbEntity
  8
GAIKEI
  6
Continuous
 62
     1
100
AcDbLine
 10
37.66085831704174
 20
3.714526555064026
 30
0.0
 11
37.62940711704175
 21
3.714526555064026
 31
0.0
  0
LINE
  5
F5
330
2
100
AcDbEntity
  8
GAIKEI
  6
Continuous
 62
     1
100
AcDbLine
 10
37.66085831704174
 20
20.7297623542969
 30
0.0
 11
37.62940711704175
 21
20.7297623542969
 31
0.0
  0
LINE
  5
F6
330
2
100
AcDbEntity
  8
GAIKEI
  6
Continuous
 62
     1
100
AcDbLine
 10
37.62940711704175
 20
20.37976235429687
 30
0.0
 11
37.66085831704174
 21
20.37976235429687
 31
0.0
  0
ARC
  5
F7
330
2
100
AcDbEntity
  8
GAIKEI
  6
Continuous
 62
     1
100
AcDbCircle
 10
37.66085831704174
 20
20.66476235429684
 30
0.0
 40
0.065
100
AcDbArc
 50
16.60155000001893
 51
90.0
  0
ARC
  5
F8
330
2
100
AcDbEntity
  8
GAIKEI
  6
Continuous
 62
     1
100
AcDbCircle
 10
37.66085831704174
 20
20.44476235429693
 30
0.0
 40
0.065
100
AcDbArc
 50
270.0
 51
343.3984499999811
  0
ARC
  5
F9
330
2
100
AcDbEntity
  8
GAIKEI
  6
Continuous
 62
     1
100
AcDbCircle
 10
37.29190711704172
 20
20.55476235429683
 30
0.0
 40
0.45
100
AcDbArc
 50
343.3984499999811
 51
0.0
  0
ARC
  5
FA
330
2
100
AcDbEntity
  8
GAIKEI
  6
Continuous
 62
     1
100
AcDbCircle
 10
37.29190711704172
 20
20.55476235429683
 30
0.0
 40
0.45
100
AcDbArc
 50
0.0
 51
16.60155000001893
  0
LINE
  5
FB
330
2
100
AcDbEntity
  8
GAIKEI
  6
Continuous
 62
     1
100
AcDbLine
 10
37.66085831704174
 20
38.99433669072493
 30
0.0
 11
37.62940711704175
 21
38.99433669072493
 31
0.0
  0
LINE
  5
FC
330
2
100
AcDbEntity
  8
GAIKEI
  6
Continuous
 62
     1
100
AcDbLine
 10
37.62940711704175
 20
38.64433669072491
 30
0.0
 11
37.66085831704174
 21
38.64433669072491
 31
0.0
  0
ARC
  5
FD
330
2
100
AcDbEntity
  8
GAIKEI
  6
Continuous
 62
     1
100
AcDbCircle
 10
37.66085831704174
 20
38.92933669072488
 30
0.0
 40
0.065
100
AcDbArc
 50
16.60155000001893
 51
90.0
  0
ARC
  5
FE
330
2
100
AcDbEntity
  8
GAIKEI
  6
Continuous
 62
     1
100
AcDbCircle
 10
37.66085831704174
 20
38.70933669072485
 30
0.0
 40
0.065
100
AcDbArc
 50
270.0
 51
343.3984499999811
  0
ARC
  5
FF
330
2
100
AcDbEntity
  8
GAIKEI
  6
Continuous
 62
     1
100
AcDbCircle
 10
37.29190711704172
 20
38.81933669072487
 30
0.0
 40
0.45
100
AcDbArc
 50
343.3984499999811
 51
0.0
  0
ARC
  5
100
330
2
100
AcDbEntity
  8
GAIKEI
  6
Continuous
 62
     1
100
AcDbCircle
 10
37.29190711704172
 20
38.81933669072487
 30
0.0
 40
0.45
100
AcDbArc
 50
0.0
 51
16.60155000001893
  0
LINE
  5
101
330
2
100
AcDbEntity
  8
GAIKEI
  6
Continuous
 62
     1
100
AcDbLine
 10
37.62940711704175
 20
3.289526555063957
 30
0.0
 11
37.66085831704174
 21
3.289526555063957
 31
0.0
  0
ARC
  5
102
330
2
100
AcDbEntity
  8
GAIKEI
  6
Continuous
 62
     1
100
AcDbCircle
 10
37.66085831704174
 20
3.354526555064012
 30
0.0
 40
0.065
100
AcDbArc
 50
270.0
 51
343.3984499999811
  0
ARC
  5
103
330
2
100
AcDbEntity
  8
GAIKEI
  6
Continuous
 62
     1
100
AcDbCircle
 10
37.29190711704172
 20
3.464526555064026
 30
0.0
 40
0.45
100
AcDbArc
 50
343.3984499999811
 51
348.2276048164396
  0
ARC
  5
104
330
2
100
AcDbEntity
  8
GAIKEI
  6
Continuous
 62
     1
100
AcDbCircle
 10
37.58991176704171
 20
3.948510605064029
 30
0.0
 40
0.05
100
AcDbArc
 50
16.25702800000541
 51
37.82319200001238
  0
ARC
  5
105
330
2
100
AcDbEntity
  8
GAIKEI
  6
Continuous
 62
     1
100
AcDbCircle
 10
37.62991176704168
 20
3.913510605063947
 30
0.0
 40
0.05
100
AcDbArc
 50
16.25702800000541
 51
80.92142899999224
  0
ARC
  5
106
330
2
100
AcDbEntity
  8
GAIKEI
  6
Continuous
 62
     1
100
AcDbCircle
 10
37.62991176704168
 20
3.745542505064008
 30
0.0
 40
0.05
100
AcDbArc
 50
320.9555470000156
 51
343.7429719999946
  0
ARC
  5
107
330
2
100
AcDbEntity
  8
GAIKEI
  6
Continuous
 62
     1
100
AcDbCircle
 10
37.34190711704173
 20
3.829526555064035
 30
0.0
 40
0.35
100
AcDbArc
 50
343.7429719999946
 51
0.0
  0
ARC
  5
108
330
2
100
AcDbEntity
  8
GAIKEI
  6
Continuous
 62
     1
100
AcDbCircle
 10
37.34190711704173
 20
3.829526555064035
 30
0.0
 40
0.35
100
AcDbArc
 50
0.0
 51
16.25702800000541
  0
LINE
  5
109
330
2
100
AcDbEntity
  8
GAIKEI
  6
Continuous
 62
     1
100
AcDbLine
 10
37.77190711704168
 20
32.67765924072489
 30
0.0
 11
37.77190711704168
 21
32.66550389072495
 31
0.0
  0
LINE
  5
10A
330
2
100
AcDbEntity
  8
GAIKEI
  6
Continuous
 62
     1
100
AcDbLine
 10
37.78104691704169
 20
32.82433809072495
 30
0.0
 11
37.74104691704173
 21
32.82433809072495
 31
0.0
  0
LINE
  5
10B
330
2
100
AcDbEntity
  8
GAIKEI
  6
Continuous
 62
     1
100
AcDbLine
 10
37.8016196170417
 20
32.46933744072487
 30
0.0
 11
37.76161961704167
 21
32.46933744072487
 31
0.0
  0
LINE
  5
10C
330
2
100
AcDbEntity
  8
GAIKEI
  6
Continuous
 62
     1
100
AcDbLine
 10
37.77190711704168
 20
32.64683669072497
 30
0.0
 11
37.8119071170417
 21
32.64683669072497
 31
0.0
  0
LINE
  5
10D
330
2
100
AcDbEntity
  8
GAIKEI
  6
Continuous
 62
     1
100
AcDbLine
 10
37.73190711704172
 20
32.66550389072495
 30
0.0
 11
37.77190711704168
 21
32.66550389072495
 31
0.0
  0
LINE
  5
10E
330
2
100
AcDbEntity
  8
GAIKEI
  6
Continuous
 62
     1
100
AcDbLine
 10
37.8119071170417
 20
32.4718366907249
 30
0.0
 11
37.8119071170417
 21
32.64683669072497
 31
0.0
  0
LINE
  5
10F
330
2
100
AcDbEntity
  8
GAIKEI
  6
Continuous
 62
     1
100
AcDbLine
 10
37.8119071170417
 20
32.64683669072497
 30
0.0
 11
37.8119071170417
 21
32.82183669072492
 31
0.0
  0
LINE
  5
110
330
2
100
AcDbEntity
  8
GAIKEI
  6
Continuous
 62
     1
100
AcDbLine
 10
37.86085831704168
 20
32.82183669072492
 30
0.0
 11
37.8119071170417
 21
32.82183669072492
 31
0.0
  0
LINE
  5
111
330
2
100
AcDbEntity
  8
GAIKEI
  6
Continuous
 62
     1
100
AcDbLine
 10
37.8119071170417
 20
32.4718366907249
 30
0.0
 11
37.86085831704168
 21
32.4718366907249
 31
0.0
  0
LINE
  5
112
330
2
100
AcDbEntity
  8
GAIKEI
  6
Continuous
 62
     1
100
AcDbLine
 10
37.8119071170417
 20
32.74183669072488
 30
0.0
 11
37.77789746704173
 21
32.74183669072488
 31
0.0
  0
LINE
  5
113
330
2
100
AcDbEntity
  8
GAIKEI
  6
Continuous
 62
     1
100
AcDbLine
 10
37.73190711704172
 20
32.55183669072494
 30
0.0
 11
37.76476481704174
 21
32.55183669072494
 31
0.0
  0
ARC
  5
114
330
2
100
AcDbEntity
  8
GAIKEI
  6
Continuous
 62
     1
100
AcDbCircle
 10
37.86085831704168
 20
32.75683669072487
 30
0.0
 40
0.065
100
AcDbArc
 50
16.60155000001893
 51
90.0
  0
ARC
  5
115
330
2
100
AcDbEntity
  8
GAIKEI
  6
Continuous
 62
     1
100
AcDbCircle
 10
37.86085831704168
 20
32.53683669072496
 30
0.0
 40
0.065
100
AcDbArc
 50
270.0
 51
343.3984499999811
  0
ARC
  5
116
330
2
100
AcDbEntity
  8
GAIKEI
  6
Continuous
 62
     1
100
AcDbCircle
 10
37.49190711704171
 20
32.64683669072497
 30
0.0
 40
0.45
100
AcDbArc
 50
343.3984499999811
 51
0.0
  0
ARC
  5
117
330
2
100
AcDbEntity
  8
GAIKEI
  6
Continuous
 62
     1
100
AcDbCircle
 10
37.49190711704171
 20
32.64683669072497
 30
0.0
 40
0.45
100
AcDbArc
 50
0.0
 51
16.60155000001893
  0
LINE
  5
118
330
2
100
AcDbEntity
  8
GAIKEI
  6
Continuous
 62
     1
100
AcDbLine
 10
37.73190711704172
 20
32.39683669072497
 30
0.0
 11
37.73190711704172
 21
32.64683669072497
 31
0.0
  0
LINE
  5
119
330
2
100
AcDbEntity
  8
GAIKEI
  6
Continuous
 62
     1
100
AcDbLine
 10
37.73190711704172
 20
32.89683669072497
 30
0.0
 11
37.69276461704169
 21
32.89683669072497
 31
0.0
  0
LINE
  5
11A
330
2
100
AcDbEntity
  8
GAIKEI
  6
Continuous
 62
     1
100
AcDbLine
 10
37.69276461704169
 20
32.39683669072497
 30
0.0
 11
37.73190711704172
 21
32.39683669072497
 31
0.0
  0
LINE
  5
11B
330
2
100
AcDbEntity
  8
GAIKEI
  6
Continuous
 62
     1
100
AcDbLine
 10
37.73190711704172
 20
32.64683669072497
 30
0.0
 11
37.73190711704172
 21
32.89683669072497
 31
0.0
  0
LINE
  5
11C
330
2
100
AcDbEntity
  8
GAIKEI
  6
Continuous
 62
     1
100
AcDbLine
 10
37.77190711704168
 20
36.2976592407249
 30
0.0
 11
37.77190711704168
 21
36.28550389072496
 31
0.0
  0
LINE
  5
11D
330
2
100
AcDbEntity
  8
GAIKEI
  6
Continuous
 62
     1
100
AcDbLine
 10
37.78104691704169
 20
36.44433809072495
 30
0.0
 11
37.74104691704173
 21
36.44433809072495
 31
0.0
  0
LINE
  5
11E
330
2
100
AcDbEntity
  8
GAIKEI
  6
Continuous
 62
     1
100
AcDbLine
 10
37.8016196170417
 20
36.08933744072488
 30
0.0
 11
37.76161961704167
 21
36.08933744072488
 31
0.0
  0
LINE
  5
11F
330
2
100
AcDbEntity
  8
GAIKEI
  6
Continuous
 62
     1
100
AcDbLine
 10
37.77190711704168
 20
36.26683669072486
 30
0.0
 11
37.8119071170417
 21
36.26683669072486
 31
0.0
  0
LINE
  5
120
330
2
100
AcDbEntity
  8
GAIKEI
  6
Continuous
 62
     1
100
AcDbLine
 10
37.73190711704172
 20
36.28550389072496
 30
0.0
 11
37.77190711704168
 21
36.28550389072496
 31
0.0
  0
LINE
  5
121
330
2
100
AcDbEntity
  8
GAIKEI
  6
Continuous
 62
     1
100
AcDbLine
 10
37.8119071170417
 20
36.0918366907249
 30
0.0
 11
37.8119071170417
 21
36.26683669072486
 31
0.0
  0
LINE
  5
122
330
2
100
AcDbEntity
  8
GAIKEI
  6
Continuous
 62
     1
100
AcDbLine
 10
37.8119071170417
 20
36.26683669072486
 30
0.0
 11
37.8119071170417
 21
36.44183669072493
 31
0.0
  0
LINE
  5
123
330
2
100
AcDbEntity
  8
GAIKEI
  6
Continuous
 62
     1
100
AcDbLine
 10
37.86085831704168
 20
36.44183669072493
 30
0.0
 11
37.8119071170417
 21
36.44183669072493
 31
0.0
  0
LINE
  5
124
330
2
100
AcDbEntity
  8
GAIKEI
  6
Continuous
 62
     1
100
AcDbLine
 10
37.8119071170417
 20
36.0918366907249
 30
0.0
 11
37.86085831704168
 21
36.0918366907249
 31
0.0
  0
LINE
  5
125
330
2
100
AcDbEntity
  8
GAIKEI
  6
Continuous
 62
     1
100
AcDbLine
 10
37.8119071170417
 20
36.36183669072489
 30
0.0
 11
37.77789746704173
 21
36.36183669072489
 31
0.0
  0
LINE
  5
126
330
2
100
AcDbEntity
  8
GAIKEI
  6
Continuous
 62
     1
100
AcDbLine
 10
37.73446466704172
 20
36.36183669072489
 30
0.0
 11
37.73190711704172
 21
36.36183669072489
 31
0.0
  0
LINE
  5
127
330
2
100
AcDbEntity
  8
GAIKEI
  6
Continuous
 62
     1
100
AcDbLine
 10
37.73190711704172
 20
36.17183669072495
 30
0.0
 11
37.76476481704174
 21
36.17183669072495
 31
0.0
  0
ARC
  5
128
330
2
100
AcDbEntity
  8
GAIKEI
  6
Continuous
 62
     1
100
AcDbCircle
 10
37.86085831704168
 20
36.37683669072487
 30
0.0
 40
0.065
100
AcDbArc
 50
16.60155000001893
 51
90.0
  0
ARC
  5
129
330
2
100
AcDbEntity
  8
GAIKEI
  6
Continuous
 62
     1
100
AcDbCircle
 10
37.86085831704168
 20
36.15683669072496
 30
0.0
 40
0.065
100
AcDbArc
 50
270.0
 51
343.3984499999811
  0
ARC
  5
12A
330
2
100
AcDbEntity
  8
GAIKEI
  6
Continuous
 62
     1
100
AcDbCircle
 10
37.49190711704171
 20
36.26683669072486
 30
0.0
 40
0.45
100
AcDbArc
 50
343.3984499999811
 51
0.0
  0
ARC
  5
12B
330
2
100
AcDbEntity
  8
GAIKEI
  6
Continuous
 62
     1
100
AcDbCircle
 10
37.49190711704171
 20
36.26683669072486
 30
0.0
 40
0.45
100
AcDbArc
 50
0.0
 51
16.60155000001893
  0
LINE
  5
12C
330
2
100
AcDbEntity
  8
GAIKEI
  6
Continuous
 62
     1
100
AcDbLine
 10
37.73190711704172
 20
36.01683669072486
 30
0.0
 11
37.73190711704172
 21
36.26683669072486
 31
0.0
  0
LINE
  5
12D
330
2
100
AcDbEntity
  8
GAIKEI
  6
Continuous
 62
     1
100
AcDbLine
 10
37.73190711704172
 20
36.51683669072486
 30
0.0
 11
37.6985836670417
 21
36.51683669072486
 31
0.0
  0
LINE
  5
12E
330
2
100
AcDbEntity
  8
GAIKEI
  6
Continuous
 62
     1
100
AcDbLine
 10
37.6985836670417
 20
36.01683669072486
 30
0.0
 11
37.73190711704172
 21
36.01683669072486
 31
0.0
  0
LINE
  5
12F
330
2
100
AcDbEntity
  8
GAIKEI
  6
Continuous
 62
     1
100
AcDbLine
 10
37.73190711704172
 20
36.26683669072486
 30
0.0
 11
37.73190711704172
 21
36.51683669072486
 31
0.0
  0
LINE
  5
130
330
2
100
AcDbEntity
  8
GAIKEI
  6
Continuous
 62
     1
100
AcDbLine
 10
39.75690711704169
 20
8.364526555064003
 30
0.0
 11
39.75690711704169
 21
8.864526555064003
 31
0.0
  0
LINE
  5
131
330
2
100
AcDbEntity
  8
GAIKEI
  6
Continuous
 62
     1
100
AcDbLine
 10
39.73190711704172
 20
8.364526555064003
 30
0.0
 11
39.75690711704169
 21
8.364526555064003
 31
0.0
  0
LINE
  5
132
330
2
100
AcDbEntity
  8
GAIKEI
  6
Continuous
 62
     1
100
AcDbLine
 10
39.75690711704169
 20
8.864526555064003
 30
0.0
 11
39.73190711704172
 21
8.864526555064003
 31
0.0
  0
LINE
  5
133
330
2
100
AcDbEntity
  8
GAIKEI
  6
Continuous
 62
     1
100
AcDbLine
 10
39.79190711704172
 20
8.477026555063957
 30
0.0
 11
39.8342695670417
 21
8.480732805064008
 31
0.0
  0
LINE
  5
134
330
2
100
AcDbEntity
  8
GAIKEI
  6
Continuous
 62
     1
100
AcDbLine
 10
39.8342695670417
 20
8.748320305063998
 30
0.0
 11
39.79190711704172
 21
8.752026555064048
 31
0.0
  0
LINE
  5
135
330
2
100
AcDbEntity
  8
GAIKEI
  6
Continuous
 62
     1
100
AcDbLine
 10
39.75690711704169
 20
8.479526555064012
 30
0.0
 11
39.79190711704172
 21
8.479526555064012
 31
0.0
  0
LINE
  5
136
330
2
100
AcDbEntity
  8
GAIKEI
  6
Continuous
 62
     1
100
AcDbLine
 10
39.79190711704172
 20
8.749526555063994
 30
0.0
 11
39.75690711704169
 21
8.749526555063994
 31
0.0
  0
ARC
  5
137
330
2
100
AcDbEntity
  8
GAIKEI
  6
Continuous
 62
     1
100
AcDbCircle
 10
39.82991176704172
 20
8.698510605064029
 30
0.0
 40
0.05
100
AcDbArc
 50
16.25702800000541
 51
84.99999899997805
  0
ARC
  5
138
330
2
100
AcDbEntity
  8
GAIKEI
  6
Continuous
 62
     1
100
AcDbCircle
 10
39.82991176704172
 20
8.530542505063976
 30
0.0
 40
0.05
100
AcDbArc
 50
275.0000010000219
 51
343.7429719999946
  0
ARC
  5
139
330
2
100
AcDbEntity
  8
GAIKEI
  6
Continuous
 62
     1
100
AcDbCircle
 10
39.54190711704172
 20
8.614526555064003
 30
0.0
 40
0.35
100
AcDbArc
 50
343.7429719999946
 51
0.0
  0
ARC
  5
13A
330
2
100
AcDbEntity
  8
GAIKEI
  6
Continuous
 62
     1
100
AcDbCircle
 10
39.54190711704172
 20
8.614526555064003
 30
0.0
 40
0.35
100
AcDbArc
 50
0.0
 51
16.25702800000541
  0
LINE
  5
13B
330
2
100
AcDbEntity
  8
GAIKEI
  6
Continuous
 62
     1
100
AcDbLine
 10
39.75690711704169
 20
6.464526555064026
 30
0.0
 11
39.75690711704169
 21
6.964526555064026
 31
0.0
  0
LINE
  5
13C
330
2
100
AcDbEntity
  8
GAIKEI
  6
Continuous
 62
     1
100
AcDbLine
 10
39.73190711704172
 20
6.464526555064026
 30
0.0
 11
39.75690711704169
 21
6.464526555064026
 31
0.0
  0
LINE
  5
13D
330
2
100
AcDbEntity
  8
GAIKEI
  6
Continuous
 62
     1
100
AcDbLine
 10
39.75690711704169
 20
6.964526555064026
 30
0.0
 11
39.73190711704172
 21
6.964526555064026
 31
0.0
  0
LINE
  5
13E
330
2
100
AcDbEntity
  8
GAIKEI
  6
Continuous
 62
     1
100
AcDbLine
 10
39.79190711704172
 20
6.57702655506398
 30
0.0
 11
39.8342695670417
 21
6.58073280506403
 31
0.0
  0
LINE
  5
13F
330
2
100
AcDbEntity
  8
GAIKEI
  6
Continuous
 62
     1
100
AcDbLine
 10
39.8342695670417
 20
6.848320305064021
 30
0.0
 11
39.79190711704172
 21
6.852026555063957
 31
0.0
  0
LINE
  5
140
330
2
100
AcDbEntity
  8
GAIKEI
  6
Continuous
 62
     1
100
AcDbLine
 10
39.75690711704169
 20
6.579526555064035
 30
0.0
 11
39.79190711704172
 21
6.579526555064035
 31
0.0
  0
LINE
  5
141
330
2
100
AcDbEntity
  8
GAIKEI
  6
Continuous
 62
     1
100
AcDbLine
 10
39.79190711704172
 20
6.849526555064016
 30
0.0
 11
39.75690711704169
 21
6.849526555064016
 31
0.0
  0
ARC
  5
142
330
2
100
AcDbEntity
  8
GAIKEI
  6
Continuous
 62
     1
100
AcDbCircle
 10
39.82991176704172
 20
6.798510605063938
 30
0.0
 40
0.05
100
AcDbArc
 50
16.25702800000541
 51
84.99999899997805
  0
ARC
  5
143
330
2
100
AcDbEntity
  8
GAIKEI
  6
Continuous
 62
     1
100
AcDbCircle
 10
39.82991176704172
 20
6.630542505063999
 30
0.0
 40
0.05
100
AcDbArc
 50
275.0000010000219
 51
343.7429719999946
  0
ARC
  5
144
330
2
100
AcDbEntity
  8
GAIKEI
  6
Continuous
 62
     1
100
AcDbCircle
 10
39.54190711704172
 20
6.714526555064026
 30
0.0
 40
0.35
100
AcDbArc
 50
343.7429719999946
 51
0.0
  0
ARC
  5
145
330
2
100
AcDbEntity
  8
GAIKEI
  6
Continuous
 62
     1
100
AcDbCircle
 10
39.54190711704172
 20
6.714526555064026
 30
0.0
 40
0.35
100
AcDbArc
 50
0.0
 51
16.25702800000541
  0
LINE
  5
146
330
2
100
AcDbEntity
  8
GAIKEI
  6
Continuous
 62
     1
100
AcDbLine
 10
37.7649292170417
 20
11.39786370506397
 30
0.0
 11
37.7649292170417
 21
12.13118940506399
 31
0.0
  0
LINE
  5
147
330
2
100
AcDbEntity
  8
GAIKEI
  6
Continuous
 62
     1
100
AcDbLine
 10
37.7649292170417
 20
30.52517384072485
 30
0.0
 11
37.7649292170417
 21
31.25849954072487
 31
0.0
  0
LINE
  5
148
330
2
100
AcDbEntity
  8
GAIKEI
  6
Continuous
 62
     1
100
AcDbLine
 10
39.2556805170417
 20
31.58310464072497
 30
0.0
 11
39.2556805170417
 21
8.855436405063983
 31
0.0
  0
LINE
  5
149
330
2
100
AcDbEntity
  8
GAIKEI
  6
Continuous
 62
     1
100
AcDbLine
 10
39.27292136704171
 20
8.32011935506398
 30
0.0
 11
39.33586296704169
 21
8.245108505063967
 31
0.0
  0
LINE
  5
14A
330
2
100
AcDbEntity
  8
GAIKEI
  6
Continuous
 62
     1
100
AcDbLine
 10
39.33586296704169
 20
8.245108505063967
 30
0.0
 11
39.33586296704169
 21
6.061756355064062
 31
0.0
  0
LINE
  5
14B
330
2
100
AcDbEntity
  8
GAIKEI
  6
Continuous
 62
     1
100
AcDbLine
 10
39.33586296704169
 20
6.061756355064062
 30
0.0
 11
37.62940711704175
 21
5.440657184110818
 31
0.0
  0
LINE
  5
14C
330
2
100
AcDbEntity
  8
GAIKEI
  6
Continuous
 62
     7
100
AcDbLine
 10
37.84337101704171
 20
38.10713074072487
 30
0.0
 11
37.68992921704171
 21
38.13974579072488
 31
0.0
  0
LINE
  5
14D
330
2
100
AcDbEntity
  8
GAIKEI
  6
Continuous
 62
     7
100
AcDbLine
 10
37.62940711704175
 20
4.699279119938296
 30
0.0
 11
39.56741216704171
 21
5.404655305064011
 31
0.0
  0
LINE
  5
14E
330
2
100
AcDbEntity
  8
GAIKEI
  6
Continuous
 62
     7
100
AcDbLine
 10
39.73190711704172
 20
5.639578455063997
 30
0.0
 11
39.73190711704172
 21
8.523885205064061
 31
0.0
  0
LINE
  5
14F
330
2
100
AcDbEntity
  8
GAIKEI
  6
Continuous
 62
     1
100
AcDbLine
 10
39.56440486704173
 20
32.4032553907249
 30
0.0
 11
39.42109556704167
 21
32.15564514072492
 31
0.0
  0
LINE
  5
150
330
2
100
AcDbEntity
  8
GAIKEI
  6
Continuous
 62
     7
100
AcDbLine
 10
39.78197411704173
 20
9.425156205064013
 30
0.0
 11
39.72947411704172
 21
9.381103455064021
 31
0.0
  0
LINE
  5
151
330
2
100
AcDbEntity
  8
GAIKEI
  6
Continuous
 62
     7
100
AcDbLine
 10
39.72947411704172
 20
9.381103455064021
 30
0.0
 11
39.72947411704172
 21
8.523885205064061
 31
0.0
  0
LINE
  5
152
330
2
100
AcDbEntity
  8
GAIKEI
  6
Continuous
 62
     1
100
AcDbLine
 10
39.73190711704172
 20
8.335624905064037
 30
0.0
 11
39.73190711704172
 21
8.336101055063977
 31
0.0
  0
LINE
  5
153
330
2
100
AcDbEntity
  8
GAIKEI
  6
Continuous
 62
     7
100
AcDbLine
 10
37.88665861704169
 20
38.09792964072494
 30
0.0
 11
37.8429347670417
 21
38.10722344072497
 31
0.0
  0
LINE
  5
154
330
2
100
AcDbEntity
  8
GAIKEI
  6
Continuous
 62
     1
100
AcDbLine
 10
39.66523411704168
 20
33.92742389072487
 30
0.0
 11
39.66523411704168
 21
32.99072264072492
 31
0.0
  0
LINE
  5
155
330
2
100
AcDbEntity
  8
GAIKEI
  6
Continuous
 62
     7
100
AcDbLine
 10
39.23818051704166
 20
37.81065484072497
 30
0.0
 11
39.24193201704168
 21
37.80960519072494
 31
0.0
  0
LINE
  5
156
330
2
100
AcDbEntity
  8
GAIKEI
  6
Continuous
 62
     7
100
AcDbLine
 10
39.23818051704166
 20
37.81065484072497
 30
0.0
 11
37.88665861704169
 21
38.09792964072494
 31
0.0
  0
LINE
  5
157
330
2
100
AcDbEntity
  8
GAIKEI
  6
Continuous
 62
     1
100
AcDbLine
 10
39.72947411704172
 20
8.523885205064061
 30
0.0
 11
39.73190711704172
 21
8.523885205064061
 31
0.0
  0
LINE
  5
158
330
2
100
AcDbEntity
  8
GAIKEI
  6
Continuous
 62
     7
100
AcDbLine
 10
39.24256736704172
 20
37.80968109072489
 30
0.0
 11
39.24186186704174
 21
37.80963594072489
 31
0.0
  0
LINE
  5
159
330
2
100
AcDbEntity
  8
GAIKEI
  6
Continuous
 62
     7
100
AcDbLine
 10
39.52418581704171
 20
36.95756644072492
 30
0.0
 11
39.43376961704166
 21
37.6009111907249
 31
0.0
  0
LINE
  5
15A
330
2
100
AcDbEntity
  8
GAIKEI
  6
Continuous
 62
     7
100
AcDbLine
 10
39.7819123170417
 20
35.12374734072489
 30
0.0
 11
39.52418581704171
 21
36.95756644072492
 31
0.0
  0
LINE
  5
15B
330
2
100
AcDbEntity
  8
GAIKEI
  6
Continuous
 62
     1
100
AcDbLine
 10
39.78440711704172
 20
35.10302574072489
 30
0.0
 11
39.78440711704172
 21
35.10599584072497
 31
0.0
  0
LINE
  5
15C
330
2
100
AcDbEntity
  8
GAIKEI
  6
Continuous
 62
     1
100
AcDbLine
 10
39.78440711704172
 20
35.10599584072497
 30
0.0
 11
39.7819123170417
 21
35.12374734072489
 31
0.0
  0
LINE
  5
15D
330
2
100
AcDbEntity
  8
GAIKEI
  6
Continuous
 62
     7
100
AcDbLine
 10
39.78440711704172
 20
9.41276955506396
 30
0.0
 11
39.78440711704172
 21
35.10302574072489
 31
0.0
  0
LINE
  5
15E
330
2
100
AcDbEntity
  8
GAIKEI
  6
Continuous
 62
     7
100
AcDbLine
 10
39.78440711704172
 20
9.378531455064035
 30
0.0
 11
39.78440711704172
 21
9.41276955506396
 31
0.0
  0
LINE
  5
15F
330
2
100
AcDbEntity
  8
GAIKEI
  6
Continuous
 62
     1
100
AcDbLine
 10
39.73190711704172
 20
5.914526555063957
 30
0.0
 11
39.73190711704172
 21
6.064526555064048
 31
0.0
  0
LINE
  5
160
330
2
100
AcDbEntity
  8
GAIKEI
  6
Continuous
 62
     1
100
AcDbLine
 10
39.73190711704172
 20
5.914526555063957
 30
0.0
 11
39.73190711704172
 21
5.864526555064003
 31
0.0
  0
LINE
  5
161
330
2
100
AcDbEntity
  8
GAIKEI
  6
Continuous
 62
     1
100
AcDbLine
 10
37.80413461704166
 20
4.238389705064037
 30
0.0
 11
37.83382311704168
 21
4.239945605064008
 31
0.0
  0
LINE
  5
162
330
2
100
AcDbEntity
  8
GAIKEI
  6
Continuous
 62
     1
100
AcDbLine
 10
37.83382311704168
 20
4.239945605064008
 30
0.0
 11
39.07450026704168
 21
4.304966755064015
 31
0.0
  0
LINE
  5
163
330
2
100
AcDbEntity
  8
GAIKEI
  6
Continuous
 62
     1
100
AcDbLine
 10
39.78440711704172
 20
33.07399399072494
 30
0.0
 11
39.78440711704172
 21
33.54302819072496
 31
0.0
  0
LINE
  5
164
330
2
100
AcDbEntity
  8
GAIKEI
  6
Continuous
 62
     1
100
AcDbLine
 10
39.78440711704172
 20
35.1059915907249
 30
0.0
 11
39.78440711704172
 21
35.10599584072497
 31
0.0
  0
LINE
  5
165
330
2
100
AcDbEntity
  8
GAIKEI
  6
Continuous
 62
     1
100
AcDbLine
 10
39.78440711704172
 20
33.54302819072496
 30
0.0
 11
39.78440711704172
 21
35.1059915907249
 31
0.0
  0
LINE
  5
166
330
2
100
AcDbEntity
  8
GAIKEI
  6
Continuous
 62
     1
100
AcDbLine
 10
37.72882311704166
 20
4.234442805063963
 30
0.0
 11
37.80413461704166
 21
4.238389705064037
 31
0.0
  0
LINE
  5
167
330
2
100
AcDbEntity
  8
GAIKEI
  6
Continuous
 62
     1
100
AcDbLine
 10
39.61940711704176
 20
4.879178755064003
 30
0.0
 11
39.61940711704176
 21
5.26452655506398
 31
0.0
  0
LINE
  5
168
330
2
100
AcDbEntity
  8
GAIKEI
  6
Continuous
 62
     1
100
AcDbLine
 10
39.78440711704172
 20
35.1059915907249
 30
0.0
 11
39.78440711704172
 21
35.10599584072497
 31
0.0
  0
LINE
  5
169
330
2
100
AcDbEntity
  8
GAIKEI
  6
Continuous
 62
     1
100
AcDbLine
 10
39.78440711704172
 20
33.54302819072496
 30
0.0
 11
39.78440711704172
 21
35.1059915907249
 31
0.0
  0
LINE
  5
16A
330
2
100
AcDbEntity
  8
GAIKEI
  6
Continuous
 62
     1
100
AcDbLine
 10
39.78440711704172
 20
9.544113655063938
 30
0.0
 11
39.78440711704172
 21
9.548722555064045
 31
0.0
  0
LINE
  5
16B
330
2
100
AcDbEntity
  8
GAIKEI
  6
Continuous
 62
     1
100
AcDbLine
 10
39.78440711704172
 20
9.386793305063974
 30
0.0
 11
39.78440711704172
 21
9.544113655063938
 31
0.0
  0
LINE
  5
16C
330
2
100
AcDbEntity
  8
GAIKEI
  6
Continuous
 62
     1
100
AcDbLine
 10
39.78440711704172
 20
9.548722555064045
 30
0.0
 11
39.78440711704172
 21
10.64547840506407
 31
0.0
  0
LINE
  5
16D
330
2
100
AcDbEntity
  8
GAIKEI
  6
Continuous
 62
     1
100
AcDbLine
 10
39.78440711704172
 20
32.65261959072495
 30
0.0
 11
39.78440711704172
 21
33.11186504072498
 31
0.0
  0
LINE
  5
16E
330
2
100
AcDbEntity
  8
GAIKEI
  6
Continuous
 62
     1
100
AcDbLine
 10
39.78440711704172
 20
32.60949869072488
 30
0.0
 11
39.78440711704172
 21
32.65261959072495
 31
0.0
  0
LINE
  5
16F
330
2
100
AcDbEntity
  8
GAIKEI
  6
Continuous
 62
     1
100
AcDbLine
 10
39.78440711704172
 20
9.386793305063974
 30
0.0
 11
39.78440711704172
 21
9.544113655063938
 31
0.0
  0
LINE
  5
170
330
2
100
AcDbEntity
  8
GAIKEI
  6
Continuous
 62
     1
100
AcDbLine
 10
39.78440711704172
 20
9.548722555064045
 30
0.0
 11
39.78440711704172
 21
10.64547840506407
 31
0.0
  0
ARC
  5
171
330
2
100
AcDbEntity
  8
GAIKEI
  6
Continuous
 62
     7
100
AcDbCircle
 10
37.74190711704171
 20
38.38428269072494
 30
0.0
 40
0.25
100
AcDbArc
 50
243.2563160000013
 51
257.9999999999834
  0
ARC
  5
172
330
2
100
AcDbEntity
  8
GAIKEI
  6
Continuous
 62
     7
100
AcDbCircle
 10
39.48190711704171
 20
5.639578455063997
 30
0.0
 40
0.25
100
AcDbArc
 50
289.9999999999963
 51
0.0
  0
ARC
  5
173
330
2
100
AcDbEntity
  8
GAIKEI
  6
Continuous
 62
     7
100
AcDbCircle
 10
39.18620261704172
 20
37.56611794072489
 30
0.0
 40
0.25
100
AcDbArc
 50
7.999999999984337
 51
76.97098900001984
  0
ARC
  5
174
330
2
100
AcDbEntity
  8
GAIKEI
  6
Continuous
 62
     1
100
AcDbCircle
 10
39.63440711704169
 20
9.378531455064035
 30
0.0
 40
0.15
100
AcDbArc
 50
317.5189609999845
 51
0.0
  0
ARC
  5
175
330
2
100
AcDbEntity
  8
GAIKEI
  6
Continuous
 62
     1
100
AcDbCircle
 10
39.78190711704172
 20
9.243462405064065
 30
0.0
 40
0.05
100
AcDbArc
 50
137.5189609999845
 51
180.0
  0
ARC
  5
176
330
2
100
AcDbEntity
  8
GAIKEI
  6
Continuous
 62
     1
100
AcDbCircle
 10
39.78190711704172
 20
9.243447255063983
 30
0.0
 40
0.05
100
AcDbArc
 50
137.5188869999826
 51
180.0
  0
ARC
  5
177
330
2
100
AcDbEntity
  8
GAIKEI
  6
Continuous
 62
     1
100
AcDbCircle
 10
39.63440711704169
 20
9.378516705064043
 30
0.0
 40
0.15
100
AcDbArc
 50
317.5188869999826
 51
0.0
  0
ARC
  5
178
330
2
100
AcDbEntity
  8
GAIKEI
  6
Continuous
 62
     1
100
AcDbCircle
 10
37.74190711704171
 20
3.98478540506403
 30
0.0
 40
0.25
100
AcDbArc
 50
101.6320759999917
 51
116.7436839999986
  0
ARC
  5
179
330
2
100
AcDbEntity
  8
GAIKEI
  6
Continuous
 62
     1
100
AcDbCircle
 10
39.18620261704172
 20
37.56611794072489
 30
0.0
 40
0.25
100
AcDbArc
 50
7.999999999984337
 51
9.618225999996282
  0
ARC
  5
17A
330
2
100
AcDbEntity
  8
GAIKEI
  6
Continuous
 62
     1
100
AcDbCircle
 10
37.74190711704171
 20
3.98478540506403
 30
0.0
 40
0.25
100
AcDbArc
 50
93.00000000000558
 51
101.6320759999917
  0
ARC
  5
17B
330
2
100
AcDbEntity
  8
GAIKEI
  6
Continuous
 62
     1
100
AcDbCircle
 10
39.04440711704172
 20
4.879178755064003
 30
0.0
 40
0.5750000000000001
100
AcDbArc
 50
273.0000000000056
 51
0.0
  0
ELLIPSE
  5
17C
330
2
100
AcDbEntity
  8
GAIKEI
  6
Continuous
 62
     1
100
AcDbEllipse
 10
39.04440711704172
 20
4.879178755064003
 30
0.0
 11
-0.5749999999999888
 21
0.0000000000000021
 31
0.0
210
0.0
220
0.0
230
1.0
 40
0.3583520000000866
 41
2.345160897092421
 42
3.141592653589802
  0
LINE
  5
17D
330
2
100
AcDbEntity
  8
GAIKEI
  6
Continuous
 62
     1
100
AcDbLine
 10
37.52940711704173
 20
39.05711079072489
 30
0.0
 11
35.5539735170417
 21
38.95423519072494
 31
0.0
  0
LINE
  5
17E
330
2
100
AcDbEntity
  8
GAIKEI
  6
Continuous
 62
     1
100
AcDbLine
 10
37.52940711704173
 20
39.05711079072489
 30
0.0
 11
37.52940711704173
 21
3.264252455064024
 31
0.0
  0
LINE
  5
17F
330
2
100
AcDbEntity
  8
GAIKEI
  6
Continuous
 62
     1
100
AcDbLine
 10
35.5539735170417
 20
3.367128055063972
 30
0.0
 11
37.52940711704173
 21
3.264252455064024
 31
0.0
  0
LINE
  5
180
330
2
100
AcDbEntity
  8
GAIKEI
  6
Continuous
 62
     1
100
AcDbLine
 10
35.5539735170417
 20
38.95423519072494
 30
0.0
 11
35.5539735170417
 21
3.167402155063996
 31
0.0
  0
LINE
  5
181
330
2
100
AcDbEntity
  8
GAIKEI
  6
Continuous
 62
     7
100
AcDbLine
 10
35.5539735170417
 20
39.15396109072492
 30
0.0
 11
37.52940711704173
 21
39.25683669072487
 31
0.0
  0
LINE
  5
182
330
2
100
AcDbEntity
  8
GAIKEI
  6
Continuous
 62
     1
100
AcDbLine
 10
37.52940711704173
 20
39.25683669072487
 30
0.0
 11
37.52940711704173
 21
39.05711079072489
 31
0.0
  0
LINE
  5
183
330
2
100
AcDbEntity
  8
GAIKEI
  6
Continuous
 62
     7
100
AcDbLine
 10
37.52940711704173
 20
3.064526555064048
 30
0.0
 11
35.5539735170417
 21
3.167402155063996
 31
0.0
  0
LINE
  5
184
330
2
100
AcDbEntity
  8
GAIKEI
  6
Continuous
 62
     1
100
AcDbLine
 10
37.52940711704173
 20
3.264252455064024
 30
0.0
 11
37.52940711704173
 21
3.064526555064048
 31
0.0
  0
LINE
  5
185
330
2
100
AcDbEntity
  8
GAIKEI
  6
Continuous
 62
     7
100
AcDbLine
 10
37.52940711704173
 20
39.24683669072488
 30
0.0
 11
37.60658601704171
 21
39.24008439072486
 31
0.0
  0
LINE
  5
186
330
2
100
AcDbEntity
  8
GAIKEI
  6
Continuous
 62
     1
100
AcDbLine
 10
37.60658601704171
 20
39.04084549072491
 30
0.0
 11
37.52940711704173
 21
39.04759774072488
 31
0.0
  0
LINE
  5
187
330
2
100
AcDbEntity
  8
GAIKEI
  6
Continuous
 62
     7
100
AcDbLine
 10
37.60658601704171
 20
3.081278855064056
 30
0.0
 11
37.52940711704173
 21
3.074526555064039
 31
0.0
  0
LINE
  5
188
330
2
100
AcDbEntity
  8
GAIKEI
  6
Continuous
 62
     7
100
AcDbLine
 10
37.62940711704175
 20
39.04084549072491
 30
0.0
 11
37.62940711704175
 21
3.10618370506404
 31
0.0
  0
LINE
  5
189
330
2
100
AcDbEntity
  8
GAIKEI
  6
Continuous
 62
     1
100
AcDbLine
 10
37.62940711704175
 20
39.04084549072491
 30
0.0
 11
37.60658601704171
 21
39.04084549072491
 31
0.0
  0
LINE
  5
18A
330
2
100
AcDbEntity
  8
GAIKEI
  6
Continuous
 62
     7
100
AcDbLine
 10
37.62940711704175
 20
39.21517954072488
 30
0.0
 11
37.62940711704175
 21
39.04084549072491
 31
0.0
  0
LINE
  5
18B
330
2
100
AcDbEntity
  8
GAIKEI
  6
Continuous
 62
     1
100
AcDbLine
 10
35.49601531704173
 20
3.199926705063944
 30
0.0
 11
35.49601531704173
 21
38.92369744072494
 31
0.0
  0
LINE
  5
18C
330
2
100
AcDbEntity
  8
GAIKEI
  6
Continuous
 62
     7
100
AcDbLine
 10
35.49601531704173
 20
3.199926705063944
 30
0.0
 11
35.34070151704168
 21
3.42675575506405
 31
0.0
  0
LINE
  5
18D
330
2
100
AcDbEntity
  8
GAIKEI
  6
Continuous
 62
     7
100
AcDbLine
 10
35.34070151704168
 20
38.89460749072487
 30
0.0
 11
35.49601531704173
 21
39.12143654072486
 31
0.0
  0
LINE
  5
18E
330
2
100
AcDbEntity
  8
GAIKEI
  6
Continuous
 62
     1
100
AcDbLine
 10
35.49601531704173
 20
38.92369744072494
 30
0.0
 11
35.34070151704168
 21
38.69686839072495
 31
0.0
  0
LINE
  5
18F
330
2
100
AcDbEntity
  8
GAIKEI
  6
Continuous
 62
     7
100
AcDbLine
 10
35.33195711704173
 20
3.455004205064028
 30
0.0
 11
35.33195711704173
 21
38.69686839072495
 31
0.0
  0
LINE
  5
190
330
2
100
AcDbEntity
  8
GAIKEI
  6
Continuous
 62
     7
100
AcDbLine
 10
35.33195711704173
 20
38.69686839072495
 30
0.0
 11
35.34070151704168
 21
38.69686839072495
 31
0.0
  0
LINE
  5
191
330
2
100
AcDbEntity
  8
GAIKEI
  6
Continuous
 62
     7
100
AcDbLine
 10
35.33195711704173
 20
38.86635904072489
 30
0.0
 11
35.33195711704173
 21
38.69686839072495
 31
0.0
  0
ARC
  5
192
330
2
100
AcDbEntity
  8
GAIKEI
  6
Continuous
 62
     7
100
AcDbCircle
 10
37.60440711704172
 20
3.10618370506404
 30
0.0
 40
0.025
100
AcDbArc
 50
275.0000000000228
 51
0.0
  0
ARC
  5
193
330
2
100
AcDbEntity
  8
GAIKEI
  6
Continuous
 62
     7
100
AcDbCircle
 10
37.60440711704172
 20
39.21517954072488
 30
0.0
 40
0.025
100
AcDbArc
 50
0.0
 51
84.99999999997722
  0
ARC
  5
194
330
2
100
AcDbEntity
  8
GAIKEI
  6
Continuous
 62
     7
100
AcDbCircle
 10
35.55789871704173
 20
3.242299405064045
 30
0.0
 40
0.075
100
AcDbArc
 50
214.4001229999906
 51
266.9999999999944
  0
ARC
  5
195
330
2
100
AcDbEntity
  8
GAIKEI
  6
Continuous
 62
     7
100
AcDbCircle
 10
35.55789871704173
 20
39.07906384072487
 30
0.0
 40
0.075
100
AcDbArc
 50
93.00000000000558
 51
145.5998770000094
  0
ARC
  5
196
330
2
100
AcDbEntity
  8
GAIKEI
  6
Continuous
 62
     7
100
AcDbCircle
 10
35.38195711704174
 20
38.86635904072489
 30
0.0
 40
0.05
100
AcDbArc
 50
145.5998770000094
 51
180.0
  0
ARC
  5
197
330
2
100
AcDbEntity
  8
GAIKEI
  6
Continuous
 62
     7
100
AcDbCircle
 10
35.38195711704174
 20
3.455004205064028
 30
0.0
 40
0.05
100
AcDbArc
 50
180.0
 51
214.4001229999906
  0
LINE
  5
198
330
2
100
AcDbEntity
  8
GAIKEI
  6
Continuous
 62
     1
100
AcDbLine
 10
37.82636576704169
 20
38.65078764072484
 30
0.0
 11
37.62940711704175
 21
38.6231068907249
 31
0.0
  0
LINE
  5
199
330
2
100
AcDbEntity
  8
GAIKEI
  6
Continuous
 62
     1
100
AcDbLine
 10
37.77523901704171
 20
38.8234956407249
 30
0.0
 11
37.76940711704174
 21
38.75683669072487
 31
0.0
  0
LINE
  5
19A
330
2
100
AcDbEntity
  8
GAIKEI
  6
Continuous
 62
     1
100
AcDbLine
 10
37.76940711704174
 20
38.75683669072487
 30
0.0
 11
37.73754571704171
 21
38.75683669072487
 31
0.0
  0
LINE
  5
19B
330
2
100
AcDbEntity
  8
GAIKEI
  6
Continuous
 62
     1
100
AcDbLine
 10
37.74190361704171
 20
38.82111764072488
 30
0.0
 11
37.77518356704173
 21
38.82286174072488
 31
0.0
  0
LINE
  5
19C
330
2
100
AcDbEntity
  8
GAIKEI
  6
Continuous
 62
     1
100
AcDbLine
 10
37.77960546704174
 20
38.87340419072496
 30
0.0
 11
37.82027971704173
 21
38.87269419072493
 31
0.0
  0
LINE
  5
19D
330
2
100
AcDbEntity
  8
GAIKEI
  6
Continuous
 62
     1
100
AcDbLine
 10
37.77523901704171
 20
38.8234956407249
 30
0.0
 11
37.77960546704174
 21
38.87340419072496
 31
0.0
  0
LINE
  5
19E
330
2
100
AcDbEntity
  8
GAIKEI
  6
Continuous
 62
     1
100
AcDbLine
 10
37.86940711704176
 20
38.82270184072491
 30
0.0
 11
37.86940711704176
 21
38.70030104072487
 31
0.0
  0
ARC
  5
19F
330
2
100
AcDbEntity
  8
GAIKEI
  6
Continuous
 62
     1
100
AcDbCircle
 10
37.81940711704169
 20
38.70030104072487
 30
0.0
 40
0.05
100
AcDbArc
 50
277.9999999999843
 51
0.0
  0
ARC
  5
1A0
330
2
100
AcDbEntity
  8
GAIKEI
  6
Continuous
 62
     1
100
AcDbCircle
 10
37.81940711704169
 20
38.82270184072491
 30
0.0
 40
0.05
100
AcDbArc
 50
0.0
 51
89.00000000002432
  0
SPLINE
  5
1A1
330
2
100
AcDbEntity
  8
GAIKEI
  6
Continuous
 62
     1
100
AcDbSpline
210
0.0
220
0.0
230
1.0
 70
     8
 71
     3
 72
    23
 73
    19
 74
    17
 42
0.0000000001
 43
0.0000000001
 44
0.000001
 12
-0.0195855615079534
 22
0.9998081844936148
 32
0.0
 13
-0.1708806009777295
 23
0.9852917437030972
 33
0.0
 40
0.0
 40
0.0
 40
0.0
 40
0.0
 40
0.0246422057409199
 40
0.0561693393133863
 40
0.094635283471991
 40
0.1238383489245241
 40
0.15607741030752
 40
0.1637317308166684
 40
0.1715387786614525
 40
0.1794984554017576
 40
0.1876106488051613
 40
0.1958752329952508
 40
0.2042920686457121
 40
0.2128610032233838
 40
0.2387981685051535
 40
0.2711882160498587
 40
0.310038769938165
 40
0.3553446180978698
 40
0.3553446180978698
 40
0.3553446180978698
 40
0.3553446180978698
 10
37.6927646386439
 20
37.29555524496277
 30
0.0
 10
37.69260376149848
 20
37.30376773795735
 30
0.0
 10
37.6918850895699
 20
37.32248522288632
 30
0.0
 10
37.68894398923393
 20
37.35390401343159
 30
0.0
 10
37.68495447856182
 20
37.38672943135015
 30
0.0
 10
37.68032656712845
 20
37.41971017638917
 30
0.0
 10
37.67687957870214
 20
37.44248321157789
 30
0.0
 10
37.67442666697625
 20
37.45819301135987
 30
0.0
 10
37.67320982187053
 20
37.46590461518082
 30
0.0
 10
37.67195770490309
 20
37.47376515572466
 30
0.0
 10
37.67067113667486
 20
37.48177463623216
 30
0.0
 10
37.66935094951489
 20
37.48993304996134
 30
0.0
 10
37.66799822499692
 20
37.4982404218539
 30
0.0
 10
37.66568592833801
 20
37.51235998279213
 30
0.0
 10
37.66206015770354
 20
37.53436196707935
 30
0.0
 10
37.65669253452816
 20
37.56630681617952
 30
0.0
 10
37.65012065407515
 20
37.60459576579644
 30
0.0
 10
37.64535288407316
 20
37.63223976480242
 30
0.0
 10
37.64277225388605
 20
37.64711959084684
 30
0.0
 11
37.6927646386439
 21
37.29555524496277
 31
0.0
 11
37.69177452330348
 21
37.32017767339994
 31
0.0
 11
37.68902883787291
 21
37.35158495049734
 31
0.0
 11
37.68444748775517
 21
37.3897770762552
 31
0.0
 11
37.68041671847778
 21
37.41870061935163
 31
0.0
 11
37.67561209472223
 21
37.45057964252442
 31
0.0
 11
37.67443150542181
 21
37.45814236718718
 31
0.0
 11
37.67321489322785
 21
37.46585403524409
 31
0.0
 11
37.67196300848491
 21
37.47371464669516
 31
0.0
 11
37.67067666179912
 21
37.48172420154026
 31
0.0
 11
37.6693567245743
 21
37.48988269977952
 31
0.0
 11
37.668004129466
 21
37.49819014141281
 31
0.0
 11
37.66661987074826
 21
37.50664652644025
 31
0.0
 11
37.66239696593345
 21
37.53223760932713
 31
0.0
 11
37.65703139645257
 21
37.56418014769054
 31
0.0
 11
37.65047890360825
 21
37.60247414153048
 31
0.0
 11
37.64277225388605
 21
37.64711959084684
 31
0.0
  0
SPLINE
  5
1A2
330
2
100
AcDbEntity
  8
GAIKEI
  6
Continuous
 62
     1
100
AcDbSpline
210
0.0
220
0.0
230
1.0
 70
     8
 71
     3
 72
    13
 73
     9
 74
     7
 42
0.0000000001
 43
0.0000000001
 44
0.000001
 12
0.1686465211669663
 22
0.9856765954907725
 32
0.0
 13
0.1366868105490227
 23
0.9906143123445854
 33
0.0
 40
0.0
 40
0.0
 40
0.0
 40
0.0
 40
0.0148768856753216
 40
0.0303404718420872
 40
0.0467491639371618
 40
0.0635503078503974
 40
0.0820032027515653
 40
0.1007849331553344
 40
0.1007849331553344
 40
0.1007849331553344
 40
0.1007849331553344
 10
38.98693785743024
 20
32.41664564219104
 30
0.0
 10
38.98777416910187
 20
32.42153357486569
 30
0.0
 10
38.98949885910676
 20
32.43149901896362
 30
0.0
 10
38.9922751741903
 20
32.44683281485129
 30
0.0
 10
38.99512423543828
 20
32.46280520779891
 30
0.0
 10
38.99803899566595
 20
32.47977787290893
 30
0.0
 10
39.00088693360311
 20
32.49756375658467
 30
0.0
 10
39.00267042396291
 20
32.50984702519395
 30
0.0
 10
39.00352616223808
 20
32.51604884217682
 30
0.0
 11
38.98693785743024
 21
32.41664564219104
 31
0.0
 11
38.98948498726065
 21
32.4313026455244
 31
0.0
 11
38.99221362169578
 21
32.44652374961572
 31
0.0
 11
38.99508509178668
 21
32.46267924181348
 31
0.0
 11
38.99791704253721
 21
32.47923999577518
 31
0.0
 11
39.0008266307417
 21
32.49746206571092
 31
0.0
 11
39.00352616223808
 21
32.51604884217682
 31
0.0
  0
SPLINE
  5
1A3
330
2
100
AcDbEntity
  8
GAIKEI
  6
Continuous
 62
     1
100
AcDbSpline
210
0.0
220
0.0
230
1.0
 70
     8
 71
     3
 72
    13
 73
     9
 74
     7
 42
0.0000000001
 43
0.0000000001
 44
0.000001
 12
0.1358537149050929
 22
0.9907289074951259
 32
0.0
 13
0.1028701000007821
 23
0.9946947986824044
 33
0.0
 40
0.0
 40
0.0
 40
0.0
 40
0.0
 40
0.0167629848690631
 40
0.0334123275051443
 40
0.0503098774187991
 40
0.0668410117253159
 40
0.0842373612998076
 40
0.1010541529109475
 40
0.1010541529109475
 40
0.1010541529109475
 40
0.1010541529109475
 10
39.16901421111561
 20
33.71938336901451
 30
0.0
 10
39.16977331570473
 20
33.72491922690972
 30
0.0
 10
39.17121635913531
 20
33.73596314735988
 30
0.0
 10
39.17317889632599
 20
33.7526182901359
 30
0.0
 10
39.17493888340579
 20
33.76921820717996
 30
0.0
 10
39.17659795281301
 20
33.78607852404901
 30
0.0
 10
39.17818128272688
 20
33.80291907250433
 30
0.0
 10
39.17933501704266
 20
33.81426504452736
 30
0.0
 10
39.17991166538758
 20
33.81984090290939
 30
0.0
 11
39.16901421111561
 21
33.71938336901451
 31
0.0
 11
39.17118711147032
 21
33.73600499012969
 31
0.0
 11
39.1731382828151
 21
33.75253961085594
 31
0.0
 11
39.17493138767816
 21
33.76934175729537
 31
0.0
 11
39.17655910456591
 21
33.78579256683577
 31
0.0
 11
39.17822211544546
 21
33.80310990469264
 31
0.0
 11
39.17991166538758
 21
33.81984090290939
 31
0.0
  0
SPLINE
  5
1A4
330
2
100
AcDbEntity
  8
GAIKEI
  6
Continuous
 62
     1
100
AcDbSpline
210
0.0
220
0.0
230
1.0
 70
     8
 71
     3
 72
    13
 73
     9
 74
     7
 42
0.0000000001
 43
0.0000000001
 44
0.000001
 12
-0.1367026333584174
 22
0.9906121289550588
 32
0.0
 13
-0.1693098136655528
 23
0.9855628782561444
 33
0.0
 40
0.0
 40
0.0
 40
0.0
 40
0.0
 40
0.0167469922486499
 40
0.0333773442702713
 40
0.0502571168680878
 40
0.0667711030724864
 40
0.0840636332563481
 40
0.1007849533910364
 40
0.1007849533910364
 40
0.1007849533910364
 40
0.1007849533910364
 10
39.00352616223808
 20
37.08776491440608
 30
0.0
 10
39.00276304292433
 20
37.09329483895442
 30
0.0
 10
39.00117147159102
 20
37.10430656514018
 30
0.0
 10
38.99856188824208
 20
37.12085485704546
 30
0.0
 10
38.99577420824966
 20
37.13729516322741
 30
0.0
 10
38.99282611696947
 20
37.15393146034029
 30
0.0
 10
38.98982226251559
 20
37.17050409142775
 30
0.0
 10
38.98788155196232
 20
37.18167481025847
 30
0.0
 10
38.98693785743024
 20
37.18716811439185
 30
0.0
 11
39.00352616223808
 21
37.08776491440608
 31
0.0
 11
39.00113125638518
 21
37.10433984576514
 31
0.0
 11
38.99854443695597
 21
37.12076778381084
 31
0.0
 11
38.99573400909151
 21
37.13741195359512
 31
0.0
 11
38.99286200045253
 21
37.15367428821469
 31
0.0
 11
38.98980877429494
 21
37.17069580364876
 31
0.0
 11
38.98693785743024
 21
37.18716811439185
 31
0.0
  0
SPLINE
  5
1A5
330
2
100
AcDbEntity
  8
GAIKEI
  6
Continuous
 62
     1
100
AcDbSpline
210
0.0
220
0.0
230
1.0
 70
     8
 71
     3
 72
    11
 73
     7
 74
     5
 42
0.0000000001
 43
0.0000000001
 44
0.000001
 12
0.0263247353920106
 22
0.9996534441027755
 32
0.0
 13
0.1800564184768131
 23
0.9836562845655501
 33
0.0
 40
0.0
 40
0.0
 40
0.0
 40
0.0
 40
0.0222209517494263
 40
0.0388462874323282
 40
0.049882048448065
 40
0.0553514638909737
 40
0.0553514638909737
 40
0.0553514638909737
 40
0.0553514638909737
 10
37.6927646386439
 20
32.30825851162013
 30
0.0
 10
37.69295962553554
 20
32.31566292860265
 30
0.0
 10
37.69338368227176
 20
32.32860797293199
 30
0.0
 10
37.6942079569775
 20
32.34520744274244
 30
0.0
 10
37.6947475322593
 20
32.35625293353786
 30
0.0
 10
37.69562289941604
 20
32.36169048779641
 30
0.0
 10
37.69595116720132
 20
32.36348382942083
 30
0.0
 11
37.6927646386439
 21
32.30825851162013
 31
0.0
 11
37.6935170410992
 21
32.3304666164172
 31
0.0
 11
37.69429893001046
 21
32.34707353764964
 31
0.0
 11
37.69511030537785
 21
32.35807927531755
 31
0.0
 11
37.69595116720132
 21
32.36348382942083
 31
0.0
  0
SPLINE
  5
1A6
330
2
100
AcDbEntity
  8
GAIKEI
  6
Continuous
 62
     1
100
AcDbSpline
210
0.0
220
0.0
230
1.0
 70
     8
 71
     3
 72
    16
 73
    12
 74
    10
 42
0.0000000001
 43
0.0000000001
 44
0.000001
 12
-0.0430768721966507
 22
0.9990717607268027
 32
0.0
 13
-0.9995301167089067
 23
0.0306520112207888
 33
0.0
 40
0.0
 40
0.0
 40
0.0
 40
0.0
 40
0.0160287203943067
 40
0.0327204960098478
 40
0.047348225372438
 40
0.059679252428639
 40
0.0695126747968542
 40
0.0767030109011102
 40
0.0811430012141333
 40
0.0828762629778445
 40
0.0829034368634637
 40
0.0829034368634637
 40
0.0829034368634637
 40
0.0829034368634637
 10
37.78763364502675
 20
32.74192667319369
 30
0.0
 10
37.78740348931345
 20
32.74726462049585
 30
0.0
 10
37.7869078443282
 20
32.75815859410045
 30
0.0
 10
37.78612969160022
 20
32.77392944414419
 30
0.0
 10
37.78530768273873
 20
32.78843415926633
 30
0.0
 10
37.78450671043791
 20
32.80073660945732
 30
0.0
 10
37.78367694105407
 20
32.81031668987453
 30
0.0
 10
37.78296514496137
 20
32.81783348431213
 30
0.0
 10
37.78212251522558
 20
32.82149132212118
 30
0.0
 10
37.78164570144739
 20
32.82432534666344
 30
0.0
 10
37.78105567401639
 20
32.82433778995176
 30
0.0
 10
37.78104662031069
 20
32.8243380675965
 30
0.0
 11
37.78763364502675
 21
32.74192667319369
 31
0.0
 11
37.78690711704189
 21
32.75793820478191
 31
0.0
 11
37.7860737837085
 21
32.77460916189364
 31
0.0
 11
37.78524045037523
 21
32.78921313011301
 31
0.0
 11
37.78440711704184
 21
32.80151595934524
 31
0.0
 11
37.78357378370851
 21
32.81131399500771
 31
0.0
 11
37.78274045037517
 21
32.8184558509173
 31
0.0
 11
37.7819071170419
 21
32.82281685389239
 31
0.0
 11
37.78107378370851
 21
32.8243368781084
 31
0.0
 11
37.78104662031069
 21
32.8243380675965
 31
0.0
  0
SPLINE
  5
1A7
330
2
100
AcDbEntity
  8
GAIKEI
  6
Continuous
 62
     1
100
AcDbSpline
210
0.0
220
0.0
230
1.0
 70
     8
 71
     3
 72
    20
 73
    16
 74
    14
 42
0.0000000001
 43
0.0000000001
 44
0.000001
 12
-0.0366600883891987
 22
-0.9993277930285419
 32
0.0
 13
-0.8962567756003743
 23
-0.4435355591048144
 33
0.0
 40
0.0
 40
0.0
 40
0.0
 40
0.0
 40
0.022544148966109
 40
0.0447243509195016
 40
0.0661807098233034
 40
0.0865702989487708
 40
0.1055600249972011
 40
0.1228469656545381
 40
0.1381506161008299
 40
0.1512251988682471
 40
0.1618642916135558
 40
0.1698958897130186
 40
0.1752100305703422
 40
0.1777642420885721
 40
0.1780980751421503
 40
0.1780980751421503
 40
0.1780980751421503
 40
0.1780980751421503
 10
37.81190711704187
 20
32.64683669072486
 30
0.0
 10
37.81163162687728
 20
32.63932702584753
 30
0.0
 10
37.81108099495194
 20
32.62442908608944
 30
0.0
 10
37.81025509606286
 20
32.60238428890972
 30
0.0
 10
37.80942888482997
 20
32.58105831089597
 30
0.0
 10
37.80860414191329
 20
32.56079622865923
 30
0.0
 10
37.80777924399493
 20
32.54192640504135
 30
0.0
 10
37.80695995775949
 20
32.52474938039779
 30
0.0
 10
37.80613242413006
 20
32.50955943779934
 30
0.0
 10
37.80534294646793
 20
32.4965499331953
 30
0.0
 10
37.80446982124966
 20
32.48607772377989
 30
0.0
 10
37.80384896222313
 20
32.47792608666481
 30
0.0
 10
37.80276614933902
 20
32.47306917411794
 30
0.0
 10
37.8025800743485
 20
32.46986502585526
 30
0.0
 10
37.80171917247819
 20
32.46938680726419
 30
0.0
 10
37.80161943909945
 20
32.46933745165416
 30
0.0
 11
37.81190711704187
 21
32.64683669072486
 31
0.0
 11
37.81107378370848
 21
32.62430848511406
 31
0.0
 11
37.81024045037521
 21
32.60214394470324
 31
0.0
 11
37.80940711704187
 21
32.5807037760942
 31
0.0
 11
37.80857378370854
 21
32.56033122531267
 31
0.0
 11
37.80774045037515
 21
32.54135979524392
 31
0.0
 11
37.80690711704187
 21
32.52409295541816
 31
0.0
 11
37.80607378370854
 21
32.50881201545463
 31
0.0
 11
37.80524045037521
 21
32.49576402402283
 31
0.0
 11
37.80440711704182
 21
32.4851576299177
 31
0.0
 11
37.80357378370855
 21
32.47716940330509
 31
0.0
 11
37.80274045037521
 21
32.47192106344414
 31
0.0
 11
37.80190711704188
 21
32.4695069389835
 31
0.0
 11
37.80161943909945
 21
32.46933745165416
 31
0.0
  0
SPLINE
  5
1A8
330
2
100
AcDbEntity
  8
GAIKEI
  6
Continuous
 62
     1
100
AcDbSpline
210
0.0
220
0.0
230
1.0
 70
     8
 71
     3
 72
    18
 73
    14
 74
    12
 42
0.0000000001
 43
0.0000000001
 44
0.000001
 12
-0.5844656576229886
 22
-0.8114184463390806
 32
0.0
 13
-0.0371796361214176
 23
-0.9993085983107917
 33
0.0
 40
0.0
 40
0.0
 40
0.0
 40
0.0
 40
0.0015785755413335
 40
0.0058611200296627
 40
0.0128957152542898
 40
0.0225825394406309
 40
0.0347746564143365
 40
0.0492779510757347
 40
0.0658578569835893
 40
0.084251227785365
 40
0.1041564934095603
 40
0.1252572874194661
 40
0.1472100295646773
 40
0.1472100295646773
 40
0.1472100295646773
 40
0.1472100295646773
 10
37.78104662031069
 20
32.8243380675965
 30
0.0
 10
37.78073907924673
 20
32.82391110582546
 30
0.0
 10
37.77968966695354
 20
32.82222878013653
 30
0.0
 10
37.77937748966991
 20
32.81781297285693
 30
0.0
 10
37.77837779364802
 20
32.81094920682358
 30
0.0
 10
37.77767415960529
 20
32.80130252315689
 30
0.0
 10
37.77682606210047
 20
32.7892176787509
 30
0.0
 10
37.77602129046164
 20
32.77481012973004
 30
0.0
 10
37.77519583202795
 20
32.75834010666523
 30
0.0
 10
37.77437401314074
 20
32.74006517776474
 30
0.0
 10
37.7735485666301
 20
32.72028270954712
 30
0.0
 10
37.77272362316975
 20
32.69931260543553
 30
0.0
 10
37.77217918203019
 20
32.68497176358818
 30
0.0
 10
37.77190711704191
 20
32.6776592422608
 30
0.0
 11
37.78104662031069
 21
32.8243380675965
 31
0.0
 11
37.78024045037517
 21
32.82298077652252
 31
0.0
 11
37.77940711704184
 21
32.81878026812592
 31
0.0
 11
37.77857378370857
 21
32.81179523688706
 31
0.0
 11
37.77774045037518
 21
32.80214433860613
 31
0.0
 11
37.77690711704185
 21
32.78998074269805
 31
0.0
 11
37.77607378370851
 21
32.77550141422421
 31
0.0
 11
37.77524045037524
 21
32.7589424676836
 31
0.0
 11
37.77440711704185
 21
32.74056798690163
 31
0.0
 11
37.77357378370851
 21
32.72068017479319
 31
0.0
 11
37.77274045037518
 21
32.69959584460059
 31
0.0
 11
37.77190711704191
 21
32.6776592422608
 31
0.0
  0
SPLINE
  5
1A9
330
2
100
AcDbEntity
  8
GAIKEI
  6
Continuous
 62
     1
100
AcDbSpline
210
0.0
220
0.0
230
1.0
 70
     8
 71
     3
 72
    18
 73
    14
 74
    12
 42
0.0000000001
 43
0.0000000001
 44
0.000001
 12
-0.5846562919338174
 22
-0.8112810982034519
 32
0.0
 13
-0.0371796361214128
 23
-0.9993085983107919
 33
0.0
 40
0.0
 40
0.0
 40
0.0
 40
0.0
 40
0.0015787525645385
 40
0.0058612971317751
 40
0.0128958923591801
 40
0.0225827165462093
 40
0.0347748335201119
 40
0.0492781281816677
 40
0.0658580340895537
 40
0.084251404891341
 40
0.1041566705155482
 40
0.1252574645254073
 40
0.1472102067833182
 40
0.1472102067833182
 40
0.1472102067833182
 40
0.1472102067833182
 10
37.74104696010153
 20
32.8243380716815
 30
0.0
 10
37.74073928422811
 20
32.82391113431004
 30
0.0
 10
37.73968948842051
 20
32.82222893572288
 30
0.0
 10
37.73937760269823
 20
32.81781291443247
 30
0.0
 10
37.73837774260142
 20
32.81094923342198
 30
0.0
 10
37.73767417948099
 20
32.80130251298863
 30
0.0
 10
37.7368260551273
 20
32.78921768249984
 30
0.0
 10
37.73602129283464
 20
32.77481012863353
 30
0.0
 10
37.7351958313329
 20
32.7583401071588
 30
0.0
 10
37.73437401340897
 20
32.74006517775922
 30
0.0
 10
37.73354856660154
 20
32.72028270969304
 30
0.0
 10
37.73272362324732
 20
32.69931260549782
 30
0.0
 10
37.7321791820315
 20
32.68497176362576
 30
0.0
 10
37.73190711704183
 20
32.6776592422608
 30
0.0
 11
37.74104696010153
 21
32.8243380716815
 31
0.0
 11
37.74024045037521
 21
32.82298077652252
 31
0.0
 11
37.73940711704188
 21
32.81878026812592
 31
0.0
 11
37.73857378370849
 21
32.81179523688706
 31
0.0
 11
37.73774045037522
 21
32.80214433860613
 31
0.0
 11
37.73690711704188
 21
32.78998074269805
 31
0.0
 11
37.73607378370855
 21
32.77550141422421
 31
0.0
 11
37.73524045037516
 21
32.7589424676836
 31
0.0
 11
37.73440711704188
 21
32.74056798690163
 31
0.0
 11
37.73357378370855
 21
32.72068017479319
 31
0.0
 11
37.73274045037522
 21
32.69959584460059
 31
0.0
 11
37.73190711704183
 21
32.6776592422608
 31
0.0
  0
SPLINE
  5
1AA
330
2
100
AcDbEntity
  8
GAIKEI
  6
Continuous
 62
     1
100
AcDbSpline
210
0.0
220
0.0
230
1.0
 70
     8
 71
     3
 72
    16
 73
    12
 74
    10
 42
0.0000000001
 43
0.0000000001
 44
0.000001
 12
-0.7246933390218108
 22
0.6890715234120614
 32
0.0
 13
-0.043558922455188
 23
0.9990508597036205
 33
0.0
 40
0.0
 40
0.0
 40
0.0
 40
0.0
 40
0.0008245869742722
 40
0.0042427686756351
 40
0.0104169723952155
 40
0.0192855983072083
 40
0.0307089239071528
 40
0.0445088940072491
 40
0.060464448619151
 40
0.0783168924071014
 40
0.0828709020179495
 40
0.0828709020179495
 40
0.0828709020179495
 40
0.0828709020179495
 10
37.76161969918064
 20
32.46933745060573
 30
0.0
 10
37.76142050828474
 20
32.46952685040657
 30
0.0
 10
37.76043978947027
 20
32.47058374967861
 30
0.0
 10
37.7602292276747
 20
32.47429525148857
 30
0.0
 10
37.75916893147374
 20
32.48021426328313
 30
0.0
 10
37.75851111821928
 20
32.48908822519326
 30
0.0
 10
37.75764870899968
 20
32.50038970318946
 30
0.0
 10
37.75685166156427
 20
32.51410404697691
 30
0.0
 10
37.75602571561942
 20
32.52994819210824
 30
0.0
 10
37.75543286828833
 20
32.54272284964475
 30
0.0
 10
37.75510582333712
 20
32.55018443572561
 30
0.0
 10
37.75503970075329
 20
32.5517009981312
 30
0.0
 11
37.76161969918064
 21
32.46933745060573
 31
0.0
 11
37.76107378370852
 21
32.46995558212621
 31
0.0
 11
37.76024045037519
 21
32.47327037357809
 31
0.0
 11
37.75940711704186
 21
32.4793880432311
 31
0.0
 11
37.75857378370858
 21
32.48821741363793
 31
0.0
 11
37.7577404503752
 21
32.49961029346605
 31
0.0
 11
37.75690711704186
 21
32.51338507373089
 31
0.0
 11
37.75607378370853
 21
32.52931884775194
 31
0.0
 11
37.75524045037514
 21
32.54715182797315
 31
0.0
 11
37.75503970075329
 21
32.5517009981312
 31
0.0
  0
SPLINE
  5
1AB
330
2
100
AcDbEntity
  8
GAIKEI
  6
Continuous
 62
     1
100
AcDbSpline
210
0.0
220
0.0
230
1.0
 70
     8
 71
     3
 72
    20
 73
    16
 74
    14
 42
0.0000000001
 43
0.0000000001
 44
0.000001
 12
-0.0366600883891941
 22
-0.9993277930285421
 32
0.0
 13
-0.8960473228605128
 23
-0.4439585512122816
 33
0.0
 40
0.0
 40
0.0
 40
0.0
 40
0.0
 40
0.0225441487658523
 40
0.0447243507194046
 40
0.0661807096233625
 40
0.0865702987490919
 40
0.1055600247977206
 40
0.1228469654554153
 40
0.1381506159022081
 40
0.1512251986702927
 40
0.1618642914167732
 40
0.1698958895183453
 40
0.1752100303814291
 40
0.1777642418023413
 40
0.1780978513807361
 40
0.1780978513807361
 40
0.1780978513807361
 40
0.1780978513807361
 10
37.77190711704191
 20
32.64683669072486
 30
0.0
 10
37.77163162687978
 20
32.63932702591421
 30
0.0
 10
37.77108099514447
 20
32.62442908621153
 30
0.0
 10
37.77025509617351
 20
32.60238428912072
 30
0.0
 10
37.76942888500068
 20
32.58105831103723
 30
0.0
 10
37.76860414193862
 20
32.56079622903843
 30
0.0
 10
37.76777924449504
 20
32.54192640462316
 30
0.0
 10
37.76695995672986
 20
32.52474938255762
 30
0.0
 10
37.76613242784961
 20
32.50955943195823
 30
0.0
 10
37.76534293621822
 20
32.49654995089452
 30
0.0
 10
37.76446984922904
 20
32.48607767706551
 30
0.0
 10
37.76384889653588
 20
32.47792619778465
 30
0.0
 10
37.76276627304566
 20
32.47306896615612
 30
0.0
 10
37.76257994337732
 20
32.46986534294172
 30
0.0
 10
37.76171934250385
 20
32.46938682021408
 30
0.0
 10
37.76161969918064
 20
32.46933745060573
 30
0.0
 11
37.77190711704191
 21
32.64683669072486
 31
0.0
 11
37.77107378370852
 21
32.62430848511406
 31
0.0
 11
37.77024045037518
 21
32.60214394470324
 31
0.0
 11
37.76940711704185
 21
32.5807037760942
 31
0.0
 11
37.76857378370858
 21
32.56033122531267
 31
0.0
 11
37.76774045037519
 21
32.54135979524392
 31
0.0
 11
37.76690711704186
 21
32.52409295541816
 31
0.0
 11
37.76607378370852
 21
32.50881201545463
 31
0.0
 11
37.76524045037525
 21
32.49576402402283
 31
0.0
 11
37.76440711704186
 21
32.4851576299177
 31
0.0
 11
37.76357378370852
 21
32.47716940330509
 31
0.0
 11
37.76274045037519
 21
32.47192106344414
 31
0.0
 11
37.76190711704192
 21
32.4695069389835
 31
0.0
 11
37.76161969918064
 21
32.46933745060573
 31
0.0
  0
SPLINE
  5
1AC
330
2
100
AcDbEntity
  8
GAIKEI
  6
Continuous
 62
     1
100
AcDbSpline
210
0.0
220
0.0
230
1.0
 70
     8
 71
     3
 72
    20
 73
    16
 74
    14
 42
0.0000000001
 43
0.0000000001
 44
0.000001
 12
-0.03666008838921
 22
-0.9993277930285415
 32
0.0
 13
-0.89604732285992
 23
-0.443958551213478
 33
0.0
 40
0.0
 40
0.0
 40
0.0
 40
0.0
 40
0.0225441487658523
 40
0.0447243507194046
 40
0.0661807096233625
 40
0.0865702987490919
 40
0.1055600247977206
 40
0.1228469654554153
 40
0.1381506159022081
 40
0.1512251986702927
 40
0.1618642914167732
 40
0.1698958895183453
 40
0.1752100303814291
 40
0.1777642418023413
 40
0.1780978513807361
 40
0.1780978513807361
 40
0.1780978513807361
 40
0.1780978513807361
 10
37.77190711704191
 20
36.26683669072486
 30
0.0
 10
37.77163162687978
 20
36.25932702591422
 30
0.0
 10
37.77108099514447
 20
36.24442908621154
 30
0.0
 10
37.77025509617351
 20
36.22238428912079
 30
0.0
 10
37.76942888500068
 20
36.20105831103717
 30
0.0
 10
37.76860414193862
 20
36.18079622903844
 30
0.0
 10
37.76777924449504
 20
36.16192640462305
 30
0.0
 10
37.76695995672986
 20
36.14474938255762
 30
0.0
 10
37.76613242784961
 20
36.12955943195823
 30
0.0
 10
37.76534293621822
 20
36.11654995089458
 30
0.0
 10
37.76446984922904
 20
36.10607767706546
 30
0.0
 10
37.76384889653588
 20
36.09792619778477
 30
0.0
 10
37.76276627304566
 20
36.09306896615596
 30
0.0
 10
37.76257994337732
 20
36.08986534294184
 30
0.0
 10
37.76171934250385
 20
36.08938682021409
 30
0.0
 10
37.76161969918064
 20
36.08933745060574
 30
0.0
 11
37.77190711704191
 21
36.26683669072486
 31
0.0
 11
37.77107378370852
 21
36.24430848511406
 31
0.0
 11
37.77024045037518
 21
36.22214394470325
 31
0.0
 11
37.76940711704185
 21
36.2007037760942
 31
0.0
 11
37.76857378370858
 21
36.18033122531267
 31
0.0
 11
37.76774045037519
 21
36.16135979524393
 31
0.0
 11
37.76690711704186
 21
36.14409295541816
 31
0.0
 11
37.76607378370852
 21
36.12881201545463
 31
0.0
 11
37.76524045037525
 21
36.11576402402284
 31
0.0
 11
37.76440711704186
 21
36.1051576299177
 31
0.0
 11
37.76357378370852
 21
36.09716940330509
 31
0.0
 11
37.76274045037519
 21
36.09192106344415
 31
0.0
 11
37.76190711704192
 21
36.0895069389835
 31
0.0
 11
37.76161969918064
 21
36.08933745060574
 31
0.0
  0
SPLINE
  5
1AD
330
2
100
AcDbEntity
  8
GAIKEI
  6
Continuous
 62
     1
100
AcDbSpline
210
0.0
220
0.0
230
1.0
 70
     8
 71
     3
 72
    16
 73
    12
 74
    10
 42
0.0000000001
 43
0.0000000001
 44
0.000001
 12
-0.0430768721965857
 22
0.9990717607268052
 32
0.0
 13
-0.9995301167088943
 23
0.0306520112211923
 33
0.0
 40
0.0
 40
0.0
 40
0.0
 40
0.0
 40
0.0160287203943067
 40
0.0327204960098478
 40
0.047348225372438
 40
0.059679252428639
 40
0.0695126747968542
 40
0.0767030109011102
 40
0.0811430012141333
 40
0.0828762629778445
 40
0.0829034368634637
 40
0.0829034368634637
 40
0.0829034368634637
 40
0.0829034368634637
 10
37.78763364502675
 20
36.36192667319369
 30
0.0
 10
37.78740348931345
 20
36.36726462049586
 30
0.0
 10
37.7869078443282
 20
36.37815859410046
 30
0.0
 10
37.78612969160022
 20
36.39392944414419
 30
0.0
 10
37.78530768273873
 20
36.40843415926622
 30
0.0
 10
37.78450671043791
 20
36.42073660945732
 30
0.0
 10
37.78367694105407
 20
36.43031668987453
 30
0.0
 10
37.78296514496137
 20
36.43783348431202
 30
0.0
 10
37.78212251522558
 20
36.44149132212135
 30
0.0
 10
37.78164570144739
 20
36.44432534666333
 30
0.0
 10
37.78105567401639
 20
36.44433778995176
 30
0.0
 10
37.78104662031069
 20
36.4443380675965
 30
0.0
 11
37.78763364502675
 21
36.36192667319369
 31
0.0
 11
37.78690711704189
 21
36.37793820478191
 31
0.0
 11
37.7860737837085
 21
36.39460916189364
 31
0.0
 11
37.78524045037523
 21
36.40921313011302
 31
0.0
 11
37.78440711704184
 21
36.42151595934524
 31
0.0
 11
37.78357378370851
 21
36.43131399500771
 31
0.0
 11
37.78274045037517
 21
36.43845585091731
 31
0.0
 11
37.7819071170419
 21
36.4428168538924
 31
0.0
 11
37.78107378370851
 21
36.4443368781084
 31
0.0
 11
37.78104662031069
 21
36.4443380675965
 31
0.0
  0
SPLINE
  5
1AE
330
2
100
AcDbEntity
  8
GAIKEI
  6
Continuous
 62
     1
100
AcDbSpline
210
0.0
220
0.0
230
1.0
 70
     8
 71
     3
 72
    20
 73
    16
 74
    14
 42
0.0000000001
 43
0.0000000001
 44
0.000001
 12
-0.0366600883891987
 22
-0.9993277930285419
 32
0.0
 13
-0.8962567755996664
 23
-0.4435355591062449
 33
0.0
 40
0.0
 40
0.0
 40
0.0
 40
0.0
 40
0.022544148966109
 40
0.0447243509195016
 40
0.0661807098233034
 40
0.0865702989487708
 40
0.1055600249972011
 40
0.1228469656545381
 40
0.1381506161008299
 40
0.1512251988682471
 40
0.1618642916135558
 40
0.1698958897130186
 40
0.1752100305703422
 40
0.1777642420885721
 40
0.1780980751421503
 40
0.1780980751421503
 40
0.1780980751421503
 40
0.1780980751421503
 10
37.81190711704187
 20
36.26683669072486
 30
0.0
 10
37.81163162687728
 20
36.25932702584754
 30
0.0
 10
37.81108099495194
 20
36.24442908608944
 30
0.0
 10
37.81025509606286
 20
36.22238428890967
 30
0.0
 10
37.80942888482997
 20
36.20105831089598
 30
0.0
 10
37.80860414191329
 20
36.18079622865912
 30
0.0
 10
37.80777924399493
 20
36.16192640504136
 30
0.0
 10
37.80695995775949
 20
36.14474938039774
 30
0.0
 10
37.80613242413006
 20
36.1295594377994
 30
0.0
 10
37.80534294646793
 20
36.11654993319524
 30
0.0
 10
37.80446982124966
 20
36.10607772377989
 30
0.0
 10
37.80384896222313
 20
36.09792608666487
 30
0.0
 10
37.80276614933902
 20
36.093069174118
 30
0.0
 10
37.8025800743485
 20
36.08986502585532
 30
0.0
 10
37.80171917247819
 20
36.08938680726419
 30
0.0
 10
37.80161943909945
 20
36.08933745165416
 30
0.0
 11
37.81190711704187
 21
36.26683669072486
 31
0.0
 11
37.81107378370848
 21
36.24430848511406
 31
0.0
 11
37.81024045037521
 21
36.22214394470325
 31
0.0
 11
37.80940711704187
 21
36.2007037760942
 31
0.0
 11
37.80857378370854
 21
36.18033122531267
 31
0.0
 11
37.80774045037515
 21
36.16135979524393
 31
0.0
 11
37.80690711704187
 21
36.14409295541816
 31
0.0
 11
37.80607378370854
 21
36.12881201545463
 31
0.0
 11
37.80524045037521
 21
36.11576402402284
 31
0.0
 11
37.80440711704182
 21
36.1051576299177
 31
0.0
 11
37.80357378370855
 21
36.09716940330509
 31
0.0
 11
37.80274045037521
 21
36.09192106344415
 31
0.0
 11
37.80190711704188
 21
36.0895069389835
 31
0.0
 11
37.80161943909945
 21
36.08933745165416
 31
0.0
  0
SPLINE
  5
1AF
330
2
100
AcDbEntity
  8
GAIKEI
  6
Continuous
 62
     1
100
AcDbSpline
210
0.0
220
0.0
230
1.0
 70
     8
 71
     3
 72
    18
 73
    14
 74
    12
 42
0.0000000001
 43
0.0000000001
 44
0.000001
 12
-0.5844656576224157
 22
-0.8114184463394934
 32
0.0
 13
-0.0371796361214128
 23
-0.9993085983107919
 33
0.0
 40
0.0
 40
0.0
 40
0.0
 40
0.0
 40
0.0015785755413335
 40
0.0058611200296627
 40
0.0128957152542898
 40
0.0225825394405176
 40
0.0347746564143366
 40
0.0492779510757349
 40
0.0658578569835894
 40
0.0842512277853651
 40
0.1041564934094469
 40
0.1252572874194663
 40
0.1472100295646774
 40
0.1472100295646774
 40
0.1472100295646774
 40
0.1472100295646774
 10
37.78104662031069
 20
36.4443380675965
 30
0.0
 10
37.78073907924673
 20
36.44391110582546
 30
0.0
 10
37.77968966695354
 20
36.44222878013653
 30
0.0
 10
37.77937748966991
 20
36.43781297285693
 30
0.0
 10
37.77837779364808
 20
36.43094920682358
 30
0.0
 10
37.77767415960523
 20
36.42130252315701
 30
0.0
 10
37.77682606210041
 20
36.4092176787508
 30
0.0
 10
37.7760212904617
 20
36.39481012973011
 30
0.0
 10
37.77519583202789
 20
36.37834010666523
 30
0.0
 10
37.77437401314074
 20
36.36006517776479
 30
0.0
 10
37.77354856663007
 20
36.34028270954718
 30
0.0
 10
37.77272362316975
 20
36.31931260543547
 30
0.0
 10
37.77217918203019
 20
36.30497176358819
 30
0.0
 10
37.77190711704191
 20
36.29765924226081
 30
0.0
 11
37.78104662031069
 21
36.4443380675965
 31
0.0
 11
37.78024045037517
 21
36.44298077652252
 31
0.0
 11
37.77940711704184
 21
36.43878026812592
 31
0.0
 11
37.77857378370857
 21
36.43179523688707
 31
0.0
 11
37.77774045037518
 21
36.42214433860625
 31
0.0
 11
37.77690711704185
 21
36.40998074269806
 31
0.0
 11
37.77607378370851
 21
36.39550141422422
 31
0.0
 11
37.77524045037524
 21
36.3789424676836
 31
0.0
 11
37.77440711704185
 21
36.36056798690163
 31
0.0
 11
37.77357378370851
 21
36.34068017479331
 31
0.0
 11
37.77274045037518
 21
36.3195958446006
 31
0.0
 11
37.77190711704191
 21
36.29765924226081
 31
0.0
  0
SPLINE
  5
1B0
330
2
100
AcDbEntity
  8
GAIKEI
  6
Continuous
 62
     1
100
AcDbSpline
210
0.0
220
0.0
230
1.0
 70
     8
 71
     3
 72
    18
 73
    14
 74
    12
 42
0.0000000001
 43
0.0000000001
 44
0.000001
 12
-0.5846562919338174
 22
-0.8112810982034519
 32
0.0
 13
-0.0371796361213846
 23
-0.9993085983107928
 33
0.0
 40
0.0
 40
0.0
 40
0.0
 40
0.0
 40
0.0015787525645385
 40
0.0058612971317751
 40
0.0128958923591801
 40
0.0225827165460961
 40
0.0347748335201121
 40
0.0492781281816679
 40
0.0658580340895538
 40
0.0842514048913412
 40
0.1041566705154371
 40
0.1252574645254076
 40
0.1472102067833185
 40
0.1472102067833185
 40
0.1472102067833185
 40
0.1472102067833185
 10
37.74104696010153
 20
36.4443380716815
 30
0.0
 10
37.74073928422811
 20
36.44391113431004
 30
0.0
 10
37.73968948842051
 20
36.44222893572294
 30
0.0
 10
37.73937760269828
 20
36.43781291443247
 30
0.0
 10
37.73837774260142
 20
36.4309492334221
 30
0.0
 10
37.73767417948099
 20
36.4213025129888
 30
0.0
 10
37.73682605512721
 20
36.40921768249973
 30
0.0
 10
37.7360212928347
 20
36.3948101286336
 30
0.0
 10
37.73519583133288
 20
36.37834010715881
 30
0.0
 10
37.73437401340903
 20
36.36006517775934
 30
0.0
 10
37.73354856660137
 20
36.34028270969305
 30
0.0
 10
37.7327236232475
 20
36.31931260549805
 30
0.0
 10
37.7321791820315
 20
36.30497176362576
 30
0.0
 10
37.73190711704183
 20
36.29765924226081
 30
0.0
 11
37.74104696010153
 21
36.4443380716815
 31
0.0
 11
37.74024045037521
 21
36.44298077652252
 31
0.0
 11
37.73940711704188
 21
36.43878026812592
 31
0.0
 11
37.73857378370849
 21
36.43179523688707
 31
0.0
 11
37.73774045037522
 21
36.42214433860625
 31
0.0
 11
37.73690711704188
 21
36.40998074269806
 31
0.0
 11
37.73607378370855
 21
36.39550141422422
 31
0.0
 11
37.73524045037516
 21
36.3789424676836
 31
0.0
 11
37.73440711704188
 21
36.36056798690163
 31
0.0
 11
37.7335737837085
 21
36.34068017479331
 31
0.0
 11
37.73274045037522
 21
36.3195958446006
 31
0.0
 11
37.73190711704183
 21
36.29765924226081
 31
0.0
  0
SPLINE
  5
1B1
330
2
100
AcDbEntity
  8
GAIKEI
  6
Continuous
 62
     1
100
AcDbSpline
210
0.0
220
0.0
230
1.0
 70
     8
 71
     3
 72
    16
 73
    12
 74
    10
 42
0.0000000001
 43
0.0000000001
 44
0.000001
 12
-0.7246933390181188
 22
0.6890715234159442
 32
0.0
 13
-0.0435589224551712
 23
0.999050859703621
 33
0.0
 40
0.0
 40
0.0
 40
0.0
 40
0.0
 40
0.0008245869742722
 40
0.0042427686756351
 40
0.0104169723952155
 40
0.019285598307219
 40
0.0307089239071552
 40
0.0445088940072515
 40
0.0604644486191534
 40
0.0783168924071038
 40
0.0828709020179519
 40
0.0828709020179519
 40
0.0828709020179519
 40
0.0828709020179519
 10
37.76161969918064
 20
36.08933745060574
 30
0.0
 10
37.76142050828474
 20
36.08952685040657
 30
0.0
 10
37.76043978947027
 20
36.09058374967862
 30
0.0
 10
37.76022922767464
 20
36.09429525148846
 30
0.0
 10
37.75916893147377
 20
36.10021426328325
 30
0.0
 10
37.75851111821911
 20
36.1090882251932
 30
0.0
 10
37.75764870899971
 20
36.12038970318952
 30
0.0
 10
37.75685166156433
 20
36.13410404697698
 30
0.0
 10
37.75602571561933
 20
36.14994819210813
 30
0.0
 10
37.75543286828833
 20
36.16272284964475
 30
0.0
 10
37.75510582333712
 20
36.17018443572562
 30
0.0
 10
37.75503970075329
 20
36.1717009981312
 30
0.0
 11
37.76161969918064
 21
36.08933745060574
 31
0.0
 11
37.76107378370852
 21
36.08995558212621
 31
0.0
 11
37.76024045037519
 21
36.0932703735781
 31
0.0
 11
37.75940711704186
 21
36.0993880432311
 31
0.0
 11
37.75857378370847
 21
36.10821741363793
 31
0.0
 11
37.7577404503752
 21
36.11961029346606
 31
0.0
 11
37.75690711704186
 21
36.13338507373089
 31
0.0
 11
37.75607378370853
 21
36.14931884775194
 31
0.0
 11
37.75524045037514
 21
36.16715182797316
 31
0.0
 11
37.75503970075329
 21
36.1717009981312
 31
0.0
  0
SPLINE
  5
1B2
330
2
100
AcDbEntity
  8
GAIKEI
  6
Continuous
 62
     1
100
AcDbSpline
210
0.0
220
0.0
230
1.0
 70
     8
 71
     3
 72
    11
 73
     7
 74
     5
 42
0.0000000001
 43
0.0000000001
 44
0.000001
 12
-0.5697183474044964
 22
0.8218400115780987
 32
0.0
 13
-0.725838196782078
 23
0.6878654752872409
 33
0.0
 40
0.0
 40
0.0
 40
0.0
 40
0.0
 40
0.0271269143005459
 40
0.0541651219876461
 40
0.0813877632111765
 40
0.0927557661412386
 40
0.0927557661412386
 40
0.0927557661412386
 40
0.0927557661412386
 10
37.68992919433742
 20
31.43011308198311
 30
0.0
 10
37.68477762740892
 20
31.43754440983741
 30
0.0
 10
37.67402612322769
 20
31.45206736589654
 30
0.0
 10
37.656516199164
 20
31.47281010664301
 30
0.0
 10
37.6414359552538
 20
31.48867655673615
 30
0.0
 10
37.63220420695509
 20
31.49763596515896
 30
0.0
 10
37.62945376337251
 20
31.50024251740513
 30
0.0
 11
37.68992919433742
 21
31.43011308198311
 31
0.0
 11
37.67378291104177
 21
31.45191182678252
 31
0.0
 11
37.65635888310999
 21
31.47258753676954
 31
0.0
 11
37.63761055370571
 21
31.49232525731771
 31
0.0
 11
37.62945376337251
 21
31.50024251740513
 31
0.0
  0
SPLINE
  5
1B3
330
2
100
AcDbEntity
  8
GAIKEI
  6
Continuous
 62
     1
100
AcDbSpline
210
0.0
220
0.0
230
1.0
 70
     8
 71
     3
 72
    11
 73
     7
 74
     5
 42
0.0000000001
 43
0.0000000001
 44
0.000001
 12
0.7261327727615202
 22
0.6875545042552385
 32
0.0
 13
0.5694961259181754
 23
0.8219940161364862
 33
0.0
 40
0.0
 40
0.0
 40
0.0
 40
0.0
 40
0.0216057200346523
 40
0.0445668898279435
 40
0.0685149071729048
 40
0.0928153822368565
 40
0.0928153822368565
 40
0.0928153822368565
 40
0.0928153822368565
 10
37.62941230498967
 20
11.15608142274163
 30
0.0
 10
37.63464184545509
 20
11.16103312611744
 30
0.0
 10
37.64519639237119
 20
11.17149587422591
 30
0.0
 10
37.66064748888937
 20
11.18832617663338
 30
0.0
 10
37.67578288454487
 20
11.20662619718655
 30
0.0
 10
37.68531618553513
 20
11.21959188210854
 30
0.0
 10
37.68992919433742
 20
11.22625016380584
 30
0.0
 11
37.62941230498967
 21
11.15608142274163
 31
0.0
 11
37.64475601327547
 21
11.17129203963873
 31
0.0
 11
37.66027887957893
 21
11.18821030566289
 31
0.0
 11
37.67553065269363
 21
11.20667429275136
 31
0.0
 11
37.68992919433742
 21
11.22625016380584
 31
0.0
  0
SPLINE
  5
1B4
330
2
100
AcDbEntity
  8
GAIKEI
  6
Continuous
 62
     1
100
AcDbSpline
210
0.0
220
0.0
230
1.0
 70
     8
 71
     3
 72
    11
 73
     7
 74
     5
 42
0.0000000001
 43
0.0000000001
 44
0.000001
 12
0.7261327727614697
 22
0.6875545042552915
 32
0.0
 13
0.5694961259186093
 23
0.8219940161361854
 33
0.0
 40
0.0
 40
0.0
 40
0.0
 40
0.0
 40
0.0216057200346923
 40
0.0445668898279417
 40
0.0685149071729029
 40
0.0928153822368546
 40
0.0928153822368546
 40
0.0928153822368546
 40
0.0928153822368546
 10
37.62941230498967
 20
30.28339155840252
 30
0.0
 10
37.63464184545509
 20
30.28834326177838
 30
0.0
 10
37.64519639237125
 20
30.29880600988702
 30
0.0
 10
37.66064748888931
 20
30.31563631229415
 30
0.0
 10
37.67578288454493
 20
30.33393633284749
 30
0.0
 10
37.68531618553513
 20
30.34690201776943
 30
0.0
 10
37.68992919433742
 20
30.35356029946672
 30
0.0
 11
37.62941230498967
 21
30.28339155840252
 31
0.0
 11
37.64475601327547
 21
30.29860217529961
 31
0.0
 11
37.66027887957893
 21
30.31552044132377
 31
0.0
 11
37.67553065269363
 21
30.33398442841224
 31
0.0
 11
37.68992919433742
 21
30.35356029946672
 31
0.0
  0
SPLINE
  5
1B5
330
2
100
AcDbEntity
  8
GAIKEI
  6
Continuous
 62
     1
100
AcDbSpline
210
0.0
220
0.0
230
1.0
 70
     8
 71
     3
 72
    11
 73
     7
 74
     5
 42
0.0000000001
 43
0.0000000001
 44
0.000001
 12
-0.5697183474043875
 22
0.8218400115781744
 32
0.0
 13
-0.7258381967822672
 23
0.6878654752870411
 33
0.0
 40
0.0
 40
0.0
 40
0.0
 40
0.0
 40
0.0271269143005459
 40
0.0541651219876461
 40
0.0813877632111765
 40
0.0927557661412386
 40
0.0927557661412386
 40
0.0927557661412386
 40
0.0927557661412386
 10
37.68992919433742
 20
12.30280294632223
 30
0.0
 10
37.68477762740892
 20
12.31023427417653
 30
0.0
 10
37.67402612322769
 20
12.32475723023572
 30
0.0
 10
37.656516199164
 20
12.34549997098213
 30
0.0
 10
37.6414359552538
 20
12.36136642107522
 30
0.0
 10
37.63220420695509
 20
12.37032582949808
 30
0.0
 10
37.62945376337251
 20
12.37293238174425
 30
0.0
 11
37.68992919433742
 21
12.30280294632223
 31
0.0
 11
37.67378291104177
 21
12.32460169112164
 31
0.0
 11
37.65635888310999
 21
12.34527740110866
 31
0.0
 11
37.63761055370571
 21
12.36501512165682
 31
0.0
 11
37.62945376337251
 21
12.37293238174425
 31
0.0
  0
SPLINE
  5
1B6
330
2
100
AcDbEntity
  8
GAIKEI
  6
Continuous
 62
     1
100
AcDbSpline
210
0.0
220
0.0
230
1.0
 70
     8
 71
     3
 72
    13
 73
     9
 74
     7
 42
0.0000000001
 43
0.0000000001
 44
0.000001
 12
-0.3556040416314752
 22
0.9346367024546809
 32
0.0
 13
-0.4792288571630963
 23
0.8776899808372844
 33
0.0
 40
0.0
 40
0.0
 40
0.0
 40
0.0
 40
0.0009841552556807
 40
0.0341752847052837
 40
0.0724502295558645
 40
0.1107098708129618
 40
0.1490911211198958
 40
0.1874325864602257
 40
0.1874325864602257
 40
0.1874325864602257
 40
0.1874325864602257
 10
37.76492919433724
 20
12.13118938419075
 30
0.0
 10
37.76481253780841
 20
12.13149599339834
 30
0.0
 10
37.76076120900476
 20
12.14214301003585
 30
0.0
 10
37.75210882213406
 20
12.1646900291347
 30
0.0
 10
37.73862579493866
 20
12.19869141084513
 30
0.0
 10
37.72374250256081
 20
12.23399044321456
 30
0.0
 10
37.70782805698107
 20
12.26886903566407
 30
0.0
 10
37.69605397320976
 20
12.29158563966229
 30
0.0
 10
37.68992919433742
 20
12.30280294632223
 30
0.0
 11
37.76492919433724
 21
12.13118938419075
 31
0.0
 11
37.7645791360668
 21
12.13210915939271
 31
0.0
 11
37.75266219713456
 21
12.16308653803514
 31
0.0
 11
37.73849661590669
 21
12.19864345250949
 31
0.0
 11
37.72358874406825
 21
12.23387891633967
 31
0.0
 11
37.70753447935579
 21
12.26874196496226
 31
0.0
 11
37.68992919433742
 21
12.30280294632223
 31
0.0
  0
SPLINE
  5
1B7
330
2
100
AcDbEntity
  8
GAIKEI
  6
Continuous
 62
     1
100
AcDbSpline
210
0.0
220
0.0
230
1.0
 70
     8
 71
     3
 72
    13
 73
     9
 74
     7
 42
0.0000000001
 43
0.0000000001
 44
0.000001
 12
-0.355604041378737
 22
0.9346367025508412
 32
0.0
 13
-0.4792288571631189
 23
0.877689980837272
 33
0.0
 40
0.0
 40
0.0
 40
0.0
 40
0.0
 40
0.0009841552555797
 40
0.0341752847051377
 40
0.0724502295557818
 40
0.1107098708129838
 40
0.1490911211199019
 40
0.1874325864602318
 40
0.1874325864602318
 40
0.1874325864602318
 40
0.1874325864602318
 10
37.76492919433724
 20
31.25849951985163
 30
0.0
 10
37.7648125378085
 20
31.25880612905922
 30
0.0
 10
37.76076120900777
 20
31.2694531456969
 30
0.0
 10
37.75210882213253
 20
31.29200016479524
 30
0.0
 10
37.73862579493926
 20
31.32600154650607
 30
0.0
 10
37.72374250256084
 20
31.36130057887545
 30
0.0
 10
37.70782805698102
 20
31.39617917132495
 30
0.0
 10
37.69605397320976
 20
31.41889577532317
 30
0.0
 10
37.68992919433742
 20
31.43011308198311
 30
0.0
 11
37.76492919433724
 21
31.25849951985163
 31
0.0
 11
37.76457913606703
 21
31.25941929505359
 31
0.0
 11
37.75266219713456
 21
31.29039667369602
 31
0.0
 11
37.73849661590669
 21
31.32595358817037
 31
0.0
 11
37.72358874406825
 21
31.36118905200055
 31
0.0
 11
37.70753447935579
 21
31.39605210062314
 31
0.0
 11
37.68992919433742
 21
31.43011308198311
 31
0.0
  0
SPLINE
  5
1B8
330
2
100
AcDbEntity
  8
GAIKEI
  6
Continuous
 62
     1
100
AcDbSpline
210
0.0
220
0.0
230
1.0
 70
     8
 71
     3
 72
    12
 73
     8
 74
     6
 42
0.0000000001
 43
0.0000000001
 44
0.000001
 12
0.4769591228668367
 22
0.8789254775657024
 32
0.0
 13
0.355593553261721
 23
0.9346406929289477
 33
0.0
 40
0.0
 40
0.0
 40
0.0
 40
0.0
 40
0.0463485371772527
 40
0.0928814443548164
 40
0.1396449289866358
 40
0.1864441356849578
 40
0.1874282895021251
 40
0.1874282895021251
 40
0.1874282895021251
 40
0.1874282895021251
 10
37.68992919433742
 20
11.22625016380584
 30
0.0
 10
37.69729798021683
 20
11.23982913386351
 30
0.0
 10
37.71141765555831
 20
11.26740400028438
 30
0.0
 10
37.73024179013603
 20
11.3099932727282
 30
0.0
 10
37.74783182715612
 20
11.35325539535336
 30
0.0
 10
37.75914785537159
 20
11.38267069410892
 30
0.0
 10
37.76481254141965
 20
11.39755711586878
 30
0.0
 10
37.76492919433724
 20
11.39786372593732
 30
0.0
 11
37.68992919433742
 21
11.22625016380584
 31
0.0
 11
37.71099237813491
 21
11.26753640336244
 31
0.0
 11
37.72999708933907
 21
11.31001210011663
 31
0.0
 11
37.74769022940359
 21
11.3532994556424
 31
0.0
 11
37.76457913602821
 21
11.39694395075184
 31
0.0
 11
37.76492919433724
 21
11.39786372593732
 31
0.0
  0
SPLINE
  5
1B9
330
2
100
AcDbEntity
  8
GAIKEI
  6
Continuous
 62
     1
100
AcDbSpline
210
0.0
220
0.0
230
1.0
 70
     8
 71
     3
 72
    12
 73
     8
 74
     6
 42
0.0000000001
 43
0.0000000001
 44
0.000001
 12
0.4769591228667053
 22
0.8789254775657735
 32
0.0
 13
0.3555935529301539
 23
0.9346406930550958
 33
0.0
 40
0.0
 40
0.0
 40
0.0
 40
0.0
 40
0.0463485371772527
 40
0.0928814443547242
 40
0.1396449289868306
 40
0.1864441356850259
 40
0.1874282895021352
 40
0.1874282895021352
 40
0.1874282895021352
 40
0.1874282895021352
 10
37.68992919433742
 20
30.35356029946672
 30
0.0
 10
37.69729798021683
 20
30.36713926952439
 30
0.0
 10
37.71141765555817
 20
30.39471413594538
 30
0.0
 10
37.73024179013638
 20
30.43730340838863
 30
0.0
 10
37.74783182715493
 20
30.4805655310156
 30
0.0
 10
37.75914785537566
 20
30.50998082976668
 30
0.0
 10
37.76481254141976
 20
30.52486725152966
 30
0.0
 10
37.76492919433724
 20
30.5251738615982
 30
0.0
 11
37.68992919433742
 21
30.35356029946672
 31
0.0
 11
37.71099237813491
 21
30.39484653902332
 31
0.0
 11
37.72999708933907
 21
30.43732223577752
 31
0.0
 11
37.74769022940359
 21
30.48060959130339
 31
0.0
 11
37.76457913602849
 21
30.52425408641261
 31
0.0
 11
37.76492919433724
 21
30.5251738615982
 31
0.0
  0
SPLINE
  5
1BA
330
2
100
AcDbEntity
  8
GAIKEI
  6
Continuous
 62
     1
100
AcDbSpline
210
0.0
220
0.0
230
1.0
 70
     8
 71
     3
 72
    30
 73
    26
 74
    24
 42
0.0000000001
 43
0.0000000001
 44
0.000001
 12
-0.0200236380412519
 22
-0.9997995068610471
 32
0.0
 13
0.6382126117635996
 23
-0.7698601575519316
 33
0.0
 40
0.0
 40
0.0
 40
0.0
 40
0.0
 40
0.0166069238215943
 40
0.037301078554889
 40
0.0621612230433258
 40
0.0912321347745211
 40
0.1271247647504617
 40
0.1661149835441988
 40
0.1996843709300465
 40
0.207583012250934
 40
0.2151115874076531
 40
0.2222706400799722
 40
0.2290608027015172
 40
0.235482816674212
 40
0.2415375586176953
 40
0.2695382121070928
 40
0.2966935088714119
 40
0.3230613834754878
 40
0.3487051081642294
 40
0.3736934566496586
 40
0.3981007431757753
 40
0.4408164956220422
 40
0.4807239607646709
 40
0.5184525715331088
 40
0.5547443344004162
 40
0.5547443344004162
 40
0.5547443344004162
 40
0.5547443344004162
 10
39.2556805361628
 20
8.855436425883112
 30
0.0
 10
39.25556969248561
 20
8.849901894467336
 30
0.0
 10
39.25494127012169
 20
8.837469733056423
 30
0.0
 10
39.25207490413772
 20
8.81693027884927
 30
0.0
 10
39.2475872011272
 20
8.79246067728252
 30
0.0
 10
39.24112959816847
 20
8.76321745272827
 30
0.0
 10
39.23274029369361
 20
8.729596266984685
 30
0.0
 10
39.2246577395203
 20
8.694358420830724
 30
0.0
 10
39.21913609315516
 20
8.668110801054353
 30
0.0
 10
39.21607445521795
 20
8.652067951561548
 30
0.0
 10
39.21472286458516
 20
8.644661423356637
 30
0.0
 10
39.21350008786516
 20
8.637607242570311
 30
0.0
 10
39.21240690035472
 20
8.630905302306132
 30
0.0
 10
39.2114405534733
 20
8.62455592079857
 30
0.0
 10
39.20959049985081
 20
8.611190704388263
 30
0.0
 10
39.20735647954695
 20
8.590902133472695
 30
0.0
 10
39.20556173944175
 20
8.563777951903318
 30
0.0
 10
39.20508128800526
 20
8.537382437554754
 30
0.0
 10
39.20590659964472
 20
8.511718036114245
 30
0.0
 10
39.20803661360549
 20
8.486782153800334
 30
0.0
 10
39.21237337376783
 20
8.456373728341702
 30
0.0
 10
39.22017463203772
 20
8.421482213040633
 30
0.0
 10
39.23348903787354
 20
8.383531593039379
 30
0.0
 10
39.25074181431626
 20
8.349555991553188
 30
0.0
 10
39.26520074578295
 20
8.329432569283369
 30
0.0
 10
39.27292136603796
 20
8.320119375190415
 30
0.0
 11
39.2556805361628
 21
8.855436425883112
 31
0.0
 11
39.25479278990827
 21
8.838853444290748
 31
0.0
 11
39.2521342013269
 21
8.818330807611118
 31
0.0
 11
39.24770477041875
 21
8.793868515844451
 31
0.0
 11
39.24150449718388
 21
8.765466568990632
 31
0.0
 11
39.23309564318003
 21
8.730572915710808
 31
0.0
 11
39.22437649165317
 21
8.692570179752806
 31
0.0
 11
39.21754043835745
 21
8.659704261509091
 31
0.0
 11
39.21606122436185
 21
8.651945377231982
 31
0.0
 11
39.21471117980275
 21
8.644538848364845
 31
0.0
 11
39.21349030468002
 21
8.637484674907909
 31
0.0
 11
39.2123985989939
 21
8.63078285686106
 31
0.0
 11
39.21143606274421
 21
8.624433394224297
 31
0.0
 11
39.21060269593102
 21
8.618436286997734
 31
0.0
 11
39.20753075011669
 21
8.590604695548108
 31
0.0
 11
39.20576339170634
 21
8.563507009240311
 31
0.0
 11
39.20530062070009
 21
8.537143228074228
 31
0.0
 11
39.20614243709781
 21
8.511513352049973
 31
0.0
 11
39.20828884089963
 21
8.486617381167548
 31
0.0
 11
39.21173983210542
 21
8.462455315426836
 31
0.0
 11
39.22121223838985
 21
8.420803091576885
 31
0.0
 11
39.23456662947342
 21
8.38319636025426
 31
0.0
 11
39.25180300535613
 21
8.349635121458732
 31
0.0
 11
39.27292136603796
 21
8.320119375190415
 31
0.0
  0
SPLINE
  5
1BB
330
2
100
AcDbEntity
  8
GAIKEI
  6
Continuous
 62
     1
100
AcDbSpline
210
0.0
220
0.0
230
1.0
 70
     8
 71
     3
 72
    27
 73
    23
 74
    21
 42
0.0000000001
 43
0.0000000001
 44
0.000001
 12
-0.3587289631765114
 22
-0.9334417662491352
 32
0.0
 13
-0.3043867708718783
 23
-0.952548525650106
 33
0.0
 40
0.0
 40
0.0
 40
0.0
 40
0.0
 40
0.0000527653160408
 40
0.0137452944831974
 40
0.0277848726959967
 40
0.0420904151999906
 40
0.0621802894338872
 40
0.0825042457509789
 40
0.1029273041857175
 40
0.120440706794757
 40
0.1390172120262873
 40
0.1586623151565397
 40
0.1727209773580775
 40
0.1881397105005391
 40
0.2049363464391852
 40
0.2220007426194554
 40
0.2384281114962991
 40
0.2550330349711557
 40
0.2718074234064881
 40
0.3201416250121696
 40
0.3656184092027229
 40
0.4082186707019197
 40
0.4082186707019197
 40
0.4082186707019197
 40
0.4082186707019197
 10
39.33440286338362
 20
31.98211052261104
 30
0.0
 10
39.33439655390126
 20
31.98209410482775
 30
0.0
 10
39.33275328008168
 20
31.97781716441193
 30
0.0
 10
39.3294723722766
 20
31.96915592950114
 30
0.0
 10
39.32466460494152
 20
31.95599356900596
 30
0.0
 10
39.31933644164849
 20
31.94075249635506
 30
0.0
 10
39.31370738425517
 20
31.92339999537853
 30
0.0
 10
39.30809721708812
 20
31.90390825354644
 30
0.0
 10
39.30342326671524
 20
31.88505315351836
 30
0.0
 10
39.29962756152051
 20
31.86659791003558
 30
0.0
 10
39.29648205036239
 20
31.84828490208673
 30
0.0
 10
39.2940314676444
 20
31.83102888721715
 30
0.0
 10
39.29209326865524
 20
31.81476921354897
 30
0.0
 10
39.29047517834064
 20
31.7994293089094
 30
0.0
 10
39.28890716713903
 20
31.78307753066145
 30
0.0
 10
39.28742923069331
 20
31.76637996336399
 30
0.0
 10
39.28588774018294
 20
31.7497523464736
 30
0.0
 10
39.28429225212656
 20
31.73322682933502
 30
0.0
 10
39.28171262400937
 20
31.70611216189559
 30
0.0
 10
39.2769966480293
 20
31.66952645489272
 30
0.0
 10
39.26796884854704
 20
31.6249191376254
 30
0.0
 10
39.26000285484148
 20
31.59663091154783
 30
0.0
 10
39.2556805361628
 20
31.58310463945338
 30
0.0
 11
39.33440286338362
 21
31.98211052261104
 31
0.0
 11
39.33438393576967
 21
31.98206126854894
 31
0.0
 11
39.32953748237503
 21
31.96925494641403
 31
0.0
 11
39.3247243703305
 21
31.95606616754435
 31
0.0
 11
39.3200142243806
 21
31.94255827131394
 31
0.0
 11
39.31383688548726
 21
31.92344168042428
 31
0.0
 11
39.30822692710319
 21
31.90390729641149
 31
0.0
 11
39.30333243887253
 21
31.88407938953685
 31
0.0
 11
39.29978915000572
 21
31.86692815693596
 31
0.0
 11
39.29662770507377
 21
31.84862263424952
 31
0.0
 11
39.29385355038323
 21
31.82917438631455
 31
0.0
 11
39.29217603611028
 21
31.81521616543262
 31
0.0
 11
39.2905456052024
 21
31.79988388265872
 31
0.0
 11
39.2889349357514
 21
31.78316466142883
 31
0.0
 11
39.28739751141097
 21
31.76616968339192
 31
0.0
 11
39.28588189776082
 21
31.74981240856983
 31
0.0
 11
39.28430054031145
 21
31.73328299971854
 31
0.0
 11
39.28266011710957
 21
31.71658909913629
 31
0.0
 11
39.2762889804614
 21
31.66867746748994
 31
0.0
 11
39.26720972597627
 21
31.62411567370248
 31
0.0
 11
39.2556805361628
 21
31.58310463945338
 31
0.0
  0
SPLINE
  5
1BC
330
2
100
AcDbEntity
  8
GAIKEI
  6
Continuous
 62
     1
100
AcDbSpline
210
0.0
220
0.0
230
1.0
 70
     8
 71
     3
 72
    23
 73
    19
 74
    17
 42
0.0000000001
 43
0.0000000001
 44
0.000001
 12
0.1037512493360999
 22
-0.9946032768200588
 32
0.0
 13
-0.9066396789115103
 23
-0.4219057864301387
 33
0.0
 40
0.0
 40
0.0
 40
0.0
 40
0.0
 40
0.0607026110801313
 40
0.1185986751946618
 40
0.1736064872697771
 40
0.2256490779792209
 40
0.2746574152566548
 40
0.3205734925395612
 40
0.3633544662869458
 40
0.4029783719658756
 40
0.4389238356325089
 40
0.4721139622826841
 40
0.5025974616641572
 40
0.5304770080022311
 40
0.5559339520156578
 40
0.5792613998137357
 40
0.6009024388064012
 40
0.6214788907307542
 40
0.6214788907307542
 40
0.6214788907307542
 40
0.6214788907307542
 10
39.66523410144566
 20
32.99072266299948
 30
0.0
 10
39.66733342535818
 20
32.97059765770217
 30
0.0
 10
39.67094142581715
 20
32.93122524417731
 30
0.0
 10
39.67488353625973
 20
32.87348544562707
 30
0.0
 10
39.67719486526429
 20
32.81854498502799
 30
0.0
 10
39.67790912372271
 20
32.76652267011986
 30
0.0
 10
39.67703609360632
 20
32.71753234577853
 30
0.0
 10
39.67458504538774
 20
32.6716849686332
 30
0.0
 10
39.67055795129531
 20
32.62908764150234
 30
0.0
 10
39.66497886406583
 20
32.59001606446003
 30
0.0
 10
39.65784288913409
 20
32.55445008761524
 30
0.0
 10
39.64921063401582
 20
32.52235739811403
 30
0.0
 10
39.63904310872849
 20
32.49354548289967
 30
0.0
 10
39.62734587324977
 20
32.46812074642628
 30
0.0
 10
39.61411382236034
 20
32.44618109528108
 30
0.0
 10
39.5993009631253
 20
32.42786240280845
 30
0.0
 10
39.58290315296546
 20
32.41323512738512
 30
0.0
 10
39.57062334423719
 20
32.40614916745841
 30
0.0
 10
39.56440486831525
 20
32.40325539274806
 30
0.0
 11
39.66523410144566
 21
32.99072266299948
 31
0.0
 11
39.67078648923063
 21
32.93027535966053
 31
0.0
 11
39.67469038386992
 21
32.87251107506825
 31
0.0
 11
39.67696911329369
 21
32.81755049150945
 31
0.0
 11
39.67764054325255
 21
32.76551224230991
 31
0.0
 11
39.67671710171021
 21
32.71651261723048
 31
0.0
 11
39.6742058179243
 21
32.67066527935117
 31
0.0
 11
39.67010837580358
 21
32.62808099402014
 31
0.0
 11
39.66442118110098
 21
32.58886737039154
 31
0.0
 11
39.65726841301046
 21
32.55364077872196
 31
0.0
 11
39.64855347038906
 21
32.52161527948829
 31
0.0
 11
39.6382998218071
 21
32.49290805898136
 31
0.0
 11
39.62652586772009
 21
32.46763671383485
 31
0.0
 11
39.6132447077265
 21
32.4459188837277
 31
0.0
 11
39.5984639174564
 21
32.42787186884664
 31
0.0
 11
39.58218533643884
 21
32.41361223292131
 31
0.0
 11
39.56440486831525
 21
32.40325539274806
 31
0.0
  0
SPLINE
  5
1BD
330
2
100
AcDbEntity
  8
GAIKEI
  6
Continuous
 62
     1
100
AcDbSpline
210
0.0
220
0.0
230
1.0
 70
     8
 71
     3
 72
    13
 73
     9
 74
     7
 42
0.0000000001
 43
0.0000000001
 44
0.000001
 12
-0.9958439311814659
 22
-0.091076147969947
 32
0.0
 13
-0.9929680145434634
 23
-0.1183829468023682
 33
0.0
 40
0.0
 40
0.0
 40
0.0
 40
0.0
 40
0.2790849670557355
 40
0.4824077539591793
 40
0.6857426128006062
 40
0.889121481304458
 40
1.092568902580971
 40
1.132064281388675
 40
1.132064281388675
 40
1.132064281388675
 40
1.132064281388675
 10
39.4464827496592
 20
4.731878998676961
 30
0.0
 10
39.35384105941705
 20
4.723406337425046
 30
0.0
 10
39.19374576288883
 20
4.708331550154582
 30
0.0
 10
38.96626648485159
 20
4.685912088945769
 30
0.0
 10
38.76399302695308
 20
4.665051156595723
 30
0.0
 10
38.56178681813645
 20
4.643157715906966
 30
0.0
 10
38.41397486751609
 20
4.626256059436286
 30
0.0
 10
38.33355734738186
 20
4.616720027019027
 30
0.0
 10
38.32048479808907
 20
4.615161500576277
 30
0.0
 11
39.4464827496592
 21
4.731878998676961
 31
0.0
 11
39.16862555852447
 21
4.705729813739708
 31
0.0
 11
38.96628597927179
 21
4.685758752189258
 31
0.0
 11
38.76402586830631
 21
4.664880362506437
 31
0.0
 11
38.56183207897601
 21
4.642957131056277
 31
0.0
 11
38.35970556171321
 21
4.619811600619186
 31
0.0
 11
38.32048479808907
 21
4.615161500576277
 31
0.0
  0
SPLINE
  5
1BE
330
2
100
AcDbEntity
  8
GAIKEI
  6
Continuous
 62
     1
100
AcDbSpline
210
0.0
220
0.0
230
1.0
 70
     8
 71
     3
 72
    15
 73
    11
 74
     9
 42
0.0000000001
 43
0.0000000001
 44
0.000001
 12
0.1151974769613444
 22
0.9933426102316062
 32
0.0
 13
-0.8415501913672635
 23
0.5401789290686208
 33
0.0
 40
0.0
 40
0.0
 40
0.0
 40
0.0
 40
0.0394084963478186
 40
0.0771399072617097
 40
0.1117967484185927
 40
0.1420880407746221
 40
0.1668916500996182
 40
0.1853241616436327
 40
0.196879107761319
 40
0.2022733320264323
 40
0.2022733320264323
 40
0.2022733320264323
 40
0.2022733320264323
 10
35.5539735263144
 20
38.95423517301492
 30
0.0
 10
35.55548677943111
 20
38.96728388589077
 30
0.0
 10
35.55809803367612
 20
38.99287057930474
 30
0.0
 10
35.56085090195054
 20
39.03002899246838
 30
0.0
 10
35.56256090192503
 20
39.06424589417225
 30
0.0
 10
35.56306241986039
 20
39.09407879113451
 30
0.0
 10
35.56296704075118
 20
39.1188211028026
 30
0.0
 10
35.56085620348881
 20
39.13650324142958
 30
0.0
 10
35.56005123987316
 20
39.14918253943785
 30
0.0
 10
35.55548669646853
 20
39.15298979787025
 30
0.0
 10
35.55397352631434
 20
39.15396107996583
 30
0.0
 11
35.5539735263144
 21
38.95423517301492
 31
0.0
 11
35.55796819494901
 21
38.99344006510558
 31
0.0
 11
35.56076901999432
 21
39.031067373371
 31
0.0
 11
35.56242812533947
 21
39.06568446994527
 31
0.0
 11
35.56297759385472
 21
39.09597076375769
 31
0.0
 11
35.56242824065765
 21
39.1207682628716
 31
0.0
 11
35.56076920097041
 21
39.13912590396979
 31
0.0
 11
35.55796834822968
 21
39.15033595237901
 31
0.0
 11
35.55397352631434
 21
39.15396107996583
 31
0.0
  0
SPLINE
  5
1BF
330
2
100
AcDbEntity
  8
GAIKEI
  6
Continuous
 62
     1
100
AcDbSpline
210
0.0
220
0.0
230
1.0
 70
     8
 71
     3
 72
    11
 73
     7
 74
     5
 42
0.0000000001
 43
0.0000000001
 44
0.000001
 12
-0.9272724310398604
 22
-0.3743872842838379
 32
0.0
 13
-0.8850743362206914
 23
-0.465449695846396
 33
0.0
 40
0.0
 40
0.0
 40
0.0
 40
0.0
 40
0.0143995265551268
 40
0.0364303848129772
 40
0.054352588973912
 40
0.0655662738736491
 40
0.0655662738736491
 40
0.0655662738736491
 40
0.0655662738736491
 10
35.5539735263144
 20
38.95423517301492
 30
0.0
 10
35.54952276498287
 20
38.95243817313428
 30
0.0
 10
35.53838502867643
 20
38.94757384983222
 30
0.0
 10
35.52244124451815
 20
38.93892244227425
 30
0.0
 10
35.50788511653153
 20
38.93002947235221
 30
0.0
 10
35.49932361652827
 20
38.92543725389913
 30
0.0
 10
35.49601530162187
 20
38.92369745182384
 30
0.0
 11
35.5539735263144
 21
38.95423517301492
 31
0.0
 11
35.54078807211102
 21
38.94844766634094
 31
0.0
 11
35.52134299851252
 21
38.93809151319806
 31
0.0
 11
35.50587370592416
 21
38.92904103025114
 31
0.0
 11
35.49601530162187
 21
38.92369745182384
 31
0.0
  0
SPLINE
  5
1C0
330
2
100
AcDbEntity
  8
GAIKEI
  6
Continuous
 62
     1
100
AcDbSpline
210
0.0
220
0.0
230
1.0
 70
     8
 71
     3
 72
    19
 73
    15
 74
    13
 42
0.0000000001
 43
0.0000000001
 44
0.000001
 12
-0.4537847692220346
 22
-0.891111319208832
 32
0.0
 13
0.0558661521317871
 23
-0.9984382670180405
 33
0.0
 40
0.0
 40
0.0
 40
0.0
 40
0.0
 40
0.0058433329848931
 40
0.0115431011623576
 40
0.0191493870676832
 40
0.0323458963040336
 40
0.0491681393602488
 40
0.0697806678864593
 40
0.0924149932146358
 40
0.1149878612986471
 40
0.1372182372400339
 40
0.153517971264878
 40
0.169406717493381
 40
0.1997454480061746
 40
0.1997454480061746
 40
0.1997454480061746
 40
0.1997454480061746
 10
35.49601530162187
 20
39.12143652295981
 30
0.0
 10
35.49513142978518
 20
39.11970083623823
 30
0.0
 10
35.49353823786453
 20
39.11618749619737
 30
0.0
 10
35.49159196489495
 20
39.11010126984365
 30
0.0
 10
35.48929931519621
 20
39.10156733152161
 30
0.0
 10
35.48692588725825
 20
39.08923690738533
 30
0.0
 10
35.48499269422098
 20
39.07245556332691
 30
0.0
 10
35.48426866563691
 20
39.05242307970076
 30
0.0
 10
35.48514004231757
 20
39.03048457947893
 30
0.0
 10
35.48718380443472
 20
39.00809343119386
 30
0.0
 10
35.48959518211546
 20
38.98786826780952
 30
0.0
 10
35.49182069500523
 20
38.96986593598427
 30
0.0
 10
35.49426368462852
 20
38.94916634673427
 30
0.0
 10
35.49545033224376
 20
38.93379456832929
 30
0.0
 10
35.49601530162187
 20
38.92369745182373
 30
0.0
 11
35.49601530162187
 21
39.12143652295981
 31
0.0
 11
35.49362683573486
 21
39.11610336229307
 31
0.0
 11
35.49182350645549
 21
39.1106964644481
 31
0.0
 11
35.48984888800527
 21
39.10335095842231
 31
0.0
 11
35.48729986832018
 21
39.09040294997715
 31
0.0
 11
35.48533572896116
 21
39.07369573394499
 31
0.0
 11
35.48454228883236
 21
39.05309845160275
 31
0.0
 11
35.48533503231096
 21
39.03047800024592
 31
0.0
 11
35.48729910149087
 21
39.00799074385088
 31
0.0
 11
35.48984837505628
 21
38.98590703872276
 31
0.0
 11
35.49182324575054
 21
38.96972741678053
 31
0.0
 11
35.49362678585857
 21
38.95394143364831
 31
0.0
 11
35.49601530162187
 21
38.92369745182373
 31
0.0
  0
TEXT
  5
1C1
330
2
100
AcDbEntity
  8
MOJI1
100
AcDbText
 10
-19.4315740646864
 20
-41.10843089996762
 30
0.0
 40
3.0
  1
ＤＶＩ－Ｄ入力、ＰＣ入力、ＲＳ２３２Ｃ、音声入力
 41
0.95
100
AcDbText
  0
TEXT
  5
1C2
330
2
100
AcDbEntity
  8
MOJI1
100
AcDbText
 10
-19.4315740646864
 20
-36.10843089996763
 30
0.0
 40
3.0
  1
ビデオ入力、ＲＧＢ／コンポーネントビデオ入力、ＨＤＭＩ入力
 41
0.7800000000000001
100
AcDbText
  0
TEXT
  5
1C3
330
2
100
AcDbEntity
  8
MOJI1
100
AcDbText
 10
-58.4315740646864
 20
-46.10843089996762
 30
0.0
 40
3.0
  1
質　量
100
AcDbText
  0
TEXT
  5
1C4
330
2
100
AcDbEntity
  8
MOJI1
100
AcDbText
 10
-19.4315740646864
 20
-46.10843089996762
 30
0.0
 40
3.0
  1
約３１．０ ｋｇ
100
AcDbText
  0
LINE
  5
1C5
330
2
100
AcDbEntity
  8
WAKU
 62
     1
100
AcDbLine
 10
-60.9315740646864
 20
-42.10843089996763
 30
0.0
 11
64.06842593531337
 21
-42.10843089996763
 31
0.0
  0
TEXT
  5
1C7
330
2
100
AcDbEntity
  8
MOJI1
100
AcDbText
 10
-58.4315740646864
 20
-36.10843089996763
 30
0.0
 40
3.0
  1
入出力端子
100
AcDbText
  0
LINE
  5
1C8
330
2
100
AcDbEntity
  8
WAKU
 62
     1
100
AcDbLine
 10
-60.9315740646864
 20
-37.10843089996763
 30
0.0
 11
64.06842593531337
 21
-37.10843089996763
 31
0.0
  0
LINE
  5
1C9
330
2
100
AcDbEntity
  8
WAKU
 62
     4
100
AcDbLine
 10
64.06842593531337
 20
-7.108430899967629
 30
0.0
 11
64.06842593531337
 21
-47.10843089996763
 31
0.0
  0
TEXT
  5
1CA
330
2
100
AcDbEntity
  8
MOJI1
100
AcDbText
 10
-58.4315740646864
 20
-26.10843089996763
 30
0.0
 40
3.0
  1
画素数
100
AcDbText
  0
TEXT
  5
1CB
330
2
100
AcDbEntity
  8
MOJI1
100
AcDbText
 10
-58.4315740646864
 20
-11.10843089996763
 30
0.0
 40
3.0
  1
電  源
100
AcDbText
  0
TEXT
  5
1CC
330
2
100
AcDbEntity
  8
MOJI1
100
AcDbText
 10
-58.4315740646864
 20
-16.10843089996763
 30
0.0
 40
3.0
  1
消費電力
100
AcDbText
  0
TEXT
  5
1CD
330
2
100
AcDbEntity
  8
MOJI1
100
AcDbText
 10
-58.4315740646864
 20
-31.10843089996763
 30
0.0
 40
3.0
  1
コントラスト
100
AcDbText
  0
TEXT
  5
1CE
330
2
100
AcDbEntity
  8
MOJI1
100
AcDbText
 10
-58.4315740646864
 20
-21.10843089996763
 30
0.0
 40
3.0
  1
画面サイズ
100
AcDbText
  0
LINE
  5
1CF
330
2
100
AcDbEntity
  8
WAKU
 62
     4
100
AcDbLine
 10
-60.93157406468662
 20
-7.108430899967629
 30
0.0
 11
-60.9315740646864
 21
-47.10843089996763
 31
0.0
  0
LINE
  5
1D0
330
2
100
AcDbEntity
  8
WAKU
 62
     4
100
AcDbLine
 10
-20.93157406468663
 20
-7.108430899967629
 30
0.0
 11
-20.93157406468663
 21
-47.10843089996763
 31
0.0
  0
TEXT
  5
1D1
330
2
100
AcDbEntity
  8
MOJI1
100
AcDbText
 10
-19.4315740646864
 20
-11.10843089996763
 30
0.0
 40
3.0
  1
ＡＣ１００Ｖ　５０Ｈｚ／６０Ｈｚ
100
AcDbText
  0
TEXT
  5
1D2
330
2
100
AcDbEntity
  8
MOJI1
100
AcDbText
 10
-19.4315740646864
 20
-26.10843089996763
 30
0.0
 40
3.0
  1
１０２４×７６８画素
100
AcDbText
  0
LINE
  5
1D3
330
2
100
AcDbEntity
  8
WAKU
 62
     4
100
AcDbLine
 10
64.06842593531337
 20
-47.10843089996763
 30
0.0
 11
-60.9315740646864
 21
-47.10843089996763
 31
0.0
  0
LINE
  5
1D4
330
2
100
AcDbEntity
  8
WAKU
 62
     1
100
AcDbLine
 10
-60.9315740646864
 20
-32.10843089996763
 30
0.0
 11
64.06842593531337
 21
-32.10843089996763
 31
0.0
  0
LINE
  5
1D5
330
2
100
AcDbEntity
  8
WAKU
 62
     1
100
AcDbLine
 10
-60.9315740646864
 20
-32.10843089996763
 30
0.0
 11
64.06842593531337
 21
-32.10843089996763
 31
0.0
  0
LINE
  5
1D6
330
2
100
AcDbEntity
  8
WAKU
 62
     1
100
AcDbLine
 10
-60.9315740646864
 20
-22.10843089996763
 30
0.0
 11
64.06842593531337
 21
-22.10843089996763
 31
0.0
  0
LINE
  5
1D7
330
2
100
AcDbEntity
  8
WAKU
 62
     1
100
AcDbLine
 10
-60.9315740646864
 20
-12.10843089996763
 30
0.0
 11
64.06842593531337
 21
-12.10843089996763
 31
0.0
  0
LINE
  5
1D8
330
2
100
AcDbEntity
  8
WAKU
 62
     4
100
AcDbLine
 10
-60.9315740646864
 20
-7.108430899967629
 30
0.0
 11
64.06842593531337
 21
-7.108430899967629
 31
0.0
  0
LINE
  5
1D9
330
2
100
AcDbEntity
  8
WAKU
 62
     1
100
AcDbLine
 10
-60.9315740646864
 20
-27.10843089996763
 30
0.0
 11
64.06842593531337
 21
-27.10843089996763
 31
0.0
  0
LINE
  5
1DA
330
2
100
AcDbEntity
  8
WAKU
 62
     1
100
AcDbLine
 10
-60.9315740646864
 20
-17.10843089996763
 30
0.0
 11
64.06842593531337
 21
-17.10843089996763
 31
0.0
  0
TEXT
  5
1DB
330
2
100
AcDbEntity
  8
MOJI1
100
AcDbText
 10
-19.4315740646864
 20
-31.10843089996763
 30
0.0
 40
3.0
  1
２００００００：１
100
AcDbText
  0
TEXT
  5
1DC
330
2
100
AcDbEntity
  8
MOJI1
100
AcDbText
 10
-19.4315740646864
 20
-21.10843089996763
 30
0.0
 40
3.0
  1
５０型（１２６９ｃｍ）１６：９
100
AcDbText
  0
TEXT
  5
1DD
330
2
100
AcDbEntity
  8
MOJI1
100
AcDbText
 10
-19.4315740646864
 20
-16.10843089996763
 30
0.0
 40
3.0
  1
２３５Ｗ
100
AcDbText
  0
ENDSEC
  0
SECTION
  2
OBJECTS
  0
DICTIONARY
  5
7
330
0
100
AcDbDictionary
281
     1
  3
ACAD_COLOR
350
2C
  3
ACAD_GROUP
350
28
  3
ACAD_LAYOUT
350
B
  3
ACAD_MATERIAL
350
2B
  3
ACAD_MLINESTYLE
350
29
  3
ACAD_PLOTSETTINGS
350
2A
  3
ACAD_PLOTSTYLENAME
350
6
  3
ACDBHEADERROUNDTRIPXREC
350
21C
  3
AcDbVariableDictionary
350
217
  0
DICTIONARY
  5
11
330
10
100
AcDbDictionary
280
     1
281
     1
  3
ACAD_LAYERSTATES
360
12
  0
DICTIONARY
  5
2C
102
{ACAD_REACTORS
330
7
102
}
330
7
100
AcDbDictionary
281
     1
  0
DICTIONARY
  5
28
102
{ACAD_REACTORS
330
7
102
}
330
7
100
AcDbDictionary
281
     1
  0
DICTIONARY
  5
B
102
{ACAD_REACTORS
330
7
102
}
330
7
100
AcDbDictionary
281
     1
  3
Model
350
A
  3
レイアウト1
350
F
  0
DICTIONARY
  5
2B
102
{ACAD_REACTORS
330
7
102
}
330
7
100
AcDbDictionary
281
     1
  0
DICTIONARY
  5
29
102
{ACAD_REACTORS
330
7
102
}
330
7
100
AcDbDictionary
281
     1
  3
Standard
350
2E
  0
DICTIONARY
  5
2A
102
{ACAD_REACTORS
330
7
102
}
330
7
100
AcDbDictionary
281
     1
  0
ACDBDICTIONARYWDFLT
  5
6
102
{ACAD_REACTORS
330
7
102
}
330
7
100
AcDbDictionary
281
     1
  3
Normal
350
5
100
AcDbDictionaryWithDefault
340
5
  0
DICTIONARY
  5
21C
102
{ACAD_REACTORS
330
7
102
}
330
7
100
AcDbDictionary
281
     1
  3
COLORDICT
350
21E
  3
MATERIALDICT
350
21D
  0
DICTIONARY
  5
217
102
{ACAD_REACTORS
330
7
102
}
330
7
100
AcDbDictionary
281
     1
  3
DIMASSOC
350
219
  3
HIDETEXT
350
218
  3
PROJECTNAME
350
21A
  0
DICTIONARY
  5
12
102
{ACAD_REACTORS
330
11
102
}
330
11
100
AcDbDictionary
281
     1
  0
LAYOUT
  5
A
102
{ACAD_XDICTIONARY
360
21F
102
}
102
{ACAD_REACTORS
330
B
102
}
330
B
100
AcDbPlotSettings
  1

  2
10F06M_RICOH_SP-8100
  4
A4
  6

 40
5.873749732971191
 41
5.873747825622558
 42
5.873748779296875
 43
5.873748779296875
 44
209.9733276367187
 45
296.9259948730469
 46
5.419999999999999
 47
0.0
 48
0.0
 49
0.0
140
0.0
141
0.0
142
1.0
143
1.38245207335299
 70
 11956
 72
     1
 73
     0
 74
     1
  7
tmsacad.ctb
 75
     0
147
0.7233523818114045
148
0.0319065267781298
149
0.0300716685512725
100
AcDbLayout
  1
Model
 70
     1
 71
     0
 10
0.0
 20
0.0
 11
12.0
 21
9.0
 12
0.0
 22
0.0
 32
0.0
 14
0.0
 24
0.0
 34
0.0
 15
0.0
 25
0.0
 35
0.0
146
0.0
 13
0.0
 23
0.0
 33
0.0
 16
1.0
 26
0.0
 36
0.0
 17
0.0
 27
1.0
 37
0.0
 76
     0
330
2
  0
LAYOUT
  5
F
102
{ACAD_XDICTIONARY
360
221
102
}
102
{ACAD_REACTORS
330
B
102
}
330
B
100
AcDbPlotSettings
  1

  2
None
  4

  6

 40
0.0
 41
0.0
 42
0.0
 43
0.0
 44
0.0
 45
0.0
 46
0.0
 47
0.0
 48
0.0
 49
0.0
140
0.0
141
0.0
142
1.0
143
1.0
 70
   688
 72
     0
 73
     0
 74
     5
  7
tmsacad.ctb
 75
    16
147
1.0
148
0.0
149
0.0
100
AcDbLayout
  1
レイアウト1
 70
     1
 71
     1
 10
0.0
 20
0.0
 11
12.0
 21
9.0
 12
0.0
 22
0.0
 32
0.0
 14
0.0
 24
0.0
 34
0.0
 15
0.0
 25
0.0
 35
0.0
146
0.0
 13
0.0
 23
0.0
 33
0.0
 16
1.0
 26
0.0
 36
0.0
 17
0.0
 27
1.0
 37
0.0
 76
     0
330
C
  0
MLINESTYLE
  5
2E
102
{ACAD_REACTORS
330
29
102
}
330
29
100
AcDbMlineStyle
  2
STANDARD
 70
     0
  3

 62
   256
 51
90.0
 52
90.0
 71
     2
 49
0.5
 62
   256
  6
BYLAYER
 49
-0.5
 62
   256
  6
BYLAYER
  0
ACDBPLACEHOLDER
  5
5
102
{ACAD_REACTORS
330
6
102
}
330
6
  0
XRECORD
  5
21E
102
{ACAD_REACTORS
330
21C
102
}
330
21C
100
AcDbXrecord
280
     1
340
2C
  0
XRECORD
  5
21D
102
{ACAD_REACTORS
330
21C
102
}
330
21C
100
AcDbXrecord
280
     1
340
2B
  0
DICTIONARYVAR
  5
219
102
{ACAD_REACTORS
330
217
102
}
330
217
100
DictionaryVariables
280
     0
  1
1
  0
DICTIONARYVAR
  5
218
102
{ACAD_REACTORS
330
217
102
}
330
217
100
DictionaryVariables
280
     0
  1
1
  0
DICTIONARYVAR
  5
21A
102
{ACAD_REACTORS
330
217
102
}
330
217
100
DictionaryVariables
280
     0
  1

  0
DICTIONARY
  5
21F
330
A
100
AcDbDictionary
280
     1
281
     1
  3
ACAD_XREC_ROUNDTRIP
360
220
  0
DICTIONARY
  5
221
330
F
100
AcDbDictionary
280
     1
281
     1
  3
ACAD_XREC_ROUNDTRIP
360
222
  0
XRECORD
  5
220
102
{ACAD_REACTORS
330
21F
102
}
330
21F
100
AcDbXrecord
280
     1
102
SHADEPLOT
 70
     0
102
SHADEPLOTRESLEVEL
 70
     2
102
SHADEPLOTCUSTOMDPI
 70
   300
  0
XRECORD
  5
222
102
{ACAD_REACTORS
330
221
102
}
330
221
100
AcDbXrecord
280
     1
102
SHADEPLOT
 70
     0
102
SHADEPLOTRESLEVEL
 70
     2
102
SHADEPLOTCUSTOMDPI
 70
   300
  0
ENDSEC
  0
EOF
