  0
SECTION
  2
HEADER
  9
$ACADVER
  1
AC1015
  9
$ACADMAINTVER
 70
    20
  9
$DWGCODEPAGE
  3
ANSI_932
  9
$INSBASE
 10
129.499999944041
 20
372.5008351249344
 30
0.0
  9
$EXTMIN
 10
-60.38268952209342
 20
-47.61625607779274
 30
-0.0015258207003583
  9
$EXTMAX
 10
64.65087947045788
 20
65.38568157421616
 30
0.0000000349246037
  9
$LIMMIN
 10
0.0
 20
0.0
  9
$LIMMAX
 10
420.0
 20
297.0
  9
$ORTHOMODE
 70
     1
  9
$REGENMODE
 70
     0
  9
$FILLMODE
 70
     1
  9
$QTEXTMODE
 70
     0
  9
$MIRRTEXT
 70
     0
  9
$LTSCALE
 40
1.0
  9
$ATTMODE
 70
     1
  9
$TEXTSIZE
 40
2.5
  9
$TRACEWID
 40
1.0
  9
$TEXTSTYLE
  7
Standard
  9
$CLAYER
  8
0
  9
$CELTYPE
  6
ByLayer
  9
$CECOLOR
 62
   256
  9
$CELTSCALE
 40
1.0
  9
$DISPSILH
 70
     0
  9
$DIMSCALE
 40
1.0
  9
$DIMASZ
 40
2.0
  9
$DIMEXO
 40
2.0
  9
$DIMDLI
 40
8.0
  9
$DIMRND
 40
0.0
  9
$DIMDLE
 40
0.0
  9
$DIMEXE
 40
2.0
  9
$DIMTP
 40
0.0
  9
$DIMTM
 40
0.0
  9
$DIMTXT
 40
2.5
  9
$DIMCEN
 40
0.0
  9
$DIMTSZ
 40
0.0
  9
$DIMTOL
 70
     0
  9
$DIMLIM
 70
     0
  9
$DIMTIH
 70
     0
  9
$DIMTOH
 70
     0
  9
$DIMSE1
 70
     0
  9
$DIMSE2
 70
     0
  9
$DIMTAD
 70
     3
  9
$DIMZIN
 70
     0
  9
$DIMBLK
  1

  9
$DIMASO
 70
     1
  9
$DIMSHO
 70
     1
  9
$DIMPOST
  1

  9
$DIMAPOST
  1

  9
$DIMALT
 70
     0
  9
$DIMALTD
 70
     2
  9
$DIMALTF
 40
25.4
  9
$DIMLFAC
 40
1.0
  9
$DIMTOFL
 70
     1
  9
$DIMTVP
 40
0.0
  9
$DIMTIX
 70
     0
  9
$DIMSOXD
 70
     0
  9
$DIMSAH
 70
     1
  9
$DIMBLK1
  1
OPEN30
  9
$DIMBLK2
  1
OPEN30
  9
$DIMSTYLE
  2
STANDARD
  9
$DIMCLRD
 70
     0
  9
$DIMCLRE
 70
     0
  9
$DIMCLRT
 70
     0
  9
$DIMTFAC
 40
1.0
  9
$DIMGAP
 40
0.5
  9
$DIMJUST
 70
     0
  9
$DIMSD1
 70
     0
  9
$DIMSD2
 70
     0
  9
$DIMTOLJ
 70
     1
  9
$DIMTZIN
 70
     0
  9
$DIMALTZ
 70
     0
  9
$DIMALTTZ
 70
     0
  9
$DIMUPT
 70
     0
  9
$DIMDEC
 70
     4
  9
$DIMTDEC
 70
     4
  9
$DIMALTU
 70
     2
  9
$DIMALTTD
 70
     2
  9
$DIMTXSTY
  7
Standard
  9
$DIMAUNIT
 70
     0
  9
$DIMADEC
 70
     0
  9
$DIMALTRND
 40
0.0
  9
$DIMAZIN
 70
     0
  9
$DIMDSEP
 70
    46
  9
$DIMATFIT
 70
     3
  9
$DIMFRAC
 70
     0
  9
$DIMLDRBLK
  1
OPEN30
  9
$DIMLUNIT
 70
     2
  9
$DIMLWD
 70
    -2
  9
$DIMLWE
 70
    -2
  9
$DIMTMOVE
 70
     0
  9
$LUNITS
 70
     2
  9
$LUPREC
 70
     4
  9
$SKETCHINC
 40
1.0
  9
$FILLETRAD
 40
0.0
  9
$AUNITS
 70
     0
  9
$AUPREC
 70
     0
  9
$MENU
  1
.
  9
$ELEVATION
 40
0.0
  9
$PELEVATION
 40
0.0
  9
$THICKNESS
 40
0.0
  9
$LIMCHECK
 70
     0
  9
$CHAMFERA
 40
0.0
  9
$CHAMFERB
 40
0.0
  9
$CHAMFERC
 40
0.0
  9
$CHAMFERD
 40
0.0
  9
$SKPOLY
 70
     0
  9
$TDCREATE
 40
2454349.434269746
  9
$TDUCREATE
 40
2454349.059269746
  9
$TDUPDATE
 40
2454803.579446447
  9
$TDUUPDATE
 40
2454803.204446446
  9
$TDINDWG
 40
1.3003871991
  9
$TDUSRTIMER
 40
1.3003871991
  9
$USRTIMER
 70
     1
  9
$ANGBASE
 50
0.0
  9
$ANGDIR
 70
     0
  9
$PDMODE
 70
     0
  9
$PDSIZE
 40
0.0
  9
$PLINEWID
 40
0.0
  9
$SPLFRAME
 70
     0
  9
$SPLINETYPE
 70
     6
  9
$SPLINESEGS
 70
     8
  9
$HANDSEED
  5
3DD
  9
$SURFTAB1
 70
     6
  9
$SURFTAB2
 70
     6
  9
$SURFTYPE
 70
     6
  9
$SURFU
 70
     6
  9
$SURFV
 70
     6
  9
$UCSBASE
  2

  9
$UCSNAME
  2

  9
$UCSORG
 10
0.0
 20
0.0
 30
0.0
  9
$UCSXDIR
 10
1.0
 20
0.0
 30
0.0
  9
$UCSYDIR
 10
0.0
 20
1.0
 30
0.0
  9
$UCSORTHOREF
  2

  9
$UCSORTHOVIEW
 70
     0
  9
$UCSORGTOP
 10
0.0
 20
0.0
 30
0.0
  9
$UCSORGBOTTOM
 10
0.0
 20
0.0
 30
0.0
  9
$UCSORGLEFT
 10
0.0
 20
0.0
 30
0.0
  9
$UCSORGRIGHT
 10
0.0
 20
0.0
 30
0.0
  9
$UCSORGFRONT
 10
0.0
 20
0.0
 30
0.0
  9
$UCSORGBACK
 10
0.0
 20
0.0
 30
0.0
  9
$PUCSBASE
  2

  9
$PUCSNAME
  2

  9
$PUCSORG
 10
0.0
 20
0.0
 30
0.0
  9
$PUCSXDIR
 10
1.0
 20
0.0
 30
0.0
  9
$PUCSYDIR
 10
0.0
 20
1.0
 30
0.0
  9
$PUCSORTHOREF
  2

  9
$PUCSORTHOVIEW
 70
     0
  9
$PUCSORGTOP
 10
0.0
 20
0.0
 30
0.0
  9
$PUCSORGBOTTOM
 10
0.0
 20
0.0
 30
0.0
  9
$PUCSORGLEFT
 10
0.0
 20
0.0
 30
0.0
  9
$PUCSORGRIGHT
 10
0.0
 20
0.0
 30
0.0
  9
$PUCSORGFRONT
 10
0.0
 20
0.0
 30
0.0
  9
$PUCSORGBACK
 10
0.0
 20
0.0
 30
0.0
  9
$USERI1
 70
     0
  9
$USERI2
 70
     0
  9
$USERI3
 70
     0
  9
$USERI4
 70
     0
  9
$USERI5
 70
     0
  9
$USERR1
 40
0.0
  9
$USERR2
 40
0.0
  9
$USERR3
 40
0.0
  9
$USERR4
 40
0.0
  9
$USERR5
 40
0.0
  9
$WORLDVIEW
 70
     1
  9
$SHADEDGE
 70
     3
  9
$SHADEDIF
 70
    70
  9
$TILEMODE
 70
     1
  9
$MAXACTVP
 70
    64
  9
$PINSBASE
 10
0.0
 20
0.0
 30
0.0
  9
$PLIMCHECK
 70
     0
  9
$PEXTMIN
 10
0.0
 20
0.0
 30
0.0
  9
$PEXTMAX
 10
0.0
 20
0.0
 30
0.0
  9
$PLIMMIN
 10
0.0
 20
0.0
  9
$PLIMMAX
 10
12.0
 20
9.0
  9
$UNITMODE
 70
     0
  9
$VISRETAIN
 70
     1
  9
$PLINEGEN
 70
     0
  9
$PSLTSCALE
 70
     1
  9
$TREEDEPTH
 70
  3020
  9
$CMLSTYLE
  2
Standard
  9
$CMLJUST
 70
     0
  9
$CMLSCALE
 40
20.0
  9
$PROXYGRAPHICS
 70
     1
  9
$MEASUREMENT
 70
     1
  9
$CELWEIGHT
370
    -1
  9
$ENDCAPS
280
     0
  9
$JOINSTYLE
280
     0
  9
$LWDISPLAY
290
     0
  9
$INSUNITS
 70
     4
  9
$HYPERLINKBASE
  1

  9
$STYLESHEET
  1

  9
$XEDIT
290
     1
  9
$CEPSNTYPE
380
     0
  9
$PSTYLEMODE
290
     1
  9
$FINGERPRINTGUID
  2
{FDEAD578-A652-11D2-9A35-0060089B3A3F}
  9
$VERSIONGUID
  2
{05419D41-0FB7-4C98-9FB6-7B7ADBC05037}
  9
$EXTNAMES
290
     1
  9
$PSVPSCALE
 40
0.0
  9
$OLESTARTUP
290
     0
  0
ENDSEC
  0
SECTION
  2
CLASSES
  0
CLASS
  1
ACDBDICTIONARYWDFLT
  2
AcDbDictionaryWithDefault
  3
ObjectDBX Classes
 90
        0
280
     0
281
     0
  0
CLASS
  1
ACDBPLACEHOLDER
  2
AcDbPlaceHolder
  3
ObjectDBX Classes
 90
        0
280
     0
281
     0
  0
CLASS
  1
LAYOUT
  2
AcDbLayout
  3
ObjectDBX Classes
 90
        0
280
     0
281
     0
  0
CLASS
  1
DICTIONARYVAR
  2
AcDbDictionaryVar
  3
ObjectDBX Classes
 90
        0
280
     0
281
     0
  0
CLASS
  1
DIMASSOC
  2
AcDbDimAssoc
  3
"AcDbDimAssoc|Product Desc:     AcDim ARX App For Dimension|Company:          Autodesk, Inc.|WEB Address:      www.autodesk.com"
 90
    32768
280
     0
281
     0
  0
CLASS
  1
SORTENTSTABLE
  2
AcDbSortentsTable
  3
ObjectDBX Classes
 90
    32768
280
     0
281
     0
  0
ENDSEC
  0
SECTION
  2
TABLES
  0
TABLE
  2
VPORT
  5
1B
330
0
100
AcDbSymbolTable
 70
     3
  0
VPORT
  5
3D5
330
1B
100
AcDbSymbolTableRecord
100
AcDbViewportTableRecord
  2
*Active
 70
     0
 10
0.0
 20
0.0
 11
1.0
 21
1.0
 12
2.134094974182232
 22
8.884712748211711
 13
0.0
 23
0.0
 14
10.0
 24
10.0
 15
10.0
 25
10.0
 16
0.0
 26
0.0
 36
1.0
 17
0.0
 27
0.0
 37
0.0
 40
113.8745394871595
 41
1.387886597938144
 42
50.0
 43
0.0
 44
0.0
 50
0.0
 51
0.0
 71
     0
 72
  1000
 73
     1
 74
     2
 75
     0
 76
     0
 77
     0
 78
     0
281
     0
 65
     1
110
0.0
120
0.0
130
0.0
111
1.0
121
0.0
131
0.0
112
0.0
122
1.0
132
0.0
 79
     0
146
0.0
  0
ENDTAB
  0
TABLE
  2
LTYPE
  5
16
330
0
100
AcDbSymbolTable
 70
     3
  0
LTYPE
  5
17
330
16
100
AcDbSymbolTableRecord
100
AcDbLinetypeTableRecord
  2
ByBlock
 70
     0
  3

 72
    65
 73
     0
 40
0.0
  0
LTYPE
  5
18
330
16
100
AcDbSymbolTableRecord
100
AcDbLinetypeTableRecord
  2
ByLayer
 70
     0
  3

 72
    65
 73
     0
 40
0.0
  0
LTYPE
  5
8
330
16
100
AcDbSymbolTableRecord
100
AcDbLinetypeTableRecord
  2
Continuous
 70
     0
  3
Solid line
 72
    65
 73
     0
 40
0.0
  0
LTYPE
  5
1BC
330
16
100
AcDbSymbolTableRecord
100
AcDbLinetypeTableRecord
  2
HIDDEN2
 70
     0
  3
Hidden (.5x) _ _ _ _ _ _ _ _ _ _ _ _ _ _ _ _ _
 72
    65
 73
     2
 40
1.399999999999999
 49
0.7
 74
     0
 49
-0.7
 74
     0
  0
LTYPE
  5
341
330
16
100
AcDbSymbolTableRecord
100
AcDbLinetypeTableRecord
  2
NON_PLOTING
 70
     0
  3
Solid line
 72
    65
 73
     0
 40
0.0
  0
ENDTAB
  0
TABLE
  2
LAYER
  5
10
102
{ACAD_XDICTIONARY
360
11
102
}
330
0
100
AcDbSymbolTable
 70
     7
  0
LAYER
  5
4
330
10
100
AcDbSymbolTableRecord
100
AcDbLayerTableRecord
  2
0
 70
     0
 62
     7
  6
Continuous
370
    -3
390
5
  0
LAYER
  5
370
330
10
100
AcDbSymbolTableRecord
100
AcDbLayerTableRecord
  2
WAKU
 70
     0
 62
     4
  6
Continuous
370
    -3
390
5
  0
LAYER
  5
36D
330
10
100
AcDbSymbolTableRecord
100
AcDbLayerTableRecord
  2
MOJI1
 70
     0
 62
     2
  6
Continuous
370
    -3
390
5
  0
LAYER
  5
36B
330
10
100
AcDbSymbolTableRecord
100
AcDbLayerTableRecord
  2
TOUROKU
 70
     0
 62
     1
  6
Continuous
370
    -3
390
5
  0
LAYER
  5
2F
330
10
100
AcDbSymbolTableRecord
100
AcDbLayerTableRecord
  2
GAIKEI
 70
     0
 62
     7
  6
Continuous
370
    -3
390
5
  0
LAYER
  5
101
330
10
100
AcDbSymbolTableRecord
100
AcDbLayerTableRecord
  2
SUNPO
 70
     0
 62
     3
  6
Continuous
370
    -3
390
5
  0
LAYER
  5
10B
330
10
100
AcDbSymbolTableRecord
100
AcDbLayerTableRecord
  2
Defpoints
 70
     0
 62
     7
  6
Continuous
290
     0
370
    -3
390
5
  0
ENDTAB
  0
TABLE
  2
STYLE
  5
13
330
0
100
AcDbSymbolTable
 70
     1
  0
STYLE
  5
14
330
13
100
AcDbSymbolTableRecord
100
AcDbTextStyleTableRecord
  2
Standard
 70
     0
 40
0.0
 41
1.0
 50
0.0
 71
     0
 42
2.5
  3
MONOTXT.shx
  4
BIGFONT.shx
  0
ENDTAB
  0
TABLE
  2
VIEW
  5
19
330
0
100
AcDbSymbolTable
 70
     0
  0
ENDTAB
  0
TABLE
  2
UCS
  5
1A
330
0
100
AcDbSymbolTable
 70
     0
  0
ENDTAB
  0
TABLE
  2
APPID
  5
1D
330
0
100
AcDbSymbolTable
 70
     1
  0
APPID
  5
1E
330
1D
100
AcDbSymbolTableRecord
100
AcDbRegAppTableRecord
  2
ACAD
 70
     0
  0
ENDTAB
  0
TABLE
  2
DIMSTYLE
  5
1F
330
0
100
AcDbSymbolTable
 70
     1
100
AcDbDimStyleTable
 71
     1
340
20
  0
DIMSTYLE
105
20
102
{ACAD_REACTORS
330
1AE
330
1A1
330
10F
330
100
102
}
330
1F
100
AcDbSymbolTableRecord
100
AcDbDimStyleTableRecord
  2
STANDARD
 70
     0
 40
0.0
 41
2.0
 42
2.0
 43
8.0
 44
2.0
 73
     0
 74
     0
 77
     3
140
3.0
141
0.0
173
     1
279
     2
288
     1
340
14
341
21
343
21
344
21
  0
ENDTAB
  0
TABLE
  2
BLOCK_RECORD
  5
1
330
0
100
AcDbSymbolTable
 70
     9
  0
BLOCK_RECORD
  5
2
330
1
100
AcDbSymbolTableRecord
100
AcDbBlockTableRecord
  2
*Model_Space
340
A
  0
BLOCK_RECORD
  5
C
330
1
100
AcDbSymbolTableRecord
100
AcDbBlockTableRecord
  2
*Paper_Space
340
F
  0
BLOCK_RECORD
  5
21
330
1
100
AcDbSymbolTableRecord
100
AcDbBlockTableRecord
  2
_OPEN30
340
0
102
{BLKREFS
331
35C
331
35A
331
107
331
108
331
115
331
116
331
1A7
331
1A8
331
1B4
331
1B5
331
3A5
331
3A6
331
3B1
331
3B2
331
3BD
331
3BE
331
3C9
331
3CA
102
}
  0
BLOCK_RECORD
  5
1AF
330
1
100
AcDbSymbolTableRecord
100
AcDbBlockTableRecord
  2
*D1
340
0
  0
BLOCK_RECORD
  5
1A2
330
1
100
AcDbSymbolTableRecord
100
AcDbBlockTableRecord
  2
*D2
340
0
  0
BLOCK_RECORD
  5
110
330
1
100
AcDbSymbolTableRecord
100
AcDbBlockTableRecord
  2
*D3
340
0
  0
BLOCK_RECORD
  5
102
330
1
100
AcDbSymbolTableRecord
100
AcDbBlockTableRecord
  2
*D4
340
0
  0
BLOCK_RECORD
  5
3A1
330
1
100
AcDbSymbolTableRecord
100
AcDbBlockTableRecord
  2
*D5
340
0
  0
BLOCK_RECORD
  5
3AD
330
1
100
AcDbSymbolTableRecord
100
AcDbBlockTableRecord
  2
*D6
340
0
  0
BLOCK_RECORD
  5
3B9
330
1
100
AcDbSymbolTableRecord
100
AcDbBlockTableRecord
  2
*D7
340
0
  0
BLOCK_RECORD
  5
3C5
330
1
100
AcDbSymbolTableRecord
100
AcDbBlockTableRecord
  2
*D8
340
0
  0
ENDTAB
  0
ENDSEC
  0
SECTION
  2
BLOCKS
  0
BLOCK
  5
3
330
2
100
AcDbEntity
  8
0
100
AcDbBlockBegin
  2
*Model_Space
 70
     0
 10
0.0
 20
0.0
 30
0.0
  3
*Model_Space
  1

  0
ENDBLK
  5
9
330
2
100
AcDbEntity
  8
0
100
AcDbBlockEnd
  0
BLOCK
  5
D
330
C
100
AcDbEntity
 67
     1
  8
0
100
AcDbBlockBegin
  2
*Paper_Space
 70
     0
 10
0.0
 20
0.0
 30
0.0
  3
*Paper_Space
  1

  0
ENDBLK
  5
E
330
C
100
AcDbEntity
 67
     1
  8
0
100
AcDbBlockEnd
  0
BLOCK
  5
22
330
21
100
AcDbEntity
  8
0
100
AcDbBlockBegin
  2
_OPEN30
 70
     0
 10
0.0
 20
0.0
 30
0.0
  3
_OPEN30
  1

  0
LINE
  5
23
330
21
100
AcDbEntity
  8
0
  6
ByBlock
 62
     0
100
AcDbLine
 10
-1.0
 20
0.26794919
 30
0.0
 11
0.0
 21
0.0
 31
0.0
  0
LINE
  5
24
330
21
100
AcDbEntity
  8
0
  6
ByBlock
 62
     0
100
AcDbLine
 10
0.0
 20
0.0
 30
0.0
 11
-1.0
 21
-0.26794919
 31
0.0
  0
LINE
  5
25
330
21
100
AcDbEntity
  8
0
  6
ByBlock
 62
     0
100
AcDbLine
 10
0.0
 20
0.0
 30
0.0
 11
-1.0
 21
0.0
 31
0.0
  0
ENDBLK
  5
26
330
21
100
AcDbEntity
  8
0
100
AcDbBlockEnd
  0
BLOCK
  5
1B0
330
1AF
100
AcDbEntity
  8
0
100
AcDbBlockBegin
  2
*D1
 70
     1
 10
0.0
 20
0.0
 30
0.0
  3
*D1
  1

  0
LINE
  5
1B1
330
1AF
100
AcDbEntity
  8
SUNPO
 62
     0
370
    -2
100
AcDbLine
 10
151.5727446558024
 20
320.1355203209143
 30
0.0
 11
143.5727446558024
 21
320.1355203209143
 31
0.0
  0
LINE
  5
1B2
330
1AF
100
AcDbEntity
  8
SUNPO
 62
     0
370
    -2
100
AcDbLine
 10
151.5727446558024
 20
337.3355203191944
 30
0.0
 11
143.5727446558024
 21
337.3355203191944
 31
0.0
  0
LINE
  5
1B3
330
1AF
100
AcDbEntity
  8
SUNPO
 62
     0
370
    -2
100
AcDbLine
 10
145.5727446558024
 20
322.1355203209143
 30
0.0
 11
145.5727446558024
 21
335.3355203191944
 31
0.0
  0
INSERT
  5
1B4
330
1AF
100
AcDbEntity
  8
SUNPO
 62
     0
370
    -2
100
AcDbBlockReference
  2
_OPEN30
 10
145.5727446558024
 20
320.1355203209143
 30
0.0
 41
2.0
 42
2.0
 43
2.0
 50
270.0
  0
INSERT
  5
1B5
330
1AF
100
AcDbEntity
  8
SUNPO
 62
     0
370
    -2
100
AcDbBlockReference
  2
_OPEN30
 10
145.5727446558024
 20
337.3355203191944
 30
0.0
 41
2.0
 42
2.0
 43
2.0
 50
90.0
  0
MTEXT
  5
1B6
330
1AF
100
AcDbEntity
  8
SUNPO
 62
     0
100
AcDbMText
 10
143.8227446558023
 20
328.7355203200544
 30
0.0
 40
2.5
 41
0.0
 71
     5
 72
     1
  1
\A1;516
 11
0.0000000000000001
 21
1.0
 31
0.0
 73
     1
 44
1.0
1001
ACAD
1000
MTEXTBEGIN
1070
    73
1070
     1
1070
    44
1040
1.0
1070
    74
1070
     0
1000
MTEXTEND
  0
POINT
  5
1B7
330
1AF
100
AcDbEntity
  8
Defpoints
 62
     0
100
AcDbPoint
 10
153.5727446558024
 20
320.1355203209143
 30
0.0
  0
POINT
  5
1B8
330
1AF
100
AcDbEntity
  8
Defpoints
 62
     0
100
AcDbPoint
 10
153.5727446558024
 20
337.3355203191944
 30
0.0
  0
POINT
  5
1B9
330
1AF
100
AcDbEntity
  8
Defpoints
 62
     0
100
AcDbPoint
 10
145.5727446558024
 20
337.3355203191944
 30
0.0
  0
ENDBLK
  5
1BA
330
1AF
100
AcDbEntity
  8
0
100
AcDbBlockEnd
  0
BLOCK
  5
1A3
330
1A2
100
AcDbEntity
  8
0
100
AcDbBlockBegin
  2
*D2
 70
     1
 10
0.0
 20
0.0
 30
0.0
  3
*D2
  1

  0
LINE
  5
1A4
330
1A2
100
AcDbEntity
  8
SUNPO
 62
     0
370
    -2
100
AcDbLine
 10
164.3811702464329
 20
315.0855203212193
 30
0.0
 11
164.3811702464329
 21
307.0855203212193
 31
0.0
  0
LINE
  5
1A5
330
1A2
100
AcDbEntity
  8
SUNPO
 62
     0
370
    -2
100
AcDbLine
 10
190.2145035771829
 20
315.0855203212193
 30
0.0
 11
190.2145035771829
 21
307.0855203212193
 31
0.0
  0
LINE
  5
1A6
330
1A2
100
AcDbEntity
  8
SUNPO
 62
     0
370
    -2
100
AcDbLine
 10
166.3811702464329
 20
309.0855203212193
 30
0.0
 11
188.2145035771829
 21
309.0855203212193
 31
0.0
  0
INSERT
  5
1A7
330
1A2
100
AcDbEntity
  8
SUNPO
 62
     0
370
    -2
100
AcDbBlockReference
  2
_OPEN30
 10
164.3811702464329
 20
309.0855203212193
 30
0.0
 41
2.0
 42
2.0
 43
2.0
 50
180.0
  0
INSERT
  5
1A8
330
1A2
100
AcDbEntity
  8
SUNPO
 62
     0
370
    -2
100
AcDbBlockReference
  2
_OPEN30
 10
190.2145035771829
 20
309.0855203212193
 30
0.0
 41
2.0
 42
2.0
 43
2.0
  0
MTEXT
  5
1A9
330
1A2
100
AcDbEntity
  8
SUNPO
 62
     0
100
AcDbMText
 10
177.2978369118079
 20
310.8355203212193
 30
0.0
 40
2.5
 41
0.0
 71
     5
 72
     1
  1
\A1;775
 73
     1
 44
1.0
1001
ACAD
1000
MTEXTBEGIN
1070
    73
1070
     1
1070
    44
1040
1.0
1070
    74
1070
     0
1000
MTEXTEND
  0
POINT
  5
1AA
330
1A2
100
AcDbEntity
  8
Defpoints
 62
     0
100
AcDbPoint
 10
164.3811702464329
 20
317.0855203212193
 30
0.0
  0
POINT
  5
1AB
330
1A2
100
AcDbEntity
  8
Defpoints
 62
     0
100
AcDbPoint
 10
190.2145035771829
 20
317.0855203212193
 30
0.0
  0
POINT
  5
1AC
330
1A2
100
AcDbEntity
  8
Defpoints
 62
     0
100
AcDbPoint
 10
190.2145035771829
 20
309.0855203212193
 30
0.0
  0
ENDBLK
  5
1AD
330
1A2
100
AcDbEntity
  8
0
100
AcDbBlockEnd
  0
BLOCK
  5
111
330
110
100
AcDbEntity
  8
0
100
AcDbBlockBegin
  2
*D3
 70
     1
 10
0.0
 20
0.0
 30
0.0
  3
*D3
  1

  0
LINE
  5
112
330
110
100
AcDbEntity
  8
SUNPO
  6
Continuous
 62
     0
370
    -2
100
AcDbLine
 10
153.981170247473
 20
347.2644269309804
 30
0.0
 11
153.981170247473
 21
355.2644269309803
 31
0.0
  0
LINE
  5
113
330
110
100
AcDbEntity
  8
SUNPO
  6
Continuous
 62
     0
370
    -2
100
AcDbLine
 10
200.614503576143
 20
347.2644269309804
 30
0.0
 11
200.614503576143
 21
355.2644269309803
 31
0.0
  0
LINE
  5
114
330
110
100
AcDbEntity
  8
SUNPO
  6
Continuous
 62
     0
370
    -2
100
AcDbLine
 10
155.981170247473
 20
353.2644269309803
 30
0.0
 11
198.6145035761429
 21
353.2644269309803
 31
0.0
  0
INSERT
  5
115
330
110
100
AcDbEntity
  8
SUNPO
  6
Continuous
 62
     0
370
    -2
100
AcDbBlockReference
  2
_OPEN30
 10
153.981170247473
 20
353.2644269309803
 30
0.0
 41
2.0
 42
2.0
 43
2.0
 50
180.0
  0
INSERT
  5
116
330
110
100
AcDbEntity
  8
SUNPO
  6
Continuous
 62
     0
370
    -2
100
AcDbBlockReference
  2
_OPEN30
 10
200.614503576143
 20
353.2644269309803
 30
0.0
 41
2.0
 42
2.0
 43
2.0
  0
MTEXT
  5
117
330
110
100
AcDbEntity
  8
SUNPO
  6
Continuous
 62
     0
100
AcDbMText
 10
177.297836911808
 20
355.0144269309803
 30
0.0
 40
2.5
 41
0.0
 71
     5
 72
     1
  1
\A1;1399
 73
     1
 44
1.0
1001
ACAD
1000
MTEXTBEGIN
1070
    73
1070
     1
1070
    44
1040
1.0
1070
    74
1070
     0
1000
MTEXTEND
  0
POINT
  5
118
330
110
100
AcDbEntity
  8
Defpoints
  6
Continuous
 62
     0
100
AcDbPoint
 10
153.981170247473
 20
345.2644269309804
 30
0.0
  0
POINT
  5
119
330
110
100
AcDbEntity
  8
Defpoints
  6
Continuous
 62
     0
100
AcDbPoint
 10
200.614503576143
 20
345.2644269309804
 30
0.0
  0
POINT
  5
11A
330
110
100
AcDbEntity
  8
Defpoints
  6
Continuous
 62
     0
100
AcDbPoint
 10
200.614503576143
 20
353.2644269309803
 30
0.0
  0
ENDBLK
  5
11B
330
110
100
AcDbEntity
  8
0
100
AcDbBlockEnd
  0
BLOCK
  5
103
330
102
100
AcDbEntity
  8
0
100
AcDbBlockBegin
  2
*D4
 70
     1
 10
0.0
 20
0.0
 30
0.0
  3
*D4
  1

  0
LINE
  5
104
330
102
100
AcDbEntity
  8
SUNPO
  6
Continuous
 62
     0
370
    -2
100
AcDbLine
 10
202.6170872450996
 20
345.2688536517375
 30
0.0
 11
210.6170872450996
 21
345.2688536517375
 31
0.0
  0
LINE
  5
105
330
102
100
AcDbEntity
  8
SUNPO
  6
Continuous
 62
     0
370
    -2
100
AcDbLine
 10
202.6170872450996
 20
317.1688536545476
 30
0.0
 11
210.6170872450996
 21
317.1688536545476
 31
0.0
  0
LINE
  5
106
330
102
100
AcDbEntity
  8
SUNPO
  6
Continuous
 62
     0
370
    -2
100
AcDbLine
 10
208.6170872450996
 20
343.2688536517375
 30
0.0
 11
208.6170872450996
 21
319.1688536545476
 31
0.0
  0
INSERT
  5
107
330
102
100
AcDbEntity
  8
SUNPO
  6
Continuous
 62
     0
370
    -2
100
AcDbBlockReference
  2
_OPEN30
 10
208.6170872450996
 20
345.2688536517375
 30
0.0
 41
2.0
 42
2.0
 43
2.0
 50
90.0
  0
INSERT
  5
108
330
102
100
AcDbEntity
  8
SUNPO
  6
Continuous
 62
     0
370
    -2
100
AcDbBlockReference
  2
_OPEN30
 10
208.6170872450996
 20
317.1688536545476
 30
0.0
 41
2.0
 42
2.0
 43
2.0
 50
270.0
  0
MTEXT
  5
109
330
102
100
AcDbEntity
  8
SUNPO
  6
Continuous
 62
     0
100
AcDbMText
 10
206.8670872450995
 20
331.2188536531426
 30
0.0
 40
2.5
 41
0.0
 71
     5
 72
     1
  1
\A1;843
 11
0.0000000000000001
 21
1.0
 31
0.0
 73
     1
 44
1.0
1001
ACAD
1000
MTEXTBEGIN
1070
    73
1070
     1
1070
    44
1040
1.0
1070
    74
1070
     0
1000
MTEXTEND
  0
POINT
  5
10A
330
102
100
AcDbEntity
  8
Defpoints
  6
Continuous
 62
     0
100
AcDbPoint
 10
200.6170872450996
 20
345.2688536517375
 30
0.0
  0
POINT
  5
10C
330
102
100
AcDbEntity
  8
Defpoints
  6
Continuous
 62
     0
100
AcDbPoint
 10
200.6170872450996
 20
317.1688536545476
 30
0.0
  0
POINT
  5
10D
330
102
100
AcDbEntity
  8
Defpoints
  6
Continuous
 62
     0
100
AcDbPoint
 10
208.6170872450996
 20
317.1688536545476
 30
0.0
  0
ENDBLK
  5
10E
330
102
100
AcDbEntity
  8
0
100
AcDbBlockEnd
  0
BLOCK
  5
3AB
330
3A1
100
AcDbEntity
  8
0
100
AcDbBlockBegin
  2
*D5
 70
     1
 10
0.0
 20
0.0
 30
0.0
  3
*D5
  1

  0
LINE
  5
3A2
330
3A1
100
AcDbEntity
  8
SUNPO
 62
     0
370
    -2
100
AcDbLine
 10
-40.28621711045929
 20
15.01927051923826
 30
0.0
 11
-48.28621711045929
 21
15.01927051923826
 31
0.0
  0
LINE
  5
3A3
330
3A1
100
AcDbEntity
  8
SUNPO
 62
     0
370
    -2
100
AcDbLine
 10
-40.28621711045929
 20
32.21927051751829
 30
0.0
 11
-48.28621711045929
 21
32.21927051751829
 31
0.0
  0
LINE
  5
3A4
330
3A1
100
AcDbEntity
  8
SUNPO
 62
     0
370
    -2
100
AcDbLine
 10
-46.28621711045929
 20
17.01927051923826
 30
0.0
 11
-46.28621711045929
 21
30.21927051751829
 31
0.0
  0
INSERT
  5
3A5
330
3A1
100
AcDbEntity
  8
SUNPO
 62
     0
370
    -2
100
AcDbBlockReference
  2
_OPEN30
 10
-46.28621711045929
 20
15.01927051923826
 30
0.0
 41
2.0
 42
2.0
 43
2.0
 50
270.0
  0
INSERT
  5
3A6
330
3A1
100
AcDbEntity
  8
SUNPO
 62
     0
370
    -2
100
AcDbBlockReference
  2
_OPEN30
 10
-46.28621711045929
 20
32.21927051751829
 30
0.0
 41
2.0
 42
2.0
 43
2.0
 50
90.0
  0
MTEXT
  5
3A7
330
3A1
100
AcDbEntity
  8
SUNPO
 62
     0
100
AcDbMText
 10
-48.0362171104593
 20
23.61927051837827
 30
0.0
 40
2.5
 41
0.0
 71
     5
 72
     1
  1
\A1;516
 11
0.0000000000000001
 21
1.0
 31
0.0
 73
     1
 44
1.0
1001
ACAD
1000
MTEXTBEGIN
1070
    73
1070
     1
1070
    44
1040
1.0
1070
    74
1070
     0
1000
MTEXTEND
  0
POINT
  5
3A8
330
3A1
100
AcDbEntity
  8
Defpoints
 62
     0
100
AcDbPoint
 10
-38.28621711045929
 20
15.01927051923826
 30
0.0
  0
POINT
  5
3A9
330
3A1
100
AcDbEntity
  8
Defpoints
 62
     0
100
AcDbPoint
 10
-38.28621711045929
 20
32.21927051751829
 30
0.0
  0
POINT
  5
3AA
330
3A1
100
AcDbEntity
  8
Defpoints
 62
     0
100
AcDbPoint
 10
-46.28621711045929
 20
32.21927051751829
 30
0.0
  0
ENDBLK
  5
3AC
330
3A1
100
AcDbEntity
  8
0
100
AcDbBlockEnd
  0
BLOCK
  5
3B7
330
3AD
100
AcDbEntity
  8
0
100
AcDbBlockBegin
  2
*D6
 70
     1
 10
0.0
 20
0.0
 30
0.0
  3
*D6
  1

  0
LINE
  5
3AE
330
3AD
100
AcDbEntity
  8
SUNPO
 62
     0
370
    -2
100
AcDbLine
 10
-27.47779151982877
 20
9.969270519543215
 30
0.0
 11
-27.47779151982877
 21
1.969270519543215
 31
0.0
  0
LINE
  5
3AF
330
3AD
100
AcDbEntity
  8
SUNPO
 62
     0
370
    -2
100
AcDbLine
 10
-1.644458189078761
 20
9.969270519543215
 30
0.0
 11
-1.644458189078762
 21
1.969270519543215
 31
0.0
  0
LINE
  5
3B0
330
3AD
100
AcDbEntity
  8
SUNPO
 62
     0
370
    -2
100
AcDbLine
 10
-25.47779151982877
 20
3.969270519543215
 30
0.0
 11
-3.644458189078762
 21
3.969270519543215
 31
0.0
  0
INSERT
  5
3B1
330
3AD
100
AcDbEntity
  8
SUNPO
 62
     0
370
    -2
100
AcDbBlockReference
  2
_OPEN30
 10
-27.47779151982877
 20
3.969270519543215
 30
0.0
 41
2.0
 42
2.0
 43
2.0
 50
180.0
  0
INSERT
  5
3B2
330
3AD
100
AcDbEntity
  8
SUNPO
 62
     0
370
    -2
100
AcDbBlockReference
  2
_OPEN30
 10
-1.644458189078762
 20
3.969270519543215
 30
0.0
 41
2.0
 42
2.0
 43
2.0
  0
MTEXT
  5
3B3
330
3AD
100
AcDbEntity
  8
SUNPO
 62
     0
100
AcDbMText
 10
-14.56112485445376
 20
5.719270519543215
 30
0.0
 40
2.5
 41
0.0
 71
     5
 72
     1
  1
\A1;775
 73
     1
 44
1.0
1001
ACAD
1000
MTEXTBEGIN
1070
    73
1070
     1
1070
    44
1040
1.0
1070
    74
1070
     0
1000
MTEXTEND
  0
POINT
  5
3B4
330
3AD
100
AcDbEntity
  8
Defpoints
 62
     0
100
AcDbPoint
 10
-27.47779151982877
 20
11.96927051954321
 30
0.0
  0
POINT
  5
3B5
330
3AD
100
AcDbEntity
  8
Defpoints
 62
     0
100
AcDbPoint
 10
-1.644458189078761
 20
11.96927051954321
 30
0.0
  0
POINT
  5
3B6
330
3AD
100
AcDbEntity
  8
Defpoints
 62
     0
100
AcDbPoint
 10
-1.644458189078762
 20
3.969270519543215
 30
0.0
  0
ENDBLK
  5
3B8
330
3AD
100
AcDbEntity
  8
0
100
AcDbBlockEnd
  0
BLOCK
  5
3C3
330
3B9
100
AcDbEntity
  8
0
100
AcDbBlockBegin
  2
*D7
 70
     1
 10
0.0
 20
0.0
 30
0.0
  3
*D7
  1

  0
LINE
  5
3BA
330
3B9
100
AcDbEntity
  8
SUNPO
  6
Continuous
 62
     0
370
    -2
100
AcDbLine
 10
-37.87779151878869
 20
42.14817712930425
 30
0.0
 11
-37.87779151878869
 21
50.14817712930426
 31
0.0
  0
LINE
  5
3BB
330
3B9
100
AcDbEntity
  8
SUNPO
  6
Continuous
 62
     0
370
    -2
100
AcDbLine
 10
8.755541809881265
 20
42.14817712930425
 30
0.0
 11
8.755541809881265
 21
50.14817712930426
 31
0.0
  0
LINE
  5
3BC
330
3B9
100
AcDbEntity
  8
SUNPO
  6
Continuous
 62
     0
370
    -2
100
AcDbLine
 10
-35.87779151878868
 20
48.14817712930426
 30
0.0
 11
6.755541809881265
 21
48.14817712930426
 31
0.0
  0
INSERT
  5
3BD
330
3B9
100
AcDbEntity
  8
SUNPO
  6
Continuous
 62
     0
370
    -2
100
AcDbBlockReference
  2
_OPEN30
 10
-37.87779151878869
 20
48.14817712930426
 30
0.0
 41
2.0
 42
2.0
 43
2.0
 50
180.0
  0
INSERT
  5
3BE
330
3B9
100
AcDbEntity
  8
SUNPO
  6
Continuous
 62
     0
370
    -2
100
AcDbBlockReference
  2
_OPEN30
 10
8.755541809881265
 20
48.14817712930426
 30
0.0
 41
2.0
 42
2.0
 43
2.0
  0
MTEXT
  5
3BF
330
3B9
100
AcDbEntity
  8
SUNPO
  6
Continuous
 62
     0
100
AcDbMText
 10
-14.56112485445371
 20
49.89817712930426
 30
0.0
 40
2.5
 41
0.0
 71
     5
 72
     1
  1
\A1;1399
 73
     1
 44
1.0
1001
ACAD
1000
MTEXTBEGIN
1070
    73
1070
     1
1070
    44
1040
1.0
1070
    74
1070
     0
1000
MTEXTEND
  0
POINT
  5
3C0
330
3B9
100
AcDbEntity
  8
Defpoints
  6
Continuous
 62
     0
100
AcDbPoint
 10
-37.87779151878869
 20
40.14817712930425
 30
0.0
  0
POINT
  5
3C1
330
3B9
100
AcDbEntity
  8
Defpoints
  6
Continuous
 62
     0
100
AcDbPoint
 10
8.755541809881265
 20
40.14817712930425
 30
0.0
  0
POINT
  5
3C2
330
3B9
100
AcDbEntity
  8
Defpoints
  6
Continuous
 62
     0
100
AcDbPoint
 10
8.755541809881265
 20
48.14817712930426
 30
0.0
  0
ENDBLK
  5
3C4
330
3B9
100
AcDbEntity
  8
0
100
AcDbBlockEnd
  0
BLOCK
  5
3CF
330
3C5
100
AcDbEntity
  8
0
100
AcDbBlockBegin
  2
*D8
 70
     1
 10
0.0
 20
0.0
 30
0.0
  3
*D8
  1

  0
LINE
  5
3C6
330
3C5
100
AcDbEntity
  8
SUNPO
  6
Continuous
 62
     0
370
    -2
100
AcDbLine
 10
10.75812547883788
 20
40.15260385006143
 30
0.0
 11
18.75812547883789
 21
40.15260385006143
 31
0.0
  0
LINE
  5
3C7
330
3C5
100
AcDbEntity
  8
SUNPO
  6
Continuous
 62
     0
370
    -2
100
AcDbLine
 10
10.75812547883788
 20
12.05260385287147
 30
0.0
 11
18.75812547883788
 21
12.05260385287147
 31
0.0
  0
LINE
  5
3C8
330
3C5
100
AcDbEntity
  8
SUNPO
  6
Continuous
 62
     0
370
    -2
100
AcDbLine
 10
16.75812547883788
 20
38.15260385006143
 30
0.0
 11
16.75812547883788
 21
14.05260385287147
 31
0.0
  0
INSERT
  5
3C9
330
3C5
100
AcDbEntity
  8
SUNPO
  6
Continuous
 62
     0
370
    -2
100
AcDbBlockReference
  2
_OPEN30
 10
16.75812547883789
 20
40.15260385006143
 30
0.0
 41
2.0
 42
2.0
 43
2.0
 50
90.0
  0
INSERT
  5
3CA
330
3C5
100
AcDbEntity
  8
SUNPO
  6
Continuous
 62
     0
370
    -2
100
AcDbBlockReference
  2
_OPEN30
 10
16.75812547883788
 20
12.05260385287147
 30
0.0
 41
2.0
 42
2.0
 43
2.0
 50
270.0
  0
MTEXT
  5
3CB
330
3C5
100
AcDbEntity
  8
SUNPO
  6
Continuous
 62
     0
100
AcDbMText
 10
15.00812547883788
 20
26.10260385146645
 30
0.0
 40
2.5
 41
0.0
 71
     5
 72
     1
  1
\A1;843
 11
0.0000000000000001
 21
1.0
 31
0.0
 73
     1
 44
1.0
1001
ACAD
1000
MTEXTBEGIN
1070
    73
1070
     1
1070
    44
1040
1.0
1070
    74
1070
     0
1000
MTEXTEND
  0
POINT
  5
3CC
330
3C5
100
AcDbEntity
  8
Defpoints
  6
Continuous
 62
     0
100
AcDbPoint
 10
8.758125478837882
 20
40.15260385006143
 30
0.0
  0
POINT
  5
3CD
330
3C5
100
AcDbEntity
  8
Defpoints
  6
Continuous
 62
     0
100
AcDbPoint
 10
8.758125478837882
 20
12.05260385287147
 30
0.0
  0
POINT
  5
3CE
330
3C5
100
AcDbEntity
  8
Defpoints
  6
Continuous
 62
     0
100
AcDbPoint
 10
16.75812547883788
 20
12.05260385287147
 30
0.0
  0
ENDBLK
  5
3D0
330
3C5
100
AcDbEntity
  8
0
100
AcDbBlockEnd
  0
ENDSEC
  0
SECTION
  2
ENTITIES
  0
ARC
  5
2E
330
2
100
AcDbEntity
  8
GAIKEI
100
AcDbCircle
 10
36.59026222843642
 20
16.25108360648619
 30
0.0
 40
0.1733878981046918
100
AcDbArc
 50
281.0963120935033
 51
359.1773757409216
  0
LINE
  5
30
330
2
100
AcDbEntity
  8
GAIKEI
  6
Continuous
 62
     7
100
AcDbLine
 10
36.62363225595709
 20
16.08093718579971
 30
0.0
 11
36.62363225595709
 21
14.8991236301174
 31
0.0
  0
LINE
  5
31
330
2
100
AcDbEntity
  8
GAIKEI
  6
Continuous
 62
     7
100
AcDbLine
 10
36.62363225595709
 20
14.8991236301174
 30
0.0
 11
36.62363225595703
 21
13.19760385275407
 31
0.0
  0
SPLINE
  5
32
330
2
100
AcDbEntity
  8
GAIKEI
  6
Continuous
 62
     7
100
AcDbSpline
210
0.0
220
0.0
230
1.0
 70
     8
 71
     3
 72
     9
 73
     5
 74
     3
 42
0.0000000001
 43
0.0000000001
 44
0.000001
 12
-0.0186000761728346
 22
0.9998270036193087
 32
0.0
 13
-0.0399425752926383
 23
0.9992019769190772
 33
0.0
 40
0.0
 40
0.0
 40
0.0
 40
0.0
 40
0.0176368527663171
 40
0.0213526946101107
 40
0.0213526946101107
 40
0.0213526946101107
 40
0.0213526946101107
 10
36.7624173191245
 20
37.24164494257337
 30
0.0
 10
36.76230797018954
 20
37.24752287645822
 30
0.0
 10
36.76211282692376
 20
37.25463829016911
 30
0.0
 10
36.76184174884168
 20
37.26175068647734
 30
0.0
 10
36.76179227541081
 20
37.26298831198278
 30
0.0
 11
36.7624173191245
 21
37.24164494257337
 31
0.0
 11
36.76193379676067
 21
37.25927518249773
 31
0.0
 11
36.76179227541081
 21
37.26298831198278
 31
0.0
  0
SPLINE
  5
33
330
2
100
AcDbEntity
  8
GAIKEI
  6
Continuous
 62
     7
100
AcDbSpline
210
0.0
220
0.0
230
1.0
 70
     8
 71
     3
 72
     9
 73
     5
 74
     3
 42
0.0000000001
 43
0.0000000001
 44
0.000001
 12
-0.0399492825279237
 22
0.9992017087783146
 32
0.0
 13
-0.0908198773464509
 23
0.9958673354813761
 33
0.0
 40
0.0
 40
0.0
 40
0.0
 40
0.0
 40
0.0323623432609036
 40
0.0509924812973781
 40
0.0509924812973781
 40
0.0509924812973781
 40
0.0509924812973781
 10
36.76179227541081
 20
37.26298831198278
 30
0.0
 10
36.76136132461275
 20
37.27376714821156
 30
0.0
 10
36.76040741148862
 20
37.29074166734313
 30
0.0
 10
36.75902143014008
 20
37.30768339769372
 30
0.0
 10
36.75845743452294
 20
37.31386777966907
 30
0.0
 11
36.76179227541081
 21
37.26298831198278
 31
0.0
 11
36.75997654796635
 21
37.29529991908288
 31
0.0
 11
36.75845743452294
 21
37.31386777966907
 31
0.0
  0
SPLINE
  5
34
330
2
100
AcDbEntity
  8
GAIKEI
  6
Continuous
 62
     7
100
AcDbSpline
210
0.0
220
0.0
230
1.0
 70
     8
 71
     3
 72
     9
 73
     5
 74
     3
 42
0.0000000001
 43
0.0000000001
 44
0.000001
 12
-0.0908223106603705
 22
0.9958671135680257
 32
0.0
 13
-0.1103459603277674
 23
0.9938932382501366
 33
0.0
 40
0.0
 40
0.0
 40
0.0
 40
0.0
 40
0.0097182395578573
 40
0.0196238847975579
 40
0.0196238847975579
 40
0.0196238847975579
 40
0.0196238847975579
 10
36.75845743452294
 20
37.31386777966907
 30
0.0
 10
36.75816322353219
 20
37.31709380472819
 30
0.0
 10
36.75753747020551
 20
37.32360521607933
 30
0.0
 10
36.75684786099541
 20
37.33011018055436
 30
0.0
 10
36.7564835116832
 20
37.33339189849579
 30
0.0
 11
36.75845743452294
 21
37.31386777966907
 31
0.0
 11
36.7575277873392
 21
37.32354145143472
 31
0.0
 11
36.7564835116832
 21
37.33339189849579
 31
0.0
  0
SPLINE
  5
35
330
2
100
AcDbEntity
  8
GAIKEI
  6
Continuous
 62
     7
100
AcDbSpline
210
0.0
220
0.0
230
1.0
 70
     8
 71
     3
 72
     9
 73
     5
 74
     3
 42
0.0000000001
 43
0.0000000001
 44
0.000001
 12
0.1103453711681145
 22
0.9938933036607958
 32
0.0
 13
0.0891001703377536
 23
0.9960226702469093
 33
0.0
 40
0.0
 40
0.0
 40
0.0
 40
0.0
 40
0.0176368488575882
 40
0.0213526907055653
 40
0.0213526907055653
 40
0.0213526907055653
 40
0.0213526907055653
 10
36.75648351182934
 20
36.80205108910968
 30
0.0
 10
36.75713222670714
 20
36.80789413776876
 30
0.0
 10
36.75785526524584
 20
36.81497540812848
 30
0.0
 10
36.75850261293411
 20
36.82206346759614
 30
0.0
 10
36.75861297364799
 20
36.82329715516937
 30
0.0
 11
36.75648351182934
 21
36.80205108910968
 31
0.0
 11
36.75827501745369
 21
36.8195967302604
 31
0.0
 11
36.75861297364799
 21
36.82329715516937
 31
0.0
  0
SPLINE
  5
36
330
2
100
AcDbEntity
  8
GAIKEI
  6
Continuous
 62
     7
100
AcDbSpline
210
0.0
220
0.0
230
1.0
 70
     8
 71
     3
 72
     9
 73
     5
 74
     3
 42
0.0000000001
 43
0.0000000001
 44
0.000001
 12
0.0890934844436245
 22
0.9960232683174092
 32
0.0
 13
0.0382171861496897
 23
0.9992694564944933
 33
0.0
 40
0.0
 40
0.0
 40
0.0
 40
0.0
 40
0.0323623432944468
 40
0.050992481325836
 40
0.050992481325836
 40
0.050992481325836
 40
0.050992481325836
 10
36.75861297364799
 20
36.82329715516937
 30
0.0
 10
36.7595740649576
 20
36.83404170414889
 30
0.0
 10
36.76081463389511
 20
36.85099768359658
 30
0.0
 10
36.76162251058378
 20
36.86797680333666
 30
0.0
 10
36.76185984106814
 20
36.87418231263837
 30
0.0
 11
36.75861297364799
 21
36.82329715516937
 31
0.0
 11
36.76097452099123
 21
36.85557346096573
 31
0.0
 11
36.76185984106814
 21
36.87418231263837
 31
0.0
  0
SPLINE
  5
37
330
2
100
AcDbEntity
  8
GAIKEI
  6
Continuous
 62
     7
100
AcDbSpline
210
0.0
220
0.0
230
1.0
 70
     8
 71
     3
 72
     9
 73
     5
 74
     3
 42
0.0000000001
 43
0.0000000001
 44
0.000001
 12
0.0382147445236314
 22
0.9992695498718017
 32
0.0
 13
0.0185994861975264
 23
0.9998270145946188
 33
0.0
 40
0.0
 40
0.0
 40
0.0
 40
0.0
 40
0.009718239592517
 40
0.0196238859719798
 40
0.0196238859719798
 40
0.0196238859719798
 40
0.0196238859719798
 10
36.76185984106814
 20
36.87418231263837
 30
0.0
 10
36.76198363441589
 20
36.87741935960611
 30
0.0
 10
36.76220184727345
 20
36.88395712935437
 30
0.0
 10
36.76235590578782
 20
36.89049673138959
 30
0.0
 10
36.76241731909886
 20
36.89379804233863
 30
0.0
 11
36.76185984106814
 21
36.87418231263837
 31
0.0
 11
36.7621840313625
 21
36.88389514284603
 31
0.0
 11
36.76241731909886
 21
36.89379804233863
 31
0.0
  0
SPLINE
  5
38
330
2
100
AcDbEntity
  8
GAIKEI
  6
Continuous
 62
     1
100
AcDbSpline
210
0.0
220
0.0
230
1.0
 70
     8
 71
     3
 72
    15
 73
    11
 74
     9
 42
0.0000000001
 43
0.0000000001
 44
0.000001
 12
0.9801140074554865
 22
-0.1984352095509935
 32
0.0
 13
-0.6668668435619632
 23
-0.7451769004455951
 33
0.0
 40
0.0
 40
0.0
 40
0.0
 40
0.0
 40
0.0000042341417492
 40
0.0000059935105034
 40
0.0000065819295481
 40
0.0000069761875161
 40
0.0000076199718229
 40
0.000009607482424
 40
0.0000176637919407
 40
0.0000201818745383
 40
0.0000201818745383
 40
0.0000201818745383
 40
0.0000201818745383
 10
36.37262652483367
 20
39.06578277994612
 30
0.0
 10
36.37262790814754
 20
39.06578249987854
 30
0.0
 10
36.37262965990118
 20
39.06578140340889
 30
0.0
 10
36.372631885619
 20
39.06578114155485
 30
0.0
 10
36.37263273777882
 20
39.06578090352463
 30
0.0
 10
36.37263335543915
 20
39.06578090381538
 30
0.0
 10
36.37263346010369
 20
39.06577961259007
 30
0.0
 10
36.3726308318598
 20
39.06577710801844
 30
0.0
 10
36.37262901667379
 20
39.06577325823253
 30
0.0
 10
36.37262671041538
 20
39.06577058020707
 30
0.0
 10
36.37262615067346
 20
39.06576995473472
 30
0.0
 11
36.37262652483367
 21
39.06578277994612
 31
0.0
 11
36.3726314338038
 21
39.06578178606731
 31
0.0
 11
36.3726331604575
 21
39.065781436485
 31
0.0
 11
36.37263373795696
 21
39.06578131956269
 31
0.0
 11
36.37263412490483
 21
39.06578124121961
 31
0.0
 11
36.37263431603401
 21
39.06578053878332
 31
0.0
 11
36.37263333377985
 21
39.06577874643785
 31
0.0
 11
36.37262784912207
 21
39.06577189201926
 31
0.0
 11
36.37262615067346
 21
39.06576995473472
 31
0.0
  0
SPLINE
  5
39
330
2
100
AcDbEntity
  8
GAIKEI
  6
Continuous
 62
     1
100
AcDbSpline
210
0.0
220
0.0
230
1.0
 70
     8
 71
     3
 72
    11
 73
     7
 74
     5
 42
0.0000000001
 43
0.0000000001
 44
0.000001
 12
-0.6802432327858542
 22
-0.7329864557064138
 32
0.0
 13
-0.7222769166518248
 23
-0.6916039731464339
 33
0.0
 40
0.0
 40
0.0
 40
0.0
 40
0.0
 40
0.0000340968029653
 40
0.00018420189433
 40
0.000436822267801
 40
0.0005227738201209
 40
0.0005227738201209
 40
0.0005227738201209
 40
0.0005227738201209
 10
36.37262615067346
 20
39.06576995473472
 30
0.0
 10
36.3726184193003
 20
39.06576162390314
 30
0.0
 10
36.37257644794676
 20
39.06571680439441
 30
0.0
 10
36.37247306443368
 20
39.06561421327973
 30
0.0
 10
36.37235546337274
 20
39.06550151347477
 30
0.0
 10
36.37227354520709
 20
39.0654238828156
 30
0.0
 10
36.37225285159968
 20
39.06540406800388
 30
0.0
 11
36.37262615067346
 21
39.06576995473472
 31
0.0
 11
36.37260279920776
 21
39.06574510427186
 31
0.0
 11
36.37249637698449
 21
39.06563921313546
 31
0.0
 11
36.37231485823509
 21
39.06546356781041
 31
0.0
 11
36.37225285159968
 21
39.06540406800388
 31
0.0
  0
SPLINE
  5
3A
330
2
100
AcDbEntity
  8
GAIKEI
  6
Continuous
 62
     7
100
AcDbSpline
210
0.0
220
0.0
230
1.0
 70
     8
 71
     3
 72
    21
 73
    17
 74
    15
 42
0.0000000001
 43
0.0000000001
 44
0.000001
 12
-0.0013916012638279
 22
-0.9999990317224925
 32
0.0
 13
-0.9986140251619186
 23
-0.0526310625953074
 33
0.0
 40
0.0
 40
0.0
 40
0.0
 40
0.0
 40
0.01872484655389
 40
0.0375079554395033
 40
0.0562319890361226
 40
0.0749607111800175
 40
0.0937519265012365
 40
0.1124853893347753
 40
0.1312047125897737
 40
0.1499846267117136
 40
0.1687066216817042
 40
0.1874258348967863
 40
0.2062069529783252
 40
0.2249293717864589
 40
0.2389311533243576
 40
0.2529324484419745
 40
0.2529324484419745
 40
0.2529324484419745
 40
0.2529324484419745
 10
36.63029892262313
 20
13.1842584658267
 30
0.0
 10
36.63029023678308
 20
13.17801685635237
 30
0.0
 10
36.62958041748519
 20
13.16550347958286
 30
0.0
 10
36.6264204229154
 20
13.14699039711752
 30
0.0
 10
36.6212303279371
 20
13.12893566868649
 30
0.0
 10
36.61399613204106
 20
13.11159568790333
 30
0.0
 10
36.60488236582387
 20
13.09516506472261
 30
0.0
 10
36.59400138137096
 20
13.07984794783391
 30
0.0
 10
36.5814337978903
 20
13.06588653352906
 30
0.0
 10
36.56739991483028
 20
13.05340969305126
 30
0.0
 10
36.55206646072659
 20
13.04256507510842
 30
0.0
 10
36.53558736478903
 20
13.03355527357848
 30
0.0
 10
36.51821386134839
 20
13.02642862157438
 30
0.0
 10
36.50166657458499
 20
13.0217093200464
 30
0.0
 10
36.48632109694037
 20
13.018948600643
 30
0.0
 10
36.47701554523766
 20
13.01806584439748
 30
0.0
 10
36.47235491534605
 20
13.0178202100509
 30
0.0
 11
36.63029892262313
 21
13.1842584658267
 31
0.0
 11
36.62923392050243
 21
13.16556338587497
 31
0.0
 11
36.62607837315295
 21
13.14704722880157
 31
0.0
 11
36.62089146909364
 21
13.1290559508393
 31
0.0
 11
36.61369277825554
 21
13.11176592935601
 31
0.0
 11
36.60457784258631
 21
13.09533338290725
 31
0.0
 11
36.59371798026024
 21
13.08006882090501
 31
0.0
 11
36.58120392720525
 21
13.06614716890505
 31
0.0
 11
36.56716877694231
 21
13.05366916502953
 31
0.0
 11
36.55187568877443
 21
13.04286937735213
 31
0.0
 11
36.53545756165346
 21
13.0338774503241
 31
0.0
 11
36.51808106714691
 21
13.02675084155191
 31
0.0
 11
36.50007407426165
 21
13.02162460818306
 31
0.0
 11
36.48629436083712
 21
13.01914075010569
 31
0.0
 11
36.47235491534605
 21
13.0178202100509
 31
0.0
  0
SPLINE
  5
3B
330
2
100
AcDbEntity
  8
GAIKEI
  6
Continuous
 62
     1
100
AcDbSpline
210
0.0
220
0.0
230
1.0
 70
     8
 71
     3
 72
    19
 73
    15
 74
    13
 42
0.0000000001
 43
0.0000000001
 44
0.000001
 12
0.99939277932344
 22
-0.0348435451148412
 32
0.0
 13
0.1338564090112065
 23
-0.9910007375207268
 33
0.0
 40
0.0
 40
0.0
 40
0.0
 40
0.0
 40
0.0349325801470179
 40
0.0698163163258534
 40
0.1051353552658993
 40
0.140339811668032
 40
0.1751159645105318
 40
0.2099450791635189
 40
0.2447457581920996
 40
0.2795219113342183
 40
0.3147548170470293
 40
0.3500601571598728
 40
0.384943893362708
 40
0.4198907594145731
 40
0.4198907594145731
 40
0.4198907594145731
 40
0.4198907594145731
 10
36.11257629801071
 20
38.92957205206005
 30
0.0
 10
36.12421342079807
 20
38.92916632708261
 30
0.0
 10
36.14744803947204
 20
38.92699397795201
 30
0.0
 10
36.18178514551994
 20
38.91960072394193
 30
0.0
 10
36.21510139520032
 20
38.90819907989322
 30
0.0
 10
36.24690515733173
 20
38.89317144304903
 30
0.0
 10
36.27659607186982
 20
38.8746025924595
 30
0.0
 10
36.30377181836232
 20
38.85273486149907
 30
0.0
 10
36.32823359179364
 20
38.82786810484163
 30
0.0
 10
36.34965626292853
 20
38.80016567980516
 30
0.0
 10
36.36777371799255
 20
38.77000949558914
 30
0.0
 10
36.38243459696986
 20
38.73798782418919
 30
0.0
 10
36.39319911342381
 20
38.70455361323707
 30
0.0
 10
36.3976684933223
 20
38.68164481638337
 30
0.0
 10
36.39922778065426
 20
38.67010069303956
 30
0.0
 11
36.11257629801071
 21
38.92957205206005
 31
0.0
 11
36.14735660865302
 21
38.92630796699222
 31
0.0
 11
36.18146114521926
 21
38.91897608168654
 31
0.0
 11
36.21488990770934
 21
38.90757639614293
 31
0.0
 11
36.24670315837909
 21
38.89250089651909
 31
0.0
 11
36.27618219722183
 21
38.87405183640016
 31
0.0
 11
36.30332702423777
 21
38.85222921578606
 31
0.0
 11
36.32771958478372
 21
38.82740802674835
 31
0.0
 11
36.34900452389695
 21
38.79990651920218
 31
0.0
 11
36.36718184157758
 21
38.7697246931474
 31
0.0
 11
36.38184250169974
 21
38.73760721125143
 31
0.0
 11
36.392524481392
 21
38.7043992112155
 31
0.0
 11
36.39922778065426
 21
38.67010069303956
 31
0.0
  0
SPLINE
  5
3C
330
2
100
AcDbEntity
  8
GAIKEI
  6
Continuous
 62
     1
100
AcDbSpline
210
0.0
220
0.0
230
1.0
 70
     8
 71
     3
 72
    30
 73
    26
 74
    24
 42
0.0000000001
 43
0.0000000001
 44
0.000001
 12
-0.008889748260986
 22
0.9999604854072268
 32
0.0
 13
0.9995504004609111
 23
-0.0299832776465868
 33
0.0
 40
0.0
 40
0.0
 40
0.0
 40
0.0
 40
0.0068323455123796
 40
0.015556369997524
 40
0.0261770725762171
 40
0.0381933627634339
 40
0.0483956005058822
 40
0.0566151722689083
 40
0.0678949724284456
 40
0.0792553042764279
 40
0.090319900055335
 40
0.1011188636614869
 40
0.1116845699052355
 40
0.1220515791400769
 40
0.1322564706364148
 40
0.1545395722882998
 40
0.1761387589362387
 40
0.1903726740843474
 40
0.2046199638202713
 40
0.2190100797910472
 40
0.2343725772863446
 40
0.2496016167041171
 40
0.2648835252961521
 40
0.288343624253925
 40
0.3112196021452743
 40
0.3112196021452743
 40
0.3112196021452743
 40
0.3112196021452743
 10
35.11287569883791
 20
38.72978461403437
 30
0.0
 10
35.11285545289402
 20
38.73206197254603
 30
0.0
 10
35.1127501518908
 20
38.73724722639446
 30
0.0
 10
35.11227303552443
 20
38.74596109527795
 30
0.0
 10
35.11152549578139
 20
38.75638798615625
 30
0.0
 10
35.11066875921483
 20
38.76730102740146
 30
0.0
 10
35.11003249414301
 20
38.77742742922851
 30
0.0
 10
35.10956499443114
 20
38.78731776743411
 30
0.0
 10
35.10948075166059
 20
38.79760797421682
 30
0.0
 10
35.10991645620209
 20
38.80883885906456
 30
0.0
 10
35.11090902084578
 20
38.81987399442193
 30
0.0
 10
35.11245205434992
 20
38.83057856662475
 30
0.0
 10
35.11454714456448
 20
38.84095190730562
 30
0.0
 10
35.11719107714777
 20
38.85099568558576
 30
0.0
 10
35.12167263380451
 20
38.86456635959451
 30
0.0
 10
35.12891555287899
 20
38.88113812983295
 30
0.0
 10
35.13904939748352
 20
38.89772574305278
 30
0.0
 10
35.14940997976868
 20
38.91084601359114
 30
0.0
 10
35.15931851223604
 20
38.92117392464576
 30
0.0
 10
35.17043611089787
 20
38.93077209510477
 30
0.0
 10
35.18272111225576
 20
38.93941873241613
 30
0.0
 10
35.19615944528357
 20
38.94678483668923
 30
0.0
 10
35.21282243809998
 20
38.95364524619947
 30
0.0
 10
35.23282306184689
 20
38.95881269354755
 30
0.0
 10
35.24834906634286
 20
38.95971400174125
 30
0.0
 10
35.25597096396359
 20
38.95948536947571
 30
0.0
 11
35.11287569883791
 21
38.72978461403437
 31
0.0
 11
35.11272760451561
 21
38.73661513592049
 31
0.0
 11
35.11228456066175
 21
38.74532791068077
 31
0.0
 11
35.11154656727632
 21
38.75592293831511
 31
0.0
 11
35.11065415848384
 21
38.76790604329239
 31
0.0
 11
35.11001925312189
 21
38.77808850734539
 31
0.0
 11
35.10965726666416
 21
38.78630010715904
 31
0.0
 11
35.10956798780484
 21
38.7975795577292
 31
0.0
 11
35.11001684139683
 21
38.80893102332948
 31
0.0
 11
35.11101512865844
 21
38.81995049801623
 31
0.0
 11
35.11256284958972
 21
38.83063798178944
 31
0.0
 11
35.11466000419062
 21
38.84099347464917
 31
0.0
 11
35.11730659246121
 21
38.85101697659525
 31
0.0
 11
35.1205026144014
 21
38.86070848762784
 31
0.0
 11
35.12946396679775
 21
38.88111023987239
 31
0.0
 11
35.14075592699192
 21
38.89952265842004
 31
0.0
 11
35.14957868256459
 21
38.9106924187314
 31
0.0
 11
35.15943726382511
 21
38.92097803073296
 31
0.0
 11
35.17033167077352
 21
38.93037949442487
 31
0.0
 11
35.18290956747251
 21
38.93920009996282
 31
0.0
 11
35.19626303113933
 21
38.94652190389172
 31
0.0
 11
35.2103920617738
 21
38.95234490621163
 31
0.0
 11
35.23313617957433
 21
38.95809661506002
 31
0.0
 11
35.25597096396359
 21
38.95948536947571
 31
0.0
  0
SPLINE
  5
3D
330
2
100
AcDbEntity
  8
GAIKEI
  6
Continuous
 62
     1
100
AcDbSpline
210
0.0
220
0.0
230
1.0
 70
     8
 71
     3
 72
    31
 73
    27
 74
    25
 42
0.0000000001
 43
0.0000000001
 44
0.000001
 12
-0.999442812610061
 22
-0.03337760210217
 32
0.0
 13
0.0102088876850998
 23
0.9999478879482836
 33
0.0
 40
0.0
 40
0.0
 40
0.0
 40
0.0
 40
0.0152249671322593
 40
0.0306032386292406
 40
0.0463725272986354
 40
0.0616262613271434
 40
0.0768553026812554
 40
0.0922459996965401
 40
0.1137366029128136
 40
0.1350663025714005
 40
0.1436576372390752
 40
0.1523210390744287
 40
0.1610834194454557
 40
0.1699707907132281
 40
0.1790080860889172
 40
0.192006947501144
 40
0.2052913488212203
 40
0.2189352085615281
 40
0.2330067816282965
 40
0.2475683092977874
 40
0.2584963164614547
 40
0.2687337214113433
 40
0.281385524950416
 40
0.2937299094867085
 40
0.3036389700467155
 40
0.3112591147741091
 40
0.3112591147741091
 40
0.3112591147741091
 40
0.3112591147741091
 10
35.25597096396359
 20
35.17618428577964
 30
0.0
 10
35.2508988026394
 20
35.17601489481467
 30
0.0
 10
35.24066960170904
 20
35.17630338515909
 30
0.0
 10
35.22536267480229
 20
35.17872325370513
 30
0.0
 10
35.21045990153746
 20
35.18299664019435
 30
0.0
 10
35.19617478288976
 20
35.18887494474404
 30
0.0
 10
35.18273797060175
 20
35.19624274746139
 30
0.0
 10
35.16850675560301
 20
35.20625616015036
 30
0.0
 10
35.15405994347867
 20
35.21930903657631
 30
0.0
 10
35.14307771426394
 20
35.23254880566901
 30
0.0
 10
35.13589647845237
 20
35.24322489179247
 30
0.0
 10
35.13146569013566
 20
35.25068555355483
 30
0.0
 10
35.12740784901541
 20
35.25846634620024
 30
0.0
 10
35.12372482961564
 20
35.26656835462876
 30
0.0
 10
35.11994382649465
 20
35.27616226884652
 30
0.0
 10
35.11634365335735
 20
35.28738492168947
 30
0.0
 10
35.11326815403359
 20
35.30034647795003
 30
0.0
 10
35.11108298877275
 20
35.31384890008752
 30
0.0
 10
35.10979518457617
 20
35.32789233025358
 30
0.0
 10
35.1094261048134
 20
35.34108348179143
 30
0.0
 10
35.10973871070652
 20
35.35299151115942
 30
0.0
 10
35.1103914343193
 20
35.3642457942168
 30
0.0
 10
35.11124454366285
 20
35.37595945540471
 30
0.0
 10
35.11214269776548
 20
35.38755971606986
 30
0.0
 10
35.1127201550492
 20
35.39750245959164
 30
0.0
 10
35.11284976777068
 20
35.40334512534571
 30
0.0
 10
35.11287569883791
 20
35.40588504122104
 30
0.0
 11
35.25597096396359
 21
35.17618428577964
 31
0.0
 11
35.24075140027094
 21
35.17662582400215
 31
0.0
 11
35.22555843287438
 21
35.17900597842351
 31
0.0
 11
35.2103920617738
 21
35.18332474904378
 31
0.0
 11
35.19628785922112
 21
35.18913404512927
 31
0.0
 11
35.1829343955543
 21
35.19645584905823
 31
0.0
 11
35.17033167077352
 21
35.20529016083055
 31
0.0
 11
35.15439184379079
 21
35.21970432974513
 31
0.0
 11
35.14077372540123
 21
35.2361208871829
 31
0.0
 11
35.13597655645146
 21
35.24324817894444
 31
0.0
 11
35.13155086087659
 21
35.25069585286968
 31
0.0
 11
35.12749663867658
 21
35.25846390895862
 31
0.0
 11
35.12381388985153
 21
35.26655234721125
 31
0.0
 11
35.1205026144014
 21
35.27496116762757
 31
0.0
 11
35.1165318618555
 21
35.28733871680663
 31
0.0
 11
35.11345038704587
 21
35.30026079287552
 31
0.0
 11
35.11125818997243
 21
35.31372739583407
 31
0.0
 11
35.10995527063534
 21
35.32773852568238
 31
0.0
 11
35.10954162903454
 21
35.34229418242052
 31
0.0
 11
35.10980331795997
 21
35.35321905956278
 31
0.0
 11
35.11036635085577
 21
35.36344097267909
 31
0.0
 11
35.11126073928006
 21
35.37606112294572
 31
0.0
 11
35.11216055787855
 21
35.38837266720884
 31
0.0
 11
35.11269657278405
 21
35.39826722948715
 31
0.0
 11
35.11287569883791
 21
35.40588504122104
 31
0.0
  0
SPLINE
  5
3E
330
2
100
AcDbEntity
  8
GAIKEI
  6
Continuous
 62
     1
100
AcDbSpline
210
0.0
220
0.0
230
1.0
 70
     8
 71
     3
 72
    19
 73
    15
 74
    13
 42
0.0000000001
 43
0.0000000001
 44
0.000001
 12
-0.1339036180066847
 22
-0.9909943597643328
 32
0.0
 13
-0.9993944380603197
 23
-0.0347959361721689
 33
0.0
 40
0.0
 40
0.0
 40
0.0
 40
0.0
 40
0.0349325801472225
 40
0.0698163163259905
 40
0.1051353552658671
 40
0.1403398116673925
 40
0.1751159645099911
 40
0.2099450791634575
 40
0.2447457581911784
 40
0.279521911333312
 40
0.3147548170468615
 40
0.350060157158409
 40
0.3849438933612085
 40
0.4198907594143612
 40
0.4198907594143612
 40
0.4198907594143612
 40
0.4198907594143612
 10
36.39922778065426
 20
35.4655689622158
 30
0.0
 10
36.39766858103158
 20
35.45402963224984
 30
0.0
 10
36.39319994244357
 20
35.4311255305463
 30
0.0
 10
36.38243380489627
 20
35.39769220377645
 30
0.0
 10
36.36778044906879
 20
35.36567269186935
 30
0.0
 10
36.3496691978209
 20
35.33551822730698
 30
0.0
 10
36.32824402252891
 20
35.30781778539665
 30
0.0
 10
36.30378600644986
 20
35.28294763653781
 30
0.0
 10
36.27661326231831
 20
35.2610758299727
 30
0.0
 10
36.24692062309847
 20
35.24250966807517
 30
0.0
 10
36.21511453381911
 20
35.22747602882157
 30
0.0
 10
36.18179538832493
 20
35.2160671132217
 30
0.0
 10
36.14745756342697
 20
35.2086755600871
 30
0.0
 10
36.12421819919777
 20
35.20650293950217
 30
0.0
 10
36.11257629801071
 20
35.2060976031953
 30
0.0
 11
36.39922778065426
 21
35.4655689622158
 31
0.0
 11
36.39252639995437
 21
35.43128462531928
 31
0.0
 11
36.38184442026204
 21
35.39807662528335
 31
0.0
 11
36.36718184157741
 21
35.36594496210808
 31
0.0
 11
36.34902202193291
 21
35.33578580831483
 31
0.0
 11
36.32773708281968
 21
35.30828430076861
 31
0.0
 11
36.30332702423777
 21
35.28344043946936
 31
0.0
 11
36.27620649486841
 21
35.26163297923438
 31
0.0
 11
36.24672745602561
 21
35.24318391911549
 31
0.0
 11
36.21488990770934
 21
35.2280932591126
 31
0.0
 11
36.18147544691914
 21
35.21669407455557
 31
0.0
 11
36.14737091035295
 21
35.20936218924982
 31
0.0
 11
36.11257629801071
 21
35.2060976031953
 31
0.0
  0
SPLINE
  5
3F
330
2
100
AcDbEntity
  8
GAIKEI
  6
Continuous
 62
     1
100
AcDbSpline
210
0.0
220
0.0
230
1.0
 70
     8
 71
     3
 72
     9
 73
     5
 74
     3
 42
0.0000000001
 43
0.0000000001
 44
0.000001
 12
-0.0000419218573694
 22
-0.999999999121279
 32
0.0
 13
-0.1339175551115832
 23
-0.9909924764764545
 33
0.0
 40
0.0
 40
0.0
 40
0.0
 40
0.0
 40
0.0533667243366924
 40
0.1067334486731494
 40
0.1067334486731494
 40
0.1067334486731494
 40
0.1067334486731494
 10
36.58772411076887
 20
36.91346214586201
 30
0.0
 10
36.5877233650248
 20
36.89567323776544
 30
0.0
 10
36.58652912359201
 20
36.860085335024
 30
0.0
 10
36.58294527776633
 20
36.82465821147116
 30
0.0
 10
36.58056303068383
 20
36.80702953736727
 30
0.0
 11
36.58772411076887
 21
36.91346214586201
 31
0.0
 11
36.58593272023797
 21
36.86012546269007
 31
0.0
 11
36.58056303068383
 21
36.80702953736727
 31
0.0
  0
SPLINE
  5
40
330
2
100
AcDbEntity
  8
GAIKEI
  6
Continuous
 62
     1
100
AcDbSpline
210
0.0
220
0.0
230
1.0
 70
     8
 71
     3
 72
     9
 73
     5
 74
     3
 42
0.0000000001
 43
0.0000000001
 44
0.000001
 12
0.1339175551133076
 22
-0.9909924764762212
 32
0.0
 13
0.0000419218556504
 23
-0.999999999121279
 33
0.0
 40
0.0
 40
0.0
 40
0.0
 40
0.0
 40
0.0533667243357784
 40
0.1067334486732093
 40
0.1067334486732093
 40
0.1067334486732093
 40
0.1067334486732093
 10
36.58056303068383
 20
37.32864011788814
 30
0.0
 10
36.58294527776633
 20
37.31101144378448
 30
0.0
 10
36.58652912359207
 20
37.27558432023159
 30
0.0
 10
36.58772336502483
 20
37.23999641749021
 30
0.0
 10
36.58772411076887
 20
37.22220750939334
 30
0.0
 11
36.58056303068383
 21
37.32864011788814
 31
0.0
 11
36.58593272023797
 21
37.27554419256603
 31
0.0
 11
36.58772411076887
 21
37.22220750939334
 31
0.0
  0
SPLINE
  5
41
330
2
100
AcDbEntity
  8
GAIKEI
  6
Continuous
 62
     1
100
AcDbSpline
210
0.0
220
0.0
230
1.0
 70
     8
 71
     3
 72
     9
 73
     5
 74
     3
 42
0.0000000001
 43
0.0000000001
 44
0.000001
 12
-0.0001573976924944
 22
0.9999999876129832
 32
0.0
 13
-0.1338031185345475
 23
0.9910079341107365
 33
0.0
 40
0.0
 40
0.0
 40
0.0
 40
0.0
 40
0.0444162383073792
 40
0.0888324766147668
 40
0.0888324766147668
 40
0.0888324766147668
 40
0.0888324766147668
 10
36.45447200051297
 20
37.22220750939334
 30
0.0
 10
36.45446967017517
 20
37.2370129219791
 30
0.0
 10
36.45347366218584
 20
37.26663198101551
 30
0.0
 10
36.45049295054841
 20
37.29611750370458
 30
0.0
 10
36.44851194014871
 20
37.31078978522658
 30
0.0
 11
36.45447200051297
 21
37.22220750939334
 31
0.0
 11
36.45297848401799
 21
37.26659866405964
 31
0.0
 11
36.44851194014871
 21
37.31078978522658
 31
0.0
  0
SPLINE
  5
42
330
2
100
AcDbEntity
  8
GAIKEI
  6
Continuous
 62
     1
100
AcDbSpline
210
0.0
220
0.0
230
1.0
 70
     8
 71
     3
 72
     9
 73
     5
 74
     3
 42
0.0000000001
 43
0.0000000001
 44
0.000001
 12
0.1338031185345474
 22
0.9910079341107365
 32
0.0
 13
0.0001573976924943
 23
0.9999999876129832
 33
0.0
 40
0.0
 40
0.0
 40
0.0
 40
0.0
 40
0.044416238307331
 40
0.0888324766146534
 40
0.0888324766146534
 40
0.0888324766146534
 40
0.0888324766146534
 10
36.44851194014871
 20
36.8248798700289
 30
0.0
 10
36.45049295054841
 20
36.83955215155089
 30
0.0
 10
36.45347366218584
 20
36.86903767423991
 30
0.0
 10
36.45446967017517
 20
36.89865673327631
 30
0.0
 10
36.45447200051297
 20
36.91346214586201
 30
0.0
 11
36.44851194014871
 21
36.8248798700289
 31
0.0
 11
36.45297848401799
 21
36.86907099119577
 31
0.0
 11
36.45447200051297
 21
36.91346214586201
 31
0.0
  0
SPLINE
  5
43
330
2
100
AcDbEntity
  8
GAIKEI
  6
Continuous
 62
     1
100
AcDbSpline
210
0.0
220
0.0
230
1.0
 70
     8
 71
     3
 72
    26
 73
    22
 74
    20
 42
0.0000000001
 43
0.0000000001
 44
0.000001
 12
-0.9993627682554919
 22
0.0356939410085291
 32
0.0
 13
0.0003694631600993
 23
-0.9999999317484842
 33
0.0
 40
0.0
 40
0.0
 40
0.0
 40
0.0
 40
0.0092852600822725
 40
0.0187542291166383
 40
0.0288603754263977
 40
0.0395886222091356
 40
0.0458698807902491
 40
0.0520449618698763
 40
0.0596212968049692
 40
0.06858660047163
 40
0.0789264076764945
 40
0.0913155563547206
 40
0.1021010777380939
 40
0.1115135632935206
 40
0.1195685703998906
 40
0.1247254382608509
 40
0.1300790657562416
 40
0.1353005559884855
 40
0.1403916032691039
 40
0.1501849384033085
 40
0.1594721776411728
 40
0.1594721776411728
 40
0.1594721776411728
 40
0.1594721776411728
 10
35.2513205323811
 20
38.82631443280502
 30
0.0
 10
35.2482274179745
 20
38.82642490864692
 30
0.0
 10
35.24196722794574
 20
38.82638037585138
 30
0.0
 10
35.23237724510193
 20
38.82548340579615
 30
0.0
 10
35.22243266940762
 20
38.82362897987594
 30
0.0
 10
35.21373577444956
 20
38.82110659566854
 30
0.0
 10
35.20650720484241
 20
38.81836166822905
 30
0.0
 10
35.20041186290482
 20
38.81562502318366
 30
0.0
 10
35.19372257118337
 20
38.81206140861844
 30
0.0
 10
35.18617642819862
 20
38.80720732201854
 30
0.0
 10
35.17787059556525
 20
38.80064830324398
 30
0.0
 10
35.16993809556087
 20
38.79273687037494
 30
0.0
 10
35.16321522738264
 20
38.78417576335215
 30
0.0
 10
35.15820773467624
 20
38.77618146228611
 30
0.0
 10
35.15481015118752
 20
38.7694377939157
 30
0.0
 10
35.15242436086078
 20
38.76372455042071
 30
0.0
 10
35.15067773549083
 20
38.75877687114268
 30
0.0
 10
35.14921985981966
 20
38.75375954756589
 30
0.0
 10
35.14770561521857
 20
38.74722799107269
 30
0.0
 10
35.14651072640385
 20
38.73924452257012
 30
0.0
 10
35.14620281157553
 20
38.7328803602357
 30
0.0
 10
35.14620395533979
 20
38.72978461403437
 30
0.0
 11
35.2513205323811
 21
38.82631443280502
 31
0.0
 11
35.24203516817812
 21
38.82624979234265
 31
0.0
 11
35.23260751082637
 21
38.82536620829962
 31
0.0
 11
35.22267291004778
 21
38.82351195829608
 31
0.0
 11
35.21236966039874
 21
38.82052217333074
 31
0.0
 11
35.20649750959478
 21
38.81829232585676
 31
0.0
 11
35.20086500732077
 21
38.81576117555807
 31
0.0
 11
35.19417885520863
 21
38.81219795852473
 31
0.0
 11
35.18663951922105
 21
38.80734661566942
 31
0.0
 11
35.17852652352815
 21
38.80093634666844
 31
0.0
 11
35.16975927207454
 21
38.79218264480954
 31
0.0
 11
35.16309883197283
 21
38.78369932231777
 31
0.0
 11
35.15810383948525
 21
38.77572150841923
 31
0.0
 11
35.15448074275747
 21
38.76852729337623
 31
0.0
 11
35.15249327554045
 21
38.76376878337783
 31
0.0
 11
35.15071113612914
 21
38.75872047012592
 31
0.0
 11
35.14925400410687
 21
38.7537064034027
 31
0.0
 11
35.14810418526656
 21
38.74874688844943
 31
0.0
 11
35.1466524134562
 21
38.73906174027849
 31
0.0
 11
35.14620395533979
 21
38.72978461403437
 31
0.0
  0
SPLINE
  5
44
330
2
100
AcDbEntity
  8
GAIKEI
  6
Continuous
 62
     1
100
AcDbSpline
210
0.0
220
0.0
230
1.0
 70
     8
 71
     3
 72
    27
 73
    23
 74
    21
 42
0.0000000001
 43
0.0000000001
 44
0.000001
 12
-0.0003660855578095
 22
-0.9999999329906799
 32
0.0
 13
0.9993581724341888
 23
0.0358223839100428
 33
0.0
 40
0.0
 40
0.0
 40
0.0
 40
0.0
 40
0.0092533747411655
 40
0.0190190708247062
 40
0.0240985957968406
 40
0.029310090226965
 40
0.0346552368323211
 40
0.0401359022252395
 40
0.0478805701848465
 40
0.0570674979754198
 40
0.067712211272334
 40
0.0798340965701196
 40
0.0885521815017436
 40
0.0964426179183258
 40
0.1034976093822014
 40
0.1097100952280817
 40
0.1150738753741411
 40
0.1195836779486458
 40
0.1304434383937725
 40
0.1407221928512296
 40
0.1504043697927698
 40
0.1594759221099249
 40
0.1594759221099249
 40
0.1594759221099249
 40
0.1594759221099249
 10
35.14620395533979
 20
35.40588504122104
 30
0.0
 10
35.14620282616417
 20
35.4028005831807
 30
0.0
 10
35.14650866150601
 20
35.3964569668832
 30
0.0
 10
35.14769600894573
 20
35.38849711374508
 30
0.0
 10
35.14920191962727
 20
35.38198047260062
 30
0.0
 10
35.15065282379609
 20
35.37697154291567
 30
0.0
 10
35.15242857265429
 20
35.37192622132903
 30
0.0
 10
35.15481927522063
 20
35.3662126900357
 30
0.0
 10
35.15819007083894
 20
35.35953575258537
 30
0.0
 10
35.16306216974664
 20
35.35172398698205
 30
0.0
 10
35.1696212632711
 20
35.34330448061599
 30
0.0
 10
35.17702694685099
 20
35.33582677853718
 30
0.0
 10
35.18446049781801
 20
35.32977053287595
 30
0.0
 10
35.19097547541085
 20
35.32530907275748
 30
0.0
 10
35.19707986894446
 20
35.32176548913412
 30
0.0
 10
35.20264660019461
 20
35.31900357723964
 30
0.0
 10
35.20757907161192
 20
35.31689429583116
 30
0.0
 10
35.21405575846581
 20
35.31447833780112
 30
0.0
 10
35.22227719031576
 20
35.31207297687479
 30
0.0
 10
35.23239029348034
 20
35.31017825994752
 30
0.0
 10
35.24203903050719
 20
35.30928481072539
 30
0.0
 10
35.24829862239949
 20
35.30924690090711
 30
0.0
 10
35.2513205323811
 20
35.3093552224504
 30
0.0
 11
35.14620395533979
 21
35.40588504122104
 31
0.0
 11
35.14664918768608
 21
35.39664166315759
 31
0.0
 11
35.14809207966084
 21
35.38698313302234
 31
0.0
 11
35.14923577923065
 21
35.38203402865566
 31
0.0
 11
35.15068594440129
 21
35.37702834859135
 31
0.0
 11
35.15246049436712
 21
35.37198635256425
 31
0.0
 11
35.15457642653724
 21
35.36693059326581
 31
0.0
 11
35.15806567595382
 21
35.36001644773427
 31
0.0
 11
35.16292575915577
 21
35.35222030838031
 31
0.0
 11
35.16946657716176
 21
35.3438221922201
 31
0.0
 11
35.17799293198152
 21
35.33520579376227
 31
0.0
 11
35.1847500775973
 21
35.32969703379422
 31
0.0
 11
35.19126004037247
 21
35.32523836613058
 31
0.0
 11
35.197361055876
 21
35.32169565884158
 31
0.0
 11
35.20292593870085
 21
35.31893391163834
 31
0.0
 11
35.20785729471339
 21
35.31682393701715
 31
0.0
 11
35.21208258179809
 21
35.31524743817909
 31
0.0
 11
35.22250537385162
 21
35.31219779929973
 31
0.0
 11
35.23260801884771
 21
35.31030314689826
 31
0.0
 11
35.24224880688365
 21
35.30940880419229
 31
0.0
 11
35.2513205323811
 21
35.3093552224504
 31
0.0
  0
SPLINE
  5
45
330
2
100
AcDbEntity
  8
GAIKEI
  6
Continuous
 62
     7
100
AcDbSpline
210
0.0
220
0.0
230
1.0
 70
     8
 71
     3
 72
    11
 73
     7
 74
     5
 42
0.0000000001
 43
0.0000000001
 44
0.000001
 12
0.9999972872251811
 22
-0.0023292793475527
 32
0.0
 13
0.9975943841515709
 23
0.0693213149705644
 33
0.0
 40
0.0
 40
0.0
 40
0.0
 40
0.0
 40
0.0058529502933409
 40
0.0117056200744666
 40
0.0234150129732485
 40
0.0332528414292014
 40
0.0332528414292014
 40
0.0332528414292014
 40
0.0332528414292014
 10
35.50623170214886
 20
34.90116816117723
 30
0.0
 10
35.50818268028738
 20
34.90116361679179
 30
0.0
 10
35.5120845698635
 20
34.90116946539405
 30
0.0
 10
35.51988950541477
 20
34.9012066771719
 30
0.0
 10
35.52902154922998
 20
34.9014347631641
 30
0.0
 10
35.53619378254226
 20
34.90183648416519
 30
0.0
 10
35.53946517001555
 20
34.90206380790022
 30
0.0
 11
35.50623170214886
 21
34.90116816117723
 31
0.0
 11
35.51208442047738
 21
34.90117168112545
 31
0.0
 11
35.51793713880579
 21
34.90120950769654
 31
0.0
 11
35.52964257546279
 21
34.90151500789864
 31
0.0
 11
35.53946517001555
 21
34.90206380790022
 31
0.0
  0
SPLINE
  5
46
330
2
100
AcDbEntity
  8
GAIKEI
  6
Continuous
 62
     7
100
AcDbSpline
210
0.0
220
0.0
230
1.0
 70
     8
 71
     3
 72
    11
 73
     7
 74
     5
 42
0.0000000001
 43
0.0000000001
 44
0.000001
 12
0.991479123950323
 22
0.1302656776388178
 32
0.0
 13
0.9795636654643455
 23
0.2011343464007471
 33
0.0
 40
0.0
 40
0.0
 40
0.0
 40
0.0
 40
0.013349854028777
 40
0.0201274708368491
 40
0.0270916512674529
 40
0.0332527050288107
 40
0.0332527050288107
 40
0.0332527050288107
 40
0.0332527050288107
 10
35.53946517001555
 20
34.90206380790022
 30
0.0
 10
35.54387720387464
 20
34.90264348382738
 30
0.0
 10
35.55051408957047
 20
34.90363921392071
 30
0.0
 10
35.55940403650377
 20
34.90522866772148
 30
0.0
 10
35.56591429480775
 20
34.90650635110012
 30
0.0
 10
35.57020377320154
 20
34.90736757978482
 30
0.0
 10
35.5722154880034
 20
34.90778064629194
 30
0.0
 11
35.53946517001555
 21
34.90206380790022
 31
0.0
 11
35.55266731929919
 21
34.90404482678673
 31
0.0
 11
35.55933958914136
 21
34.90523522892988
 31
0.0
 11
35.56617649729628
 21
34.90656233555512
 31
0.0
 11
35.5722154880034
 21
34.90778064629194
 31
0.0
  0
SPLINE
  5
47
330
2
100
AcDbEntity
  8
GAIKEI
  6
Continuous
 62
     1
100
AcDbSpline
210
0.0
220
0.0
230
1.0
 70
     8
 71
     3
 72
    19
 73
    15
 74
    13
 42
0.0000000001
 43
0.0000000001
 44
0.000001
 12
0.8321206011986321
 22
-0.5545947214505627
 32
0.0
 13
0.999207457956537
 23
0.0398052253358201
 33
0.0
 40
0.0
 40
0.0
 40
0.0
 40
0.0
 40
0.0233598276474941
 40
0.0466637535014698
 40
0.0708176800718815
 40
0.0949595793351705
 40
0.1190545478028774
 40
0.143097462680433
 40
0.1681058048795204
 40
0.1932179880989412
 40
0.2183534547586741
 40
0.2434413443518299
 40
0.2738531394083078
 40
0.2744556781651624
 40
0.2744556781651624
 40
0.2744556781651624
 40
0.2744556781651624
 10
35.33462511198934
 20
35.42419617491032
 30
0.0
 10
35.34110450993131
 20
35.41987776254121
 30
0.0
 10
35.35413426962956
 20
35.41138151636835
 30
0.0
 10
35.37407661975391
 20
35.39874681205544
 30
0.0
 10
35.39468136170837
 20
35.38668915259894
 30
0.0
 10
35.41602844912109
 20
35.37542061848569
 30
0.0
 10
35.43789389397062
 20
35.36526947644671
 30
0.0
 10
35.46061077968074
 20
35.35637547880162
 30
0.0
 10
35.48417679128466
 20
35.34882446886314
 30
0.0
 10
35.5087658694394
 20
35.34357653046425
 30
0.0
 10
35.53301438103168
 20
35.33767187033646
 30
0.0
 10
35.56210874948067
 20
35.34318831021403
 30
0.0
 10
35.5741148262816
 20
35.32047203186494
 30
0.0
 10
35.58448183841574
 20
35.32098848503876
 30
0.0
 10
35.58468252548891
 20
35.32099647976906
 30
0.0
 11
35.33462511198934
 21
35.42419617491032
 31
0.0
 11
35.35417754670607
 21
35.41141515670086
 31
0.0
 11
35.37390779241105
 21
35.39901397831807
 31
0.0
 11
35.39477065749679
 21
35.38684203802859
 31
0.0
 11
35.41613444045152
 21
35.37559821356388
 31
0.0
 11
35.43800691040821
 21
35.36549050547143
 31
0.0
 11
35.4603958364998
 21
35.35672691429903
 31
0.0
 11
35.48425607358883
 21
35.34923633888559
 31
0.0
 11
35.50869743829941
 21
35.34347064415829
 31
0.0
 11
35.53351982988767
 21
35.33951567692503
 31
0.0
 11
35.55852314760983
 21
35.33745728399379
 31
0.0
 11
35.58408027871451
 21
35.32097308289241
 31
0.0
 11
35.58468252548891
 21
35.32099647976906
 31
0.0
  0
SPLINE
  5
48
330
2
100
AcDbEntity
  8
GAIKEI
  6
Continuous
 62
     1
100
AcDbSpline
210
0.0
220
0.0
230
1.0
 70
     8
 71
     3
 72
    19
 73
    15
 74
    13
 42
0.0000000001
 43
0.0000000001
 44
0.000001
 12
-0.9992074579578048
 22
0.0398052253039953
 32
0.0
 13
-0.8321206011986632
 23
-0.5545947214505159
 33
0.0
 40
0.0
 40
0.0
 40
0.0
 40
0.0
 40
0.000602609504041
 40
0.0255861337943105
 40
0.0506740614982529
 40
0.0758095722482791
 40
0.1009218035932451
 40
0.1259301920765225
 40
0.1499731449700179
 40
0.1740681571676361
 40
0.1982101094369843
 40
0.2223640715118984
 40
0.2456678406574493
 40
0.2690275756657983
 40
0.2690275756657983
 40
0.2690275756657983
 40
0.2690275756657983
 10
35.58410953749649
 20
38.79826494620653
 30
0.0
 10
35.58390882685959
 20
38.79827294187555
 30
0.0
 10
35.57538652794716
 20
38.79860264211459
 30
0.0
 10
35.55847345792165
 20
38.79854009051161
 30
0.0
 10
35.53346677052065
 20
38.79646590182165
 30
0.0
 10
35.50864596379279
 20
38.7925015828805
 30
0.0
 10
35.48421005963957
 20
38.78673410800025
 30
0.0
 10
35.46060345516085
 20
38.77932058171945
 30
0.0
 10
35.43789696932717
 20
38.7703911680228
 30
0.0
 10
35.41602868841869
 20
38.76024944691011
 30
0.0
 10
35.39468232244127
 20
38.748978352503
 30
0.0
 10
35.37407722713405
 20
38.73692165021487
 30
0.0
 10
35.3541354734368
 20
38.72428606784808
 30
0.0
 10
35.34110448423567
 20
38.71579187558842
 30
0.0
 10
35.33462511198934
 20
38.71147348034503
 30
0.0
 11
35.58410953749649
 21
38.79826494620653
 31
0.0
 11
35.58350729072202
 21
38.79828834308313
 31
0.0
 11
35.55852314760966
 21
38.79821237126157
 31
0.0
 11
35.5335198298875
 21
38.79615397833027
 31
0.0
 11
35.50869743829935
 21
38.79219901109713
 31
0.0
 11
35.48425607358877
 21
38.78643331636988
 31
0.0
 11
35.4603958364998
 21
38.77894274095638
 31
0.0
 11
35.43800691040821
 21
38.77017914978399
 31
0.0
 11
35.41613444045152
 21
38.7600714416916
 31
0.0
 11
35.39477065749679
 21
38.74882761722677
 31
0.0
 11
35.37390779241111
 21
38.73665567693729
 31
0.0
 11
35.35417754670607
 21
38.72425449855456
 31
0.0
 11
35.33462511198934
 21
38.71147348034503
 31
0.0
  0
SPLINE
  5
49
330
2
100
AcDbEntity
  8
GAIKEI
  6
Continuous
 62
     7
100
AcDbSpline
210
0.0
220
0.0
230
1.0
 70
     8
 71
     3
 72
    16
 73
    12
 74
    10
 42
0.0000000001
 43
0.0000000001
 44
0.000001
 12
-0.971670358673164
 22
0.2363402506471658
 32
0.0
 13
-0.860788780788326
 23
0.5089623511311491
 33
0.0
 40
0.0
 40
0.0
 40
0.0
 40
0.0
 40
0.0060221459588541
 40
0.0118461691105721
 40
0.0174915945827638
 40
0.0229780317576329
 40
0.0283243810805879
 40
0.0335530867401806
 40
0.0391974642236462
 40
0.045603422467604
 40
0.0484049652155939
 40
0.0484049652155939
 40
0.0484049652155939
 40
0.0484049652155939
 10
35.07027715774018
 20
39.34059280389403
 30
0.0
 10
35.06832664416558
 20
39.3410672290558
 30
0.0
 10
35.06449996789661
 20
39.34204220827968
 30
0.0
 10
35.058871847094
 20
39.34356679798617
 30
0.0
 10
35.05346268789836
 20
39.34520963795563
 30
0.0
 10
35.04826921349212
 20
39.34700220647943
 30
0.0
 10
35.04328583141936
 20
39.34896485272572
 30
0.0
 10
35.03835897950575
 20
39.35119543771384
 30
0.0
 10
35.03320447170739
 20
39.3537677778084
 30
0.0
 10
35.02885373630224
 20
39.35613259769525
 30
0.0
 10
35.02619775684286
 20
39.35767090300095
 30
0.0
 10
35.02539391132075
 20
39.35814619626223
 30
0.0
 11
35.07027715774018
 21
39.34059280389403
 31
0.0
 11
35.06443966436518
 21
39.34207240482454
 31
0.0
 11
35.05882227575614
 21
39.34361016054049
 31
0.0
 11
35.05342270554155
 21
39.34525813286359
 31
0.0
 11
35.0482383976215
 21
39.34705375513016
 31
0.0
 11
35.04326660370293
 21
39.34901971352929
 31
0.0
 11
35.03849862878133
 21
39.35116585296157
 31
0.0
 11
35.0334455260479
 21
39.35368083580522
 31
0.0
 11
35.02781750738416
 21
39.35674053197266
 31
0.0
 11
35.02539391132075
 21
39.35814619626223
 31
0.0
  0
SPLINE
  5
4A
330
2
100
AcDbEntity
  8
GAIKEI
  6
Continuous
 62
     1
100
AcDbSpline
210
0.0
220
0.0
230
1.0
 70
     8
 71
     3
 72
    29
 73
    25
 74
    23
 42
0.0000000001
 43
0.0000000001
 44
0.000001
 12
-0.9395991756015746
 22
-0.3422767728152782
 32
0.0
 13
-0.0004514849944173
 23
-0.9999998980806449
 33
0.0
 40
0.0
 40
0.0
 40
0.0
 40
0.0
 40
0.0383353211346966
 40
0.0767705540708133
 40
0.1152464065968292
 40
0.153704885020625
 40
0.1902059392717136
 40
0.2268631008773338
 40
0.2636216339172914
 40
0.3004256629909648
 40
0.3372201547322419
 40
0.3739528979906239
 40
0.4103596938387632
 40
0.4469244020053015
 40
0.4835879956593907
 40
0.5202901179240254
 40
0.5569711211426482
 40
0.5935741073630283
 40
0.6302246956092475
 40
0.667017737922067
 40
0.703890569902228
 40
0.740778656909228
 40
0.7776177403006292
 40
0.8143455103308221
 40
0.8143455103308221
 40
0.8143455103308221
 40
0.8143455103308221
 10
35.98742204577388
 20
16.82899642017907
 30
0.0
 10
35.97541543372901
 20
16.82462265684478
 30
0.0
 10
35.95161638874808
 20
16.81517188106375
 30
0.0
 10
35.91677074023249
 20
16.79895215351854
 30
0.0
 10
35.88287345476891
 20
16.78074487196875
 30
0.0
 10
35.85062735711336
 20
16.76095730567346
 30
0.0
 10
35.82006672647836
 20
16.73970357573688
 30
0.0
 10
35.79117227519546
 20
16.71714549201891
 30
0.0
 10
35.76347373985647
 20
16.6929805975509
 30
0.0
 10
35.73709743610107
 20
16.66731312435132
 30
0.0
 10
35.71216907554421
 20
16.64024860782649
 30
0.0
 10
35.68885978228775
 20
16.61194799887175
 30
0.0
 10
35.66722650021745
 20
16.58244195131067
 30
0.0
 10
35.64725989546238
 20
16.55181191716929
 30
0.0
 10
35.62893797521915
 20
16.52005709603776
 30
0.0
 10
35.61234614648959
 20
16.48732145916892
 30
0.0
 10
35.5975699667203
 20
16.45374900222856
 30
0.0
 10
35.58467355334378
 20
16.41942796405783
 30
0.0
 10
35.57372461391148
 20
16.3843977096501
 30
0.0
 10
35.56470795336116
 20
16.34872912231947
 30
0.0
 10
35.55763812258334
 20
16.31254374635171
 30
0.0
 10
35.55254751856296
 20
16.27601162855239
 30
0.0
 10
35.54946289572871
 20
16.23930484862057
 30
0.0
 10
35.54877433538044
 20
16.21477726181331
 30
0.0
 10
35.54876880803476
 20
16.20253467305099
 30
0.0
 11
35.98742204577388
 21
16.82899642017907
 31
0.0
 11
35.95179292983801
 21
16.81484723248473
 31
0.0
 11
35.91694634464244
 21
16.79863049765617
 31
0.0
 11
35.8830512759971
 21
16.78042292401301
 31
0.0
 11
35.85027670971198
 21
16.7603012198748
 31
0.0
 11
35.82030763093167
 21
16.73946418060018
 31
0.0
 11
35.79140995516025
 21
16.71691040548882
 31
0.0
 11
35.76371019367292
 21
16.69274609778983
 31
0.0
 11
35.73733485774506
 21
16.66707746075218
 31
0.0
 11
35.71241045865196
 21
16.64001069762491
 31
0.0
 11
35.68906350766889
 21
16.61165201165704
 31
0.0
 11
35.66753069010747
 21
16.58229569487935
 31
0.0
 11
35.64755916596567
 21
16.55166700114097
 31
0.0
 11
35.6292348419521
 21
16.51991107219714
 31
0.0
 11
35.6126436247755
 21
16.48717304980317
 31
0.0
 11
35.59787142114448
 21
16.45359807571447
 31
0.0
 11
35.58500413776779
 21
16.41933129168626
 31
0.0
 11
35.5740627417814
 21
16.38435198299976
 31
0.0
 11
35.56504045223795
 21
16.34868229825474
 31
0.0
 11
35.55796859161461
 21
16.31249398116927
 31
0.0
 11
35.55287848238823
 21
16.27595877546144
 31
0.0
 11
35.54980144703598
 21
16.23924842484933
 31
0.0
 11
35.54876880803476
 21
16.20253467305099
 31
0.0
  0
SPLINE
  5
4B
330
2
100
AcDbEntity
  8
GAIKEI
  6
Continuous
 62
     1
100
AcDbSpline
210
0.0
220
0.0
230
1.0
 70
     8
 71
     3
 72
    10
 73
     6
 74
     4
 42
0.0000000001
 43
0.0000000001
 44
0.000001
 12
-0.5156837050499993
 22
0.8567790358930974
 32
0.0
 13
-0.4721294856324284
 23
0.8815292104045438
 33
0.0
 40
0.0
 40
0.0
 40
0.0
 40
0.0
 40
0.0243979505840498
 40
0.0488317355780591
 40
0.0494719745770447
 40
0.0494719745770447
 40
0.0494719745770447
 40
0.0494719745770447
 10
36.21517198447958
 20
34.61215711555383
 30
0.0
 10
36.21097810929533
 20
34.61912499974687
 30
0.0
 10
36.20275805156743
 20
34.63317764610088
 30
0.0
 10
36.19488630382043
 20
34.64767018326859
 30
0.0
 10
36.1909382305079
 20
34.65503692330469
 30
0.0
 10
36.19083747193815
 20
34.65522505309775
 30
0.0
 11
36.21517198447958
 21
34.61215711555383
 31
0.0
 11
36.20287558115644
 21
34.63322985577514
 31
0.0
 11
36.19113987753349
 21
34.65466073517843
 31
0.0
 11
36.19083747193815
 21
34.65522505309775
 31
0.0
  0
SPLINE
  5
4C
330
2
100
AcDbEntity
  8
GAIKEI
  6
Continuous
 62
     1
100
AcDbSpline
210
0.0
220
0.0
230
1.0
 70
     8
 71
     3
 72
    10
 73
     6
 74
     4
 42
0.0000000001
 43
0.0000000001
 44
0.000001
 12
-0.5156837050458629
 22
0.8567790358955871
 32
0.0
 13
-0.472129485263637
 23
0.8815292106020613
 33
0.0
 40
0.0
 40
0.0
 40
0.0
 40
0.0
 40
0.0243979505845572
 40
0.0488317355790977
 40
0.0494719745770462
 40
0.0494719745770462
 40
0.0494719745770462
 40
0.0494719745770462
 10
36.21517198447958
 20
17.82549045056203
 30
0.0
 10
36.21097810929527
 20
17.83245833475524
 30
0.0
 10
36.20275805156893
 20
17.84651098110976
 30
0.0
 10
36.19488630381659
 20
17.86100351827662
 30
0.0
 10
36.19093823050767
 20
17.86837025831312
 30
0.0
 10
36.19083747193815
 20
17.86855838810595
 30
0.0
 11
36.21517198447958
 21
17.82549045056203
 31
0.0
 11
36.20287558115621
 21
17.84656319078379
 31
0.0
 11
36.19113987753275
 21
17.86799407018736
 31
0.0
 11
36.19083747193815
 21
17.86855838810595
 31
0.0
  0
SPLINE
  5
4D
330
2
100
AcDbEntity
  8
GAIKEI
  6
Continuous
 62
     1
100
AcDbSpline
210
0.0
220
0.0
230
1.0
 70
     8
 71
     3
 72
    15
 73
    11
 74
     9
 42
0.0000000001
 43
0.0000000001
 44
0.000001
 12
0.0885942834982514
 22
-0.9960677953490073
 32
0.0
 13
-0.2180063119608516
 23
-0.9759473592080814
 33
0.0
 40
0.0
 40
0.0
 40
0.0
 40
0.0
 40
0.0048255640085119
 40
0.0229670284830436
 40
0.0424035984843464
 40
0.0617957075082433
 40
0.0820706656913959
 40
0.1023073658307934
 40
0.1235614426720583
 40
0.144756074839577
 40
0.144756074839577
 40
0.144756074839577
 40
0.144756074839577
 10
36.21694352233215
 20
35.03829782492778
 30
0.0
 10
36.21708602812743
 20
35.03669562862672
 30
0.0
 10
36.21771791712783
 20
35.02906593576614
 30
0.0
 10
36.21844838038356
 20
35.01494444652036
 30
0.0
 10
36.21855344918873
 20
34.9959482300846
 30
0.0
 10
36.21779053500703
 20
34.97625577344337
 30
0.0
 10
36.21617204000847
 20
34.95634765187464
 30
0.0
 10
36.21366933646908
 20
34.93590627425931
 30
0.0
 10
36.21030499013685
 20
34.91527844823162
 30
0.0
 10
36.20748905068678
 20
34.90140771135112
 30
0.0
 10
36.20594886282271
 20
34.89451276292005
 30
0.0
 11
36.21694352233215
 21
35.03829782492778
 31
0.0
 11
36.21734077511184
 21
35.03348788830499
 31
0.0
 11
36.21829055383898
 21
35.01537150457568
 31
0.0
 11
36.21840915599626
 21
34.99593536255998
 31
0.0
 11
36.21766729473143
 21
34.97655748886774
 31
0.0
 11
36.21603311923059
 21
34.95634853708498
 31
0.0
 11
36.21357983867483
 21
34.93626114379879
 31
0.0
 11
36.21016603727736
 21
34.91528312932274
 31
0.0
 11
36.20594886282271
 21
34.89451276292005
 31
0.0
  0
SPLINE
  5
4E
330
2
100
AcDbEntity
  8
GAIKEI
  6
Continuous
 62
     1
100
AcDbSpline
210
0.0
220
0.0
230
1.0
 70
     8
 71
     3
 72
    23
 73
    19
 74
    17
 42
0.0000000001
 43
0.0000000001
 44
0.000001
 12
-0.9849129756083158
 22
-0.1730503697724244
 32
0.0
 13
-0.6878333409424955
 23
-0.7258686486464923
 33
0.0
 40
0.0
 40
0.0
 40
0.0
 40
0.0
 40
0.0028916396693213
 40
0.0074806156068388
 40
0.0114979015101044
 40
0.0162377265258016
 40
0.0216697600812737
 40
0.0308324034659818
 40
0.0411905853844936
 40
0.0524392110510247
 40
0.0644011760974789
 40
0.0770120567927084
 40
0.0902256301875677
 40
0.1039037553610496
 40
0.1179294958654431
 40
0.1369699161221022
 40
0.1564295030281122
 40
0.1762920842784152
 40
0.1762920842784152
 40
0.1762920842784152
 40
0.1762920842784152
 10
36.31993425609608
 20
17.26899273409179
 30
0.0
 10
36.31898491828571
 20
17.26882593432043
 30
0.0
 10
36.31654225112519
 20
17.2682093696439
 30
0.0
 10
36.31325026270292
 20
17.26617075146975
 30
0.0
 10
36.30954341811568
 20
17.26372842744723
 30
0.0
 10
36.3057353592969
 20
17.26091468543887
 30
0.0
 10
36.30066048955754
 20
17.25694356836374
 30
0.0
 10
36.294266238788
 20
17.25162085282329
 30
0.0
 10
36.28654003160256
 20
17.24487489023033
 30
0.0
 10
36.27824541272878
 20
17.23736361352667
 30
0.0
 10
36.26950776448115
 20
17.22922509997221
 30
0.0
 10
36.26038978592365
 20
17.22053519619476
 30
0.0
 10
36.25094573094856
 20
17.21135924522946
 30
0.0
 10
36.24124283286301
 20
17.20177363713196
 30
0.0
 10
36.23023856415676
 20
17.19074228901894
 30
0.0
 10
36.21796788998677
 20
17.17825276176251
 30
0.0
 10
36.20444053219362
 20
17.16427126095686
 30
0.0
 10
36.19539152047853
 20
17.1547885248786
 30
0.0
 10
36.19083747193815
 20
17.14998264987503
 30
0.0
 11
36.31993425609608
 21
17.26899273409179
 31
0.0
 11
36.31714160707685
 21
17.26824222443196
 31
0.0
 11
36.31310782048956
 21
17.26605449278713
 31
0.0
 11
36.30976168140785
 21
17.2638314993456
 31
0.0
 11
36.30593449821436
 21
17.26103535458946
 31
0.0
 11
36.30165262002754
 21
17.25769284707348
 31
0.0
 11
36.29459512270285
 21
17.25184943205681
 31
0.0
 11
36.28678388788319
 21
17.24504676107193
 31
0.0
 11
36.27843933949055
 21
17.23750355717107
 31
0.0
 11
36.26968168325277
 21
17.22935543277691
 31
0.0
 11
36.26054932983249
 21
17.22065863324337
 31
0.0
 11
36.25106978553339
 21
17.21145338105754
 31
0.0
 11
36.24133726934184
 21
17.2018424936598
 31
0.0
 11
36.23143020594671
 21
17.19191417950145
 31
0.0
 11
36.21808345572515
 21
17.17833471876588
 31
0.0
 11
36.20455029184359
 21
17.16435155438495
 31
0.0
 11
36.19083747193815
 21
17.14998264987503
 31
0.0
  0
SPLINE
  5
4F
330
2
100
AcDbEntity
  8
GAIKEI
  6
Continuous
 62
     1
100
AcDbSpline
210
0.0
220
0.0
230
1.0
 70
     8
 71
     3
 72
    23
 73
    19
 74
    17
 42
0.0000000001
 43
0.0000000001
 44
0.000001
 12
-0.9849129756087034
 22
-0.1730503697702195
 32
0.0
 13
-0.6878333403784377
 23
-0.7258686491809936
 33
0.0
 40
0.0
 40
0.0
 40
0.0
 40
0.0
 40
0.002891665116
 40
0.0074806325858976
 40
0.0114979195405492
 40
0.0162377465411796
 40
0.0216697825974962
 40
0.0957228023314612
 40
0.1060809745761117
 40
0.1173295951965953
 40
0.1292915579420736
 40
0.1419024379447541
 40
0.1551160115939216
 40
0.1687941375732301
 40
0.1828198791993365
 40
0.2018603007986936
 40
0.221319890603068
 40
0.2411825403250885
 40
0.2411825403250885
 40
0.2411825403250885
 40
0.2411825403250885
 10
36.3731421235413
 20
34.09285022189431
 30
0.0
 10
36.37219277737668
 20
34.09268342065514
 30
0.0
 10
36.36975016994199
 20
34.0920667738078
 30
0.0
 10
36.36645774872807
 20
34.09002869962751
 30
0.0
 10
36.36275250709386
 20
34.08758431748334
 30
0.0
 10
36.35893728565276
 20
34.08477978525389
 30
0.0
 10
36.33700020081145
 20
34.06726210071344
 30
0.0
 10
36.31045442521656
 20
34.05266331932125
 30
0.0
 10
36.2865487749308
 20
34.03152936353223
 30
0.0
 10
36.27824291800164
 20
34.02403392403238
 30
0.0
 10
36.26950858951426
 20
34.01589073977959
 30
0.0
 10
36.2603896482066
 20
34.00720219341736
 30
0.0
 10
36.25094586938331
 20
33.99802585320776
 30
0.0
 10
36.24124289216195
 20
33.98844035506312
 30
0.0
 10
36.2302386459892
 20
33.9774089733748
 30
0.0
 10
36.21796795826834
 20
33.96491946042232
 30
0.0
 10
36.2044405978915
 20
33.95093792742546
 30
0.0
 10
36.19539153617373
 20
33.94145520644116
 30
0.0
 10
36.19083747193804
 20
33.93664931486688
 30
0.0
 11
36.3731421235413
 21
34.09285022189431
 31
0.0
 11
36.37034947452207
 21
34.09209971223447
 31
0.0
 11
36.36631568793467
 21
34.0899119805897
 31
0.0
 11
36.36296954886586
 21
34.08768898716164
 31
0.0
 11
36.35914236566015
 21
34.08489284238908
 31
0.0
 11
36.35486048747277
 21
34.08155033487606
 31
0.0
 11
36.29459512270245
 21
34.03851609704862
 31
0.0
 11
36.28678388788285
 21
34.03171342606373
 31
0.0
 11
36.27843933949021
 21
34.02417022216287
 31
0.0
 11
36.26968168325243
 21
34.01602209776877
 31
0.0
 11
36.2605493298322
 21
34.00732529823518
 31
0.0
 11
36.2510697855331
 21
33.99812004604939
 31
0.0
 11
36.24133726934161
 21
33.9885091586516
 31
0.0
 11
36.23143020594654
 21
33.97858084449331
 31
0.0
 11
36.21808345603938
 21
33.96500138407896
 31
0.0
 11
36.20455029175099
 21
33.9510182192912
 31
0.0
 11
36.19083747193804
 21
33.93664931486688
 31
0.0
  0
SPLINE
  5
50
330
2
100
AcDbEntity
  8
GAIKEI
  6
Continuous
 62
     1
100
AcDbSpline
210
0.0
220
0.0
230
1.0
 70
     8
 71
     3
 72
    23
 73
    19
 74
    17
 42
0.0000000001
 43
0.0000000001
 44
0.000001
 12
0.687908866031616
 22
-0.7257970735922653
 32
0.0
 13
0.9848252472457861
 23
-0.1735489336967418
 33
0.0
 40
0.0
 40
0.0
 40
0.0
 40
0.0
 40
0.0148520376366268
 40
0.0294909423427522
 40
0.0439090213768244
 40
0.0580959165233481
 40
0.0720371825070075
 40
0.0857131001075332
 40
0.0989753875371758
 40
0.1116331888276869
 40
0.1236398016582767
 40
0.134930716070357
 40
0.1453315651058277
 40
0.1545329327185096
 40
0.1624254765071254
 40
0.1687817589871415
 40
0.1733895755274871
 40
0.1762908917081626
 40
0.1762908917081626
 40
0.1762908917081626
 40
0.1762908917081626
 10
36.1908374719377
 20
17.86855838810595
 30
0.0
 10
36.19424308806066
 20
17.86496519962145
 30
0.0
 10
36.20102309827502
 20
17.85784708797041
 30
0.0
 10
36.21117251099406
 20
17.84730129365584
 30
0.0
 10
36.22122432899971
 20
17.83696956491053
 30
0.0
 10
36.231173654137
 20
17.82686289143601
 30
0.0
 10
36.2410134701318
 20
17.81699594079464
 30
0.0
 10
36.25070544955605
 20
17.80741729774479
 30
0.0
 10
36.2601697835415
 20
17.7982175106099
 30
0.0
 10
36.26931960267649
 20
17.78949329844909
 30
0.0
 10
36.27808776170531
 20
17.78132187154563
 30
0.0
 10
36.28641270119971
 20
17.77378040388987
 30
0.0
 10
36.29416677909151
 20
17.76700147644732
 30
0.0
 10
36.30121394350132
 20
17.76114507109895
 30
0.0
 10
36.30738104638743
 20
17.75632494509421
 30
0.0
 10
36.31255980396995
 20
17.75278922205382
 30
0.0
 10
36.31653044272295
 20
17.75033743065541
 30
0.0
 10
36.31898182628552
 20
17.74971614399902
 30
0.0
 10
36.31993425609386
 20
17.74954830388918
 30
0.0
 11
36.1908374719377
 21
17.86855838810595
 31
0.0
 11
36.20108181214465
 21
17.8578054782925
 31
0.0
 11
36.21123353067429
 21
17.84725843684089
 31
0.0
 11
36.22128865715627
 21
17.83692521950388
 31
0.0
 11
36.23124245228485
 21
17.82681631759914
 31
0.0
 11
36.24108833762557
 21
17.81694629369116
 31
0.0
 11
36.25081734663672
 21
17.8073349968555
 31
0.0
 11
36.26032977320779
 21
17.79809368120214
 31
0.0
 11
36.26949405621133
 21
17.78936237317623
 31
0.0
 11
36.27828234970138
 21
17.78118163267083
 31
0.0
 11
36.28665619452863
 21
17.77360777603974
 31
0.0
 11
36.29449752363695
 21
17.76677469424078
 31
0.0
 11
36.30158282884906
 21
17.76090414501755
 31
0.0
 11
36.30783632287387
 21
17.75608899155816
 31
0.0
 11
36.31308351411116
 21
17.75250168067868
 31
0.0
 11
36.31713263186771
 21
17.75030269982358
 31
0.0
 11
36.31993425609386
 21
17.74954830388918
 31
0.0
  0
SPLINE
  5
51
330
2
100
AcDbEntity
  8
GAIKEI
  6
Continuous
 62
     1
100
AcDbSpline
210
0.0
220
0.0
230
1.0
 70
     8
 71
     3
 72
    13
 73
     9
 74
     7
 42
0.0000000001
 43
0.0000000001
 44
0.000001
 12
-0.7870888971178047
 22
0.6168395804695722
 32
0.0
 13
-0.5665418404738877
 23
0.8240329744570054
 33
0.0
 40
0.0
 40
0.0
 40
0.0
 40
0.0
 40
0.0160011888877399
 40
0.0330147138827545
 40
0.0506047057126222
 40
0.0685176828223869
 40
0.0867522319436776
 40
0.1052046749905702
 40
0.1052046749905702
 40
0.1052046749905702
 40
0.1052046749905702
 10
36.28766663885517
 20
34.53643454706457
 30
0.0
 10
36.28346851948376
 20
34.53972460261145
 30
0.0
 10
36.27494725636629
 20
34.54669472587585
 30
0.0
 10
36.26237245379895
 20
34.55794594782503
 30
0.0
 10
36.24984898107835
 20
34.57018614103026
 30
0.0
 10
36.23763738733123
 20
34.58329953537754
 30
0.0
 10
36.22589817321705
 20
34.59722068031084
 30
0.0
 10
36.21865667816127
 20
34.60708864171051
 30
0.0
 10
36.21517198447958
 20
34.61215711555383
 30
0.0
 11
36.28766663885517
 21
34.53643454706457
 31
0.0
 11
36.275283929122
 21
34.54656853395909
 31
0.0
 11
36.26260037775364
 21
34.55790815684804
 31
0.0
 11
36.25002465609197
 21
34.57020684441648
 31
0.0
 11
36.23782001085829
 21
34.58331863500035
 31
0.0
 11
36.22610569664704
 21
34.59729209835643
 31
0.0
 11
36.21517198447958
 21
34.61215711555383
 31
0.0
  0
SPLINE
  5
52
330
2
100
AcDbEntity
  8
GAIKEI
  6
Continuous
 62
     1
100
AcDbSpline
210
0.0
220
0.0
230
1.0
 70
     8
 71
     3
 72
    16
 73
    12
 74
    10
 42
0.0000000001
 43
0.0000000001
 44
0.000001
 12
-0.9890938141075173
 22
0.1472868863621075
 32
0.0
 13
-0.7868271200235438
 23
0.6171734628088413
 33
0.0
 40
0.0
 40
0.0
 40
0.0
 40
0.0
 40
0.003071037191683
 40
0.0079077202268684
 40
0.0121258837363436
 40
0.0170925369202038
 40
0.0227794922712623
 40
0.0324165324563527
 40
0.043353511050646
 40
0.0553068352388489
 40
0.0681596882177222
 40
0.0681596882177222
 40
0.0681596882177222
 40
0.0681596882177222
 10
36.34426876863756
 20
34.49907245082682
 30
0.0
 10
36.34325625400783
 20
34.49922322532876
 30
0.0
 10
36.3406595434949
 20
34.49978325416549
 30
0.0
 10
36.33704220084988
 20
34.50165506823356
 30
0.0
 10
36.33295784858257
 20
34.50391211141937
 30
0.0
 10
36.3287353565687
 20
34.50651694873148
 30
0.0
 10
36.32307154693291
 20
34.51021264586524
 30
0.0
 10
36.31587489620841
 20
34.51519925217713
 30
0.0
 10
36.30710035310756
 20
34.52156904638298
 30
0.0
 10
36.29758111229018
 20
34.52873481557407
 30
0.0
 10
36.291037629953
 20
34.53379040047128
 30
0.0
 10
36.28766663885517
 20
34.53643454706457
 30
0.0
 11
36.34426876863756
 21
34.49907245082682
 31
0.0
 11
36.34127524498774
 21
34.49975884972139
 31
0.0
 11
36.336876040309
 21
34.50176858854752
 31
0.0
 11
36.33319038381882
 21
34.50382007360503
 31
0.0
 11
36.32895122271089
 21
34.50640792503532
 31
0.0
 11
36.32418516240671
 21
34.50951050216764
 31
0.0
 11
36.31625075942384
 21
34.51498019470284
 31
0.0
 11
36.30739276704981
 21
34.52139527515362
 31
0.0
 11
36.29783560500931
 21
34.52857457770154
 31
0.0
 11
36.28766663885517
 21
34.53643454706457
 31
0.0
  0
SPLINE
  5
53
330
2
100
AcDbEntity
  8
GAIKEI
  6
Continuous
 62
     1
100
AcDbSpline
210
0.0
220
0.0
230
1.0
 70
     8
 71
     3
 72
     9
 73
     5
 74
     3
 42
0.0000000001
 43
0.0000000001
 44
0.000001
 12
0.9966057535504896
 22
0.082322366280742
 32
0.0
 13
0.6568525705650793
 23
0.7540190319494911
 33
0.0
 40
0.0
 40
0.0
 40
0.0
 40
0.0
 40
0.0024308106193397
 40
0.0052522874028717
 40
0.0052522874028717
 40
0.0052522874028717
 40
0.0052522874028717
 10
36.35487498034394
 20
17.28082821812449
 30
0.0
 10
36.35568250029363
 20
17.28089492148524
 30
0.0
 10
36.35742591122542
 20
17.2813243200776
 30
0.0
 10
36.35884611611152
 20
17.28245254677546
 30
0.0
 10
36.35946388087087
 20
17.28316169583979
 30
0.0
 11
36.35487498034394
 21
17.28082821812449
 31
0.0
 11
36.35722740974836
 21
17.28144114988589
 31
0.0
 11
36.35946388087087
 21
17.28316169583979
 31
0.0
  0
SPLINE
  5
54
330
2
100
AcDbEntity
  8
GAIKEI
  6
Continuous
 62
     1
100
AcDbSpline
210
0.0
220
0.0
230
1.0
 70
     8
 71
     3
 72
    60
 73
    56
 74
    54
 42
0.0000000001
 43
0.0000000001
 44
0.000001
 12
0.6945902575381521
 22
0.7194055699903107
 32
0.0
 13
-0.692224956111833
 23
0.7216817928533121
 33
0.0
 40
0.0
 40
0.0
 40
0.0
 40
0.0
 40
0.0013757793057832
 40
0.0047814025418095
 40
0.0086609226684592
 40
0.0133607337678451
 40
0.0190741807232522
 40
0.0252448952296695
 40
0.0315863351426219
 40
0.0381760958269537
 40
0.0450817663537067
 40
0.0523385736556674
 40
0.0599613847320229
 40
0.0679526792803946
 40
0.0763069078821407
 40
0.0850129613270865
 40
0.0940556583157021
 40
0.1034166981744822
 40
0.1130753069000216
 40
0.123008699357603
 40
0.1331924270025765
 40
0.1436006520378067
 40
0.1542063730563172
 40
0.1649816180195211
 40
0.1758976148890792
 40
0.1869249468072867
 40
0.1980336965517706
 40
0.2091935835889715
 40
0.220374096141866
 40
0.2315446201136057
 40
0.2426742741833346
 40
0.2537325504163142
 40
0.264689284557412
 40
0.2755147163546882
 40
0.2861796229596613
 40
0.2966554580517442
 40
0.3069144994270245
 40
0.3169300088651689
 40
0.3266764097091866
 40
0.3361294900871172
 40
0.3452666436030005
 40
0.3540671655737734
 40
0.3625126331546117
 40
0.3705874151408648
 40
0.3782793879432784
 40
0.3855809905783924
 40
0.3924908597698482
 40
0.3990165049005453
 40
0.4051789467979345
 40
0.4110212641165802
 40
0.4166251163624774
 40
0.4221412118828284
 40
0.4269898475978675
 40
0.4308914119771935
 40
0.4338612010710151
 40
0.4338612010710151
 40
0.4338612010710151
 40
0.4338612010710151
 10
36.37273606169674
 20
17.29670612566542
 30
0.0
 10
36.3730545959975
 20
17.29703604009728
 30
0.0
 10
36.37413884545921
 20
17.29820494488263
 30
0.0
 10
36.37592377065943
 20
17.30048172665442
 30
0.0
 10
36.37806801387723
 20
17.30385915248502
 30
0.0
 10
36.3802418997559
 20
17.3081055195862
 30
0.0
 10
36.38235719977831
 20
17.3132182129757
 30
0.0
 10
36.38431823096301
 20
17.31897140241079
 30
0.0
 10
36.38608479754106
 20
17.32509056315865
 30
0.0
 10
36.3876873514491
 20
17.3315068849339
 30
0.0
 10
36.38916789185691
 20
17.33826481185394
 30
0.0
 10
36.39055034577905
 20
17.34539437285116
 30
0.0
 10
36.39184729684956
 20
17.35290735061835
 30
0.0
 10
36.39306523721155
 20
17.36080379519177
 30
0.0
 10
36.39420728942767
 20
17.36907617050934
 30
0.0
 10
36.39527463303239
 20
17.37771171689962
 30
0.0
 10
36.39626730051998
 20
17.38669385666611
 30
0.0
 10
36.39718464636763
 20
17.39600308461052
 30
0.0
 10
36.39802563716867
 20
17.40561756765675
 30
0.0
 10
36.39878903844758
 20
17.41551357260789
 30
0.0
 10
36.39947353918354
 20
17.42566578815768
 30
0.0
 10
36.40007783725122
 20
17.43604757964658
 30
0.0
 10
36.40060069949053
 20
17.44663119986222
 30
0.0
 10
36.40104100473763
 20
17.45738797048
 30
0.0
 10
36.4013977750536
 20
17.46828844356196
 30
0.0
 10
36.40167019849241
 20
17.4793025493575
 30
0.0
 10
36.40185764559212
 20
17.49039973464369
 30
0.0
 10
36.40195968101176
 20
17.50154909455716
 30
0.0
 10
36.40197607124776
 20
17.51271950004633
 30
0.0
 10
36.40190678961451
 20
17.52387962514478
 30
0.0
 10
36.40175202069685
 20
17.53499814398935
 30
0.0
 10
36.40151215946656
 20
17.54604387497613
 30
0.0
 10
36.4011878031229
 20
17.55698599960465
 30
0.0
 10
36.40077974322248
 20
17.56779411165695
 30
0.0
 10
36.40028895494055
 20
17.5784383217524
 30
0.0
 10
36.39971658151222
 20
17.58888938965083
 30
0.0
 10
36.39906391294969
 20
17.59911886348254
 30
0.0
 10
36.39833235716316
 20
17.60909922912174
 30
0.0
 10
36.39752340064627
 20
17.61880407431789
 30
0.0
 10
36.39663855434145
 20
17.62820827434257
 30
0.0
 10
36.39567927781568
 20
17.63728820925791
 30
0.0
 10
36.39464687072439
 20
17.64602202830184
 30
0.0
 10
36.39354231335702
 20
17.6543899856814
 30
0.0
 10
36.39236602543287
 20
17.66237488730456
 30
0.0
 10
36.39111748804964
 20
17.66996271380208
 30
0.0
 10
36.38979462945179
 20
17.67714353624382
 30
0.0
 10
36.38839277386154
 20
17.68391292582572
 30
0.0
 10
36.38690276909398
 20
17.69027427309777
 30
0.0
 10
36.3853073492574
 20
17.69624271089435
 30
0.0
 10
36.383573882196
 20
17.70185236593522
 30
0.0
 10
36.38163794988549
 20
17.70716773060115
 30
0.0
 10
36.37948380387462
 20
17.71204157702993
 30
0.0
 10
36.37717142004664
 20
17.71620575815291
 30
0.0
 10
36.37492550997612
 20
17.71941242419774
 30
0.0
 10
36.37340853578499
 20
17.7211336786388
 30
0.0
 10
36.37272328174328
 20
17.72184809287802
 30
0.0
 11
36.37273606169674
 21
17.29670612566542
 31
0.0
 11
36.37366962895248
 21
17.29771667491735
 31
0.0
 11
36.37578207254847
 21
17.30038792446021
 31
0.0
 11
36.37787342290659
 21
17.30365543048242
 31
0.0
 11
36.38003484620595
 21
17.307828687501
 31
0.0
 11
36.38224322677826
 21
17.31309803835563
 31
0.0
 11
36.38425299804311
 21
17.31893225568433
 31
0.0
 11
36.38602458895679
 21
17.32502117463951
 31
0.0
 11
36.38763055589544
 21
17.33141221923711
 31
0.0
 11
36.3891153872338
 21
17.33815634301243
 31
0.0
 11
36.39050231646928
 21
17.34527935660685
 31
0.0
 11
36.39180354947774
 21
17.35279026048391
 31
0.0
 11
36.39302544461981
 21
17.36068756285067
 31
0.0
 11
36.39417109062577
 21
17.36896284167898
 31
0.0
 11
36.39524167231992
 21
17.3776027961477
 31
0.0
 11
36.39623724110828
 21
17.38659049801055
 31
0.0
 11
36.39715717379511
 21
17.39590620220701
 31
0.0
 11
36.39800045856299
 21
17.40552790303979
 31
0.0
 11
36.39876588026772
 21
17.41543173709624
 31
0.0
 11
36.39945214453627
 21
17.42559229044758
 31
0.0
 11
36.40005796324999
 21
17.43598284423262
 31
0.0
 11
36.40058211482392
 21
17.44657557958788
 31
0.0
 11
36.40102348749724
 21
17.45734175522114
 31
0.0
 11
36.40138111080813
 21
17.46825186629542
 31
0.0
 11
36.40165417857673
 21
17.47927579041129
 31
0.0
 11
36.40184206556728
 21
17.49038292464888
 31
0.0
 11
36.40194433925547
 21
17.50154231644046
 31
0.0
 11
36.40196076763101
 21
17.51272279027637
 31
0.0
 11
36.40189132361786
 21
17.52389307175298
 31
0.0
 11
36.40173619164369
 21
17.53502161804454
 31
0.0
 11
36.40149576434658
 21
17.54607725387109
 31
0.0
 11
36.40117063484712
 21
17.55702913676794
 31
0.0
 11
36.40076158942873
 21
17.56784681178231
 31
0.0
 11
36.40026959630024
 21
17.57850033830431
 31
0.0
 11
36.39969578980686
 21
17.58896042124297
 31
0.0
 11
36.39904144885566
 21
17.59919854870713
 31
0.0
 11
36.3983079676857
 21
17.6091871391996
 31
0.0
 11
36.39749681614552
 21
17.61889970260915
 31
0.0
 11
36.39660948512125
 21
17.62831102122561
 31
0.0
 11
36.39564741031211
 21
17.63739736001571
 31
0.0
 11
36.39461186348933
 21
17.64613672016054
 31
0.0
 11
36.39350379343227
 21
17.65450915757361
 31
0.0
 11
36.39232358644006
 21
17.6624972009954
 31
0.0
 11
36.39107069370323
 21
17.67008642642992
 31
0.0
 11
36.38974302933281
 21
17.67726628423008
 31
0.0
 11
36.38833595488143
 21
17.68403134830782
 31
0.0
 11
36.38684047765185
 21
17.69038329712987
 31
0.0
 11
36.38523985878033
 21
17.69633421023269
 31
0.0
 11
36.3835027717634
 21
17.7019122781312
 31
0.0
 11
36.38156845103151
 21
17.70717166657709
 31
0.0
 11
36.37931313851698
 21
17.71220559138192
 31
0.0
 11
36.37693775568414
 21
17.71643245324588
 31
0.0
 11
36.37468165566986
 21
17.71961550749563
 31
0.0
 11
36.37272328174328
 21
17.72184809287802
 31
0.0
  0
SPLINE
  5
55
330
2
100
AcDbEntity
  8
GAIKEI
  6
Continuous
 62
     1
100
AcDbSpline
210
0.0
220
0.0
230
1.0
 70
     8
 71
     3
 72
     9
 73
     5
 74
     3
 42
0.0000000001
 43
0.0000000001
 44
0.000001
 12
-0.7062048502932383
 22
0.7080075631109495
 32
0.0
 13
-0.665021799524069
 23
0.7468239458920484
 33
0.0
 40
0.0
 40
0.0
 40
0.0
 40
0.0
 40
0.0000621496708424
 40
0.0001264349398692
 40
0.0001264349398692
 40
0.0001264349398692
 40
0.0001264349398692
 10
36.3594754056972
 20
17.73536764236257
 30
0.0
 10
36.3594607755642
 20
17.73538230984155
 30
0.0
 10
36.35943142643836
 20
17.73541256439205
 30
0.0
 10
36.35940294455625
 20
17.7354436375225
 30
0.0
 10
36.35938869418783
 20
17.73545964078192
 30
0.0
 11
36.3594754056972
 21
17.73536764236257
 31
0.0
 11
36.35943213156082
 21
17.73541225093299
 31
0.0
 11
36.35938869418783
 21
17.73545964078192
 31
0.0
  0
SPLINE
  5
56
330
2
100
AcDbEntity
  8
GAIKEI
  6
Continuous
 62
     1
100
AcDbSpline
210
0.0
220
0.0
230
1.0
 70
     8
 71
     3
 72
    22
 73
    18
 74
    16
 42
0.0000000001
 43
0.0000000001
 44
0.000001
 12
0.0727947973690701
 22
0.9973469393726519
 32
0.0
 13
0.9278605337080868
 23
0.3729273789720247
 33
0.0
 40
0.0
 40
0.0
 40
0.0
 40
0.0
 40
0.0032778957403461
 40
0.0067865985165152
 40
0.0104766905745219
 40
0.0143123070046153
 40
0.0182708376723029
 40
0.0223425453271411
 40
0.0264994538053315
 40
0.0306826602663433
 40
0.0348827467986975
 40
0.0390956034870305
 40
0.0436363555748996
 40
0.0487131754883156
 40
0.0563299308141986
 40
0.0649171988891159
 40
0.0744248434642223
 40
0.0744248434642223
 40
0.0744248434642223
 40
0.0744248434642223
 10
36.62380694820422
 20
16.59407973018813
 30
0.0
 10
36.62388648612296
 20
16.59516946328284
 30
0.0
 10
36.62410203802011
 20
16.59742222029354
 30
0.0
 10
36.62458925784682
 20
16.60088150156809
 30
0.0
 10
36.62527876243658
 20
16.60449606299875
 30
0.0
 10
36.62619513126057
 20
16.60821486874715
 30
0.0
 10
36.62736425379094
 20
16.61199599555851
 30
0.0
 10
36.62881129304301
 20
16.61579515996817
 30
0.0
 10
36.63053991662028
 20
16.61955712104486
 30
0.0
 10
36.63251643938588
 20
16.62324344670435
 30
0.0
 10
36.63473377951047
 20
16.6268121131265
 30
0.0
 10
36.63723523658712
 20
16.63033530484932
 30
0.0
 10
36.6401738846578
 20
16.63389362817992
 30
0.0
 10
36.64418572821674
 20
16.6380143612123
 30
0.0
 10
36.64964148523589
 20
16.64257651932115
 30
0.0
 10
36.65686122454193
 20
16.64723249656975
 30
0.0
 10
36.66231400016156
 20
16.64985849814661
 30
0.0
 10
36.66525458955147
 20
16.65104038513715
 30
0.0
 11
36.62380694820422
 21
16.59407973018813
 31
0.0
 11
36.62411711572565
 21
16.59734318685031
 31
0.0
 11
36.62460722181288
 21
16.60081749806085
 31
0.0
 11
36.62530005818735
 21
16.60444198086622
 31
0.0
 11
36.62621977053709
 21
16.60816572443877
 31
0.0
 11
36.6273916297622
 21
16.61194685495786
 31
0.0
 11
36.62884166718033
 21
16.61575165145763
 31
0.0
 11
36.63057338736206
 21
16.6195307167049
 31
0.0
 11
36.63255137191027
 21
16.62321678291499
 31
0.0
 11
36.63476649936456
 21
16.62678528719499
 31
0.0
 11
36.63721037380566
 21
16.63021689399795
 31
0.0
 11
36.6401027189612
 21
16.63371733604151
 31
0.0
 11
36.64364159855427
 21
16.63735750097481
 31
0.0
 11
36.64947938972512
 21
16.64224993064079
 31
0.0
 11
36.65668578700076
 21
16.64691996404371
 31
0.0
 11
36.66525458955147
 21
16.65104038513715
 31
0.0
  0
SPLINE
  5
57
330
2
100
AcDbEntity
  8
GAIKEI
  6
Continuous
 62
     1
100
AcDbSpline
210
0.0
220
0.0
230
1.0
 70
     8
 71
     3
 72
    25
 73
    21
 74
    19
 42
0.0000000001
 43
0.0000000001
 44
0.000001
 12
0.0314179304821943
 22
-0.999506334969527
 32
0.0
 13
-0.4484309915581176
 23
-0.8938174566488413
 33
0.0
 40
0.0
 40
0.0
 40
0.0
 40
0.0
 40
0.0108528937145179
 40
0.0216345802439433
 40
0.0325730327995888
 40
0.0432826587499284
 40
0.0534187669336952
 40
0.0631986144078408
 40
0.0728120903918137
 40
0.0819129125188021
 40
0.0903080546746992
 40
0.0980874235288379
 40
0.1053896667962233
 40
0.1119313762070348
 40
0.1175302899681859
 40
0.1223210899348232
 40
0.1263686656705905
 40
0.129494118092342
 40
0.1322428072261306
 40
0.1332320233422386
 40
0.1332320233422386
 40
0.1332320233422386
 40
0.1332320233422386
 10
33.60868417265886
 20
12.25824916466661
 30
0.0
 10
33.60879783114561
 20
12.25463331932644
 30
0.0
 10
33.60898724299941
 20
12.24742408258305
 30
0.0
 10
33.60914103621866
 20
12.23656730399625
 30
0.0
 10
33.60920484892435
 20
12.22575748319934
 30
0.0
 10
33.60920013615441
 20
12.21516270749919
 30
0.0
 10
33.60915599168791
 20
12.20495426349009
 30
0.0
 10
33.6090924465592
 20
12.19511132268439
 30
0.0
 10
33.60902841829713
 20
12.18561349007348
 30
0.0
 10
33.60897629622633
 20
12.17657715831302
 30
0.0
 10
33.60894866936007
 20
12.16815207159163
 30
0.0
 10
33.60894700406061
 20
12.16032650490649
 30
0.0
 10
33.60897548347097
 20
12.15311864701135
 30
0.0
 10
33.60902435609626
 20
12.14663824449462
 30
0.0
 10
33.609093897549
 20
12.14099368159696
 30
0.0
 10
33.60914291174387
 20
12.13618497145467
 30
0.0
 10
33.60922874109212
 20
12.13218786889104
 30
0.0
 10
33.60912731037661
 20
12.12890605483545
 30
0.0
 10
33.60932873635909
 20
12.12655542337506
 30
0.0
 10
33.60883203771346
 20
12.12539328625695
 30
0.0
 10
33.60868417265886
 20
12.12509856004595
 30
0.0
 11
33.60868417265886
 21
12.25824916466661
 31
0.0
 11
33.60896493104281
 21
12.24740014869337
 31
0.0
 11
33.60912458228773
 21
12.23661964274151
 31
0.0
 11
33.60919262828509
 21
12.22568140203941
 31
0.0
 11
33.60919196042272
 21
12.21497177665998
 31
0.0
 11
33.6091508374401
 21
12.20483575254383
 31
0.0
 11
33.60909064400943
 21
12.19505609099497
 31
0.0
 11
33.60902789328731
 21
12.18544282057559
 31
0.0
 11
33.6089778918747
 21
12.17634213665246
 31
0.0
 11
33.60895147527367
 21
12.16794703705818
 31
0.0
 11
33.608951565491
 21
12.16016766945859
 31
0.0
 11
33.60898012001661
 21
12.15286548377554
 31
0.0
 11
33.6090313697016
 21
12.14632397761602
 31
0.0
 11
33.60909409504973
 21
12.14072541888646
 31
0.0
 11
33.60915427748148
 21
12.1359350026666
 31
0.0
 11
33.60919465347581
 21
12.13188763832988
 31
0.0
 11
33.60918830035371
 21
12.12876221176782
 31
0.0
 11
33.60905155914532
 21
12.12601708536442
 31
0.0
 11
33.60868417265886
 21
12.12509856004595
 31
0.0
  0
SPLINE
  5
58
330
2
100
AcDbEntity
  8
GAIKEI
  6
Continuous
 62
     1
100
AcDbSpline
210
0.0
220
0.0
230
1.0
 70
     8
 71
     3
 72
    25
 73
    21
 74
    19
 42
0.0000000001
 43
0.0000000001
 44
0.000001
 12
0.4538797674550776
 22
-0.8910629364387931
 32
0.0
 13
-0.031367967599114
 23
-0.9995079042252248
 33
0.0
 40
0.0
 40
0.0
 40
0.0
 40
0.0
 40
0.0009635445512354
 40
0.0037386866614098
 40
0.0067628531292344
 40
0.0106585511528775
 40
0.0155515629068471
 40
0.0213014311660129
 40
0.027649710825398
 40
0.034718035278101
 40
0.0426923287630248
 40
0.0513198949466037
 40
0.060164791457814
 40
0.0694964568679259
 40
0.0795340599748778
 40
0.0899501485579789
 40
0.1003598179733911
 40
0.1109878557765643
 40
0.1220715920285723
 40
0.1332328055089542
 40
0.1332328055089542
 40
0.1332328055089542
 40
0.1332328055089542
 10
33.60868417265886
 20
40.08010914288695
 30
0.0
 10
33.60882995045114
 20
40.07982294994121
 30
0.0
 10
33.60933493724548
 20
40.07866400130308
 30
0.0
 10
33.60912677397579
 20
40.07634387126915
 30
0.0
 10
33.60922860138089
 20
40.07313795963068
 30
0.0
 10
33.609144829326
 20
40.06919103821002
 30
0.0
 10
33.60909578323026
 20
40.06434879925535
 30
0.0
 10
33.60902548301448
 20
40.05868424256926
 30
0.0
 10
33.60897692695656
 20
40.05229598112726
 30
0.0
 10
33.60894750487176
 20
40.04516560160834
 30
0.0
 10
33.6089480618268
 20
40.03727555911052
 30
0.0
 10
33.60897556817244
 20
40.02879332915409
 30
0.0
 10
33.60902677006544
 20
40.01985876492335
 30
0.0
 10
33.60908993905315
 20
40.01045425528309
 30
0.0
 10
33.60915464962446
 20
40.00052601205766
 30
0.0
 10
33.60919965220381
 20
39.99023831020441
 30
0.0
 10
33.60920490539309
 20
39.97975366785477
 30
0.0
 10
33.60914481879661
 20
39.96904661216257
 30
0.0
 10
33.60899441078408
 20
39.95808978199665
 30
0.0
 10
33.60880087418647
 20
39.95067711196441
 30
0.0
 10
33.60868417265886
 20
39.9469585382663
 30
0.0
 11
33.60868417265886
 21
40.08010914288695
 31
0.0
 11
33.60904815559536
 21
40.07921692972582
 31
0.0
 11
33.60918830035371
 21
40.07644549116508
 31
0.0
 11
33.60919522599443
 21
40.07342135156642
 31
0.0
 11
33.60915735196983
 21
40.06952584760063
 31
0.0
 11
33.60909598352521
 21
40.064633226723
 31
0.0
 11
33.6090313697016
 21
40.05888372531683
 31
0.0
 11
33.60898125600926
 21
40.0525356459002
 31
0.0
 11
33.60895242372698
 21
40.04546738198087
 31
0.0
 11
33.60895112258953
 21
40.03749308990575
 31
0.0
 11
33.6089778918747
 21
40.0288655662805
 31
0.0
 11
33.609026280465
 21
40.02002080295068
 31
0.0
 11
33.60908708563676
 21
40.01068933638333
 31
0.0
 11
33.60914933329679
 21
40.00065192698258
 31
0.0
 11
33.60919196042266
 21
39.99023592627293
 31
0.0
 11
33.6091933985058
 21
39.97982625746653
 31
0.0
 11
33.60913062436896
 21
39.96919840522242
 31
0.0
 11
33.6089710109776
 21
39.9581158167361
 31
0.0
 11
33.60868417265886
 21
39.9469585382663
 31
0.0
  0
LINE
  5
59
330
2
100
AcDbEntity
  8
GAIKEI
  6
Continuous
 62
     1
100
AcDbLine
 10
36.55712427295856
 20
38.86737798160368
 30
0.0
 11
36.55737073181979
 21
38.8676076295439
 31
0.0
  0
LINE
  5
5A
330
2
100
AcDbEntity
  8
GAIKEI
  6
Continuous
 62
     7
100
AcDbLine
 10
36.76259028760882
 20
37.22320327445482
 30
0.0
 11
36.7624173191245
 21
37.24164494257337
 31
0.0
  0
LINE
  5
5B
330
2
100
AcDbEntity
  8
GAIKEI
  6
Continuous
 62
     7
100
AcDbLine
 10
36.7564835116832
 20
37.33339189849579
 30
0.0
 11
36.75427951638926
 21
37.35170221092636
 31
0.0
  0
LINE
  5
5C
330
2
100
AcDbEntity
  8
GAIKEI
  6
Continuous
 62
     7
100
AcDbLine
 10
36.76258779749753
 20
37.22320319774894
 30
0.0
 11
36.76248538896351
 21
37.23753055592351
 31
0.0
  0
LINE
  5
5D
330
2
100
AcDbEntity
  8
GAIKEI
  6
Continuous
 62
     7
100
AcDbLine
 10
36.76248538896351
 20
37.23753055592351
 30
0.0
 11
36.76179521857193
 21
37.26298710539874
 31
0.0
  0
LINE
  5
5E
330
2
100
AcDbEntity
  8
GAIKEI
  6
Continuous
 62
     7
100
AcDbLine
 10
36.75602102883551
 20
37.33748077646118
 30
0.0
 11
36.75427704694607
 21
37.3517018905709
 31
0.0
  0
LINE
  5
5F
330
2
100
AcDbEntity
  8
GAIKEI
  6
Continuous
 62
     1
100
AcDbLine
 10
36.76229894081308
 20
37.22318440121512
 30
0.0
 11
36.76258715781285
 21
37.22320304187906
 31
0.0
  0
LINE
  5
60
330
2
100
AcDbEntity
  8
GAIKEI
  6
Continuous
 62
     1
100
AcDbLine
 10
36.76258715781285
 20
37.22320304187906
 30
0.0
 11
36.76258779749753
 21
37.22320319774894
 31
0.0
  0
LINE
  5
61
330
2
100
AcDbEntity
  8
GAIKEI
  6
Continuous
 62
     7
100
AcDbLine
 10
36.76258779747332
 20
37.22320327407931
 30
0.0
 11
36.76258779747332
 21
36.9122397122099
 31
0.0
  0
LINE
  5
62
330
2
100
AcDbEntity
  8
GAIKEI
  6
Continuous
 62
     7
100
AcDbLine
 10
36.75427703727399
 20
36.78374102107222
 30
0.0
 11
36.75602102889172
 21
36.7979622103158
 31
0.0
  0
LINE
  5
63
330
2
100
AcDbEntity
  8
GAIKEI
  6
Continuous
 62
     7
100
AcDbLine
 10
36.75602102889172
 20
36.7979622103158
 30
0.0
 11
36.75861573686592
 21
36.82329557952193
 31
0.0
  0
LINE
  5
64
330
2
100
AcDbEntity
  8
GAIKEI
  6
Continuous
 62
     7
100
AcDbLine
 10
36.76248538896823
 20
36.8979124306926
 30
0.0
 11
36.76258779747332
 21
36.9122397122099
 31
0.0
  0
LINE
  5
65
330
2
100
AcDbEntity
  8
GAIKEI
  6
Continuous
 62
     7
100
AcDbLine
 10
36.75427704694607
 20
37.3517018905709
 30
0.0
 11
36.5574234225503
 21
38.86720473560973
 31
0.0
  0
LINE
  5
66
330
2
100
AcDbEntity
  8
GAIKEI
  6
Continuous
 62
     1
100
AcDbLine
 10
36.5574234225503
 20
38.86720473560973
 30
0.0
 11
36.55739715412813
 21
38.86740696382975
 31
0.0
  0
LINE
  5
67
330
2
100
AcDbEntity
  8
GAIKEI
  6
Continuous
 62
     1
100
AcDbLine
 10
36.55739715412813
 20
38.86740696382975
 30
0.0
 11
36.55737108257898
 21
38.86760767641795
 31
0.0
  0
LINE
  5
68
330
2
100
AcDbEntity
  8
GAIKEI
  6
Continuous
 62
     1
100
AcDbLine
 10
36.55737108257898
 20
38.86760767641795
 30
0.0
 11
36.55737076465261
 21
38.86760738017961
 31
0.0
  0
LINE
  5
69
330
2
100
AcDbEntity
  8
GAIKEI
  6
Continuous
 62
     1
100
AcDbLine
 10
36.55737076465261
 20
38.86760738017961
 30
0.0
 11
36.55712430524716
 21
38.86737773353138
 31
0.0
  0
LINE
  5
6A
330
2
100
AcDbEntity
  8
GAIKEI
  6
Continuous
 62
     7
100
AcDbLine
 10
36.76241731909886
 20
36.89379804233863
 30
0.0
 11
36.76259028760876
 21
36.91223971180062
 31
0.0
  0
LINE
  5
6B
330
2
100
AcDbEntity
  8
GAIKEI
  6
Continuous
 62
     1
100
AcDbLine
 10
36.76229894077721
 20
37.2231845907495
 30
0.0
 11
36.76258432571638
 21
37.22320304952513
 31
0.0
  0
LINE
  5
6C
330
2
100
AcDbEntity
  8
GAIKEI
  6
Continuous
 62
     1
100
AcDbLine
 10
36.76258432571638
 20
37.22320304952513
 30
0.0
 11
36.76258779747338
 21
37.22320327407931
 31
0.0
  0
LINE
  5
6D
330
2
100
AcDbEntity
  8
GAIKEI
  6
Continuous
 62
     1
100
AcDbLine
 10
36.76258779747338
 20
37.22320327407931
 30
0.0
 11
36.76258779747326
 21
37.0677221598113
 31
0.0
  0
LINE
  5
6E
330
2
100
AcDbEntity
  8
GAIKEI
  6
Continuous
 62
     7
100
AcDbLine
 10
36.76258779747326
 20
37.06772082647797
 30
0.0
 11
36.76258779747338
 21
36.9122397122099
 31
0.0
  0
LINE
  5
6F
330
2
100
AcDbEntity
  8
GAIKEI
  6
Continuous
 62
     1
100
AcDbLine
 10
36.37237550107454
 20
39.06583360248442
 30
0.0
 11
36.37197156898299
 21
39.06591538295799
 31
0.0
  0
LINE
  5
70
330
2
100
AcDbEntity
  8
GAIKEI
  6
Continuous
 62
     1
100
AcDbLine
 10
36.37262652483367
 20
39.06578277994612
 30
0.0
 11
36.37237550107454
 21
39.06583360248442
 31
0.0
  0
LINE
  5
71
330
2
100
AcDbEntity
  8
GAIKEI
  6
Continuous
 62
     7
100
AcDbLine
 10
36.75427704694607
 20
37.3517018905709
 30
0.0
 11
36.55742342255024
 21
38.86720473560973
 31
0.0
  0
LINE
  5
72
330
2
100
AcDbEntity
  8
GAIKEI
  6
Continuous
 62
     7
100
AcDbLine
 10
36.63029892262313
 20
13.19093718608803
 30
0.0
 11
36.62363225595703
 21
13.19760385275407
 31
0.0
  0
LINE
  5
73
330
2
100
AcDbEntity
  8
GAIKEI
  6
Continuous
 62
     7
100
AcDbLine
 10
36.63029892262313
 20
13.19093718608803
 30
0.0
 11
36.63029892262313
 21
13.1842584658267
 31
0.0
  0
LINE
  5
74
330
2
100
AcDbEntity
  8
GAIKEI
  6
Continuous
 62
     7
100
AcDbLine
 10
36.47235491534605
 20
13.0178202100509
 30
0.0
 11
35.02529892278324
 21
12.9419832189825
 31
0.0
  0
LINE
  5
75
330
2
100
AcDbEntity
  8
GAIKEI
  6
Continuous
 62
     1
100
AcDbLine
 10
36.10792586642777
 20
38.79640111538936
 30
0.0
 11
35.2513205323811
 21
38.82631443280502
 31
0.0
  0
LINE
  5
76
330
2
100
AcDbEntity
  8
GAIKEI
  6
Continuous
 62
     1
100
AcDbLine
 10
35.25597096396359
 20
38.95948536947571
 30
0.0
 11
36.11257629801071
 21
38.92957205206005
 31
0.0
  0
LINE
  5
77
330
2
100
AcDbEntity
  8
GAIKEI
  6
Continuous
 62
     1
100
AcDbLine
 10
36.45447200051297
 20
36.91346214586201
 30
0.0
 11
36.45447200051297
 21
37.22220750939334
 31
0.0
  0
LINE
  5
78
330
2
100
AcDbEntity
  8
GAIKEI
  6
Continuous
 62
     1
100
AcDbLine
 10
36.58772411076887
 20
37.22220750939334
 30
0.0
 11
36.58772411076887
 21
36.91346214586201
 31
0.0
  0
LINE
  5
79
330
2
100
AcDbEntity
  8
GAIKEI
  6
Continuous
 62
     1
100
AcDbLine
 10
36.35881510360992
 20
39.00061409085208
 30
0.0
 11
35.5328740069794
 21
39.16783482741818
 31
0.0
  0
LINE
  5
7A
330
2
100
AcDbEntity
  8
GAIKEI
  6
Continuous
 62
     1
100
AcDbLine
 10
36.68785660994251
 20
37.34338428719218
 30
0.0
 11
36.49102080303283
 21
38.85873053597436
 31
0.0
  0
LINE
  5
7B
330
2
100
AcDbEntity
  8
GAIKEI
  6
Continuous
 62
     1
100
AcDbLine
 10
36.6956322741172
 20
36.9125106240258
 30
0.0
 11
36.6956322741172
 21
37.22315903122956
 31
0.0
  0
LINE
  5
7C
330
2
100
AcDbEntity
  8
GAIKEI
  6
Continuous
 62
     1
100
AcDbLine
 10
36.49102080303283
 20
35.27693911928111
 30
0.0
 11
36.68785660994251
 21
36.79228536806318
 31
0.0
  0
LINE
  5
7D
330
2
100
AcDbEntity
  8
GAIKEI
  6
Continuous
 62
     1
100
AcDbLine
 10
35.5328740069794
 20
34.96783482783724
 30
0.0
 11
36.35881510360992
 21
35.13505556440339
 31
0.0
  0
LINE
  5
7E
330
2
100
AcDbEntity
  8
GAIKEI
  6
Continuous
 62
     1
100
AcDbLine
 10
35.02529892278324
 20
34.96783482783724
 30
0.0
 11
35.5328740069794
 21
34.96783482783724
 31
0.0
  0
LINE
  5
7F
330
2
100
AcDbEntity
  8
GAIKEI
  6
Continuous
 62
     1
100
AcDbLine
 10
35.5328740069794
 20
39.16783482741818
 30
0.0
 11
35.02529892278324
 21
39.16783482741818
 31
0.0
  0
LINE
  5
80
330
2
100
AcDbEntity
  8
GAIKEI
  6
Continuous
 62
     1
100
AcDbLine
 10
35.11287569883791
 20
35.40588504122104
 30
0.0
 11
35.11287569883791
 21
38.72978461403437
 31
0.0
  0
LINE
  5
81
330
2
100
AcDbEntity
  8
GAIKEI
  6
Continuous
 62
     1
100
AcDbLine
 10
36.11257629801071
 20
35.2060976031953
 30
0.0
 11
35.25597096396359
 21
35.1761842857797
 31
0.0
  0
LINE
  5
82
330
2
100
AcDbEntity
  8
GAIKEI
  6
Continuous
 62
     1
100
AcDbLine
 10
36.58056303068383
 20
36.80702953736727
 30
0.0
 11
36.39922778065426
 21
35.4655689622158
 31
0.0
  0
LINE
  5
83
330
2
100
AcDbEntity
  8
GAIKEI
  6
Continuous
 62
     1
100
AcDbLine
 10
36.39922778065426
 20
38.67010069303956
 30
0.0
 11
36.58056303068383
 21
37.32864011788814
 31
0.0
  0
LINE
  5
84
330
2
100
AcDbEntity
  8
GAIKEI
  6
Continuous
 62
     1
100
AcDbLine
 10
35.14620395533979
 20
38.72978461403437
 30
0.0
 11
35.14620395533979
 21
35.40588504122104
 31
0.0
  0
LINE
  5
85
330
2
100
AcDbEntity
  8
GAIKEI
  6
Continuous
 62
     1
100
AcDbLine
 10
36.26717669011919
 20
35.48341929487788
 30
0.0
 11
36.44851194014871
 21
36.8248798700289
 31
0.0
  0
LINE
  5
86
330
2
100
AcDbEntity
  8
GAIKEI
  6
Continuous
 62
     1
100
AcDbLine
 10
36.44851194014871
 20
37.31078978522652
 30
0.0
 11
36.26717669011907
 21
38.65225036037794
 31
0.0
  0
LINE
  5
87
330
2
100
AcDbEntity
  8
GAIKEI
  6
Continuous
 62
     1
100
AcDbLine
 10
35.2513205323811
 20
35.3093552224504
 30
0.0
 11
36.10792586642822
 21
35.33926853986605
 31
0.0
  0
LINE
  5
88
330
2
100
AcDbEntity
  8
GAIKEI
  6
Continuous
 62
     7
100
AcDbLine
 10
35.50623170214886
 20
34.90116816117723
 30
0.0
 11
35.02529892278324
 21
34.90116816117723
 31
0.0
  0
LINE
  5
89
330
2
100
AcDbEntity
  8
GAIKEI
  6
Continuous
 62
     7
100
AcDbLine
 10
36.37204408591674
 20
35.06971462416919
 30
0.0
 11
35.5722154880034
 21
34.90778064629188
 31
0.0
  0
LINE
  5
8A
330
2
100
AcDbEntity
  8
GAIKEI
  6
Continuous
 62
     7
100
AcDbLine
 10
36.75427703727399
 20
36.78374102107222
 30
0.0
 11
36.55713206510899
 21
35.26835160099802
 31
0.0
  0
LINE
  5
8B
330
2
100
AcDbEntity
  8
GAIKEI
  6
Continuous
 62
     1
100
AcDbLine
 10
36.76229894077721
 20
37.22331657821894
 30
0.0
 11
36.76229894077721
 21
37.22315903122956
 31
0.0
  0
LINE
  5
8C
330
2
100
AcDbEntity
  8
GAIKEI
  6
Continuous
 62
     7
100
AcDbLine
 10
35.5395229041261
 20
39.23418195680915
 30
0.0
 11
36.37204408591674
 21
39.06595503108622
 31
0.0
  0
LINE
  5
8D
330
2
100
AcDbEntity
  8
GAIKEI
  6
Continuous
 62
     1
100
AcDbLine
 10
35.20563227426584
 20
36.00627239633264
 30
0.0
 11
35.20563227426578
 21
38.05927051694016
 31
0.0
  0
LINE
  5
8E
330
2
100
AcDbEntity
  8
GAIKEI
  6
Continuous
 62
     1
100
AcDbLine
 10
35.22821308683865
 20
38.34423933941298
 30
0.0
 11
35.28128720580537
 21
38.59393343753777
 31
0.0
  0
LINE
  5
8F
330
2
100
AcDbEntity
  8
GAIKEI
  6
Continuous
 62
     1
100
AcDbLine
 10
35.28128720580537
 20
35.54173621771764
 30
0.0
 11
35.27453709000452
 21
35.57349301575658
 31
0.0
  0
LINE
  5
90
330
2
100
AcDbEntity
  8
GAIKEI
  6
Continuous
 62
     1
100
AcDbLine
 10
35.25493705059108
 20
35.66570395132806
 30
0.0
 11
35.22821308683865
 21
35.79143031584238
 31
0.0
  0
ARC
  5
91
330
2
100
AcDbEntity
  8
GAIKEI
  6
Continuous
 62
     1
100
AcDbCircle
 10
36.32574264784256
 20
38.83726174026674
 30
0.0
 40
0.1666666666500379
100
AcDbArc
 50
7.400992475884447
 51
78.55455851726962
  0
ARC
  5
92
330
2
100
AcDbEntity
  8
GAIKEI
  6
Continuous
 62
     1
100
AcDbCircle
 10
35.76229894087698
 20
37.22315903122956
 30
0.0
 40
0.9333333332402121
100
AcDbArc
 50
0.0
 51
7.400992475884447
  0
ARC
  5
93
330
2
100
AcDbEntity
  8
GAIKEI
  6
Continuous
 62
     1
100
AcDbCircle
 10
35.76229894087698
 20
36.9125106240258
 30
0.0
 40
0.9333333332402121
100
AcDbArc
 50
352.5990075241155
 51
0.0
  0
ARC
  5
94
330
2
100
AcDbEntity
  8
GAIKEI
  6
Continuous
 62
     1
100
AcDbCircle
 10
36.32574264784256
 20
35.29840791498867
 30
0.0
 40
0.1666666666500379
100
AcDbArc
 50
281.4454414827304
 51
352.5990075241155
  0
ARC
  5
95
330
2
100
AcDbEntity
  8
GAIKEI
  6
Continuous
 62
     1
100
AcDbCircle
 10
36.10230250751949
 20
38.63014699452464
 30
0.0
 40
0.1663491955794471
100
AcDbArc
 50
7.635660809095686
 51
88.06277314934765
  0
ARC
  5
96
330
2
100
AcDbEntity
  8
GAIKEI
  6
Continuous
 62
     1
100
AcDbCircle
 10
36.10230250751949
 20
35.50552266073078
 30
0.0
 40
0.1663491955794656
100
AcDbArc
 50
271.9372268506524
 51
352.3643391909043
  0
ARC
  5
97
330
2
100
AcDbEntity
  8
GAIKEI
  6
Continuous
 62
     7
100
AcDbCircle
 10
36.32574264784256
 20
35.29840791498867
 30
0.0
 40
0.233333333310053
100
AcDbArc
 50
281.4454414827304
 51
352.5990075241155
  0
ARC
  5
98
330
2
100
AcDbEntity
  8
GAIKEI
  6
Continuous
 62
     7
100
AcDbCircle
 10
36.32574264784256
 20
38.83726174026674
 30
0.0
 40
0.233333333310053
100
AcDbArc
 50
7.400992475884447
 51
78.55455851726962
  0
ARC
  5
99
330
2
100
AcDbEntity
  8
GAIKEI
  6
Continuous
 62
     1
100
AcDbCircle
 10
36.23896560749609
 20
38.12939725892278
 30
0.0
 40
1.033333333230234
100
AcDbArc
 50
167.9999999999868
 51
170.9125452951276
  0
ARC
  5
9A
330
2
100
AcDbEntity
  8
GAIKEI
  6
Continuous
 62
     1
100
AcDbCircle
 10
36.23896560749609
 20
36.00627239633264
 30
0.0
 40
1.033333333230234
100
AcDbArc
 50
180.0
 51
192.0000000000132
  0
ELLIPSE
  5
9B
330
2
100
AcDbEntity
  8
GAIKEI
  6
Continuous
 62
     1
100
AcDbEllipse
 10
35.57473148599616
 20
35.60410972495674
 30
0.0
 11
-0.0624127083530213
 21
0.2936287069317425
 31
0.0
210
0.0
220
0.0
230
1.0
 40
0.9993719049380262
 41
1.570796326794934
 42
2.00417519157666
  0
ELLIPSE
  5
9C
330
2
100
AcDbEntity
  8
GAIKEI
  6
Continuous
 62
     1
100
AcDbEllipse
 10
35.57473148599616
 20
38.53155993029867
 30
0.0
 11
0.0624127083530245
 21
0.2936287069317421
 31
0.0
210
0.0
220
0.0
230
1.0
 40
0.9993719049380249
 41
1.137417462013209
 42
1.570796326794884
  0
LINE
  5
9D
330
2
100
AcDbEntity
  8
GAIKEI
  6
Continuous
 62
     1
100
AcDbLine
 10
35.26212671034296
 20
35.48022289814992
 30
0.0
 11
35.26212671034296
 21
35.65165146956133
 31
0.0
  0
LINE
  5
9E
330
2
100
AcDbEntity
  8
GAIKEI
  6
Continuous
 62
     1
100
AcDbLine
 10
35.22059973362207
 20
35.44927051720061
 30
0.0
 11
35.22059973362207
 21
35.68260385051065
 31
0.0
  0
LINE
  5
9F
330
2
100
AcDbEntity
  8
GAIKEI
  6
Continuous
 62
     1
100
AcDbLine
 10
35.1879655894337
 20
35.44927051720061
 30
0.0
 11
35.1879655894337
 21
35.56594336474183
 31
0.0
  0
LINE
  5
A0
330
2
100
AcDbEntity
  8
GAIKEI
  6
Continuous
 62
     1
100
AcDbLine
 10
35.1879655894337
 20
35.56594336474183
 30
0.0
 11
35.1879655894337
 21
35.68260385051065
 31
0.0
  0
LINE
  5
A1
330
2
100
AcDbEntity
  8
GAIKEI
  6
Continuous
 62
     1
100
AcDbLine
 10
35.22059973362207
 20
35.68260385051065
 30
0.0
 11
35.14620395533979
 21
35.68260385051065
 31
0.0
  0
LINE
  5
A2
330
2
100
AcDbEntity
  8
GAIKEI
  6
Continuous
 62
     1
100
AcDbLine
 10
35.14620395533979
 20
35.44927051720061
 30
0.0
 11
35.22059973362207
 21
35.44927051720061
 31
0.0
  0
ARC
  5
A3
330
2
100
AcDbEntity
  8
GAIKEI
  6
Continuous
 62
     1
100
AcDbCircle
 10
35.22059973362207
 20
35.63927051718162
 30
0.0
 40
0.0433333333290128
100
AcDbArc
 50
16.60154959900596
 51
90.0
  0
ARC
  5
A4
330
2
100
AcDbEntity
  8
GAIKEI
  6
Continuous
 62
     1
100
AcDbCircle
 10
35.22059973362207
 20
35.49260385052958
 30
0.0
 40
0.0433333333290128
100
AcDbArc
 50
270.0
 51
343.398450400994
  0
ARC
  5
A5
330
2
100
AcDbEntity
  8
GAIKEI
  6
Continuous
 62
     1
100
AcDbCircle
 10
34.9746322561216
 20
35.56593718385562
 30
0.0
 40
0.2999999999700891
100
AcDbArc
 50
343.398450400994
 51
0.0
  0
ARC
  5
A6
330
2
100
AcDbEntity
  8
GAIKEI
  6
Continuous
 62
     1
100
AcDbCircle
 10
34.9746322561216
 20
35.56593718385562
 30
0.0
 40
0.2999999999700891
100
AcDbArc
 50
0.0
 51
16.60154959900596
  0
LINE
  5
A7
330
2
100
AcDbEntity
  8
GAIKEI
  6
Continuous
 62
     1
100
AcDbLine
 10
35.22059973362207
 20
38.05927051694016
 30
0.0
 11
35.22059973362207
 21
38.29260385025026
 31
0.0
  0
LINE
  5
A8
330
2
100
AcDbEntity
  8
GAIKEI
  6
Continuous
 62
     1
100
AcDbLine
 10
35.1879655894337
 20
38.05927051694016
 30
0.0
 11
35.1879655894337
 21
38.17594336448138
 31
0.0
  0
LINE
  5
A9
330
2
100
AcDbEntity
  8
GAIKEI
  6
Continuous
 62
     1
100
AcDbLine
 10
35.1879655894337
 20
38.17594336448138
 30
0.0
 11
35.1879655894337
 21
38.29260385025026
 31
0.0
  0
LINE
  5
AA
330
2
100
AcDbEntity
  8
GAIKEI
  6
Continuous
 62
     1
100
AcDbLine
 10
35.22059973362207
 20
38.29260385025026
 30
0.0
 11
35.14620395533979
 21
38.2926038502502
 31
0.0
  0
LINE
  5
AB
330
2
100
AcDbEntity
  8
GAIKEI
  6
Continuous
 62
     1
100
AcDbLine
 10
35.14620395533979
 20
38.05927051694016
 30
0.0
 11
35.22059973362207
 21
38.05927051694016
 31
0.0
  0
LINE
  5
AC
330
2
100
AcDbEntity
  8
GAIKEI
  6
Continuous
 62
     1
100
AcDbLine
 10
35.26212671034296
 20
38.09022289788948
 30
0.0
 11
35.26212671034296
 21
38.26165146930089
 31
0.0
  0
ARC
  5
AD
330
2
100
AcDbEntity
  8
GAIKEI
  6
Continuous
 62
     1
100
AcDbCircle
 10
35.22059973362207
 20
38.24927051692123
 30
0.0
 40
0.0433333333290153
100
AcDbArc
 50
16.60154959903684
 51
90.0
  0
ARC
  5
AE
330
2
100
AcDbEntity
  8
GAIKEI
  6
Continuous
 62
     1
100
AcDbCircle
 10
35.22059973362207
 20
38.10260385026919
 30
0.0
 40
0.0433333333290153
100
AcDbArc
 50
270.0
 51
343.398450400994
  0
ARC
  5
AF
330
2
100
AcDbEntity
  8
GAIKEI
  6
Continuous
 62
     1
100
AcDbCircle
 10
34.9746322561216
 20
38.17593718359518
 30
0.0
 40
0.2999999999700891
100
AcDbArc
 50
343.398450400994
 51
0.0
  0
ARC
  5
B0
330
2
100
AcDbEntity
  8
GAIKEI
  6
Continuous
 62
     1
100
AcDbCircle
 10
34.9746322561216
 20
38.17593718359518
 30
0.0
 40
0.2999999999700891
100
AcDbArc
 50
0.0
 51
16.60154959900596
  0
LINE
  5
B1
330
2
100
AcDbEntity
  8
GAIKEI
  6
Continuous
 62
     1
100
AcDbLine
 10
35.98742204577383
 20
16.82899642017907
 30
0.0
 11
36.19083747193815
 21
16.90303358049346
 31
0.0
  0
LINE
  5
B2
330
2
100
AcDbEntity
  8
GAIKEI
  6
Continuous
 62
     1
100
AcDbLine
 10
35.54876880803476
 20
12.96941711319005
 30
0.0
 11
35.54876880803476
 21
16.20253467305099
 31
0.0
  0
LINE
  5
B3
330
2
100
AcDbEntity
  8
GAIKEI
  6
Continuous
 62
     1
100
AcDbLine
 10
36.19083747193815
 20
34.82705671297663
 30
0.0
 11
35.91226768739091
 21
34.97662790366235
 31
0.0
  0
LINE
  5
B4
330
2
100
AcDbEntity
  8
GAIKEI
  6
Continuous
 62
     1
100
AcDbLine
 10
36.19083747193815
 20
34.65522505309775
 30
0.0
 11
36.19083747193815
 21
34.82705671297663
 31
0.0
  0
LINE
  5
B5
330
2
100
AcDbEntity
  8
GAIKEI
  6
Continuous
 62
     1
100
AcDbLine
 10
36.21517198447958
 20
33.97971725241069
 30
0.0
 11
36.21517198447958
 21
34.61215711555383
 31
0.0
  0
LINE
  5
B6
330
2
100
AcDbEntity
  8
GAIKEI
  6
Continuous
 62
     1
100
AcDbLine
 10
36.19083747193815
 20
17.86855838810595
 30
0.0
 11
36.19083747193815
 21
33.93664931486688
 31
0.0
  0
LINE
  5
B7
330
2
100
AcDbEntity
  8
GAIKEI
  6
Continuous
 62
     1
100
AcDbLine
 10
36.21517198447958
 20
17.19305058741895
 30
0.0
 11
36.21517198447958
 21
17.82549045056203
 31
0.0
  0
LINE
  5
B8
330
2
100
AcDbEntity
  8
GAIKEI
  6
Continuous
 62
     1
100
AcDbLine
 10
36.19083747193815
 20
16.90303358049346
 30
0.0
 11
36.19083747193815
 21
17.14998264987503
 31
0.0
  0
LINE
  5
B9
330
2
100
AcDbEntity
  8
GAIKEI
  6
Continuous
 62
     1
100
AcDbLine
 10
36.35487498034394
 20
17.73771281985654
 30
0.0
 11
36.3683098248863
 21
17.72414259409709
 31
0.0
  0
LINE
  5
BA
330
2
100
AcDbEntity
  8
GAIKEI
  6
Continuous
 62
     1
100
AcDbLine
 10
36.32476655474614
 20
17.28077784711041
 30
0.0
 11
36.35487498034394
 21
17.28082821812449
 31
0.0
  0
LINE
  5
BB
330
2
100
AcDbEntity
  8
GAIKEI
  6
Continuous
 62
     1
100
AcDbLine
 10
36.31993425609608
 20
17.74954830388918
 30
0.0
 11
36.35004268169394
 21
17.7494979328751
 31
0.0
  0
LINE
  5
BC
330
2
100
AcDbEntity
  8
GAIKEI
  6
Continuous
 62
     1
100
AcDbLine
 10
36.37314212353635
 20
34.49902414607033
 30
0.0
 11
36.34426876863756
 21
34.49907245082682
 31
0.0
  0
LINE
  5
BD
330
2
100
AcDbEntity
  8
GAIKEI
  6
Continuous
 62
     1
100
AcDbLine
 10
36.35947786131766
 20
17.283175962391
 30
0.0
 11
36.37266998082765
 21
17.29663805396336
 31
0.0
  0
LINE
  5
BE
330
2
100
AcDbEntity
  8
GAIKEI
  6
Continuous
 62
     1
100
AcDbLine
 10
36.3726692999133
 20
17.72190367886662
 30
0.0
 11
36.35955324008222
 21
17.73528815422571
 31
0.0
  0
LINE
  5
BF
330
2
100
AcDbEntity
  8
GAIKEI
  6
Continuous
 62
     1
100
AcDbLine
 10
36.35938869418783
 20
17.28308139719911
 30
0.0
 11
36.35946262271875
 21
17.28316041127834
 31
0.0
  0
LINE
  5
C0
330
2
100
AcDbEntity
  8
GAIKEI
  6
Continuous
 62
     7
100
AcDbLine
 10
35.5395229041261
 20
39.23418195680915
 30
0.0
 11
35.08405660595753
 21
39.33743628133095
 31
0.0
  0
LINE
  5
C1
330
2
100
AcDbEntity
  8
GAIKEI
  6
Continuous
 62
     7
100
AcDbLine
 10
36.68575807307508
 20
36.25858270644306
 30
0.0
 11
36.76363225594315
 21
35.73593718383859
 31
0.0
  0
LINE
  5
C2
330
2
100
AcDbEntity
  8
GAIKEI
  6
Continuous
 62
     1
100
AcDbLine
 10
36.76029570958889
 20
18.6163246549504
 30
0.0
 11
36.76363225594315
 21
18.6163246549504
 31
0.0
  0
LINE
  5
C3
330
2
100
AcDbEntity
  8
GAIKEI
  6
Continuous
 62
     1
100
AcDbLine
 10
36.62363225595709
 20
16.60064340748067
 30
0.0
 11
36.62363225595709
 21
16.08093718579965
 31
0.0
  0
LINE
  5
C4
330
2
100
AcDbEntity
  8
GAIKEI
  6
Continuous
 62
     1
100
AcDbLine
 10
36.71976693216925
 20
16.67092734636628
 30
0.0
 11
36.66749757973105
 21
16.65190285791448
 31
0.0
  0
LINE
  5
C5
330
2
100
AcDbEntity
  8
GAIKEI
  6
Continuous
 62
     7
100
AcDbLine
 10
36.76363225594315
 20
16.24859427494857
 30
0.0
 11
36.76363225594315
 21
35.73593718383859
 31
0.0
  0
LINE
  5
C6
330
2
100
AcDbEntity
  8
GAIKEI
  6
Continuous
 62
     1
100
AcDbLine
 10
36.76363225594315
 20
29.9445158281793
 30
0.0
 11
36.76363225594315
 21
30.2692705177177
 31
0.0
  0
LINE
  5
C7
330
2
100
AcDbEntity
  8
GAIKEI
  6
Continuous
 62
     1
100
AcDbLine
 10
36.76363225594315
 20
35.71124017262588
 30
0.0
 11
36.76363225594315
 21
30.2692705177177
 31
0.0
  0
LINE
  5
C8
330
2
100
AcDbEntity
  8
GAIKEI
  6
Continuous
 62
     1
100
AcDbLine
 10
36.76357996213835
 20
16.73094643502025
 30
0.0
 11
36.76358894446173
 21
16.73117081670722
 31
0.0
  0
LINE
  5
C9
330
2
100
AcDbEntity
  8
GAIKEI
  6
Continuous
 62
     1
100
AcDbLine
 10
36.76363225594315
 20
17.14593718569341
 30
0.0
 11
36.76363225594315
 21
16.73357352107507
 31
0.0
  0
LINE
  5
CA
330
2
100
AcDbEntity
  8
GAIKEI
  6
Continuous
 62
     1
100
AcDbLine
 10
36.76363225594315
 20
16.73357352107507
 30
0.0
 11
36.76363225594315
 21
16.72929558334243
 31
0.0
  0
LINE
  5
CB
330
2
100
AcDbEntity
  8
GAIKEI
  6
Continuous
 62
     1
100
AcDbLine
 10
36.76363225594315
 20
30.26927051771742
 30
0.0
 11
36.76363225594315
 21
29.9445158281793
 31
0.0
  0
LINE
  5
CC
330
2
100
AcDbEntity
  8
GAIKEI
  6
Continuous
 62
     1
100
AcDbLine
 10
36.76363225594315
 20
34.92735854015666
 30
0.0
 11
36.76363225594315
 21
34.60260385061838
 31
0.0
  0
LINE
  5
CD
330
2
100
AcDbEntity
  8
GAIKEI
  6
Continuous
 62
     1
100
AcDbLine
 10
36.76363225594315
 20
30.26927051771742
 30
0.0
 11
36.76363225594315
 21
34.60260385061838
 31
0.0
  0
LINE
  5
CE
330
2
100
AcDbEntity
  8
GAIKEI
  6
Continuous
 62
     1
100
AcDbLine
 10
36.76363225594315
 20
30.26927051771764
 30
0.0
 11
36.76363225594315
 21
29.94451582817919
 31
0.0
  0
LINE
  5
CF
330
2
100
AcDbEntity
  8
GAIKEI
  6
Continuous
 62
     1
100
AcDbLine
 10
36.76363225594315
 20
34.92735854015666
 30
0.0
 11
36.76363225594315
 21
34.60260385061838
 31
0.0
  0
LINE
  5
D0
330
2
100
AcDbEntity
  8
GAIKEI
  6
Continuous
 62
     1
100
AcDbLine
 10
36.76363225594315
 20
30.26927051771764
 30
0.0
 11
36.76363225594315
 21
34.60260385061838
 31
0.0
  0
ARC
  5
D1
330
2
100
AcDbEntity
  8
GAIKEI
  6
Continuous
 62
     1
100
AcDbCircle
 10
36.99112248068866
 20
33.51287611488249
 30
0.0
 40
0.9055605006048898
100
AcDbArc
 50
148.9672946824422
 51
152.0975340987932
  0
ARC
  5
D2
330
2
100
AcDbEntity
  8
GAIKEI
  6
Continuous
 62
     1
100
AcDbCircle
 10
36.99112247904583
 20
16.72620945081837
 30
0.0
 40
0.9055604987189537
100
AcDbArc
 50
148.9672946791434
 51
152.0975341020436
  0
ARC
  5
D3
330
2
100
AcDbEntity
  8
GAIKEI
  6
Continuous
 62
     1
100
AcDbCircle
 10
3.211986233308152
 20
42.25034415443462
 30
0.0
 40
33.80399126520706
100
AcDbArc
 50
347.3145797830732
 51
347.4317476099857
  0
ARC
  5
D4
330
2
100
AcDbEntity
  8
GAIKEI
  6
Continuous
 62
     1
100
AcDbCircle
 10
36.69696547410519
 20
16.73357363531676
 30
0.0
 40
0.0666668134015055
100
AcDbArc
 50
290.0000594387878
 51
340.4696215687498
  0
ARC
  5
D5
330
2
100
AcDbEntity
  8
GAIKEI
  6
Continuous
 62
     1
100
AcDbCircle
 10
36.69696511835451
 20
16.73357360212776
 30
0.0
 40
0.0666671375887832
100
AcDbArc
 50
340.4697506632424
 51
359.9999303443502
  0
ARC
  5
D6
330
2
100
AcDbEntity
  8
GAIKEI
  6
Continuous
 62
     1
100
AcDbCircle
 10
36.69029892261716
 20
16.58925668320165
 30
0.0
 40
0.0666666666600116
100
AcDbArc
 50
109.9999999999789
 51
112.4107549875857
  0
ELLIPSE
  5
D7
330
2
100
AcDbEntity
  8
GAIKEI
  6
Continuous
 62
     1
100
AcDbEllipse
 10
36.33643409544339
 20
17.26899273409179
 30
0.0
 11
-0.0000278830828528
 21
0.0166666433409982
 31
0.0
210
0.0
220
0.0
230
1.0
 40
0.9899903333396739
 41
0.7837418957686584
 42
1.569140087042117
  0
ELLIPSE
  5
D8
330
2
100
AcDbEntity
  8
GAIKEI
  6
Continuous
 62
     1
100
AcDbEllipse
 10
36.3500346762641
 20
17.50927051899049
 30
0.0
 11
0.0
 21
0.2402274205811306
 31
0.0
210
0.0
220
0.0
230
1.0
 40
0.1411349973407688
 41
5.899822157622019
 42
6.282949189953956
  0
ELLIPSE
  5
D9
330
2
100
AcDbEntity
  8
GAIKEI
  6
Continuous
 62
     1
100
AcDbEllipse
 10
36.3665425210412
 20
17.7494979328751
 30
0.0
 11
0.0000278830828395
 21
0.0166666433409982
 31
0.0
210
0.0
220
0.0
230
1.0
 40
0.9899903333396409
 41
1.572452566546936
 42
2.357850757819366
  0
ELLIPSE
  5
DA
330
2
100
AcDbEntity
  8
GAIKEI
  6
Continuous
 62
     1
100
AcDbEllipse
 10
36.37313535578909
 20
34.29593718398235
 30
0.0
 11
0.0
 21
0.2030869677491735
 31
0.0
210
0.0
220
0.0
230
1.0
 40
0.1411349973407681
 41
3.14182877081973
 42
6.282949190305136
  0
ELLIPSE
  5
DB
330
2
100
AcDbEntity
  8
GAIKEI
  6
Continuous
 62
     1
100
AcDbEllipse
 10
36.35664228418909
 20
17.71235748107847
 30
0.0
 11
-0.000027883082881
 21
-0.0166666433409982
 31
0.0
210
0.0
220
0.0
230
1.0
 40
0.9899903333396398
 41
1.57245256655046
 42
2.357850757822983
  0
LINE
  5
DC
330
2
100
AcDbEntity
  8
GAIKEI
  6
Continuous
 62
     1
100
AcDbLine
 10
33.39863225627892
 20
12.53920171876251
 30
0.0
 11
33.39863225627892
 21
12.63387036447693
 31
0.0
  0
LINE
  5
DD
330
2
100
AcDbEntity
  8
GAIKEI
  6
Continuous
 62
     1
100
AcDbLine
 10
33.39863225627892
 20
12.70498874238217
 30
0.0
 11
33.39863225627892
 21
12.63387036447693
 31
0.0
  0
LINE
  5
DE
330
2
100
AcDbEntity
  8
GAIKEI
  6
Continuous
 62
     1
100
AcDbLine
 10
33.39863225627892
 20
12.70498874238217
 30
0.0
 11
33.39863225627892
 21
12.82614557090642
 31
0.0
  0
LINE
  5
DF
330
2
100
AcDbEntity
  8
GAIKEI
  6
Continuous
 62
     1
100
AcDbLine
 10
33.39863225627892
 20
12.53920171883527
 30
0.0
 11
33.39863225627892
 21
12.53920099015306
 31
0.0
  0
LINE
  5
E0
330
2
100
AcDbEntity
  8
GAIKEI
  6
Continuous
 62
     1
100
AcDbLine
 10
33.46529892293893
 20
12.48720171322145
 30
0.0
 11
33.39863225627892
 21
12.48720171322145
 31
0.0
  0
LINE
  5
E1
330
2
100
AcDbEntity
  8
GAIKEI
  6
Continuous
 62
     1
100
AcDbLine
 10
33.39863225627892
 20
12.48720173034797
 30
0.0
 11
33.39863225627892
 21
12.53920099015306
 31
0.0
  0
LINE
  5
E2
330
2
100
AcDbEntity
  8
GAIKEI
  6
Continuous
 62
     1
100
AcDbLine
 10
33.39863225627892
 20
12.93103145844725
 30
0.0
 11
33.46529892293893
 21
12.93103145844725
 31
0.0
  0
LINE
  5
E3
330
2
100
AcDbEntity
  8
GAIKEI
  6
Continuous
 62
     1
100
AcDbLine
 10
33.39863225627892
 20
12.93103145844725
 30
0.0
 11
33.39863225627892
 21
12.82614556928502
 31
0.0
  0
LINE
  5
E4
330
2
100
AcDbEntity
  8
GAIKEI
  6
Continuous
 62
     1
100
AcDbLine
 10
33.46529892293893
 20
12.4869231141127
 30
0.0
 11
33.39863225627892
 21
12.4869231141127
 31
0.0
  0
LINE
  5
E5
330
2
100
AcDbEntity
  8
GAIKEI
  6
Continuous
 62
     1
100
AcDbLine
 10
33.39863225627892
 20
12.48723307281057
 30
0.0
 11
33.39863225627892
 21
12.48719147512105
 31
0.0
  0
LINE
  5
E6
330
2
100
AcDbEntity
  8
GAIKEI
  6
Continuous
 62
     1
100
AcDbLine
 10
33.39863225627892
 20
12.4869231140043
 30
0.0
 11
33.39863225627892
 21
12.48719147512105
 31
0.0
  0
LINE
  5
E7
330
2
100
AcDbEntity
  8
GAIKEI
  6
Continuous
 62
     7
100
AcDbLine
 10
34.99196558945323
 20
40.15260385006462
 30
0.0
 11
34.99196320353985
 21
40.15260372502427
 31
0.0
  0
LINE
  5
E8
330
2
100
AcDbEntity
  8
GAIKEI
  6
Continuous
 62
     7
100
AcDbLine
 10
35.02529892278324
 20
40.11927051673467
 30
0.0
 11
35.02529892278324
 21
40.01927051674459
 31
0.0
  0
LINE
  5
E9
330
2
100
AcDbEntity
  8
GAIKEI
  6
Continuous
 62
     1
100
AcDbLine
 10
35.02529892278324
 20
40.01927051674459
 30
0.0
 11
34.99196558945323
 21
40.01927051674459
 31
0.0
  0
LINE
  5
EA
330
2
100
AcDbEntity
  8
GAIKEI
  6
Continuous
 62
     1
100
AcDbLine
 10
34.99196320353991
 20
40.01945312040357
 30
0.0
 11
33.60868417265886
 21
39.9469585382663
 31
0.0
  0
LINE
  5
EB
330
2
100
AcDbEntity
  8
GAIKEI
  6
Continuous
 62
     1
100
AcDbLine
 10
33.60868417265886
 20
12.25824916466661
 30
0.0
 11
34.99196320353997
 21
12.18575458252934
 31
0.0
  0
LINE
  5
EC
330
2
100
AcDbEntity
  8
GAIKEI
  6
Continuous
 62
     1
100
AcDbLine
 10
33.60765395203379
 20
39.92251404070822
 30
0.0
 11
33.60765395203379
 21
12.28269366222469
 31
0.0
  0
LINE
  5
ED
330
2
100
AcDbEntity
  8
GAIKEI
  6
Continuous
 62
     7
100
AcDbLine
 10
35.02529892278324
 20
40.01927051674459
 30
0.0
 11
35.02529892278329
 21
12.08593718619823
 31
0.0
  0
LINE
  5
EE
330
2
100
AcDbEntity
  8
GAIKEI
  6
Continuous
 62
     1
100
AcDbLine
 10
34.99196558945323
 20
12.18593718618831
 30
0.0
 11
35.02529892278324
 21
12.18593718618831
 31
0.0
  0
LINE
  5
EF
330
2
100
AcDbEntity
  8
GAIKEI
  6
Continuous
 62
     7
100
AcDbLine
 10
34.99196320353991
 20
12.05260397790869
 30
0.0
 11
33.60765395203373
 21
12.12515255162111
 31
0.0
  0
LINE
  5
F0
330
2
100
AcDbEntity
  8
GAIKEI
  6
Continuous
 62
     7
100
AcDbLine
 10
33.60868417265886
 20
40.08010914288695
 30
0.0
 11
34.99196320353985
 21
40.15260372502422
 31
0.0
  0
LINE
  5
F1
330
2
100
AcDbEntity
  8
GAIKEI
  6
Continuous
 62
     7
100
AcDbLine
 10
33.56812504522304
 20
12.14818161988614
 30
0.0
 11
33.47053511985382
 21
12.3010674172188
 31
0.0
  0
LINE
  5
F2
330
2
100
AcDbEntity
  8
GAIKEI
  6
Continuous
 62
     7
100
AcDbLine
 10
33.47053511985382
 20
39.90414028571411
 30
0.0
 11
33.56812504522304
 21
40.05702608304676
 31
0.0
  0
LINE
  5
F3
330
2
100
AcDbEntity
  8
GAIKEI
  6
Continuous
 62
     7
100
AcDbLine
 10
33.60868417265886
 20
40.08010914288701
 30
0.0
 11
33.60765395203373
 21
40.08005515131185
 31
0.0
  0
LINE
  5
F4
330
2
100
AcDbEntity
  8
GAIKEI
  6
Continuous
 62
     7
100
AcDbLine
 10
33.46529892293893
 20
12.31900235619724
 30
0.0
 11
33.46529892293893
 21
39.88620534673567
 31
0.0
  0
ARC
  5
F5
330
2
100
AcDbEntity
  8
GAIKEI
  6
Continuous
 62
     7
100
AcDbCircle
 10
34.99196558945323
 20
40.11927051673467
 30
0.0
 40
0.0333333333300076
100
AcDbArc
 50
0.0
 51
90.0
  0
ARC
  5
F6
330
2
100
AcDbEntity
  8
GAIKEI
  6
Continuous
 62
     7
100
AcDbCircle
 10
34.99196558945323
 20
12.08593718619823
 30
0.0
 40
0.0333333333300076
100
AcDbArc
 50
270.0
 51
0.0
  0
ARC
  5
F7
330
2
100
AcDbEntity
  8
GAIKEI
  6
Continuous
 62
     7
100
AcDbCircle
 10
33.61027074984566
 20
12.17508402835381
 30
0.0
 40
0.0499999999950114
100
AcDbArc
 50
212.5508678714557
 51
266.9999999999944
  0
ARC
  5
F8
330
2
100
AcDbEntity
  8
GAIKEI
  6
Continuous
 62
     7
100
AcDbCircle
 10
33.49863225626894
 20
39.88620534673567
 30
0.0
 40
0.0333333333300076
100
AcDbArc
 50
147.4491321285442
 51
180.0
  0
ARC
  5
F9
330
2
100
AcDbEntity
  8
GAIKEI
  6
Continuous
 62
     7
100
AcDbCircle
 10
33.49863225626894
 20
12.31900235619724
 30
0.0
 40
0.0333333333300076
100
AcDbArc
 50
180.0000000000325
 51
212.5508678714819
  0
ELLIPSE
  5
FA
330
2
100
AcDbEntity
  8
GAIKEI
  6
Continuous
 62
     1
100
AcDbEllipse
 10
32.44781403134311
 20
40.01927051674459
 30
0.0
 11
2.544151558110117
 21
0.0
 31
0.0
210
0.0
220
0.0
230
1.0
 40
0.0524077792830372
 41
0.0
 42
0.0013695278703665
  0
ELLIPSE
  5
FB
330
2
100
AcDbEntity
  8
GAIKEI
  6
Continuous
 62
     1
100
AcDbEllipse
 10
33.85313821292715
 20
40.0429889595415
 30
0.0
 11
0.1820847421590489
 21
0.2647949924571904
 31
0.0
210
0.0
220
0.0
230
1.0
 40
0.6217793854148106
 41
2.314805322650925
 42
2.406452752831748
  0
ELLIPSE
  5
FC
330
2
100
AcDbEntity
  8
GAIKEI
  6
Continuous
 62
     1
100
AcDbEllipse
 10
32.44781403134323
 20
12.18593718618831
 30
0.0
 11
2.544151558110117
 21
0.0
 31
0.0
210
0.0
220
0.0
230
1.0
 40
0.0524077792830372
 41
6.281815779309091
 42
6.283185307179586
  0
ELLIPSE
  5
FD
330
2
100
AcDbEntity
  8
GAIKEI
  6
Continuous
 62
     1
100
AcDbEllipse
 10
33.85313821292715
 20
12.16221874339146
 30
0.0
 11
-0.1820847421590482
 21
0.2647949924571918
 31
0.0
210
0.0
220
0.0
230
1.0
 40
0.6217793854148083
 41
0.7351399007579947
 42
0.8267873309388068
  0
ELLIPSE
  5
FE
330
2
100
AcDbEntity
  8
GAIKEI
  6
Continuous
 62
     7
100
AcDbEllipse
 10
33.61130097047072
 20
40.03017766615426
 30
0.0
 11
0.0026167978118861
 21
-0.0499314767327469
 31
0.0
210
0.0
220
0.0
230
1.0
 40
0.9965844392198031
 41
3.141592653589793
 42
4.152613244623238
  0
ELLIPSE
  5
FF
330
2
100
AcDbEntity
  8
GAIKEI
  6
Continuous
 62
     7
100
AcDbEllipse
 10
33.85575501073902
 20
40.0429889595415
 30
0.0
 11
-0.2881495404636526
 21
0.012494559521736
 31
0.0
210
0.0
220
0.0
230
1.0
 40
0.0968455342409455
 41
6.227176795229617
 42
6.318824225410621
  0
DIMENSION
  5
100
330
2
100
AcDbEntity
  8
SUNPO
  6
Continuous
100
AcDbDimension
  2
*D8
 10
16.75812547883788
 20
12.05260385287147
 30
0.0
 11
15.00812547883788
 21
26.10260385146645
 31
0.0
 70
    33
  1
843
 71
     5
 42
28.09999999718997
  3
STANDARD
100
AcDbAlignedDimension
 13
8.758125478837882
 23
40.15260385006143
 33
0.0
 14
8.758125478837882
 24
12.05260385287147
 34
0.0
1001
ACAD
1000
DSTYLE
1002
{
1070
    40
1040
1.0
1070
   140
1040
2.5
1070
   147
1040
0.5
1070
   172
1070
     1
1070
   279
1070
     0
1070
   288
1070
     0
1002
}
  0
DIMENSION
  5
10F
330
2
100
AcDbEntity
  8
SUNPO
  6
Continuous
100
AcDbDimension
  2
*D7
 10
8.755541809881265
 20
48.14817712930426
 30
0.0
 11
-14.56112485445371
 21
49.89817712930426
 31
0.0
 70
    33
  1
1399
 71
     5
 42
46.63333332866995
  3
STANDARD
100
AcDbAlignedDimension
 13
-37.87779151878869
 23
40.14817712930425
 33
0.0
 14
8.755541809881265
 24
40.14817712930425
 34
0.0
1001
ACAD
1000
DSTYLE
1002
{
1070
    40
1040
1.0
1070
   140
1040
2.5
1070
   147
1040
0.5
1070
   172
1070
     1
1070
   279
1070
     0
1070
   288
1070
     0
1002
}
  0
SPLINE
  5
11C
330
2
100
AcDbEntity
  8
GAIKEI
  6
Continuous
 62
     1
100
AcDbSpline
210
0.0
220
0.0
230
1.0
 70
     8
 71
     3
 72
    21
 73
    17
 74
    15
 42
0.0000000001
 43
0.0000000001
 44
0.000001
 12
0.9999969226380834
 22
-0.0024808696788172
 32
0.0
 13
0.0018431554850293
 23
-0.9999983013874864
 33
0.0
 40
0.0
 40
0.0
 40
0.0
 40
0.0
 40
0.0153586680098095
 40
0.0307703763756715
 40
0.0461343238489069
 40
0.0612906984383677
 40
0.0764922540368724
 40
0.0916472461602842
 40
0.1072145701297105
 40
0.1228349838791786
 40
0.1384045846221904
 40
0.1536133149449909
 40
0.1688678604708463
 40
0.1840757649628317
 40
0.1992011987574688
 40
0.2143245386317254
 40
0.2143245386317254
 40
0.2143245386317254
 40
0.2143245386317254
 10
7.476337877873049
 20
39.01006534022656
 30
0.0
 10
7.481457418121578
 20
39.01005263927533
 30
0.0
 10
7.491723106626068
 20
39.00944940040427
 30
0.0
 10
7.506899471140144
 20
39.00677999298569
 30
0.0
 10
7.521624312022794
 20
39.00246921603201
 30
0.0
 10
7.535708282801834
 20
38.99656526776636
 30
0.0
 10
7.549011423349384
 20
38.98921253815007
 30
0.0
 10
7.561556549298018
 20
38.98038468679937
 30
0.0
 10
7.573098847407749
 20
38.97006462496035
 30
0.0
 10
7.583476657701595
 20
38.95839206203681
 30
0.0
 10
7.592402036225081
 20
38.94571926443916
 30
0.0
 10
7.599767649264606
 20
38.9322228681649
 30
0.0
 10
7.605588698727444
 20
38.91812422144568
 30
0.0
 10
7.609833404496669
 20
38.90350043884479
 30
0.0
 10
7.612412551911489
 20
38.88853824606946
 30
0.0
 10
7.612994007030692
 20
38.87844689351772
 30
0.0
 10
7.613003298586306
 20
38.87340578878917
 30
0.0
 11
7.476337877873049
 21
39.01006534022656
 31
0.0
 11
7.491670320462958
 21
39.00915791817459
 31
0.0
 11
7.506851158153835
 21
39.00650021806104
 31
0.0
 11
7.521594509357839
 21
39.00217764719963
 31
0.0
 11
7.535575921139525
 21
38.996326482472
 31
0.0
 11
7.548880153833692
 21
38.98897223334677
 31
0.0
 11
7.561264372816481
 21
38.98023694380618
 31
0.0
 11
7.572875644798841
 21
38.96986773619847
 31
0.0
 11
7.583257185753211
 21
38.95819634190775
 31
0.0
 11
7.592217349058273
 21
38.94546337781282
 31
0.0
 11
7.599513882158021
 21
38.93211922965316
 31
0.0
 11
7.605333014339635
 21
38.91801820077751
 31
0.0
 11
7.609564503166211
 21
38.90341083242134
 31
0.0
 11
7.61212968008067
 21
38.88850448919686
 31
0.0
 11
7.613003298586306
 21
38.87340578878917
 31
0.0
  0
SPLINE
  5
11D
330
2
100
AcDbEntity
  8
GAIKEI
  6
Continuous
 62
     1
100
AcDbSpline
210
0.0
220
0.0
230
1.0
 70
     8
 71
     3
 72
    21
 73
    17
 74
    15
 42
0.0000000001
 43
0.0000000001
 44
0.000001
 12
0.0024808696790623
 22
-0.9999969226380827
 32
0.0
 13
0.9999983013874874
 23
-0.0018431554845352
 33
0.0
 40
0.0
 40
0.0
 40
0.0
 40
0.0
 40
0.0153586680098946
 40
0.0307703763756775
 40
0.0461343238489243
 40
0.0612906984384332
 40
0.076492254036913
 40
0.091647246160404
 40
0.1072145701298515
 40
0.1228349838792228
 40
0.1384045846222743
 40
0.153613314945111
 40
0.1688678604709772
 40
0.1840757649628922
 40
0.199201198757595
 40
0.2143245386317615
 40
0.2143245386317615
 40
0.2143245386317615
 40
0.2143245386317615
 10
-36.73525300895597
 20
13.33180778488179
 30
0.0
 10
-36.73524030800471
 20
13.3266882446332
 30
0.0
 10
-36.7346370691337
 20
13.31642255612883
 30
0.0
 10
-36.73196766171509
 20
13.30124619161472
 30
0.0
 10
-36.72765688476147
 20
13.28652135073196
 30
0.0
 10
-36.72175293649565
 20
13.27243737995303
 30
0.0
 10
-36.71440020687948
 20
13.2591342394054
 30
0.0
 10
-36.70557235552866
 20
13.24658911345665
 30
0.0
 10
-36.69525229368981
 20
13.235046815347
 30
0.0
 10
-36.6835797307661
 20
13.22466900505321
 30
0.0
 10
-36.67090693316854
 20
13.21574362652961
 30
0.0
 10
-36.65741053689416
 20
13.20837801349029
 30
0.0
 10
-36.64331189017497
 20
13.20255696402728
 30
0.0
 10
-36.62868810757408
 20
13.19831225825828
 30
0.0
 10
-36.61372591479878
 20
13.19573311084326
 30
0.0
 10
-36.60363456224701
 20
13.1951516557242
 30
0.0
 10
-36.59859345751852
 20
13.19514236416859
 30
0.0
 11
-36.73525300895597
 21
13.33180778488179
 31
0.0
 11
-36.734345586904
 21
13.31647534229182
 31
0.0
 11
-36.73168788679044
 21
13.301294504601
 31
0.0
 11
-36.72736531592903
 21
13.286551153397
 31
0.0
 11
-36.72151415120135
 21
13.27256974161526
 31
0.0
 11
-36.71415990207618
 21
13.25926550892109
 31
0.0
 11
-36.70542461253552
 21
13.2468812899383
 31
0.0
 11
-36.69505540492776
 21
13.23527001795588
 31
0.0
 11
-36.6833840106371
 21
13.22488847700163
 31
0.0
 11
-36.67065104654211
 21
13.21592831369651
 31
0.0
 11
-36.65730689838239
 21
13.20863178059682
 31
0.0
 11
-36.6432058695068
 21
13.20281264841514
 31
0.0
 11
-36.62859850115064
 21
13.19858115958868
 31
0.0
 11
-36.61369215792615
 21
13.19601598267417
 31
0.0
 11
-36.59859345751852
 21
13.19514236416859
 31
0.0
  0
SPLINE
  5
11E
330
2
100
AcDbEntity
  8
GAIKEI
  6
Continuous
 62
     1
100
AcDbSpline
210
0.0
220
0.0
230
1.0
 70
     8
 71
     3
 72
    21
 73
    17
 74
    15
 42
0.0000000001
 43
0.0000000001
 44
0.000001
 12
-0.9999969226380834
 22
-0.002480869678817
 32
0.0
 13
-0.0018431554850292
 23
-0.9999983013874864
 33
0.0
 40
0.0
 40
0.0
 40
0.0
 40
0.0
 40
0.0153586680098662
 40
0.0307703763756723
 40
0.0461343238489622
 40
0.061290698438423
 40
0.0764922540369277
 40
0.0916472461603395
 40
0.1072145701297658
 40
0.1228349838791961
 40
0.138404584622208
 40
0.1536133149450357
 40
0.1688678604708911
 40
0.1840757649628607
 40
0.1992011987575074
 40
0.2143245386317607
 40
0.2143245386317607
 40
0.2143245386317607
 40
0.2143245386317607
 10
-36.59858758678047
 20
39.01006534022656
 30
0.0
 10
-36.60370712702903
 20
39.01005263927533
 30
0.0
 10
-36.61397281553343
 20
39.00944940040432
 30
0.0
 10
-36.62914918004765
 20
39.00677999298574
 30
0.0
 10
-36.64387402093024
 20
39.00246921603207
 30
0.0
 10
-36.65795799170922
 20
38.9965652677663
 30
0.0
 10
-36.67126113225683
 20
38.98921253815013
 30
0.0
 10
-36.68380625820558
 20
38.98038468679931
 30
0.0
 10
-36.69534855631523
 20
38.9700646249604
 30
0.0
 10
-36.70572636660904
 20
38.95839206203681
 30
0.0
 10
-36.7146517451325
 20
38.94571926443922
 30
0.0
 10
-36.72201735817208
 20
38.93222286816484
 30
0.0
 10
-36.72783840763498
 20
38.91812422144574
 30
0.0
 10
-36.73208311340406
 20
38.90350043884485
 30
0.0
 10
-36.73466226081899
 20
38.88853824606946
 30
0.0
 10
-36.73524371593811
 20
38.87844689351772
 30
0.0
 10
-36.73525300749373
 20
38.87340578878917
 30
0.0
 11
-36.59858758678047
 21
39.01006534022656
 31
0.0
 11
-36.61392002937044
 21
39.00915791817459
 31
0.0
 11
-36.62910086706125
 21
39.00650021806104
 31
0.0
 11
-36.64384421826532
 21
39.00217764719963
 31
0.0
 11
-36.657825630047
 21
38.996326482472
 31
0.0
 11
-36.67112986274117
 21
38.98897223334677
 31
0.0
 11
-36.68351408172396
 21
38.98023694380618
 31
0.0
 11
-36.69512535370632
 21
38.96986773619847
 31
0.0
 11
-36.70550689466063
 21
38.95819634190775
 31
0.0
 11
-36.71446705796569
 21
38.94546337781282
 31
0.0
 11
-36.7217635910655
 21
38.93211922965316
 31
0.0
 11
-36.72758272324711
 21
38.91801820077751
 31
0.0
 11
-36.73181421207363
 21
38.90341083242134
 31
0.0
 11
-36.73437938898814
 21
38.88850448919686
 31
0.0
 11
-36.73525300749373
 21
38.87340578878917
 31
0.0
  0
SPLINE
  5
11F
330
2
100
AcDbEntity
  8
GAIKEI
  6
Continuous
 62
     1
100
AcDbSpline
210
0.0
220
0.0
230
1.0
 70
     8
 71
     3
 72
    21
 73
    17
 74
    15
 42
0.0000000001
 43
0.0000000001
 44
0.000001
 12
-0.0024808696790624
 22
-0.9999969226380827
 32
0.0
 13
-0.9999983013874874
 23
-0.0018431554845351
 33
0.0
 40
0.0
 40
0.0
 40
0.0
 40
0.0
 40
0.0153586680098946
 40
0.0307703763756775
 40
0.0461343238489243
 40
0.0612906984384551
 40
0.076492254036935
 40
0.0916472461603932
 40
0.1072145701298786
 40
0.1228349838792074
 40
0.1384045846222588
 40
0.1536133149450956
 40
0.1688678604710143
 40
0.1840757649628748
 40
0.1992011987575775
 40
0.214324538631744
 40
0.214324538631744
 40
0.214324538631744
 40
0.214324538631744
 10
7.613003300048546
 20
13.33180778488179
 30
0.0
 10
7.612990599097287
 20
13.3266882446332
 30
0.0
 10
7.612387360226307
 20
13.31642255612883
 30
0.0
 10
7.609717952807699
 20
13.30124619161472
 30
0.0
 10
7.605407175854026
 20
13.28652135073184
 30
0.0
 10
7.599503227588172
 20
13.27243737995309
 30
0.0
 10
7.592150497972028
 20
13.2591342394054
 30
0.0
 10
7.583322646621269
 20
13.24658911345659
 30
0.0
 10
7.573002584782301
 20
13.235046815347
 30
0.0
 10
7.56133002185868
 20
13.22466900505316
 30
0.0
 10
7.54865722426112
 20
13.21574362652973
 30
0.0
 10
7.535160827986743
 20
13.20837801349023
 30
0.0
 10
7.521062181267495
 20
13.20255696402734
 30
0.0
 10
7.506438398666659
 20
13.19831225825822
 30
0.0
 10
7.491476205891359
 20
13.19573311084326
 30
0.0
 10
7.481384853339591
 20
13.1951516557242
 30
0.0
 10
7.4763437486111
 20
13.19514236416859
 30
0.0
 11
7.613003300048546
 21
13.33180778488179
 31
0.0
 11
7.61209587799658
 21
13.31647534229182
 31
0.0
 11
7.609438177883021
 21
13.301294504601
 31
0.0
 11
7.605115607021616
 21
13.286551153397
 31
0.0
 11
7.599264442293872
 21
13.27256974161526
 31
0.0
 11
7.5919101931687
 21
13.25926550892109
 31
0.0
 11
7.583174903628105
 21
13.2468812899383
 31
0.0
 11
7.572805696020282
 21
13.23527001795588
 31
0.0
 11
7.56113430172968
 21
13.22488847700163
 31
0.0
 11
7.548401337634686
 21
13.21592831369651
 31
0.0
 11
7.535057189474969
 21
13.20863178059682
 31
0.0
 11
7.520956160599325
 21
13.20281264841514
 31
0.0
 11
7.506348792243215
 21
13.19858115958868
 31
0.0
 11
7.491442449018734
 21
13.19601598267417
 31
0.0
 11
7.4763437486111
 21
13.19514236416859
 31
0.0
  0
SPLINE
  5
120
330
2
100
AcDbEntity
  8
GAIKEI
  6
Continuous
 62
     1
100
AcDbSpline
210
0.0
220
0.0
230
1.0
 70
     8
 71
     3
 72
    21
 73
    17
 74
    15
 42
0.0000000001
 43
0.0000000001
 44
0.000001
 12
0.0003233581301785
 22
-0.9999999477197583
 32
0.0
 13
-0.9999996219736271
 23
0.0008695128539302
 33
0.0
 40
0.0
 40
0.0
 40
0.0
 40
0.0
 40
0.0146633373139213
 40
0.0293769763722313
 40
0.0440458686232744
 40
0.0587346891400117
 40
0.0734688490877364
 40
0.0881578856715736
 40
0.1030301269337318
 40
0.1179492720706427
 40
0.1328213854133752
 40
0.1477445998385677
 40
0.1627153723919073
 40
0.1776383935531277
 40
0.1933696368517261
 40
0.20909632920301
 40
0.20909632920301
 40
0.20909632920301
 40
0.20909632920301
 10
8.683047102708883
 20
12.25824916466661
 30
0.0
 10
8.683048683212007
 20
12.25336138581752
 30
0.0
 10
8.68251796406858
 20
12.2435600460945
 30
0.0
 10
8.680107281789958
 20
12.22904903549602
 30
0.0
 10
8.676127607076978
 20
12.21487589095568
 30
0.0
 10
8.670566189723018
 20
12.2012382183301
 30
0.0
 10
8.663547490721214
 20
12.18828481590657
 30
0.0
 10
8.655122164601493
 20
12.17612216545598
 30
0.0
 10
8.645330012620604
 20
12.16494685606295
 30
0.0
 10
8.634321925448546
 20
12.15487940783987
 30
0.0
 10
8.622255572775884
 20
12.14607565442031
 30
0.0
 10
8.609245214145801
 20
12.13870298876986
 30
0.0
 10
8.595484264222761
 20
12.13281103357923
 30
0.0
 10
8.580893064933405
 20
12.12840782478133
 30
0.0
 10
8.565635414036989
 20
12.12570117616297
 30
0.0
 10
8.555138726890277
 20
12.12509400185888
 30
0.0
 10
8.54989649808823
 20
12.12509856004595
 30
0.0
 11
8.683047102708883
 21
12.25824916466661
 31
0.0
 11
8.682251308093441
 21
12.2436068718207
 31
0.0
 11
8.679843541328352
 21
12.22909156443501
 31
0.0
 11
8.675867553358557
 21
12.21497177665998
 31
0.0
 11
8.670330832844115
 21
12.20136637654247
 31
0.0
 11
8.663311610258347
 21
12.18841158456536
 31
0.0
 11
8.654939224485985
 21
12.17634213665246
 31
0.0
 11
8.645145625621807
 21
12.16514974439229
 31
0.0
 11
8.634136304062053
 21
12.15508116027632
 31
0.0
 11
8.622115814446317
 21
12.14632397761602
 31
0.0
 11
8.609137393432433
 21
12.13895760072995
 31
0.0
 11
8.595374590557923
 21
12.13306609019707
 31
0.0
 11
8.581085646546398
 21
12.12876221176782
 31
0.0
 11
8.565597481941722
 21
12.12600736642929
 31
0.0
 11
8.54989649808823
 21
12.12509856004595
 31
0.0
  0
SPLINE
  5
121
330
2
100
AcDbEntity
  8
GAIKEI
  6
Continuous
 62
     1
100
AcDbSpline
210
0.0
220
0.0
230
1.0
 70
     8
 71
     3
 72
    21
 73
    17
 74
    15
 42
0.0000000001
 43
0.0000000001
 44
0.000001
 12
-0.0003233581301786
 22
-0.9999999477197583
 32
0.0
 13
0.9999996219736271
 23
0.0008695128539302
 33
0.0
 40
0.0
 40
0.0
 40
0.0
 40
0.0
 40
0.0146633373139244
 40
0.0293769763722344
 40
0.0440458686232621
 40
0.0587346891400208
 40
0.0734688490877184
 40
0.088157885671588
 40
0.1030301269337462
 40
0.1179492720706572
 40
0.1328213854133437
 40
0.1477445998385362
 40
0.162715372391928
 40
0.177638393553094
 40
0.1933696368516924
 40
0.209096329203033
 40
0.209096329203033
 40
0.209096329203033
 40
0.209096329203033
 10
-37.80529681161636
 20
12.25824916466661
 30
0.0
 10
-37.80529839211948
 20
12.25336138581752
 30
0.0
 10
-37.804767672976
 20
12.24356004609456
 30
0.0
 10
-37.80235699069735
 20
12.2290490354959
 30
0.0
 10
-37.79837731598451
 20
12.21487589095568
 30
0.0
 10
-37.79281589863035
 20
12.20123821833016
 30
0.0
 10
-37.78579719962875
 20
12.18828481590662
 30
0.0
 10
-37.77737187350883
 20
12.17612216545603
 30
0.0
 10
-37.76757972152817
 20
12.16494685606284
 30
0.0
 10
-37.75657163435591
 20
12.15487940783998
 30
0.0
 10
-37.74450528168333
 20
12.14607565442031
 30
0.0
 10
-37.73149492305325
 20
12.13870298876981
 30
0.0
 10
-37.7177339731303
 20
12.13281103357923
 30
0.0
 10
-37.7031427738408
 20
12.12840782478127
 30
0.0
 10
-37.68788512294447
 20
12.12570117616297
 30
0.0
 10
-37.67738843579773
 20
12.12509400185888
 30
0.0
 10
-37.67214620699565
 20
12.12509856004595
 30
0.0
 11
-37.80529681161636
 21
12.25824916466661
 31
0.0
 11
-37.80450101700086
 21
12.2436068718207
 31
0.0
 11
-37.80209325023577
 21
12.22909156443501
 31
0.0
 11
-37.79811726226603
 21
12.21497177665998
 31
0.0
 11
-37.79258054175154
 21
12.20136637654247
 31
0.0
 11
-37.78556131916583
 21
12.18841158456536
 31
0.0
 11
-37.7771889333934
 21
12.17634213665246
 31
0.0
 11
-37.76739533452923
 21
12.16514974439229
 31
0.0
 11
-37.75638601296947
 21
12.15508116027632
 31
0.0
 11
-37.74436552335379
 21
12.14632397761602
 31
0.0
 11
-37.73138710233991
 21
12.13895760072995
 31
0.0
 11
-37.71762429946534
 21
12.13306609019707
 31
0.0
 11
-37.70333535545387
 21
12.12876221176782
 31
0.0
 11
-37.6878471908492
 21
12.12600736642929
 31
0.0
 11
-37.67214620699565
 21
12.12509856004595
 31
0.0
  0
SPLINE
  5
122
330
2
100
AcDbEntity
  8
GAIKEI
  6
Continuous
 62
     1
100
AcDbSpline
210
0.0
220
0.0
230
1.0
 70
     8
 71
     3
 72
    21
 73
    17
 74
    15
 42
0.0000000001
 43
0.0000000001
 44
0.000001
 12
0.9999996219736281
 22
0.0008695128527315
 32
0.0
 13
-0.0003233581291514
 23
-0.9999999477197587
 33
0.0
 40
0.0
 40
0.0
 40
0.0
 40
0.0
 40
0.0157266923512838
 40
0.0314579356498823
 40
0.0463809568111027
 40
0.0613517293644423
 40
0.0762749437896628
 40
0.0911470571323618
 40
0.1060662022692728
 40
0.1209384435313882
 40
0.1356274801152721
 40
0.1503616400629968
 40
0.1650504605797341
 40
0.1797193528307926
 40
0.1944329918890372
 40
0.2090963292030153
 40
0.2090963292030153
 40
0.2090963292030153
 40
0.2090963292030153
 10
8.54989649808823
 20
40.08010914288695
 30
0.0
 10
8.555138726890277
 20
40.08011370107396
 30
0.0
 10
8.565635414037046
 20
40.07950652677005
 30
0.0
 10
8.580893064933263
 20
40.07679987815151
 30
0.0
 10
8.595484264222847
 20
40.07239666935356
 30
0.0
 10
8.609245214145744
 20
40.06650471416304
 30
0.0
 10
8.622255572775856
 20
40.0591320485126
 30
0.0
 10
8.634321925448574
 20
40.05032829509303
 30
0.0
 10
8.645330012620604
 20
40.0402608468699
 30
0.0
 10
8.65512216460155
 20
40.02908553747704
 30
0.0
 10
8.663547490721214
 20
40.01692288702634
 30
0.0
 10
8.670566189723075
 20
40.00396948460286
 30
0.0
 10
8.676127607076921
 20
39.99033181197712
 30
0.0
 10
8.680107281789986
 20
39.976158667437
 30
0.0
 10
8.682517964068637
 20
39.96164765683841
 30
0.0
 10
8.683048683211978
 20
39.95184631711544
 30
0.0
 10
8.683047102708883
 20
39.9469585382663
 30
0.0
 11
8.54989649808823
 21
40.08010914288695
 31
0.0
 11
8.565597481941722
 21
40.07920033650361
 31
0.0
 11
8.581085646546398
 21
40.07644549116508
 31
0.0
 11
8.595374590557923
 21
40.07214161273583
 31
0.0
 11
8.609137393432433
 21
40.06625010220296
 31
0.0
 11
8.622115814446317
 21
40.05888372531683
 31
0.0
 11
8.634136304062053
 21
40.05012654265658
 31
0.0
 11
8.645145625621807
 21
40.04005795854062
 31
0.0
 11
8.654939224485985
 21
40.0288655662805
 31
0.0
 11
8.663311610258347
 21
40.01679611836755
 31
0.0
 11
8.670330832844115
 21
40.00384132639044
 31
0.0
 11
8.675867553358557
 21
39.99023592627293
 31
0.0
 11
8.679843541328409
 21
39.9761161384979
 31
0.0
 11
8.682251308093441
 21
39.96160083111226
 31
0.0
 11
8.683047102708883
 21
39.9469585382663
 31
0.0
  0
SPLINE
  5
123
330
2
100
AcDbEntity
  8
GAIKEI
  6
Continuous
 62
     1
100
AcDbSpline
210
0.0
220
0.0
230
1.0
 70
     8
 71
     3
 72
    21
 73
    17
 74
    15
 42
0.0000000001
 43
0.0000000001
 44
0.000001
 12
-0.9999996219736281
 22
0.0008695128527316
 32
0.0
 13
0.0003233581291513
 23
-0.9999999477197587
 33
0.0
 40
0.0
 40
0.0
 40
0.0
 40
0.0
 40
0.0157266923513406
 40
0.031457935649939
 40
0.046380956811105
 40
0.0613517293644968
 40
0.0762749437897174
 40
0.0911470571323704
 40
0.1060662022692814
 40
0.1209384435313968
 40
0.1356274801153131
 40
0.1503616400630107
 40
0.1650504605797695
 40
0.1797193528308125
 40
0.1944329918890572
 40
0.2090963292030383
 40
0.2090963292030383
 40
0.2090963292030383
 40
0.2090963292030383
 10
-37.67214620699565
 20
40.08010914288695
 30
0.0
 10
-37.67738843579773
 20
40.08011370107396
 30
0.0
 10
-37.68788512294449
 20
40.07950652676988
 30
0.0
 10
-37.7031427738408
 20
40.07679987815168
 30
0.0
 10
-37.7177339731303
 20
40.07239666935356
 30
0.0
 10
-37.73149492305328
 20
40.06650471416304
 30
0.0
 10
-37.74450528168333
 20
40.05913204851265
 30
0.0
 10
-37.75657163435594
 20
40.05032829509298
 30
0.0
 10
-37.76757972152808
 20
40.04026084687001
 30
0.0
 10
-37.77737187350891
 20
40.02908553747693
 30
0.0
 10
-37.78579719962875
 20
40.01692288702628
 30
0.0
 10
-37.79281589863035
 20
40.0039694846028
 30
0.0
 10
-37.79837731598448
 20
39.99033181197717
 30
0.0
 10
-37.80235699069744
 20
39.97615866743706
 30
0.0
 10
-37.80476767297597
 20
39.96164765683835
 30
0.0
 10
-37.80529839211946
 20
39.95184631711544
 30
0.0
 10
-37.80529681161636
 20
39.9469585382663
 30
0.0
 11
-37.67214620699565
 21
40.08010914288695
 31
0.0
 11
-37.6878471908492
 21
40.07920033650361
 31
0.0
 11
-37.70333535545387
 21
40.07644549116508
 31
0.0
 11
-37.71762429946534
 21
40.07214161273583
 31
0.0
 11
-37.73138710233991
 21
40.06625010220296
 31
0.0
 11
-37.74436552335379
 21
40.05888372531683
 31
0.0
 11
-37.75638601296947
 21
40.05012654265658
 31
0.0
 11
-37.76739533452923
 21
40.04005795854062
 31
0.0
 11
-37.7771889333934
 21
40.0288655662805
 31
0.0
 11
-37.78556131916583
 21
40.01679611836755
 31
0.0
 11
-37.79258054175154
 21
40.00384132639044
 31
0.0
 11
-37.79811726226603
 21
39.99023592627293
 31
0.0
 11
-37.80209325023583
 21
39.9761161384979
 31
0.0
 11
-37.80450101700086
 21
39.96160083111226
 31
0.0
 11
-37.80529681161636
 21
39.9469585382663
 31
0.0
  0
LINE
  5
124
330
2
100
AcDbEntity
  8
GAIKEI
  6
Continuous
 62
     1
100
AcDbLine
 10
-36.59859345751852
 20
13.19514236343741
 30
0.0
 11
7.4763437486111
 21
13.19514236343741
 31
0.0
  0
LINE
  5
125
330
2
100
AcDbEntity
  8
GAIKEI
  6
Continuous
 62
     1
100
AcDbLine
 10
-36.73525300822485
 20
38.87340578878917
 30
0.0
 11
-36.73525300822485
 21
13.33180778488201
 31
0.0
  0
LINE
  5
126
330
2
100
AcDbEntity
  8
GAIKEI
  6
Continuous
 62
     1
100
AcDbLine
 10
7.613003299317369
 20
38.87340578878917
 30
0.0
 11
7.613003299682986
 21
13.3318077848819
 31
0.0
  0
LINE
  5
127
330
2
100
AcDbEntity
  8
GAIKEI
  6
Continuous
 62
     1
100
AcDbLine
 10
7.476337877872879
 20
39.0100653394955
 30
0.0
 11
-36.59858758678036
 21
39.0100653394955
 31
0.0
  0
LINE
  5
128
330
2
100
AcDbEntity
  8
GAIKEI
  6
Continuous
 62
     1
100
AcDbLine
 10
8.489143306557593
 20
12.43557945955734
 30
0.0
 11
8.489143306557593
 21
39.76962824337557
 31
0.0
  0
LINE
  5
129
330
2
100
AcDbEntity
  8
GAIKEI
  6
Continuous
 62
     1
100
AcDbLine
 10
8.372566203197493
 20
12.31900235619724
 30
0.0
 11
-37.49481591210497
 21
12.31900235619724
 31
0.0
  0
LINE
  5
12A
330
2
100
AcDbEntity
  8
GAIKEI
  6
Continuous
 62
     1
100
AcDbLine
 10
-37.61139301546502
 20
12.43557945955734
 30
0.0
 11
-37.61139301546502
 21
39.76962824337557
 31
0.0
  0
LINE
  5
12B
330
2
100
AcDbEntity
  8
GAIKEI
  6
Continuous
 62
     1
100
AcDbLine
 10
-37.49481591210497
 20
39.88620534673567
 30
0.0
 11
8.372566203197493
 21
39.88620534673567
 31
0.0
  0
LINE
  5
12C
330
2
100
AcDbEntity
  8
GAIKEI
  6
Continuous
 62
     1
100
AcDbLine
 10
-37.14779151886688
 20
12.48260385282538
 30
0.0
 11
-37.07445818554083
 21
12.48260385282538
 31
0.0
  0
LINE
  5
12D
330
2
100
AcDbEntity
  8
GAIKEI
  6
Continuous
 62
     1
100
AcDbLine
 10
-37.07445818554083
 20
12.48260385282538
 30
0.0
 11
-37.07445818554083
 21
12.55593718615137
 31
0.0
  0
LINE
  5
12E
330
2
100
AcDbEntity
  8
GAIKEI
  6
Continuous
 62
     1
100
AcDbLine
 10
-37.07445818554083
 20
12.55593718615137
 30
0.0
 11
-37.14779151886688
 21
12.55593718615137
 31
0.0
  0
LINE
  5
12F
330
2
100
AcDbEntity
  8
GAIKEI
  6
Continuous
 62
     1
100
AcDbLine
 10
-37.14779151886688
 20
12.55593718615137
 30
0.0
 11
-37.14779151886688
 21
12.48260385282538
 31
0.0
  0
LINE
  5
130
330
2
100
AcDbEntity
  8
GAIKEI
  6
Continuous
 62
     1
100
AcDbLine
 10
-36.08445818563962
 20
12.61933394117682
 30
0.0
 11
-36.08445818563962
 21
12.41920709779987
 31
0.0
  0
LINE
  5
131
330
2
100
AcDbEntity
  8
GAIKEI
  6
Continuous
 62
     1
100
AcDbLine
 10
-36.0678549406731
 20
12.40260385283335
 30
0.0
 11
-35.86772809729609
 21
12.40260385283335
 31
0.0
  0
LINE
  5
132
330
2
100
AcDbEntity
  8
GAIKEI
  6
Continuous
 62
     1
100
AcDbLine
 10
-35.85112485232958
 20
12.41920709779987
 30
0.0
 11
-35.85112485232958
 21
12.61933394117682
 31
0.0
  0
LINE
  5
133
330
2
100
AcDbEntity
  8
GAIKEI
  6
Continuous
 62
     1
100
AcDbLine
 10
-35.86772809729609
 20
12.63593718614339
 30
0.0
 11
-36.0678549406731
 21
12.63593718614339
 31
0.0
  0
LINE
  5
134
330
2
100
AcDbEntity
  8
GAIKEI
  6
Continuous
 62
     1
100
AcDbLine
 10
8.548481068795126
 20
12.12515255162111
 30
0.0
 11
8.354631264219051
 21
12.31900235619719
 31
0.0
  0
LINE
  5
135
330
2
100
AcDbEntity
  8
GAIKEI
  6
Continuous
 62
     1
100
AcDbLine
 10
8.489143306557593
 20
12.45351439853573
 30
0.0
 11
8.682993111133782
 21
12.25966459395965
 31
0.0
  0
LINE
  5
136
330
2
100
AcDbEntity
  8
GAIKEI
  6
Continuous
 62
     1
100
AcDbLine
 10
-37.6707307777026
 20
12.12515255162111
 30
0.0
 11
-37.47688097312653
 21
12.31900235619724
 31
0.0
  0
LINE
  5
137
330
2
100
AcDbEntity
  8
GAIKEI
  6
Continuous
 62
     1
100
AcDbLine
 10
-37.61139301546502
 20
12.45351439853578
 30
0.0
 11
-37.8052428200412
 21
12.2596645939596
 31
0.0
  0
LINE
  5
138
330
2
100
AcDbEntity
  8
GAIKEI
  6
Continuous
 62
     1
100
AcDbLine
 10
-37.80529103985879
 20
39.9455913287909
 30
0.0
 11
-37.61139301546502
 21
39.75169330439712
 31
0.0
  0
LINE
  5
139
330
2
100
AcDbEntity
  8
GAIKEI
  6
Continuous
 62
     1
100
AcDbLine
 10
-37.47688097312647
 20
39.88620534673567
 30
0.0
 11
-37.6707307777026
 21
40.08005515131185
 31
0.0
  0
LINE
  5
13A
330
2
100
AcDbEntity
  8
GAIKEI
  6
Continuous
 62
     1
100
AcDbLine
 10
8.682993111133782
 20
39.94554310897331
 30
0.0
 11
8.489143306557593
 21
39.75169330439712
 31
0.0
  0
LINE
  5
13B
330
2
100
AcDbEntity
  8
GAIKEI
  6
Continuous
 62
     1
100
AcDbLine
 10
8.354631264219051
 20
39.88620534673567
 30
0.0
 11
8.548481068795183
 21
40.08005515131185
 31
0.0
  0
LINE
  5
13C
330
2
100
AcDbEntity
  8
GAIKEI
  6
Continuous
 62
     1
100
AcDbLine
 10
7.538875143341329
 20
38.86936188120905
 30
0.0
 11
7.538875143341329
 21
13.33584582172386
 31
0.0
  0
LINE
  5
13D
330
2
100
AcDbEntity
  8
GAIKEI
  6
Continuous
 62
     1
100
AcDbLine
 10
-36.66112485224875
 20
38.86936188120905
 30
0.0
 11
-36.66112485224875
 21
13.33584582172386
 31
0.0
  0
LINE
  5
13E
330
2
100
AcDbEntity
  8
GAIKEI
  6
Continuous
 62
     1
100
AcDbLine
 10
-36.59454954993845
 20
13.26927051941356
 30
0.0
 11
7.472299841030974
 21
13.26927051941356
 31
0.0
  0
LINE
  5
13F
330
2
100
AcDbEntity
  8
GAIKEI
  6
Continuous
 62
     1
100
AcDbLine
 10
7.472299841030974
 20
38.9359371835194
 30
0.0
 11
-36.59454954993845
 21
38.9359371835194
 31
0.0
  0
LINE
  5
140
330
2
100
AcDbEntity
  8
GAIKEI
  6
Continuous
 62
     1
100
AcDbLine
 10
-37.67209221542055
 20
12.12515255162111
 30
0.0
 11
8.549842506513073
 21
12.12515255162111
 31
0.0
  0
LINE
  5
141
330
2
100
AcDbEntity
  8
GAIKEI
  6
Continuous
 62
     1
100
AcDbLine
 10
8.54984250651313
 20
40.08005515131185
 30
0.0
 11
-37.67606734926074
 21
40.08005515131185
 31
0.0
  0
LINE
  5
142
330
2
100
AcDbEntity
  8
GAIKEI
  6
Continuous
 62
     1
100
AcDbLine
 10
8.682993111133782
 20
39.94690454669115
 30
0.0
 11
8.682993111133782
 21
12.25830315624171
 31
0.0
  0
LINE
  5
143
330
2
100
AcDbEntity
  8
GAIKEI
  6
Continuous
 62
     1
100
AcDbLine
 10
-37.8052428200412
 20
39.9469045466912
 30
0.0
 11
-37.8052428200412
 21
12.25830315624176
 31
0.0
  0
LINE
  5
144
330
2
100
AcDbEntity
  8
GAIKEI
  6
Continuous
 62
     7
100
AcDbLine
 10
-37.74445818547401
 20
12.05260385286829
 30
0.0
 11
8.622208476566584
 21
12.05260385286829
 31
0.0
  0
LINE
  5
145
330
2
100
AcDbEntity
  8
GAIKEI
  6
Continuous
 62
     7
100
AcDbLine
 10
-37.74445818547401
 20
40.15260385006462
 30
0.0
 11
8.622208476566584
 21
40.15260385006462
 31
0.0
  0
LINE
  5
146
330
2
100
AcDbEntity
  8
GAIKEI
  6
Continuous
 62
     7
100
AcDbLine
 10
-37.87779151879403
 20
40.01927051674459
 30
0.0
 11
-37.87779151879403
 21
12.18593718618831
 31
0.0
  0
LINE
  5
147
330
2
100
AcDbEntity
  8
GAIKEI
  6
Continuous
 62
     7
100
AcDbLine
 10
8.755541809886608
 20
40.01927051674459
 30
0.0
 11
8.755541809886608
 21
12.18593718618831
 31
0.0
  0
ARC
  5
148
330
2
100
AcDbEntity
  8
GAIKEI
  6
Continuous
 62
     7
100
AcDbCircle
 10
8.622208476566584
 20
40.01927051674459
 30
0.0
 40
0.1333333333200303
100
AcDbArc
 50
0.0784681669072888
 51
89.92153183309271
  0
ARC
  5
149
330
2
100
AcDbEntity
  8
GAIKEI
  6
Continuous
 62
     7
100
AcDbCircle
 10
-37.74445818547401
 20
40.01927051674459
 30
0.0
 40
0.1333333333200303
100
AcDbArc
 50
90.07846816690729
 51
179.9215318330927
  0
ARC
  5
14A
330
2
100
AcDbEntity
  8
GAIKEI
  6
Continuous
 62
     7
100
AcDbCircle
 10
8.622208476566584
 20
12.18593718618831
 30
0.0
 40
0.1333333333200303
100
AcDbArc
 50
270.0784681669073
 51
359.9215318330927
  0
ARC
  5
14B
330
2
100
AcDbEntity
  8
GAIKEI
  6
Continuous
 62
     7
100
AcDbCircle
 10
-37.74445818547401
 20
12.18593718618831
 30
0.0
 40
0.1333333333200303
100
AcDbArc
 50
180.0784681669072
 51
269.9215318330927
  0
ARC
  5
14C
330
2
100
AcDbEntity
  8
GAIKEI
  6
Continuous
 62
     1
100
AcDbCircle
 10
8.622208476566584
 20
12.18593718618831
 30
0.0
 40
0.1333333333200303
100
AcDbArc
 50
270.0
 51
270.0784681669073
  0
ARC
  5
14D
330
2
100
AcDbEntity
  8
GAIKEI
  6
Continuous
 62
     1
100
AcDbCircle
 10
-37.74445818547401
 20
12.18593718618831
 30
0.0
 40
0.1333333333200303
100
AcDbArc
 50
269.9215318330927
 51
270.0
  0
ARC
  5
14E
330
2
100
AcDbEntity
  8
GAIKEI
  6
Continuous
 62
     1
100
AcDbCircle
 10
-37.74445818547401
 20
40.01927051674459
 30
0.0
 40
0.1333333333200303
100
AcDbArc
 50
90.0
 51
90.07846816690729
  0
ARC
  5
14F
330
2
100
AcDbEntity
  8
GAIKEI
  6
Continuous
 62
     1
100
AcDbCircle
 10
8.622208476566584
 20
40.01927051674459
 30
0.0
 40
0.1333333333200303
100
AcDbArc
 50
89.92153183309271
 51
90.0
  0
ARC
  5
150
330
2
100
AcDbEntity
  8
GAIKEI
  6
Continuous
 62
     1
100
AcDbCircle
 10
-37.74445818547401
 20
12.18593718618831
 30
0.0
 40
0.1333333333200302
100
AcDbArc
 50
180.0
 51
180.0784681669072
  0
ARC
  5
151
330
2
100
AcDbEntity
  8
GAIKEI
  6
Continuous
 62
     1
100
AcDbCircle
 10
-37.74445818547401
 20
40.01927051674459
 30
0.0
 40
0.1333333333200302
100
AcDbArc
 50
179.9215318330927
 51
180.0
  0
ARC
  5
152
330
2
100
AcDbEntity
  8
GAIKEI
  6
Continuous
 62
     1
100
AcDbCircle
 10
8.622208476566584
 20
40.01927051674459
 30
0.0
 40
0.1333333333200302
100
AcDbArc
 50
0.0
 51
0.0784681669072888
  0
ARC
  5
153
330
2
100
AcDbEntity
  8
GAIKEI
  6
Continuous
 62
     1
100
AcDbCircle
 10
8.622208476566584
 20
12.18593718618831
 30
0.0
 40
0.1333333333200302
100
AcDbArc
 50
359.9215318330927
 51
0.0
  0
ELLIPSE
  5
154
330
2
100
AcDbEntity
  8
GAIKEI
  6
Continuous
 62
     1
100
AcDbEllipse
 10
8.086453214918606
 20
12.72169244783623
 30
0.0
 11
-0.3724071531088875
 21
0.3724071531088937
 31
0.0
210
0.0
220
0.0
230
1.0
 40
0.4113950764984434
 41
2.751301695074553
 42
3.531883612105071
  0
ELLIPSE
  5
155
330
2
100
AcDbEntity
  8
GAIKEI
  6
Continuous
 62
     1
100
AcDbEllipse
 10
-37.20870292382608
 20
12.72169244783623
 30
0.0
 11
-0.3724071531088872
 21
-0.372407153108894
 31
0.0
210
0.0
220
0.0
230
1.0
 40
0.4113950764984434
 41
5.892894348664307
 42
6.673476265694826
  0
ELLIPSE
  5
156
330
2
100
AcDbEntity
  8
GAIKEI
  6
Continuous
 62
     1
100
AcDbEllipse
 10
-37.20870292382608
 20
39.48351525509668
 30
0.0
 11
-0.3724071531088875
 21
0.3724071531088908
 31
0.0
210
0.0
220
0.0
230
0.9999999999999998
 40
0.4113950764984446
 41
5.892894348664372
 42
6.6734762656948
  0
ELLIPSE
  5
157
330
2
100
AcDbEntity
  8
GAIKEI
  6
Continuous
 62
     1
100
AcDbEllipse
 10
8.086453214918606
 20
39.48351525509668
 30
0.0
 11
-0.3724071531088875
 21
-0.3724071531088908
 31
0.0
210
0.0
220
0.0
230
0.9999999999999998
 40
0.4113950764984446
 41
2.751301695074598
 42
3.531883612105006
  0
ELLIPSE
  5
158
330
2
100
AcDbEntity
  8
GAIKEI
  6
Continuous
 62
     1
100
AcDbEllipse
 10
-36.06772785501556
 20
12.61920685551934
 30
0.0
 11
-0.0118749767969861
 21
0.0118749767969862
 31
0.0
210
0.0
220
0.0
230
1.0
 40
0.9924325091389665
 41
5.501585242056589
 42
7.064785372302583
  0
ELLIPSE
  5
159
330
2
100
AcDbEntity
  8
GAIKEI
  6
Continuous
 62
     1
100
AcDbEllipse
 10
-36.06772785501556
 20
12.41933418345741
 30
0.0
 11
-0.0118749767969861
 21
-0.0118749767969862
 31
0.0
210
0.0
220
0.0
230
1.0
 40
0.9924325091389665
 41
5.501585242056749
 42
7.06478537230338
  0
ELLIPSE
  5
15A
330
2
100
AcDbEntity
  8
GAIKEI
  6
Continuous
 62
     1
100
AcDbEllipse
 10
-35.86785518295363
 20
12.41933418345741
 30
0.0
 11
-0.0118749767969861
 21
0.0118749767969862
 31
0.0
210
0.0
220
0.0
230
1.0
 40
0.9924325091389665
 41
2.35999258846552
 42
3.923192718713348
  0
ELLIPSE
  5
15B
330
2
100
AcDbEntity
  8
GAIKEI
  6
Continuous
 62
     1
100
AcDbEllipse
 10
-35.86785518295363
 20
12.61920685551934
 30
0.0
 11
-0.0118749767969862
 21
-0.0118749767969861
 31
0.0
210
0.0
220
0.0
230
1.0
 40
0.9924325091389665
 41
2.359992588466317
 42
3.923192718713268
  0
ELLIPSE
  5
15C
330
2
100
AcDbEntity
  8
GAIKEI
  6
Continuous
 62
     1
100
AcDbEllipse
 10
7.472116986948094
 20
38.86917902712617
 30
0.0
 11
-0.0472697495576216
 21
-0.0472697495576216
 31
0.0
210
0.0
220
0.0
230
1.0
 40
0.9972646886342365
 41
2.35756401806304
 42
3.925621289116545
  0
ELLIPSE
  5
15D
330
2
100
AcDbEntity
  8
GAIKEI
  6
Continuous
 62
     1
100
AcDbEllipse
 10
-36.59436669585557
 20
38.86917902712617
 30
0.0
 11
-0.0472697495576216
 21
0.0472697495576217
 31
0.0
210
0.0
220
0.0
230
1.0
 40
0.9972646886342365
 41
5.499156671652833
 42
7.067213942706419
  0
ELLIPSE
  5
15E
330
2
100
AcDbEntity
  8
GAIKEI
  6
Continuous
 62
     1
100
AcDbEllipse
 10
-36.59436669585557
 20
13.3360286758068
 30
0.0
 11
-0.0472697495576216
 21
-0.0472697495576216
 31
0.0
210
0.0
220
0.0
230
1.0
 40
0.9972646886342365
 41
5.499156671652512
 42
7.067213942706339
  0
ELLIPSE
  5
15F
330
2
100
AcDbEntity
  8
GAIKEI
  6
Continuous
 62
     1
100
AcDbEllipse
 10
7.472116986948094
 20
13.3360286758068
 30
0.0
 11
-0.0472697495576216
 21
0.0472697495576217
 31
0.0
210
0.0
220
0.0
230
1.0
 40
0.9972646886342365
 41
2.35756401806304
 42
3.925621289116866
  0
LINE
  5
160
330
2
100
AcDbEntity
  8
GAIKEI
  6
Continuous
 62
     1
100
AcDbLine
 10
-36.00779151898064
 20
14.04427051933623
 30
0.0
 11
-36.00779151898064
 21
38.16093718359673
 31
0.0
  0
LINE
  5
161
330
2
100
AcDbEntity
  8
GAIKEI
  6
Continuous
 62
     1
100
AcDbLine
 10
6.885541810073164
 20
14.04427051933623
 30
0.0
 11
6.885541810073164
 21
38.16093718359673
 31
0.0
  0
LINE
  5
162
330
2
100
AcDbEntity
  8
GAIKEI
  6
Continuous
 62
     1
100
AcDbLine
 10
-36.00779151898064
 20
38.16093718359673
 30
0.0
 11
6.885541810073164
 21
38.16093718359673
 31
0.0
  0
LINE
  5
163
330
2
100
AcDbEntity
  8
GAIKEI
  6
Continuous
 62
     1
100
AcDbLine
 10
-36.00779151898064
 20
14.04427051933623
 30
0.0
 11
6.885541810073164
 21
14.04427051933623
 31
0.0
  0
POINT
  5
164
330
2
100
AcDbEntity
  8
GAIKEI
  6
Continuous
 62
     1
100
AcDbPoint
 10
37.67696237616389
 20
23.61927051828036
 30
0.0
  0
LINE
  5
165
330
2
100
AcDbEntity
  8
GAIKEI
  6
Continuous
 62
     1
100
AcDbLine
 10
37.34362904286399
 20
16.85260385229264
 30
0.0
 11
37.61029570950388
 21
16.85260385229264
 31
0.0
  0
LINE
  5
166
330
2
100
AcDbEntity
  8
GAIKEI
  6
Continuous
 62
     1
100
AcDbLine
 10
37.34362904286399
 20
30.38593718426802
 30
0.0
 11
37.61029570950388
 21
30.38593718426802
 31
0.0
  0
LINE
  5
167
330
2
100
AcDbEntity
  8
GAIKEI
  6
Continuous
 62
     1
100
AcDbLine
 10
37.44362904285396
 20
16.26927051901782
 30
0.0
 11
37.44362904285396
 21
16.20260385235787
 31
0.0
  0
LINE
  5
168
330
2
100
AcDbEntity
  8
GAIKEI
  6
Continuous
 62
     1
100
AcDbLine
 10
37.54362904284392
 20
16.26927051901782
 30
0.0
 11
37.44362904285396
 21
16.26927051901782
 31
0.0
  0
LINE
  5
169
330
2
100
AcDbEntity
  8
GAIKEI
  6
Continuous
 62
     1
100
AcDbLine
 10
37.54362904284392
 20
16.20260385235787
 30
0.0
 11
37.44362904285396
 21
16.20260385235787
 31
0.0
  0
LINE
  5
16A
330
2
100
AcDbEntity
  8
GAIKEI
  6
Continuous
 62
     1
100
AcDbLine
 10
37.61029570950388
 20
16.85260385229264
 30
0.0
 11
37.61029570950388
 21
16.86927051895765
 31
0.0
  0
ARC
  5
16B
330
2
100
AcDbEntity
  8
GAIKEI
  6
Continuous
 62
     1
100
AcDbCircle
 10
37.61029570950388
 20
16.86927051895765
 30
0.0
 40
0.0666666666599773
100
AcDbArc
 50
0.0
 51
45.05965000001839
  0
ARC
  5
16C
330
2
100
AcDbEntity
  8
GAIKEI
  6
Continuous
 62
     1
100
AcDbCircle
 10
37.59362904283887
 20
16.9359371856176
 30
0.0
 40
0.0666666666599773
100
AcDbArc
 50
270.0
 51
0.0
  0
LINE
  5
16D
330
2
100
AcDbEntity
  8
GAIKEI
  6
Continuous
 62
     1
100
AcDbLine
 10
37.44362904285396
 20
30.96927051754284
 30
0.0
 11
37.44362904285396
 21
31.0359371842028
 31
0.0
  0
LINE
  5
16E
330
2
100
AcDbEntity
  8
GAIKEI
  6
Continuous
 62
     1
100
AcDbLine
 10
37.54362904284392
 20
30.96927051754284
 30
0.0
 11
37.44362904285396
 21
30.96927051754284
 31
0.0
  0
LINE
  5
16F
330
2
100
AcDbEntity
  8
GAIKEI
  6
Continuous
 62
     1
100
AcDbLine
 10
37.54362904284392
 20
31.0359371842028
 30
0.0
 11
37.44362904285396
 21
31.0359371842028
 31
0.0
  0
LINE
  5
170
330
2
100
AcDbEntity
  8
GAIKEI
  6
Continuous
 62
     1
100
AcDbLine
 10
37.61029570950388
 20
30.38593718426802
 30
0.0
 11
37.61029570950388
 21
30.36927051760301
 31
0.0
  0
LINE
  5
171
330
2
100
AcDbEntity
  8
GAIKEI
  6
Continuous
 62
     1
100
AcDbLine
 10
37.66029570949888
 20
30.30260385094306
 30
0.0
 11
37.66029570949888
 21
16.9359371856176
 31
0.0
  0
ARC
  5
172
330
2
100
AcDbEntity
  8
GAIKEI
  6
Continuous
 62
     1
100
AcDbCircle
 10
37.61029570950388
 20
30.36927051760301
 30
0.0
 40
0.0666666666599773
100
AcDbArc
 50
314.9403499999816
 51
0.0
  0
ARC
  5
173
330
2
100
AcDbEntity
  8
GAIKEI
  6
Continuous
 62
     1
100
AcDbCircle
 10
37.59362904283887
 20
30.30260385094306
 30
0.0
 40
0.0666666666599773
100
AcDbArc
 50
0.0
 51
90.0
  0
ARC
  5
174
330
2
100
AcDbEntity
  8
GAIKEI
  6
Continuous
 62
     1
100
AcDbCircle
 10
37.21029570954397
 20
16.9359371856176
 30
0.0
 40
0.0666666666599773
100
AcDbArc
 50
180.0
 51
270.0
  0
ARC
  5
175
330
2
100
AcDbEntity
  8
GAIKEI
  6
Continuous
 62
     1
100
AcDbCircle
 10
37.07696237622412
 20
16.9359371856176
 30
0.0
 40
0.0666666666599773
100
AcDbArc
 50
0.0
 51
90.0
  0
ARC
  5
176
330
2
100
AcDbEntity
  8
GAIKEI
  6
Continuous
 62
     1
100
AcDbCircle
 10
37.21029570954397
 20
30.30260385094306
 30
0.0
 40
0.0666666666599773
100
AcDbArc
 50
90.0
 51
180.0
  0
ARC
  5
177
330
2
100
AcDbEntity
  8
GAIKEI
  6
Continuous
 62
     1
100
AcDbCircle
 10
37.07696237622412
 20
30.30260385094306
 30
0.0
 40
0.0666666666599773
100
AcDbArc
 50
270.0
 51
0.0
  0
LINE
  5
178
330
2
100
AcDbEntity
  8
GAIKEI
  6
Continuous
 62
     1
100
AcDbLine
 10
37.07696237622412
 20
16.9359371856176
 30
0.0
 11
37.14362904288407
 21
16.9359371856176
 31
0.0
  0
LINE
  5
179
330
2
100
AcDbEntity
  8
GAIKEI
  6
Continuous
 62
     1
100
AcDbLine
 10
37.07696237622412
 20
17.00260385227761
 30
0.0
 11
37.07696237622412
 21
16.93722301895081
 31
0.0
  0
LINE
  5
17A
330
2
100
AcDbEntity
  8
GAIKEI
  6
Continuous
 62
     1
100
AcDbLine
 10
37.01029570956411
 20
17.00260385227761
 30
0.0
 11
37.07696237622412
 21
17.00260385227761
 31
0.0
  0
LINE
  5
17B
330
2
100
AcDbEntity
  8
GAIKEI
  6
Continuous
 62
     1
100
AcDbLine
 10
37.07696237622412
 20
30.30260385094306
 30
0.0
 11
37.14362904288407
 21
30.30260385094306
 31
0.0
  0
LINE
  5
17C
330
2
100
AcDbEntity
  8
GAIKEI
  6
Continuous
 62
     1
100
AcDbLine
 10
37.01029570956411
 20
30.23593718428311
 30
0.0
 11
37.07696237622412
 21
30.23593718428311
 31
0.0
  0
CIRCLE
  5
17D
330
2
100
AcDbEntity
  8
GAIKEI
  6
Continuous
 62
     1
100
AcDbCircle
 10
37.27696237620398
 20
19.18593718539182
 30
0.0
 40
0.0833333333249716
  0
CIRCLE
  5
17E
330
2
100
AcDbEntity
  8
GAIKEI
  6
Continuous
 62
     1
100
AcDbCircle
 10
37.27696237620398
 20
19.18593718539182
 30
0.0
 40
0.0683333333264767
  0
ARC
  5
17F
330
2
100
AcDbEntity
  8
GAIKEI
  6
Continuous
 62
     1
100
AcDbCircle
 10
37.07696237622412
 20
30.30260385094306
 30
0.0
 40
0.0666666666599773
100
AcDbArc
 50
90.0
 51
180.0
  0
ARC
  5
180
330
2
100
AcDbEntity
  8
GAIKEI
  6
Continuous
 62
     1
100
AcDbCircle
 10
37.07696237622412
 20
16.9359371856176
 30
0.0
 40
0.0666666666599773
100
AcDbArc
 50
180.0
 51
270.0
  0
LINE
  5
181
330
2
100
AcDbEntity
  8
GAIKEI
  6
Continuous
 62
     1
100
AcDbLine
 10
37.07696237622412
 20
30.30260385094306
 30
0.0
 11
37.07696237622412
 21
30.23593718428311
 31
0.0
  0
LINE
  5
182
330
2
100
AcDbEntity
  8
GAIKEI
  6
Continuous
 62
     1
100
AcDbLine
 10
37.07696237622412
 20
30.36927051760301
 30
0.0
 11
37.59362904283887
 21
30.36927051760301
 31
0.0
  0
LINE
  5
183
330
2
100
AcDbEntity
  8
GAIKEI
  6
Continuous
 62
     1
100
AcDbLine
 10
37.07696237622412
 20
16.86927051895765
 30
0.0
 11
37.59362904283887
 21
16.86927051895765
 31
0.0
  0
LINE
  5
184
330
2
100
AcDbEntity
  8
GAIKEI
  6
Continuous
 62
     1
100
AcDbLine
 10
37.01029570956411
 20
30.30260385094306
 30
0.0
 11
37.01029570956411
 21
16.9359371856176
 31
0.0
  0
LINE
  5
185
330
2
100
AcDbEntity
  8
GAIKEI
  6
Continuous
 62
     1
100
AcDbLine
 10
37.67696237616389
 20
32.15260385075743
 30
0.0
 11
37.67696237616389
 21
30.36927051760301
 31
0.0
  0
LINE
  5
186
330
2
100
AcDbEntity
  8
GAIKEI
  6
Continuous
 62
     1
100
AcDbLine
 10
37.54362904284392
 20
15.08593718580323
 30
0.0
 11
37.54362904284392
 21
16.78593718563263
 31
0.0
  0
LINE
  5
187
330
2
100
AcDbEntity
  8
GAIKEI
  6
Continuous
 62
     1
100
AcDbLine
 10
37.61029570950388
 20
15.95260385238293
 30
0.0
 11
37.56060537617555
 21
15.89704835238859
 31
0.0
  0
ARC
  5
188
330
2
100
AcDbEntity
  8
GAIKEI
  6
Continuous
 62
     1
100
AcDbCircle
 10
37.61029570950388
 20
15.85260385239297
 30
0.0
 40
0.0666666666599773
100
AcDbArc
 50
138.1896849999924
 51
180.0
  0
LINE
  5
189
330
2
100
AcDbEntity
  8
GAIKEI
  6
Continuous
 62
     1
100
AcDbLine
 10
37.61029570950388
 20
15.28593718578315
 30
0.0
 11
37.56060537617555
 21
15.34149285244427
 31
0.0
  0
ARC
  5
18A
330
2
100
AcDbEntity
  8
GAIKEI
  6
Continuous
 62
     1
100
AcDbCircle
 10
37.61029570950388
 20
15.38593718577317
 30
0.0
 40
0.0666666666599773
100
AcDbArc
 50
180.0
 51
221.8103150000076
  0
ARC
  5
18B
330
2
100
AcDbEntity
  8
GAIKEI
  6
Continuous
 62
     1
100
AcDbCircle
 10
37.61029570950388
 20
16.78593718563263
 30
0.0
 40
0.0666666666599773
100
AcDbArc
 50
0.0
 51
90.0
  0
ARC
  5
18C
330
2
100
AcDbEntity
  8
GAIKEI
  6
Continuous
 62
     1
100
AcDbCircle
 10
37.61029570950388
 20
15.08593718580323
 30
0.0
 40
0.0666666666599773
100
AcDbArc
 50
270.0
 51
0.0
  0
LINE
  5
18D
330
2
100
AcDbEntity
  8
GAIKEI
  6
Continuous
 62
     1
100
AcDbLine
 10
37.34362904286399
 20
16.78593718563263
 30
0.0
 11
37.34362904286399
 21
16.85260385229264
 31
0.0
  0
LINE
  5
18E
330
2
100
AcDbEntity
  8
GAIKEI
  6
Continuous
 62
     1
100
AcDbLine
 10
37.34362904286399
 20
15.08593718580323
 30
0.0
 11
37.34362904286399
 21
15.01927051914328
 31
0.0
  0
LINE
  5
18F
330
2
100
AcDbEntity
  8
GAIKEI
  6
Continuous
 62
     1
100
AcDbLine
 10
37.34362904286399
 20
16.78593718563263
 30
0.0
 11
37.61029570950388
 21
16.78593718563263
 31
0.0
  0
LINE
  5
190
330
2
100
AcDbEntity
  8
GAIKEI
  6
Continuous
 62
     1
100
AcDbLine
 10
37.34362904286399
 20
15.08593718580323
 30
0.0
 11
37.61029570950388
 21
15.08593718580323
 31
0.0
  0
LINE
  5
191
330
2
100
AcDbEntity
  8
GAIKEI
  6
Continuous
 62
     1
100
AcDbLine
 10
37.34362904286399
 20
15.01927051914328
 30
0.0
 11
37.61029570950388
 21
15.01927051914328
 31
0.0
  0
LINE
  5
192
330
2
100
AcDbEntity
  8
GAIKEI
  6
Continuous
 62
     1
100
AcDbLine
 10
37.61029570950388
 20
15.08593718580323
 30
0.0
 11
37.61029570950388
 21
16.78593718563263
 31
0.0
  0
LINE
  5
193
330
2
100
AcDbEntity
  8
GAIKEI
  6
Continuous
 62
     1
100
AcDbLine
 10
37.67696237616389
 20
15.08593718580323
 30
0.0
 11
37.67696237616389
 21
16.86927051895765
 31
0.0
  0
LINE
  5
194
330
2
100
AcDbEntity
  8
GAIKEI
  6
Continuous
 62
     1
100
AcDbLine
 10
37.54362904284392
 20
32.15260385075743
 30
0.0
 11
37.54362904284392
 21
30.45260385092803
 31
0.0
  0
LINE
  5
195
330
2
100
AcDbEntity
  8
GAIKEI
  6
Continuous
 62
     1
100
AcDbLine
 10
37.61029570950388
 20
31.28593718417773
 30
0.0
 11
37.56060537617555
 21
31.34149285083879
 31
0.0
  0
ARC
  5
196
330
2
100
AcDbEntity
  8
GAIKEI
  6
Continuous
 62
     1
100
AcDbCircle
 10
37.61029570950388
 20
31.38593718416769
 30
0.0
 40
0.0666666666599773
100
AcDbArc
 50
180.0
 51
221.8103150000076
  0
LINE
  5
197
330
2
100
AcDbEntity
  8
GAIKEI
  6
Continuous
 62
     1
100
AcDbLine
 10
37.61029570950388
 20
31.95260385077751
 30
0.0
 11
37.56060537617555
 21
31.89704835078311
 31
0.0
  0
ARC
  5
198
330
2
100
AcDbEntity
  8
GAIKEI
  6
Continuous
 62
     1
100
AcDbCircle
 10
37.61029570950388
 20
31.85260385078755
 30
0.0
 40
0.0666666666599773
100
AcDbArc
 50
138.1896849999924
 51
180.0
  0
ARC
  5
199
330
2
100
AcDbEntity
  8
GAIKEI
  6
Continuous
 62
     1
100
AcDbCircle
 10
37.61029570950388
 20
30.45260385092803
 30
0.0
 40
0.0666666666599773
100
AcDbArc
 50
270.0
 51
0.0
  0
ARC
  5
19A
330
2
100
AcDbEntity
  8
GAIKEI
  6
Continuous
 62
     1
100
AcDbCircle
 10
37.61029570950388
 20
32.15260385075743
 30
0.0
 40
0.0666666666599773
100
AcDbArc
 50
0.0
 51
90.0
  0
LINE
  5
19B
330
2
100
AcDbEntity
  8
GAIKEI
  6
Continuous
 62
     1
100
AcDbLine
 10
37.34362904286399
 20
30.45260385092803
 30
0.0
 11
37.34362904286399
 21
30.38593718426802
 31
0.0
  0
LINE
  5
19C
330
2
100
AcDbEntity
  8
GAIKEI
  6
Continuous
 62
     1
100
AcDbLine
 10
37.34362904286399
 20
32.15260385075743
 30
0.0
 11
37.34362904286399
 21
32.21927051741739
 31
0.0
  0
LINE
  5
19D
330
2
100
AcDbEntity
  8
GAIKEI
  6
Continuous
 62
     1
100
AcDbLine
 10
37.34362904286399
 20
30.45260385092803
 30
0.0
 11
37.61029570950388
 21
30.45260385092803
 31
0.0
  0
LINE
  5
19E
330
2
100
AcDbEntity
  8
GAIKEI
  6
Continuous
 62
     1
100
AcDbLine
 10
37.34362904286399
 20
32.15260385075743
 30
0.0
 11
37.61029570950388
 21
32.15260385075743
 31
0.0
  0
LINE
  5
19F
330
2
100
AcDbEntity
  8
GAIKEI
  6
Continuous
 62
     1
100
AcDbLine
 10
37.34362904286399
 20
32.21927051741739
 30
0.0
 11
37.61029570950388
 21
32.21927051741739
 31
0.0
  0
LINE
  5
1A0
330
2
100
AcDbEntity
  8
GAIKEI
  6
Continuous
 62
     1
100
AcDbLine
 10
37.61029570950388
 20
32.15260385075743
 30
0.0
 11
37.61029570950388
 21
30.45260385092803
 31
0.0
  0
DIMENSION
  5
1A1
330
2
100
AcDbEntity
  8
SUNPO
100
AcDbDimension
  2
*D6
 10
-1.644458189078762
 20
3.969270519543215
 30
0.0
 11
-14.56112485445376
 21
5.719270519543215
 31
0.0
 70
    33
  1
775
 71
     5
 42
25.83333333075001
  3
STANDARD
100
AcDbAlignedDimension
 13
-27.47779151982877
 23
11.96927051954321
 33
0.0
 14
-1.644458189078761
 24
11.96927051954321
 34
0.0
1001
ACAD
1000
DSTYLE
1002
{
1070
   287
1070
     3
1070
   287
1070
     3
1070
   287
1070
     3
1070
   287
1070
     3
1070
   287
1070
     3
1070
   287
1070
     3
1070
   287
1070
     3
1070
   287
1070
     3
1070
   287
1070
     3
1070
   287
1070
     3
1070
   287
1070
     3
1070
    40
1040
1.0
1070
   140
1040
2.5
1070
   147
1040
0.5
1070
   172
1070
     1
1070
   279
1070
     0
1070
   288
1070
     0
1002
}
  0
DIMENSION
  5
1AE
330
2
100
AcDbEntity
  8
SUNPO
100
AcDbDimension
  2
*D5
 10
-46.28621711045929
 20
32.21927051751829
 30
0.0
 11
-48.0362171104593
 21
23.61927051837827
 31
0.0
 70
    33
  1
516
 71
     5
 42
17.19999999828002
  3
STANDARD
100
AcDbAlignedDimension
 13
-38.28621711045929
 23
15.01927051923826
 33
0.0
 14
-38.28621711045929
 24
32.21927051751829
 34
0.0
1001
ACAD
1000
DSTYLE
1002
{
1070
   287
1070
     3
1070
   287
1070
     3
1070
   287
1070
     3
1070
   287
1070
     3
1070
   287
1070
     3
1070
   287
1070
     3
1070
   287
1070
     3
1070
   287
1070
     3
1070
   287
1070
     3
1070
   287
1070
     3
1070
   287
1070
     3
1070
    40
1040
1.0
1070
   140
1040
2.5
1070
   147
1040
0.5
1070
   172
1070
     1
1070
   279
1070
     0
1070
   288
1070
     0
1002
}
  0
LINE
  5
1BB
330
2
100
AcDbEntity
  8
GAIKEI
  6
HIDDEN2
 62
     1
100
AcDbLine
 10
-3.802791522196287
 20
18.70260385220331
 30
0.0
 11
-3.802791522196287
 21
18.84697635218884
 31
0.0
  0
LINE
  5
1BD
330
2
100
AcDbEntity
  8
GAIKEI
  6
HIDDEN2
 62
     1
100
AcDbLine
 10
-3.319458188911312
 20
18.70260385220331
 30
0.0
 11
-3.319458188911312
 21
18.84697635218884
 31
0.0
  0
LINE
  5
1BE
330
2
100
AcDbEntity
  8
GAIKEI
  6
HIDDEN2
 62
     1
100
AcDbLine
 10
-25.80279151999628
 20
18.70260385220331
 30
0.0
 11
-25.80279151999628
 21
18.84697635218884
 31
0.0
  0
LINE
  5
1BF
330
2
100
AcDbEntity
  8
GAIKEI
  6
HIDDEN2
 62
     1
100
AcDbLine
 10
-25.3194581867113
 20
18.70260385220331
 30
0.0
 11
-25.3194581867113
 21
18.84697635218884
 31
0.0
  0
LINE
  5
1C0
330
2
100
AcDbEntity
  8
GAIKEI
  6
HIDDEN2
 62
     1
100
AcDbLine
 10
-26.64445818657873
 20
30.36927051770329
 30
0.0
 11
-26.64445818657873
 21
16.86927051905331
 31
0.0
  0
LINE
  5
1C1
330
2
100
AcDbEntity
  8
GAIKEI
  6
HIDDEN2
 62
     1
100
AcDbLine
 10
-24.47779152012879
 20
30.36927051770329
 30
0.0
 11
-24.47779152012879
 21
16.86927051905331
 31
0.0
  0
LINE
  5
1C2
330
2
100
AcDbEntity
  8
GAIKEI
  6
HIDDEN2
 62
     1
100
AcDbLine
 10
-4.644458188778799
 20
30.36927051770329
 30
0.0
 11
-4.644458188778799
 21
16.86927051905331
 31
0.0
  0
LINE
  5
1C3
330
2
100
AcDbEntity
  8
GAIKEI
  6
HIDDEN2
 62
     1
100
AcDbLine
 10
-2.477791522328743
 20
30.36927051770329
 30
0.0
 11
-2.477791522328743
 21
16.86927051905331
 31
0.0
  0
LINE
  5
1C4
330
2
100
AcDbEntity
  8
GAIKEI
  6
HIDDEN2
 62
     1
100
AcDbLine
 10
-22.89445818695378
 20
15.50260385252324
 30
0.0
 11
-19.56112485395374
 21
15.50260385252324
 31
0.0
  0
LINE
  5
1C5
330
2
100
AcDbEntity
  8
GAIKEI
  6
HIDDEN2
 62
     1
100
AcDbLine
 10
-22.89445818695378
 20
15.73593718583328
 30
0.0
 11
-19.56112485395374
 21
15.73593718583328
 31
0.0
  0
LINE
  5
1C6
330
2
100
AcDbEntity
  8
GAIKEI
  6
HIDDEN2
 62
     1
100
AcDbLine
 10
-27.47779151982877
 20
16.85260385238825
 30
0.0
 11
-1.644458189078761
 21
16.85260385238825
 31
0.0
  0
LINE
  5
1C7
330
2
100
AcDbEntity
  8
GAIKEI
  6
HIDDEN2
 62
     1
100
AcDbLine
 10
-4.227791522153779
 20
16.7859371857283
 30
0.0
 11
-24.89445818675375
 21
16.7859371857283
 31
0.0
  0
LINE
  5
1C8
330
2
100
AcDbEntity
  8
GAIKEI
  6
HIDDEN2
 62
     1
100
AcDbLine
 10
-2.144458189028796
 20
15.28593718587831
 30
0.0
 11
-26.97779151987879
 21
15.28593718587831
 31
0.0
  0
LINE
  5
1C9
330
2
100
AcDbEntity
  8
GAIKEI
  6
HIDDEN2
 62
     1
100
AcDbLine
 10
-1.644458189078761
 20
15.08593718589827
 30
0.0
 11
-27.47779151982877
 21
15.08593718589827
 31
0.0
  0
LINE
  5
1CA
330
2
100
AcDbEntity
  8
GAIKEI
  6
HIDDEN2
 62
     1
100
AcDbLine
 10
-1.644458189078761
 20
15.01927051923826
 30
0.0
 11
-27.47779151982877
 21
15.01927051923826
 31
0.0
  0
LINE
  5
1CB
330
2
100
AcDbEntity
  8
GAIKEI
  6
HIDDEN2
 62
     1
100
AcDbLine
 10
-15.22779152105374
 20
15.95260385247832
 30
0.0
 11
-24.11945818683131
 21
15.95260385247832
 31
0.0
  0
ARC
  5
1CC
330
2
100
AcDbEntity
  8
GAIKEI
  6
HIDDEN2
 62
     1
100
AcDbCircle
 10
-24.11945818683131
 20
16.28593718577826
 30
0.0
 40
0.3333333333
100
AcDbArc
 50
180.0
 51
270.0
  0
ARC
  5
1CD
330
2
100
AcDbEntity
  8
GAIKEI
  6
HIDDEN2
 62
     1
100
AcDbCircle
 10
-25.21112485338881
 20
17.84427051895579
 30
0.0
 40
0.216666666645
100
AcDbArc
 50
270.0
 51
0.0
  0
ARC
  5
1CE
330
2
100
AcDbEntity
  8
GAIKEI
  6
HIDDEN2
 62
     1
100
AcDbCircle
 10
-25.56112485335376
 20
15.61927051917831
 30
0.0
 40
0.116666666655
100
AcDbArc
 50
270.0
 51
90.0
  0
LINE
  5
1CF
330
2
100
AcDbEntity
  8
GAIKEI
  6
HIDDEN2
 62
     1
100
AcDbLine
 10
-24.56112485345375
 20
16.2692705191132
 30
0.0
 11
-25.06112485340373
 21
16.2692705191132
 31
0.0
  0
LINE
  5
1D0
330
2
100
AcDbEntity
  8
GAIKEI
  6
HIDDEN2
 62
     1
100
AcDbLine
 10
-24.56112485345375
 20
16.2026038524533
 30
0.0
 11
-25.06112485340373
 21
16.2026038524533
 31
0.0
  0
LINE
  5
1D1
330
2
100
AcDbEntity
  8
GAIKEI
  6
HIDDEN2
 62
     1
100
AcDbLine
 10
-24.55779152012087
 20
16.27593718577924
 30
0.0
 11
-25.06445818673683
 21
16.27593718577924
 31
0.0
  0
LINE
  5
1D2
330
2
100
AcDbEntity
  8
GAIKEI
  6
HIDDEN2
 62
     1
100
AcDbLine
 10
-24.55779152012087
 20
16.17593718578928
 30
0.0
 11
-25.06445818673683
 21
16.17593718578928
 31
0.0
  0
LINE
  5
1D3
330
2
100
AcDbEntity
  8
GAIKEI
  6
HIDDEN2
 62
     1
100
AcDbLine
 10
-25.06112485340373
 20
16.2026038524533
 30
0.0
 11
-25.06112485340373
 21
16.27593718577924
 31
0.0
  0
LINE
  5
1D4
330
2
100
AcDbEntity
  8
GAIKEI
  6
HIDDEN2
 62
     1
100
AcDbLine
 10
-25.06445818673683
 20
16.17593718578928
 30
0.0
 11
-25.06445818673683
 21
16.27593718577924
 31
0.0
  0
LINE
  5
1D5
330
2
100
AcDbEntity
  8
GAIKEI
  6
HIDDEN2
 62
     1
100
AcDbLine
 10
-24.89445818675375
 20
16.85260385238825
 30
0.0
 11
-24.89445818675375
 21
16.7859371857283
 31
0.0
  0
LINE
  5
1D6
330
2
100
AcDbEntity
  8
GAIKEI
  6
HIDDEN2
 62
     1
100
AcDbLine
 10
-24.45279152013132
 20
16.7859371857283
 30
0.0
 11
-24.45279152013132
 21
16.28593718577826
 31
0.0
  0
LINE
  5
1D7
330
2
100
AcDbEntity
  8
GAIKEI
  6
HIDDEN2
 62
     1
100
AcDbLine
 10
-24.56112485345375
 20
16.2026038524533
 30
0.0
 11
-24.56112485345375
 21
16.27593718577924
 31
0.0
  0
LINE
  5
1D8
330
2
100
AcDbEntity
  8
GAIKEI
  6
HIDDEN2
 62
     1
100
AcDbLine
 10
-24.55779152012087
 20
16.17593718578928
 30
0.0
 11
-24.55779152012087
 21
16.27593718577924
 31
0.0
  0
LINE
  5
1D9
330
2
100
AcDbEntity
  8
GAIKEI
  6
HIDDEN2
 62
     1
100
AcDbLine
 10
-24.56112485345375
 20
16.85260385238825
 30
0.0
 11
-24.56112485345375
 21
16.93593718571321
 31
0.0
  0
LINE
  5
1DA
330
2
100
AcDbEntity
  8
GAIKEI
  6
HIDDEN2
 62
     1
100
AcDbLine
 10
-24.62779152011376
 20
16.93593718571321
 30
0.0
 11
-24.56112485345375
 21
16.93593718571321
 31
0.0
  0
LINE
  5
1DB
330
2
100
AcDbEntity
  8
GAIKEI
  6
HIDDEN2
 62
     1
100
AcDbLine
 10
-24.62779152011376
 20
16.93593718571321
 30
0.0
 11
-24.62779152011376
 21
16.86927051905331
 31
0.0
  0
ARC
  5
1DC
330
2
100
AcDbEntity
  8
GAIKEI
  6
HIDDEN2
 62
     1
100
AcDbCircle
 10
-24.56112485345375
 20
16.93593718571321
 30
0.0
 40
0.06666666666
100
AcDbArc
 50
90.0
 51
180.0
  0
LINE
  5
1DD
330
2
100
AcDbEntity
  8
GAIKEI
  6
HIDDEN2
 62
     1
100
AcDbLine
 10
-24.5444581867888
 20
16.86927051905331
 30
0.0
 11
-24.47779152012879
 21
16.86927051905331
 31
0.0
  0
LINE
  5
1DE
330
2
100
AcDbEntity
  8
GAIKEI
  6
HIDDEN2
 62
     1
100
AcDbLine
 10
-24.47779152012879
 20
17.00260385237323
 30
0.0
 11
-24.56112485345375
 21
17.00260385237323
 31
0.0
  0
LINE
  5
1DF
330
2
100
AcDbEntity
  8
GAIKEI
  6
HIDDEN2
 62
     1
100
AcDbLine
 10
-24.5444581867888
 20
16.86927051905331
 30
0.0
 11
-24.5444581867888
 21
17.00260385237323
 31
0.0
  0
ARC
  5
1E0
330
2
100
AcDbEntity
  8
GAIKEI
  6
HIDDEN2
 62
     1
100
AcDbCircle
 10
-25.58612485335129
 20
18.70260385220331
 30
0.0
 40
0.216666666645
100
AcDbArc
 50
180.0
 51
270.0
  0
ARC
  5
1E1
330
2
100
AcDbEntity
  8
GAIKEI
  6
HIDDEN2
 62
     1
100
AcDbCircle
 10
-25.53612485335634
 20
18.70260385220331
 30
0.0
 40
0.216666666645
100
AcDbArc
 50
270.0
 51
0.0
  0
LINE
  5
1E2
330
2
100
AcDbEntity
  8
GAIKEI
  6
HIDDEN2
 62
     1
100
AcDbLine
 10
-25.53612485335634
 20
18.48593718555827
 30
0.0
 11
-25.58612485335129
 21
18.48593718555827
 31
0.0
  0
ARC
  5
1E3
330
2
100
AcDbEntity
  8
GAIKEI
  6
HIDDEN2
 62
     1
100
AcDbCircle
 10
-25.21112485338881
 20
17.89427051895074
 30
0.0
 40
0.216666666645
100
AcDbArc
 50
0.0
 51
90.0
  0
LINE
  5
1E4
330
2
100
AcDbEntity
  8
GAIKEI
  6
HIDDEN2
 62
     1
100
AcDbLine
 10
-24.99445818674383
 20
17.84427051895579
 30
0.0
 11
-24.99445818674383
 21
17.89427051895074
 31
0.0
  0
LINE
  5
1E5
330
2
100
AcDbEntity
  8
GAIKEI
  6
HIDDEN2
 62
     1
100
AcDbLine
 10
-26.57779151991884
 20
18.41927051889826
 30
0.0
 11
-26.57779151991884
 21
17.31927051900828
 31
0.0
  0
ARC
  5
1E6
330
2
100
AcDbEntity
  8
GAIKEI
  6
HIDDEN2
 62
     1
100
AcDbCircle
 10
-25.95870785331403
 20
17.29427051901075
 30
0.0
 40
0.3333333333
100
AcDbArc
 50
90.0
 51
139.1446240000014
  0
LINE
  5
1E7
330
2
100
AcDbEntity
  8
GAIKEI
  6
HIDDEN2
 62
     1
100
AcDbLine
 10
-26.0611248533038
 20
16.2692705191132
 30
0.0
 11
-26.56112485325377
 21
16.2692705191132
 31
0.0
  0
LINE
  5
1E8
330
2
100
AcDbEntity
  8
GAIKEI
  6
HIDDEN2
 62
     1
100
AcDbLine
 10
-26.0611248533038
 20
16.2026038524533
 30
0.0
 11
-26.56112485325377
 21
16.2026038524533
 31
0.0
  0
LINE
  5
1E9
330
2
100
AcDbEntity
  8
GAIKEI
  6
HIDDEN2
 62
     1
100
AcDbLine
 10
-26.56445818658682
 20
16.27593718577924
 30
0.0
 11
-26.05779151997081
 21
16.27593718577924
 31
0.0
  0
LINE
  5
1EA
330
2
100
AcDbEntity
  8
GAIKEI
  6
HIDDEN2
 62
     1
100
AcDbLine
 10
-26.56445818658682
 20
16.17593718578928
 30
0.0
 11
-26.05779151997081
 21
16.17593718578928
 31
0.0
  0
ARC
  5
1EB
330
2
100
AcDbEntity
  8
GAIKEI
  6
HIDDEN2
 62
     1
100
AcDbCircle
 10
-26.97779151987879
 20
15.61927051917831
 30
0.0
 40
0.116666666655
100
AcDbArc
 50
90.0
 51
270.0
  0
LINE
  5
1EC
330
2
100
AcDbEntity
  8
GAIKEI
  6
HIDDEN2
 62
     1
100
AcDbLine
 10
-26.66945818657627
 20
16.7859371857283
 30
0.0
 11
-26.66945818657627
 21
16.28521551911166
 31
0.0
  0
ARC
  5
1ED
330
2
100
AcDbEntity
  8
GAIKEI
  6
HIDDEN2
 62
     1
100
AcDbCircle
 10
-27.00279151987627
 20
16.28521551911166
 30
0.0
 40
0.3333333333
100
AcDbArc
 50
274.3012219999993
 51
0.0
  0
LINE
  5
1EE
330
2
100
AcDbEntity
  8
GAIKEI
  6
HIDDEN2
 62
     1
100
AcDbLine
 10
-26.56112485325377
 20
16.2026038524533
 30
0.0
 11
-26.56112485325377
 21
16.27593718577924
 31
0.0
  0
LINE
  5
1EF
330
2
100
AcDbEntity
  8
GAIKEI
  6
HIDDEN2
 62
     1
100
AcDbLine
 10
-26.56445818658682
 20
16.17593718578928
 30
0.0
 11
-26.56445818658682
 21
16.27593718577924
 31
0.0
  0
LINE
  5
1F0
330
2
100
AcDbEntity
  8
GAIKEI
  6
HIDDEN2
 62
     1
100
AcDbLine
 10
-26.22779151995377
 20
16.7859371857283
 30
0.0
 11
-27.47779151982877
 21
16.7859371857283
 31
0.0
  0
LINE
  5
1F1
330
2
100
AcDbEntity
  8
GAIKEI
  6
HIDDEN2
 62
     1
100
AcDbLine
 10
-26.56112485325377
 20
16.85260385238825
 30
0.0
 11
-26.56112485325377
 21
16.93593718571321
 31
0.0
  0
LINE
  5
1F2
330
2
100
AcDbEntity
  8
GAIKEI
  6
HIDDEN2
 62
     1
100
AcDbLine
 10
-26.22779151995377
 20
16.85260385238825
 30
0.0
 11
-26.22779151995377
 21
16.7859371857283
 31
0.0
  0
ARC
  5
1F3
330
2
100
AcDbEntity
  8
GAIKEI
  6
HIDDEN2
 62
     1
100
AcDbCircle
 10
-26.45400018659785
 20
17.48593718565826
 30
0.0
 40
0.16666666665
100
AcDbArc
 50
270.0
 51
319.1446240000014
  0
POINT
  5
1F4
330
2
100
AcDbEntity
  8
GAIKEI
  6
HIDDEN2
 62
     1
100
AcDbPoint
 10
-26.3777915199388
 20
17.31927051900828
 30
0.0
  0
LINE
  5
1F5
330
2
100
AcDbEntity
  8
GAIKEI
  6
HIDDEN2
 62
     1
100
AcDbLine
 10
-26.21082885328883
 20
17.51232118565565
 30
0.0
 11
-26.32793968661042
 21
17.37691185233581
 31
0.0
  0
LINE
  5
1F6
330
2
100
AcDbEntity
  8
GAIKEI
  6
HIDDEN2
 62
     1
100
AcDbLine
 10
-26.64445818657873
 20
17.31927051900828
 30
0.0
 11
-26.45400018659785
 21
17.31927051900828
 31
0.0
  0
LINE
  5
1F7
330
2
100
AcDbEntity
  8
GAIKEI
  6
HIDDEN2
 62
     1
100
AcDbLine
 10
-26.49445818659382
 20
16.93593718571321
 30
0.0
 11
-26.56112485325377
 21
16.93593718571321
 31
0.0
  0
LINE
  5
1F8
330
2
100
AcDbEntity
  8
GAIKEI
  6
HIDDEN2
 62
     1
100
AcDbLine
 10
-26.49445818659382
 20
16.93593718571321
 30
0.0
 11
-26.49445818659382
 21
16.86927051905331
 31
0.0
  0
ARC
  5
1F9
330
2
100
AcDbEntity
  8
GAIKEI
  6
HIDDEN2
 62
     1
100
AcDbCircle
 10
-26.56112485325377
 20
16.93593718571321
 30
0.0
 40
0.06666666666
100
AcDbArc
 50
0.0
 51
90.0
  0
LINE
  5
1FA
330
2
100
AcDbEntity
  8
GAIKEI
  6
HIDDEN2
 62
     1
100
AcDbLine
 10
-26.57779151991884
 20
16.86927051905331
 30
0.0
 11
-26.64445818657873
 21
16.86927051905331
 31
0.0
  0
LINE
  5
1FB
330
2
100
AcDbEntity
  8
GAIKEI
  6
HIDDEN2
 62
     1
100
AcDbLine
 10
-26.64445818657873
 20
17.00260385237323
 30
0.0
 11
-26.56112485325377
 21
17.00260385237323
 31
0.0
  0
LINE
  5
1FC
330
2
100
AcDbEntity
  8
GAIKEI
  6
HIDDEN2
 62
     1
100
AcDbLine
 10
-26.57779151991884
 20
16.86927051905331
 30
0.0
 11
-26.57779151991884
 21
17.00260385237323
 31
0.0
  0
LINE
  5
1FD
330
2
100
AcDbEntity
  8
GAIKEI
  6
HIDDEN2
 62
     1
100
AcDbLine
 10
-26.0611248533038
 20
16.2026038524533
 30
0.0
 11
-26.0611248533038
 21
16.27593718577924
 31
0.0
  0
LINE
  5
1FE
330
2
100
AcDbEntity
  8
GAIKEI
  6
HIDDEN2
 62
     1
100
AcDbLine
 10
-26.05779151997081
 20
16.17593718578928
 30
0.0
 11
-26.05779151997081
 21
16.27593718577924
 31
0.0
  0
POINT
  5
1FF
330
2
100
AcDbEntity
  8
GAIKEI
  6
HIDDEN2
 62
     1
100
AcDbPoint
 10
-26.11112485329881
 20
17.62760385231075
 30
0.0
  0
ARC
  5
200
330
2
100
AcDbEntity
  8
GAIKEI
  6
HIDDEN2
 62
     1
100
AcDbCircle
 10
-25.95870785331403
 20
18.44427051889579
 30
0.0
 40
0.3333333333
100
AcDbArc
 50
220.8553759999986
 51
270.0
  0
ARC
  5
201
330
2
100
AcDbEntity
  8
GAIKEI
  6
HIDDEN2
 62
     1
100
AcDbCircle
 10
-26.45400018659785
 20
18.25260385224828
 30
0.0
 40
0.16666666665
100
AcDbArc
 50
40.85537599999859
 51
90.0
  0
POINT
  5
202
330
2
100
AcDbEntity
  8
GAIKEI
  6
HIDDEN2
 62
     1
100
AcDbPoint
 10
-26.3777915199388
 20
18.41927051889826
 30
0.0
  0
LINE
  5
203
330
2
100
AcDbEntity
  8
GAIKEI
  6
HIDDEN2
 62
     1
100
AcDbLine
 10
-26.21082885328883
 20
18.22621985225089
 30
0.0
 11
-26.32793968661042
 21
18.36162918557068
 31
0.0
  0
LINE
  5
204
330
2
100
AcDbEntity
  8
GAIKEI
  6
HIDDEN2
 62
     1
100
AcDbLine
 10
-26.64445818657873
 20
18.41927051889826
 30
0.0
 11
-26.45400018659785
 21
18.41927051889826
 31
0.0
  0
POINT
  5
205
330
2
100
AcDbEntity
  8
GAIKEI
  6
HIDDEN2
 62
     1
100
AcDbPoint
 10
-26.11112485329881
 20
18.11093718559573
 30
0.0
  0
LINE
  5
206
330
2
100
AcDbEntity
  8
GAIKEI
  6
HIDDEN2
 62
     1
100
AcDbLine
 10
-27.47779151982877
 20
16.85260385238825
 30
0.0
 11
-27.47779151982877
 21
15.01927051923826
 31
0.0
  0
ARC
  5
207
330
2
100
AcDbEntity
  8
GAIKEI
  6
HIDDEN2
 62
     1
100
AcDbCircle
 10
-26.97779151987879
 20
15.61927051917831
 30
0.0
 40
0.3333333333
100
AcDbArc
 50
90.0
 51
270.0
  0
LINE
  5
208
330
2
100
AcDbEntity
  8
GAIKEI
  6
HIDDEN2
 62
     1
100
AcDbLine
 10
-26.56112485325377
 20
16.86927051905331
 30
0.0
 11
-24.56112485345375
 21
16.86927051905331
 31
0.0
  0
LINE
  5
209
330
2
100
AcDbEntity
  8
GAIKEI
  6
HIDDEN2
 62
     1
100
AcDbLine
 10
-26.97779151987879
 20
15.50260385252324
 30
0.0
 11
-25.56112485335376
 21
15.50260385252324
 31
0.0
  0
LINE
  5
20A
330
2
100
AcDbEntity
  8
GAIKEI
  6
HIDDEN2
 62
     1
100
AcDbLine
 10
-26.97779151987879
 20
15.73593718583328
 30
0.0
 11
-25.56112485335376
 21
15.73593718583328
 31
0.0
  0
LINE
  5
20B
330
2
100
AcDbEntity
  8
GAIKEI
  6
HIDDEN2
 62
     1
100
AcDbLine
 10
-25.21112485338881
 20
17.62760385231075
 30
0.0
 11
-25.95870785331403
 21
17.62760385231075
 31
0.0
  0
LINE
  5
20C
330
2
100
AcDbEntity
  8
GAIKEI
  6
HIDDEN2
 62
     1
100
AcDbLine
 10
-25.21112485338881
 20
18.11093718559573
 30
0.0
 11
-25.95870785331403
 21
18.11093718559573
 31
0.0
  0
ARC
  5
20D
330
2
100
AcDbEntity
  8
GAIKEI
  6
HIDDEN2
 62
     1
100
AcDbCircle
 10
-22.89445818695378
 20
15.61927051917831
 30
0.0
 40
0.116666666655
100
AcDbArc
 50
90.0
 51
270.0
  0
LINE
  5
20E
330
2
100
AcDbEntity
  8
GAIKEI
  6
HIDDEN2
 62
     1
100
AcDbLine
 10
-6.227791521953747
 20
15.50260385252324
 30
0.0
 11
-9.561124854953732
 21
15.50260385252324
 31
0.0
  0
LINE
  5
20F
330
2
100
AcDbEntity
  8
GAIKEI
  6
HIDDEN2
 62
     1
100
AcDbLine
 10
-6.227791521953747
 20
15.73593718583328
 30
0.0
 11
-9.561124854953732
 21
15.73593718583328
 31
0.0
  0
LINE
  5
210
330
2
100
AcDbEntity
  8
GAIKEI
  6
HIDDEN2
 62
     1
100
AcDbLine
 10
-13.89445818785373
 20
15.95260385247832
 30
0.0
 11
-5.002791522076279
 21
15.95260385247832
 31
0.0
  0
LINE
  5
211
330
2
100
AcDbEntity
  8
GAIKEI
  6
HIDDEN2
 62
     1
100
AcDbLine
 10
-14.06112485450376
 20
15.50260385252324
 30
0.0
 11
-12.89445818795377
 21
15.50260385252324
 31
0.0
  0
LINE
  5
212
330
2
100
AcDbEntity
  8
GAIKEI
  6
HIDDEN2
 62
     1
100
AcDbLine
 10
-14.06112485450376
 20
15.73593718583328
 30
0.0
 11
-12.89445818795377
 21
15.73593718583328
 31
0.0
  0
ARC
  5
213
330
2
100
AcDbEntity
  8
GAIKEI
  6
HIDDEN2
 62
     1
100
AcDbCircle
 10
-19.56112485395374
 20
15.61927051917831
 30
0.0
 40
0.116666666655
100
AcDbArc
 50
270.0
 51
90.0
  0
ARC
  5
214
330
2
100
AcDbEntity
  8
GAIKEI
  6
HIDDEN2
 62
     1
100
AcDbCircle
 10
-14.41112485446882
 20
15.74433051916583
 30
0.0
 40
0.03333333333
100
AcDbArc
 50
125.7617140000045
 51
180.0
  0
ARC
  5
215
330
2
100
AcDbEntity
  8
GAIKEI
  6
HIDDEN2
 62
     1
100
AcDbCircle
 10
-14.71112485443876
 20
15.74433051916583
 30
0.0
 40
0.03333333333
100
AcDbArc
 50
0.0
 51
54.23828599999552
  0
ARC
  5
216
330
2
100
AcDbEntity
  8
GAIKEI
  6
HIDDEN2
 62
     1
100
AcDbCircle
 10
-14.56112485445373
 20
15.61927051917831
 30
0.0
 40
0.116666666655
100
AcDbArc
 50
180.0
 51
0.0
  0
LINE
  5
217
330
2
100
AcDbEntity
  8
GAIKEI
  6
HIDDEN2
 62
     1
100
AcDbLine
 10
-14.67779152110881
 20
15.74433051916583
 30
0.0
 11
-14.67779152110881
 21
15.61927051917831
 31
0.0
  0
ARC
  5
218
330
2
100
AcDbEntity
  8
GAIKEI
  6
HIDDEN2
 62
     1
100
AcDbCircle
 10
-15.06112485440377
 20
15.61927051917831
 30
0.0
 40
0.116666666655
100
AcDbArc
 50
270.0
 51
90.0
  0
LINE
  5
219
330
2
100
AcDbEntity
  8
GAIKEI
  6
HIDDEN2
 62
     1
100
AcDbLine
 10
-14.44445818779877
 20
15.74433051916583
 30
0.0
 11
-14.44445818779877
 21
15.61927051917831
 31
0.0
  0
ARC
  5
21A
330
2
100
AcDbEntity
  8
GAIKEI
  6
HIDDEN2
 62
     1
100
AcDbCircle
 10
-14.06112485450376
 20
15.61927051917831
 30
0.0
 40
0.116666666655
100
AcDbArc
 50
90.0
 51
270.0
  0
ARC
  5
21B
330
2
100
AcDbEntity
  8
GAIKEI
  6
HIDDEN2
 62
     1
100
AcDbCircle
 10
-14.56112485445373
 20
16.28593718577826
 30
0.0
 40
0.116666666655
100
AcDbArc
 50
0.0
 51
180.0
  0
ARC
  5
21C
330
2
100
AcDbEntity
  8
GAIKEI
  6
HIDDEN2
 62
     1
100
AcDbCircle
 10
-14.56112485445373
 20
16.28593718577826
 30
0.0
 40
0.3333333333
100
AcDbArc
 50
0.0
 51
180.0
  0
ARC
  5
21D
330
2
100
AcDbEntity
  8
GAIKEI
  6
HIDDEN2
 62
     1
100
AcDbCircle
 10
-14.71112485443876
 20
16.16087718579081
 30
0.0
 40
0.03333333333
100
AcDbArc
 50
305.7617140000045
 51
0.0
  0
ARC
  5
21E
330
2
100
AcDbEntity
  8
GAIKEI
  6
HIDDEN2
 62
     1
100
AcDbCircle
 10
-14.56112485445373
 20
15.95260385247832
 30
0.0
 40
0.223333333311
100
AcDbArc
 50
125.7617140000045
 51
234.2382859999955
  0
ARC
  5
21F
330
2
100
AcDbEntity
  8
GAIKEI
  6
HIDDEN2
 62
     1
100
AcDbCircle
 10
-15.22779152105374
 20
16.28593718577826
 30
0.0
 40
0.3333333333
100
AcDbArc
 50
270.0
 51
0.0
  0
LINE
  5
220
330
2
100
AcDbEntity
  8
GAIKEI
  6
HIDDEN2
 62
     1
100
AcDbLine
 10
-14.67779152110881
 20
16.28593718577826
 30
0.0
 11
-14.67779152110881
 21
16.16087718579081
 31
0.0
  0
ARC
  5
221
330
2
100
AcDbEntity
  8
GAIKEI
  6
HIDDEN2
 62
     1
100
AcDbCircle
 10
-14.41112485446882
 20
16.16087718579081
 30
0.0
 40
0.03333333333
100
AcDbArc
 50
180.0
 51
234.2382859999955
  0
ARC
  5
222
330
2
100
AcDbEntity
  8
GAIKEI
  6
HIDDEN2
 62
     1
100
AcDbCircle
 10
-14.56112485445373
 20
15.95260385247832
 30
0.0
 40
0.223333333311
100
AcDbArc
 50
305.7617140000045
 51
54.23828599999552
  0
ARC
  5
223
330
2
100
AcDbEntity
  8
GAIKEI
  6
HIDDEN2
 62
     1
100
AcDbCircle
 10
-13.89445818785373
 20
16.28593718577826
 30
0.0
 40
0.3333333333
100
AcDbArc
 50
180.0
 51
270.0
  0
LINE
  5
224
330
2
100
AcDbEntity
  8
GAIKEI
  6
HIDDEN2
 62
     1
100
AcDbLine
 10
-14.44445818779877
 20
16.28593718577826
 30
0.0
 11
-14.44445818779877
 21
16.16087718579081
 31
0.0
  0
ARC
  5
225
330
2
100
AcDbEntity
  8
GAIKEI
  6
HIDDEN2
 62
     1
100
AcDbCircle
 10
-16.22779152095375
 20
15.61927051917831
 30
0.0
 40
0.116666666655
100
AcDbArc
 50
90.0
 51
270.0
  0
LINE
  5
226
330
2
100
AcDbEntity
  8
GAIKEI
  6
HIDDEN2
 62
     1
100
AcDbLine
 10
-15.06112485440377
 20
15.50260385252324
 30
0.0
 11
-16.22779152095375
 21
15.50260385252324
 31
0.0
  0
LINE
  5
227
330
2
100
AcDbEntity
  8
GAIKEI
  6
HIDDEN2
 62
     1
100
AcDbLine
 10
-15.06112485440377
 20
15.73593718583328
 30
0.0
 11
-16.22779152095375
 21
15.73593718583328
 31
0.0
  0
ARC
  5
228
330
2
100
AcDbEntity
  8
GAIKEI
  6
HIDDEN2
 62
     1
100
AcDbCircle
 10
-12.89445818795377
 20
15.61927051917831
 30
0.0
 40
0.116666666655
100
AcDbArc
 50
270.0
 51
90.0
  0
ARC
  5
229
330
2
100
AcDbEntity
  8
GAIKEI
  6
HIDDEN2
 62
     1
100
AcDbCircle
 10
-9.561124854953732
 20
15.61927051917831
 30
0.0
 40
0.116666666655
100
AcDbArc
 50
90.0
 51
270.0
  0
LINE
  5
22A
330
2
100
AcDbEntity
  8
GAIKEI
  6
HIDDEN2
 62
     1
100
AcDbLine
 10
-2.561124855653758
 20
16.86927051905331
 30
0.0
 11
-4.561124855453726
 21
16.86927051905331
 31
0.0
  0
LINE
  5
22B
330
2
100
AcDbEntity
  8
GAIKEI
  6
HIDDEN2
 62
     1
100
AcDbLine
 10
-2.144458189028796
 20
15.50260385252324
 30
0.0
 11
-3.561124855553771
 21
15.50260385252324
 31
0.0
  0
LINE
  5
22C
330
2
100
AcDbEntity
  8
GAIKEI
  6
HIDDEN2
 62
     1
100
AcDbLine
 10
-2.144458189028796
 20
15.73593718583328
 30
0.0
 11
-3.561124855553771
 21
15.73593718583328
 31
0.0
  0
LINE
  5
22D
330
2
100
AcDbEntity
  8
GAIKEI
  6
HIDDEN2
 62
     1
100
AcDbLine
 10
-3.211124855588764
 20
17.63593718564328
 30
0.0
 11
-3.432110688900024
 21
17.63593718564328
 31
0.0
  0
LINE
  5
22E
330
2
100
AcDbEntity
  8
GAIKEI
  6
HIDDEN2
 62
     1
100
AcDbLine
 10
-3.211124855588764
 20
18.1026038522632
 30
0.0
 11
-3.432110688900024
 21
18.1026038522632
 31
0.0
  0
ARC
  5
22F
330
2
100
AcDbEntity
  8
GAIKEI
  6
HIDDEN2
 62
     1
100
AcDbCircle
 10
-3.944458188848784
 20
17.86927051895327
 30
0.0
 40
0.483333333285
100
AcDbArc
 50
208.5035100000002
 51
262.0661989999985
  0
ARC
  5
230
330
2
100
AcDbEntity
  8
GAIKEI
  6
HIDDEN2
 62
     1
100
AcDbCircle
 10
-3.944458188848784
 20
17.86927051895327
 30
0.0
 40
0.483333333285
100
AcDbArc
 50
97.93380099999502
 51
151.4993069999999
  0
LINE
  5
231
330
2
100
AcDbEntity
  8
GAIKEI
  6
HIDDEN2
 62
     1
100
AcDbLine
 10
-4.561124855453726
 20
16.2692705191132
 30
0.0
 11
-4.061124855503749
 21
16.2692705191132
 31
0.0
  0
LINE
  5
232
330
2
100
AcDbEntity
  8
GAIKEI
  6
HIDDEN2
 62
     1
100
AcDbLine
 10
-4.561124855453726
 20
16.2026038524533
 30
0.0
 11
-4.061124855503749
 21
16.2026038524533
 31
0.0
  0
LINE
  5
233
330
2
100
AcDbEntity
  8
GAIKEI
  6
HIDDEN2
 62
     1
100
AcDbLine
 10
-4.564458188786829
 20
16.27593718577924
 30
0.0
 11
-4.057791522170873
 21
16.27593718577924
 31
0.0
  0
LINE
  5
234
330
2
100
AcDbEntity
  8
GAIKEI
  6
HIDDEN2
 62
     1
100
AcDbLine
 10
-4.564458188786829
 20
16.17593718578928
 30
0.0
 11
-4.057791522170873
 21
16.17593718578928
 31
0.0
  0
ARC
  5
235
330
2
100
AcDbEntity
  8
GAIKEI
  6
HIDDEN2
 62
     1
100
AcDbCircle
 10
-4.396815688803542
 20
17.6995135189702
 30
0.0
 40
0.0668388333266495
100
AcDbArc
 50
106.7514039999991
 51
294.6823879999998
  0
LINE
  5
236
330
2
100
AcDbEntity
  8
GAIKEI
  6
HIDDEN2
 62
     1
100
AcDbLine
 10
-4.669458188776275
 20
16.7859371857283
 30
0.0
 11
-4.669458188776275
 21
16.28593718577826
 31
0.0
  0
LINE
  5
237
330
2
100
AcDbEntity
  8
GAIKEI
  6
HIDDEN2
 62
     1
100
AcDbLine
 10
-4.561124855453726
 20
16.2026038524533
 30
0.0
 11
-4.561124855453726
 21
16.27593718577924
 31
0.0
  0
LINE
  5
238
330
2
100
AcDbEntity
  8
GAIKEI
  6
HIDDEN2
 62
     1
100
AcDbLine
 10
-4.564458188786829
 20
16.17593718578928
 30
0.0
 11
-4.564458188786829
 21
16.27593718577924
 31
0.0
  0
LINE
  5
239
330
2
100
AcDbEntity
  8
GAIKEI
  6
HIDDEN2
 62
     1
100
AcDbLine
 10
-4.561124855453726
 20
16.85260385238825
 30
0.0
 11
-4.561124855453726
 21
16.93593718571321
 31
0.0
  0
LINE
  5
23A
330
2
100
AcDbEntity
  8
GAIKEI
  6
HIDDEN2
 62
     1
100
AcDbLine
 10
-4.494458188793828
 20
16.93593718571321
 30
0.0
 11
-4.561124855453726
 21
16.93593718571321
 31
0.0
  0
LINE
  5
23B
330
2
100
AcDbEntity
  8
GAIKEI
  6
HIDDEN2
 62
     1
100
AcDbLine
 10
-4.494458188793828
 20
16.93593718571321
 30
0.0
 11
-4.494458188793828
 21
16.86927051905331
 31
0.0
  0
ARC
  5
23C
330
2
100
AcDbEntity
  8
GAIKEI
  6
HIDDEN2
 62
     1
100
AcDbCircle
 10
-4.561124855453726
 20
16.93593718571321
 30
0.0
 40
0.06666666666
100
AcDbArc
 50
0.0
 51
90.0
  0
LINE
  5
23D
330
2
100
AcDbEntity
  8
GAIKEI
  6
HIDDEN2
 62
     1
100
AcDbLine
 10
-4.577791522118786
 20
16.86927051905331
 30
0.0
 11
-4.644458188778799
 21
16.86927051905331
 31
0.0
  0
LINE
  5
23E
330
2
100
AcDbEntity
  8
GAIKEI
  6
HIDDEN2
 62
     1
100
AcDbLine
 10
-4.644458188778799
 20
17.00260385237323
 30
0.0
 11
-4.561124855453726
 21
17.00260385237323
 31
0.0
  0
LINE
  5
23F
330
2
100
AcDbEntity
  8
GAIKEI
  6
HIDDEN2
 62
     1
100
AcDbLine
 10
-4.577791522118786
 20
16.86927051905331
 30
0.0
 11
-4.577791522118786
 21
17.00260385237323
 31
0.0
  0
ARC
  5
240
330
2
100
AcDbEntity
  8
GAIKEI
  6
HIDDEN2
 62
     1
100
AcDbCircle
 10
-3.944458188848784
 20
17.86927051895327
 30
0.0
 40
0.483333333285
100
AcDbArc
 50
167.3612749999995
 51
192.6387249999973
  0
ARC
  5
241
330
2
100
AcDbEntity
  8
GAIKEI
  6
HIDDEN2
 62
     1
100
AcDbCircle
 10
-4.396815688803542
 20
18.03902768560294
 30
0.0
 40
0.0668388333266495
100
AcDbArc
 50
65.6119860000001
 51
253.2485960000009
  0
ARC
  5
242
330
2
100
AcDbEntity
  8
GAIKEI
  6
HIDDEN2
 62
     1
100
AcDbCircle
 10
-3.561124855553771
 20
15.61927051917831
 30
0.0
 40
0.116666666655
100
AcDbArc
 50
90.0
 51
270.0
  0
LINE
  5
243
330
2
100
AcDbEntity
  8
GAIKEI
  6
HIDDEN2
 62
     1
100
AcDbLine
 10
-4.061124855503749
 20
16.2026038524533
 30
0.0
 11
-4.061124855503749
 21
16.27593718577924
 31
0.0
  0
LINE
  5
244
330
2
100
AcDbEntity
  8
GAIKEI
  6
HIDDEN2
 62
     1
100
AcDbLine
 10
-4.057791522170873
 20
16.17593718578928
 30
0.0
 11
-4.057791522170873
 21
16.27593718577924
 31
0.0
  0
ARC
  5
245
330
2
100
AcDbEntity
  8
GAIKEI
  6
HIDDEN2
 62
     1
100
AcDbCircle
 10
-3.944458188848784
 20
17.86927051895327
 30
0.0
 40
0.483333333285
100
AcDbArc
 50
277.9309839999996
 51
322.0201280000003
  0
ARC
  5
246
330
2
100
AcDbEntity
  8
GAIKEI
  6
HIDDEN2
 62
     1
100
AcDbCircle
 10
-3.944458188848784
 20
17.38610935233493
 30
0.0
 40
0.0668388333266495
100
AcDbArc
 50
175.8873210000002
 51
4.112678999999832
  0
POINT
  5
247
330
2
100
AcDbEntity
  8
GAIKEI
  6
HIDDEN2
 62
     1
100
AcDbPoint
 10
-4.044458188838802
 20
17.62760385231075
 30
0.0
  0
LINE
  5
248
330
2
100
AcDbEntity
  8
GAIKEI
  6
HIDDEN2
 62
     1
100
AcDbLine
 10
-4.227791522153779
 20
16.85260385238825
 30
0.0
 11
-4.227791522153779
 21
16.7859371857283
 31
0.0
  0
ARC
  5
249
330
2
100
AcDbEntity
  8
GAIKEI
  6
HIDDEN2
 62
     1
100
AcDbCircle
 10
-3.432110688900024
 20
17.46927051899331
 30
0.0
 40
0.16666666665
100
AcDbArc
 50
90.0
 51
142.0201280000003
  0
ARC
  5
24A
330
2
100
AcDbEntity
  8
GAIKEI
  6
HIDDEN2
 62
     1
100
AcDbCircle
 10
-3.536124855556295
 20
18.70260385220331
 30
0.0
 40
0.216666666645
100
AcDbArc
 50
270.0
 51
0.0
  0
ARC
  5
24B
330
2
100
AcDbEntity
  8
GAIKEI
  6
HIDDEN2
 62
     1
100
AcDbCircle
 10
-3.586124855551247
 20
18.70260385220331
 30
0.0
 40
0.216666666645
100
AcDbArc
 50
180.0
 51
270.0
  0
ARC
  5
24C
330
2
100
AcDbEntity
  8
GAIKEI
  6
HIDDEN2
 62
     1
100
AcDbCircle
 10
-3.944458188848784
 20
17.86927051895327
 30
0.0
 40
0.483333333285
100
AcDbArc
 50
37.97987199999973
 51
82.06901600000037
  0
ARC
  5
24D
330
2
100
AcDbEntity
  8
GAIKEI
  6
HIDDEN2
 62
     1
100
AcDbCircle
 10
-3.944458188848784
 20
18.35243185223828
 30
0.0
 40
0.0668388333266495
100
AcDbArc
 50
355.8873210000002
 51
184.1126789999998
  0
ARC
  5
24E
330
2
100
AcDbEntity
  8
GAIKEI
  6
HIDDEN2
 62
     1
100
AcDbCircle
 10
-3.432110688900024
 20
18.26927051891323
 30
0.0
 40
0.16666666665
100
AcDbArc
 50
217.9798719999997
 51
270.0
  0
LINE
  5
24F
330
2
100
AcDbEntity
  8
GAIKEI
  6
HIDDEN2
 62
     1
100
AcDbLine
 10
-3.586124855551247
 20
18.48593718555827
 30
0.0
 11
-3.536124855556295
 21
18.48593718555827
 31
0.0
  0
ARC
  5
250
330
2
100
AcDbEntity
  8
GAIKEI
  6
HIDDEN2
 62
     1
100
AcDbCircle
 10
-6.227791521953747
 20
15.61927051917831
 30
0.0
 40
0.116666666655
100
AcDbArc
 50
270.0
 51
90.0
  0
ARC
  5
251
330
2
100
AcDbEntity
  8
GAIKEI
  6
HIDDEN2
 62
     1
100
AcDbCircle
 10
-5.002791522076279
 20
16.28593718577826
 30
0.0
 40
0.3333333333
100
AcDbArc
 50
270.0
 51
0.0
  0
ARC
  5
252
330
2
100
AcDbEntity
  8
GAIKEI
  6
HIDDEN2
 62
     1
100
AcDbCircle
 10
-3.211124855588764
 20
17.85260385228821
 30
0.0
 40
0.216666666645
100
AcDbArc
 50
270.0
 51
357.7974020000001
  0
ARC
  5
253
330
2
100
AcDbEntity
  8
GAIKEI
  6
HIDDEN2
 62
     1
100
AcDbCircle
 10
-2.144458189028796
 20
15.61927051917831
 30
0.0
 40
0.116666666655
100
AcDbArc
 50
270.0
 51
90.0
  0
LINE
  5
254
330
2
100
AcDbEntity
  8
GAIKEI
  6
HIDDEN2
 62
     1
100
AcDbLine
 10
-3.061124855603793
 20
16.2692705191132
 30
0.0
 11
-2.561124855653758
 21
16.2692705191132
 31
0.0
  0
LINE
  5
255
330
2
100
AcDbEntity
  8
GAIKEI
  6
HIDDEN2
 62
     1
100
AcDbLine
 10
-3.061124855603793
 20
16.2026038524533
 30
0.0
 11
-2.561124855653758
 21
16.2026038524533
 31
0.0
  0
LINE
  5
256
330
2
100
AcDbEntity
  8
GAIKEI
  6
HIDDEN2
 62
     1
100
AcDbLine
 10
-2.557791522320826
 20
16.27593718577924
 30
0.0
 11
-3.064458188936839
 21
16.27593718577924
 31
0.0
  0
LINE
  5
257
330
2
100
AcDbEntity
  8
GAIKEI
  6
HIDDEN2
 62
     1
100
AcDbLine
 10
-2.557791522320826
 20
16.17593718578928
 30
0.0
 11
-3.064458188936839
 21
16.17593718578928
 31
0.0
  0
LINE
  5
258
330
2
100
AcDbEntity
  8
GAIKEI
  6
HIDDEN2
 62
     1
100
AcDbLine
 10
-3.061124855603793
 20
16.2026038524533
 30
0.0
 11
-3.061124855603793
 21
16.27593718577924
 31
0.0
  0
LINE
  5
259
330
2
100
AcDbEntity
  8
GAIKEI
  6
HIDDEN2
 62
     1
100
AcDbLine
 10
-3.064458188936839
 20
16.17593718578928
 30
0.0
 11
-3.064458188936839
 21
16.27593718577924
 31
0.0
  0
LINE
  5
25A
330
2
100
AcDbEntity
  8
GAIKEI
  6
HIDDEN2
 62
     1
100
AcDbLine
 10
-2.452791522331324
 20
16.7859371857283
 30
0.0
 11
-2.452791522331324
 21
16.28521551911166
 31
0.0
  0
ARC
  5
25B
330
2
100
AcDbEntity
  8
GAIKEI
  6
HIDDEN2
 62
     1
100
AcDbCircle
 10
-2.11945818903132
 20
16.28521551911166
 30
0.0
 40
0.3333333333
100
AcDbArc
 50
180.0
 51
265.6987780000008
  0
LINE
  5
25C
330
2
100
AcDbEntity
  8
GAIKEI
  6
HIDDEN2
 62
     1
100
AcDbLine
 10
-2.561124855653758
 20
16.2026038524533
 30
0.0
 11
-2.561124855653758
 21
16.27593718577924
 31
0.0
  0
LINE
  5
25D
330
2
100
AcDbEntity
  8
GAIKEI
  6
HIDDEN2
 62
     1
100
AcDbLine
 10
-2.557791522320826
 20
16.17593718578928
 30
0.0
 11
-2.557791522320826
 21
16.27593718577924
 31
0.0
  0
LINE
  5
25E
330
2
100
AcDbEntity
  8
GAIKEI
  6
HIDDEN2
 62
     1
100
AcDbLine
 10
-2.894458188953763
 20
16.7859371857283
 30
0.0
 11
-1.644458189078761
 21
16.7859371857283
 31
0.0
  0
LINE
  5
25F
330
2
100
AcDbEntity
  8
GAIKEI
  6
HIDDEN2
 62
     1
100
AcDbLine
 10
-2.561124855653758
 20
16.85260385238825
 30
0.0
 11
-2.561124855653758
 21
16.93593718571321
 31
0.0
  0
LINE
  5
260
330
2
100
AcDbEntity
  8
GAIKEI
  6
HIDDEN2
 62
     1
100
AcDbLine
 10
-2.894458188953763
 20
16.85260385238825
 30
0.0
 11
-2.894458188953763
 21
16.7859371857283
 31
0.0
  0
LINE
  5
261
330
2
100
AcDbEntity
  8
GAIKEI
  6
HIDDEN2
 62
     1
100
AcDbLine
 10
-2.627791522313771
 20
16.93593718571321
 30
0.0
 11
-2.561124855653758
 21
16.93593718571321
 31
0.0
  0
LINE
  5
262
330
2
100
AcDbEntity
  8
GAIKEI
  6
HIDDEN2
 62
     1
100
AcDbLine
 10
-2.627791522313771
 20
16.93593718571321
 30
0.0
 11
-2.627791522313771
 21
16.86927051905331
 31
0.0
  0
ARC
  5
263
330
2
100
AcDbEntity
  8
GAIKEI
  6
HIDDEN2
 62
     1
100
AcDbCircle
 10
-2.561124855653758
 20
16.93593718571321
 30
0.0
 40
0.06666666666
100
AcDbArc
 50
90.0
 51
180.0
  0
LINE
  5
264
330
2
100
AcDbEntity
  8
GAIKEI
  6
HIDDEN2
 62
     1
100
AcDbLine
 10
-2.544458188988755
 20
16.86927051905331
 30
0.0
 11
-2.477791522328743
 21
16.86927051905331
 31
0.0
  0
LINE
  5
265
330
2
100
AcDbEntity
  8
GAIKEI
  6
HIDDEN2
 62
     1
100
AcDbLine
 10
-2.477791522328743
 20
17.00260385237323
 30
0.0
 11
-2.561124855653758
 21
17.00260385237323
 31
0.0
  0
LINE
  5
266
330
2
100
AcDbEntity
  8
GAIKEI
  6
HIDDEN2
 62
     1
100
AcDbLine
 10
-2.544458188988755
 20
16.86927051905331
 30
0.0
 11
-2.544458188988755
 21
17.00260385237323
 31
0.0
  0
ARC
  5
267
330
2
100
AcDbEntity
  8
GAIKEI
  6
HIDDEN2
 62
     1
100
AcDbCircle
 10
-3.211124855588764
 20
17.88593718561827
 30
0.0
 40
0.216666666645
100
AcDbArc
 50
2.202597999999913
 51
90.0
  0
LINE
  5
268
330
2
100
AcDbEntity
  8
GAIKEI
  6
HIDDEN2
 62
     1
100
AcDbLine
 10
-2.994458188943838
 20
17.84427051895579
 30
0.0
 11
-2.994458188943838
 21
17.89427051895074
 31
0.0
  0
LINE
  5
269
330
2
100
AcDbEntity
  8
GAIKEI
  6
HIDDEN2
 62
     1
100
AcDbLine
 10
-1.644458189078761
 20
16.85260385238825
 30
0.0
 11
-1.644458189078761
 21
15.01927051923826
 31
0.0
  0
ARC
  5
26A
330
2
100
AcDbEntity
  8
GAIKEI
  6
HIDDEN2
 62
     1
100
AcDbCircle
 10
-2.144458189028796
 20
15.61927051917831
 30
0.0
 40
0.3333333333
100
AcDbArc
 50
270.0
 51
90.0
  0
LINE
  5
26B
330
2
100
AcDbEntity
  8
GAIKEI
  6
HIDDEN2
 62
     1
100
AcDbLine
 10
-22.89445818695378
 20
31.73593718423325
 30
0.0
 11
-19.56112485395374
 21
31.73593718423325
 31
0.0
  0
LINE
  5
26C
330
2
100
AcDbEntity
  8
GAIKEI
  6
HIDDEN2
 62
     1
100
AcDbLine
 10
-22.89445818695378
 20
31.50260385092327
 30
0.0
 11
-19.56112485395374
 21
31.50260385092327
 31
0.0
  0
LINE
  5
26D
330
2
100
AcDbEntity
  8
GAIKEI
  6
HIDDEN2
 62
     1
100
AcDbLine
 10
-27.47779151982877
 20
30.38593718436829
 30
0.0
 11
-1.644458189078761
 21
30.38593718436829
 31
0.0
  0
LINE
  5
26E
330
2
100
AcDbEntity
  8
GAIKEI
  6
HIDDEN2
 62
     1
100
AcDbLine
 10
-4.227791522153779
 20
30.4526038510283
 30
0.0
 11
-24.89445818675375
 21
30.4526038510283
 31
0.0
  0
LINE
  5
26F
330
2
100
AcDbEntity
  8
GAIKEI
  6
HIDDEN2
 62
     1
100
AcDbLine
 10
-2.144458189028796
 20
31.95260385087829
 30
0.0
 11
-26.97779151987879
 21
31.95260385087829
 31
0.0
  0
LINE
  5
270
330
2
100
AcDbEntity
  8
GAIKEI
  6
HIDDEN2
 62
     1
100
AcDbLine
 10
-1.644458189078761
 20
32.15260385085827
 30
0.0
 11
-27.47779151982877
 21
32.15260385085827
 31
0.0
  0
LINE
  5
271
330
2
100
AcDbEntity
  8
GAIKEI
  6
HIDDEN2
 62
     1
100
AcDbLine
 10
-1.644458189078761
 20
32.21927051751829
 30
0.0
 11
-27.47779151982877
 21
32.21927051751829
 31
0.0
  0
LINE
  5
272
330
2
100
AcDbEntity
  8
GAIKEI
  6
HIDDEN2
 62
     1
100
AcDbLine
 10
-15.22779152105374
 20
31.28593718427828
 30
0.0
 11
-24.11945818683131
 21
31.28593718427828
 31
0.0
  0
ARC
  5
273
330
2
100
AcDbEntity
  8
GAIKEI
  6
HIDDEN2
 62
     1
100
AcDbCircle
 10
-25.01129702007546
 20
19.66927051877326
 30
0.0
 40
0.0668388333266495
100
AcDbArc
 50
270.1475399999991
 51
93.33963399999896
  0
ARC
  5
274
330
2
100
AcDbEntity
  8
GAIKEI
  6
HIDDEN2
 62
     1
100
AcDbCircle
 10
-25.96945818664631
 20
18.84697635218884
 30
0.0
 40
0.16666666665
100
AcDbArc
 50
0.0
 51
55.26599000000138
  0
LINE
  5
275
330
2
100
AcDbEntity
  8
GAIKEI
  6
HIDDEN2
 62
     1
100
AcDbLine
 10
-25.01112485340878
 20
19.43593718546322
 30
0.0
 11
-25.01112485340878
 21
19.60243201877995
 31
0.0
  0
ARC
  5
276
330
2
100
AcDbEntity
  8
GAIKEI
  6
HIDDEN2
 62
     1
100
AcDbCircle
 10
-25.15279152006133
 20
18.84697635218884
 30
0.0
 40
0.16666666665
100
AcDbArc
 50
124.7340099999986
 51
180.0
  0
ARC
  5
277
330
2
100
AcDbEntity
  8
GAIKEI
  6
HIDDEN2
 62
     1
100
AcDbCircle
 10
-25.56112485335376
 20
19.43593718546322
 30
0.0
 40
0.5499999999449999
100
AcDbArc
 50
304.7340099999987
 51
0.0
  0
ARC
  5
278
330
2
100
AcDbEntity
  8
GAIKEI
  6
HIDDEN2
 62
     1
100
AcDbCircle
 10
-26.11095285329879
 20
19.66927051877326
 30
0.0
 40
0.0668388333266495
100
AcDbArc
 50
86.66036600000103
 51
269.8524600000009
  0
LINE
  5
279
330
2
100
AcDbEntity
  8
GAIKEI
  6
HIDDEN2
 62
     1
100
AcDbLine
 10
-26.11112485329881
 20
19.43593718546322
 30
0.0
 11
-26.11112485329881
 21
19.60254518544656
 31
0.0
  0
ARC
  5
27A
330
2
100
AcDbEntity
  8
GAIKEI
  6
HIDDEN2
 62
     1
100
AcDbCircle
 10
-25.56112485335376
 20
19.43593718546322
 30
0.0
 40
0.5499999999449999
100
AcDbArc
 50
180.0
 51
235.2659900000014
  0
ARC
  5
27B
330
2
100
AcDbEntity
  8
GAIKEI
  6
HIDDEN2
 62
     1
100
AcDbCircle
 10
-25.56112485335376
 20
19.66927051877326
 30
0.0
 40
0.5499999999449999
100
AcDbArc
 50
6.93104499999877
 51
173.0264239999988
  0
ARC
  5
27C
330
2
100
AcDbEntity
  8
GAIKEI
  6
HIDDEN2
 62
     1
100
AcDbCircle
 10
-25.21112485338881
 20
28.51093718455582
 30
0.0
 40
0.216666666645
100
AcDbArc
 50
270.0
 51
0.0
  0
ARC
  5
27D
330
2
100
AcDbEntity
  8
GAIKEI
  6
HIDDEN2
 62
     1
100
AcDbCircle
 10
-25.21112485338881
 20
28.56093718455077
 30
0.0
 40
0.216666666645
100
AcDbArc
 50
0.0
 51
90.0
  0
LINE
  5
27E
330
2
100
AcDbEntity
  8
GAIKEI
  6
HIDDEN2
 62
     1
100
AcDbLine
 10
-24.99445818674383
 20
28.51093718455582
 30
0.0
 11
-24.99445818674383
 21
28.56093718455077
 31
0.0
  0
ARC
  5
27F
330
2
100
AcDbEntity
  8
GAIKEI
  6
HIDDEN2
 62
     1
100
AcDbCircle
 10
-25.95870785331403
 20
29.11093718449576
 30
0.0
 40
0.3333333333
100
AcDbArc
 50
220.8553759999986
 51
270.0
  0
ARC
  5
280
330
2
100
AcDbEntity
  8
GAIKEI
  6
HIDDEN2
 62
     1
100
AcDbCircle
 10
-25.95870785331403
 20
27.96093718461077
 30
0.0
 40
0.3333333333
100
AcDbArc
 50
90.0
 51
139.1446240000014
  0
LINE
  5
281
330
2
100
AcDbEntity
  8
GAIKEI
  6
HIDDEN2
 62
     1
100
AcDbLine
 10
-26.57779151991884
 20
29.08593718449822
 30
0.0
 11
-26.57779151991884
 21
27.98593718460825
 31
0.0
  0
ARC
  5
282
330
2
100
AcDbEntity
  8
GAIKEI
  6
HIDDEN2
 62
     1
100
AcDbCircle
 10
-26.45400018659785
 20
28.15260385125828
 30
0.0
 40
0.16666666665
100
AcDbArc
 50
270.0
 51
319.1446240000014
  0
POINT
  5
283
330
2
100
AcDbEntity
  8
GAIKEI
  6
HIDDEN2
 62
     1
100
AcDbPoint
 10
-26.3777915199388
 20
27.98593718460825
 30
0.0
  0
LINE
  5
284
330
2
100
AcDbEntity
  8
GAIKEI
  6
HIDDEN2
 62
     1
100
AcDbLine
 10
-26.21082885328883
 20
28.17898785125567
 30
0.0
 11
-26.32793968661042
 21
28.04357851793583
 31
0.0
  0
LINE
  5
285
330
2
100
AcDbEntity
  8
GAIKEI
  6
HIDDEN2
 62
     1
100
AcDbLine
 10
-26.64445818657873
 20
27.98593718460825
 30
0.0
 11
-26.45400018659785
 21
27.98593718460825
 31
0.0
  0
ARC
  5
286
330
2
100
AcDbEntity
  8
GAIKEI
  6
HIDDEN2
 62
     1
100
AcDbCircle
 10
-26.45400018659785
 20
28.91927051784825
 30
0.0
 40
0.16666666665
100
AcDbArc
 50
40.85537599999859
 51
90.0
  0
LINE
  5
287
330
2
100
AcDbEntity
  8
GAIKEI
  6
HIDDEN2
 62
     1
100
AcDbLine
 10
-26.21082885328883
 20
28.89288651785091
 30
0.0
 11
-26.32793968661042
 21
29.0282958511707
 31
0.0
  0
LINE
  5
288
330
2
100
AcDbEntity
  8
GAIKEI
  6
HIDDEN2
 62
     1
100
AcDbLine
 10
-26.64445818657873
 20
29.08593718449822
 30
0.0
 11
-26.45400018659785
 21
29.08593718449822
 31
0.0
  0
POINT
  5
289
330
2
100
AcDbEntity
  8
GAIKEI
  6
HIDDEN2
 62
     1
100
AcDbPoint
 10
-26.11112485329881
 20
28.29427051791072
 30
0.0
  0
POINT
  5
28A
330
2
100
AcDbEntity
  8
GAIKEI
  6
HIDDEN2
 62
     1
100
AcDbPoint
 10
-26.11112485329881
 20
28.77760385119575
 30
0.0
  0
LINE
  5
28B
330
2
100
AcDbEntity
  8
GAIKEI
  6
HIDDEN2
 62
     1
100
AcDbLine
 10
-25.21112485338881
 20
28.29427051791072
 30
0.0
 11
-25.95870785331403
 21
28.29427051791072
 31
0.0
  0
LINE
  5
28C
330
2
100
AcDbEntity
  8
GAIKEI
  6
HIDDEN2
 62
     1
100
AcDbLine
 10
-25.21112485338881
 20
28.77760385119575
 30
0.0
 11
-25.95870785331403
 21
28.77760385119575
 31
0.0
  0
ARC
  5
28D
330
2
100
AcDbEntity
  8
GAIKEI
  6
HIDDEN2
 62
     1
100
AcDbCircle
 10
-24.11945818683131
 20
30.95260385097828
 30
0.0
 40
0.3333333333
100
AcDbArc
 50
90.0
 51
180.0
  0
LINE
  5
28E
330
2
100
AcDbEntity
  8
GAIKEI
  6
HIDDEN2
 62
     1
100
AcDbLine
 10
-25.06112485340373
 20
30.96927051764328
 30
0.0
 11
-24.56112485345375
 21
30.96927051764328
 31
0.0
  0
LINE
  5
28F
330
2
100
AcDbEntity
  8
GAIKEI
  6
HIDDEN2
 62
     1
100
AcDbLine
 10
-25.06112485340373
 20
31.03593718430329
 30
0.0
 11
-24.56112485345375
 21
31.03593718430329
 31
0.0
  0
LINE
  5
290
330
2
100
AcDbEntity
  8
GAIKEI
  6
HIDDEN2
 62
     1
100
AcDbLine
 10
-24.55779152012087
 20
30.96260385097731
 30
0.0
 11
-25.06445818673683
 21
30.96260385097731
 31
0.0
  0
LINE
  5
291
330
2
100
AcDbEntity
  8
GAIKEI
  6
HIDDEN2
 62
     1
100
AcDbLine
 10
-24.55779152012087
 20
31.06260385096727
 30
0.0
 11
-25.06445818673683
 21
31.06260385096727
 31
0.0
  0
LINE
  5
292
330
2
100
AcDbEntity
  8
GAIKEI
  6
HIDDEN2
 62
     1
100
AcDbLine
 10
-25.06112485340373
 20
31.03593718430329
 30
0.0
 11
-25.06112485340373
 21
30.96260385097731
 31
0.0
  0
LINE
  5
293
330
2
100
AcDbEntity
  8
GAIKEI
  6
HIDDEN2
 62
     1
100
AcDbLine
 10
-25.06445818673683
 20
31.06260385096727
 30
0.0
 11
-25.06445818673683
 21
30.96260385097731
 31
0.0
  0
LINE
  5
294
330
2
100
AcDbEntity
  8
GAIKEI
  6
HIDDEN2
 62
     1
100
AcDbLine
 10
-24.56112485345375
 20
31.03593718430329
 30
0.0
 11
-24.56112485345375
 21
30.96260385097731
 31
0.0
  0
LINE
  5
295
330
2
100
AcDbEntity
  8
GAIKEI
  6
HIDDEN2
 62
     1
100
AcDbLine
 10
-24.55779152012087
 20
31.06260385096727
 30
0.0
 11
-24.55779152012087
 21
30.96260385097731
 31
0.0
  0
ARC
  5
296
330
2
100
AcDbEntity
  8
GAIKEI
  6
HIDDEN2
 62
     1
100
AcDbCircle
 10
-25.56112485335376
 20
31.61927051757829
 30
0.0
 40
0.116666666655
100
AcDbArc
 50
270.0
 51
90.0
  0
LINE
  5
297
330
2
100
AcDbEntity
  8
GAIKEI
  6
HIDDEN2
 62
     1
100
AcDbLine
 10
-26.56112485325377
 20
30.96927051764328
 30
0.0
 11
-26.0611248533038
 21
30.96927051764328
 31
0.0
  0
LINE
  5
298
330
2
100
AcDbEntity
  8
GAIKEI
  6
HIDDEN2
 62
     1
100
AcDbLine
 10
-26.56112485325377
 20
31.03593718430329
 30
0.0
 11
-26.0611248533038
 21
31.03593718430329
 31
0.0
  0
LINE
  5
299
330
2
100
AcDbEntity
  8
GAIKEI
  6
HIDDEN2
 62
     1
100
AcDbLine
 10
-26.56445818658682
 20
30.96260385097731
 30
0.0
 11
-26.05779151997081
 21
30.96260385097731
 31
0.0
  0
LINE
  5
29A
330
2
100
AcDbEntity
  8
GAIKEI
  6
HIDDEN2
 62
     1
100
AcDbLine
 10
-26.56445818658682
 20
31.06260385096727
 30
0.0
 11
-26.05779151997081
 21
31.06260385096727
 31
0.0
  0
ARC
  5
29B
330
2
100
AcDbEntity
  8
GAIKEI
  6
HIDDEN2
 62
     1
100
AcDbCircle
 10
-27.00279151987627
 20
30.9533256843115
 30
0.0
 40
0.3333333333
100
AcDbArc
 50
0.0
 51
85.69877800000073
  0
LINE
  5
29C
330
2
100
AcDbEntity
  8
GAIKEI
  6
HIDDEN2
 62
     1
100
AcDbLine
 10
-26.56112485325377
 20
31.03593718430329
 30
0.0
 11
-26.56112485325377
 21
30.96260385097731
 31
0.0
  0
LINE
  5
29D
330
2
100
AcDbEntity
  8
GAIKEI
  6
HIDDEN2
 62
     1
100
AcDbLine
 10
-26.56445818658682
 20
31.06260385096727
 30
0.0
 11
-26.56445818658682
 21
30.96260385097731
 31
0.0
  0
ARC
  5
29E
330
2
100
AcDbEntity
  8
GAIKEI
  6
HIDDEN2
 62
     1
100
AcDbCircle
 10
-26.97779151987879
 20
31.61927051757829
 30
0.0
 40
0.3333333333
100
AcDbArc
 50
90.0
 51
270.0
  0
ARC
  5
29F
330
2
100
AcDbEntity
  8
GAIKEI
  6
HIDDEN2
 62
     1
100
AcDbCircle
 10
-26.97779151987879
 20
31.61927051757829
 30
0.0
 40
0.116666666655
100
AcDbArc
 50
90.0
 51
270.0
  0
LINE
  5
2A0
330
2
100
AcDbEntity
  8
GAIKEI
  6
HIDDEN2
 62
     1
100
AcDbLine
 10
-26.0611248533038
 20
31.03593718430329
 30
0.0
 11
-26.0611248533038
 21
30.96260385097731
 31
0.0
  0
LINE
  5
2A1
330
2
100
AcDbEntity
  8
GAIKEI
  6
HIDDEN2
 62
     1
100
AcDbLine
 10
-26.05779151997081
 20
31.06260385096727
 30
0.0
 11
-26.05779151997081
 21
30.96260385097731
 31
0.0
  0
LINE
  5
2A2
330
2
100
AcDbEntity
  8
GAIKEI
  6
HIDDEN2
 62
     1
100
AcDbLine
 10
-26.97779151987879
 20
31.73593718423325
 30
0.0
 11
-25.56112485335376
 21
31.73593718423325
 31
0.0
  0
LINE
  5
2A3
330
2
100
AcDbEntity
  8
GAIKEI
  6
HIDDEN2
 62
     1
100
AcDbLine
 10
-26.97779151987879
 20
31.50260385092327
 30
0.0
 11
-25.56112485335376
 21
31.50260385092327
 31
0.0
  0
ARC
  5
2A4
330
2
100
AcDbEntity
  8
GAIKEI
  6
HIDDEN2
 62
     1
100
AcDbCircle
 10
-25.53612485335634
 20
29.36927051780333
 30
0.0
 40
0.216666666645
100
AcDbArc
 50
270.0
 51
0.0
  0
ARC
  5
2A5
330
2
100
AcDbEntity
  8
GAIKEI
  6
HIDDEN2
 62
     1
100
AcDbCircle
 10
-25.58612485335129
 20
29.36927051780333
 30
0.0
 40
0.216666666645
100
AcDbArc
 50
180.0
 51
270.0
  0
LINE
  5
2A6
330
2
100
AcDbEntity
  8
GAIKEI
  6
HIDDEN2
 62
     1
100
AcDbLine
 10
-25.53612485335634
 20
29.15260385115823
 30
0.0
 11
-25.58612485335129
 21
29.15260385115823
 31
0.0
  0
LINE
  5
2A7
330
2
100
AcDbEntity
  8
GAIKEI
  6
HIDDEN2
 62
     1
100
AcDbLine
 10
-24.93440552008315
 20
30.28264918437856
 30
0.0
 11
-25.20305535338958
 21
30.05237785106829
 31
0.0
  0
ARC
  5
2A8
330
2
100
AcDbEntity
  8
GAIKEI
  6
HIDDEN2
 62
     1
100
AcDbCircle
 10
-26.13612485329634
 20
29.79929218442692
 30
0.0
 40
0.3333333333
100
AcDbArc
 50
0.0
 51
49.39870499999981
  0
POINT
  5
2A9
330
2
100
AcDbEntity
  8
GAIKEI
  6
HIDDEN2
 62
     1
100
AcDbPoint
 10
-25.80279151999628
 20
29.95260385107826
 30
0.0
  0
LINE
  5
2AA
330
2
100
AcDbEntity
  8
GAIKEI
  6
HIDDEN2
 62
     1
100
AcDbLine
 10
-25.80279151999628
 20
29.36927051780333
 30
0.0
 11
-25.80279151999628
 21
29.79929218442692
 31
0.0
  0
ARC
  5
2AB
330
2
100
AcDbEntity
  8
GAIKEI
  6
HIDDEN2
 62
     1
100
AcDbCircle
 10
-24.9861248534113
 20
29.79929218442692
 30
0.0
 40
0.3333333333
100
AcDbArc
 50
130.6012950000002
 51
180.0
  0
POINT
  5
2AC
330
2
100
AcDbEntity
  8
GAIKEI
  6
HIDDEN2
 62
     1
100
AcDbPoint
 10
-25.3194581867113
 20
29.95260385107826
 30
0.0
  0
LINE
  5
2AD
330
2
100
AcDbEntity
  8
GAIKEI
  6
HIDDEN2
 62
     1
100
AcDbLine
 10
-25.3194581867113
 20
29.36927051780333
 30
0.0
 11
-25.3194581867113
 21
29.79929218442692
 31
0.0
  0
LINE
  5
2AE
330
2
100
AcDbEntity
  8
GAIKEI
  6
HIDDEN2
 62
     1
100
AcDbLine
 10
-24.89445818675375
 20
30.38593718436829
 30
0.0
 11
-24.89445818675375
 21
30.4526038510283
 31
0.0
  0
ARC
  5
2AF
330
2
100
AcDbEntity
  8
GAIKEI
  6
HIDDEN2
 62
     1
100
AcDbCircle
 10
-24.97779152007877
 20
30.33326618437354
 30
0.0
 40
0.06666666666
100
AcDbArc
 50
310.6012950000001
 51
0.0
  0
POINT
  5
2B0
330
2
100
AcDbEntity
  8
GAIKEI
  6
HIDDEN2
 62
     1
100
AcDbPoint
 10
-24.91112485341882
 20
30.30260385104327
 30
0.0
  0
LINE
  5
2B1
330
2
100
AcDbEntity
  8
GAIKEI
  6
HIDDEN2
 62
     1
100
AcDbLine
 10
-24.91112485341882
 20
30.36927051770329
 30
0.0
 11
-24.91112485341882
 21
30.33326618437354
 31
0.0
  0
ARC
  5
2B2
330
2
100
AcDbEntity
  8
GAIKEI
  6
HIDDEN2
 62
     1
100
AcDbCircle
 10
-24.56112485345375
 20
30.30260385104327
 30
0.0
 40
0.06666666666
100
AcDbArc
 50
180.0
 51
270.0
  0
LINE
  5
2B3
330
2
100
AcDbEntity
  8
GAIKEI
  6
HIDDEN2
 62
     1
100
AcDbLine
 10
-24.5444581867888
 20
30.36927051770329
 30
0.0
 11
-24.5444581867888
 21
30.23593718438326
 31
0.0
  0
LINE
  5
2B4
330
2
100
AcDbEntity
  8
GAIKEI
  6
HIDDEN2
 62
     1
100
AcDbLine
 10
-24.47779152012879
 20
30.23593718438326
 30
0.0
 11
-24.56112485345375
 21
30.23593718438326
 31
0.0
  0
LINE
  5
2B5
330
2
100
AcDbEntity
  8
GAIKEI
  6
HIDDEN2
 62
     1
100
AcDbLine
 10
-24.56112485345375
 20
30.38593718436829
 30
0.0
 11
-24.56112485345375
 21
30.30260385104327
 31
0.0
  0
LINE
  5
2B6
330
2
100
AcDbEntity
  8
GAIKEI
  6
HIDDEN2
 62
     1
100
AcDbLine
 10
-24.62779152011376
 20
30.30260385104327
 30
0.0
 11
-24.56112485345375
 21
30.30260385104327
 31
0.0
  0
LINE
  5
2B7
330
2
100
AcDbEntity
  8
GAIKEI
  6
HIDDEN2
 62
     1
100
AcDbLine
 10
-24.62779152011376
 20
30.30260385104327
 30
0.0
 11
-24.62779152011376
 21
30.36927051770329
 31
0.0
  0
LINE
  5
2B8
330
2
100
AcDbEntity
  8
GAIKEI
  6
HIDDEN2
 62
     1
100
AcDbLine
 10
-24.5444581867888
 20
30.36927051770329
 30
0.0
 11
-24.47779152012879
 21
30.36927051770329
 31
0.0
  0
ARC
  5
2B9
330
2
100
AcDbEntity
  8
GAIKEI
  6
HIDDEN2
 62
     1
100
AcDbCircle
 10
-26.14445818662876
 20
30.33326618437354
 30
0.0
 40
0.06666666666
100
AcDbArc
 50
180.0
 51
229.3987049999998
  0
ARC
  5
2BA
330
2
100
AcDbEntity
  8
GAIKEI
  6
HIDDEN2
 62
     1
100
AcDbCircle
 10
-26.56112485325377
 20
30.30260385104327
 30
0.0
 40
0.06666666666
100
AcDbArc
 50
270.0
 51
0.0
  0
LINE
  5
2BB
330
2
100
AcDbEntity
  8
GAIKEI
  6
HIDDEN2
 62
     1
100
AcDbLine
 10
-26.57779151991884
 20
30.36927051770329
 30
0.0
 11
-26.57779151991884
 21
30.23593718438326
 31
0.0
  0
LINE
  5
2BC
330
2
100
AcDbEntity
  8
GAIKEI
  6
HIDDEN2
 62
     1
100
AcDbLine
 10
-26.64445818657873
 20
30.23593718438326
 30
0.0
 11
-26.56112485325377
 21
30.23593718438326
 31
0.0
  0
LINE
  5
2BD
330
2
100
AcDbEntity
  8
GAIKEI
  6
HIDDEN2
 62
     1
100
AcDbLine
 10
-26.22779151995377
 20
30.4526038510283
 30
0.0
 11
-27.47779151982877
 21
30.4526038510283
 31
0.0
  0
LINE
  5
2BE
330
2
100
AcDbEntity
  8
GAIKEI
  6
HIDDEN2
 62
     1
100
AcDbLine
 10
-26.56112485325377
 20
30.38593718436829
 30
0.0
 11
-26.56112485325377
 21
30.30260385104327
 31
0.0
  0
LINE
  5
2BF
330
2
100
AcDbEntity
  8
GAIKEI
  6
HIDDEN2
 62
     1
100
AcDbLine
 10
-26.22779151995377
 20
30.38593718436829
 30
0.0
 11
-26.22779151995377
 21
30.4526038510283
 31
0.0
  0
LINE
  5
2C0
330
2
100
AcDbEntity
  8
GAIKEI
  6
HIDDEN2
 62
     1
100
AcDbLine
 10
-26.21112485328877
 20
30.36927051770329
 30
0.0
 11
-26.21112485328877
 21
30.33326618437354
 31
0.0
  0
POINT
  5
2C1
330
2
100
AcDbEntity
  8
GAIKEI
  6
HIDDEN2
 62
     1
100
AcDbPoint
 10
-26.21112485328877
 20
30.30260385104327
 30
0.0
  0
LINE
  5
2C2
330
2
100
AcDbEntity
  8
GAIKEI
  6
HIDDEN2
 62
     1
100
AcDbLine
 10
-26.49445818659382
 20
30.30260385104327
 30
0.0
 11
-26.56112485325377
 21
30.30260385104327
 31
0.0
  0
LINE
  5
2C3
330
2
100
AcDbEntity
  8
GAIKEI
  6
HIDDEN2
 62
     1
100
AcDbLine
 10
-26.49445818659382
 20
30.30260385104327
 30
0.0
 11
-26.49445818659382
 21
30.36927051770329
 31
0.0
  0
LINE
  5
2C4
330
2
100
AcDbEntity
  8
GAIKEI
  6
HIDDEN2
 62
     1
100
AcDbLine
 10
-26.57779151991884
 20
30.36927051770329
 30
0.0
 11
-26.64445818657873
 21
30.36927051770329
 31
0.0
  0
LINE
  5
2C5
330
2
100
AcDbEntity
  8
GAIKEI
  6
HIDDEN2
 62
     1
100
AcDbLine
 10
-26.20365501995616
 20
30.30260385104327
 30
0.0
 11
-24.91859468675136
 21
30.30260385104327
 31
0.0
  0
LINE
  5
2C6
330
2
100
AcDbEntity
  8
GAIKEI
  6
HIDDEN2
 62
     1
100
AcDbLine
 10
-26.56112485325377
 20
30.36927051770329
 30
0.0
 11
-24.56112485345375
 21
30.36927051770329
 31
0.0
  0
LINE
  5
2C7
330
2
100
AcDbEntity
  8
GAIKEI
  6
HIDDEN2
 62
     1
100
AcDbLine
 10
-26.1878443532911
 20
30.28264918437856
 30
0.0
 11
-25.91919451998467
 21
30.05237785106829
 31
0.0
  0
LINE
  5
2C8
330
2
100
AcDbEntity
  8
GAIKEI
  6
HIDDEN2
 62
     1
100
AcDbLine
 10
-27.47779151982877
 20
30.38593718436829
 30
0.0
 11
-27.47779151982877
 21
32.21927051751829
 31
0.0
  0
LINE
  5
2C9
330
2
100
AcDbEntity
  8
GAIKEI
  6
HIDDEN2
 62
     1
100
AcDbLine
 10
-26.66945818657627
 20
30.4526038510283
 30
0.0
 11
-26.66945818657627
 21
30.9533256843115
 31
0.0
  0
LINE
  5
2CA
330
2
100
AcDbEntity
  8
GAIKEI
  6
HIDDEN2
 62
     1
100
AcDbLine
 10
-24.45279152013132
 20
30.4526038510283
 30
0.0
 11
-24.45279152013132
 21
30.95260385097828
 31
0.0
  0
ARC
  5
2CB
330
2
100
AcDbEntity
  8
GAIKEI
  6
HIDDEN2
 62
     1
100
AcDbCircle
 10
-22.89445818695378
 20
31.61927051757829
 30
0.0
 40
0.116666666655
100
AcDbArc
 50
90.0
 51
270.0
  0
LINE
  5
2CC
330
2
100
AcDbEntity
  8
GAIKEI
  6
HIDDEN2
 62
     1
100
AcDbLine
 10
-6.227791521953747
 20
31.73593718423325
 30
0.0
 11
-9.561124854953732
 21
31.73593718423325
 31
0.0
  0
LINE
  5
2CD
330
2
100
AcDbEntity
  8
GAIKEI
  6
HIDDEN2
 62
     1
100
AcDbLine
 10
-6.227791521953747
 20
31.50260385092327
 30
0.0
 11
-9.561124854953732
 21
31.50260385092327
 31
0.0
  0
LINE
  5
2CE
330
2
100
AcDbEntity
  8
GAIKEI
  6
HIDDEN2
 62
     1
100
AcDbLine
 10
-13.89445818785373
 20
31.28593718427828
 30
0.0
 11
-5.002791522076279
 21
31.28593718427828
 31
0.0
  0
LINE
  5
2CF
330
2
100
AcDbEntity
  8
GAIKEI
  6
HIDDEN2
 62
     1
100
AcDbLine
 10
-14.06112485450376
 20
31.73593718423325
 30
0.0
 11
-12.89445818795377
 21
31.73593718423325
 31
0.0
  0
LINE
  5
2D0
330
2
100
AcDbEntity
  8
GAIKEI
  6
HIDDEN2
 62
     1
100
AcDbLine
 10
-14.06112485450376
 20
31.50260385092327
 30
0.0
 11
-12.89445818795377
 21
31.50260385092327
 31
0.0
  0
ARC
  5
2D1
330
2
100
AcDbEntity
  8
GAIKEI
  6
HIDDEN2
 62
     1
100
AcDbCircle
 10
-19.56112485395374
 20
31.61927051757829
 30
0.0
 40
0.116666666655
100
AcDbArc
 50
270.0
 51
90.0
  0
ARC
  5
2D2
330
2
100
AcDbEntity
  8
GAIKEI
  6
HIDDEN2
 62
     1
100
AcDbCircle
 10
-14.56112485445373
 20
31.28593718427828
 30
0.0
 40
0.223333333311
100
AcDbArc
 50
305.7617140000045
 51
54.23828599999552
  0
ARC
  5
2D3
330
2
100
AcDbEntity
  8
GAIKEI
  6
HIDDEN2
 62
     1
100
AcDbCircle
 10
-14.56112485445373
 20
31.28593718427828
 30
0.0
 40
0.223333333311
100
AcDbArc
 50
125.7617140000045
 51
234.2382859999955
  0
ARC
  5
2D4
330
2
100
AcDbEntity
  8
GAIKEI
  6
HIDDEN2
 62
     1
100
AcDbCircle
 10
-13.89445818785373
 20
30.95260385097828
 30
0.0
 40
0.3333333333
100
AcDbArc
 50
90.0
 51
180.0
  0
ARC
  5
2D5
330
2
100
AcDbEntity
  8
GAIKEI
  6
HIDDEN2
 62
     1
100
AcDbCircle
 10
-15.22779152105374
 20
30.95260385097828
 30
0.0
 40
0.3333333333
100
AcDbArc
 50
0.0
 51
90.0
  0
ARC
  5
2D6
330
2
100
AcDbEntity
  8
GAIKEI
  6
HIDDEN2
 62
     1
100
AcDbCircle
 10
-14.71112485443876
 20
31.07766385096579
 30
0.0
 40
0.03333333333
100
AcDbArc
 50
0.0
 51
54.23828599999552
  0
LINE
  5
2D7
330
2
100
AcDbEntity
  8
GAIKEI
  6
HIDDEN2
 62
     1
100
AcDbLine
 10
-14.67779152110881
 20
30.95260385097828
 30
0.0
 11
-14.67779152110881
 21
31.07766385096579
 31
0.0
  0
ARC
  5
2D8
330
2
100
AcDbEntity
  8
GAIKEI
  6
HIDDEN2
 62
     1
100
AcDbCircle
 10
-14.41112485446882
 20
31.07766385096579
 30
0.0
 40
0.03333333333
100
AcDbArc
 50
125.7617140000045
 51
180.0
  0
LINE
  5
2D9
330
2
100
AcDbEntity
  8
GAIKEI
  6
HIDDEN2
 62
     1
100
AcDbLine
 10
-14.44445818779877
 20
30.95260385097828
 30
0.0
 11
-14.44445818779877
 21
31.07766385096579
 31
0.0
  0
ARC
  5
2DA
330
2
100
AcDbEntity
  8
GAIKEI
  6
HIDDEN2
 62
     1
100
AcDbCircle
 10
-14.56112485445373
 20
31.61927051757829
 30
0.0
 40
0.116666666655
100
AcDbArc
 50
0.0
 51
180.0
  0
ARC
  5
2DB
330
2
100
AcDbEntity
  8
GAIKEI
  6
HIDDEN2
 62
     1
100
AcDbCircle
 10
-14.71112485443876
 20
31.49421051759077
 30
0.0
 40
0.03333333333
100
AcDbArc
 50
305.7617140000045
 51
0.0
  0
LINE
  5
2DC
330
2
100
AcDbEntity
  8
GAIKEI
  6
HIDDEN2
 62
     1
100
AcDbLine
 10
-14.67779152110881
 20
31.49421051759077
 30
0.0
 11
-14.67779152110881
 21
31.61927051757829
 31
0.0
  0
ARC
  5
2DD
330
2
100
AcDbEntity
  8
GAIKEI
  6
HIDDEN2
 62
     1
100
AcDbCircle
 10
-15.06112485440377
 20
31.61927051757829
 30
0.0
 40
0.116666666655
100
AcDbArc
 50
270.0
 51
90.0
  0
ARC
  5
2DE
330
2
100
AcDbEntity
  8
GAIKEI
  6
HIDDEN2
 62
     1
100
AcDbCircle
 10
-14.41112485446882
 20
31.49421051759077
 30
0.0
 40
0.03333333333
100
AcDbArc
 50
180.0
 51
234.2382859999955
  0
LINE
  5
2DF
330
2
100
AcDbEntity
  8
GAIKEI
  6
HIDDEN2
 62
     1
100
AcDbLine
 10
-14.44445818779877
 20
31.49421051759077
 30
0.0
 11
-14.44445818779877
 21
31.61927051757829
 31
0.0
  0
ARC
  5
2E0
330
2
100
AcDbEntity
  8
GAIKEI
  6
HIDDEN2
 62
     1
100
AcDbCircle
 10
-14.06112485450376
 20
31.61927051757829
 30
0.0
 40
0.116666666655
100
AcDbArc
 50
90.0
 51
270.0
  0
ARC
  5
2E1
330
2
100
AcDbEntity
  8
GAIKEI
  6
HIDDEN2
 62
     1
100
AcDbCircle
 10
-16.22779152095375
 20
31.61927051757829
 30
0.0
 40
0.116666666655
100
AcDbArc
 50
90.0
 51
270.0
  0
LINE
  5
2E2
330
2
100
AcDbEntity
  8
GAIKEI
  6
HIDDEN2
 62
     1
100
AcDbLine
 10
-15.06112485440377
 20
31.73593718423325
 30
0.0
 11
-16.22779152095375
 21
31.73593718423325
 31
0.0
  0
LINE
  5
2E3
330
2
100
AcDbEntity
  8
GAIKEI
  6
HIDDEN2
 62
     1
100
AcDbLine
 10
-15.06112485440377
 20
31.50260385092327
 30
0.0
 11
-16.22779152095375
 21
31.50260385092327
 31
0.0
  0
ARC
  5
2E4
330
2
100
AcDbEntity
  8
GAIKEI
  6
HIDDEN2
 62
     1
100
AcDbCircle
 10
-14.56112485445373
 20
30.95260385097828
 30
0.0
 40
0.116666666655
100
AcDbArc
 50
180.0
 51
0.0
  0
ARC
  5
2E5
330
2
100
AcDbEntity
  8
GAIKEI
  6
HIDDEN2
 62
     1
100
AcDbCircle
 10
-14.56112485445373
 20
30.95260385097828
 30
0.0
 40
0.3333333333
100
AcDbArc
 50
180.0
 51
0.0
  0
ARC
  5
2E6
330
2
100
AcDbEntity
  8
GAIKEI
  6
HIDDEN2
 62
     1
100
AcDbCircle
 10
-12.89445818795377
 20
31.61927051757829
 30
0.0
 40
0.116666666655
100
AcDbArc
 50
270.0
 51
90.0
  0
ARC
  5
2E7
330
2
100
AcDbEntity
  8
GAIKEI
  6
HIDDEN2
 62
     1
100
AcDbCircle
 10
-9.561124854953732
 20
31.61927051757829
 30
0.0
 40
0.116666666655
100
AcDbArc
 50
90.0
 51
270.0
  0
ARC
  5
2E8
330
2
100
AcDbEntity
  8
GAIKEI
  6
HIDDEN2
 62
     1
100
AcDbCircle
 10
-3.561124855553771
 20
19.43593718546322
 30
0.0
 40
0.5499999999449999
100
AcDbArc
 50
304.7340099999987
 51
0.0
  0
ARC
  5
2E9
330
2
100
AcDbEntity
  8
GAIKEI
  6
HIDDEN2
 62
     1
100
AcDbCircle
 10
-3.561124855553771
 20
19.66927051877326
 30
0.0
 40
0.5499999999449999
100
AcDbArc
 50
6.973576000001121
 51
173.0689550000012
  0
ARC
  5
2EA
330
2
100
AcDbEntity
  8
GAIKEI
  6
HIDDEN2
 62
     1
100
AcDbCircle
 10
-4.110952855498794
 20
19.66927051877326
 30
0.0
 40
0.0668388333266495
100
AcDbArc
 50
86.66036600000103
 51
269.8524600000009
  0
LINE
  5
2EB
330
2
100
AcDbEntity
  8
GAIKEI
  6
HIDDEN2
 62
     1
100
AcDbLine
 10
-4.111124855498815
 20
19.43593718546322
 30
0.0
 11
-4.111124855498815
 21
19.60243201877995
 31
0.0
  0
ARC
  5
2EC
330
2
100
AcDbEntity
  8
GAIKEI
  6
HIDDEN2
 62
     1
100
AcDbCircle
 10
-3.969458188846317
 20
18.84697635218884
 30
0.0
 40
0.16666666665
100
AcDbArc
 50
0.0
 51
55.26599000000138
  0
ARC
  5
2ED
330
2
100
AcDbEntity
  8
GAIKEI
  6
HIDDEN2
 62
     1
100
AcDbCircle
 10
-3.561124855553771
 20
19.43593718546322
 30
0.0
 40
0.5499999999449999
100
AcDbArc
 50
180.0
 51
235.2659900000014
  0
ARC
  5
2EE
330
2
100
AcDbEntity
  8
GAIKEI
  6
HIDDEN2
 62
     1
100
AcDbCircle
 10
-3.152791522261281
 20
18.84697635218884
 30
0.0
 40
0.16666666665
100
AcDbArc
 50
124.7340099999986
 51
180.0
  0
ARC
  5
2EF
330
2
100
AcDbEntity
  8
GAIKEI
  6
HIDDEN2
 62
     1
100
AcDbCircle
 10
-3.011297022275471
 20
19.66927051877326
 30
0.0
 40
0.0668388333266495
100
AcDbArc
 50
270.1475399999991
 51
93.33963399999896
  0
LINE
  5
2F0
330
2
100
AcDbEntity
  8
GAIKEI
  6
HIDDEN2
 62
     1
100
AcDbLine
 10
-3.011124855608841
 20
19.43593718546322
 30
0.0
 11
-3.011124855608841
 21
19.60254518544656
 31
0.0
  0
LINE
  5
2F1
330
2
100
AcDbEntity
  8
GAIKEI
  6
HIDDEN2
 62
     1
100
AcDbLine
 10
-3.211124855588764
 20
28.30260385124325
 30
0.0
 11
-3.432110688900024
 21
28.30260385124325
 31
0.0
  0
LINE
  5
2F2
330
2
100
AcDbEntity
  8
GAIKEI
  6
HIDDEN2
 62
     1
100
AcDbLine
 10
-3.211124855588764
 20
28.76927051786322
 30
0.0
 11
-3.432110688900024
 21
28.76927051786322
 31
0.0
  0
ARC
  5
2F3
330
2
100
AcDbEntity
  8
GAIKEI
  6
HIDDEN2
 62
     1
100
AcDbCircle
 10
-3.944458188848784
 20
28.53593718455329
 30
0.0
 40
0.483333333285
100
AcDbArc
 50
208.5035100000002
 51
262.0661989999985
  0
ARC
  5
2F4
330
2
100
AcDbEntity
  8
GAIKEI
  6
HIDDEN2
 62
     1
100
AcDbCircle
 10
-3.944458188848784
 20
28.53593718455329
 30
0.0
 40
0.483333333285
100
AcDbArc
 50
97.93380099999502
 51
151.4993069999999
  0
ARC
  5
2F5
330
2
100
AcDbEntity
  8
GAIKEI
  6
HIDDEN2
 62
     1
100
AcDbCircle
 10
-4.396815688803542
 20
28.36618018457023
 30
0.0
 40
0.0668388333266495
100
AcDbArc
 50
106.7514039999991
 51
294.6823879999998
  0
ARC
  5
2F6
330
2
100
AcDbEntity
  8
GAIKEI
  6
HIDDEN2
 62
     1
100
AcDbCircle
 10
-3.944458188848784
 20
28.53593718455329
 30
0.0
 40
0.483333333285
100
AcDbArc
 50
167.3612749999995
 51
192.6387249999973
  0
ARC
  5
2F7
330
2
100
AcDbEntity
  8
GAIKEI
  6
HIDDEN2
 62
     1
100
AcDbCircle
 10
-4.396815688803542
 20
28.70569435120297
 30
0.0
 40
0.0668388333266495
100
AcDbArc
 50
65.6119860000001
 51
253.2485960000009
  0
ARC
  5
2F8
330
2
100
AcDbEntity
  8
GAIKEI
  6
HIDDEN2
 62
     1
100
AcDbCircle
 10
-3.944458188848784
 20
28.53593718455329
 30
0.0
 40
0.483333333285
100
AcDbArc
 50
277.9309839999996
 51
322.0201280000003
  0
ARC
  5
2F9
330
2
100
AcDbEntity
  8
GAIKEI
  6
HIDDEN2
 62
     1
100
AcDbCircle
 10
-3.944458188848784
 20
28.05277601793495
 30
0.0
 40
0.0668388333266495
100
AcDbArc
 50
176.1802340000004
 51
4.112678999999832
  0
ARC
  5
2FA
330
2
100
AcDbEntity
  8
GAIKEI
  6
HIDDEN2
 62
     1
100
AcDbCircle
 10
-3.432110688900024
 20
28.13593718459328
 30
0.0
 40
0.16666666665
100
AcDbArc
 50
90.0
 51
142.0201280000003
  0
ARC
  5
2FB
330
2
100
AcDbEntity
  8
GAIKEI
  6
HIDDEN2
 62
     1
100
AcDbCircle
 10
-3.944458188848784
 20
28.53593718455329
 30
0.0
 40
0.483333333285
100
AcDbArc
 50
37.97987199999973
 51
82.06901600000037
  0
ARC
  5
2FC
330
2
100
AcDbEntity
  8
GAIKEI
  6
HIDDEN2
 62
     1
100
AcDbCircle
 10
-3.944458188848784
 20
29.0190985178383
 30
0.0
 40
0.0668388333266495
100
AcDbArc
 50
355.8873210000002
 51
183.8197659999996
  0
ARC
  5
2FD
330
2
100
AcDbEntity
  8
GAIKEI
  6
HIDDEN2
 62
     1
100
AcDbCircle
 10
-3.432110688900024
 20
28.93593718451325
 30
0.0
 40
0.16666666665
100
AcDbArc
 50
217.9798719999997
 51
270.0
  0
ARC
  5
2FE
330
2
100
AcDbEntity
  8
GAIKEI
  6
HIDDEN2
 62
     1
100
AcDbCircle
 10
-3.211124855588764
 20
28.55260385121829
 30
0.0
 40
0.216666666645
100
AcDbArc
 50
0.0
 51
90.0
  0
ARC
  5
2FF
330
2
100
AcDbEntity
  8
GAIKEI
  6
HIDDEN2
 62
     1
100
AcDbCircle
 10
-3.211124855588764
 20
28.51927051788823
 30
0.0
 40
0.216666666645
100
AcDbArc
 50
270.0
 51
0.0
  0
LINE
  5
300
330
2
100
AcDbEntity
  8
GAIKEI
  6
HIDDEN2
 62
     1
100
AcDbLine
 10
-2.994458188943838
 20
28.51093718455582
 30
0.0
 11
-2.994458188943838
 21
28.56093718455077
 31
0.0
  0
LINE
  5
301
330
2
100
AcDbEntity
  8
GAIKEI
  6
HIDDEN2
 62
     1
100
AcDbLine
 10
-2.144458189028796
 20
31.73593718423325
 30
0.0
 11
-3.561124855553771
 21
31.73593718423325
 31
0.0
  0
LINE
  5
302
330
2
100
AcDbEntity
  8
GAIKEI
  6
HIDDEN2
 62
     1
100
AcDbLine
 10
-2.144458189028796
 20
31.50260385092327
 30
0.0
 11
-3.561124855553771
 21
31.50260385092327
 31
0.0
  0
LINE
  5
303
330
2
100
AcDbEntity
  8
GAIKEI
  6
HIDDEN2
 62
     1
100
AcDbLine
 10
-2.561124855653758
 20
30.36927051770329
 30
0.0
 11
-4.561124855453726
 21
30.36927051770329
 31
0.0
  0
LINE
  5
304
330
2
100
AcDbEntity
  8
GAIKEI
  6
HIDDEN2
 62
     1
100
AcDbLine
 10
-2.918594688951372
 20
30.30260385104327
 30
0.0
 11
-4.203655022156226
 21
30.30260385104327
 31
0.0
  0
ARC
  5
305
330
2
100
AcDbEntity
  8
GAIKEI
  6
HIDDEN2
 62
     1
100
AcDbCircle
 10
-2.986124855611308
 20
29.79929218442692
 30
0.0
 40
0.3333333333
100
AcDbArc
 50
130.6012950000002
 51
180.0
  0
LINE
  5
306
330
2
100
AcDbEntity
  8
GAIKEI
  6
HIDDEN2
 62
     1
100
AcDbLine
 10
-4.061124855503749
 20
30.96927051764328
 30
0.0
 11
-4.561124855453726
 21
30.96927051764328
 31
0.0
  0
LINE
  5
307
330
2
100
AcDbEntity
  8
GAIKEI
  6
HIDDEN2
 62
     1
100
AcDbLine
 10
-4.061124855503749
 20
31.03593718430329
 30
0.0
 11
-4.561124855453726
 21
31.03593718430329
 31
0.0
  0
LINE
  5
308
330
2
100
AcDbEntity
  8
GAIKEI
  6
HIDDEN2
 62
     1
100
AcDbLine
 10
-4.564458188786829
 20
30.96260385097731
 30
0.0
 11
-4.057791522170873
 21
30.96260385097731
 31
0.0
  0
LINE
  5
309
330
2
100
AcDbEntity
  8
GAIKEI
  6
HIDDEN2
 62
     1
100
AcDbLine
 10
-4.564458188786829
 20
31.06260385096727
 30
0.0
 11
-4.057791522170873
 21
31.06260385096727
 31
0.0
  0
LINE
  5
30A
330
2
100
AcDbEntity
  8
GAIKEI
  6
HIDDEN2
 62
     1
100
AcDbLine
 10
-4.561124855453726
 20
31.03593718430329
 30
0.0
 11
-4.561124855453726
 21
30.96260385097731
 31
0.0
  0
LINE
  5
30B
330
2
100
AcDbEntity
  8
GAIKEI
  6
HIDDEN2
 62
     1
100
AcDbLine
 10
-4.564458188786829
 20
31.06260385096727
 30
0.0
 11
-4.564458188786829
 21
30.96260385097731
 31
0.0
  0
LINE
  5
30C
330
2
100
AcDbEntity
  8
GAIKEI
  6
HIDDEN2
 62
     1
100
AcDbLine
 10
-4.061124855503749
 20
31.03593718430329
 30
0.0
 11
-4.061124855503749
 21
30.96260385097731
 31
0.0
  0
LINE
  5
30D
330
2
100
AcDbEntity
  8
GAIKEI
  6
HIDDEN2
 62
     1
100
AcDbLine
 10
-4.057791522170873
 20
31.06260385096727
 30
0.0
 11
-4.057791522170873
 21
30.96260385097731
 31
0.0
  0
ARC
  5
30E
330
2
100
AcDbEntity
  8
GAIKEI
  6
HIDDEN2
 62
     1
100
AcDbCircle
 10
-3.561124855553771
 20
31.61927051757829
 30
0.0
 40
0.116666666655
100
AcDbArc
 50
90.0
 51
270.0
  0
ARC
  5
30F
330
2
100
AcDbEntity
  8
GAIKEI
  6
HIDDEN2
 62
     1
100
AcDbCircle
 10
-4.561124855453726
 20
30.30260385104327
 30
0.0
 40
0.06666666666
100
AcDbArc
 50
270.0
 51
0.0
  0
LINE
  5
310
330
2
100
AcDbEntity
  8
GAIKEI
  6
HIDDEN2
 62
     1
100
AcDbLine
 10
-4.577791522118786
 20
30.36927051770329
 30
0.0
 11
-4.577791522118786
 21
30.23593718438326
 31
0.0
  0
LINE
  5
311
330
2
100
AcDbEntity
  8
GAIKEI
  6
HIDDEN2
 62
     1
100
AcDbLine
 10
-4.644458188778799
 20
30.23593718438326
 30
0.0
 11
-4.561124855453726
 21
30.23593718438326
 31
0.0
  0
LINE
  5
312
330
2
100
AcDbEntity
  8
GAIKEI
  6
HIDDEN2
 62
     1
100
AcDbLine
 10
-4.561124855453726
 20
30.38593718436829
 30
0.0
 11
-4.561124855453726
 21
30.30260385104327
 31
0.0
  0
LINE
  5
313
330
2
100
AcDbEntity
  8
GAIKEI
  6
HIDDEN2
 62
     1
100
AcDbLine
 10
-4.494458188793828
 20
30.30260385104327
 30
0.0
 11
-4.561124855453726
 21
30.30260385104327
 31
0.0
  0
LINE
  5
314
330
2
100
AcDbEntity
  8
GAIKEI
  6
HIDDEN2
 62
     1
100
AcDbLine
 10
-4.494458188793828
 20
30.30260385104327
 30
0.0
 11
-4.494458188793828
 21
30.36927051770329
 31
0.0
  0
LINE
  5
315
330
2
100
AcDbEntity
  8
GAIKEI
  6
HIDDEN2
 62
     1
100
AcDbLine
 10
-4.577791522118786
 20
30.36927051770329
 30
0.0
 11
-4.644458188778799
 21
30.36927051770329
 31
0.0
  0
ARC
  5
316
330
2
100
AcDbEntity
  8
GAIKEI
  6
HIDDEN2
 62
     1
100
AcDbCircle
 10
-3.586124855551247
 20
29.36927051780333
 30
0.0
 40
0.216666666645
100
AcDbArc
 50
180.0
 51
270.0
  0
ARC
  5
317
330
2
100
AcDbEntity
  8
GAIKEI
  6
HIDDEN2
 62
     1
100
AcDbCircle
 10
-3.536124855556295
 20
29.36927051780333
 30
0.0
 40
0.216666666645
100
AcDbArc
 50
270.0
 51
0.0
  0
LINE
  5
318
330
2
100
AcDbEntity
  8
GAIKEI
  6
HIDDEN2
 62
     1
100
AcDbLine
 10
-3.536124855556295
 20
29.15260385115823
 30
0.0
 11
-3.586124855551247
 21
29.15260385115823
 31
0.0
  0
LINE
  5
319
330
2
100
AcDbEntity
  8
GAIKEI
  6
HIDDEN2
 62
     1
100
AcDbLine
 10
-4.187844355491108
 20
30.28264918437856
 30
0.0
 11
-3.919194522184625
 21
30.05237785106829
 31
0.0
  0
ARC
  5
31A
330
2
100
AcDbEntity
  8
GAIKEI
  6
HIDDEN2
 62
     1
100
AcDbCircle
 10
-4.136124855496291
 20
29.79929218442692
 30
0.0
 40
0.3333333333
100
AcDbArc
 50
0.0
 51
49.39870499999981
  0
POINT
  5
31B
330
2
100
AcDbEntity
  8
GAIKEI
  6
HIDDEN2
 62
     1
100
AcDbPoint
 10
-3.802791522196287
 20
29.95260385107826
 30
0.0
  0
LINE
  5
31C
330
2
100
AcDbEntity
  8
GAIKEI
  6
HIDDEN2
 62
     1
100
AcDbLine
 10
-3.802791522196287
 20
29.36927051780333
 30
0.0
 11
-3.802791522196287
 21
29.79929218442692
 31
0.0
  0
POINT
  5
31D
330
2
100
AcDbEntity
  8
GAIKEI
  6
HIDDEN2
 62
     1
100
AcDbPoint
 10
-3.319458188911312
 20
29.95260385107826
 30
0.0
  0
LINE
  5
31E
330
2
100
AcDbEntity
  8
GAIKEI
  6
HIDDEN2
 62
     1
100
AcDbLine
 10
-3.319458188911312
 20
29.36927051780333
 30
0.0
 11
-3.319458188911312
 21
29.79929218442692
 31
0.0
  0
LINE
  5
31F
330
2
100
AcDbEntity
  8
GAIKEI
  6
HIDDEN2
 62
     1
100
AcDbLine
 10
-4.227791522153779
 20
30.38593718436829
 30
0.0
 11
-4.227791522153779
 21
30.4526038510283
 31
0.0
  0
ARC
  5
320
330
2
100
AcDbEntity
  8
GAIKEI
  6
HIDDEN2
 62
     1
100
AcDbCircle
 10
-4.144458188828764
 20
30.33326618437354
 30
0.0
 40
0.06666666666
100
AcDbArc
 50
180.0
 51
229.3987049999998
  0
POINT
  5
321
330
2
100
AcDbEntity
  8
GAIKEI
  6
HIDDEN2
 62
     1
100
AcDbPoint
 10
-4.211124855488776
 20
30.30260385104327
 30
0.0
  0
LINE
  5
322
330
2
100
AcDbEntity
  8
GAIKEI
  6
HIDDEN2
 62
     1
100
AcDbLine
 10
-4.211124855488776
 20
30.36927051770329
 30
0.0
 11
-4.211124855488776
 21
30.33326618437354
 31
0.0
  0
LINE
  5
323
330
2
100
AcDbEntity
  8
GAIKEI
  6
HIDDEN2
 62
     1
100
AcDbLine
 10
-4.669458188776275
 20
30.4526038510283
 30
0.0
 11
-4.669458188776275
 21
30.95260385097828
 31
0.0
  0
ARC
  5
324
330
2
100
AcDbEntity
  8
GAIKEI
  6
HIDDEN2
 62
     1
100
AcDbCircle
 10
-6.227791521953747
 20
31.61927051757829
 30
0.0
 40
0.116666666655
100
AcDbArc
 50
270.0
 51
90.0
  0
ARC
  5
325
330
2
100
AcDbEntity
  8
GAIKEI
  6
HIDDEN2
 62
     1
100
AcDbCircle
 10
-5.002791522076279
 20
30.95260385097828
 30
0.0
 40
0.3333333333
100
AcDbArc
 50
0.0
 51
90.0
  0
ARC
  5
326
330
2
100
AcDbEntity
  8
GAIKEI
  6
HIDDEN2
 62
     1
100
AcDbCircle
 10
-2.11945818903132
 20
30.9533256843115
 30
0.0
 40
0.3333333333
100
AcDbArc
 50
94.30122199999926
 51
180.0
  0
LINE
  5
327
330
2
100
AcDbEntity
  8
GAIKEI
  6
HIDDEN2
 62
     1
100
AcDbLine
 10
-2.561124855653758
 20
30.96927051764328
 30
0.0
 11
-3.061124855603793
 21
30.96927051764328
 31
0.0
  0
LINE
  5
328
330
2
100
AcDbEntity
  8
GAIKEI
  6
HIDDEN2
 62
     1
100
AcDbLine
 10
-2.561124855653758
 20
31.03593718430329
 30
0.0
 11
-3.061124855603793
 21
31.03593718430329
 31
0.0
  0
LINE
  5
329
330
2
100
AcDbEntity
  8
GAIKEI
  6
HIDDEN2
 62
     1
100
AcDbLine
 10
-2.557791522320826
 20
30.96260385097731
 30
0.0
 11
-3.064458188936839
 21
30.96260385097731
 31
0.0
  0
LINE
  5
32A
330
2
100
AcDbEntity
  8
GAIKEI
  6
HIDDEN2
 62
     1
100
AcDbLine
 10
-2.557791522320826
 20
31.06260385096727
 30
0.0
 11
-3.064458188936839
 21
31.06260385096727
 31
0.0
  0
LINE
  5
32B
330
2
100
AcDbEntity
  8
GAIKEI
  6
HIDDEN2
 62
     1
100
AcDbLine
 10
-3.061124855603793
 20
31.03593718430329
 30
0.0
 11
-3.061124855603793
 21
30.96260385097731
 31
0.0
  0
LINE
  5
32C
330
2
100
AcDbEntity
  8
GAIKEI
  6
HIDDEN2
 62
     1
100
AcDbLine
 10
-3.064458188936839
 20
31.06260385096727
 30
0.0
 11
-3.064458188936839
 21
30.96260385097731
 31
0.0
  0
LINE
  5
32D
330
2
100
AcDbEntity
  8
GAIKEI
  6
HIDDEN2
 62
     1
100
AcDbLine
 10
-2.561124855653758
 20
31.03593718430329
 30
0.0
 11
-2.561124855653758
 21
30.96260385097731
 31
0.0
  0
LINE
  5
32E
330
2
100
AcDbEntity
  8
GAIKEI
  6
HIDDEN2
 62
     1
100
AcDbLine
 10
-2.557791522320826
 20
31.06260385096727
 30
0.0
 11
-2.557791522320826
 21
30.96260385097731
 31
0.0
  0
ARC
  5
32F
330
2
100
AcDbEntity
  8
GAIKEI
  6
HIDDEN2
 62
     1
100
AcDbCircle
 10
-2.144458189028796
 20
31.61927051757829
 30
0.0
 40
0.3333333333
100
AcDbArc
 50
270.0
 51
90.0
  0
ARC
  5
330
330
2
100
AcDbEntity
  8
GAIKEI
  6
HIDDEN2
 62
     1
100
AcDbCircle
 10
-2.144458189028796
 20
31.61927051757829
 30
0.0
 40
0.116666666655
100
AcDbArc
 50
270.0
 51
90.0
  0
LINE
  5
331
330
2
100
AcDbEntity
  8
GAIKEI
  6
HIDDEN2
 62
     1
100
AcDbLine
 10
-2.9344055222831
 20
30.28264918437856
 30
0.0
 11
-3.203055355589583
 21
30.05237785106829
 31
0.0
  0
ARC
  5
332
330
2
100
AcDbEntity
  8
GAIKEI
  6
HIDDEN2
 62
     1
100
AcDbCircle
 10
-2.561124855653758
 20
30.30260385104327
 30
0.0
 40
0.06666666666
100
AcDbArc
 50
180.0
 51
270.0
  0
LINE
  5
333
330
2
100
AcDbEntity
  8
GAIKEI
  6
HIDDEN2
 62
     1
100
AcDbLine
 10
-2.544458188988755
 20
30.36927051770329
 30
0.0
 11
-2.544458188988755
 21
30.23593718438326
 31
0.0
  0
LINE
  5
334
330
2
100
AcDbEntity
  8
GAIKEI
  6
HIDDEN2
 62
     1
100
AcDbLine
 10
-2.477791522328743
 20
30.23593718438326
 30
0.0
 11
-2.561124855653758
 21
30.23593718438326
 31
0.0
  0
LINE
  5
335
330
2
100
AcDbEntity
  8
GAIKEI
  6
HIDDEN2
 62
     1
100
AcDbLine
 10
-2.894458188953763
 20
30.4526038510283
 30
0.0
 11
-1.644458189078761
 21
30.4526038510283
 31
0.0
  0
LINE
  5
336
330
2
100
AcDbEntity
  8
GAIKEI
  6
HIDDEN2
 62
     1
100
AcDbLine
 10
-2.561124855653758
 20
30.38593718436829
 30
0.0
 11
-2.561124855653758
 21
30.30260385104327
 31
0.0
  0
LINE
  5
337
330
2
100
AcDbEntity
  8
GAIKEI
  6
HIDDEN2
 62
     1
100
AcDbLine
 10
-2.894458188953763
 20
30.38593718436829
 30
0.0
 11
-2.894458188953763
 21
30.4526038510283
 31
0.0
  0
LINE
  5
338
330
2
100
AcDbEntity
  8
GAIKEI
  6
HIDDEN2
 62
     1
100
AcDbLine
 10
-2.911124855618822
 20
30.36927051770329
 30
0.0
 11
-2.911124855618822
 21
30.33326618437354
 31
0.0
  0
ARC
  5
339
330
2
100
AcDbEntity
  8
GAIKEI
  6
HIDDEN2
 62
     1
100
AcDbCircle
 10
-2.977791522278778
 20
30.33326618437354
 30
0.0
 40
0.06666666666
100
AcDbArc
 50
310.6012950000001
 51
0.0
  0
POINT
  5
33A
330
2
100
AcDbEntity
  8
GAIKEI
  6
HIDDEN2
 62
     1
100
AcDbPoint
 10
-2.911124855618822
 20
30.30260385104327
 30
0.0
  0
LINE
  5
33B
330
2
100
AcDbEntity
  8
GAIKEI
  6
HIDDEN2
 62
     1
100
AcDbLine
 10
-2.627791522313771
 20
30.30260385104327
 30
0.0
 11
-2.561124855653758
 21
30.30260385104327
 31
0.0
  0
LINE
  5
33C
330
2
100
AcDbEntity
  8
GAIKEI
  6
HIDDEN2
 62
     1
100
AcDbLine
 10
-2.627791522313771
 20
30.30260385104327
 30
0.0
 11
-2.627791522313771
 21
30.36927051770329
 31
0.0
  0
LINE
  5
33D
330
2
100
AcDbEntity
  8
GAIKEI
  6
HIDDEN2
 62
     1
100
AcDbLine
 10
-2.544458188988755
 20
30.36927051770329
 30
0.0
 11
-2.477791522328743
 21
30.36927051770329
 31
0.0
  0
LINE
  5
33E
330
2
100
AcDbEntity
  8
GAIKEI
  6
HIDDEN2
 62
     1
100
AcDbLine
 10
-1.644458189078761
 20
30.38593718436829
 30
0.0
 11
-1.644458189078761
 21
32.21927051751829
 31
0.0
  0
LINE
  5
33F
330
2
100
AcDbEntity
  8
GAIKEI
  6
HIDDEN2
 62
     1
100
AcDbLine
 10
-2.452791522331324
 20
30.4526038510283
 30
0.0
 11
-2.452791522331324
 21
30.9533256843115
 31
0.0
  0
LINE
  5
340
330
2
100
AcDbEntity
  8
GAIKEI
  6
NON_PLOTING
 62
     1
100
AcDbLine
 10
36.97362904290071
 20
29.00260385107532
 30
0.0
 11
36.97362904290071
 21
29.36927051770533
 31
0.0
  0
LINE
  5
342
330
2
100
AcDbEntity
  8
GAIKEI
  6
Continuous
 62
     1
100
AcDbLine
 10
36.97362904290071
 20
29.00260385107532
 30
0.0
 11
36.76363225594315
 21
29.00260385107532
 31
0.0
  0
LINE
  5
343
330
2
100
AcDbEntity
  8
GAIKEI
  6
Continuous
 62
     1
100
AcDbLine
 10
36.76363225594315
 20
29.73593718433534
 30
0.0
 11
36.97362904290071
 21
29.73593718433534
 31
0.0
  0
LINE
  5
344
330
2
100
AcDbEntity
  8
GAIKEI
  6
NON_PLOTING
 62
     1
100
AcDbLine
 10
36.97362904290071
 20
29.36927051770533
 30
0.0
 11
36.97362904290071
 21
29.73593718433534
 31
0.0
  0
LINE
  5
345
330
2
100
AcDbEntity
  8
GAIKEI
  6
Continuous
 62
     1
100
AcDbLine
 10
37.00696237623083
 20
29.0359371844055
 30
0.0
 11
37.00696237623083
 21
29.36927051770533
 31
0.0
  0
LINE
  5
346
330
2
100
AcDbEntity
  8
GAIKEI
  6
Continuous
 62
     1
100
AcDbLine
 10
37.00696237623083
 20
29.36927051770533
 30
0.0
 11
37.00696237623083
 21
29.70260385100516
 31
0.0
  0
LINE
  5
347
330
2
100
AcDbEntity
  8
GAIKEI
  6
Continuous
 62
     1
100
AcDbLine
 10
37.01029570956388
 20
29.15260385106035
 30
0.0
 11
37.00696237623083
 21
29.15260385106035
 31
0.0
  0
LINE
  5
348
330
2
100
AcDbEntity
  8
GAIKEI
  6
Continuous
 62
     1
100
AcDbLine
 10
37.00696237623083
 20
29.58593718435031
 30
0.0
 11
37.01029570956388
 21
29.58593718435031
 31
0.0
  0
ARC
  5
349
330
2
100
AcDbEntity
  8
GAIKEI
  6
Continuous
 62
     1
100
AcDbCircle
 10
36.97362904290071
 20
29.0359371844055
 30
0.0
 40
0.0333333333301515
100
AcDbArc
 50
270.0
 51
0.0
  0
ARC
  5
34A
330
2
100
AcDbEntity
  8
GAIKEI
  6
Continuous
 62
     1
100
AcDbCircle
 10
36.97362904290071
 20
29.70260385100516
 30
0.0
 40
0.0333333333301515
100
AcDbArc
 50
0.0
 51
90.0
  0
LINE
  5
34B
330
2
100
AcDbEntity
  8
GAIKEI
  6
NON_PLOTING
 62
     1
100
AcDbLine
 10
36.97362904290071
 20
18.33593718547536
 30
0.0
 11
36.97362904290071
 21
18.70260385210531
 31
0.0
  0
LINE
  5
34C
330
2
100
AcDbEntity
  8
GAIKEI
  6
Continuous
 62
     1
100
AcDbLine
 10
36.97362904290071
 20
18.33593718547536
 30
0.0
 11
36.76363225594315
 21
18.33593718547536
 31
0.0
  0
LINE
  5
34D
330
2
100
AcDbEntity
  8
GAIKEI
  6
Continuous
 62
     1
100
AcDbLine
 10
36.76363225594315
 20
19.06927051873538
 30
0.0
 11
36.97362904290071
 21
19.06927051873538
 31
0.0
  0
LINE
  5
34E
330
2
100
AcDbEntity
  8
GAIKEI
  6
NON_PLOTING
 62
     1
100
AcDbLine
 10
36.97362904290071
 20
18.70260385210531
 30
0.0
 11
36.97362904290071
 21
19.06927051873538
 31
0.0
  0
LINE
  5
34F
330
2
100
AcDbEntity
  8
GAIKEI
  6
Continuous
 62
     1
100
AcDbLine
 10
37.00696237623083
 20
18.36927051880553
 30
0.0
 11
37.00696237623083
 21
18.70260385210531
 31
0.0
  0
LINE
  5
350
330
2
100
AcDbEntity
  8
GAIKEI
  6
Continuous
 62
     1
100
AcDbLine
 10
37.00696237623083
 20
18.70260385210531
 30
0.0
 11
37.00696237623083
 21
19.03593718540514
 31
0.0
  0
LINE
  5
351
330
2
100
AcDbEntity
  8
GAIKEI
  6
Continuous
 62
     1
100
AcDbLine
 10
37.01029570956388
 20
18.48593718546033
 30
0.0
 11
37.00696237623083
 21
18.48593718546033
 31
0.0
  0
LINE
  5
352
330
2
100
AcDbEntity
  8
GAIKEI
  6
Continuous
 62
     1
100
AcDbLine
 10
37.00696237623083
 20
18.91927051875029
 30
0.0
 11
37.01029570956388
 21
18.91927051875029
 31
0.0
  0
ARC
  5
353
330
2
100
AcDbEntity
  8
GAIKEI
  6
Continuous
 62
     1
100
AcDbCircle
 10
36.97362904290071
 20
18.36927051880553
 30
0.0
 40
0.0333333333301515
100
AcDbArc
 50
270.0
 51
0.0
  0
ARC
  5
354
330
2
100
AcDbEntity
  8
GAIKEI
  6
Continuous
 62
     1
100
AcDbCircle
 10
36.97362904290071
 20
19.03593718540514
 30
0.0
 40
0.0333333333301515
100
AcDbArc
 50
0.0
 51
90.0
  0
LINE
  5
355
330
2
100
AcDbEntity
  8
SUNPO
  6
Continuous
100
AcDbLine
 10
33.46529892293887
 20
42.14817712930437
 30
0.0
 11
33.46529892293887
 21
50.14817712930431
 31
0.0
  0
LINE
  5
356
330
2
100
AcDbEntity
  8
SUNPO
  6
Continuous
100
AcDbLine
 10
36.76529892260891
 20
42.14817712930437
 30
0.0
 11
36.76529892260891
 21
50.14817712930431
 31
0.0
  0
LINE
  5
357
330
2
100
AcDbEntity
  8
SUNPO
  6
Continuous
100
AcDbLine
 10
31.46529892293887
 20
48.14817712930431
 30
0.0
 11
26.06204854548668
 21
48.14817712930431
 31
0.0
  0
LINE
  5
358
330
2
100
AcDbEntity
  8
SUNPO
  6
Continuous
100
AcDbLine
 10
38.7652989226089
 20
48.14817712930431
 30
0.0
 11
50.10868183355853
 21
48.14817712930431
 31
0.0
  0
LINE
  5
359
330
2
100
AcDbEntity
  8
SUNPO
  6
Continuous
100
AcDbLine
 10
33.46529892293887
 20
48.14817712930431
 30
0.0
 11
37.67696237616383
 21
48.14817712930431
 31
0.0
  0
INSERT
  5
35A
330
2
100
AcDbEntity
  8
SUNPO
  6
Continuous
100
AcDbBlockReference
  2
_OPEN30
 10
33.46529892293887
 20
48.14817712930431
 30
0.0
 41
2.0
 42
2.0
 43
2.0
  0
MTEXT
  5
35B
330
2
100
AcDbEntity
  8
SUNPO
  6
Continuous
100
AcDbMText
 10
28.96216347080918
 20
49.89817712930431
 30
0.0
 40
2.5
 41
0.0
 71
     5
 72
     1
  1
\A1;99
 73
     1
 44
1.0
1001
ACAD
1000
MTEXTBEGIN
1070
    73
1070
     1
1070
    44
1040
1.0
1070
    74
1070
     0
1000
MTEXTEND
  0
INSERT
  5
35C
330
2
100
AcDbEntity
  8
SUNPO
  6
Continuous
100
AcDbBlockReference
  2
_OPEN30
 10
37.67696237616383
 20
48.14817712930431
 30
0.0
 41
2.0
 42
2.0
 43
2.0
 50
180.0
  0
LINE
  5
35D
330
2
100
AcDbEntity
  8
SUNPO
  6
Continuous
100
AcDbLine
 10
37.67696237616383
 20
42.14817712930437
 30
0.0
 11
37.67696237616383
 21
50.14817712930431
 31
0.0
  0
CIRCLE
  5
35E
330
2
100
AcDbEntity
  8
SUNPO
100
AcDbCircle
 10
36.76529892260891
 20
48.14817712930426
 30
0.0
 40
0.269999999973
  0
LINE
  5
35F
330
2
100
AcDbEntity
  8
SUNPO
100
AcDbLine
 10
36.49630368417087
 20
48.12490565141661
 30
0.0
 11
37.03429416104695
 21
48.12490565141661
 31
0.0
  0
LINE
  5
360
330
2
100
AcDbEntity
  8
SUNPO
100
AcDbLine
 10
36.49662516860349
 20
48.17490565141162
 30
0.0
 11
37.03397267661433
 21
48.17490565141162
 31
0.0
  0
LINE
  5
361
330
2
100
AcDbEntity
  8
SUNPO
100
AcDbLine
 10
36.61868999635425
 20
48.3749056513916
 30
0.0
 11
36.91190784886351
 21
48.3749056513916
 31
0.0
  0
LINE
  5
362
330
2
100
AcDbEntity
  8
SUNPO
100
AcDbLine
 10
36.56117388870934
 20
48.32490565139659
 30
0.0
 11
36.96942395650842
 21
48.32490565139659
 31
0.0
  0
LINE
  5
363
330
2
100
AcDbEntity
  8
SUNPO
100
AcDbLine
 10
36.52688776164439
 20
48.27490565140158
 30
0.0
 11
37.00371008357342
 21
48.27490565140158
 31
0.0
  0
LINE
  5
364
330
2
100
AcDbEntity
  8
SUNPO
100
AcDbLine
 10
36.50643074402871
 20
48.22490565140657
 30
0.0
 11
37.02416710118905
 21
48.22490565140657
 31
0.0
  0
LINE
  5
365
330
2
100
AcDbEntity
  8
SUNPO
100
AcDbLine
 10
36.50543108982788
 20
48.0749056514216
 30
0.0
 11
37.02516675538993
 21
48.0749056514216
 31
0.0
  0
LINE
  5
366
330
2
100
AcDbEntity
  8
SUNPO
100
AcDbLine
 10
36.52508205657472
 20
48.02490565142659
 30
0.0
 11
37.00551578864304
 21
48.02490565142659
 31
0.0
  0
LINE
  5
367
330
2
100
AcDbEntity
  8
SUNPO
100
AcDbLine
 10
36.55823131301906
 20
47.97490565143158
 30
0.0
 11
36.97236653219864
 21
47.97490565143158
 31
0.0
  0
LINE
  5
368
330
2
100
AcDbEntity
  8
SUNPO
100
AcDbLine
 10
36.61347716146713
 20
47.92490565143663
 30
0.0
 11
36.91712068375068
 21
47.92490565143663
 31
0.0
  0
MTEXT
  5
369
330
2
100
AcDbEntity
  8
SUNPO
  6
Continuous
100
AcDbMText
 10
45.05025744466843
 20
49.89817712930431
 30
0.0
 40
2.5
 41
0.0
 71
     5
 72
     1
  1
27.3
 73
     1
 44
1.0
1001
ACAD
1000
MTEXTBEGIN
1070
    73
1070
     1
1070
    44
1040
1.0
1070
    74
1070
     0
1000
MTEXTEND
  0
TEXT
  5
36A
330
2
100
AcDbEntity
  8
TOUROKU
100
AcDbText
 10
43.74932821804122
 20
11.44717941694591
 30
0.0
 40
1.5
  1
Ｓ＝１／３０
 41
0.7
 72
     2
 11
50.81932821804122
 21
11.44717941694591
 31
0.0
100
AcDbText
  0
TEXT
  5
36C
330
2
100
AcDbEntity
  8
MOJI1
100
AcDbText
 10
-57.85896182222041
 20
-31.61541467674147
 30
0.0
 40
3.0
  1
階調数
100
AcDbText
  0
TEXT
  5
36E
330
2
100
AcDbEntity
  8
MOJI1
100
AcDbText
 10
-57.85896182222041
 20
-26.61541467674147
 30
0.0
 40
3.0
  1
コントラスト
100
AcDbText
  0
LINE
  5
36F
330
2
100
AcDbEntity
  8
WAKU
 62
     1
100
AcDbLine
 10
-60.35896182222041
 20
-32.61541467674147
 30
0.0
 11
64.64103817777936
 21
-32.61541467674147
 31
0.0
  0
LINE
  5
371
330
2
100
AcDbEntity
  8
WAKU
 62
     1
100
AcDbLine
 10
-60.35896182222041
 20
-27.61541467674147
 30
0.0
 11
64.64103817777936
 21
-27.61541467674147
 31
0.0
  0
TEXT
  5
372
330
2
100
AcDbEntity
  8
MOJI1
100
AcDbText
 10
-57.85896182222041
 20
-6.615414676741465
 30
0.0
 40
3.0
  1
電  源
100
AcDbText
  0
TEXT
  5
373
330
2
100
AcDbEntity
  8
MOJI1
100
AcDbText
 10
-57.85896182222041
 20
-11.61541467674146
 30
0.0
 40
3.0
  1
消費電力
100
AcDbText
  0
TEXT
  5
374
330
2
100
AcDbEntity
  8
MOJI1
100
AcDbText
 10
-57.85896182222041
 20
-16.61541467674146
 30
0.0
 40
3.0
  1
画面サイズ
100
AcDbText
  0
TEXT
  5
375
330
2
100
AcDbEntity
  8
MOJI1
100
AcDbText
 10
-18.8589618222204
 20
-11.61541467674146
 30
0.0
 40
3.0
  1
６８０Ｗ
100
AcDbText
  0
TEXT
  5
376
330
2
100
AcDbEntity
  8
MOJI1
100
AcDbText
 10
-18.8589618222204
 20
-16.61541467674146
 30
0.0
 40
3.0
  1
５８Ｖ型（１６：９）
100
AcDbText
  0
TEXT
  5
377
330
2
100
AcDbEntity
  8
MOJI1
100
AcDbText
 10
-18.8589618222204
 20
-6.615414676741465
 30
0.0
 40
3.0
  1
ＡＣ１００Ｖ±１０％　５０Ｈｚ／６０Ｈｚ
100
AcDbText
  0
TEXT
  5
378
330
2
100
AcDbEntity
  8
MOJI1
100
AcDbText
 10
-57.85896182222041
 20
-41.61541467674147
 30
0.0
 40
3.0
  1
接続端子
100
AcDbText
  0
TEXT
  5
379
330
2
100
AcDbEntity
  8
MOJI1
100
AcDbText
 10
-57.85896182222041
 20
-36.61541467674147
 30
0.0
 40
3.0
  1
音声最大出力
100
AcDbText
  0
TEXT
  5
37A
330
2
100
AcDbEntity
  8
MOJI1
100
AcDbText
 10
-18.8589618222204
 20
-36.61541467674147
 30
0.0
 40
3.0
  1
１６Ｗ（８Ｗ＋８Ｗ）
100
AcDbText
  0
TEXT
  5
37B
330
2
100
AcDbEntity
  8
MOJI1
100
AcDbText
 10
-18.8589618222204
 20
-41.61541467674147
 30
0.0
 40
3.0
  1
ＤＶＩ－Ｄ／コンポーネントビデオ／ＰＣ
100
AcDbText
  0
TEXT
  5
37C
330
2
100
AcDbEntity
  8
MOJI1
100
AcDbText
 10
-18.8589618222204
 20
-21.61541467674147
 30
0.0
 40
3.0
  1
水平１９２０×垂直１０８０　画素
100
AcDbText
  0
LINE
  5
37D
330
2
100
AcDbEntity
  8
WAKU
 62
     4
100
AcDbLine
 10
-20.35896182222064
 20
-2.615414676741465
 30
0.0
 11
-20.35896182222064
 21
-47.61541467674146
 31
0.0
  0
TEXT
  5
37E
330
2
100
AcDbEntity
  8
MOJI1
100
AcDbText
 10
-57.85896182222041
 20
-21.61541467674147
 30
0.0
 40
3.0
  1
画素数
100
AcDbText
  0
LINE
  5
37F
330
2
100
AcDbEntity
  8
WAKU
 62
     4
100
AcDbLine
 10
64.64103817777936
 20
-2.615414676741465
 30
0.0
 11
64.64103817777936
 21
-47.61541467674146
 31
0.0
  0
LINE
  5
380
330
2
100
AcDbEntity
  8
WAKU
 62
     4
100
AcDbLine
 10
-60.35896182222064
 20
-2.615414676741465
 30
0.0
 11
-60.35896182222041
 21
-47.61541467674146
 31
0.0
  0
LINE
  5
381
330
2
100
AcDbEntity
  8
WAKU
 62
     4
100
AcDbLine
 10
64.64103817777936
 20
-47.61541467674146
 30
0.0
 11
-60.35896182222041
 21
-47.61541467674146
 31
0.0
  0
LINE
  5
382
330
2
100
AcDbEntity
  8
WAKU
 62
     1
100
AcDbLine
 10
-60.35896182222041
 20
-42.61541467674146
 30
0.0
 11
64.64103817777936
 21
-42.61541467674146
 31
0.0
  0
LINE
  5
383
330
2
100
AcDbEntity
  8
WAKU
 62
     1
100
AcDbLine
 10
-60.35896182222041
 20
-37.61541467674147
 30
0.0
 11
64.64103817777936
 21
-37.61541467674147
 31
0.0
  0
LINE
  5
384
330
2
100
AcDbEntity
  8
WAKU
 62
     1
100
AcDbLine
 10
-60.35896182222041
 20
-17.61541467674146
 30
0.0
 11
64.64103817777936
 21
-17.61541467674146
 31
0.0
  0
LINE
  5
385
330
2
100
AcDbEntity
  8
WAKU
 62
     1
100
AcDbLine
 10
-60.35896182222041
 20
-7.615414676741465
 30
0.0
 11
64.64103817777936
 21
-7.615414676741465
 31
0.0
  0
LINE
  5
386
330
2
100
AcDbEntity
  8
WAKU
 62
     4
100
AcDbLine
 10
-60.35896182222041
 20
-2.615414676741465
 30
0.0
 11
64.64103817777936
 21
-2.615414676741465
 31
0.0
  0
LINE
  5
387
330
2
100
AcDbEntity
  8
WAKU
 62
     1
100
AcDbLine
 10
-60.35896182222041
 20
-22.61541467674147
 30
0.0
 11
64.64103817777936
 21
-22.61541467674147
 31
0.0
  0
LINE
  5
388
330
2
100
AcDbEntity
  8
WAKU
 62
     1
100
AcDbLine
 10
-60.35896182222041
 20
-12.61541467674146
 30
0.0
 11
64.64103817777936
 21
-12.61541467674146
 31
0.0
  0
TEXT
  5
389
330
2
100
AcDbEntity
  8
MOJI1
100
AcDbText
 10
-18.8589618222204
 20
-31.61541467674147
 30
0.0
 40
3.0
  1
５１２０階調（相当）
100
AcDbText
  0
TEXT
  5
38A
330
2
100
AcDbEntity
  8
MOJI1
100
AcDbText
 10
-18.8589618222204
 20
-26.61541467674147
 30
0.0
 40
3.0
  1
３００００：１
100
AcDbText
  0
TEXT
  5
38B
330
2
100
AcDbEntity
  8
MOJI1
100
AcDbText
 10
-18.8589618222204
 20
-46.61541467674147
 30
0.0
 40
3.0
  1
外部スピーカ／シリアル
100
AcDbText
  0
TEXT
  5
38C
330
2
100
AcDbEntity
  8
TOUROKU
100
AcDbText
 10
19.84098821070692
 20
55.3845853232583
 30
0.0
 40
2.0
  1
ＴＨ５８ＰＦ１１Ｋ＋ＴＹＷＫ４２ＰＶ７
 72
     2
 11
64.64098821070689
 21
55.3845853232583
 31
0.0
100
AcDbText
  0
TEXT
  5
38D
330
2
100
AcDbEntity
  8
MOJI1
100
AcDbText
 10
-33.35896182222064
 20
61.38458532325853
 30
0.0
 40
4.0
  1
ハイビジョンプラズマディスプレイ壁掛け金具付
 41
0.93
100
AcDbText
  0
ENDSEC
  0
SECTION
  2
OBJECTS
  0
DICTIONARY
  5
7
330
0
100
AcDbDictionary
281
     1
  3
ACAD_COLOR
350
2C
  3
ACAD_GROUP
350
28
  3
ACAD_LAYOUT
350
B
  3
ACAD_MATERIAL
350
2B
  3
ACAD_MLINESTYLE
350
29
  3
ACAD_PLOTSETTINGS
350
2A
  3
ACAD_PLOTSTYLENAME
350
6
  3
ACDBHEADERROUNDTRIPXREC
350
3D6
  3
AcDbVariableDictionary
350
3D1
  0
DICTIONARY
  5
11
330
10
100
AcDbDictionary
280
     1
281
     1
  3
ACAD_LAYERSTATES
360
12
  0
DICTIONARY
  5
2C
102
{ACAD_REACTORS
330
7
102
}
330
7
100
AcDbDictionary
281
     1
  0
DICTIONARY
  5
28
102
{ACAD_REACTORS
330
7
102
}
330
7
100
AcDbDictionary
281
     1
  0
DICTIONARY
  5
B
102
{ACAD_REACTORS
330
7
102
}
330
7
100
AcDbDictionary
281
     1
  3
Model
350
A
  3
レイアウト1
350
F
  0
DICTIONARY
  5
2B
102
{ACAD_REACTORS
330
7
102
}
330
7
100
AcDbDictionary
281
     1
  0
DICTIONARY
  5
29
102
{ACAD_REACTORS
330
7
102
}
330
7
100
AcDbDictionary
281
     1
  3
Standard
350
2D
  0
DICTIONARY
  5
2A
102
{ACAD_REACTORS
330
7
102
}
330
7
100
AcDbDictionary
281
     1
  0
ACDBDICTIONARYWDFLT
  5
6
102
{ACAD_REACTORS
330
7
102
}
330
7
100
AcDbDictionary
281
     1
  3
Normal
350
5
100
AcDbDictionaryWithDefault
340
5
  0
DICTIONARY
  5
3D6
102
{ACAD_REACTORS
330
7
102
}
330
7
100
AcDbDictionary
281
     1
  3
COLORDICT
350
3D8
  3
MATERIALDICT
350
3D7
  0
DICTIONARY
  5
3D1
102
{ACAD_REACTORS
330
7
102
}
330
7
100
AcDbDictionary
281
     1
  3
DIMASSOC
350
3D3
  3
HIDETEXT
350
3D2
  3
PROJECTNAME
350
3D4
  0
DICTIONARY
  5
12
102
{ACAD_REACTORS
330
11
102
}
330
11
100
AcDbDictionary
281
     1
  0
LAYOUT
  5
A
102
{ACAD_XDICTIONARY
360
3D9
102
}
102
{ACAD_REACTORS
330
B
102
}
330
B
100
AcDbPlotSettings
  1

  2
Ａ４－縦3FRIM01.pc3
  4
A4
  6

 40
5.873749732971191
 41
5.873747825622558
 42
5.873748779296875
 43
5.873748779296875
 44
209.9733276367187
 45
296.9259948730469
 46
5.419999999999999
 47
0.0
 48
6.882095232559095
 49
141.0756786076379
140
239.450961859417
141
347.3703312460464
142
1.0
143
1.382436410163057
 70
 11956
 72
     1
 73
     0
 74
     1
  7
tmsacad.ctb
 75
     0
147
0.7233605774909031
148
0.0221643580207456
149
0.0129582838427496
100
AcDbLayout
  1
Model
 70
     1
 71
     0
 10
0.0
 20
0.0
 11
12.0
 21
9.0
 12
0.0
 22
0.0
 32
0.0
 14
0.0
 24
0.0
 34
0.0
 15
0.0
 25
0.0
 35
0.0
146
0.0
 13
0.0
 23
0.0
 33
0.0
 16
1.0
 26
0.0
 36
0.0
 17
0.0
 27
1.0
 37
0.0
 76
     0
330
2
  0
LAYOUT
  5
F
102
{ACAD_XDICTIONARY
360
3DB
102
}
102
{ACAD_REACTORS
330
B
102
}
330
B
100
AcDbPlotSettings
  1

  2
None
  4

  6

 40
0.0
 41
0.0
 42
0.0
 43
0.0
 44
0.0
 45
0.0
 46
0.0
 47
0.0
 48
0.0
 49
0.0
140
0.0
141
0.0
142
1.0
143
1.0
 70
   688
 72
     0
 73
     0
 74
     5
  7
tmsacad.ctb
 75
    16
147
1.0
148
0.0
149
0.0
100
AcDbLayout
  1
レイアウト1
 70
     1
 71
     1
 10
0.0
 20
0.0
 11
12.0
 21
9.0
 12
0.0
 22
0.0
 32
0.0
 14
0.0
 24
0.0
 34
0.0
 15
0.0
 25
0.0
 35
0.0
146
0.0
 13
0.0
 23
0.0
 33
0.0
 16
1.0
 26
0.0
 36
0.0
 17
0.0
 27
1.0
 37
0.0
 76
     0
330
C
  0
MLINESTYLE
  5
2D
102
{ACAD_REACTORS
330
29
102
}
330
29
100
AcDbMlineStyle
  2
STANDARD
 70
     0
  3

 62
   256
 51
90.0
 52
90.0
 71
     2
 49
0.5
 62
   256
  6
BYLAYER
 49
-0.5
 62
   256
  6
BYLAYER
  0
ACDBPLACEHOLDER
  5
5
102
{ACAD_REACTORS
330
6
102
}
330
6
  0
XRECORD
  5
3D8
102
{ACAD_REACTORS
330
3D6
102
}
330
3D6
100
AcDbXrecord
280
     1
340
2C
  0
XRECORD
  5
3D7
102
{ACAD_REACTORS
330
3D6
102
}
330
3D6
100
AcDbXrecord
280
     1
340
2B
  0
DICTIONARYVAR
  5
3D3
102
{ACAD_REACTORS
330
3D1
102
}
330
3D1
100
DictionaryVariables
280
     0
  1
1
  0
DICTIONARYVAR
  5
3D2
102
{ACAD_REACTORS
330
3D1
102
}
330
3D1
100
DictionaryVariables
280
     0
  1
1
  0
DICTIONARYVAR
  5
3D4
102
{ACAD_REACTORS
330
3D1
102
}
330
3D1
100
DictionaryVariables
280
     0
  1

  0
DICTIONARY
  5
3D9
330
A
100
AcDbDictionary
280
     1
281
     1
  3
ACAD_XREC_ROUNDTRIP
360
3DA
  0
DICTIONARY
  5
3DB
330
F
100
AcDbDictionary
280
     1
281
     1
  3
ACAD_XREC_ROUNDTRIP
360
3DC
  0
XRECORD
  5
3DA
102
{ACAD_REACTORS
330
3D9
102
}
330
3D9
100
AcDbXrecord
280
     1
102
SHADEPLOT
 70
     0
102
SHADEPLOTRESLEVEL
 70
     2
102
SHADEPLOTCUSTOMDPI
 70
   300
  0
XRECORD
  5
3DC
102
{ACAD_REACTORS
330
3DB
102
}
330
3DB
100
AcDbXrecord
280
     1
102
SHADEPLOT
 70
     0
102
SHADEPLOTRESLEVEL
 70
     2
102
SHADEPLOTCUSTOMDPI
 70
   300
  0
ENDSEC
  0
EOF
