  0
SECTION
  2
HEADER
  9
$ACADVER
  1
AC1015
  9
$ACADMAINTVER
 70
    20
  9
$DWGCODEPAGE
  3
ANSI_932
  9
$INSBASE
 10
0.0
 20
246.4992141396417
 30
0.0
  9
$EXTMIN
 10
-60.82543783135588
 20
-53.44509432859377
 30
-0.0015258207003583
  9
$EXTMAX
 10
64.25507113860885
 20
59.68598758703229
 30
0.0000000349246037
  9
$LIMMIN
 10
-1101.784450318844
 20
-1579.160531687244
  9
$LIMMAX
 10
-508.2420711400536
 20
-1161.440814074914
  9
$ORTHOMODE
 70
     1
  9
$REGENMODE
 70
     1
  9
$FILLMODE
 70
     1
  9
$QTEXTMODE
 70
     0
  9
$MIRRTEXT
 70
     1
  9
$LTSCALE
 40
1.0
  9
$ATTMODE
 70
     1
  9
$TEXTSIZE
 40
3.0
  9
$TRACEWID
 40
0.5
  9
$TEXTSTYLE
  7
STANDARD
  9
$CLAYER
  8
0
  9
$CELTYPE
  6
BYLAYER
  9
$CECOLOR
 62
   256
  9
$CELTSCALE
 40
1.0
  9
$DISPSILH
 70
     0
  9
$DIMSCALE
 40
1.0
  9
$DIMASZ
 40
2.0
  9
$DIMEXO
 40
2.0
  9
$DIMDLI
 40
8.0
  9
$DIMRND
 40
0.0
  9
$DIMDLE
 40
0.0
  9
$DIMEXE
 40
2.0
  9
$DIMTP
 40
0.0
  9
$DIMTM
 40
0.0
  9
$DIMTXT
 40
2.5
  9
$DIMCEN
 40
0.0
  9
$DIMTSZ
 40
0.0
  9
$DIMTOL
 70
     0
  9
$DIMLIM
 70
     0
  9
$DIMTIH
 70
     0
  9
$DIMTOH
 70
     0
  9
$DIMSE1
 70
     0
  9
$DIMSE2
 70
     0
  9
$DIMTAD
 70
     3
  9
$DIMZIN
 70
     0
  9
$DIMBLK
  1

  9
$DIMASO
 70
     1
  9
$DIMSHO
 70
     1
  9
$DIMPOST
  1

  9
$DIMAPOST
  1

  9
$DIMALT
 70
     0
  9
$DIMALTD
 70
     2
  9
$DIMALTF
 40
25.4
  9
$DIMLFAC
 40
1.0
  9
$DIMTOFL
 70
     1
  9
$DIMTVP
 40
0.0
  9
$DIMTIX
 70
     0
  9
$DIMSOXD
 70
     0
  9
$DIMSAH
 70
     1
  9
$DIMBLK1
  1
OPEN30
  9
$DIMBLK2
  1
OPEN30
  9
$DIMSTYLE
  2
STANDARD
  9
$DIMCLRD
 70
     0
  9
$DIMCLRE
 70
     0
  9
$DIMCLRT
 70
     0
  9
$DIMTFAC
 40
1.0
  9
$DIMGAP
 40
0.5
  9
$DIMJUST
 70
     0
  9
$DIMSD1
 70
     0
  9
$DIMSD2
 70
     0
  9
$DIMTOLJ
 70
     1
  9
$DIMTZIN
 70
     0
  9
$DIMALTZ
 70
     0
  9
$DIMALTTZ
 70
     0
  9
$DIMUPT
 70
     0
  9
$DIMDEC
 70
     4
  9
$DIMTDEC
 70
     4
  9
$DIMALTU
 70
     2
  9
$DIMALTTD
 70
     2
  9
$DIMTXSTY
  7
STANDARD
  9
$DIMAUNIT
 70
     0
  9
$DIMADEC
 70
     0
  9
$DIMALTRND
 40
0.0
  9
$DIMAZIN
 70
     0
  9
$DIMDSEP
 70
    46
  9
$DIMATFIT
 70
     3
  9
$DIMFRAC
 70
     0
  9
$DIMLDRBLK
  1
OPEN30
  9
$DIMLUNIT
 70
     2
  9
$DIMLWD
 70
    -2
  9
$DIMLWE
 70
    -2
  9
$DIMTMOVE
 70
     0
  9
$LUNITS
 70
     2
  9
$LUPREC
 70
     4
  9
$SKETCHINC
 40
0.1
  9
$FILLETRAD
 40
0.0
  9
$AUNITS
 70
     0
  9
$AUPREC
 70
     0
  9
$MENU
  1
ACAD
  9
$ELEVATION
 40
0.0
  9
$PELEVATION
 40
0.0
  9
$THICKNESS
 40
0.0
  9
$LIMCHECK
 70
     0
  9
$CHAMFERA
 40
0.0
  9
$CHAMFERB
 40
0.0
  9
$CHAMFERC
 40
0.0
  9
$CHAMFERD
 40
0.0
  9
$SKPOLY
 70
     0
  9
$TDCREATE
 40
2451815.565532581
  9
$TDUCREATE
 40
2451815.190532581
  9
$TDUPDATE
 40
2454643.709284734
  9
$TDUUPDATE
 40
2454643.334284734
  9
$TDINDWG
 40
0.9678300116
  9
$TDUSRTIMER
 40
0.9678300116
  9
$USRTIMER
 70
     1
  9
$ANGBASE
 50
0.0
  9
$ANGDIR
 70
     0
  9
$PDMODE
 70
     0
  9
$PDSIZE
 40
0.0
  9
$PLINEWID
 40
0.0
  9
$SPLFRAME
 70
     0
  9
$SPLINETYPE
 70
     6
  9
$SPLINESEGS
 70
     8
  9
$HANDSEED
  5
29C
  9
$SURFTAB1
 70
     6
  9
$SURFTAB2
 70
     6
  9
$SURFTYPE
 70
     6
  9
$SURFU
 70
     6
  9
$SURFV
 70
     6
  9
$UCSBASE
  2

  9
$UCSNAME
  2

  9
$UCSORG
 10
0.0
 20
0.0
 30
0.0
  9
$UCSXDIR
 10
1.0
 20
0.0
 30
0.0
  9
$UCSYDIR
 10
0.0
 20
1.0
 30
0.0
  9
$UCSORTHOREF
  2

  9
$UCSORTHOVIEW
 70
     0
  9
$UCSORGTOP
 10
0.0
 20
0.0
 30
0.0
  9
$UCSORGBOTTOM
 10
0.0
 20
0.0
 30
0.0
  9
$UCSORGLEFT
 10
0.0
 20
0.0
 30
0.0
  9
$UCSORGRIGHT
 10
0.0
 20
0.0
 30
0.0
  9
$UCSORGFRONT
 10
0.0
 20
0.0
 30
0.0
  9
$UCSORGBACK
 10
0.0
 20
0.0
 30
0.0
  9
$PUCSBASE
  2

  9
$PUCSNAME
  2

  9
$PUCSORG
 10
0.0
 20
0.0
 30
0.0
  9
$PUCSXDIR
 10
1.0
 20
0.0
 30
0.0
  9
$PUCSYDIR
 10
0.0
 20
1.0
 30
0.0
  9
$PUCSORTHOREF
  2

  9
$PUCSORTHOVIEW
 70
     0
  9
$PUCSORGTOP
 10
0.0
 20
0.0
 30
0.0
  9
$PUCSORGBOTTOM
 10
0.0
 20
0.0
 30
0.0
  9
$PUCSORGLEFT
 10
0.0
 20
0.0
 30
0.0
  9
$PUCSORGRIGHT
 10
0.0
 20
0.0
 30
0.0
  9
$PUCSORGFRONT
 10
0.0
 20
0.0
 30
0.0
  9
$PUCSORGBACK
 10
0.0
 20
0.0
 30
0.0
  9
$USERI1
 70
     0
  9
$USERI2
 70
     0
  9
$USERI3
 70
     0
  9
$USERI4
 70
     0
  9
$USERI5
 70
     0
  9
$USERR1
 40
0.0
  9
$USERR2
 40
0.0
  9
$USERR3
 40
0.0
  9
$USERR4
 40
0.0
  9
$USERR5
 40
0.0
  9
$WORLDVIEW
 70
     1
  9
$SHADEDGE
 70
     3
  9
$SHADEDIF
 70
    70
  9
$TILEMODE
 70
     1
  9
$MAXACTVP
 70
    48
  9
$PINSBASE
 10
0.0
 20
0.0
 30
0.0
  9
$PLIMCHECK
 70
     0
  9
$PEXTMIN
 10
1.000000000000000E+20
 20
1.000000000000000E+20
 30
1.000000000000000E+20
  9
$PEXTMAX
 10
-1.000000000000000E+20
 20
-1.000000000000000E+20
 30
-1.000000000000000E+20
  9
$PLIMMIN
 10
0.0
 20
0.0
  9
$PLIMMAX
 10
12.0
 20
9.0
  9
$UNITMODE
 70
     0
  9
$VISRETAIN
 70
     1
  9
$PLINEGEN
 70
     0
  9
$PSLTSCALE
 70
     1
  9
$TREEDEPTH
 70
  3020
  9
$CMLSTYLE
  2
STANDARD
  9
$CMLJUST
 70
     0
  9
$CMLSCALE
 40
1.0
  9
$PROXYGRAPHICS
 70
     1
  9
$MEASUREMENT
 70
     0
  9
$CELWEIGHT
370
    -1
  9
$ENDCAPS
280
     0
  9
$JOINSTYLE
280
     0
  9
$LWDISPLAY
290
     0
  9
$INSUNITS
 70
     0
  9
$HYPERLINKBASE
  1

  9
$STYLESHEET
  1

  9
$XEDIT
290
     1
  9
$CEPSNTYPE
380
     0
  9
$PSTYLEMODE
290
     1
  9
$FINGERPRINTGUID
  2
{1754B7AB-9B3C-11D4-AD9E-00104B1004F2}
  9
$VERSIONGUID
  2
{A201EB90-FADC-4013-8BC3-CF229BCC8296}
  9
$EXTNAMES
290
     1
  9
$PSVPSCALE
 40
0.0
  9
$OLESTARTUP
290
     0
  0
ENDSEC
  0
SECTION
  2
CLASSES
  0
CLASS
  1
ACDBDICTIONARYWDFLT
  2
AcDbDictionaryWithDefault
  3
ObjectDBX Classes
 90
        0
280
     0
281
     0
  0
CLASS
  1
ACDBPLACEHOLDER
  2
AcDbPlaceHolder
  3
ObjectDBX Classes
 90
        0
280
     0
281
     0
  0
CLASS
  1
LAYOUT
  2
AcDbLayout
  3
ObjectDBX Classes
 90
        0
280
     0
281
     0
  0
CLASS
  1
DICTIONARYVAR
  2
AcDbDictionaryVar
  3
ObjectDBX Classes
 90
        0
280
     0
281
     0
  0
CLASS
  1
SORTENTSTABLE
  2
AcDbSortentsTable
  3
ObjectDBX Classes
 90
    32768
280
     0
281
     0
  0
ENDSEC
  0
SECTION
  2
TABLES
  0
TABLE
  2
VPORT
  5
20
330
0
100
AcDbSymbolTable
 70
     3
  0
VPORT
  5
294
330
20
100
AcDbSymbolTableRecord
100
AcDbViewportTableRecord
  2
*Active
 70
     0
 10
0.0
 20
0.0
 11
1.0
 21
1.0
 12
1.714816653626478
 22
3.120446629219259
 13
0.0
 23
0.0
 14
1.0
 24
1.0
 15
0.0
 25
0.0
 16
0.0
 26
0.0
 36
1.0
 17
0.0
 27
0.0
 37
0.0
 40
114.025398768714
 41
1.439313984168865
 42
50.0
 43
0.0
 44
0.0
 50
0.0
 51
0.0
 71
     0
 72
 10000
 73
     1
 74
     0
 75
     0
 76
     1
 77
     0
 78
     0
281
     0
 65
     1
110
0.0
120
0.0
130
0.0
111
1.0
121
0.0
131
0.0
112
0.0
122
1.0
132
0.0
 79
     0
146
0.0
  0
ENDTAB
  0
TABLE
  2
LTYPE
  5
1B
330
0
100
AcDbSymbolTable
 70
     1
  0
LTYPE
  5
1C
330
1B
100
AcDbSymbolTableRecord
100
AcDbLinetypeTableRecord
  2
BYBLOCK
 70
     0
  3

 72
    65
 73
     0
 40
0.0
  0
LTYPE
  5
1D
330
1B
100
AcDbSymbolTableRecord
100
AcDbLinetypeTableRecord
  2
BYLAYER
 70
     0
  3

 72
    65
 73
     0
 40
0.0
  0
LTYPE
  5
A
330
1B
100
AcDbSymbolTableRecord
100
AcDbLinetypeTableRecord
  2
CONTINUOUS
 70
     0
  3
Solid line
 72
    65
 73
     0
 40
0.0
  0
ENDTAB
  0
TABLE
  2
LAYER
  5
14
102
{ACAD_XDICTIONARY
360
15
102
}
330
0
100
AcDbSymbolTable
 70
     7
  0
LAYER
  5
6
330
14
100
AcDbSymbolTableRecord
100
AcDbLayerTableRecord
  2
0
 70
     0
 62
     7
  6
CONTINUOUS
370
    -3
390
7
  0
LAYER
  5
61
330
14
100
AcDbSymbolTableRecord
100
AcDbLayerTableRecord
  2
DEFPOINTS
 70
     0
 62
     7
  6
CONTINUOUS
290
     0
370
    -3
390
7
  0
LAYER
  5
3C
330
14
100
AcDbSymbolTableRecord
100
AcDbLayerTableRecord
  2
WAKU
 70
     0
 62
     4
  6
CONTINUOUS
370
    -3
390
7
  0
LAYER
  5
37
330
14
100
AcDbSymbolTableRecord
100
AcDbLayerTableRecord
  2
MOJI1
 70
     0
 62
     2
  6
CONTINUOUS
370
    -3
390
7
  0
LAYER
  5
66
330
14
100
AcDbSymbolTableRecord
100
AcDbLayerTableRecord
  2
GAIKEI
 70
     0
 62
     7
  6
CONTINUOUS
370
    -3
390
7
  0
LAYER
  5
57
330
14
100
AcDbSymbolTableRecord
100
AcDbLayerTableRecord
  2
SUNPO
 70
     0
 62
     3
  6
CONTINUOUS
370
    -3
390
7
  0
LAYER
  5
34
330
14
100
AcDbSymbolTableRecord
100
AcDbLayerTableRecord
  2
TOUROKU
 70
     0
 62
     1
  6
CONTINUOUS
370
    -3
390
7
  0
ENDTAB
  0
TABLE
  2
STYLE
  5
18
330
0
100
AcDbSymbolTable
 70
     1
  0
STYLE
  5
19
330
18
100
AcDbSymbolTableRecord
100
AcDbTextStyleTableRecord
  2
STANDARD
 70
     0
 40
0.0
 41
1.0
 50
0.0
 71
     0
 42
3.0
  3
MONOTXT.shx
  4
BIGFONT.shx
  0
ENDTAB
  0
TABLE
  2
VIEW
  5
1E
330
0
100
AcDbSymbolTable
 70
     0
  0
ENDTAB
  0
TABLE
  2
UCS
  5
1F
330
0
100
AcDbSymbolTable
 70
     0
  0
ENDTAB
  0
TABLE
  2
APPID
  5
22
330
0
100
AcDbSymbolTable
 70
     2
  0
APPID
  5
23
330
22
100
AcDbSymbolTableRecord
100
AcDbRegAppTableRecord
  2
ACAD
 70
     0
  0
APPID
  5
250
330
22
100
AcDbSymbolTableRecord
100
AcDbRegAppTableRecord
  2
DCO15
 70
     0
  0
ENDTAB
  0
TABLE
  2
DIMSTYLE
  5
24
330
0
100
AcDbSymbolTable
 70
     1
100
AcDbDimStyleTable
 71
     1
340
25
  0
DIMSTYLE
105
25
102
{ACAD_REACTORS
330
162
330
101
330
56
330
234
102
}
330
24
100
AcDbSymbolTableRecord
100
AcDbDimStyleTableRecord
  2
STANDARD
 70
     0
 40
0.0
 41
2.0
 42
2.0
 43
8.0
 44
2.0
 73
     0
 74
     0
 77
     3
140
3.0
141
0.0
173
     1
279
     2
288
     1
340
19
341
26
343
26
344
26
  0
ENDTAB
  0
TABLE
  2
BLOCK_RECORD
  5
1
330
0
100
AcDbSymbolTable
 70
     9
  0
BLOCK_RECORD
  5
2
102
{ACAD_XDICTIONARY
360
3
102
}
330
1
100
AcDbSymbolTableRecord
100
AcDbBlockTableRecord
  2
*MODEL_SPACE
340
C
  0
BLOCK_RECORD
  5
E
102
{ACAD_XDICTIONARY
360
F
102
}
330
1
100
AcDbSymbolTableRecord
100
AcDbBlockTableRecord
  2
*PAPER_SPACE
340
13
  0
BLOCK_RECORD
  5
26
330
1
100
AcDbSymbolTableRecord
100
AcDbBlockTableRecord
  2
_OPEN30
340
0
102
{BLKREFS
331
5D
331
5E
331
107
331
108
331
168
331
169
331
23C
331
23D
331
264
331
265
331
270
331
271
331
27C
331
27D
331
288
331
289
102
}
  0
BLOCK_RECORD
  5
163
330
1
100
AcDbSymbolTableRecord
100
AcDbBlockTableRecord
  2
*D1
340
0
  0
BLOCK_RECORD
  5
102
330
1
100
AcDbSymbolTableRecord
100
AcDbBlockTableRecord
  2
*D2
340
0
  0
BLOCK_RECORD
  5
58
330
1
100
AcDbSymbolTableRecord
100
AcDbBlockTableRecord
  2
*D3
340
0
  0
BLOCK_RECORD
  5
235
330
1
100
AcDbSymbolTableRecord
100
AcDbBlockTableRecord
  2
*D4
340
0
  0
BLOCK_RECORD
  5
25E
330
1
100
AcDbSymbolTableRecord
100
AcDbBlockTableRecord
  2
*D5
340
0
  0
BLOCK_RECORD
  5
26C
330
1
100
AcDbSymbolTableRecord
100
AcDbBlockTableRecord
  2
*D6
340
0
  0
BLOCK_RECORD
  5
278
330
1
100
AcDbSymbolTableRecord
100
AcDbBlockTableRecord
  2
*D7
340
0
  0
BLOCK_RECORD
  5
284
330
1
100
AcDbSymbolTableRecord
100
AcDbBlockTableRecord
  2
*D8
340
0
  0
ENDTAB
  0
ENDSEC
  0
SECTION
  2
BLOCKS
  0
BLOCK
  5
5
330
2
100
AcDbEntity
  8
0
100
AcDbBlockBegin
  2
*MODEL_SPACE
 70
     0
 10
0.0
 20
0.0
 30
0.0
  3
*MODEL_SPACE
  1

  0
ENDBLK
  5
B
330
2
100
AcDbEntity
  8
0
100
AcDbBlockEnd
  0
BLOCK
  5
11
330
E
100
AcDbEntity
 67
     1
  8
0
100
AcDbBlockBegin
  2
*PAPER_SPACE
 70
     0
 10
0.0
 20
0.0
 30
0.0
  3
*PAPER_SPACE
  1

  0
ENDBLK
  5
12
330
E
100
AcDbEntity
 67
     1
  8
0
100
AcDbBlockEnd
  0
BLOCK
  5
27
330
26
100
AcDbEntity
  8
0
100
AcDbBlockBegin
  2
_OPEN30
 70
     0
 10
0.0
 20
0.0
 30
0.0
  3
_OPEN30
  1

  0
LINE
  5
28
330
26
100
AcDbEntity
  8
0
  6
ByBlock
 62
     0
100
AcDbLine
 10
-1.0
 20
0.26794919
 30
0.0
 11
0.0
 21
0.0
 31
0.0
  0
LINE
  5
29
330
26
100
AcDbEntity
  8
0
  6
ByBlock
 62
     0
100
AcDbLine
 10
0.0
 20
0.0
 30
0.0
 11
-1.0
 21
-0.26794919
 31
0.0
  0
LINE
  5
2A
330
26
100
AcDbEntity
  8
0
  6
ByBlock
 62
     0
100
AcDbLine
 10
0.0
 20
0.0
 30
0.0
 11
-1.0
 21
0.0
 31
0.0
  0
ENDBLK
  5
2B
330
26
100
AcDbEntity
  8
0
100
AcDbBlockEnd
  0
BLOCK
  5
164
330
163
100
AcDbEntity
  8
0
100
AcDbBlockBegin
  2
*D1
 70
     1
 10
0.0
 20
0.0
 30
0.0
  3
*D1
  1

  0
LINE
  5
165
330
163
100
AcDbEntity
  8
SUNPO
  6
Continuous
 62
     0
370
    -2
100
AcDbLine
 10
22.40441319808818
 20
222.6185050269849
 30
0.0
 11
22.40441319808818
 21
230.6185050269849
 31
0.0
  0
LINE
  5
166
330
163
100
AcDbEntity
  8
SUNPO
  6
Continuous
 62
     0
370
    -2
100
AcDbLine
 10
69.03774653095517
 20
222.6185050269849
 30
0.0
 11
69.03774653095517
 21
230.6185050269849
 31
0.0
  0
LINE
  5
167
330
163
100
AcDbEntity
  8
SUNPO
  6
Continuous
 62
     0
370
    -2
100
AcDbLine
 10
24.40441319808818
 20
228.6185050269849
 30
0.0
 11
67.03774653095518
 21
228.6185050269849
 31
0.0
  0
INSERT
  5
168
330
163
100
AcDbEntity
  8
SUNPO
  6
Continuous
 62
     0
370
    -2
100
AcDbBlockReference
  2
_OPEN30
 10
22.40441319808818
 20
228.6185050269849
 30
0.0
 41
2.0
 42
2.0
 43
2.0
 50
180.0
  0
INSERT
  5
169
330
163
100
AcDbEntity
  8
SUNPO
  6
Continuous
 62
     0
370
    -2
100
AcDbBlockReference
  2
_OPEN30
 10
69.03774653095517
 20
228.6185050269849
 30
0.0
 41
2.0
 42
2.0
 43
2.0
  0
MTEXT
  5
16A
330
163
100
AcDbEntity
  8
SUNPO
  6
Continuous
 62
     0
100
AcDbMText
 10
45.72107986452167
 20
230.3685050269849
 30
0.0
 40
2.5
 41
0.0
 71
     5
 72
     1
  1
\A1;1399
 73
     1
 44
1.0
1001
ACAD
1000
MTEXTBEGIN
1070
    73
1070
     1
1070
    44
1040
1.0
1070
    74
1070
     0
1000
MTEXTEND
  0
POINT
  5
16B
330
163
100
AcDbEntity
  8
DEFPOINTS
  6
Continuous
 62
     0
100
AcDbPoint
 10
22.40441319808818
 20
220.6185050269849
 30
0.0
  0
POINT
  5
16C
330
163
100
AcDbEntity
  8
DEFPOINTS
  6
Continuous
 62
     0
100
AcDbPoint
 10
69.03774653095517
 20
220.6185050269849
 30
0.0
  0
POINT
  5
16D
330
163
100
AcDbEntity
  8
DEFPOINTS
  6
Continuous
 62
     0
100
AcDbPoint
 10
69.03774653095517
 20
228.6185050269849
 30
0.0
  0
ENDBLK
  5
16E
330
163
100
AcDbEntity
  8
0
100
AcDbBlockEnd
  0
BLOCK
  5
103
330
102
100
AcDbEntity
  8
0
100
AcDbBlockBegin
  2
*D2
 70
     1
 10
0.0
 20
0.0
 30
0.0
  3
*D2
  1

  0
LINE
  5
104
330
102
100
AcDbEntity
  8
SUNPO
  6
Continuous
 62
     0
370
    -2
100
AcDbLine
 10
71.04033019991203
 20
220.6229317477425
 30
0.0
 11
79.04033019991203
 21
220.6229317477425
 31
0.0
  0
LINE
  5
105
330
102
100
AcDbEntity
  8
SUNPO
  6
Continuous
 62
     0
370
    -2
100
AcDbLine
 10
71.04033019991203
 20
190.4162658441446
 30
0.0
 11
79.04033019991203
 21
190.4162658441446
 31
0.0
  0
LINE
  5
106
330
102
100
AcDbEntity
  8
SUNPO
  6
Continuous
 62
     0
370
    -2
100
AcDbLine
 10
77.04033019991204
 20
218.6229317477425
 30
0.0
 11
77.04033019991204
 21
192.4162658441446
 31
0.0
  0
INSERT
  5
107
330
102
100
AcDbEntity
  8
SUNPO
  6
Continuous
 62
     0
370
    -2
100
AcDbBlockReference
  2
_OPEN30
 10
77.04033019991204
 20
220.6229317477425
 30
0.0
 41
2.0
 42
2.0
 43
2.0
 50
90.0
  0
INSERT
  5
108
330
102
100
AcDbEntity
  8
SUNPO
  6
Continuous
 62
     0
370
    -2
100
AcDbBlockReference
  2
_OPEN30
 10
77.04033019991204
 20
190.4162658441446
 30
0.0
 41
2.0
 42
2.0
 43
2.0
 50
270.0
  0
MTEXT
  5
109
330
102
100
AcDbEntity
  8
SUNPO
  6
Continuous
 62
     0
100
AcDbMText
 10
75.290330199912
 20
205.5195987959436
 30
0.0
 40
2.5
 41
0.0
 71
     5
 72
     1
  1
\A1;906.2
 11
0.0000000000000001
 21
1.0
 31
0.0
 73
     1
 44
1.0
1001
ACAD
1000
MTEXTBEGIN
1070
    73
1070
     1
1070
    44
1040
1.0
1070
    74
1070
     0
1000
MTEXTEND
  0
POINT
  5
10A
330
102
100
AcDbEntity
  8
DEFPOINTS
  6
Continuous
 62
     0
100
AcDbPoint
 10
69.04033019991203
 20
220.6229317477425
 30
0.0
  0
POINT
  5
10B
330
102
100
AcDbEntity
  8
DEFPOINTS
  6
Continuous
 62
     0
100
AcDbPoint
 10
69.04033019991203
 20
190.4162658441446
 30
0.0
  0
POINT
  5
10C
330
102
100
AcDbEntity
  8
DEFPOINTS
  6
Continuous
 62
     0
100
AcDbPoint
 10
77.04033019991204
 20
190.4162658441446
 30
0.0
  0
ENDBLK
  5
10D
330
102
100
AcDbEntity
  8
0
100
AcDbBlockEnd
  0
BLOCK
  5
59
330
58
100
AcDbEntity
  8
0
100
AcDbBlockBegin
  2
*D3
 70
     1
 10
0.0
 20
0.0
 30
0.0
  3
*D3
  1

  0
LINE
  5
5A
330
58
100
AcDbEntity
  8
SUNPO
 62
     0
370
    -2
100
AcDbLine
 10
89.09334684423265
 20
188.4141753297897
 30
0.0
 11
89.09334684423265
 21
180.4141753297897
 31
0.0
  0
LINE
  5
5B
330
58
100
AcDbEntity
  8
SUNPO
 62
     0
370
    -2
100
AcDbLine
 10
103.4179900654502
 20
188.4141753297897
 30
0.0
 11
103.4179900654502
 21
180.4141753297897
 31
0.0
  0
LINE
  5
5C
330
58
100
AcDbEntity
  8
SUNPO
 62
     0
370
    -2
100
AcDbLine
 10
91.09334684423265
 20
182.4141753297897
 30
0.0
 11
101.4179900654502
 21
182.4141753297897
 31
0.0
  0
INSERT
  5
5D
330
58
100
AcDbEntity
  8
SUNPO
 62
     0
370
    -2
100
AcDbBlockReference
  2
_OPEN30
 10
89.09334684423265
 20
182.4141753297897
 30
0.0
 41
2.0
 42
2.0
 43
2.0
 50
180.0
  0
INSERT
  5
5E
330
58
100
AcDbEntity
  8
SUNPO
 62
     0
370
    -2
100
AcDbBlockReference
  2
_OPEN30
 10
103.4179900654502
 20
182.4141753297897
 30
0.0
 41
2.0
 42
2.0
 43
2.0
  0
MTEXT
  5
5F
330
58
100
AcDbEntity
  8
SUNPO
 62
     0
100
AcDbMText
 10
96.25566845484147
 20
184.1641753297897
 30
0.0
 40
2.5
 41
0.0
 71
     5
 72
     1
  1
\A1;430
 73
     1
 44
1.0
1001
ACAD
1000
MTEXTBEGIN
1070
    73
1070
     1
1070
    44
1040
1.0
1070
    74
1070
     0
1000
MTEXTEND
  0
POINT
  5
60
330
58
100
AcDbEntity
  8
DEFPOINTS
 62
     0
100
AcDbPoint
 10
89.09334684423265
 20
190.4141753297897
 30
0.0
  0
POINT
  5
62
330
58
100
AcDbEntity
  8
DEFPOINTS
 62
     0
100
AcDbPoint
 10
103.4179900654502
 20
190.4141753297897
 30
0.0
  0
POINT
  5
63
330
58
100
AcDbEntity
  8
DEFPOINTS
 62
     0
100
AcDbPoint
 10
103.4179900654502
 20
182.4141753297897
 30
0.0
  0
ENDBLK
  5
64
330
58
100
AcDbEntity
  8
0
100
AcDbBlockEnd
  0
BLOCK
  5
236
330
235
100
AcDbEntity
  8
0
100
AcDbBlockBegin
  2
*D4
 70
     1
 10
0.0
 20
0.0
 30
0.0
  3
*D4
  1

  0
LINE
  5
237
330
235
100
AcDbEntity
  8
SUNPO
 62
     0
370
    -2
100
AcDbLine
 10
95.5825042794439
 20
222.6185050269849
 30
0.0
 11
95.5825042794439
 21
230.6185050269849
 31
0.0
  0
LINE
  5
238
330
235
100
AcDbEntity
  8
SUNPO
 62
     0
370
    -2
100
AcDbLine
 10
98.88250427941089
 20
222.6185050269849
 30
0.0
 11
98.88250427941089
 21
230.6185050269849
 31
0.0
  0
LINE
  5
239
330
235
100
AcDbEntity
  8
SUNPO
 62
     0
370
    -2
100
AcDbLine
 10
93.58250427944389
 20
228.6185050269849
 30
0.0
 11
91.58250427944389
 21
228.6185050269849
 31
0.0
  0
LINE
  5
23A
330
235
100
AcDbEntity
  8
SUNPO
 62
     0
370
    -2
100
AcDbLine
 10
100.8825042794109
 20
228.6185050269849
 30
0.0
 11
108.0491709460775
 21
228.6185050269849
 31
0.0
  0
LINE
  5
23B
330
235
100
AcDbEntity
  8
SUNPO
 62
     0
370
    -2
100
AcDbLine
 10
95.5825042794439
 20
228.6185050269849
 30
0.0
 11
98.88250427941089
 21
228.6185050269849
 31
0.0
  0
INSERT
  5
23C
330
235
100
AcDbEntity
  8
SUNPO
 62
     0
370
    -2
100
AcDbBlockReference
  2
_OPEN30
 10
95.5825042794439
 20
228.6185050269849
 30
0.0
 41
2.0
 42
2.0
 43
2.0
  0
INSERT
  5
23D
330
235
100
AcDbEntity
  8
SUNPO
 62
     0
370
    -2
100
AcDbBlockReference
  2
_OPEN30
 10
98.88250427941089
 20
228.6185050269849
 30
0.0
 41
2.0
 42
2.0
 43
2.0
 50
180.0
  0
MTEXT
  5
23E
330
235
100
AcDbEntity
  8
SUNPO
 62
     0
100
AcDbMText
 10
105.4658376127442
 20
230.3685050269849
 30
0.0
 40
2.5
 41
0.0
 71
     5
 72
     1
  1
\A1;99
 73
     1
 44
1.0
1001
ACAD
1000
MTEXTBEGIN
1070
    73
1070
     1
1070
    44
1040
1.0
1070
    74
1070
     0
1000
MTEXTEND
  0
POINT
  5
23F
330
235
100
AcDbEntity
  8
DEFPOINTS
 62
     0
100
AcDbPoint
 10
95.5825042794439
 20
220.6185050269849
 30
0.0
  0
POINT
  5
240
330
235
100
AcDbEntity
  8
DEFPOINTS
 62
     0
100
AcDbPoint
 10
98.88250427941089
 20
220.6185050269849
 30
0.0
  0
POINT
  5
241
330
235
100
AcDbEntity
  8
DEFPOINTS
 62
     0
100
AcDbPoint
 10
98.88250427941089
 20
228.6185050269849
 30
0.0
  0
ENDBLK
  5
242
330
235
100
AcDbEntity
  8
0
100
AcDbBlockEnd
  0
BLOCK
  5
26A
330
25E
100
AcDbEntity
  8
0
100
AcDbBlockBegin
  2
*D5
 70
     1
 10
0.0
 20
0.0
 30
0.0
  3
*D5
  1

  0
LINE
  5
25F
330
25E
100
AcDbEntity
  8
SUNPO
 62
     0
370
    -2
100
AcDbLine
 10
32.82729936429027
 20
37.74370088737925
 30
0.0
 11
32.82729936429027
 21
45.74370088737924
 31
0.0
  0
LINE
  5
260
330
25E
100
AcDbEntity
  8
SUNPO
 62
     0
370
    -2
100
AcDbLine
 10
36.12729936425727
 20
37.74370088737925
 30
0.0
 11
36.12729936425727
 21
45.74370088737924
 31
0.0
  0
LINE
  5
261
330
25E
100
AcDbEntity
  8
SUNPO
 62
     0
370
    -2
100
AcDbLine
 10
30.82729936429027
 20
43.74370088737925
 30
0.0
 11
28.82729936429027
 21
43.74370088737925
 31
0.0
  0
LINE
  5
262
330
25E
100
AcDbEntity
  8
SUNPO
 62
     0
370
    -2
100
AcDbLine
 10
38.12729936425727
 20
43.74370088737925
 30
0.0
 11
45.29396603092393
 21
43.74370088737925
 31
0.0
  0
LINE
  5
263
330
25E
100
AcDbEntity
  8
SUNPO
 62
     0
370
    -2
100
AcDbLine
 10
32.82729936429027
 20
43.74370088737925
 30
0.0
 11
36.12729936425727
 21
43.74370088737925
 31
0.0
  0
INSERT
  5
264
330
25E
100
AcDbEntity
  8
SUNPO
 62
     0
370
    -2
100
AcDbBlockReference
  2
_OPEN30
 10
32.82729936429027
 20
43.74370088737925
 30
0.0
 41
2.0
 42
2.0
 43
2.0
  0
INSERT
  5
265
330
25E
100
AcDbEntity
  8
SUNPO
 62
     0
370
    -2
100
AcDbBlockReference
  2
_OPEN30
 10
36.12729936425727
 20
43.74370088737925
 30
0.0
 41
2.0
 42
2.0
 43
2.0
 50
180.0
  0
MTEXT
  5
266
330
25E
100
AcDbEntity
  8
SUNPO
 62
     0
100
AcDbMText
 10
42.7106326975906
 20
45.49370088737925
 30
0.0
 40
2.5
 41
0.0
 71
     5
 72
     1
  1
\A1;99
 73
     1
 44
1.0
1001
ACAD
1000
MTEXTBEGIN
1070
    73
1070
     1
1070
    44
1040
1.0
1070
    74
1070
     0
1000
MTEXTEND
  0
POINT
  5
267
330
25E
100
AcDbEntity
  8
DEFPOINTS
 62
     0
100
AcDbPoint
 10
32.82729936429027
 20
35.74370088737925
 30
0.0
  0
POINT
  5
268
330
25E
100
AcDbEntity
  8
DEFPOINTS
 62
     0
100
AcDbPoint
 10
36.12729936425727
 20
35.74370088737925
 30
0.0
  0
POINT
  5
269
330
25E
100
AcDbEntity
  8
DEFPOINTS
 62
     0
100
AcDbPoint
 10
36.12729936425727
 20
43.74370088737925
 30
0.0
  0
ENDBLK
  5
26B
330
25E
100
AcDbEntity
  8
0
100
AcDbBlockEnd
  0
BLOCK
  5
276
330
26C
100
AcDbEntity
  8
0
100
AcDbBlockBegin
  2
*D6
 70
     1
 10
0.0
 20
0.0
 30
0.0
  3
*D6
  1

  0
LINE
  5
26D
330
26C
100
AcDbEntity
  8
SUNPO
  6
Continuous
 62
     0
370
    -2
100
AcDbLine
 10
-40.35079171706544
 20
37.74370088737925
 30
0.0
 11
-40.35079171706544
 21
45.74370088737924
 31
0.0
  0
LINE
  5
26E
330
26C
100
AcDbEntity
  8
SUNPO
  6
Continuous
 62
     0
370
    -2
100
AcDbLine
 10
6.282541615801548
 20
37.74370088737925
 30
0.0
 11
6.282541615801549
 21
45.74370088737924
 31
0.0
  0
LINE
  5
26F
330
26C
100
AcDbEntity
  8
SUNPO
  6
Continuous
 62
     0
370
    -2
100
AcDbLine
 10
-38.35079171706545
 20
43.74370088737925
 30
0.0
 11
4.282541615801549
 21
43.74370088737925
 31
0.0
  0
INSERT
  5
270
330
26C
100
AcDbEntity
  8
SUNPO
  6
Continuous
 62
     0
370
    -2
100
AcDbBlockReference
  2
_OPEN30
 10
-40.35079171706544
 20
43.74370088737925
 30
0.0
 41
2.0
 42
2.0
 43
2.0
 50
180.0
  0
INSERT
  5
271
330
26C
100
AcDbEntity
  8
SUNPO
  6
Continuous
 62
     0
370
    -2
100
AcDbBlockReference
  2
_OPEN30
 10
6.282541615801549
 20
43.74370088737925
 30
0.0
 41
2.0
 42
2.0
 43
2.0
  0
MTEXT
  5
272
330
26C
100
AcDbEntity
  8
SUNPO
  6
Continuous
 62
     0
100
AcDbMText
 10
-17.03412505063195
 20
45.49370088737925
 30
0.0
 40
2.5
 41
0.0
 71
     5
 72
     1
  1
\A1;1399
 73
     1
 44
1.0
1001
ACAD
1000
MTEXTBEGIN
1070
    73
1070
     1
1070
    44
1040
1.0
1070
    74
1070
     0
1000
MTEXTEND
  0
POINT
  5
273
330
26C
100
AcDbEntity
  8
DEFPOINTS
  6
Continuous
 62
     0
100
AcDbPoint
 10
-40.35079171706544
 20
35.74370088737925
 30
0.0
  0
POINT
  5
274
330
26C
100
AcDbEntity
  8
DEFPOINTS
  6
Continuous
 62
     0
100
AcDbPoint
 10
6.282541615801548
 20
35.74370088737925
 30
0.0
  0
POINT
  5
275
330
26C
100
AcDbEntity
  8
DEFPOINTS
  6
Continuous
 62
     0
100
AcDbPoint
 10
6.282541615801549
 20
43.74370088737925
 30
0.0
  0
ENDBLK
  5
277
330
26C
100
AcDbEntity
  8
0
100
AcDbBlockEnd
  0
BLOCK
  5
282
330
278
100
AcDbEntity
  8
0
100
AcDbBlockBegin
  2
*D7
 70
     1
 10
0.0
 20
0.0
 30
0.0
  3
*D7
  1

  0
LINE
  5
279
330
278
100
AcDbEntity
  8
SUNPO
  6
Continuous
 62
     0
370
    -2
100
AcDbLine
 10
8.285125284758407
 20
35.74812760813683
 30
0.0
 11
16.28512528475841
 21
35.74812760813682
 31
0.0
  0
LINE
  5
27A
330
278
100
AcDbEntity
  8
SUNPO
  6
Continuous
 62
     0
370
    -2
100
AcDbLine
 10
8.285125284758409
 20
5.54146170453896
 30
0.0
 11
16.28512528475841
 21
5.541461704538957
 31
0.0
  0
LINE
  5
27B
330
278
100
AcDbEntity
  8
SUNPO
  6
Continuous
 62
     0
370
    -2
100
AcDbLine
 10
14.28512528475841
 20
33.74812760813683
 30
0.0
 11
14.28512528475841
 21
7.541461704538957
 31
0.0
  0
INSERT
  5
27C
330
278
100
AcDbEntity
  8
SUNPO
  6
Continuous
 62
     0
370
    -2
100
AcDbBlockReference
  2
_OPEN30
 10
14.28512528475841
 20
35.74812760813683
 30
0.0
 41
2.0
 42
2.0
 43
2.0
 50
90.0
  0
INSERT
  5
27D
330
278
100
AcDbEntity
  8
SUNPO
  6
Continuous
 62
     0
370
    -2
100
AcDbBlockReference
  2
_OPEN30
 10
14.28512528475841
 20
5.541461704538957
 30
0.0
 41
2.0
 42
2.0
 43
2.0
 50
270.0
  0
MTEXT
  5
27E
330
278
100
AcDbEntity
  8
SUNPO
  6
Continuous
 62
     0
100
AcDbMText
 10
12.53512528475841
 20
20.64479465633789
 30
0.0
 40
2.5
 41
0.0
 71
     5
 72
     1
  1
\A1;906.2
 11
0.0000000000000001
 21
1.0
 31
0.0
 73
     1
 44
1.0
1001
ACAD
1000
MTEXTBEGIN
1070
    73
1070
     1
1070
    44
1040
1.0
1070
    74
1070
     0
1000
MTEXTEND
  0
POINT
  5
27F
330
278
100
AcDbEntity
  8
DEFPOINTS
  6
Continuous
 62
     0
100
AcDbPoint
 10
6.285125284758407
 20
35.74812760813683
 30
0.0
  0
POINT
  5
280
330
278
100
AcDbEntity
  8
DEFPOINTS
  6
Continuous
 62
     0
100
AcDbPoint
 10
6.285125284758407
 20
5.54146170453896
 30
0.0
  0
POINT
  5
281
330
278
100
AcDbEntity
  8
DEFPOINTS
  6
Continuous
 62
     0
100
AcDbPoint
 10
14.28512528475841
 20
5.541461704538957
 30
0.0
  0
ENDBLK
  5
283
330
278
100
AcDbEntity
  8
0
100
AcDbBlockEnd
  0
BLOCK
  5
28E
330
284
100
AcDbEntity
  8
0
100
AcDbBlockBegin
  2
*D8
 70
     1
 10
0.0
 20
0.0
 30
0.0
  3
*D8
  1

  0
LINE
  5
285
330
284
100
AcDbEntity
  8
SUNPO
 62
     0
370
    -2
100
AcDbLine
 10
26.33814192907903
 20
3.539371190184084
 30
0.0
 11
26.33814192907903
 21
-4.460628809815915
 31
0.0
  0
LINE
  5
286
330
284
100
AcDbEntity
  8
SUNPO
 62
     0
370
    -2
100
AcDbLine
 10
40.66278515029664
 20
3.539371190184084
 30
0.0
 11
40.66278515029664
 21
-4.460628809815915
 31
0.0
  0
LINE
  5
287
330
284
100
AcDbEntity
  8
SUNPO
 62
     0
370
    -2
100
AcDbLine
 10
28.33814192907903
 20
-2.460628809815915
 30
0.0
 11
38.66278515029664
 21
-2.460628809815915
 31
0.0
  0
INSERT
  5
288
330
284
100
AcDbEntity
  8
SUNPO
 62
     0
370
    -2
100
AcDbBlockReference
  2
_OPEN30
 10
26.33814192907903
 20
-2.460628809815915
 30
0.0
 41
2.0
 42
2.0
 43
2.0
 50
180.0
  0
INSERT
  5
289
330
284
100
AcDbEntity
  8
SUNPO
 62
     0
370
    -2
100
AcDbBlockReference
  2
_OPEN30
 10
40.66278515029664
 20
-2.460628809815915
 30
0.0
 41
2.0
 42
2.0
 43
2.0
  0
MTEXT
  5
28A
330
284
100
AcDbEntity
  8
SUNPO
 62
     0
100
AcDbMText
 10
33.50046353968784
 20
-0.7106288098159155
 30
0.0
 40
2.5
 41
0.0
 71
     5
 72
     1
  1
\A1;430
 73
     1
 44
1.0
1001
ACAD
1000
MTEXTBEGIN
1070
    73
1070
     1
1070
    44
1040
1.0
1070
    74
1070
     0
1000
MTEXTEND
  0
POINT
  5
28B
330
284
100
AcDbEntity
  8
DEFPOINTS
 62
     0
100
AcDbPoint
 10
26.33814192907903
 20
5.539371190184084
 30
0.0
  0
POINT
  5
28C
330
284
100
AcDbEntity
  8
DEFPOINTS
 62
     0
100
AcDbPoint
 10
40.66278515029664
 20
5.539371190184084
 30
0.0
  0
POINT
  5
28D
330
284
100
AcDbEntity
  8
DEFPOINTS
 62
     0
100
AcDbPoint
 10
40.66278515029664
 20
-2.460628809815915
 30
0.0
  0
ENDBLK
  5
28F
330
284
100
AcDbEntity
  8
0
100
AcDbBlockEnd
  0
ENDSEC
  0
SECTION
  2
ENTITIES
  0
TEXT
  5
33
330
2
100
AcDbEntity
  8
TOUROKU
100
AcDbText
 10
44.51149795533672
 20
5.367032745616484
 30
0.0
 40
1.5
  1
Ｓ＝１／３０
 41
0.7
 72
     2
 11
51.58149795533671
 21
5.367032745616484
 31
0.0
100
AcDbText
  0
TEXT
  5
35
330
2
100
AcDbEntity
  8
TOUROKU
100
AcDbText
 10
21.84474511777388
 20
49.62441000003628
 30
0.0
 40
2.0
  1
ＴＨ５８ＰＨ１０ＫＲ＋ＴＹＳＴ５８Ｋ
 72
     2
 11
64.24474511777389
 21
49.62441000003628
 31
0.0
100
AcDbText
  0
TEXT
  5
36
330
2
100
AcDbEntity
  8
MOJI1
100
AcDbText
 10
-58.25520491515362
 20
-37.37558999996361
 30
0.0
 40
3.0
  1
階調数
100
AcDbText
  0
TEXT
  5
38
330
2
100
AcDbEntity
  8
MOJI1
100
AcDbText
 10
-58.25520491515362
 20
-32.37558999996361
 30
0.0
 40
3.0
  1
コントラスト
100
AcDbText
  0
TEXT
  5
39
330
2
100
AcDbEntity
  8
MOJI1
100
AcDbText
 10
-19.25520491515363
 20
-37.37558999996361
 30
0.0
 40
3.0
  1
３０７２階調（相当）
100
AcDbText
  0
TEXT
  5
3A
330
2
100
AcDbEntity
  8
MOJI1
100
AcDbText
 10
-19.25520491515363
 20
-32.37558999996361
 30
0.0
 40
3.0
  1
４０００：１（ＭＡＸ　１００００：１）
100
AcDbText
  0
LINE
  5
3B
330
2
100
AcDbEntity
  8
WAKU
 62
     1
100
AcDbLine
 10
-60.75520491515362
 20
-33.37558999996361
 30
0.0
 11
64.24479508484615
 21
-33.37558999996361
 31
0.0
  0
LINE
  5
3D
330
2
100
AcDbEntity
  8
WAKU
 62
     1
100
AcDbLine
 10
-60.75520491515362
 20
-38.37558999996361
 30
0.0
 11
64.24479508484615
 21
-38.37558999996361
 31
0.0
  0
TEXT
  5
3E
330
2
100
AcDbEntity
  8
MOJI1
100
AcDbText
 10
-19.25520491515363
 20
-52.37558999996361
 30
0.0
 40
3.0
  1
外部スピーカ入力、シリアル
100
AcDbText
  0
TEXT
  5
3F
330
2
100
AcDbEntity
  8
MOJI1
100
AcDbText
 10
-19.25520491515363
 20
-17.37558999996361
 30
0.0
 40
3.0
  1
６３０Ｗ
100
AcDbText
  0
TEXT
  5
40
330
2
100
AcDbEntity
  8
MOJI1
100
AcDbText
 10
-19.25520491515363
 20
-22.37558999996361
 30
0.0
 40
3.0
  1
５８ｖ型（１４８ｃｍ）／１６：９
100
AcDbText
  0
TEXT
  5
41
330
2
100
AcDbEntity
  8
MOJI1
100
AcDbText
 10
-19.25520491515363
 20
-42.37558999996361
 30
0.0
 40
3.0
  1
５４．０Ｋｇ
100
AcDbText
  0
LINE
  5
42
330
2
100
AcDbEntity
  8
WAKU
 62
     1
100
AcDbLine
 10
-60.75520491515362
 20
-18.37558999996361
 30
0.0
 11
64.24479508484615
 21
-18.37558999996361
 31
0.0
  0
LINE
  5
43
330
2
100
AcDbEntity
  8
WAKU
 62
     1
100
AcDbLine
 10
-60.75520491515362
 20
-28.37558999996361
 30
0.0
 11
64.24479508484615
 21
-28.37558999996361
 31
0.0
  0
LINE
  5
44
330
2
100
AcDbEntity
  8
WAKU
 62
     4
100
AcDbLine
 10
-60.75520491515362
 20
-8.375589999963608
 30
0.0
 11
64.24479508484615
 21
-8.375589999963608
 31
0.0
  0
LINE
  5
45
330
2
100
AcDbEntity
  8
WAKU
 62
     1
100
AcDbLine
 10
-60.75520491515362
 20
-13.37558999996361
 30
0.0
 11
64.24479508484615
 21
-13.37558999996361
 31
0.0
  0
LINE
  5
46
330
2
100
AcDbEntity
  8
WAKU
 62
     1
100
AcDbLine
 10
-60.75520491515362
 20
-23.37558999996361
 30
0.0
 11
64.24479508484615
 21
-23.37558999996361
 31
0.0
  0
LINE
  5
47
330
2
100
AcDbEntity
  8
WAKU
 62
     1
100
AcDbLine
 10
-60.75520491515362
 20
-43.3755899999636
 30
0.0
 11
64.24479508484615
 21
-43.3755899999636
 31
0.0
  0
LINE
  5
48
330
2
100
AcDbEntity
  8
WAKU
 62
     1
100
AcDbLine
 10
-60.75520491515362
 20
-48.3755899999636
 30
0.0
 11
64.24479508484615
 21
-48.3755899999636
 31
0.0
  0
LINE
  5
49
330
2
100
AcDbEntity
  8
WAKU
 62
     4
100
AcDbLine
 10
64.24479508484615
 20
-53.3755899999636
 30
0.0
 11
-60.75520491515362
 21
-53.3755899999636
 31
0.0
  0
TEXT
  5
4A
330
2
100
AcDbEntity
  8
MOJI1
100
AcDbText
 10
-19.25520491515363
 20
-27.37558999996361
 30
0.0
 40
3.0
  1
１３６６×７６８画素
100
AcDbText
  0
TEXT
  5
4B
330
2
100
AcDbEntity
  8
MOJI1
100
AcDbText
 10
-19.25520491515363
 20
-47.37558999996361
 30
0.0
 40
3.0
  1
ビデオ入力、Ｓ映像入力、ＰＣ入力
100
AcDbText
  0
TEXT
  5
4C
330
2
100
AcDbEntity
  8
MOJI1
100
AcDbText
 10
-19.25520491515363
 20
-12.37558999996361
 30
0.0
 40
3.0
  1
ＡＣ１００Ｖ　５０Ｈｚ／６０Ｈｚ
100
AcDbText
  0
LINE
  5
4D
330
2
100
AcDbEntity
  8
WAKU
 62
     4
100
AcDbLine
 10
-20.75520491515385
 20
-8.375589999963608
 30
0.0
 11
-20.75520491515385
 21
-53.3755899999636
 31
0.0
  0
LINE
  5
4E
330
2
100
AcDbEntity
  8
WAKU
 62
     4
100
AcDbLine
 10
-60.75520491515385
 20
-8.375589999963608
 30
0.0
 11
-60.75520491515362
 21
-53.3755899999636
 31
0.0
  0
TEXT
  5
4F
330
2
100
AcDbEntity
  8
MOJI1
100
AcDbText
 10
-58.25520491515362
 20
-22.37558999996361
 30
0.0
 40
3.0
  1
画面サイズ
100
AcDbText
  0
TEXT
  5
50
330
2
100
AcDbEntity
  8
MOJI1
100
AcDbText
 10
-58.25520491515362
 20
-42.37558999996361
 30
0.0
 40
3.0
  1
重　量
100
AcDbText
  0
TEXT
  5
51
330
2
100
AcDbEntity
  8
MOJI1
100
AcDbText
 10
-58.25520491515362
 20
-47.37558999996361
 30
0.0
 40
3.0
  1
入出力端子
100
AcDbText
  0
TEXT
  5
52
330
2
100
AcDbEntity
  8
MOJI1
100
AcDbText
 10
-58.25520491515362
 20
-17.37558999996361
 30
0.0
 40
3.0
  1
消費電力
100
AcDbText
  0
TEXT
  5
53
330
2
100
AcDbEntity
  8
MOJI1
100
AcDbText
 10
-58.25520491515362
 20
-12.37558999996361
 30
0.0
 40
3.0
  1
電  源
100
AcDbText
  0
TEXT
  5
54
330
2
100
AcDbEntity
  8
MOJI1
100
AcDbText
 10
-58.25520491515362
 20
-27.37558999996361
 30
0.0
 40
3.0
  1
解像度
100
AcDbText
  0
LINE
  5
55
330
2
100
AcDbEntity
  8
WAKU
 62
     4
100
AcDbLine
 10
64.24479508484615
 20
-8.375589999963608
 30
0.0
 11
64.24479508484615
 21
-53.3755899999636
 31
0.0
  0
DIMENSION
  5
56
330
2
100
AcDbEntity
  8
SUNPO
100
AcDbDimension
  2
*D8
 10
40.66278515029664
 20
-2.460628809815915
 30
0.0
 11
33.50046353968784
 21
-0.7106288098159155
 31
0.0
 70
    33
  1
430
 71
     5
 42
14.32464322121761
  3
STANDARD
100
AcDbAlignedDimension
 13
26.33814192907903
 23
5.539371190184084
 33
0.0
 14
40.66278515029664
 24
5.539371190184084
 34
0.0
1001
ACAD
1000
DSTYLE
1002
{
1070
    40
1040
1.0
1070
   140
1040
2.5
1070
   147
1040
0.5
1070
   172
1070
     1
1070
   279
1070
     0
1070
   288
1070
     0
1002
}
  0
ARC
  5
65
330
2
100
AcDbEntity
  8
GAIKEI
100
AcDbCircle
 10
36.04059984162322
 20
7.774541573627033
 30
0.0
 40
0.3335854783062111
100
AcDbArc
 50
71.20740088089718
 51
89.99304601392651
  0
ARC
  5
67
330
2
100
AcDbEntity
  8
MOJI1
 62
     7
100
AcDbCircle
 10
36.92051314307124
 20
6.324870398166211
 30
0.0
 40
0.0839800585700568
100
AcDbArc
 50
186.7915018822998
 51
269.772777973291
  0
ARC
  5
68
330
2
100
AcDbEntity
  8
GAIKEI
100
AcDbCircle
 10
34.57947176465021
 20
8.074790272423683
 30
0.0
 40
0.0333372111562853
100
AcDbArc
 50
90.00643530198066
 51
177.9935641797711
  0
ARC
  5
69
330
2
100
AcDbEntity
  8
GAIKEI
100
AcDbCircle
 10
34.49530772805095
 20
7.574785943616234
 30
0.0
 40
0.0333253610745232
100
AcDbArc
 50
269.9871852594821
 51
358.0133070703545
  0
ARC
  5
6A
330
2
100
AcDbEntity
  8
GAIKEI
100
AcDbCircle
 10
33.82954330818569
 20
6.541150542053941
 30
0.0
 40
0.3002459734673397
100
AcDbArc
 50
270.5195317568609
 51
350.9070579416642
  0
ARC
  5
6B
330
2
100
AcDbEntity
  8
GAIKEI
  6
Continuous
 62
     7
100
AcDbCircle
 10
-30.46830233081121
 20
1.457856512933005
 30
0.0
 40
4.783031638510574
100
AcDbArc
 50
89.99808132507322
 51
90.26358682107682
  0
ARC
  5
6C
330
2
100
AcDbEntity
  8
GAIKEI
  6
Continuous
 62
     7
100
AcDbCircle
 10
305.6923965809712
 20
-6.789738480037328
 30
0.0
 40
337.7337912969731
100
AcDbArc
 50
177.8631366209799
 51
177.9019144036302
  0
LINE
  5
6D
330
2
100
AcDbEntity
  8
GAIKEI
  6
Continuous
 62
     7
100
AcDbLine
 10
-30.80273080405905
 20
7.575564051422389
 30
0.0
 11
-30.79621781837206
 21
7.648125823414972
 31
0.0
  0
LINE
  5
6E
330
2
100
AcDbEntity
  8
GAIKEI
  6
Continuous
 62
     7
100
AcDbLine
 10
-27.0528094377861
 20
6.260206725780562
 30
0.0
 11
-27.06289555747259
 21
6.270329903408224
 31
0.0
  0
LINE
  5
6F
330
2
100
AcDbEntity
  8
GAIKEI
  6
Continuous
 62
     7
100
AcDbLine
 10
-27.08239888930247
 20
6.318155961390488
 30
0.0
 11
-27.08257864643207
 21
6.322180180440511
 31
0.0
  0
LINE
  5
70
330
2
100
AcDbEntity
  8
GAIKEI
  6
Continuous
 62
     7
100
AcDbLine
 10
-30.85298166280583
 20
7.511121836286832
 30
0.0
 11
-30.85293458406756
 21
7.511611156632397
 31
0.0
  0
LINE
  5
71
330
2
100
AcDbEntity
  8
GAIKEI
  6
Continuous
 62
     7
100
AcDbLine
 10
-30.85643522708764
 20
7.474794041749703
 30
0.0
 11
-30.85298166280583
 21
7.511121836286832
 31
0.0
  0
LINE
  5
72
330
2
100
AcDbEntity
  8
GAIKEI
  6
Continuous
 62
     7
100
AcDbLine
 10
-27.11506368481119
 20
7.648127608414682
 30
0.0
 11
-27.11082457746627
 21
7.475117538155075
 31
0.0
  0
LINE
  5
73
330
2
100
AcDbEntity
  8
GAIKEI
  6
Continuous
 62
     7
100
AcDbLine
 10
-27.11081665112957
 20
7.474794041729666
 30
0.0
 11
-27.08265326315936
 21
6.325365793027003
 31
0.0
  0
LINE
  5
74
330
2
100
AcDbEntity
  8
GAIKEI
  6
Continuous
 62
     7
100
AcDbLine
 10
-30.85651636952557
 20
7.474794041749703
 30
0.0
 11
-30.85643857189486
 21
7.474794041749703
 31
0.0
  0
LINE
  5
75
330
2
100
AcDbEntity
  8
GAIKEI
  6
Continuous
 62
     7
100
AcDbLine
 10
-27.08275267982179
 20
6.329382023216112
 30
0.0
 11
-27.08257044725328
 21
6.322020199443613
 31
0.0
  0
LINE
  5
76
330
2
100
AcDbEntity
  8
GAIKEI
  6
Continuous
 62
     7
100
AcDbLine
 10
-30.9393192795071
 20
6.530418308425623
 30
0.0
 11
-30.93933972383019
 21
6.530418308425623
 31
0.0
  0
LINE
  5
77
330
2
100
AcDbEntity
  8
GAIKEI
  6
Continuous
 62
     7
100
AcDbLine
 10
-30.939062574405
 20
6.530431674195853
 30
0.0
 11
-30.93867873056016
 21
6.530432200422183
 31
0.0
  0
LINE
  5
78
330
2
100
AcDbEntity
  8
GAIKEI
  6
Continuous
 62
     7
100
AcDbLine
 10
-30.93933868212119
 20
6.530431039854619
 30
0.0
 11
-30.939062574405
 21
6.530431674195853
 31
0.0
  0
LINE
  5
79
330
2
100
AcDbEntity
  8
GAIKEI
  6
Continuous
 62
     1
100
AcDbLine
 10
-27.08298414215358
 20
6.319663814295779
 30
0.0
 11
-27.08257071468751
 21
6.322030066536598
 31
0.0
  0
LINE
  5
7A
330
2
100
AcDbEntity
  8
GAIKEI
  6
Continuous
 62
     7
100
AcDbLine
 10
-2.292838025046151
 20
5.541461704538988
 30
0.0
 11
-31.77541207621769
 21
5.541461704538988
 31
0.0
  0
LINE
  5
7B
330
2
100
AcDbEntity
  8
GAIKEI
  6
Continuous
 62
     7
100
AcDbLine
 10
-31.39135441572577
 20
6.117717414150376
 30
0.0
 11
-31.41568415624795
 21
6.110401037278109
 31
0.0
  0
LINE
  5
7C
330
2
100
AcDbEntity
  8
GAIKEI
  6
Continuous
 62
     7
100
AcDbLine
 10
-30.46819508467095
 20
6.240888149557235
 30
0.0
 11
-3.600055016592889
 21
6.240888149557235
 31
0.0
  0
LINE
  5
7D
330
2
100
AcDbEntity
  8
GAIKEI
  6
Continuous
 62
     7
100
AcDbLine
 10
-31.79900002979323
 20
5.826921296713578
 30
0.0
 11
-31.7986156915762
 21
5.827468090115218
 31
0.0
  0
LINE
  5
7E
330
2
100
AcDbEntity
  8
GAIKEI
  6
Continuous
 62
     7
100
AcDbLine
 10
-31.80094862273042
 20
5.823943109290155
 30
0.0
 11
-31.79934777327281
 21
5.826405110552911
 31
0.0
  0
LINE
  5
7F
330
2
100
AcDbEntity
  8
GAIKEI
  6
Continuous
 62
     7
100
AcDbLine
 10
-31.79936476790854
 20
5.826379365343655
 30
0.0
 11
-31.79900002979323
 21
5.826921296713578
 31
0.0
  0
LINE
  5
80
330
2
100
AcDbEntity
  8
GAIKEI
  6
Continuous
 62
     7
100
AcDbLine
 10
-31.80873831639485
 20
5.573623971887002
 30
0.0
 11
-31.80877918241208
 21
5.574794275701634
 31
0.0
  0
LINE
  5
81
330
2
100
AcDbEntity
  8
GAIKEI
  6
Continuous
 62
     7
100
AcDbLine
 10
-31.80896844881534
 20
5.574794275101595
 30
0.0
 11
-31.81465768140173
 21
5.574794322983308
 31
0.0
  0
SPLINE
  5
82
330
2
100
AcDbEntity
  8
GAIKEI
  6
Continuous
 62
     7
100
AcDbSpline
210
0.0
220
0.0
230
1.0
 70
     8
 71
     3
 72
     9
 73
     5
 74
     3
 42
0.0000000001
 43
0.0000000001
 44
0.000001
 12
-0.6409276654430805
 22
0.7676012817014333
 32
0.0
 13
-0.3728979314419067
 23
0.9278723687697285
 33
0.0
 40
0.0
 40
0.0
 40
0.0
 40
0.0
 40
0.0134018539500546
 40
0.0266026268253118
 40
0.0266026268253118
 40
0.0266026268253118
 40
0.0266026268253118
 10
-27.06289555747259
 20
6.270329903408224
 30
0.0
 10
-27.0657587637942
 20
6.273758996831304
 30
0.0
 10
-27.07092169451513
 20
6.281020411121033
 30
0.0
 10
-27.07486535137397
 20
6.289008060735341
 30
0.0
 10
-27.07650619834017
 20
6.293090938201117
 30
0.0
 11
-27.06289555747259
 21
6.270329903408224
 31
0.0
 11
-27.07065214177031
 21
6.281259112100485
 31
0.0
 11
-27.07650619834017
 21
6.293090938201117
 31
0.0
  0
SPLINE
  5
83
330
2
100
AcDbEntity
  8
GAIKEI
  6
Continuous
 62
     7
100
AcDbSpline
210
0.0
220
0.0
230
1.0
 70
     8
 71
     3
 72
    13
 73
     9
 74
     7
 42
0.0000000001
 43
0.0000000001
 44
0.000001
 12
0.2156938277525596
 22
0.9764610451366962
 32
0.0
 13
0.0944951599679353
 23
0.9955253209952193
 33
0.0
 40
0.0
 40
0.0
 40
0.0
 40
0.0
 40
0.0041539192547054
 40
0.0100364713111812
 40
0.0152728930945506
 40
0.0212093300103743
 40
0.0278033882629027
 40
0.0349678839187779
 40
0.0349678839187779
 40
0.0349678839187779
 40
0.0349678839187779
 10
-30.80795624646616
 20
7.541397854758628
 30
0.0
 10
-30.80765758821809
 20
7.542749901537575
 30
0.0
 10
-30.806964562858
 20
7.54602308457737
 30
0.0
 10
-30.80603602976544
 20
7.551029269178286
 30
0.0
 10
-30.80511200360302
 20
7.55663906655252
 30
0.0
 10
-30.80425807262307
 20
7.562499855398073
 30
0.0
 10
-30.80343420645072
 20
7.569013353800102
 30
0.0
 10
-30.80295340611194
 20
7.573574686578496
 30
0.0
 10
-30.80272773605758
 20
7.57595216552437
 30
0.0
 11
-30.80795624646616
 21
7.541397854758628
 31
0.0
 11
-30.80709899753528
 21
7.545462645430916
 31
0.0
 11
-30.80601830288045
 21
7.551244874095857
 31
0.0
 11
-30.80516590136642
 21
7.556411424712848
 31
0.0
 11
-30.80430817608125
 21
7.562285552862363
 31
0.0
 11
-30.80348080349539
 21
7.56882748200033
 31
0.0
 11
-30.80272773605758
 21
7.57595216552437
 31
0.0
  0
SPLINE
  5
84
330
2
100
AcDbEntity
  8
GAIKEI
  6
Continuous
 62
     7
100
AcDbSpline
210
0.0
220
0.0
230
1.0
 70
     8
 71
     3
 72
    19
 73
    15
 74
    13
 42
0.0000000001
 43
0.0000000001
 44
0.000001
 12
0.093056214685267
 22
0.995660856370506
 32
0.0
 13
0.9999961261199747
 23
0.0027834771498726
 33
0.0
 40
0.0
 40
0.0
 40
0.0
 40
0.0
 40
0.0068644846905472
 40
0.0138667579253777
 40
0.0211457308771195
 40
0.0284423218909551
 40
0.0318354439657647
 40
0.0349082399375201
 40
0.0376075365381015
 40
0.0399676123266708
 40
0.04383833133466
 40
0.0476083645157098
 40
0.0508077357982844
 40
0.0514683446557846
 40
0.0514683446557846
 40
0.0514683446557846
 40
0.0514683446557846
 10
-30.85388497348561
 20
7.511156980540903
 30
0.0
 10
-30.85367204583192
 20
7.513435213442761
 30
0.0
 10
-30.85277743537382
 20
7.518008612347728
 30
0.0
 10
-30.84998878029163
 20
7.524539022138498
 30
0.0
 10
-30.84577218604843
 20
7.530435180942191
 30
0.0
 10
-30.84129953508126
 20
7.534493163195975
 30
0.0
 10
-30.83745399164348
 20
7.537006446104214
 30
0.0
 10
-30.83474076383821
 20
7.538421203314157
 30
0.0
 10
-30.83222897206538
 20
7.539449984906184
 30
0.0
 10
-30.82938755437262
 20
7.540345445916443
 30
0.0
 10
-30.82612028975305
 20
7.541045677933794
 30
0.0
 10
-30.82251828209481
 20
7.541407645503255
 30
0.0
 10
-30.81997419042727
 20
7.541442233789666
 30
0.0
 10
-30.81868762521629
 20
7.541454798676625
 30
0.0
 10
-30.81846742311683
 20
7.541455411606506
 30
0.0
 11
-30.85388497348561
 21
7.511156980540903
 31
0.0
 11
-30.85255794344131
 21
7.517892719525065
 31
0.0
 11
-30.84980759879069
 21
7.524332305032771
 31
0.0
 11
-30.84558154167289
 21
7.530258931651417
 31
0.0
 11
-30.84017628808922
 21
7.535160404862153
 31
0.0
 11
-30.83733519992371
 21
7.537015584608496
 31
0.0
 11
-30.83460946524335
 21
7.538434256998584
 31
0.0
 11
-30.83211102092415
 21
7.539456091095587
 31
0.0
 11
-30.82986081361702
 21
7.540167896967204
 31
0.0
 11
-30.82607659592215
 21
7.540981897594605
 31
0.0
 11
-30.82232641395932
 21
7.541368843789939
 31
0.0
 11
-30.81912807469456
 21
7.541451351469618
 31
0.0
 11
-30.81846742311683
 21
7.541455411606506
 31
0.0
  0
SPLINE
  5
85
330
2
100
AcDbEntity
  8
GAIKEI
  6
Continuous
 62
     7
100
AcDbSpline
210
0.0
220
0.0
230
1.0
 70
     8
 71
     3
 72
     9
 73
     5
 74
     3
 42
0.0000000001
 43
0.0000000001
 44
0.000001
 12
-0.9935543841909055
 22
0.1133564539628463
 32
0.0
 13
-0.933432691989333
 23
-0.3587525742423978
 33
0.0
 40
0.0
 40
0.0
 40
0.0
 40
0.0
 40
0.0007769177239989
 40
0.0009293768122168
 40
0.0009293768122168
 40
0.0009293768122168
 40
0.0009293768122168
 10
-30.85296621898826
 20
7.511269444001612
 30
0.0
 10
-30.8532235223252
 20
7.511298800214348
 30
0.0
 10
-30.85354391248657
 20
7.511273714071876
 30
0.0
 10
-30.85383755730255
 20
7.511175051647796
 30
0.0
 10
-30.85388499406827
 20
7.511156819950997
 30
0.0
 11
-30.85296621898826
 21
7.511269444001612
 31
0.0
 11
-30.85374086195415
 21
7.511205765312695
 31
0.0
 11
-30.85388499406827
 21
7.511156819950997
 31
0.0
  0
SPLINE
  5
86
330
2
100
AcDbEntity
  8
GAIKEI
  6
Continuous
 62
     7
100
AcDbSpline
210
0.0
220
0.0
230
1.0
 70
     8
 71
     3
 72
    18
 73
    14
 74
    12
 42
0.0000000001
 43
0.0000000001
 44
0.000001
 12
0.0794509911175653
 22
0.9968387733281829
 32
0.0
 13
0.0910105620102942
 23
0.9958499272493673
 33
0.0
 40
0.0
 40
0.0
 40
0.0
 40
0.0
 40
0.099549288654065
 40
0.1969603932893461
 40
0.2922436580475816
 40
0.3854074355659266
 40
0.4764583694846533
 40
0.5654016139362847
 40
0.6473353674942485
 40
0.7274026450228459
 40
0.8056041326219787
 40
0.8819412306951488
 40
0.9486125760756733
 40
0.9486125760756733
 40
0.9486125760756733
 40
0.9486125760756733
 10
-30.93885770558423
 20
6.529872427224916
 30
0.0
 10
-30.93622127570136
 20
6.562950624154126
 30
0.0
 10
-30.93093791337356
 20
6.628391215234387
 30
0.0
 10
-30.92289918248571
 20
6.725473576847065
 30
0.0
 10
-30.91486910222959
 20
6.820420704934377
 30
0.0
 10
-30.9068750668056
 20
6.913243133808919
 30
0.0
 10
-30.89894354407526
 20
7.003949695635725
 30
0.0
 10
-30.89124221636156
 20
7.090918700495876
 30
0.0
 10
-30.88379137475231
 20
7.17423430232796
 30
0.0
 10
-30.8766055991936
 20
7.253978712747652
 30
0.0
 10
-30.8695441439416
 20
7.331861200912129
 30
0.0
 10
-30.8628580610992
 20
7.405294089195479
 30
0.0
 10
-30.85852386431364
 20
7.452766125221586
 30
0.0
 10
-30.85650126544262
 20
7.474897676703847
 30
0.0
 11
-30.93885770558423
 21
6.529872427224916
 31
0.0
 11
-30.93084721124285
 21
6.629098951032688
 31
0.0
 11
-30.92281286824725
 21
6.726178208780311
 31
0.0
 11
-30.91478595224252
 21
6.821122821229181
 31
0.0
 11
-30.90679509591879
 21
6.913943336169268
 31
0.0
 11
-30.89886640246509
 21
7.004648498163078
 31
0.0
 11
-30.89102355857273
 21
7.093245490880207
 31
0.0
 11
-30.88372674844058
 21
7.174854149722733
 31
0.0
 11
-30.87654141800587
 21
7.254597845501621
 31
0.0
 11
-30.86948205129738
 21
7.332479755436764
 31
0.0
 11
-30.86256156333766
 21
7.408502395148275
 31
0.0
 11
-30.85650126544262
 21
7.474897676703847
 31
0.0
  0
SPLINE
  5
87
330
2
100
AcDbEntity
  8
GAIKEI
  6
Continuous
 62
     7
100
AcDbSpline
210
0.0
220
0.0
230
1.0
 70
     8
 71
     3
 72
    13
 73
     9
 74
     7
 42
0.0000000001
 43
0.0000000001
 44
0.000001
 12
0.141089003936047
 22
0.9899969156357681
 32
0.0
 13
0.0800698535292473
 23
0.9967892548356473
 33
0.0
 40
0.0
 40
0.0
 40
0.0
 40
0.0
 40
0.0012174894668807
 40
0.0188148282556177
 40
0.0375674443334909
 40
0.0574578896684779
 40
0.0784594525011237
 40
0.1007703453799944
 40
0.1007703453799944
 40
0.1007703453799944
 40
0.1007703453799944
 10
-30.95016525174275
 20
6.430248729770227
 30
0.0
 10
-30.95010799361735
 20
6.43065050004256
 30
0.0
 10
-30.94922613587628
 20
6.43685979926181
 30
0.0
 10
-30.94755546232984
 20
6.449270762685273
 30
0.0
 10
-30.94529956790931
 20
6.467881859569502
 30
0.0
 10
-30.94316457102888
 20
6.487648976993369
 30
0.0
 10
-30.94114886152387
 20
6.508620339309317
 30
0.0
 10
-30.93991385448634
 20
6.5230052223298
 30
0.0
 10
-30.9393183778447
 20
6.530418308425623
 30
0.0
 11
-30.95016525174275
 21
6.430248729770227
 31
0.0
 11
-30.94999403079596
 21
6.431454123287323
 31
0.0
 11
-30.9476430077238
 21
6.44889406947999
 31
0.0
 11
-30.94538392118875
 21
6.467510652543865
 31
0.0
 11
-30.94324303679653
 21
6.487284914023234
 31
0.0
 11
-30.94122600938908
 21
6.508189219894916
 31
0.0
 11
-30.9393183778447
 21
6.530418308425623
 31
0.0
  0
SPLINE
  5
88
330
2
100
AcDbEntity
  8
GAIKEI
  6
Continuous
 62
     7
100
AcDbSpline
210
0.0
220
0.0
230
1.0
 70
     8
 71
     3
 72
    32
 73
    28
 74
    26
 42
0.0000000001
 43
0.0000000001
 44
0.000001
 12
0.4111671761190204
 22
0.9115599559449233
 32
0.0
 13
0.1407214776443252
 23
0.9900492238922252
 33
0.0
 40
0.0
 40
0.0
 40
0.0
 40
0.0
 40
0.0009349279357753
 40
0.0071649136477763
 40
0.0147502600221624
 40
0.0234716760400353
 40
0.0323175640486539
 40
0.0411778255162621
 40
0.0529604829304713
 40
0.0646417582999196
 40
0.0761510683810942
 40
0.0844746121018362
 40
0.0916077719998932
 40
0.0973329510830239
 40
0.1015765517821964
 40
0.1053593117703261
 40
0.1103909353809423
 40
0.1167363901873017
 40
0.1244483018619176
 40
0.1335875156231974
 40
0.1441844266244233
 40
0.1562256014891639
 40
0.1697818108904319
 40
0.1849305360997592
 40
0.2017516834254095
 40
0.2203228521931116
 40
0.2394728961800937
 40
0.2394728961800937
 40
0.2394728961800937
 40
0.2394728961800937
 10
-31.01199709918798
 20
6.199678997008476
 30
0.0
 10
-31.01186896196157
 20
6.199963077964468
 30
0.0
 10
-31.01088874528568
 20
6.202140960699807
 30
0.0
 10
-31.00889627933982
 20
6.206636012258059
 30
0.0
 10
-31.005935376903
 20
6.213540396569442
 30
0.0
 10
-31.00274854840816
 20
6.22129574566378
 30
0.0
 10
-30.99952870509678
 20
6.229495772999712
 30
0.0
 10
-30.99607059631154
 20
6.238697335767511
 30
0.0
 10
-30.99244264527211
 20
6.248843545776708
 30
0.0
 10
-30.98870395440431
 20
6.259886052428129
 30
0.0
 10
-30.98549132856754
 20
6.269887886742651
 30
0.0
 10
-30.98285070897146
 20
6.27848009543004
 30
0.0
 10
-30.98084055670926
 20
6.285248626014208
 30
0.0
 10
-30.97925934446616
 20
6.290725634517968
 30
0.0
 10
-30.97801341961066
 20
6.295136925189808
 30
0.0
 10
-30.97684963256844
 20
6.299331132266843
 30
0.0
 10
-30.97552286034894
 20
6.30420715362851
 30
0.0
 10
-30.9738911761859
 20
6.31035743784605
 30
0.0
 10
-30.97196581829996
 20
6.317846175874137
 30
0.0
 10
-30.96976736220899
 20
6.326727612085164
 30
0.0
 10
-30.96732775115635
 20
6.337035489881344
 30
0.0
 10
-30.96468285157506
 20
6.348807063946026
 30
0.0
 10
-30.96187096035816
 20
6.362095233967949
 30
0.0
 10
-30.95893095175643
 20
6.376983584499868
 30
0.0
 10
-30.95590897092217
 20
6.393558025437755
 30
0.0
 10
-30.95293153971994
 20
6.411494092568403
 30
0.0
 10
-30.95106352590502
 20
6.423928901041279
 30
0.0
 10
-30.95016525174275
 20
6.430248729770227
 30
0.0
 11
-31.01199709918798
 21
6.199678997008476
 31
0.0
 11
-31.01161332109884
 21
6.200531560589979
 31
0.0
 11
-31.00908885068074
 21
6.206227948175779
 31
0.0
 11
-31.00610115421864
 21
6.21320030043546
 31
0.0
 11
-31.00278589357625
 21
6.221266672920393
 31
0.0
 11
-30.99955130576332
 21
6.229499808528288
 31
0.0
 11
-30.99643315529164
 21
6.237793188663545
 31
0.0
 11
-30.99246358368251
 21
6.248886989264576
 31
0.0
 11
-30.98871551981648
 21
6.259950605261053
 31
0.0
 11
-30.98519418390525
 21
6.270907978854154
 31
0.0
 11
-30.98274848448998
 21
6.278864095715675
 31
0.0
 11
-30.98071739144025
 21
6.285701972093534
 31
0.0
 11
-30.97912925385694
 21
6.291202468027535
 31
0.0
 11
-30.97797577605962
 21
6.295286292015447
 31
0.0
 11
-30.97696433834891
 21
6.298931323550334
 31
0.0
 11
-30.97564318339694
 21
6.303786400017884
 31
0.0
 11
-30.97401586696118
 21
6.309919638474838
 31
0.0
 11
-30.97209534367119
 21
6.317388583782729
 31
0.0
 11
-30.96989897974275
 21
6.326259952539686
 31
0.0
 11
-30.96745776979812
 21
6.336571838330513
 31
0.0
 11
-30.96481738845667
 21
6.348319955928275
 31
0.0
 11
-30.96201003069373
 21
6.361582292825175
 31
0.0
 11
-30.9590741066926
 21
6.37644379702192
 31
0.0
 11
-30.95605600499593
 21
6.392991972608456
 31
0.0
 11
-30.95301029681188
 21
6.411311649951358
 31
0.0
 11
-30.95016525174275
 21
6.430248729770227
 31
0.0
  0
SPLINE
  5
89
330
2
100
AcDbEntity
  8
GAIKEI
  6
Continuous
 62
     7
100
AcDbSpline
210
0.0
220
0.0
230
1.0
 70
     8
 71
     3
 72
    11
 73
     7
 74
     5
 42
0.0000000001
 43
0.0000000001
 44
0.000001
 12
-0.4414692721726513
 22
0.8972763686442153
 32
0.0
 13
-0.1060878587913775
 23
0.99435676002985
 33
0.0
 40
0.0
 40
0.0
 40
0.0
 40
0.0
 40
0.004185804687119
 40
0.0149368080510427
 40
0.0256828630477564
 40
0.0323965361072813
 40
0.0323965361072813
 40
0.0323965361072813
 40
0.0323965361072813
 10
-27.07386216063331
 20
6.287087531821015
 30
0.0
 10
-27.07447812868287
 20
6.288339473030845
 30
0.0
 10
-27.07656709403317
 20
6.292861273689851
 30
0.0
 10
-27.07946633301111
 20
6.300938219063141
 30
0.0
 10
-27.08157724545234
 20
6.310135879014893
 30
0.0
 10
-27.08216147623597
 20
6.315930699326685
 30
0.0
 10
-27.08239888930247
 20
6.318155961390488
 30
0.0
 11
-27.07386216063331
 21
6.287087531821015
 31
0.0
 11
-27.0756182852883
 21
6.290887454646338
 31
0.0
 11
-27.07926324987186
 21
6.301001752626206
 31
0.0
 11
-27.08160638468192
 21
6.3114892508313
 31
0.0
 11
-27.08239888930247
 21
6.318155961390488
 31
0.0
  0
SPLINE
  5
8A
330
2
100
AcDbEntity
  8
GAIKEI
  6
Continuous
 62
     7
100
AcDbSpline
210
0.0
220
0.0
230
1.0
 70
     8
 71
     3
 72
    53
 73
    49
 74
    47
 42
0.0000000001
 43
0.0000000001
 44
0.000001
 12
0.9925238603631221
 22
0.1220507542372678
 32
0.0
 13
0.9999893561867823
 23
0.0046138393062992
 33
0.0
 40
0.0
 40
0.0
 40
0.0
 40
0.0
 40
0.0054872902657519
 40
0.0116506446132566
 40
0.0170104287127719
 40
0.0215819569238635
 40
0.0256917153898068
 40
0.0310268576058858
 40
0.0375942797908384
 40
0.0449275862421294
 40
0.0719541822756069
 40
0.1004080770015039
 40
0.1099903013722405
 40
0.1185363973448266
 40
0.1259354008145479
 40
0.132166069984076
 40
0.1372086548734288
 40
0.1410460092055397
 40
0.1440614466294046
 40
0.1486341636805691
 40
0.1548100799120783
 40
0.1622378624310558
 40
0.1692673641721284
 40
0.1756932213650297
 40
0.183893888774842
 40
0.1907713501090574
 40
0.1965445426158585
 40
0.2030683079480441
 40
0.2107471341330112
 40
0.219611430524071
 40
0.2285336528854641
 40
0.2361009132084026
 40
0.2423120793057026
 40
0.2475017486633932
 40
0.2516611173153005
 40
0.2550681807924456
 40
0.2591582840553741
 40
0.2640104948066874
 40
0.269493049477976
 40
0.2744553571355544
 40
0.2786354432414487
 40
0.2815879067451372
 40
0.284509782872149
 40
0.287938306865608
 40
0.2918789557299586
 40
0.2963378619519361
 40
0.301321744055162
 40
0.3068379473553846
 40
0.3068379473553846
 40
0.3068379473553846
 40
0.3068379473553846
 10
-30.79658101952536
 20
6.225981427660713
 30
0.0
 10
-30.79476559735287
 20
6.226204670299267
 30
0.0
 10
-30.79091018228528
 20
6.226671333612983
 30
0.0
 10
-30.78527930034324
 20
6.22733751003588
 30
0.0
 10
-30.77994947625303
 20
6.227949967734843
 30
0.0
 10
-30.77529826629226
 20
6.228471534457213
 30
0.0
 10
-30.77065396060557
 20
6.228980831018418
 30
0.0
 10
-30.76534678994546
 20
6.229548543554358
 30
0.0
 10
-30.75896893068898
 20
6.230209088270953
 30
0.0
 10
-30.74539362813016
 20
6.231561122207864
 30
0.0
 10
-30.72453870638322
 20
6.233433607583691
 30
0.0
 10
-30.70290966031436
 20
6.235038740055017
 30
0.0
 10
-30.68741391496714
 20
6.236030443656829
 30
0.0
 10
-30.67891966750112
 20
6.236533642022152
 30
0.0
 10
-30.67153893966788
 20
6.23694061397208
 30
0.0
 10
-30.66532314537556
 20
6.237261973626374
 30
0.0
 10
-30.66029228760998
 20
6.237508091500501
 30
0.0
 10
-30.65633149552048
 20
6.23769346603089
 30
0.0
 10
-30.65252687659417
 20
6.237865448300368
 30
0.0
 10
-30.64794317772419
 20
6.238064685278288
 30
0.0
 10
-30.64188946993055
 20
6.238313346022749
 30
0.0
 10
-30.63501672952245
 20
6.2385756673483
 30
0.0
 10
-30.6280599892043
 20
6.238820754311859
 30
0.0
 10
-30.62084514450079
 20
6.239056099164315
 30
0.0
 10
-30.61368035114427
 20
6.239270677378243
 30
0.0
 10
-30.60673251872782
 20
6.239461256972191
 30
0.0
 10
-30.60034311819797
 20
6.239624132423301
 30
0.0
 10
-30.59368637752299
 20
6.239781439025904
 30
0.0
 10
-30.58599917170749
 20
6.239946142774783
 30
0.0
 10
-30.57751221434298
 20
6.240105825860041
 30
0.0
 10
-30.56906203831994
 20
6.240241771157172
 30
0.0
 10
-30.5614958701251
 20
6.240346135124383
 30
0.0
 10
-30.5551736264845
 20
6.24042218513756
 30
0.0
 10
-30.54998718647398
 20
6.24047758638062
 30
0.0
 10
-30.54573535026425
 20
6.240518637218343
 30
0.0
 10
-30.54184999131678
 20
6.240553133209772
 30
0.0
 10
-30.53773366854736
 20
6.240586692976762
 30
0.0
 10
-30.53292550850262
 20
6.240622058417187
 30
0.0
 10
-30.52782659230923
 20
6.240655360198843
 30
0.0
 10
-30.52295169170899
 20
6.240683721878212
 30
0.0
 10
-30.51892012963749
 20
6.240705183079967
 30
0.0
 10
-30.5155686966046
 20
6.240722009287253
 30
0.0
 10
-30.51246777794594
 20
6.240736930928392
 30
0.0
 10
-30.5090374650513
 20
6.24075281672475
 30
0.0
 10
-30.50509481150112
 20
6.240770462928963
 30
0.0
 10
-30.5006337095466
 20
6.240790219763312
 30
0.0
 10
-30.49564742501464
 20
6.240811675868798
 30
0.0
 10
-30.49214743944687
 20
6.240829042486893
 30
0.0
 10
-30.49030872458461
 20
6.240837526112102
 30
0.0
 11
-30.79658101952536
 21
6.225981427660713
 31
0.0
 11
-30.79113358260602
 21
6.22664294793833
 31
0.0
 11
-30.78501282555587
 21
6.22736632193289
 31
0.0
 11
-30.77968809626148
 21
6.227978336943863
 31
0.0
 11
-30.7751450357662
 21
6.228487735815519
 31
0.0
 11
-30.77105976590504
 21
6.228935729141539
 31
0.0
 11
-30.76575488510409
 21
6.22950318434249
 31
0.0
 11
-30.75922240145678
 21
6.230179740096218
 31
0.0
 11
-30.75192519373188
 21
6.230906505381398
 31
0.0
 11
-30.72500695888134
 21
6.233324391522728
 31
0.0
 11
-30.6966313156326
 21
6.235433339317324
 31
0.0
 11
-30.68706866209286
 21
6.236045510036149
 31
0.0
 11
-30.67853752643015
 21
6.236551019943874
 31
0.0
 11
-30.67114974684718
 21
6.236958465739974
 31
0.0
 11
-30.66492738913583
 21
6.237280238760916
 31
0.0
 11
-30.65989082855171
 21
6.237526701166615
 31
0.0
 11
-30.65605766950085
 21
6.237706127901219
 31
0.0
 11
-30.65304530733135
 21
6.237842310319223
 31
0.0
 11
-30.64847690364776
 21
6.238040927219913
 31
0.0
 11
-30.64230619256846
 21
6.238294503368422
 31
0.0
 11
-30.63488381876521
 21
6.238577994690245
 31
0.0
 11
-30.62785867797257
 21
6.23882564206292
 31
0.0
 11
-30.62143623973556
 21
6.239035295568555
 31
0.0
 11
-30.61323925611345
 21
6.239281133843462
 31
0.0
 11
-30.60636438604753
 21
6.239469929449626
 31
0.0
 11
-30.60059306940696
 21
6.239617070626309
 31
0.0
 11
-30.59407112498214
 21
6.23977113506217
 31
0.0
 11
-30.58639406213652
 21
6.239935572040536
 31
0.0
 11
-30.57753133967535
 21
6.240102442307772
 31
0.0
 11
-30.56861028074845
 21
6.240246339689008
 31
0.0
 11
-30.56104374553124
 21
6.240350920246925
 31
0.0
 11
-30.55483303221127
 21
6.240425756320803
 31
0.0
 11
-30.549643661274
 21
6.240481263445701
 31
0.0
 11
-30.54548448809372
 21
6.240521461570466
 31
0.0
 11
-30.54207756006078
 21
6.240551732476518
 31
0.0
 11
-30.53798759417276
 21
6.240585119822611
 31
0.0
 11
-30.53313551640541
 21
6.240620882520914
 31
0.0
 11
-30.52765308051041
 21
6.240656804032653
 31
0.0
 11
-30.52269085816114
 21
6.240685790253337
 31
0.0
 11
-30.51851083193847
 21
6.240708109720316
 31
0.0
 11
-30.51555840583259
 21
6.240722952815616
 31
0.0
 11
-30.51263656359088
 21
6.240737032675923
 31
0.0
 11
-30.50920807620223
 21
6.240752939100559
 31
0.0
 11
-30.50526746634535
 21
6.2407706561699
 31
0.0
 11
-30.50080860164054
 21
6.240790351804861
 31
0.0
 11
-30.49582476247079
 21
6.240812426493647
 31
0.0
 11
-30.49030872458461
 21
6.240837526112102
 31
0.0
  0
SPLINE
  5
8B
330
2
100
AcDbEntity
  8
GAIKEI
  6
Continuous
 62
     7
100
AcDbSpline
210
0.0
220
0.0
230
1.0
 70
     8
 71
     3
 72
    11
 73
     7
 74
     5
 42
0.0000000001
 43
0.0000000001
 44
0.000001
 12
0.8947352695168881
 22
0.4465969071573845
 32
0.0
 13
0.9531200896111521
 23
0.3025922913420459
 33
0.0
 40
0.0
 40
0.0
 40
0.0
 40
0.0
 40
0.0347753687277451
 40
0.0712907674030111
 40
0.1082384174908575
 40
0.1191642736660894
 40
0.1191642736660894
 40
0.1191642736660894
 40
0.1191642736660894
 10
-31.52692749690715
 20
6.065585301816383
 30
0.0
 10
-31.51655591393676
 20
6.070762159189399
 30
0.0
 10
-31.4950425651596
 20
6.08088063642765
 30
0.0
 10
-31.46167354911073
 20
6.094635657769345
 30
0.0
 10
-31.43517716284124
 20
6.104115104760921
 30
0.0
 10
-31.42000022722249
 20
6.109046784297987
 30
0.0
 10
-31.41652900955022
 20
6.110148810916285
 30
0.0
 11
-31.52692749690715
 21
6.065585301816383
 31
0.0
 11
-31.49545719706296
 21
6.080382716725949
 31
0.0
 11
-31.46170368676079
 21
6.094313999098943
 31
0.0
 11
-31.42691959793956
 21
6.106772296586228
 31
0.0
 11
-31.41652900955022
 21
6.110148810916285
 31
0.0
  0
SPLINE
  5
8C
330
2
100
AcDbEntity
  8
GAIKEI
  6
Continuous
 62
     1
100
AcDbSpline
210
0.0
220
0.0
230
1.0
 70
     8
 71
     3
 72
    11
 73
     7
 74
     5
 42
0.0000000001
 43
0.0000000001
 44
0.000001
 12
-0.9999936371460124
 22
-0.0035673053540354
 32
0.0
 13
-0.997451697825825
 23
-0.0713450103677829
 33
0.0
 40
0.0
 40
0.0
 40
0.0
 40
0.0
 40
0.0295428171095726
 40
0.0583587749799359
 40
0.0859934807375407
 40
0.112966230788711
 40
0.112966230788711
 40
0.112966230788711
 40
0.112966230788711
 10
-30.46814221201244
 20
6.240888148331237
 30
0.0
 10
-30.47798975505676
 20
6.240853018914691
 30
0.0
 10
-30.49744125036007
 20
6.240617703943854
 30
0.0
 10
-30.52610263757678
 20
6.24002912728929
 30
0.0
 10
-30.55387466061612
 20
6.238563218001075
 30
0.0
 10
-30.57204134541777
 20
6.237420481822795
 30
0.0
 10
-30.58100935052896
 20
6.236779024778769
 30
0.0
 11
-30.46814221201244
 21
6.240888148331237
 31
0.0
 11
-30.49768336647162
 21
6.240573715010725
 31
0.0
 11
-30.52649060013745
 21
6.23986424615515
 31
0.0
 11
-30.5540918916801
 21
6.23850567401169
 31
0.0
 11
-30.58100935052896
 21
6.236779024778769
 31
0.0
  0
SPLINE
  5
8D
330
2
100
AcDbEntity
  8
GAIKEI
  6
Continuous
 62
     7
100
AcDbSpline
210
0.0
220
0.0
230
1.0
 70
     8
 71
     3
 72
    95
 73
    91
 74
    89
 42
0.0000000001
 43
0.0000000001
 44
0.000001
 12
0.5671727698564811
 22
0.8235988399295662
 32
0.0
 13
0.893619513633434
 23
0.448825316636155
 33
0.0
 40
0.0
 40
0.0
 40
0.0
 40
0.0
 40
0.00601081843601
 40
0.0117653514747378
 40
0.0172654541833492
 40
0.0225128352983472
 40
0.0275090796599685
 40
0.0322556553770328
 40
0.0367539198689254
 40
0.041416701902958
 40
0.0457820691631394
 40
0.0498514124346471
 40
0.0536259924760961
 40
0.0571069478939111
 40
0.0602953025688504
 40
0.0631919721096387
 40
0.0657977697998386
 40
0.0681134120367467
 40
0.0701395232529704
 40
0.072503762860059
 40
0.074884261724639
 40
0.0772976723343924
 40
0.0829048213466091
 40
0.0886811420544242
 40
0.0946260948919644
 40
0.098312145494134
 40
0.1022631315171197
 40
0.1064783507866317
 40
0.1109570920759145
 40
0.1143794721870716
 40
0.1179405870373626
 40
0.1216401682291425
 40
0.1254779529629701
 40
0.1294536859880265
 40
0.1335529651654657
 40
0.1375231122609607
 40
0.1416341083261861
 40
0.145477460157117
 40
0.1490538279207735
 40
0.1523637957333282
 40
0.1554078781299675
 40
0.1577418341421437
 40
0.1598916915935953
 40
0.1619263297079522
 40
0.1640421514983277
 40
0.1662512329848174
 40
0.1685535021386881
 40
0.1723594585545397
 40
0.1763950924052689
 40
0.1806601561098708
 40
0.1852965022349549
 40
0.1900943038454171
 40
0.1949335169023391
 40
0.1998132309446555
 40
0.2047335975812465
 40
0.2096947782054949
 40
0.217573770983293
 40
0.2255546907763954
 40
0.233620258496008
 40
0.2406648657739118
 40
0.2474833677929002
 40
0.2540764295921889
 40
0.2604446086915938
 40
0.2665883619332867
 40
0.2725061096889718
 40
0.2772767734945583
 40
0.2818549288795288
 40
0.2862405609405772
 40
0.2904336210270824
 40
0.2920281928082911
 40
0.2935930253238717
 40
0.2951510557134457
 40
0.2968849448490954
 40
0.2988342091590306
 40
0.300998983857964
 40
0.3033794281162174
 40
0.3059757279371467
 40
0.3092075185862488
 40
0.3127219023784905
 40
0.3165193199253675
 40
0.320600284070553
 40
0.3249653883914267
 40
0.3296153162951195
 40
0.3345508506960322
 40
0.3393267499250244
 40
0.3443441654844979
 40
0.3496042543879836
 40
0.3551080006649598
 40
0.3608561489889613
 40
0.3658747705510766
 40
0.3658747705510766
 40
0.3658747705510766
 40
0.3658747705510766
 10
-31.79899837697881
 20
5.826916864570819
 30
0.0
 10
-31.79786198613167
 20
5.828567032267784
 30
0.0
 10
-31.79562442062209
 20
5.831787906077749
 30
0.0
 10
-31.79230873157211
 20
5.836491995851133
 30
0.0
 10
-31.78910760014539
 20
5.840965323604677
 30
0.0
 10
-31.78602498609983
 20
5.845212491479117
 30
0.0
 10
-31.78306378377576
 20
5.849237285203059
 30
0.0
 10
-31.78022697525087
 20
5.85304347342452
 30
0.0
 10
-31.77743470896141
 20
5.856744123492461
 30
0.0
 10
-31.77469787953991
 20
5.860327324775283
 30
0.0
 10
-31.77202769512856
 20
5.863781423116449
 30
0.0
 10
-31.76952104502546
 20
5.866987641226216
 30
0.0
 10
-31.76718083945566
 20
5.869949713551704
 30
0.0
 10
-31.76500978014765
 20
5.872671112439206
 30
0.0
 10
-31.76301035900688
 20
5.875155046040049
 30
0.0
 10
-31.76118485892363
 20
5.877404458204807
 30
0.0
 10
-31.75953535421755
 20
5.879422027796294
 30
0.0
 10
-31.75806371107068
 20
5.881210168262441
 30
0.0
 10
-31.75663828717827
 20
5.882932051810115
 30
0.0
 10
-31.75519402708758
 20
5.884666396785007
 30
0.0
 10
-31.75366138724306
 20
5.886495130869207
 30
0.0
 10
-31.75142594441022
 20
5.889145234799741
 30
0.0
 10
-31.74844188051523
 20
5.892644696727188
 30
0.0
 10
-31.74466060428423
 20
5.897011204563852
 30
0.0
 10
-31.74126801600576
 20
5.900866997478033
 30
0.0
 10
-31.73825531303386
 20
5.904246418252995
 30
0.0
 10
-31.73561105834779
 20
5.907181808024347
 30
0.0
 10
-31.73277261048355
 20
5.910297811741457
 30
0.0
 10
-31.7300351657982
 20
5.913267383603681
 30
0.0
 10
-31.72743036788072
 20
5.91606259794986
 30
0.0
 10
-31.72499018869006
 20
5.91865615341851
 30
0.0
 10
-31.72244171311356
 20
5.921337877258594
 30
0.0
 10
-31.71978362390514
 20
5.924106024320849
 30
0.0
 10
-31.71701784228547
 20
5.926955395078408
 30
0.0
 10
-31.71420527231829
 20
5.929820753198157
 30
0.0
 10
-31.71134494383345
 20
5.932702320217089
 30
0.0
 10
-31.70852890703558
 20
5.935507565139062
 30
0.0
 10
-31.70579087172499
 20
5.938205035859596
 30
0.0
 10
-31.70323007668371
 20
5.940701880818238
 30
0.0
 10
-31.70084893623177
 20
5.943001287351648
 30
0.0
 10
-31.69875676979579
 20
5.945003715868779
 30
0.0
 10
-31.69693743871845
 20
5.946731904414036
 30
0.0
 10
-31.69535736372691
 20
5.948223384245835
 30
0.0
 10
-31.69382593022816
 20
5.949660453359001
 30
0.0
 10
-31.6922758706342
 20
5.951106510179954
 30
0.0
 10
-31.69065599601302
 20
5.952608494666037
 30
0.0
 10
-31.68861701820059
 20
5.954487056129977
 30
0.0
 10
-31.68612040205789
 20
5.956767433924028
 30
0.0
 10
-31.68312566357072
 20
5.959472501472248
 30
0.0
 10
-31.67990858813459
 20
5.962344259752711
 30
0.0
 10
-31.67648286005523
 20
5.965363652643532
 30
0.0
 10
-31.67289256511193
 20
5.96848561833579
 30
0.0
 10
-31.66921938579529
 20
5.971635724708391
 30
0.0
 10
-31.66549330412614
 20
5.974786724288065
 30
0.0
 10
-31.66171407551309
 20
5.977937657064217
 30
0.0
 10
-31.65714034740507
 20
5.981696655096698
 30
0.0
 10
-31.65173818590868
 20
5.986054118003863
 30
0.0
 10
-31.6454741766796
 20
5.990990520560444
 30
0.0
 10
-31.63937425886411
 20
5.995684986434696
 30
0.0
 10
-31.6335335345385
 20
6.000080138613668
 30
0.0
 10
-31.62804457302393
 20
6.004125850311254
 30
0.0
 10
-31.62269979373622
 20
6.007986619349907
 30
0.0
 10
-31.61750296614
 20
6.011667618374104
 30
0.0
 10
-31.61245824520937
 20
6.015173469175067
 30
0.0
 10
-31.60782335972166
 20
6.0183355582501
 30
0.0
 10
-31.60359778901672
 20
6.021171292831581
 30
0.0
 10
-31.59977932818685
 20
6.023696985207322
 30
0.0
 10
-31.59610605069695
 20
6.026093003250593
 30
0.0
 10
-31.59325448736782
 20
6.027928273118817
 30
0.0
 10
-31.5911881587847
 20
6.029246157532725
 30
0.0
 10
-31.58986047839172
 20
6.030088746978151
 30
0.0
 10
-31.58849166548718
 20
6.030953182482051
 30
0.0
 10
-31.58701232662714
 20
6.031882583286176
 30
0.0
 10
-31.5853590249508
 20
6.032915254740771
 30
0.0
 10
-31.58351959055504
 20
6.034056734052626
 30
0.0
 10
-31.58149286011543
 20
6.035305411542765
 30
0.0
 10
-31.57915826878222
 20
6.036732432025672
 30
0.0
 10
-31.57649449348048
 20
6.038345612326168
 30
0.0
 10
-31.57347960194489
 20
6.040151839264126
 30
0.0
 10
-31.57021186525204
 20
6.04208670703241
 30
0.0
 10
-31.56668863375065
 20
6.044146538596919
 30
0.0
 10
-31.56290706462802
 20
6.046327386730069
 30
0.0
 10
-31.5588641216198
 20
6.048625031756273
 30
0.0
 10
-31.55468636150147
 20
6.050962383363213
 30
0.0
 10
-31.55038555191151
 20
6.053330445888605
 30
0.0
 10
-31.54597362825262
 20
6.055720772871666
 30
0.0
 10
-31.54133046629233
 20
6.058193335207789
 30
0.0
 10
-31.53645287056041
 20
6.060743532098683
 30
0.0
 10
-31.53162860042117
 20
6.063221754077517
 30
0.0
 10
-31.52842240962697
 20
6.064834473679155
 30
0.0
 10
-31.52692749690715
 20
6.065585301816383
 30
0.0
 11
-31.79899837697881
 21
5.826916864570819
 31
0.0
 11
-31.79557080214377
 21
5.831854621792075
 31
0.0
 11
-31.79225498567395
 21
5.836557816103635
 31
0.0
 11
-31.78905429514845
 21
5.841030707111883
 31
0.0
 11
-31.78597195434124
 21
5.84527737976694
 31
0.0
 11
-31.783011043321
 21
5.849301743848286
 31
0.0
 11
-31.78017449857619
 21
5.853107533429295
 31
0.0
 11
-31.77746511316053
 21
5.856698306328951
 31
0.0
 11
-31.77463481646942
 21
5.860403842199644
 31
0.0
 11
-31.77196491264499
 21
5.863857547375232
 31
0.0
 11
-31.76945851951315
 21
5.867063413612584
 31
0.0
 11
-31.76711854788582
 21
5.87002517210891
 31
0.0
 11
-31.7649477002288
 21
5.872746291986175
 31
0.0
 11
-31.76294846940149
 21
5.875229978848835
 31
0.0
 11
-31.76112313915882
 21
5.877479174151147
 31
0.0
 11
-31.75947378465132
 21
5.879496554619834
 31
0.0
 11
-31.75800227288929
 21
5.88128453172186
 31
0.0
 11
-31.75671026316748
 21
5.882845251179162
 31
0.0
 11
-31.75519734583764
 21
5.884662039712225
 31
0.0
 11
-31.75366827082836
 21
5.886486516387577
 31
0.0
 11
-31.75211216583436
 21
5.888331265429627
 31
0.0
 11
-31.74847394140515
 21
5.892597821797892
 31
0.0
 11
-31.74469255344286
 21
5.896964405157945
 31
0.0
 11
-31.74076545257478
 21
5.901427633972843
 31
0.0
 11
-31.73831257766729
 21
5.904179069963987
 31
0.0
 11
-31.73566816947097
 21
5.907114615259473
 31
0.0
 11
-31.7328295656577
 21
5.910230772601664
 31
0.0
 11
-31.72979392660894
 21
5.913523804408441
 31
0.0
 11
-31.72746071608775
 21
5.916027569042228
 31
0.0
 11
-31.72502047828555
 21
5.918621177244858
 31
0.0
 11
-31.72247194559172
 21
5.921302950775725
 31
0.0
 11
-31.71981380160222
 21
5.92407114360904
 31
0.0
 11
-31.71704468130976
 21
5.92692394180716
 31
0.0
 11
-31.71417311678224
 21
5.929849388913197
 31
0.0
 11
-31.7113761934681
 21
5.932667068777078
 31
0.0
 11
-31.70846369594091
 21
5.935568392812712
 31
0.0
 11
-31.70572582299539
 21
5.938265694278442
 31
0.0
 11
-31.70316517187037
 21
5.94076239178355
 31
0.0
 11
-31.70078415812333
 21
5.943061670588321
 31
0.0
 11
-31.69858501624224
 21
5.945166482167792
 31
0.0
 11
-31.69689281516874
 21
5.946773907902098
 31
0.0
 11
-31.69532943671649
 21
5.948249626198531
 31
0.0
 11
-31.69384574336412
 21
5.949641895902175
 31
0.0
 11
-31.6922986272879
 21
5.951085205661371
 31
0.0
 11
-31.69067873547837
 21
5.952587204922622
 31
0.0
 11
-31.68898554016201
 21
5.954147186985949
 31
0.0
 11
-31.68617537172988
 21
5.956713953102962
 31
0.0
 11
-31.68318058127699
 21
5.959419060387858
 31
0.0
 11
-31.67999879244569
 21
5.962259311654207
 31
0.0
 11
-31.6765206101807
 21
5.965324927412837
 31
0.0
 11
-31.67290013894224
 21
5.968473123476144
 31
0.0
 11
-31.66922674976043
 21
5.971623400666487
 31
0.0
 11
-31.66550072812269
 21
5.974774340949267
 31
0.0
 11
-31.66172156471048
 21
5.977925211607214
 31
0.0
 11
-31.65788874733248
 21
5.981075271882957
 31
0.0
 11
-31.65175610604159
 21
5.986021925385585
 31
0.0
 11
-31.64548768771382
 21
5.99096177980806
 31
0.0
 11
-31.63909584100812
 21
5.995880909194056
 31
0.0
 11
-31.63346691491689
 21
6.000116685833432
 31
0.0
 11
-31.62797821447873
 21
6.004162208432205
 31
0.0
 11
-31.62263366090176
 21
6.008022820014275
 31
0.0
 11
-31.61743702562947
 21
6.011703688512199
 31
0.0
 11
-31.61239193340641
 21
6.015209804547964
 31
0.0
 11
-31.60750347373525
 21
6.018544890325244
 31
0.0
 11
-31.60354214377193
 21
6.021203303830105
 31
0.0
 11
-31.59972370452478
 21
6.023728989698952
 31
0.0
 11
-31.5960504351756
 21
6.026125010978006
 31
0.0
 11
-31.59252451538931
 21
6.02839430517946
 31
0.0
 11
-31.59118010429182
 21
6.02925175829975
 31
0.0
 11
-31.589858878763
 21
6.030090251940123
 31
0.0
 11
-31.58854154573492
 21
6.030922177471694
 31
0.0
 11
-31.58707336003919
 21
6.031844572158092
 31
0.0
 11
-31.58542009653809
 21
6.03287722095365
 31
0.0
 11
-31.58358070775613
 21
6.034018673514793
 31
0.0
 11
-31.58155403145588
 21
6.035267319666047
 31
0.0
 11
-31.57933879085395
 21
6.036621389519211
 31
0.0
 11
-31.57657440252075
 21
6.038295505750625
 31
0.0
 11
-31.5735596464723
 21
6.040101657738148
 31
0.0
 11
-31.57029206972368
 21
6.042036438789352
 31
0.0
 11
-31.56676902574198
 21
6.044096170999154
 31
0.0
 11
-31.56298767499475
 21
6.046276905708282
 31
0.0
 11
-31.55894498550747
 21
6.048574424025673
 31
0.0
 11
-31.5546377334221
 21
6.050984237421886
 31
0.0
 11
-31.55045409470121
 21
6.053287822681738
 31
0.0
 11
-31.54604250732012
 21
6.05567790815536
 31
0.0
 11
-31.54139965045498
 21
6.058150275736181
 31
0.0
 11
-31.53652259027126
 21
6.060700911431638
 31
0.0
 11
-31.53140883661533
 21
6.063325994886639
 31
0.0
 11
-31.52692749690715
 21
6.065585301816383
 31
0.0
  0
SPLINE
  5
8E
330
2
100
AcDbEntity
  8
GAIKEI
  6
Continuous
 62
     7
100
AcDbSpline
210
0.0
220
0.0
230
1.0
 70
     8
 71
     3
 72
   120
 73
   116
 74
     0
 42
0.0000000001
 43
0.0000000001
 40
0.0
 40
0.0
 40
0.0
 40
0.0
 40
0.0052174754522104
 40
0.0105678130952426
 40
0.0147792222821183
 40
0.0179747721972199
 40
0.0236607853442155
 40
0.0289104162719892
 40
0.0332287327039953
 40
0.0376750172588384
 40
0.0431087187614389
 40
0.0495476800879141
 40
0.0554228630731483
 40
0.0613240916976991
 40
0.0663375076377764
 40
0.0704545072342637
 40
0.074055448460541
 40
0.0781843519466306
 40
0.0829722543249712
 40
0.088248123491423
 40
0.0930159077857212
 40
0.0981161632052067
 40
0.1024016352781838
 40
0.1067274102112834
 40
0.1111568164637947
 40
0.1147097853222547
 40
0.1185382460117134
 40
0.1231693806735356
 40
0.12862838993705
 40
0.1335918595497396
 40
0.1387789123912561
 40
0.1432897718863381
 40
0.1470659260245132
 40
0.1501071977890121
 40
0.152378706316047
 40
0.1544722574009828
 40
0.1569387647364635
 40
0.1597783354408775
 40
0.1645452504840206
 40
0.1700928708906247
 40
0.1756116656763784
 40
0.1803158117795007
 40
0.1842441416476961
 40
0.1885742404575863
 40
0.1938577113508523
 40
0.1999611188394188
 40
0.207120404819231
 40
0.2133440133479404
 40
0.2194164903204469
 40
0.225859359858578
 40
0.232617731095855
 40
0.237587532688735
 40
0.2426699656103162
 40
0.2475171293242171
 40
0.2519223706717878
 40
0.2558864953521969
 40
0.2600736960235597
 40
0.2650543396316455
 40
0.2714498467547914
 40
0.2779726260205626
 40
0.2837363593548499
 40
0.2887404991339902
 40
0.2929847462506976
 40
0.3024411979321208
 40
0.3129549279809828
 40
0.3253091219507286
 40
0.3371248920629851
 40
0.3484428095147995
 40
0.3607396314433402
 40
0.3640349120463564
 40
0.3669128404002295
 40
0.3693807789309165
 40
0.3721271616325982
 40
0.3756015258187248
 40
0.3798040865521914
 40
0.3847250140084769
 40
0.3894836147325134
 40
0.3936852993995795
 40
0.3970849638209717
 40
0.3997267675636415
 40
0.4025383885192397
 40
0.405890373484544
 40
0.4097828796265361
 40
0.41464592764913
 40
0.4199684472211568
 40
0.4247605740912733
 40
0.4288749622723564
 40
0.4324370810272348
 40
0.4363489361865643
 40
0.4407886997800589
 40
0.4453221947412211
 40
0.4502920306859635
 40
0.455694781091868
 40
0.4615306549161092
 40
0.4674773143763613
 40
0.4726493415492361
 40
0.4777657021404936
 40
0.4816923899840849
 40
0.4845672269863534
 40
0.4877171127266223
 40
0.4914741549957432
 40
0.4973125703787356
 40
0.5039260675524713
 40
0.5106524238079988
 40
0.5181489353716816
 40
0.5250419228441682
 40
0.531820460887785
 40
0.5396715400072578
 40
0.5475963179857362
 40
0.5540245126970468
 40
0.5589917720283515
 40
0.5618004825570866
 40
0.5652872986187584
 40
0.569452428281047
 40
0.5702174719945701
 40
0.5702174719945701
 40
0.5702174719945701
 40
0.5702174719945701
 10
-31.3904613004259
 20
6.118175317058557
 30
0.0
 10
-31.38934609830713
 20
6.118492528351453
 30
0.0
 10
-31.38708690299664
 20
6.119133649195333
 30
0.0
 10
-31.38392628821473
 20
6.120026375301392
 30
0.0
 10
-31.38119720867576
 20
6.120793901363754
 30
0.0
 10
-31.37839566582029
 20
6.121579290966593
 30
0.0
 10
-31.37537096443667
 20
6.12242336159332
 30
0.0
 10
-31.37210479414081
 20
6.123330373664742
 30
0.0
 10
-31.36910312474205
 20
6.124160244310985
 30
0.0
 10
-31.36606116209073
 20
6.124997870177224
 30
0.0
 10
-31.36256373367567
 20
6.125956523467408
 30
0.0
 10
-31.35875861326167
 20
6.126993797175202
 30
0.0
 10
-31.35485171914566
 20
6.128052742074231
 30
0.0
 10
-31.35124923603367
 20
6.129023838730688
 30
0.0
 10
-31.34802288718086
 20
6.129889124200303
 30
0.0
 10
-31.34528948543745
 20
6.130619080119259
 30
0.0
 10
-31.34274537670294
 20
6.131296032055672
 30
0.0
 10
-31.3400565485061
 20
6.132008899680585
 30
0.0
 10
-31.33700710676418
 20
6.132813989496696
 30
0.0
 10
-31.33381941373233
 20
6.133651595678486
 30
0.0
 10
-31.33056359464605
 20
6.134503052449503
 30
0.0
 10
-31.32751979629458
 20
6.13529535018273
 30
0.0
 10
-31.32457022477808
 20
6.136059708124435
 30
0.0
 10
-31.32176424361383
 20
6.136783883437431
 30
0.0
 10
-31.31911518893209
 20
6.137464711732519
 30
0.0
 10
-31.31657257194384
 20
6.138115698576655
 30
0.0
 10
-31.31398596711274
 20
6.138775613040905
 30
0.0
 10
-31.31098820407539
 20
6.139537330259685
 30
0.0
 10
-31.30774503569748
 20
6.140357418944802
 30
0.0
 10
-31.3043810902001
 20
6.141203789906967
 30
0.0
 10
-31.30122055882259
 20
6.141995094894213
 30
0.0
 10
-31.29831517488704
 20
6.142719113180277
 30
0.0
 10
-31.29587190943629
 20
6.143325530457758
 30
0.0
 10
-31.29391124792808
 20
6.143810556755596
 30
0.0
 10
-31.29231331940713
 20
6.144204830216409
 30
0.0
 10
-31.29083921780537
 20
6.144567778077544
 30
0.0
 10
-31.28924233835184
 20
6.144960082525159
 30
0.0
 10
-31.28706821289953
 20
6.145492816783928
 30
0.0
 10
-31.28422847238693
 20
6.146186065459886
 30
0.0
 10
-31.28080936685741
 20
6.147016542174867
 30
0.0
 10
-31.27740278935234
 20
6.147839488838485
 30
0.0
 10
-31.27434514786755
 20
6.148574430387753
 30
0.0
 10
-31.27154369656599
 20
6.149244929247288
 30
0.0
 10
-31.26861639676079
 20
6.149942690977212
 30
0.0
 10
-31.2652180513537
 20
6.150748879077298
 30
0.0
 10
-31.26120677136944
 20
6.15169509925181
 30
0.0
 10
-31.25699069077139
 20
6.152683070217676
 30
0.0
 10
-31.25277984403172
 20
6.153663226390676
 30
0.0
 10
-31.24872277562474
 20
6.154601773066019
 30
0.0
 10
-31.24454859937293
 20
6.155561339778955
 30
0.0
 10
-31.240611922679
 20
6.156460288785694
 30
0.0
 10
-31.23696891148079
 20
6.157287244378096
 30
0.0
 10
-31.23373927080334
 20
6.158016625611026
 30
0.0
 10
-31.23063124576996
 20
6.158714994416925
 30
0.0
 10
-31.22776503922249
 20
6.159355986242587
 30
0.0
 10
-31.22504140146631
 20
6.159962486115034
 30
0.0
 10
-31.22219239193585
 20
6.160594251671966
 30
0.0
 10
-31.218815144302
 20
6.16133962479256
 30
0.0
 10
-31.2149300208816
 20
6.1621920629712
 30
0.0
 10
-31.21087368127196
 20
6.163076127710894
 30
0.0
 10
-31.20711836145615
 20
6.163889371976125
 30
0.0
 10
-31.2038570948293
 20
6.164591667328721
 30
0.0
 10
-31.19979274640889
 20
6.165462675456808
 30
0.0
 10
-31.19452957137163
 20
6.166582506940841
 30
0.0
 10
-31.18750046641173
 20
6.168062389185877
 30
0.0
 10
-31.17995446763917
 20
6.169631914008817
 30
0.0
 10
-31.17222941671246
 20
6.171218042629391
 30
0.0
 10
-31.1645130126257
 20
6.172782772347147
 30
0.0
 10
-31.15864935060479
 20
6.173956659974294
 30
0.0
 10
-31.154623448585
 20
6.174755806222549
 30
0.0
 10
-31.15273970183323
 20
6.175128469545711
 30
0.0
 10
-31.15097541897954
 20
6.175476476598106
 30
0.0
 10
-31.14908089744844
 20
6.175849103107168
 30
0.0
 10
-31.14680786147517
 20
6.17629464824057
 30
0.0
 10
-31.14406018790326
 20
6.176830949974998
 30
0.0
 10
-31.14103185508322
 20
6.177419052928001
 30
0.0
 10
-31.13800312469657
 20
6.17800407907282
 30
0.0
 10
-31.13530583553737
 20
6.17852248973412
 30
0.0
 10
-31.13307015435125
 20
6.178950359699058
 30
0.0
 10
-31.13113763972903
 20
6.179318959713697
 30
0.0
 10
-31.12921532701419
 20
6.179684493514514
 30
0.0
 10
-31.12701970823177
 20
6.180100552851968
 30
0.0
 10
-31.12437581478096
 20
6.180599516706223
 30
0.0
 10
-31.12130109962685
 20
6.181176922261329
 30
0.0
 10
-31.11802926307206
 20
6.181787807270353
 30
0.0
 10
-31.11492037003788
 20
6.182364938062505
 30
0.0
 10
-31.11219564677099
 20
6.182868186711516
 30
0.0
 10
-31.109662920371
 20
6.183333922442159
 30
0.0
 10
-31.10705871658931
 20
6.183810751229373
 30
0.0
 10
-31.10424174384809
 20
6.184324063349095
 30
0.0
 10
-31.10119296766943
 20
6.184876742817777
 30
0.0
 10
-31.09793305790659
 20
6.185464450202971
 30
0.0
 10
-31.09438765269991
 20
6.186099782321775
 30
0.0
 10
-31.09062781603794
 20
6.186769131922119
 30
0.0
 10
-31.08691767505857
 20
6.187425084845074
 30
0.0
 10
-31.08336428335075
 20
6.188049222748418
 30
0.0
 10
-31.08025244268956
 20
6.188592487427797
 30
0.0
 10
-31.07764307091722
 20
6.189045591734952
 30
0.0
 10
-31.07546399344588
 20
6.189422447853047
 30
0.0
 10
-31.07332184049855
 20
6.189791587651399
 30
0.0
 10
-31.07053034851742
 20
6.190270637647955
 30
0.0
 10
-31.06697967174087
 20
6.190876469459595
 30
0.0
 10
-31.06277766072226
 20
6.191588068376233
 30
0.0
 10
-31.05821133453164
 20
6.192355131950705
 30
0.0
 10
-31.05358266448319
 20
6.193125951887395
 30
0.0
 10
-31.04894146023308
 20
6.193892065566302
 30
0.0
 10
-31.04422146756413
 20
6.194664638045651
 30
0.0
 10
-31.03927403624695
 20
6.195467114134373
 30
0.0
 10
-31.03440223505392
 20
6.196249569137734
 30
0.0
 10
-31.03016222049442
 20
6.196924432066197
 30
0.0
 10
-31.02704442586873
 20
6.197417110800074
 30
0.0
 10
-31.0245719639418
 20
6.197805887355002
 30
0.0
 10
-31.01509583553016
 20
6.199196692202662
 30
0.0
 10
-31.01324770294154
 20
6.199484720558189
 30
0.0
 10
-31.01216509561536
 20
6.199652910512298
 30
0.0
 10
-31.01199709918798
 20
6.199678997008447
 30
0.0
  0
SPLINE
  5
8F
330
2
100
AcDbEntity
  8
GAIKEI
  6
Continuous
 62
     7
100
AcDbSpline
210
0.0
220
0.0
230
1.0
 70
     8
 71
     3
 72
     9
 73
     5
 74
     3
 42
0.0000000001
 43
0.0000000001
 44
0.000001
 12
-0.9623379909322508
 22
-0.2718558279832878
 32
0.0
 13
-0.9620144586546979
 23
-0.272998500617327
 33
0.0
 40
0.0
 40
0.0
 40
0.0
 40
0.0
 40
0.0004651734994567
 40
0.0009808163844876
 40
0.0009808163844876
 40
0.0009808163844876
 40
0.0009808163844876
 10
-31.39041069739486
 20
6.117984615212122
 30
0.0
 10
-31.39055991543849
 20
6.117942461836491
 30
0.0
 10
-31.3908745160365
 20
6.117853493013086
 30
0.0
 10
-31.39118906375547
 20
6.117764337395186
 30
0.0
 10
-31.39135441572577
 20
6.117717414150376
 30
0.0
 11
-31.39041069739486
 21
6.117984615212122
 31
0.0
 11
-31.39085831589369
 21
6.117858029021817
 31
0.0
 11
-31.39135441572577
 21
6.117717414150376
 31
0.0
  0
SPLINE
  5
90
330
2
100
AcDbEntity
  8
GAIKEI
  6
Continuous
 62
     7
100
AcDbSpline
210
0.0
220
0.0
230
1.0
 70
     8
 71
     3
 72
    10
 73
     6
 74
     4
 42
0.0000000001
 43
0.0000000001
 44
0.000001
 12
-0.1171787383230453
 22
0.993110841389328
 32
0.0
 13
0.5395795426848812
 23
0.8419346275786347
 33
0.0
 40
0.0
 40
0.0
 40
0.0
 40
0.0
 40
0.0064759010951341
 40
0.0138898667571857
 40
0.0217043615367755
 40
0.0217043615367755
 40
0.0217043615367755
 40
0.0217043615367755
 10
-31.80653830109739
 20
5.803225321093606
 30
0.0
 10
-31.80679124707067
 20
5.805369083622053
 30
0.0
 10
-31.80610525815329
 20
5.810025385957914
 30
0.0
 10
-31.80471706368847
 20
5.817128562693625
 30
0.0
 10
-31.80237923703774
 20
5.821726800093102
 30
0.0
 10
-31.80097372319791
 20
5.823919898010416
 30
0.0
 11
-31.80653830109739
 21
5.803225321093606
 31
0.0
 11
-31.80610659200673
 21
5.809686909828741
 31
0.0
 11
-31.8044184260221
 21
5.816906153637631
 31
0.0
 11
-31.80097372319791
 21
5.823919898010416
 31
0.0
  0
SPLINE
  5
91
330
2
100
AcDbEntity
  8
GAIKEI
  6
Continuous
 62
     7
100
AcDbSpline
210
0.0
220
0.0
230
1.0
 70
     8
 71
     3
 72
    15
 73
    11
 74
     9
 42
0.0000000001
 43
0.0000000001
 44
0.000001
 12
-0.9999975632466529
 22
0.0022076006787041
 32
0.0
 13
-0.036151169170908
 23
0.9993463328434124
 33
0.0
 40
0.0
 40
0.0
 40
0.0
 40
0.0
 40
0.0059738727390289
 40
0.0122868989557868
 40
0.0188597856991303
 40
0.0255454648149824
 40
0.0322546926874457
 40
0.0388399310988132
 40
0.0451415240686422
 40
0.0511115004706574
 40
0.0511115004706574
 40
0.0511115004706574
 40
0.0511115004706574
 10
-31.77541207621771
 20
5.541461704538988
 30
0.0
 10
-31.77740336227843
 20
5.541466100514156
 30
0.0
 10
-31.78150678734855
 20
5.541834729700667
 30
0.0
 10
-31.78759877528815
 20
5.543535351527282
 30
0.0
 10
-31.79344825345147
 20
5.546516683329201
 30
0.0
 10
-31.7987327290047
 20
5.550638035727132
 30
0.0
 10
-31.80304058916747
 20
5.555777211193799
 30
0.0
 10
-31.80623133779362
 20
5.561524442503156
 30
0.0
 10
-31.80814609675204
 20
5.567551686687409
 30
0.0
 10
-31.80865456422934
 20
5.571635280426733
 30
0.0
 10
-31.80872650477163
 20
5.573623971768228
 30
0.0
 11
-31.77541207621771
 21
5.541461704538988
 31
0.0
 11
-31.78136230577659
 21
5.541998515437683
 31
0.0
 11
-31.78744080029956
 21
5.543703380938552
 31
0.0
 11
-31.79330367596735
 21
5.546674936742306
 31
0.0
 11
-31.79856352998991
 21
5.55080201392306
 31
0.0
 11
-31.80288932565598
 21
5.555930536243067
 31
0.0
 11
-31.80607204390613
 21
5.561695627924819
 31
0.0
 11
-31.80798603487943
 21
5.567699551753065
 31
0.0
 11
-31.80872650477163
 21
5.573623971768228
 31
0.0
  0
SPLINE
  5
92
330
2
100
AcDbEntity
  8
GAIKEI
  6
Continuous
 62
     7
100
AcDbSpline
210
0.0
220
0.0
230
1.0
 70
     8
 71
     3
 72
    76
 73
    72
 74
     0
 42
0.0000000001
 43
0.0000000001
 40
0.5945356414190025
 40
0.5945356414190025
 40
0.5945356414190025
 40
0.5945356414190025
 40
0.5959165807267567
 40
0.6016757000353861
 40
0.6081509945019083
 40
0.6145533469407522
 40
0.6206876774308646
 40
0.6260420780753123
 40
0.6305246264148633
 40
0.6331053541986478
 40
0.6363094799206569
 40
0.6404961064050652
 40
0.6456656054980611
 40
0.651818434885398
 40
0.658315064799127
 40
0.6641323237176607
 40
0.6704166564388618
 40
0.6758279913600611
 40
0.6805975356736297
 40
0.6847252116329883
 40
0.6869911106344332
 40
0.6894151420969103
 40
0.6924781874252966
 40
0.6961811299047554
 40
0.7005241835046654
 40
0.7065514483737338
 40
0.7116795578665432
 40
0.7157845732158876
 40
0.7188954495003915
 40
0.7219162373602235
 40
0.725274174636577
 40
0.7289693624578176
 40
0.7347039065585249
 40
0.7408129720708141
 40
0.7471387679525163
 40
0.7531756804392681
 40
0.7584122171347544
 40
0.7614071254752216
 40
0.7641038409099613
 40
0.7673538324342532
 40
0.7714803307356778
 40
0.7764836547125153
 40
0.7821283619408466
 40
0.7875027313658492
 40
0.791844946518588
 40
0.7951553503607687
 40
0.7981177287226623
 40
0.8013315247293268
 40
0.805920375993551
 40
0.8109447292197867
 40
0.8165300201796734
 40
0.8220410936758534
 40
0.8276737125311779
 40
0.8325750845809489
 40
0.8367115732907253
 40
0.8400836235396198
 40
0.8435582827767921
 40
0.8479089829990684
 40
0.8531360525887864
 40
0.8591706962345201
 40
0.8648588202152181
 40
0.8697893406890205
 40
0.8740892034517468
 40
0.8772695977629204
 40
0.8802896840374401
 40
0.8831494203899254
 40
0.8858623405637253
 40
0.8891051951277258
 40
0.8932552256150113
 40
0.9024058339596837
 40
0.9066742980934986
 40
0.9066742980934986
 40
0.9066742980934986
 40
0.9066742980934986
 10
-31.01199709918798
 20
6.199678997008476
 30
0.0
 10
-31.01169363896719
 20
6.199724652345338
 30
0.0
 10
-31.01012458571691
 20
6.199960500803854
 30
0.0
 10
-30.99828584074385
 20
6.201826785524332
 30
0.0
 10
-30.99418919953125
 20
6.202434726171816
 30
0.0
 10
-30.99000931509986
 20
6.203049721173158
 30
0.0
 10
-30.9860751703288
 20
6.203623715032165
 30
0.0
 10
-30.98256261643853
 20
6.204132242386265
 30
0.0
 10
-30.97983123273105
 20
6.20452504697053
 30
0.0
 10
-30.97757260309624
 20
6.20484830503932
 30
0.0
 10
-30.9753788970376
 20
6.205161032095958
 30
0.0
 10
-30.97261538859371
 20
6.205552996015285
 30
0.0
 10
-30.96920267463732
 20
6.206033930133799
 30
0.0
 10
-30.96528105446474
 20
6.20658226331642
 30
0.0
 10
-30.96121619278247
 20
6.207145633920049
 30
0.0
 10
-30.95712172369493
 20
6.207708223533018
 30
0.0
 10
-30.95326558017624
 20
6.208233553789767
 30
0.0
 10
-30.94963958624979
 20
6.208723436667753
 30
0.0
 10
-30.94648812584674
 20
6.209146116414473
 30
0.0
 10
-30.94402917147107
 20
6.209473810338806
 30
0.0
 10
-30.942086718757
 20
6.209731478475106
 30
0.0
 10
-30.94037869603921
 20
6.209957279695572
 30
0.0
 10
-30.9383539464812
 20
6.210223885740646
 30
0.0
 10
-30.9359061918418
 20
6.210544601782771
 30
0.0
 10
-30.93280499697825
 20
6.210948543542031
 30
0.0
 10
-30.9293893181714
 20
6.21139005776888
 30
0.0
 10
-30.92602564656049
 20
6.211821263874043
 30
0.0
 10
-30.92330449960036
 20
6.21216770387025
 30
0.0
 10
-30.92104770278867
 20
6.212453473229345
 30
0.0
 10
-30.91895545621594
 20
6.212717184280023
 30
0.0
 10
-30.91673421496404
 20
6.212995805565583
 30
0.0
 10
-30.91391437273286
 20
6.213347621010427
 30
0.0
 10
-30.91048749577905
 20
6.213772102604423
 30
0.0
 10
-30.90647992593235
 20
6.214264010554757
 30
0.0
 10
-30.90240508582264
 20
6.21475937534214
 30
0.0
 10
-30.89852218270082
 20
6.215226866142472
 30
0.0
 10
-30.89537377379933
 20
6.215602573022522
 30
0.0
 10
-30.89296218242987
 20
6.215888480757485
 30
0.0
 10
-30.89098885194564
 20
6.216121371187369
 30
0.0
 10
-30.88876564547609
 20
6.216382505892852
 30
0.0
 10
-30.88603313966627
 20
6.21670156413964
 30
0.0
 10
-30.8827717440805
 20
6.217079576240763
 30
0.0
 10
-30.87923448457208
 20
6.217486022418484
 30
0.0
 10
-30.87584278175554
 20
6.217872234988647
 30
0.0
 10
-30.87296618911482
 20
6.218197170924611
 30
0.0
 10
-30.87062202057867
 20
6.218460284154133
 30
0.0
 10
-30.86852691104939
 20
6.218694212006056
 30
0.0
 10
-30.86614930539989
 20
6.218958307486758
 30
0.0
 10
-30.86331605759868
 20
6.219270946387268
 30
0.0
 10
-30.85995866276154
 20
6.219638406949428
 30
0.0
 10
-30.85639716617953
 20
6.220024678143687
 30
0.0
 10
-30.85270087934806
 20
6.220421742459052
 30
0.0
 10
-30.84915531588555
 20
6.220798933242178
 30
0.0
 10
-30.84591316896335
 20
6.221140665759804
 30
0.0
 10
-30.84317036390348
 20
6.221427460249145
 30
0.0
 10
-30.84074271251449
 20
6.221679607519945
 30
0.0
 10
-30.83826755190982
 20
6.221935114324082
 30
0.0
 10
-30.83538213010104
 20
6.222230874118224
 30
0.0
 10
-30.83193047788753
 20
6.222581604749109
 30
0.0
 10
-30.82818275097877
 20
6.222958505575263
 30
0.0
 10
-30.82450019704488
 20
6.223324851244484
 30
0.0
 10
-30.82120093861009
 20
6.22364982164737
 30
0.0
 10
-30.81845604203202
 20
6.223917843503755
 30
0.0
 10
-30.81613352216263
 20
6.224143015790019
 30
0.0
 10
-30.81412942680612
 20
6.224336167162732
 30
0.0
 10
-30.81222863708536
 20
6.224518328943304
 30
0.0
 10
-30.81027847396962
 20
6.22470421809524
 30
0.0
 10
-30.80804275668281
 20
6.22491609604026
 30
0.0
 10
-30.80438258932763
 20
6.22526046940996
 30
0.0
 10
-30.80049506688288
 20
6.225621460620345
 30
0.0
 10
-30.79752548808919
 20
6.225893536727085
 30
0.0
 10
-30.79658086305719
 20
6.225979712518181
 30
0.0
  0
SPLINE
  5
93
330
2
100
AcDbEntity
  8
GAIKEI
  6
Continuous
 62
     7
100
AcDbSpline
210
0.0
220
0.0
230
1.0
 70
     8
 71
     3
 72
    76
 73
    72
 74
     0
 42
0.0000000001
 43
0.0000000001
 40
0.5945356414190025
 40
0.5945356414190025
 40
0.5945356414190025
 40
0.5945356414190025
 40
0.5959165807267567
 40
0.6016757000353861
 40
0.6081509945019083
 40
0.6145533469407522
 40
0.6206876774308646
 40
0.6260420780753123
 40
0.6305246264148633
 40
0.6331053541986478
 40
0.6363094799206569
 40
0.6404961064050652
 40
0.6456656054980611
 40
0.651818434885398
 40
0.658315064799127
 40
0.6641323237176607
 40
0.6704166564388618
 40
0.6758279913600611
 40
0.6805975356736297
 40
0.6847252116329883
 40
0.6869911106344332
 40
0.6894151420969103
 40
0.6924781874252966
 40
0.6961811299047554
 40
0.7005241835046654
 40
0.7065514483737338
 40
0.7116795578665432
 40
0.7157845732158876
 40
0.7188954495003915
 40
0.7219162373602235
 40
0.725274174636577
 40
0.7289693624578176
 40
0.7347039065585249
 40
0.7408129720708141
 40
0.7471387679525163
 40
0.7531756804392681
 40
0.7584122171347544
 40
0.7614071254752216
 40
0.7641038409099613
 40
0.7673538324342532
 40
0.7714803307356778
 40
0.7764836547125153
 40
0.7821283619408466
 40
0.7875027313658492
 40
0.791844946518588
 40
0.7951553503607687
 40
0.7981177287226623
 40
0.8013315247293268
 40
0.805920375993551
 40
0.8109447292197867
 40
0.8165300201796734
 40
0.8220410936758534
 40
0.8276737125311779
 40
0.8325750845809489
 40
0.8367115732907253
 40
0.8400836235396198
 40
0.8435582827767921
 40
0.8479089829990684
 40
0.8531360525887864
 40
0.8591706962345201
 40
0.8648588202152181
 40
0.8697893406890205
 40
0.8740892034517468
 40
0.8772695977629204
 40
0.8802896840374401
 40
0.8831494203899254
 40
0.8858623405637253
 40
0.8891051951277258
 40
0.8932552256150113
 40
0.9024058339596837
 40
0.9066742980934986
 40
0.9066742980934986
 40
0.9066742980934986
 40
0.9066742980934986
 10
-3.056253002075862
 20
6.199678997008476
 30
0.0
 10
-3.056556462296668
 20
6.199724652345338
 30
0.0
 10
-3.058125515546947
 20
6.199960500803854
 30
0.0
 10
-3.069964260520009
 20
6.201826785524332
 30
0.0
 10
-3.074060901732607
 20
6.202434726171816
 30
0.0
 10
-3.078240786164002
 20
6.203049721173158
 30
0.0
 10
-3.082174930935053
 20
6.203623715032165
 30
0.0
 10
-3.085687484825314
 20
6.204132242386265
 30
0.0
 10
-3.088418868532812
 20
6.20452504697053
 30
0.0
 10
-3.090677498167622
 20
6.20484830503932
 30
0.0
 10
-3.092871204226256
 20
6.205161032095958
 30
0.0
 10
-3.095634712670147
 20
6.205552996015285
 30
0.0
 10
-3.099047426626555
 20
6.206033930133799
 30
0.0
 10
-3.102969046799103
 20
6.20658226331642
 30
0.0
 10
-3.107033908481383
 20
6.207145633920049
 30
0.0
 10
-3.111128377568931
 20
6.207708223533018
 30
0.0
 10
-3.11498452108762
 20
6.208233553789767
 30
0.0
 10
-3.118610515014069
 20
6.208723436667753
 30
0.0
 10
-3.121761975417115
 20
6.209146116414473
 30
0.0
 10
-3.124220929792784
 20
6.209473810338806
 30
0.0
 10
-3.126163382506859
 20
6.209731478475106
 30
0.0
 10
-3.127871405224652
 20
6.209957279695572
 30
0.0
 10
-3.129896154782656
 20
6.210223885740646
 30
0.0
 10
-3.132343909422061
 20
6.210544601782771
 30
0.0
 10
-3.135445104285608
 20
6.210948543542031
 30
0.0
 10
-3.138860783092454
 20
6.21139005776888
 30
0.0
 10
-3.142224454703367
 20
6.211821263874043
 30
0.0
 10
-3.144945601663494
 20
6.21216770387025
 30
0.0
 10
-3.147202398475172
 20
6.212453473229345
 30
0.0
 10
-3.149294645047916
 20
6.212717184280023
 30
0.0
 10
-3.151515886299819
 20
6.212995805565583
 30
0.0
 10
-3.154335728530995
 20
6.213347621010427
 30
0.0
 10
-3.157762605484805
 20
6.213772102604423
 30
0.0
 10
-3.161770175331511
 20
6.214264010554757
 30
0.0
 10
-3.16584501544122
 20
6.21475937534214
 30
0.0
 10
-3.16972791856304
 20
6.215226866142472
 30
0.0
 10
-3.172876327464507
 20
6.215602573022522
 30
0.0
 10
-3.175287918833987
 20
6.215888480757485
 30
0.0
 10
-3.17726124931822
 20
6.216121371187369
 30
0.0
 10
-3.179484455787786
 20
6.216382505892852
 30
0.0
 10
-3.182216961597589
 20
6.21670156413964
 30
0.0
 10
-3.185478357183356
 20
6.217079576240763
 30
0.0
 10
-3.189015616691762
 20
6.217486022418484
 30
0.0
 10
-3.192407319508319
 20
6.217872234988647
 30
0.0
 10
-3.195283912149037
 20
6.218197170924611
 30
0.0
 10
-3.197628080685191
 20
6.218460284154133
 30
0.0
 10
-3.199723190214456
 20
6.218694212006056
 30
0.0
 10
-3.20210079586397
 20
6.218958307486758
 30
0.0
 10
-3.204934043665176
 20
6.219270946387268
 30
0.0
 10
-3.2082914385023
 20
6.219638406949428
 30
0.0
 10
-3.211852935084323
 20
6.220024678143687
 30
0.0
 10
-3.215549221915779
 20
6.220421742459052
 30
0.0
 10
-3.219094785378302
 20
6.220798933242178
 30
0.0
 10
-3.222336932300493
 20
6.221140665759804
 30
0.0
 10
-3.225079737360374
 20
6.221427460249145
 30
0.0
 10
-3.227507388749373
 20
6.221679607519945
 30
0.0
 10
-3.229982549354019
 20
6.221935114324082
 30
0.0
 10
-3.232867971162818
 20
6.222230874118224
 30
0.0
 10
-3.236319623376317
 20
6.222581604749109
 30
0.0
 10
-3.240067350285102
 20
6.222958505575263
 30
0.0
 10
-3.243749904218972
 20
6.223324851244484
 30
0.0
 10
-3.247049162653752
 20
6.22364982164737
 30
0.0
 10
-3.249794059231831
 20
6.223917843503755
 30
0.0
 10
-3.252116579101226
 20
6.224143015790019
 30
0.0
 10
-3.254120674457738
 20
6.224336167162732
 30
0.0
 10
-3.256021464178502
 20
6.224518328943304
 30
0.0
 10
-3.257971627294239
 20
6.22470421809524
 30
0.0
 10
-3.260207344581033
 20
6.22491609604026
 30
0.0
 10
-3.263867511936211
 20
6.22526046940996
 30
0.0
 10
-3.267755034380968
 20
6.225621460620345
 30
0.0
 10
-3.270724613174664
 20
6.225893536727085
 30
0.0
 10
-3.271669238206669
 20
6.225979712518181
 30
0.0
  0
SPLINE
  5
94
330
2
100
AcDbEntity
  8
GAIKEI
  6
Continuous
 62
     1
100
AcDbSpline
210
0.0
220
0.0
230
1.0
 70
     8
 71
     3
 72
     9
 73
     5
 74
     3
 42
0.0000000001
 43
0.0000000001
 44
0.000001
 12
0.0096833005156213
 22
0.9999531157464954
 32
0.0
 13
0.0098274933994327
 23
0.9999517090207328
 33
0.0
 40
0.0
 40
0.0
 40
0.0
 40
0.0
 40
0.2438102910767078
 40
0.4547638037858707
 40
0.4547638037858707
 40
0.4547638037858707
 40
0.4547638037858707
 10
34.86680727099231
 20
8.108127637885559
 30
0.0
 10
34.86759423376475
 20
8.189393924623288
 30
0.0
 10
34.86906796457957
 20
8.34097469545577
 30
0.0
 10
34.87055262434423
 20
8.49255535958153
 30
0.0
 10
34.87124367242881
 20
8.562869801434004
 30
0.0
 11
34.86680727099231
 21
8.108127637885559
 31
0.0
 11
34.86917758324353
 21
8.35192640666284
 31
0.0
 11
34.87124367242881
 21
8.562869801434004
 31
0.0
  0
SPLINE
  5
95
330
2
100
AcDbEntity
  8
GAIKEI
  6
Continuous
 62
     7
100
AcDbSpline
210
0.0
220
0.0
230
1.0
 70
     8
 71
     3
 72
    20
 73
    16
 74
    14
 42
0.0000000001
 43
0.0000000001
 44
0.000001
 12
0.0375702838111102
 22
-0.9992939876604646
 32
0.0
 13
0.9999998973401041
 23
-0.0004531222588228
 33
0.0
 40
0.0
 40
0.0
 40
0.0
 40
0.0
 40
0.0087710030945687
 40
0.0152847746117314
 40
0.0203812642987796
 40
0.022342634025429
 40
0.0232083900212653
 40
0.0241628483565895
 40
0.0263873783282549
 40
0.0290302157646861
 40
0.0320826020231456
 40
0.0355272046738385
 40
0.0406770676498988
 40
0.046368895627213
 40
0.0524594032405983
 40
0.0524594032405983
 40
0.0524594032405983
 40
0.0524594032405983
 10
26.34249306920921
 20
5.574794150061109
 30
0.0
 10
26.3426029122344
 20
5.571872546508387
 30
0.0
 10
26.34316202845733
 20
5.566749503141693
 30
0.0
 10
26.34561847534082
 20
5.560360193373014
 30
0.0
 10
26.34793295170883
 20
5.556454218319373
 30
0.0
 10
26.34951589425315
 20
5.554338051629457
 30
0.0
 10
26.35031290332951
 20
5.553361308592855
 30
0.0
 10
26.3511936141568
 20
5.552340264301136
 30
0.0
 10
26.35253086008143
 20
5.550931805776542
 30
0.0
 10
26.35448586959955
 20
5.549153730314003
 30
0.0
 10
26.35691077347479
 20
5.547302077414315
 30
0.0
 10
26.36021734386387
 20
5.545255385647976
 30
0.0
 10
26.36457424401216
 20
5.543283934590533
 30
0.0
 10
26.37004908602556
 20
5.541810714003901
 30
0.0
 10
26.3739860096037
 20
5.541461736642986
 30
0.0
 10
26.37601617859974
 20
5.541460816728118
 30
0.0
 11
26.34249306920921
 21
5.574794150061109
 31
0.0
 11
26.34366617311441
 21
5.566101712317703
 31
0.0
 11
26.34597117519344
 21
5.560009296144897
 31
0.0
 11
26.34857435084979
 21
5.555627704231341
 31
0.0
 11
26.3497488735606
 21
5.554056860258157
 31
0.0
 11
26.35029624266099
 21
5.553386087486956
 31
0.0
 11
26.35091965645071
 21
5.552663339505471
 31
0.0
 11
26.35245139765628
 21
5.551050142969188
 31
0.0
 11
26.35440660317849
 21
5.549271970398876
 31
0.0
 11
26.35683258467203
 21
5.547419445600098
 31
0.0
 11
26.35976153247849
 21
5.54560650483603
 31
0.0
 11
26.36445315394202
 21
5.543482780604222
 31
0.0
 11
26.36994915680296
 21
5.542002496482666
 31
0.0
 11
26.37601617859974
 21
5.541460816728118
 31
0.0
  0
SPLINE
  5
96
330
2
100
AcDbEntity
  8
GAIKEI
  6
Continuous
 62
     7
100
AcDbSpline
210
0.0
220
0.0
230
1.0
 70
     8
 71
     3
 72
    40
 73
    36
 74
    34
 42
0.0000000001
 43
0.0000000001
 44
0.000001
 12
-0.9958990532100388
 22
-0.0904714088281377
 32
0.0
 13
-0.9378502777597823
 23
-0.3470401367362268
 33
0.0
 40
0.0
 40
0.0
 40
0.0
 40
0.0
 40
0.0036535735529337
 40
0.0077631485145847
 40
0.0121372051481132
 40
0.0155972128163962
 40
0.0192143014035521
 40
0.0229906626653432
 40
0.0269274927297237
 40
0.0312409298418703
 40
0.0356513903666887
 40
0.0401426270381108
 40
0.0447146766306505
 40
0.059610474907583
 40
0.0735860955048492
 40
0.0882001695297173
 40
0.0994512531490489
 40
0.1123685051346386
 40
0.1269870704383409
 40
0.1433105556038757
 40
0.1613430104289748
 40
0.1823408434137733
 40
0.2052721371139236
 40
0.2301435241544333
 40
0.2569623195690778
 40
0.2857365567269793
 40
0.316475024909801
 40
0.3491873084875879
 40
0.3838838277133107
 40
0.4223730669467666
 40
0.463066497382768
 40
0.5059793680913015
 40
0.5511281652366347
 40
0.5985307519526466
 40
0.6437588077113059
 40
0.6437588077113059
 40
0.6437588077113059
 40
0.6437588077113059
 10
26.99055840546328
 20
5.943412209985183
 30
0.0
 10
26.98934554198255
 20
5.943302028669648
 30
0.0
 10
26.98676862252308
 20
5.943065877096955
 30
0.0
 10
26.98274039306247
 20
5.942689903817864
 30
0.0
 10
26.9787770900586
 20
5.94231266774949
 30
0.0
 10
26.9749778311062
 20
5.941944538244854
 30
0.0
 10
26.97137740411795
 20
5.941590204707836
 30
0.0
 10
26.96761942649928
 20
5.941213994536838
 30
0.0
 10
26.96363117150629
 20
5.940807884959468
 30
0.0
 10
26.95943338600879
 20
5.940373069414761
 30
0.0
 10
26.95505264228953
 20
5.939910980098346
 30
0.0
 10
26.95058707812196
 20
5.939431311959253
 30
0.0
 10
26.94264806599395
 20
5.938562920800336
 30
0.0
 10
26.93157140917096
 20
5.937304525347457
 30
0.0
 10
26.9171791792707
 20
5.935579469223768
 30
0.0
 10
26.90400307977977
 20
5.933918711097078
 30
0.0
 10
26.89118612215722
 20
5.932231630731962
 30
0.0
 10
26.87837647301258
 20
5.930478697791699
 30
0.0
 10
26.86390340027853
 20
5.928412185820604
 30
0.0
 10
26.84775775208058
 20
5.925999198214981
 30
0.0
 10
26.82952918535057
 20
5.923140055090129
 30
0.0
 10
26.80915141299121
 20
5.919772645113482
 30
0.0
 10
26.78655970660543
 20
5.915825943553386
 30
0.0
 10
26.76210035759651
 20
5.911301621456232
 30
0.0
 10
26.73577955629816
 20
5.906140576055349
 30
0.0
 10
26.70760491250866
 20
5.900279381141444
 30
0.0
 10
26.67758565802424
 20
5.893650336124039
 30
0.0
 10
26.64573285204546
 20
5.886181515989676
 30
0.0
 10
26.61147830003319
 20
5.87765207964864
 30
0.0
 10
26.57478177865338
 20
5.867934912484827
 30
0.0
 10
26.53560853839144
 20
5.856890754167807
 30
0.0
 10
26.49449910938706
 20
5.844554595835404
 30
0.0
 10
26.45148134904474
 20
5.830819838360184
 30
0.0
 10
26.40799103601077
 20
5.816052570183956
 30
0.0
 10
26.37893745807048
 20
5.80559368314033
 30
0.0
 10
26.36479840985189
 20
5.800361699588734
 30
0.0
 11
26.99055840546328
 21
5.943412209985183
 31
0.0
 11
26.98692005749274
 21
5.943078795768059
 31
0.0
 11
26.98282819836399
 21
5.942696909057644
 31
0.0
 11
26.97847371578418
 21
5.942282303386946
 31
0.0
 11
26.97502973016375
 21
5.941948377335677
 31
0.0
 11
26.97142990590783
 21
5.941593703241863
 31
0.0
 11
26.96767228373636
 21
5.941217398923328
 31
0.0
 11
26.96375569907019
 21
5.940818638976026
 31
0.0
 11
26.95946518241186
 21
5.940374213528173
 31
0.0
 11
26.95507901429618
 21
5.939911586411682
 31
0.0
 11
26.95061342889767
 21
5.939431945949195
 31
0.0
 11
26.94606845466133
 21
5.938934834250602
 31
0.0
 11
26.93126777182309
 21
5.937253500076366
 31
0.0
 11
26.91739141059563
 21
5.935590384852275
 31
0.0
 11
26.90289200707213
 21
5.933762941096802
 31
0.0
 11
26.89173711424891
 21
5.932294697424083
 31
0.0
 11
26.87893910802794
 21
5.930543428512351
 31
0.0
 11
26.86446728886782
 21
5.928477178030931
 31
0.0
 11
26.84832307637123
 21
5.926064500154808
 31
0.0
 11
26.83050839898016
 21
5.923270385322325
 31
0.0
 11
26.80979148975885
 21
5.919847081240959
 31
0.0
 11
26.78720226995149
 21
5.915900988962562
 31
0.0
 11
26.76274571387464
 21
5.911377390134589
 31
0.0
 11
26.73642803257982
 21
5.906217200174666
 31
0.0
 11
26.70825685933713
 21
5.90035701335023
 31
0.0
 11
26.67824144837783
 21
5.893729151104452
 31
0.0
 11
26.64639288680944
 21
5.886261713545053
 31
0.0
 11
26.61272431963721
 21
5.87787863400419
 31
0.0
 11
26.5755172745591
 21
5.868026865755894
 31
0.0
 11
26.53635049151012
 21
5.856985197588528
 31
0.0
 11
26.49524813178216
 21
5.84465188432992
 31
0.0
 11
26.45223810982691
 21
5.830920466825318
 31
0.0
 11
26.40735246177914
 21
5.815679858352268
 31
0.0
 11
26.36479840985189
 21
5.800361699588734
 31
0.0
  0
SPLINE
  5
97
330
2
100
AcDbEntity
  8
GAIKEI
  6
Continuous
 62
     7
100
AcDbSpline
210
0.0
220
0.0
230
1.0
 70
     8
 71
     3
 72
    15
 73
    11
 74
     9
 42
0.0000000001
 43
0.0000000001
 44
0.000001
 12
-0.941736455804185
 22
-0.3363516728208325
 32
0.0
 13
-0.0368850462764439
 23
-0.9993195151507773
 33
0.0
 40
0.0
 40
0.0
 40
0.0
 40
0.0
 40
0.0031807591440213
 40
0.0069038606822554
 40
0.0111817663841129
 40
0.0160019266135542
 40
0.0213353451303286
 40
0.0271356242069754
 40
0.0332902910296499
 40
0.0396629716228821
 40
0.0396629716228821
 40
0.0396629716228821
 40
0.0396629716228821
 10
26.36469277914343
 20
5.80030209600423
 30
0.0
 10
26.36369430019575
 20
5.799945478117933
 30
0.0
 10
26.36156359709655
 20
5.799064815888073
 30
0.0
 10
26.35828297199072
 20
5.797279079858327
 30
0.0
 10
26.35479281166118
 20
5.794793231680699
 30
0.0
 10
26.35126045284776
 20
5.791504579779342
 30
0.0
 10
26.34794955414908
 20
5.787312283641966
 30
0.0
 10
26.34519239847487
 20
5.782217565203552
 30
0.0
 10
26.34326738960799
 20
5.776384930873803
 30
0.0
 10
26.34272411298389
 20
5.772214482437732
 30
0.0
 10
26.34264576077768
 20
5.770091701077518
 30
0.0
 11
26.36469277914343
 21
5.80030209600423
 31
0.0
 11
26.36175247848989
 21
5.799087464980033
 31
0.0
 11
26.35848158930605
 21
5.79730900464321
 31
0.0
 11
26.35499480957147
 21
5.794830545798333
 31
0.0
 11
26.35147047052794
 21
5.791542261576211
 31
0.0
 11
26.3481683735038
 21
5.787353986149895
 31
0.0
 11
26.34540130033578
 21
5.782256263102169
 31
0.0
 11
26.34347590764708
 21
5.776410504275332
 31
0.0
 11
26.34264576077768
 21
5.770091701077518
 31
0.0
  0
SPLINE
  5
98
330
2
100
AcDbEntity
  8
GAIKEI
  6
Continuous
 62
     7
100
AcDbSpline
210
0.0
220
0.0
230
1.0
 70
     8
 71
     3
 72
     9
 73
     5
 74
     3
 42
0.0000000001
 43
0.0000000001
 44
0.000001
 12
-0.9999997327675455
 22
-0.0007310710211262
 32
0.0
 13
-0.9999936511405856
 23
-0.0035633802100141
 33
0.0
 40
0.0
 40
0.0
 40
0.0
 40
0.0
 40
0.1951745889755305
 40
0.3141007947577894
 40
0.3141007947577894
 40
0.3141007947577894
 40
0.3141007947577894
 10
33.6329049846448
 20
6.240888023290779
 30
0.0
 10
33.56784680570529
 20
6.240840461128755
 30
0.0
 10
33.46314660793438
 20
6.240671785059021
 30
0.0
 10
33.35844680499534
 20
6.240354837372194
 30
0.0
 10
33.31880498808317
 20
6.240213577609495
 30
0.0
 11
33.6329049846448
 21
6.240888023290779
 31
0.0
 11
33.43773064471907
 21
6.24057358997021
 31
0.0
 11
33.31880498808317
 21
6.240213577609495
 31
0.0
  0
SPLINE
  5
99
330
2
100
AcDbEntity
  8
GAIKEI
  6
Continuous
 62
     7
100
AcDbSpline
210
0.0
220
0.0
230
1.0
 70
     8
 71
     3
 72
     9
 73
     5
 74
     0
 42
0.0000000001
 43
0.0000000001
 40
0.2134121860485691
 40
0.2134121860485691
 40
0.2134121860485691
 40
0.2134121860485691
 40
0.2280356864368866
 40
0.2686579059324698
 40
0.2686579059324698
 40
0.2686579059324698
 40
0.2686579059324698
 10
34.12601617512982
 20
6.493700739637944
 30
0.0
 10
34.12640384237855
 20
6.496927717410017
 30
0.0
 10
34.12770461640423
 20
6.509136936795357
 30
0.0
 10
34.12831374761021
 20
6.521405591441691
 30
0.0
 10
34.12882668162523
 20
6.530418166785949
 30
0.0
  0
SPLINE
  5
9A
330
2
100
AcDbEntity
  8
GAIKEI
  6
Continuous
 62
     1
100
AcDbSpline
210
0.0
220
0.0
230
1.0
 70
     8
 71
     3
 72
     9
 73
     5
 74
     3
 42
0.0000000001
 43
0.0000000001
 44
0.000001
 12
0.8389435103257364
 22
0.5442185098674345
 32
0.0
 13
0.9803098334115006
 23
0.1974655172852111
 33
0.0
 40
0.0
 40
0.0
 40
0.0
 40
0.0
 40
0.000812478489826
 40
0.0008216891675491
 40
0.0008216891675491
 40
0.0008216891675491
 40
0.0008216891675491
 10
34.16300918785683
 20
7.509290559708915
 30
0.0
 10
34.16323639570894
 20
7.509437948319913
 30
0.0
 10
34.16349752659366
 20
7.509547903690048
 30
0.0
 10
34.163765884565
 20
7.509602596336662
 30
0.0
 10
34.16376889433765
 20
7.509603202600402
 30
0.0
 11
34.16300918785683
 21
7.509290559708915
 31
0.0
 11
34.16375987038404
 21
7.509601364840477
 31
0.0
 11
34.16376889433765
 21
7.509603202600402
 31
0.0
  0
SPLINE
  5
9B
330
2
100
AcDbEntity
  8
GAIKEI
  6
Continuous
 62
     7
100
AcDbSpline
210
0.0
220
0.0
230
1.0
 70
     8
 71
     3
 72
     9
 73
     5
 74
     3
 42
0.0000000001
 43
0.0000000001
 44
0.000001
 12
0.9488571992817661
 22
0.3157055833702703
 32
0.0
 13
0.9830643703979477
 23
0.1832605894732606
 33
0.0
 40
0.0
 40
0.0
 40
0.0
 40
0.0
 40
0.0042989760078233
 40
0.0045934833325713
 40
0.0045934833325713
 40
0.0045934833325713
 40
0.0045934833325713
 10
34.18579644374816
 20
7.539747710231068
 30
0.0
 10
34.18715614852634
 20
7.54020011380723
 30
0.0
 10
34.18864279172921
 20
7.540591614752827
 30
0.0
 10
34.19014668920885
 20
7.540878866271583
 30
0.0
 10
34.19024319576144
 20
7.54089685680023
 30
0.0
 11
34.18579644374816
 21
7.539747710231068
 31
0.0
 11
34.18995394848614
 21
7.540841620092351
 31
0.0
 11
34.19024319576144
 21
7.54089685680023
 31
0.0
  0
SPLINE
  5
9C
330
2
100
AcDbEntity
  8
GAIKEI
  6
Continuous
 62
     7
100
AcDbSpline
210
0.0
220
0.0
230
1.0
 70
     8
 71
     3
 72
    11
 73
     7
 74
     5
 42
0.0000000001
 43
0.0000000001
 44
0.000001
 12
0.046221852924241
 22
0.9989311989883237
 32
0.0
 13
0.6579386959046662
 23
0.7530714922444397
 33
0.0
 40
0.0
 40
0.0
 40
0.0
 40
0.0
 40
0.0059510985732074
 40
0.0123450630769256
 40
0.0187337089107909
 40
0.0223828629788705
 40
0.0223828629788705
 40
0.0223828629788705
 40
0.0223828629788705
 10
34.16302877797844
 20
7.509729713400616
 30
0.0
 10
34.16312046824611
 20
7.511711292744962
 30
0.0
 10
34.1636757689118
 20
7.515815830038803
 30
0.0
 10
34.16569270965779
 20
7.521765469838925
 30
0.0
 10
34.1684062495971
 20
7.526562816566865
 30
0.0
 10
34.17047307138196
 20
7.5292025130951
 30
0.0
 10
34.17127337793819
 20
7.53011853772827
 30
0.0
 11
34.16302877797844
 21
7.509729713400616
 31
0.0
 11
34.16383481000475
 21
7.515626364915505
 31
0.0
 11
34.16587626774813
 21
7.521685712705874
 31
0.0
 11
34.16902358945745
 21
7.527245376649403
 31
0.0
 11
34.17127337793819
 21
7.53011853772827
 31
0.0
  0
SPLINE
  5
9D
330
2
100
AcDbEntity
  8
GAIKEI
  6
Continuous
 62
     7
100
AcDbSpline
210
0.0
220
0.0
230
1.0
 70
     8
 71
     3
 72
     9
 73
     5
 74
     3
 42
0.0000000001
 43
0.0000000001
 44
0.000001
 12
-0.9994373265222707
 22
-0.0335414721503993
 32
0.0
 13
-0.9999882989272471
 23
-0.004837562257071
 33
0.0
 40
0.0
 40
0.0
 40
0.0
 40
0.0
 40
0.0022254937516746
 40
0.0083671856293246
 40
0.0083671856293246
 40
0.0083671856293246
 40
0.0083671856293246
 10
33.83737444229024
 20
6.241048902230204
 30
0.0
 10
33.83663302844845
 20
6.241024020117976
 30
0.0
 10
33.83384518634981
 20
6.240941116623702
 30
0.0
 10
33.83105617251619
 20
6.24089823605982
 30
0.0
 10
33.82900896584509
 20
6.240888332454204
 30
0.0
 11
33.83737444229024
 21
6.241048902230204
 31
0.0
 11
33.83514994732472
 21
6.240982749269591
 31
0.0
 11
33.82900896584509
 21
6.240888332454204
 31
0.0
  0
SPLINE
  5
9E
330
2
100
AcDbEntity
  8
GAIKEI
  6
Continuous
 62
     7
100
AcDbSpline
210
0.0
220
0.0
230
1.0
 70
     8
 71
     3
 72
     9
 73
     5
 74
     3
 42
0.0000000001
 43
0.0000000001
 44
0.000001
 12
-0.9943785694130362
 22
0.1058832408461503
 32
0.0
 13
-0.9960817354454182
 23
0.0884374146616933
 33
0.0
 40
0.0
 40
0.0
 40
0.0
 40
0.0
 40
0.1838868566323029
 40
0.3239806565975433
 40
0.3239806565975433
 40
0.3239806565975433
 40
0.3239806565975433
 10
39.17537800397395
 20
6.136058188013578
 30
0.0
 10
39.11442695416332
 20
6.142548366789981
 30
0.0
 10
39.00698277324061
 20
6.153448943682832
 30
0.0
 10
38.89944830059666
 20
6.163407337290948
 30
0.0
 10
38.85293334213182
 20
6.167537181783956
 30
0.0
 11
39.17537800397395
 21
6.136058188013578
 31
0.0
 11
38.99243016046737
 21
6.154618896120382
 31
0.0
 11
38.85293334213182
 21
6.167537181783956
 31
0.0
  0
SPLINE
  5
9F
330
2
100
AcDbEntity
  8
GAIKEI
  6
Continuous
 62
     7
100
AcDbSpline
210
0.0
220
0.0
230
1.0
 70
     8
 71
     3
 72
     9
 73
     5
 74
     3
 42
0.0000000001
 43
0.0000000001
 44
0.000001
 12
-0.9919627158342894
 22
0.1265305117142127
 32
0.0
 13
-0.9934683273878295
 23
0.1141082051266624
 33
0.0
 40
0.0
 40
0.0
 40
0.0
 40
0.0
 40
0.1955461372938746
 40
0.2345878985858467
 40
0.2345878985858467
 40
0.2345878985858467
 40
0.2345878985858467
 10
39.56406449759247
 20
6.090594364890421
 30
0.0
 10
39.49940633845216
 20
6.098841882495605
 30
0.0
 10
39.42178630450076
 20
6.108331639603761
 30
0.0
 10
39.34411044373603
 20
6.117335330083761
 30
0.0
 10
39.33118152597302
 20
6.118820325185765
 30
0.0
 11
39.56406449759247
 21
6.090594364890421
 31
0.0
 11
39.36996356080698
 21
6.11432496130044
 31
0.0
 11
39.33118152597302
 21
6.118820325185765
 31
0.0
  0
SPLINE
  5
A0
330
2
100
AcDbEntity
  8
GAIKEI
  6
Continuous
 62
     7
100
AcDbSpline
210
0.0
220
0.0
230
1.0
 70
     8
 71
     3
 72
    21
 73
    17
 74
    15
 42
0.0000000001
 43
0.0000000001
 44
0.000001
 12
-0.988666530105401
 22
0.150128252668665
 32
0.0
 13
-0.9919586989179512
 23
0.1265619991980431
 33
0.0
 40
0.0
 40
0.0
 40
0.0
 40
0.0
 40
0.0025995944705029
 40
0.0235782947926213
 40
0.0470708285615813
 40
0.0729681757884903
 40
0.1011605654918632
 40
0.1315360749334097
 40
0.1639638854878039
 40
0.198303459573182
 40
0.2344142041363284
 40
0.272152247468525
 40
0.3113605202488593
 40
0.3518785562613336
 40
0.3935431134890022
 40
0.4361881959953752
 40
0.4361881959953752
 40
0.4361881959953752
 40
0.4361881959953752
 10
39.99608622514033
 20
6.030521736909975
 30
0.0
 10
39.99522951445872
 20
6.03065182776848
 30
0.0
 10
39.98745907089729
 20
6.031831179862479
 30
0.0
 10
39.97194431143173
 20
6.034171533639351
 30
0.0
 10
39.94874466114841
 20
6.037631262815523
 30
0.0
 10
39.92316081593964
 20
6.04140567224266
 30
0.0
 10
39.89530058653482
 20
6.045469781209675
 30
0.0
 10
39.86527915681927
 20
6.049798633088897
 30
0.0
 10
39.83322192458576
 20
6.0543660989334
 30
0.0
 10
39.7992638013463
 20
6.059144906038227
 30
0.0
 10
39.76354402110658
 20
6.06410709748053
 30
0.0
 10
39.72620730912654
 20
6.069223989652783
 30
0.0
 10
39.68740505660658
 20
6.07446653299425
 30
0.0
 10
39.6472950274201
 20
6.079804368436754
 30
0.0
 10
39.6060381814322
 20
6.085208342041426
 30
0.0
 10
39.57816469789354
 20
6.088794577367821
 30
0.0
 10
39.56406397770745
 20
6.090593659667149
 30
0.0
 11
39.99608622514033
 21
6.030521736909975
 31
0.0
 11
39.99351605328327
 21
6.030911749039546
 31
0.0
 11
39.97277190604406
 21
6.034040075499916
 31
0.0
 11
39.94953649079497
 21
6.037506280642276
 31
0.0
 11
39.92391651319737
 21
6.041286399822354
 31
0.0
 11
39.89601945025718
 21
6.045356371794895
 31
0.0
 11
39.86595493708063
 21
6.049691872877502
 31
0.0
 11
39.83385139363259
 21
6.054266294999706
 31
0.0
 11
39.79984691286147
 21
6.059051853780829
 31
0.0
 11
39.76407966774303
 21
6.064020755112267
 31
0.0
 11
39.72669111705494
 21
6.069144827281462
 31
0.0
 11
39.68783586406344
 21
6.074394388002588
 31
0.0
 11
39.64767192004703
 21
6.079739363364524
 31
0.0
 11
39.60636009095178
 21
6.0851493589237
 31
0.0
 11
39.56406397770745
 21
6.090593659667149
 31
0.0
  0
SPLINE
  5
A1
330
2
100
AcDbEntity
  8
GAIKEI
  6
Continuous
 62
     7
100
AcDbSpline
210
0.0
220
0.0
230
1.0
 70
     8
 71
     3
 72
    55
 73
    51
 74
    49
 42
0.0000000001
 43
0.0000000001
 44
0.000001
 12
-0.9497883122835927
 22
0.3128932115746273
 32
0.0
 13
-0.9886670672524823
 23
0.1501247152549358
 33
0.0
 40
0.0
 40
0.0
 40
0.0
 40
0.0
 40
0.0419009508188248
 40
0.0817922191866516
 40
0.119673651954911
 40
0.1555452646999814
 40
0.1894070627695612
 40
0.221259046343216
 40
0.2511012132304395
 40
0.2816062392032386
 40
0.3096793834998964
 40
0.3353206430087476
 40
0.3585300157428369
 40
0.3793075006698011
 40
0.3976530974289
 40
0.4135668060449419
 40
0.4271059773820551
 40
0.4402158094936565
 40
0.4538491238908117
 40
0.4821529719898085
 40
0.5124766153878638
 40
0.5223375490873769
 40
0.5313786084852003
 40
0.5395986930319427
 40
0.547022912971992
 40
0.5536869081408386
 40
0.5594465317585728
 40
0.5651659889374782
 40
0.5692637637921598
 40
0.5721246311583242
 40
0.5750993104424725
 40
0.5783303906926589
 40
0.5818376674503796
 40
0.5856636200332122
 40
0.5898503397734883
 40
0.5945509608009317
 40
0.599698772817381
 40
0.6053035024978387
 40
0.6113808080308515
 40
0.6177117776581735
 40
0.6235739819537124
 40
0.6288186070339661
 40
0.631858423522088
 40
0.6349509143518876
 40
0.6380938362371196
 40
0.6412848887395093
 40
0.6447185636560335
 40
0.6492994729371563
 40
0.6552797310617054
 40
0.6578191019481683
 40
0.6578191019481683
 40
0.6578191019481683
 40
0.6578191019481683
 10
40.63611323953009
 20
5.882233384438677
 30
0.0
 10
40.62284756174299
 20
5.886603558795258
 30
0.0
 10
40.59690193590768
 20
5.894981778941883
 30
0.0
 10
40.55880350172269
 20
5.906808866324581
 30
0.0
 10
40.52250478525002
 20
5.917646802757559
 30
0.0
 10
40.48802845654146
 20
5.927556293840694
 30
0.0
 10
40.45539455331971
 20
5.936594198431066
 30
0.0
 10
40.42462118695816
 20
5.944814623734004
 30
0.0
 10
40.39486192717295
 20
5.952491126999802
 30
0.0
 10
40.36626155102939
 20
5.959613185584203
 30
0.0
 10
40.33896568825916
 20
5.966174677874846
 30
0.0
 10
40.31399033739382
 20
5.971981327050883
 30
0.0
 10
40.29134855904293
 20
5.977083515025753
 30
0.0
 10
40.27105165323328
 20
5.98152697101861
 30
0.0
 10
40.25310931843927
 20
5.985352734075064
 30
0.0
 10
40.23751107256771
 20
5.988601014600504
 30
0.0
 10
40.22360970759758
 20
5.991436528161841
 30
0.0
 10
40.21044327334912
 20
5.994071291227839
 30
0.0
 10
40.19243768472843
 20
5.997604817100864
 30
0.0
 10
40.16877581904788
 20
6.002111276531252
 30
0.0
 10
40.14631545177349
 20
6.006201607326261
 30
0.0
 10
40.13015593203223
 20
6.009049548585011
 30
0.0
 10
40.12124815433646
 20
6.010594160621764
 30
0.0
 10
40.11313719317938
 20
6.011979764192147
 30
0.0
 10
40.10580447255015
 20
6.013215431575645
 30
0.0
 10
40.09927832210993
 20
6.014301781174395
 30
0.0
 10
40.09331104779279
 20
6.015284757815351
 30
0.0
 10
40.08818656678437
 20
6.016121142243122
 30
0.0
 10
40.08401494690535
 20
6.016797121297486
 30
0.0
 10
40.08074613156783
 20
6.017324641698849
 30
0.0
 10
40.07776229163313
 20
6.017804690660511
 30
0.0
 10
40.07456546380756
 20
6.018317385995601
 30
0.0
 10
40.07108817640133
 20
6.018873253444724
 30
0.0
 10
40.06729601947161
 20
6.019477419699569
 30
0.0
 10
40.06311067356469
 20
6.020141896188079
 30
0.0
 10
40.05848973773871
 20
6.020872809300215
 30
0.0
 10
40.05340144883478
 20
6.021674482034143
 30
0.0
 10
40.04785931704495
 20
6.022544141711364
 30
0.0
 10
40.04192698219874
 20
6.023471204967904
 30
0.0
 10
40.0359092610607
 20
6.024407732495262
 30
0.0
 10
40.03016527660347
 20
6.025298215958144
 30
0.0
 10
40.02550502528696
 20
6.026018256378449
 30
0.0
 10
40.0217569731993
 20
6.026595947509349
 30
0.0
 10
40.01870118728223
 20
6.027066104779066
 30
0.0
 10
40.01559544891523
 20
6.027543103657706
 30
0.0
 10
40.01237716892847
 20
6.028036509100559
 30
0.0
 10
40.0086849448246
 20
6.028601568378292
 30
0.0
 10
40.0040734399059
 20
6.02930566923186
 30
0.0
 10
39.99975641769609
 20
6.029963441341124
 30
0.0
 10
39.99694887232424
 20
6.030390743402961
 30
0.0
 10
39.9961120082019
 20
6.030517817513384
 30
0.0
 11
40.63611323953009
 21
5.882233384438677
 31
0.0
 11
40.59624012500592
 21
5.895111242378902
 31
0.0
 11
40.55814224432427
 21
5.906937675635589
 31
0.0
 11
40.52184426835987
 21
5.917775563134625
 31
0.0
 11
40.4873685100881
 21
5.927684884606776
 31
0.0
 11
40.45473509745167
 21
5.936722678897353
 31
0.0
 11
40.4239621370568
 21
5.944943004491307
 31
0.0
 11
40.3950658686989
 21
5.95239690225307
 31
0.0
 11
40.36546483244774
 21
5.959768147663623
 31
0.0
 11
40.33816924457592
 21
5.966329573768973
 31
0.0
 11
40.31319410480813
 21
5.972136172061794
 31
0.0
 11
40.29055248278949
 21
5.9772383223208
 31
0.0
 11
40.27025568940769
 21
5.98168175131596
 31
0.0
 11
40.25231343186706
 21
5.985507495431903
 31
0.0
 11
40.23673395251465
 21
5.98875186720943
 31
0.0
 11
40.22346793627557
 21
5.991457782310817
 31
0.0
 11
40.21061296676458
 21
5.994030224774803
 31
0.0
 11
40.19723490208519
 21
5.996655991485113
 31
0.0
 11
40.16943060411648
 21
6.001950218935689
 31
0.0
 11
40.13959740554637
 21
6.007381944009125
 31
0.0
 11
40.12988611256464
 21
6.009093319712178
 31
0.0
 11
40.12097798983321
 21
6.010638023722947
 31
0.0
 11
40.11287528851575
 21
6.012022230447911
 31
0.0
 11
40.10555429443288
 21
6.013255962522293
 31
0.0
 11
40.09898076497063
 21
6.014350288645516
 31
0.0
 11
40.0932977431685
 21
6.015286522782957
 31
0.0
 11
40.0876529971334
 21
6.016207956842549
 31
0.0
 11
40.08360800497705
 21
6.01686354963121
 31
0.0
 11
40.08078368261829
 21
6.017319365052117
 31
0.0
 11
40.07784677020157
 21
6.017791874254811
 31
0.0
 11
40.07465645970529
 21
6.018303539868611
 31
0.0
 11
40.07119315663485
 21
6.018857187687444
 31
0.0
 11
40.06741485769333
 21
6.019459163499789
 31
0.0
 11
40.0632799276388
 21
6.020115655103097
 31
0.0
 11
40.05863703105572
 21
6.02085006407475
 31
0.0
 11
40.05355194984376
 21
6.021651267172387
 31
0.0
 11
40.04801497979113
 21
6.02252015613979
 31
0.0
 11
40.04201055477117
 21
6.023458524621162
 31
0.0
 11
40.03575489301302
 21
6.024432119175429
 31
0.0
 11
40.029961892423
 21
6.025330225782852
 31
0.0
 11
40.02477877043689
 21
6.026131068143911
 31
0.0
 11
40.02177443044208
 21
6.026594132695436
 31
0.0
 11
40.01871790538622
 21
6.027064406601255
 31
0.0
 11
40.01561140880892
 21
6.027541523514884
 31
0.0
 11
40.01245721107461
 21
6.028025110534713
 31
0.0
 11
40.00906305143575
 21
6.028544541047239
 31
0.0
 11
40.00453463620246
 21
6.029236056093594
 31
0.0
 11
39.99862255195541
 21
6.030136351797722
 31
0.0
 11
39.9961120082019
 21
6.030517817513384
 31
0.0
  0
SPLINE
  5
A2
330
2
100
AcDbEntity
  8
GAIKEI
  6
Continuous
 62
     7
100
AcDbSpline
210
0.0
220
0.0
230
1.0
 70
     8
 71
     3
 72
     9
 73
     5
 74
     3
 42
0.0000000001
 43
0.0000000001
 44
0.000001
 12
0.9980486813378776
 22
0.0624406092196712
 32
0.0
 13
0.9981572409846727
 23
0.060680493322534
 33
0.0
 40
0.0
 40
0.0
 40
0.0
 40
0.0
 40
0.0652521494702796
 40
0.1310450556667753
 40
0.1310450556667753
 40
0.1310450556667753
 40
0.1310450556667753
 10
28.99310390540865
 20
6.095891594232966
 30
0.0
 10
29.01481217931973
 20
6.097249722221562
 30
0.0
 10
29.05840982724112
 20
6.099958092537093
 30
0.0
 10
29.10200984640643
 20
6.10262802045122
 30
0.0
 10
29.12390040164826
 20
6.103958802452922
 30
0.0
 11
28.99310390540865
 21
6.095891594232966
 31
0.0
 11
29.05823050969349
 21
6.099937385021149
 31
0.0
 11
29.12390040164826
 21
6.103958802452922
 31
0.0
  0
SPLINE
  5
A3
330
2
100
AcDbEntity
  8
GAIKEI
  6
Continuous
 62
     1
100
AcDbSpline
210
0.0
220
0.0
230
1.0
 70
     8
 71
     3
 72
    10
 73
     6
 74
     4
 42
0.0000000001
 43
0.0000000001
 44
0.000001
 12
0.9961239375191897
 22
0.0879607929776984
 32
0.0
 13
0.9961374570192043
 23
0.0878075550468923
 33
0.0
 40
0.0
 40
0.0
 40
0.0
 40
0.0
 40
0.0005122905249461
 40
0.0051807436517397
 40
0.0114379315553095
 40
0.0114379315553095
 40
0.0114379315553095
 40
0.0114379315553095
 10
27.09577374683588
 20
5.95279011761329
 30
0.0
 10
27.09594384845416
 20
5.952805138106896
 30
0.0
 10
27.09766406989937
 20
5.95295703295406
 30
0.0
 10
27.101461948544
 20
5.953292250733483
 30
0.0
 10
27.10508974851433
 20
5.953612187992348
 30
0.0
 10
27.10716742159644
 20
5.953795330782782
 30
0.0
 11
27.09577374683588
 21
5.95279011761329
 31
0.0
 11
27.09628405184596
 21
5.952835177336112
 31
0.0
 11
27.10093442547393
 21
5.953245640141005
 31
0.0
 11
27.10716742159644
 21
5.953795330782782
 31
0.0
  0
SPLINE
  5
A4
330
2
100
AcDbEntity
  8
GAIKEI
  6
Continuous
 62
     7
100
AcDbSpline
210
0.0
220
0.0
230
1.0
 70
     8
 71
     3
 72
    10
 73
     6
 74
     4
 42
0.0000000001
 43
0.0000000001
 44
0.000001
 12
-0.9960758402279875
 22
-0.0885037881342311
 32
0.0
 13
-0.9960624273377943
 23
-0.0886546154801955
 33
0.0
 40
0.0
 40
0.0
 40
0.0
 40
0.0
 40
0.0001451532166034
 40
0.006268400630391
 40
0.0095123308874415
 40
0.0095123308874415
 40
0.0095123308874415
 40
0.0095123308874415
 10
27.03883757137149
 20
5.947739470415513
 30
0.0
 10
27.03878937683409
 20
5.947735188212334
 30
0.0
 10
27.03670810955337
 20
5.947550260289915
 30
0.0
 10
27.03354978829788
 20
5.947269487375308
 30
0.0
 10
27.03043968259766
 20
5.946992760393698
 30
0.0
 10
27.02936263024901
 20
5.946896897263826
 30
0.0
 11
27.03883757137149
 21
5.947739470415513
 31
0.0
 11
27.03869298777323
 21
5.947726623649145
 31
0.0
 11
27.03259379494887
 21
5.94718440064642
 31
0.0
 11
27.02936263024901
 21
5.946896897263826
 31
0.0
  0
SPLINE
  5
A5
330
2
100
AcDbEntity
  8
GAIKEI
  6
Continuous
 62
     7
100
AcDbSpline
210
0.0
220
0.0
230
1.0
 70
     8
 71
     3
 72
    11
 73
     7
 74
     5
 42
0.0000000001
 43
0.0000000001
 44
0.000001
 12
-0.9958759832267631
 22
-0.0907250022437466
 32
0.0
 13
-0.9955323063466828
 23
-0.094421538962539
 33
0.0
 40
0.0
 40
0.0
 40
0.0
 40
0.0
 40
0.0007890827610967
 40
0.0020369645478261
 40
0.0028169991852797
 40
0.002935455920009
 40
0.002935455920009
 40
0.002935455920009
 40
0.002935455920009
 10
26.99319205429944
 20
5.943653714733756
 30
0.0
 10
26.99293011144259
 20
5.943629851555328
 30
0.0
 10
26.99225389298123
 20
5.943568585677354
 30
0.0
 10
26.99131873175885
 20
5.943483764553775
 30
0.0
 10
26.99060634702211
 20
5.943417516127908
 30
0.0
 10
26.99030818161694
 20
5.943389304012498
 30
0.0
 10
26.99026887244817
 20
5.943385575723425
 30
0.0
 11
26.99319205429944
 21
5.943653714733756
 31
0.0
 11
26.99240623550796
 21
5.943582027797447
 31
0.0
 11
26.99116355162232
 21
5.943468261716049
 31
0.0
 11
26.99038680352919
 21
5.94339672320973
 31
0.0
 11
26.99026887244817
 21
5.943385575723425
 31
0.0
  0
LINE
  5
A6
330
2
100
AcDbEntity
  8
GAIKEI
  6
Continuous
 62
     1
100
AcDbLine
 10
35.16916841714856
 20
8.108127483369742
 30
0.0
 11
35.16916841714856
 21
8.578482745279274
 31
0.0
  0
LINE
  5
A7
330
2
100
AcDbEntity
  8
GAIKEI
  6
Continuous
 62
     1
100
AcDbLine
 10
35.77414730641007
 20
8.610188345378588
 30
0.0
 11
35.77745652728514
 21
8.108127483369713
 31
0.0
  0
LINE
  5
A8
330
2
100
AcDbEntity
  8
GAIKEI
  6
Continuous
 62
     7
100
AcDbLine
 10
35.82443694448384
 20
8.108127483369713
 30
0.0
 11
35.81563548693086
 21
8.612362648786216
 31
0.0
  0
LINE
  5
A9
330
2
100
AcDbEntity
  8
GAIKEI
  6
Continuous
 62
     7
100
AcDbLine
 10
34.82070094737033
 20
8.560220339035481
 30
0.0
 11
34.81280967709006
 21
8.108127483369202
 31
0.0
  0
LINE
  5
AA
330
2
100
AcDbEntity
  8
GAIKEI
  6
Continuous
 62
     7
100
AcDbLine
 10
26.34249306920921
 20
5.57479415006108
 30
0.0
 11
26.33583113909772
 21
5.574794150061137
 31
0.0
  0
LINE
  5
AB
330
2
100
AcDbEntity
  8
GAIKEI
  6
Continuous
 62
     7
100
AcDbLine
 10
26.9932682108261
 20
5.94365685853657
 30
0.0
 11
26.99325978299163
 21
5.94365609541569
 31
0.0
  0
LINE
  5
AC
330
2
100
AcDbEntity
  8
GAIKEI
  6
Continuous
 62
     7
100
AcDbLine
 10
27.03833078941146
 20
5.947685598156397
 30
0.0
 11
27.02989889838105
 21
5.946934026488889
 31
0.0
  0
LINE
  5
AD
330
2
100
AcDbEntity
  8
GAIKEI
  6
Continuous
 62
     7
100
AcDbLine
 10
26.3422798474804
 20
5.574794150061137
 30
0.0
 11
26.33583113909772
 21
5.574794150061137
 31
0.0
  0
LINE
  5
AE
330
2
100
AcDbEntity
  8
GAIKEI
  6
Continuous
 62
     7
100
AcDbLine
 10
26.34265214762536
 20
5.770122468493838
 30
0.0
 11
26.33583113937009
 21
5.574794150061165
 31
0.0
  0
LINE
  5
AF
330
2
100
AcDbEntity
  8
GAIKEI
  6
Continuous
 62
     7
100
AcDbLine
 10
26.99055335519265
 20
5.943411750414611
 30
0.0
 11
26.99325734551718
 21
5.943655955997883
 31
0.0
  0
LINE
  5
B0
330
2
100
AcDbEntity
  8
GAIKEI
  6
Continuous
 62
     1
100
AcDbLine
 10
26.34264702944518
 20
5.770111365859122
 30
0.0
 11
26.34265180502368
 21
5.770112648471865
 31
0.0
  0
LINE
  5
B1
330
2
100
AcDbEntity
  8
GAIKEI
  6
Continuous
 62
     7
100
AcDbLine
 10
40.62913629157096
 20
5.541461704520713
 30
0.0
 11
26.37601617859974
 21
5.541460816728118
 31
0.0
  0
LINE
  5
B2
330
2
100
AcDbEntity
  8
GAIKEI
  6
Continuous
 62
     7
100
AcDbLine
 10
33.63290498495346
 20
6.240888016721299
 30
0.0
 11
33.82900229939736
 21
6.240888016721271
 31
0.0
  0
LINE
  5
B3
330
2
100
AcDbEntity
  8
GAIKEI
  6
Continuous
 62
     1
100
AcDbLine
 10
33.82900896352675
 20
6.240888017721289
 30
0.0
 11
33.82829180469358
 21
6.240883782454574
 31
0.0
  0
LINE
  5
B4
330
2
100
AcDbEntity
  8
GAIKEI
  6
Continuous
 62
     7
100
AcDbLine
 10
33.83872884074853
 20
6.241050399112282
 30
0.0
 11
33.83313252647643
 21
6.240917275413806
 31
0.0
  0
LINE
  5
B5
330
2
100
AcDbEntity
  8
GAIKEI
  6
Continuous
 62
     7
100
AcDbLine
 10
34.12882621049405
 20
6.530418195410476
 30
0.0
 11
34.16180453885684
 21
7.474793916709245
 31
0.0
  0
LINE
  5
B6
330
2
100
AcDbEntity
  8
GAIKEI
  6
Continuous
 62
     1
100
AcDbLine
 10
27.1011228762886
 20
5.953253585958208
 30
0.0
 11
27.09540772705064
 21
5.952748544584551
 31
0.0
  0
LINE
  5
B7
330
2
100
AcDbEntity
  8
GAIKEI
  6
Continuous
 62
     7
100
AcDbLine
 10
34.16180453845762
 20
7.474793907458092
 30
0.0
 11
34.16300919411855
 21
7.509290733505707
 31
0.0
  0
LINE
  5
B8
330
2
100
AcDbEntity
  8
GAIKEI
  6
Continuous
 62
     7
100
AcDbLine
 10
34.19024319576144
 20
7.54089685680023
 30
0.0
 11
34.19632221618984
 21
7.541460583375254
 31
0.0
  0
LINE
  5
B9
330
2
100
AcDbEntity
  8
GAIKEI
  6
Continuous
 62
     7
100
AcDbLine
 10
34.17192246259856
 20
7.530836121032081
 30
0.0
 11
34.17293526389156
 21
7.531878142445833
 31
0.0
  0
LINE
  5
BA
330
2
100
AcDbEntity
  8
GAIKEI
  6
Continuous
 62
     7
100
AcDbLine
 10
34.49530027445363
 20
7.541460583375254
 30
0.0
 11
34.19632221585651
 21
7.541460583375254
 31
0.0
  0
LINE
  5
BB
330
2
100
AcDbEntity
  8
GAIKEI
  6
Continuous
 62
     7
100
AcDbLine
 10
37.1979626601605
 20
6.240888016721299
 30
0.0
 11
36.92018054159776
 21
6.240888016721299
 31
0.0
  0
LINE
  5
BC
330
2
100
AcDbEntity
  8
GAIKEI
  6
Continuous
 62
     1
100
AcDbLine
 10
34.57988835867994
 20
8.10803746262141
 30
0.0
 11
34.57967583301971
 21
8.108107008946518
 31
0.0
  0
LINE
  5
BD
330
2
100
AcDbEntity
  8
GAIKEI
  6
Continuous
 62
     1
100
AcDbLine
 10
34.57967583301971
 20
8.108107008946518
 30
0.0
 11
34.57946802036246
 21
8.108129362515768
 31
0.0
  0
LINE
  5
BE
330
2
100
AcDbEntity
  8
GAIKEI
  6
Continuous
 62
     7
100
AcDbLine
 10
36.04064032887698
 20
8.10812704947628
 30
0.0
 11
34.57946802030773
 21
8.108127483369713
 31
0.0
  0
LINE
  5
BF
330
2
100
AcDbEntity
  8
GAIKEI
  6
Continuous
 62
     1
100
AcDbLine
 10
34.16301027984099
 20
7.509290859365336
 30
0.0
 11
34.16302877797844
 21
7.509729713400616
 31
0.0
  0
LINE
  5
C0
330
2
100
AcDbEntity
  8
GAIKEI
  6
Continuous
 62
     7
100
AcDbLine
 10
34.17127337793819
 20
7.53011853772827
 30
0.0
 11
34.17203857304173
 21
7.530962806196868
 31
0.0
  0
LINE
  5
C1
330
2
100
AcDbEntity
  8
GAIKEI
  6
Continuous
 62
     7
100
AcDbLine
 10
33.83313252647643
 20
6.240917275413806
 30
0.0
 11
33.82900896255004
 21
6.240888017722539
 31
0.0
  0
LINE
  5
C2
330
2
100
AcDbEntity
  8
GAIKEI
  6
Continuous
 62
     7
100
AcDbLine
 10
36.1480622064868
 20
8.090343903318967
 30
0.0
 11
36.76096970456459
 21
7.881693171677483
 31
0.0
  0
LINE
  5
C3
330
2
100
AcDbEntity
  8
GAIKEI
  6
Continuous
 62
     7
100
AcDbLine
 10
36.83712236762767
 20
6.314939194394611
 30
0.0
 11
36.78347060739588
 21
7.851325567125456
 31
0.0
  0
LINE
  5
C4
330
2
100
AcDbEntity
  8
GAIKEI
  6
Continuous
 62
     1
100
AcDbLine
 10
36.83712236783072
 20
6.314939194387221
 30
0.0
 11
36.83689979541251
 21
6.321312833229512
 31
0.0
  0
LINE
  5
C5
330
2
100
AcDbEntity
  8
GAIKEI
  6
Continuous
 62
     7
100
AcDbLine
 10
39.33118152597302
 20
6.118820325185737
 30
0.0
 11
39.17538377448689
 21
6.13605779102707
 31
0.0
  0
LINE
  5
C6
330
2
100
AcDbEntity
  8
GAIKEI
  6
Continuous
 62
     7
100
AcDbLine
 10
34.16180453866335
 20
7.474793913221901
 30
0.0
 11
34.16300920558902
 21
7.509291059068885
 31
0.0
  0
LINE
  5
C7
330
2
100
AcDbEntity
  8
GAIKEI
  6
Continuous
 62
     7
100
AcDbLine
 10
34.54615499251858
 20
8.075957466670047
 30
0.0
 11
34.52861335185489
 21
7.573630600087852
 31
0.0
  0
LINE
  5
C8
330
2
100
AcDbEntity
  8
GAIKEI
  6
Continuous
 62
     7
100
AcDbLine
 10
33.83226576317046
 20
6.240916911655517
 30
0.0
 11
33.83592298272234
 21
6.240993891891264
 31
0.0
  0
LINE
  5
C9
330
2
100
AcDbEntity
  8
GAIKEI
  6
Continuous
 62
     1
100
AcDbLine
 10
33.82900896352698
 20
6.240888057159025
 30
0.0
 11
33.8282918174067
 21
6.240883705536873
 31
0.0
  0
LINE
  5
CA
330
2
100
AcDbEntity
  8
GAIKEI
  6
Continuous
 62
     7
100
AcDbLine
 10
26.3422798474804
 20
5.574794150061137
 30
0.0
 11
26.33583113909772
 21
5.574794150061137
 31
0.0
  0
LINE
  5
CB
330
2
100
AcDbEntity
  8
GAIKEI
  6
Continuous
 62
     1
100
AcDbLine
 10
26.34265226930818
 20
5.770119436973089
 30
0.0
 11
26.34264725134544
 21
5.770117678812027
 31
0.0
  0
LINE
  5
CC
330
2
100
AcDbEntity
  8
GAIKEI
  6
Continuous
 62
     7
100
AcDbLine
 10
26.9905533713591
 20
5.943411589621234
 30
0.0
 11
26.99325708349949
 21
5.943655852729818
 31
0.0
  0
ARC
  5
CD
330
2
100
AcDbEntity
  8
GAIKEI
  6
Continuous
 62
     7
100
AcDbCircle
 10
32.29233313023267
 20
-53.08050770075144
 30
0.0
 40
59.26155660207931
100
AcDbArc
 50
95.09458408979247
 51
95.13015509912177
  0
ARC
  5
CE
330
2
100
AcDbEntity
  8
GAIKEI
  6
Continuous
 62
     7
100
AcDbCircle
 10
33.90639298794634
 20
-71.1585582659184
 30
0.0
 40
77.41151801372412
100
AcDbArc
 50
95.01780113442626
 51
95.09005735530729
  0
ARC
  5
CF
330
2
100
AcDbEntity
  8
GAIKEI
  6
Continuous
 62
     7
100
AcDbCircle
 10
33.62938169888322
 20
-68.03132959440763
 30
0.0
 40
74.27204489746305
100
AcDbArc
 50
93.6375950374868
 51
95.01592976257104
  0
ARC
  5
D0
330
2
100
AcDbEntity
  8
GAIKEI
  6
Continuous
 62
     7
100
AcDbCircle
 10
33.6362038845566
 20
-68.13379605186447
 30
0.0
 40
74.37473775381238
100
AcDbArc
 50
91.97210722632094
 51
93.63783186264383
  0
ARC
  5
D1
330
2
100
AcDbEntity
  8
GAIKEI
  6
Continuous
 62
     7
100
AcDbCircle
 10
33.63299242339551
 20
-68.0331426502122
 30
0.0
 40
74.27403345385534
100
AcDbArc
 50
90.60289628641557
 51
91.97230333692777
  0
ARC
  5
D2
330
2
100
AcDbEntity
  8
GAIKEI
  6
Continuous
 62
     7
100
AcDbCircle
 10
33.70834927997677
 20
-78.56138638597705
 30
0.0
 40
84.80249466342074
100
AcDbArc
 50
90.26319181338495
 51
90.57895912328342
  0
ARC
  5
D3
330
2
100
AcDbEntity
  8
GAIKEI
  6
Continuous
 62
     7
100
AcDbCircle
 10
28.40994913319649
 20
-9.607884143780069
 30
0.0
 40
15.61593192581444
100
AcDbArc
 50
95.04443259310358
 51
95.19314788246397
  0
ARC
  5
D4
330
2
100
AcDbEntity
  8
GAIKEI
  6
Continuous
 62
     7
100
AcDbCircle
 10
34.19631129733537
 20
7.508119105946917
 30
0.0
 40
0.0333306278807466
100
AcDbArc
 50
108.3892627919088
 51
134.5344448268898
  0
ARC
  5
D5
330
2
100
AcDbEntity
  8
GAIKEI
  6
Continuous
 62
     7
100
AcDbCircle
 10
37.1988377276024
 20
-12.44936245727567
 30
0.0
 40
18.69025049448205
100
AcDbArc
 50
85.81756760713352
 51
90.00268255748792
  0
ARC
  5
D6
330
2
100
AcDbEntity
  8
GAIKEI
  6
Continuous
 62
     7
100
AcDbCircle
 10
37.20044960380403
 20
-12.41930952758542
 30
0.0
 40
18.6601600503059
100
AcDbArc
 50
84.91941470800613
 51
85.81577367863781
  0
ARC
  5
D7
330
2
100
AcDbEntity
  8
GAIKEI
  6
Continuous
 62
     7
100
AcDbCircle
 10
36.75015329158626
 20
7.850158809847926
 30
0.0
 40
0.0333377392050497
100
AcDbArc
 50
2.005221924267869
 51
71.19477633141271
  0
ARC
  5
D8
330
2
100
AcDbEntity
  8
GAIKEI
  6
Continuous
 62
     7
100
AcDbCircle
 10
33.6368664090065
 20
-69.58617112785637
 30
0.0
 40
75.82706426396764
100
AcDbArc
 50
90.15109453917609
 51
90.24304261743015
  0
ARC
  5
D9
330
2
100
AcDbEntity
  8
GAIKEI
  6
Continuous
 62
     1
100
AcDbCircle
 10
27.79270481709847
 20
-2.843000201404748
 30
0.0
 40
8.822953456743981
100
AcDbArc
 50
95.13418124256547
 51
95.19912442936137
  0
SPLINE
  5
DA
330
2
100
AcDbEntity
  8
GAIKEI
  6
Continuous
 62
     7
100
AcDbSpline
210
0.0
220
0.0
230
1.0
 70
     8
 71
     3
 72
    15
 73
    11
 74
     9
 42
0.0000000001
 43
0.0000000001
 44
0.000001
 12
0.9999975632466529
 22
0.0022076006787041
 32
0.0
 13
0.036151169170908
 23
0.9993463328434124
 33
0.0
 40
0.0
 40
0.0
 40
0.0
 40
0.0
 40
0.0059738727390395
 40
0.012286898955818
 40
0.0188597856991583
 40
0.0255454648149964
 40
0.0322546926874712
 40
0.0388399310988301
 40
0.0451415240686612
 40
0.0511115004706777
 40
0.0511115004706777
 40
0.0511115004706777
 40
0.0511115004706777
 10
-2.292838025046165
 20
5.541461704538988
 30
0.0
 10
-2.290846738985436
 20
5.541466100514156
 30
0.0
 10
-2.286743313915323
 20
5.541834729700667
 30
0.0
 10
-2.280651325975711
 20
5.543535351527282
 30
0.0
 10
-2.274801847812369
 20
5.546516683329173
 30
0.0
 10
-2.269517372259159
 20
5.550638035727132
 30
0.0
 10
-2.265209512096369
 20
5.555777211193799
 30
0.0
 10
-2.262018763470223
 20
5.561524442503127
 30
0.0
 10
-2.260104004511831
 20
5.567551686687437
 30
0.0
 10
-2.259595537034499
 20
5.571635280426733
 30
0.0
 10
-2.259523596492215
 20
5.573623971768228
 30
0.0
 11
-2.292838025046165
 21
5.541461704538988
 31
0.0
 11
-2.286887795487274
 21
5.541998515437683
 31
0.0
 11
-2.280809300964278
 21
5.543703380938552
 31
0.0
 11
-2.274946425296491
 21
5.546674936742306
 31
0.0
 11
-2.26968657127395
 21
5.55080201392306
 31
0.0
 11
-2.265360775607859
 21
5.555930536243067
 31
0.0
 11
-2.262178057357729
 21
5.561695627924819
 31
0.0
 11
-2.260264066384422
 21
5.567699551753065
 31
0.0
 11
-2.259523596492215
 21
5.573623971768228
 31
0.0
  0
SPLINE
  5
DB
330
2
100
AcDbEntity
  8
GAIKEI
  6
Continuous
 62
     7
100
AcDbSpline
210
0.0
220
0.0
230
1.0
 70
     8
 71
     3
 72
    10
 73
     6
 74
     4
 42
0.0000000001
 43
0.0000000001
 44
0.000001
 12
0.1171787383230453
 22
0.993110841389328
 32
0.0
 13
-0.5395795426848812
 23
0.8419346275786347
 33
0.0
 40
0.0
 40
0.0
 40
0.0
 40
0.0
 40
0.0064759010951341
 40
0.0138898667571857
 40
0.0217043615367755
 40
0.0217043615367755
 40
0.0217043615367755
 40
0.0217043615367755
 10
-2.261711800166466
 20
5.803225321093606
 30
0.0
 10
-2.261458854193186
 20
5.805369083622053
 30
0.0
 10
-2.26214484311059
 20
5.810025385957914
 30
0.0
 10
-2.263533037575378
 20
5.817128562693625
 30
0.0
 10
-2.265870864226116
 20
5.821726800093102
 30
0.0
 10
-2.267276378065943
 20
5.823919898010416
 30
0.0
 11
-2.261711800166466
 21
5.803225321093606
 31
0.0
 11
-2.262143509257128
 21
5.809686909828741
 31
0.0
 11
-2.26383167524176
 21
5.816906153637631
 31
0.0
 11
-2.267276378065943
 21
5.823919898010416
 31
0.0
  0
SPLINE
  5
DC
330
2
100
AcDbEntity
  8
GAIKEI
  6
Continuous
 62
     7
100
AcDbSpline
210
0.0
220
0.0
230
1.0
 70
     8
 71
     3
 72
     9
 73
     5
 74
     3
 42
0.0000000001
 43
0.0000000001
 44
0.000001
 12
0.9623379909322508
 22
-0.2718558279832878
 32
0.0
 13
0.9620144586546979
 23
-0.272998500617327
 33
0.0
 40
0.0
 40
0.0
 40
0.0
 40
0.0
 40
0.0004651734994602
 40
0.0009808163844876
 40
0.0009808163844876
 40
0.0009808163844876
 40
0.0009808163844876
 10
-2.677839403869
 20
6.117984615212122
 30
0.0
 10
-2.677690185825362
 20
6.117942461836491
 30
0.0
 10
-2.677375585227345
 20
6.117853493013086
 30
0.0
 10
-2.677061037508387
 20
6.117764337395186
 30
0.0
 10
-2.676895685538084
 20
6.117717414150376
 30
0.0
 11
-2.677839403869
 21
6.117984615212122
 31
0.0
 11
-2.677391785370161
 21
6.117858029021817
 31
0.0
 11
-2.676895685538084
 21
6.117717414150376
 31
0.0
  0
SPLINE
  5
DD
330
2
100
AcDbEntity
  8
GAIKEI
  6
Continuous
 62
     7
100
AcDbSpline
210
0.0
220
0.0
230
1.0
 70
     8
 71
     3
 72
   120
 73
   116
 74
     0
 42
0.0000000001
 43
0.0000000001
 40
0.0
 40
0.0
 40
0.0
 40
0.0
 40
0.0052174754522104
 40
0.0105678130952426
 40
0.0147792222821183
 40
0.0179747721972199
 40
0.0236607853442155
 40
0.0289104162719892
 40
0.0332287327039953
 40
0.0376750172588384
 40
0.0431087187614389
 40
0.0495476800879141
 40
0.0554228630731483
 40
0.0613240916976991
 40
0.0663375076377764
 40
0.0704545072342637
 40
0.074055448460541
 40
0.0781843519466306
 40
0.0829722543249712
 40
0.088248123491423
 40
0.0930159077857212
 40
0.0981161632052067
 40
0.1024016352781838
 40
0.1067274102112834
 40
0.1111568164637947
 40
0.1147097853222547
 40
0.1185382460117134
 40
0.1231693806735356
 40
0.12862838993705
 40
0.1335918595497396
 40
0.1387789123912561
 40
0.1432897718863381
 40
0.1470659260245132
 40
0.1501071977890121
 40
0.152378706316047
 40
0.1544722574009828
 40
0.1569387647364635
 40
0.1597783354408775
 40
0.1645452504840206
 40
0.1700928708906247
 40
0.1756116656763784
 40
0.1803158117795007
 40
0.1842441416476961
 40
0.1885742404575863
 40
0.1938577113508523
 40
0.1999611188394188
 40
0.207120404819231
 40
0.2133440133479404
 40
0.2194164903204469
 40
0.225859359858578
 40
0.232617731095855
 40
0.237587532688735
 40
0.2426699656103162
 40
0.2475171293242171
 40
0.2519223706717878
 40
0.2558864953521969
 40
0.2600736960235597
 40
0.2650543396316455
 40
0.2714498467547914
 40
0.2779726260205626
 40
0.2837363593548499
 40
0.2887404991339902
 40
0.2929847462506976
 40
0.3024411979321208
 40
0.3129549279809828
 40
0.3253091219507286
 40
0.3371248920629851
 40
0.3484428095147995
 40
0.3607396314433402
 40
0.3640349120463564
 40
0.3669128404002295
 40
0.3693807789309165
 40
0.3721271616325982
 40
0.3756015258187248
 40
0.3798040865521914
 40
0.3847250140084769
 40
0.3894836147325134
 40
0.3936852993995795
 40
0.3970849638209717
 40
0.3997267675636415
 40
0.4025383885192397
 40
0.405890373484544
 40
0.4097828796265361
 40
0.41464592764913
 40
0.4199684472211568
 40
0.4247605740912733
 40
0.4288749622723564
 40
0.4324370810272348
 40
0.4363489361865643
 40
0.4407886997800589
 40
0.4453221947412211
 40
0.4502920306859635
 40
0.455694781091868
 40
0.4615306549161092
 40
0.4674773143763613
 40
0.4726493415492361
 40
0.4777657021404936
 40
0.4816923899840849
 40
0.4845672269863534
 40
0.4877171127266223
 40
0.4914741549957432
 40
0.4973125703787356
 40
0.5039260675524713
 40
0.5106524238079988
 40
0.5181489353716816
 40
0.5250419228441682
 40
0.531820460887785
 40
0.5396715400072578
 40
0.5475963179857362
 40
0.5540245126970468
 40
0.5589917720283515
 40
0.5618004825570866
 40
0.5652872986187584
 40
0.569452428281047
 40
0.5702174719945701
 40
0.5702174719945701
 40
0.5702174719945701
 40
0.5702174719945701
 10
-2.677788800837959
 20
6.118175317058557
 30
0.0
 10
-2.678904002956727
 20
6.118492528351453
 30
0.0
 10
-2.681163198267228
 20
6.119133649195333
 30
0.0
 10
-2.684323813049132
 20
6.120026375301392
 30
0.0
 10
-2.687052892588098
 20
6.120793901363754
 30
0.0
 10
-2.689854435443564
 20
6.121579290966593
 30
0.0
 10
-2.692879136827187
 20
6.12242336159332
 30
0.0
 10
-2.696145307123046
 20
6.123330373664742
 30
0.0
 10
-2.699146976521802
 20
6.124160244310985
 30
0.0
 10
-2.702188939173112
 20
6.124997870177224
 30
0.0
 10
-2.705686367588185
 20
6.125956523467408
 30
0.0
 10
-2.709491488002186
 20
6.126993797175202
 30
0.0
 10
-2.713398382118185
 20
6.128052742074231
 30
0.0
 10
-2.71700086523019
 20
6.129023838730688
 30
0.0
 10
-2.720227214082996
 20
6.129889124200303
 30
0.0
 10
-2.722960615826394
 20
6.130619080119259
 30
0.0
 10
-2.72550472456092
 20
6.131296032055672
 30
0.0
 10
-2.728193552757758
 20
6.132008899680585
 30
0.0
 10
-2.731242994499666
 20
6.132813989496696
 30
0.0
 10
-2.734430687531528
 20
6.133651595678486
 30
0.0
 10
-2.737686506617805
 20
6.134503052449503
 30
0.0
 10
-2.740730304969275
 20
6.13529535018273
 30
0.0
 10
-2.743679876485771
 20
6.136059708124435
 30
0.0
 10
-2.746485857650043
 20
6.136783883437431
 30
0.0
 10
-2.749134912331768
 20
6.137464711732519
 30
0.0
 10
-2.751677529320005
 20
6.138115698576655
 30
0.0
 10
-2.754264134151114
 20
6.138775613040905
 30
0.0
 10
-2.75726189718847
 20
6.139537330259685
 30
0.0
 10
-2.760505065566377
 20
6.140357418944802
 30
0.0
 10
-2.763869011063761
 20
6.141203789906967
 30
0.0
 10
-2.767029542441264
 20
6.141995094894213
 30
0.0
 10
-2.769934926376819
 20
6.142719113180277
 30
0.0
 10
-2.77237819182757
 20
6.143325530457758
 30
0.0
 10
-2.774338853335763
 20
6.143810556755596
 30
0.0
 10
-2.775936781856728
 20
6.144204830216409
 30
0.0
 10
-2.777410883458486
 20
6.144567778077544
 30
0.0
 10
-2.779007762912016
 20
6.144960082525159
 30
0.0
 10
-2.781181888364329
 20
6.145492816783928
 30
0.0
 10
-2.784021628876928
 20
6.146186065459886
 30
0.0
 10
-2.78744073440643
 20
6.147016542174867
 30
0.0
 10
-2.79084731191152
 20
6.147839488838485
 30
0.0
 10
-2.793904953396292
 20
6.148574430387753
 30
0.0
 10
-2.796706404697857
 20
6.149244929247288
 30
0.0
 10
-2.799633704503065
 20
6.149942690977212
 30
0.0
 10
-2.803032049910157
 20
6.150748879077298
 30
0.0
 10
-2.807043329894412
 20
6.15169509925181
 30
0.0
 10
-2.811259410492468
 20
6.152683070217676
 30
0.0
 10
-2.815470257232135
 20
6.153663226390676
 30
0.0
 10
-2.819527325639114
 20
6.154601773066019
 30
0.0
 10
-2.823701501890923
 20
6.155561339778955
 30
0.0
 10
-2.827638178584862
 20
6.156460288785694
 30
0.0
 10
-2.831281189783069
 20
6.157287244378096
 30
0.0
 10
-2.834510830460516
 20
6.158016625611026
 30
0.0
 10
-2.8376188554939
 20
6.158714994416925
 30
0.0
 10
-2.840485062041366
 20
6.159355986242587
 30
0.0
 10
-2.843208699797543
 20
6.159962486115034
 30
0.0
 10
-2.846057709327993
 20
6.160594251671966
 30
0.0
 10
-2.849434956961857
 20
6.16133962479256
 30
0.0
 10
-2.85332008038226
 20
6.1621920629712
 30
0.0
 10
-2.857376419991879
 20
6.163076127710894
 30
0.0
 10
-2.861131739807689
 20
6.163889371976125
 30
0.0
 10
-2.864393006434553
 20
6.164591667328721
 30
0.0
 10
-2.868457354854967
 20
6.165462675456808
 30
0.0
 10
-2.873720529892224
 20
6.166582506940841
 30
0.0
 10
-2.880749634852122
 20
6.168062389185877
 30
0.0
 10
-2.888295633624693
 20
6.169631914008817
 30
0.0
 10
-2.896020684551402
 20
6.171218042629391
 30
0.0
 10
-2.903737088638138
 20
6.172782772347147
 30
0.0
 10
-2.909600750659066
 20
6.173956659974294
 30
0.0
 10
-2.913626652678857
 20
6.174755806222549
 30
0.0
 10
-2.915510399430615
 20
6.175128469545711
 30
0.0
 10
-2.9172746822843
 20
6.175476476598106
 30
0.0
 10
-2.919169203815414
 20
6.175849103107168
 30
0.0
 10
-2.921442239788689
 20
6.17629464824057
 30
0.0
 10
-2.924189913360592
 20
6.176830949974998
 30
0.0
 10
-2.927218246180643
 20
6.177419052928001
 30
0.0
 10
-2.930246976567275
 20
6.17800407907282
 30
0.0
 10
-2.93294426572649
 20
6.17852248973412
 30
0.0
 10
-2.935179946912597
 20
6.178950359699058
 30
0.0
 10
-2.937112461534823
 20
6.179318959713697
 30
0.0
 10
-2.939034774249662
 20
6.179684493514514
 30
0.0
 10
-2.941230393032085
 20
6.180100552851968
 30
0.0
 10
-2.943874286482895
 20
6.180599516706223
 30
0.0
 10
-2.946949001637008
 20
6.181176922261329
 30
0.0
 10
-2.950220838191796
 20
6.181787807270353
 30
0.0
 10
-2.953329731225977
 20
6.182364938062505
 30
0.0
 10
-2.956054454492871
 20
6.182868186711516
 30
0.0
 10
-2.958587180892862
 20
6.183333922442159
 30
0.0
 10
-2.961191384674549
 20
6.183810751229373
 30
0.0
 10
-2.964008357415764
 20
6.184324063349095
 30
0.0
 10
-2.967057133594423
 20
6.184876742817777
 30
0.0
 10
-2.970317043357269
 20
6.185464450202971
 30
0.0
 10
-2.973862448563949
 20
6.186099782321775
 30
0.0
 10
-2.977622285225919
 20
6.186769131922119
 30
0.0
 10
-2.981332426205284
 20
6.187425084845074
 30
0.0
 10
-2.984885817913109
 20
6.188049222748418
 30
0.0
 10
-2.9879976585743
 20
6.188592487427797
 30
0.0
 10
-2.990607030346637
 20
6.189045591734952
 30
0.0
 10
-2.992786107817977
 20
6.189422447853047
 30
0.0
 10
-2.994928260765306
 20
6.189791587651399
 30
0.0
 10
-2.997719752746434
 20
6.190270637647955
 30
0.0
 10
-3.001270429522975
 20
6.190876469459595
 30
0.0
 10
-3.005472440541581
 20
6.191588068376233
 30
0.0
 10
-3.010038766732222
 20
6.192355131950705
 30
0.0
 10
-3.014667436780683
 20
6.193125951887395
 30
0.0
 10
-3.019308641030761
 20
6.193892065566302
 30
0.0
 10
-3.024028633699714
 20
6.194664638045651
 30
0.0
 10
-3.028976065016905
 20
6.195467114134373
 30
0.0
 10
-3.033847866209924
 20
6.196249569137734
 30
0.0
 10
-3.038087880769438
 20
6.196924432066197
 30
0.0
 10
-3.041205675395133
 20
6.197417110800074
 30
0.0
 10
-3.043678137322061
 20
6.197805887355002
 30
0.0
 10
-3.053154265733695
 20
6.199196692202662
 30
0.0
 10
-3.055002398322315
 20
6.199484720558189
 30
0.0
 10
-3.056085005648498
 20
6.199652910512298
 30
0.0
 10
-3.056253002075862
 20
6.199678997008447
 30
0.0
  0
SPLINE
  5
DE
330
2
100
AcDbEntity
  8
GAIKEI
  6
Continuous
 62
     7
100
AcDbSpline
210
0.0
220
0.0
230
1.0
 70
     8
 71
     3
 72
    95
 73
    91
 74
    89
 42
0.0000000001
 43
0.0000000001
 44
0.000001
 12
-0.5671727698564811
 22
0.8235988399295662
 32
0.0
 13
-0.893619513633434
 23
0.448825316636155
 33
0.0
 40
0.0
 40
0.0
 40
0.0
 40
0.0
 40
0.0060108184360181
 40
0.0117653514747377
 40
0.0172654541833594
 40
0.0225128352983637
 40
0.0275090796599682
 40
0.0322556553770494
 40
0.0367539198689335
 40
0.0414167019029683
 40
0.0457820691631453
 40
0.0498514124346443
 40
0.0536259924761043
 40
0.0571069478939193
 40
0.0602953025688585
 40
0.0631919721096379
 40
0.0657977697998378
 40
0.0681134120367572
 40
0.0701395232529787
 40
0.072503762860065
 40
0.0748842617246381
 40
0.0772976723343985
 40
0.0829048213466174
 40
0.0886811420544302
 40
0.0946260948919727
 40
0.0983121454941423
 40
0.1022631315171209
 40
0.1064783507866281
 40
0.1109570920759134
 40
0.1143794721870801
 40
0.1179405870373614
 40
0.1216401682291584
 40
0.1254779529629786
 40
0.1294536859880375
 40
0.1335529651654742
 40
0.1375231122609692
 40
0.1416341083261946
 40
0.1454774601571281
 40
0.1490538279207693
 40
0.1523637957333368
 40
0.1554078781299633
 40
0.1577418341421627
 40
0.1598916915936065
 40
0.1619263297079582
 40
0.1640421514983363
 40
0.1662512329848261
 40
0.1685535021386941
 40
0.1723594585545378
 40
0.1763950924052776
 40
0.1806601561098795
 40
0.1852965022349609
 40
0.1900943038454124
 40
0.1949335169023344
 40
0.1998132309446643
 40
0.2047335975812554
 40
0.2096947782055066
 40
0.2175737709833046
 40
0.2255546907764042
 40
0.2336202584960027
 40
0.2406648657739094
 40
0.2474833677929092
 40
0.254076429592198
 40
0.2604446086916028
 40
0.266588361933284
 40
0.2725061096889808
 40
0.2772767734945674
 40
0.2818549288795349
 40
0.2862405609405832
 40
0.2904336210270914
 40
0.2920281928083002
 40
0.2935930253238657
 40
0.2951510557134457
 40
0.2968849448490924
 40
0.2988342091590397
 40
0.3009989838579731
 40
0.3033794281162295
 40
0.3059757279371406
 40
0.3092075185862579
 40
0.3127219023785027
 40
0.3165193199253766
 40
0.3206002840705499
 40
0.3249653883914358
 40
0.3296153162951287
 40
0.3345508506960258
 40
0.3393267499250337
 40
0.3443441654845071
 40
0.3496042543879803
 40
0.3551080006649692
 40
0.3608561489889738
 40
0.3658747705510859
 40
0.3658747705510859
 40
0.3658747705510859
 40
0.3658747705510859
 10
-2.269251724285027
 20
5.826916864570819
 30
0.0
 10
-2.270388115132178
 20
5.828567032267784
 30
0.0
 10
-2.27262568064178
 20
5.831787906077749
 30
0.0
 10
-2.275941369691736
 20
5.836491995851162
 30
0.0
 10
-2.27914250111845
 20
5.840965323604621
 30
0.0
 10
-2.282225115164067
 20
5.845212491479145
 30
0.0
 10
-2.285186317488062
 20
5.849237285203059
 30
0.0
 10
-2.288023126013008
 20
5.853043473424548
 30
0.0
 10
-2.290815392302448
 20
5.856744123492461
 30
0.0
 10
-2.29355222172397
 20
5.860327324775255
 30
0.0
 10
-2.296222406135285
 20
5.863781423116421
 30
0.0
 10
-2.298729056238379
 20
5.86698764122633
 30
0.0
 10
-2.301069261808223
 20
5.869949713551591
 30
0.0
 10
-2.303240321116192
 20
5.872671112439377
 30
0.0
 10
-2.305239742256972
 20
5.875155046039935
 30
0.0
 10
-2.3070652423402
 20
5.877404458204779
 30
0.0
 10
-2.308714747046323
 20
5.879422027796351
 30
0.0
 10
-2.31018639019318
 20
5.881210168262413
 30
0.0
 10
-2.311611814085594
 20
5.882932051810087
 30
0.0
 10
-2.313056074176266
 20
5.884666396784922
 30
0.0
 10
-2.314588714020793
 20
5.886495130869263
 30
0.0
 10
-2.316824156853634
 20
5.889145234799741
 30
0.0
 10
-2.319808220748633
 20
5.89264469672716
 30
0.0
 10
-2.323589496979629
 20
5.897011204563824
 30
0.0
 10
-2.326982085258094
 20
5.90086699747809
 30
0.0
 10
-2.329994788229996
 20
5.904246418252967
 30
0.0
 10
-2.332639042916049
 20
5.907181808024404
 30
0.0
 10
-2.335477490780299
 20
5.910297811741457
 30
0.0
 10
-2.338214935465636
 20
5.913267383603766
 30
0.0
 10
-2.340819733383135
 20
5.916062597949803
 30
0.0
 10
-2.343259912573778
 20
5.91865615341851
 30
0.0
 10
-2.345808388150302
 20
5.921337877258594
 30
0.0
 10
-2.348466477358691
 20
5.924106024320906
 30
0.0
 10
-2.351232258978413
 20
5.926955395078408
 30
0.0
 10
-2.354044828945546
 20
5.929820753198157
 30
0.0
 10
-2.356905157430404
 20
5.932702320217032
 30
0.0
 10
-2.359721194228278
 20
5.935507565139118
 30
0.0
 10
-2.362459229538863
 20
5.938205035859539
 30
0.0
 10
-2.365020024580125
 20
5.940701880818238
 30
0.0
 10
-2.367401165032099
 20
5.943001287351592
 30
0.0
 10
-2.369493331468035
 20
5.945003715868779
 30
0.0
 10
-2.371312662545449
 20
5.946731904414036
 30
0.0
 10
-2.372892737536929
 20
5.948223384245835
 30
0.0
 10
-2.374424171035705
 20
5.94966045335903
 30
0.0
 10
-2.375974230629637
 20
5.951106510179897
 30
0.0
 10
-2.377594105250835
 20
5.952608494666094
 30
0.0
 10
-2.379633083063254
 20
5.95448705612992
 30
0.0
 10
-2.382129699205954
 20
5.956767433924028
 30
0.0
 10
-2.385124437693143
 20
5.959472501472276
 30
0.0
 10
-2.388341513129262
 20
5.962344259752683
 30
0.0
 10
-2.391767241208633
 20
5.965363652643475
 30
0.0
 10
-2.395357536151891
 20
5.968485618335819
 30
0.0
 10
-2.399030715468562
 20
5.971635724708391
 30
0.0
 10
-2.402756797137705
 20
5.974786724288094
 30
0.0
 10
-2.40653602575076
 20
5.977937657064217
 30
0.0
 10
-2.411109753858795
 20
5.981696655096641
 30
0.0
 10
-2.416511915355158
 20
5.98605411800392
 30
0.0
 10
-2.422775924584271
 20
5.990990520560444
 30
0.0
 10
-2.428875842399733
 20
5.995684986434667
 30
0.0
 10
-2.434716566725356
 20
6.000080138613725
 30
0.0
 10
-2.440205528239914
 20
6.004125850311226
 30
0.0
 10
-2.445550307527653
 20
6.007986619349935
 30
0.0
 10
-2.450747135123833
 20
6.011667618374076
 30
0.0
 10
-2.455791856054496
 20
6.015173469175124
 30
0.0
 10
-2.460426741542192
 20
6.018335558250072
 30
0.0
 10
-2.464652312247146
 20
6.021171292831695
 30
0.0
 10
-2.468470773077015
 20
6.023696985207294
 30
0.0
 10
-2.472144050566882
 20
6.026093003250707
 30
0.0
 10
-2.474995613896048
 20
6.027928273118845
 30
0.0
 10
-2.477061942479153
 20
6.029246157532696
 30
0.0
 10
-2.478389622872114
 20
6.030088746978123
 30
0.0
 10
-2.479758435776666
 20
6.030953182482022
 30
0.0
 10
-2.481237774636696
 20
6.031882583286176
 30
0.0
 10
-2.482891076313052
 20
6.032915254740856
 30
0.0
 10
-2.484730510708821
 20
6.034056734052597
 30
0.0
 10
-2.486757241148438
 20
6.035305411542736
 30
0.0
 10
-2.489091832481619
 20
6.036732432025615
 30
0.0
 10
-2.491755607783382
 20
6.038345612326224
 30
0.0
 10
-2.49477049931896
 20
6.040151839264098
 30
0.0
 10
-2.498038236011836
 20
6.04208670703241
 30
0.0
 10
-2.501561467513184
 20
6.044146538596976
 30
0.0
 10
-2.505343036635835
 20
6.046327386730069
 30
0.0
 10
-2.509385979644065
 20
6.048625031756216
 30
0.0
 10
-2.513563739762361
 20
6.050962383363298
 30
0.0
 10
-2.517864549352353
 20
6.053330445888576
 30
0.0
 10
-2.522276473011217
 20
6.055720772871666
 30
0.0
 10
-2.52691963497152
 20
6.058193335207732
 30
0.0
 10
-2.53179723070346
 20
6.060743532098683
 30
0.0
 10
-2.536621500842656
 20
6.063221754077545
 30
0.0
 10
-2.539827691636894
 20
6.064834473679155
 30
0.0
 10
-2.541322604356707
 20
6.065585301816383
 30
0.0
 11
-2.269251724285027
 21
5.826916864570819
 31
0.0
 11
-2.272679299120085
 21
5.831854621792075
 31
0.0
 11
-2.275995115589893
 21
5.836557816103635
 31
0.0
 11
-2.27919580611541
 21
5.841030707111883
 31
0.0
 11
-2.282278146922635
 21
5.84527737976694
 31
0.0
 11
-2.285239057942845
 21
5.849301743848286
 31
0.0
 11
-2.288075602687683
 21
5.853107533429295
 31
0.0
 11
-2.290784988103325
 21
5.856698306328951
 31
0.0
 11
-2.293615284794441
 21
5.860403842199644
 31
0.0
 11
-2.296285188618867
 21
5.863857547375232
 31
0.0
 11
-2.298791581750691
 21
5.867063413612584
 31
0.0
 11
-2.301131553378041
 21
5.87002517210891
 31
0.0
 11
-2.303302401035054
 21
5.872746291986175
 31
0.0
 11
-2.305301631862363
 21
5.875229978848835
 31
0.0
 11
-2.30712696210503
 21
5.877479174151147
 31
0.0
 11
-2.308776316612522
 21
5.879496554619834
 31
0.0
 11
-2.310247828374571
 21
5.88128453172186
 31
0.0
 11
-2.311539838096379
 21
5.882845251179162
 31
0.0
 11
-2.313052755426213
 21
5.884662039712225
 31
0.0
 11
-2.314581830435486
 21
5.886486516387577
 31
0.0
 11
-2.316137935429495
 21
5.888331265429627
 31
0.0
 11
-2.319776159858705
 21
5.892597821797892
 31
0.0
 11
-2.323557547820996
 21
5.896964405157945
 31
0.0
 11
-2.327484648689079
 21
5.901427633972843
 31
0.0
 11
-2.329937523596569
 21
5.904179069963987
 31
0.0
 11
-2.332581931792873
 21
5.907114615259473
 31
0.0
 11
-2.335420535606147
 21
5.910230772601664
 31
0.0
 11
-2.338456174654908
 21
5.913523804408441
 31
0.0
 11
-2.340789385176108
 21
5.916027569042228
 31
0.0
 11
-2.343229622978299
 21
5.918621177244858
 31
0.0
 11
-2.345778155672149
 21
5.921302950775725
 31
0.0
 11
-2.348436299661642
 21
5.92407114360904
 31
0.0
 11
-2.351205419954098
 21
5.92692394180716
 31
0.0
 11
-2.354076984481622
 21
5.929849388913197
 31
0.0
 11
-2.356873907795758
 21
5.932667068777078
 31
0.0
 11
-2.35978640532295
 21
5.935568392812712
 31
0.0
 11
-2.362524278268466
 21
5.938265694278442
 31
0.0
 11
-2.365084929393475
 21
5.94076239178355
 31
0.0
 11
-2.36746594314053
 21
5.943061670588321
 31
0.0
 11
-2.369665085021608
 21
5.945166482167792
 31
0.0
 11
-2.371357286095133
 21
5.946773907902098
 31
0.0
 11
-2.372920664547365
 21
5.948249626198531
 31
0.0
 11
-2.374404357899734
 21
5.949641895902175
 31
0.0
 11
-2.375951473975959
 21
5.951085205661371
 31
0.0
 11
-2.377571365785485
 21
5.952587204922622
 31
0.0
 11
-2.379264561101848
 21
5.954147186985949
 31
0.0
 11
-2.382074729533968
 21
5.956713953102962
 31
0.0
 11
-2.385069519986871
 21
5.959419060387858
 31
0.0
 11
-2.388251308818169
 21
5.962259311654207
 31
0.0
 11
-2.391729491083154
 21
5.965324927412837
 31
0.0
 11
-2.395349962321603
 21
5.968473123476144
 31
0.0
 11
-2.399023351503416
 21
5.971623400666487
 31
0.0
 11
-2.402749373141162
 21
5.974774340949267
 31
0.0
 11
-2.406528536553381
 21
5.977925211607214
 31
0.0
 11
-2.410361353931378
 21
5.981075271882957
 31
0.0
 11
-2.416493995222268
 21
5.986021925385585
 31
0.0
 11
-2.422762413550032
 21
5.99096177980806
 31
0.0
 11
-2.429154260255728
 21
5.995880909194056
 31
0.0
 11
-2.434783186346948
 21
6.000116685833432
 31
0.0
 11
-2.440271886785126
 21
6.004162208432205
 31
0.0
 11
-2.445616440362101
 21
6.008022820014275
 31
0.0
 11
-2.450813075634385
 21
6.011703688512199
 31
0.0
 11
-2.455858167857428
 21
6.015209804547964
 31
0.0
 11
-2.460746627528607
 21
6.018544890325244
 31
0.0
 11
-2.464707957491924
 21
6.021203303830105
 31
0.0
 11
-2.468526396739079
 21
6.023728989698952
 31
0.0
 11
-2.472199666088258
 21
6.026125010978006
 31
0.0
 11
-2.475725585874542
 21
6.02839430517946
 31
0.0
 11
-2.477069996972034
 21
6.02925175829975
 31
0.0
 11
-2.478391222500846
 21
6.030090251940123
 31
0.0
 11
-2.479708555528929
 21
6.030922177471694
 31
0.0
 11
-2.481176741224658
 21
6.031844572158092
 31
0.0
 11
-2.482830004725769
 21
6.03287722095365
 31
0.0
 11
-2.484669393507729
 21
6.034018673514793
 31
0.0
 11
-2.486696069807976
 21
6.035267319666047
 31
0.0
 11
-2.488911310409889
 21
6.036621389519211
 31
0.0
 11
-2.491675698743108
 21
6.038295505750625
 31
0.0
 11
-2.494690454791552
 21
6.040101657738148
 31
0.0
 11
-2.497958031540179
 21
6.042036438789352
 31
0.0
 11
-2.501481075521866
 21
6.044096170999154
 31
0.0
 11
-2.505262426269112
 21
6.046276905708282
 31
0.0
 11
-2.50930511575639
 21
6.048574424025673
 31
0.0
 11
-2.513612367841744
 21
6.050984237421886
 31
0.0
 11
-2.517796006562647
 21
6.053287822681738
 31
0.0
 11
-2.522207593943733
 21
6.05567790815536
 31
0.0
 11
-2.526850450808865
 21
6.058150275736181
 31
0.0
 11
-2.531727510992595
 21
6.060700911431638
 31
0.0
 11
-2.536841264648529
 21
6.063325994886639
 31
0.0
 11
-2.541322604356707
 21
6.065585301816383
 31
0.0
  0
SPLINE
  5
DF
330
2
100
AcDbEntity
  8
GAIKEI
  6
Continuous
 62
     7
100
AcDbSpline
210
0.0
220
0.0
230
1.0
 70
     8
 71
     3
 72
    11
 73
     7
 74
     5
 42
0.0000000001
 43
0.0000000001
 44
0.000001
 12
-0.8947352695168881
 22
0.4465969071573845
 32
0.0
 13
-0.9531200896111521
 23
0.3025922913420459
 33
0.0
 40
0.0
 40
0.0
 40
0.0
 40
0.0
 40
0.0347753687277451
 40
0.0712907674030111
 40
0.1082384174908542
 40
0.119164273666076
 40
0.119164273666076
 40
0.119164273666076
 40
0.119164273666076
 10
-2.541322604356707
 20
6.065585301816383
 30
0.0
 10
-2.551694187327093
 20
6.070762159189399
 30
0.0
 10
-2.573207536104249
 20
6.08088063642765
 30
0.0
 10
-2.606576552153143
 20
6.094635657769373
 30
0.0
 10
-2.633072938422621
 20
6.104115104760921
 30
0.0
 10
-2.648249874041354
 20
6.109046784297987
 30
0.0
 10
-2.651721091713625
 20
6.110148810916285
 30
0.0
 11
-2.541322604356707
 21
6.065585301816383
 31
0.0
 11
-2.572792904200895
 21
6.080382716725949
 31
0.0
 11
-2.606546414503071
 21
6.094313999098943
 31
0.0
 11
-2.641330503324297
 21
6.106772296586228
 31
0.0
 11
-2.651721091713625
 21
6.110148810916285
 31
0.0
  0
SPLINE
  5
E0
330
2
100
AcDbEntity
  8
GAIKEI
  6
Continuous
 62
     7
100
AcDbSpline
210
0.0
220
0.0
230
1.0
 70
     8
 71
     3
 72
    53
 73
    49
 74
    47
 42
0.0000000001
 43
0.0000000001
 44
0.000001
 12
-0.9925238603631221
 22
0.1220507542372678
 32
0.0
 13
-0.9999893561867823
 23
0.0046138393062992
 33
0.0
 40
0.0
 40
0.0
 40
0.0
 40
0.0
 40
0.0054872902657661
 40
0.0116506446132708
 40
0.0170104287127825
 40
0.0215819569238741
 40
0.0256917153898032
 40
0.0310268576058999
 40
0.0375942797908525
 40
0.0449275862421435
 40
0.071954182275621
 40
0.1004080770015181
 40
0.1099903013722617
 40
0.1185363973448407
 40
0.125935400814562
 40
0.1321660699840759
 40
0.1372086548734429
 40
0.1410460092055538
 40
0.1440614466294188
 40
0.1486341636805832
 40
0.1548100799120925
 40
0.1622378624310842
 40
0.1692673641721426
 40
0.1756932213650297
 40
0.1838938887748561
 40
0.1907713501090573
 40
0.1965445426158726
 40
0.2030683079480724
 40
0.2107471341330253
 40
0.2196114305240852
 40
0.2285336528854641
 40
0.2361009132084167
 40
0.2423120793057168
 40
0.2475017486633931
 40
0.2516611173153147
 40
0.2550681807924456
 40
0.2591582840553882
 40
0.2640104948066873
 40
0.2694930494779901
 40
0.2744553571355543
 40
0.2786354432414629
 40
0.2815879067451513
 40
0.284509782872149
 40
0.2879383068656221
 40
0.2918789557299728
 40
0.2963378619519502
 40
0.3013217440551762
 40
0.3068379473553987
 40
0.3068379473553987
 40
0.3068379473553987
 40
0.3068379473553987
 10
-3.27166908173848
 20
6.225981427660713
 30
0.0
 10
-3.273484503910985
 20
6.226204670299267
 30
0.0
 10
-3.277339918978597
 20
6.226671333612983
 30
0.0
 10
-3.282970800920608
 20
6.227337510035852
 30
0.0
 10
-3.288300625010833
 20
6.227949967734843
 30
0.0
 10
-3.292951834971589
 20
6.228471534457327
 30
0.0
 10
-3.297596140658285
 20
6.228980831018361
 30
0.0
 10
-3.302903311318367
 20
6.229548543554415
 30
0.0
 10
-3.309281170574877
 20
6.230209088270953
 30
0.0
 10
-3.322856473133668
 20
6.231561122207921
 30
0.0
 10
-3.343711394880656
 20
6.233433607583663
 30
0.0
 10
-3.365340440949502
 20
6.23503874005496
 30
0.0
 10
-3.380836186296711
 20
6.236030443656858
 30
0.0
 10
-3.389330433762751
 20
6.236533642022124
 30
0.0
 10
-3.396711161595973
 20
6.236940613972137
 30
0.0
 10
-3.402926955888268
 20
6.237261973626374
 30
0.0
 10
-3.407957813653894
 20
6.237508091500501
 30
0.0
 10
-3.411918605743373
 20
6.237693466030833
 30
0.0
 10
-3.415723224669704
 20
6.23786544830034
 30
0.0
 10
-3.420306923539655
 20
6.238064685278317
 30
0.0
 10
-3.426360631333302
 20
6.238313346022721
 30
0.0
 10
-3.433233371741437
 20
6.2385756673483
 30
0.0
 10
-3.440190112059553
 20
6.238820754311859
 30
0.0
 10
-3.447404956763058
 20
6.239056099164258
 30
0.0
 10
-3.454569750119567
 20
6.239270677378328
 30
0.0
 10
-3.461517582536018
 20
6.239461256972219
 30
0.0
 10
-3.467906983065887
 20
6.239624132423273
 30
0.0
 10
-3.474563723740864
 20
6.239781439025904
 30
0.0
 10
-3.4822509295564
 20
6.23994614277484
 30
0.0
 10
-3.490737886920868
 20
6.240105825859984
 30
0.0
 10
-3.499188062943915
 20
6.240241771157229
 30
0.0
 10
-3.506754231138756
 20
6.24034613512444
 30
0.0
 10
-3.513076474779346
 20
6.24042218513756
 30
0.0
 10
-3.518262914789872
 20
6.240477586380592
 30
0.0
 10
-3.52251475099959
 20
6.240518637218315
 30
0.0
 10
-3.526400109947083
 20
6.240553133209772
 30
0.0
 10
-3.53051643271646
 20
6.240586692976762
 30
0.0
 10
-3.535324592761234
 20
6.240622058417187
 30
0.0
 10
-3.54042350895461
 20
6.2406553601989
 30
0.0
 10
-3.545298409554881
 20
6.240683721878127
 30
0.0
 10
-3.549329971626349
 20
6.240705183080024
 30
0.0
 10
-3.552681404659253
 20
6.240722009287196
 30
0.0
 10
-3.555782323317899
 20
6.240736930928335
 30
0.0
 10
-3.559212636212549
 20
6.240752816724722
 30
0.0
 10
-3.563155289762732
 20
6.240770462928992
 30
0.0
 10
-3.567616391717251
 20
6.24079021976334
 30
0.0
 10
-3.572602676249204
 20
6.240811675868769
 30
0.0
 10
-3.576102661816989
 20
6.240829042486893
 30
0.0
 10
-3.577941376679248
 20
6.240837526112102
 30
0.0
 11
-3.27166908173848
 21
6.225981427660713
 31
0.0
 11
-3.277116518657834
 21
6.22664294793833
 31
0.0
 11
-3.283237275707989
 21
6.22736632193289
 31
0.0
 11
-3.288562005002376
 21
6.227978336943863
 31
0.0
 11
-3.293105065497655
 21
6.228487735815519
 31
0.0
 11
-3.297190335358806
 21
6.228935729141539
 31
0.0
 11
-3.302495216159769
 21
6.22950318434249
 31
0.0
 11
-3.309027699807074
 21
6.230179740096218
 31
0.0
 11
-3.316324907531978
 21
6.230906505381398
 31
0.0
 11
-3.343243142382519
 21
6.233324391522728
 31
0.0
 11
-3.371618785631255
 21
6.235433339317324
 31
0.0
 11
-3.381181439171001
 21
6.236045510036149
 31
0.0
 11
-3.389712574833708
 21
6.236551019943874
 31
0.0
 11
-3.397100354416679
 21
6.236958465739974
 31
0.0
 11
-3.403322712128016
 21
6.237280238760916
 31
0.0
 11
-3.408359272712147
 21
6.237526701166615
 31
0.0
 11
-3.412192431763003
 21
6.237706127901219
 31
0.0
 11
-3.415204793932502
 21
6.237842310319223
 31
0.0
 11
-3.419773197616095
 21
6.238040927219913
 31
0.0
 11
-3.425943908695401
 21
6.238294503368422
 31
0.0
 11
-3.433366282498667
 21
6.238577994690245
 31
0.0
 11
-3.440391423291288
 21
6.23882564206292
 31
0.0
 11
-3.446813861528283
 21
6.239035295568555
 31
0.0
 11
-3.455010845150411
 21
6.239281133843462
 31
0.0
 11
-3.461885715216311
 21
6.239469929449626
 31
0.0
 11
-3.467657031856901
 21
6.239617070626309
 31
0.0
 11
-3.474178976281734
 21
6.23977113506217
 31
0.0
 11
-3.481856039127336
 21
6.239935572040536
 31
0.0
 11
-3.49071876158851
 21
6.240102442307772
 31
0.0
 11
-3.499639820515398
 21
6.240246339689008
 31
0.0
 11
-3.50720635573262
 21
6.240350920246925
 31
0.0
 11
-3.513417069052593
 21
6.240425756320803
 31
0.0
 11
-3.518606439989838
 21
6.240481263445701
 31
0.0
 11
-3.522765613170136
 21
6.240521461570466
 31
0.0
 11
-3.526172541203067
 21
6.240551732476518
 31
0.0
 11
-3.530262507091094
 21
6.240585119822611
 31
0.0
 11
-3.535114584858433
 21
6.240620882520914
 31
0.0
 11
-3.540597020753452
 21
6.240656804032653
 31
0.0
 11
-3.545559243102701
 21
6.240685790253337
 31
0.0
 11
-3.549739269325385
 21
6.240708109720316
 31
0.0
 11
-3.552691695431263
 21
6.240722952815616
 31
0.0
 11
-3.555613537672968
 21
6.240737032675923
 31
0.0
 11
-3.559042025061629
 21
6.240752939100559
 31
0.0
 11
-3.562982634918512
 21
6.2407706561699
 31
0.0
 11
-3.567441499623313
 21
6.240790351804861
 31
0.0
 11
-3.572425338793067
 21
6.240812426493647
 31
0.0
 11
-3.577941376679248
 21
6.240837526112102
 31
0.0
  0
SPLINE
  5
E1
330
2
100
AcDbEntity
  8
GAIKEI
  6
Continuous
 62
     7
100
AcDbSpline
210
0.0
220
0.0
230
1.0
 70
     8
 71
     3
 72
    11
 73
     7
 74
     5
 42
0.0000000001
 43
0.0000000001
 44
0.000001
 12
0.4414692721726513
 22
0.8972763686442153
 32
0.0
 13
0.1060878587913775
 23
0.99435676002985
 33
0.0
 40
0.0
 40
0.0
 40
0.0
 40
0.0
 40
0.004185804687119
 40
0.0149368080510475
 40
0.0256828630477581
 40
0.032396536107283
 40
0.032396536107283
 40
0.032396536107283
 40
0.032396536107283
 10
-6.994387940630545
 20
6.287087531821015
 30
0.0
 10
-6.993771972580987
 20
6.288339473030845
 30
0.0
 10
-6.991683007230705
 20
6.292861273689908
 30
0.0
 10
-6.988783768252709
 20
6.300938219063084
 30
0.0
 10
-6.986672855811519
 20
6.310135879014893
 30
0.0
 10
-6.986088625027889
 20
6.315930699326685
 30
0.0
 10
-6.985851211961389
 20
6.318155961390488
 30
0.0
 11
-6.994387940630545
 21
6.287087531821015
 31
0.0
 11
-6.992631815975556
 21
6.290887454646338
 31
0.0
 11
-6.988986851391985
 21
6.301001752626206
 31
0.0
 11
-6.986643716581937
 21
6.3114892508313
 31
0.0
 11
-6.985851211961389
 21
6.318155961390488
 31
0.0
  0
SPLINE
  5
E2
330
2
100
AcDbEntity
  8
GAIKEI
  6
Continuous
 62
     7
100
AcDbSpline
210
0.0
220
0.0
230
1.0
 70
     8
 71
     3
 72
    10
 73
     6
 74
     0
 42
0.0000000001
 43
0.0000000001
 40
0.0
 40
0.0
 40
0.0
 40
0.0
 40
0.0146467158831148
 40
0.0307270173815759
 40
0.0371958039594918
 40
0.0371958039594918
 40
0.0371958039594918
 40
0.0371958039594918
 10
-7.036613416057136
 20
6.24744560768488
 30
0.0
 10
-7.033609352340818
 20
6.248698401308217
 30
0.0
 10
-7.027454117977015
 20
6.25169337227976
 30
0.0
 10
-7.020490219298096
 20
6.256189088011296
 30
0.0
 10
-7.016547424029397
 20
6.259288600159209
 30
0.0
 10
-7.015440663477761
 20
6.260206725780562
 30
0.0
  0
SPLINE
  5
E3
330
2
100
AcDbEntity
  8
GAIKEI
  6
Continuous
 62
     7
100
AcDbSpline
210
0.0
220
0.0
230
1.0
 70
     8
 71
     3
 72
    17
 73
    13
 74
     0
 42
0.0000000001
 43
0.0000000001
 40
0.0
 40
0.0
 40
0.0
 40
0.0
 40
0.0053110211988824
 40
0.0105179930601449
 40
0.0157296463485923
 40
0.0183644200126646
 40
0.0210294655425614
 40
0.0237309355835204
 40
0.0264731849282742
 40
0.0320877262452563
 40
0.0378700125432029
 40
0.0406906978662828
 40
0.0406906978662828
 40
0.0406906978662828
 40
0.0406906978662828
 10
-7.036621129280064
 20
6.247462743765026
 30
0.0
 10
-7.037708416280139
 20
6.247003676675177
 30
0.0
 10
-7.039879818582392
 20
6.246137135065737
 30
0.0
 10
-7.043169922847226
 20
6.244954206650731
 30
0.0
 10
-7.045942084201769
 20
6.244096165475696
 30
0.0
 10
-7.048196088577398
 20
6.243482508837757
 30
0.0
 10
-7.049922254106888
 20
6.24305535554248
 30
0.0
 10
-7.051681139908623
 20
6.242663021972163
 30
0.0
 10
-7.054091397766256
 20
6.242183117587899
 30
0.0
 10
-7.057193315852998
 20
6.24167545291354
 30
0.0
 10
-7.060331964621695
 20
6.241304899059713
 30
0.0
 10
-7.062237507738672
 20
6.241145935377232
 30
0.0
 10
-7.062862778504666
 20
6.241100889252152
 30
0.0
  0
SPLINE
  5
E4
330
2
100
AcDbEntity
  8
GAIKEI
  6
Continuous
 62
     7
100
AcDbSpline
210
0.0
220
0.0
230
1.0
 70
     8
 71
     3
 72
    32
 73
    28
 74
    26
 42
0.0000000001
 43
0.0000000001
 44
0.000001
 12
-0.4111671761190204
 22
0.9115599559449233
 32
0.0
 13
-0.1407214776443252
 23
0.9900492238922252
 33
0.0
 40
0.0
 40
0.0
 40
0.0
 40
0.0
 40
0.0009349279357739
 40
0.007164913647782
 40
0.0147502600221667
 40
0.023471676040041
 40
0.032317564048666
 40
0.0411778255162692
 40
0.0529604829304785
 40
0.0646417582999245
 40
0.0761510683810991
 40
0.0844746121018411
 40
0.0916077719999021
 40
0.0973329510830299
 40
0.1015765517822025
 40
0.1053593117703274
 40
0.1103909353809436
 40
0.1167363901873048
 40
0.1244483018619233
 40
0.1335875156232031
 40
0.1441844266244331
 40
0.1562256014891691
 40
0.1697818108904385
 40
0.1849305360997652
 40
0.2017516834254148
 40
0.2203228521931175
 40
0.2394728961800975
 40
0.2394728961800975
 40
0.2394728961800975
 40
0.2394728961800975
 10
-3.056253002075862
 20
6.199678997008476
 30
0.0
 10
-3.056381139302274
 20
6.199963077964468
 30
0.0
 10
-3.057361355978123
 20
6.202140960699921
 30
0.0
 10
-3.059353821924048
 20
6.20663601225803
 30
0.0
 10
-3.062314724360859
 20
6.213540396569413
 30
0.0
 10
-3.065501552855685
 20
6.221295745663866
 30
0.0
 10
-3.068721396167099
 20
6.229495772999626
 30
0.0
 10
-3.072179504952316
 20
6.23869733576754
 30
0.0
 10
-3.075807455991757
 20
6.248843545776765
 30
0.0
 10
-3.079546146859541
 20
6.259886052428072
 30
0.0
 10
-3.082758772696315
 20
6.269887886742708
 30
0.0
 10
-3.085399392292409
 20
6.278480095429983
 30
0.0
 10
-3.087409544554617
 20
6.285248626014208
 30
0.0
 10
-3.088990756797684
 20
6.290725634517968
 30
0.0
 10
-3.090236681653223
 20
6.295136925189808
 30
0.0
 10
-3.091400468695383
 20
6.299331132266871
 30
0.0
 10
-3.092727240914911
 20
6.304207153628482
 30
0.0
 10
-3.094358925077941
 20
6.31035743784605
 30
0.0
 10
-3.096284282963914
 20
6.317846175874166
 30
0.0
 10
-3.098482739054865
 20
6.326727612085193
 30
0.0
 10
-3.100922350107545
 20
6.337035489881316
 30
0.0
 10
-3.103567249688758
 20
6.348807063946026
 30
0.0
 10
-3.106379140905715
 20
6.362095233967892
 30
0.0
 10
-3.109319149507427
 20
6.376983584499896
 30
0.0
 10
-3.112341130341683
 20
6.393558025437698
 30
0.0
 10
-3.115318561543936
 20
6.41149409256846
 30
0.0
 10
-3.117186575358829
 20
6.423928901041279
 30
0.0
 10
-3.118084849521096
 20
6.430248729770227
 30
0.0
 11
-3.056253002075862
 21
6.199678997008476
 31
0.0
 11
-3.056636780165007
 21
6.200531560589979
 31
0.0
 11
-3.059161250583116
 21
6.206227948175779
 31
0.0
 11
-3.062148947045216
 21
6.21320030043546
 31
0.0
 11
-3.065464207687611
 21
6.221266672920393
 31
0.0
 11
-3.068698795500552
 21
6.229499808528288
 31
0.0
 11
-3.071816945972216
 21
6.237793188663545
 31
0.0
 11
-3.075786517581349
 21
6.248886989264576
 31
0.0
 11
-3.079534581447376
 21
6.259950605261053
 31
0.0
 11
-3.083055917358606
 21
6.270907978854154
 31
0.0
 11
-3.085501616773882
 21
6.278864095715675
 31
0.0
 11
-3.087532709823619
 21
6.285701972093534
 31
0.0
 11
-3.089120847406917
 21
6.291202468027535
 31
0.0
 11
-3.090274325204234
 21
6.295286292015447
 31
0.0
 11
-3.091285762914935
 21
6.298931323550334
 31
0.0
 11
-3.092606917866902
 21
6.303786400017884
 31
0.0
 11
-3.09423423430266
 21
6.309919638474838
 31
0.0
 11
-3.096154757592671
 21
6.317388583782729
 31
0.0
 11
-3.098351121521105
 21
6.326259952539686
 31
0.0
 11
-3.100792331465754
 21
6.336571838330513
 31
0.0
 11
-3.10343271280719
 21
6.348319955928275
 31
0.0
 11
-3.106240070570123
 21
6.361582292825175
 31
0.0
 11
-3.109175994571259
 21
6.37644379702192
 31
0.0
 11
-3.112194096267927
 21
6.392991972608456
 31
0.0
 11
-3.115239804451974
 21
6.411311649951358
 31
0.0
 11
-3.118084849521096
 21
6.430248729770227
 31
0.0
  0
SPLINE
  5
E5
330
2
100
AcDbEntity
  8
GAIKEI
  6
Continuous
 62
     7
100
AcDbSpline
210
0.0
220
0.0
230
1.0
 70
     8
 71
     3
 72
    13
 73
     9
 74
     7
 42
0.0000000001
 43
0.0000000001
 44
0.000001
 12
-0.141089003936047
 22
0.9899969156357681
 32
0.0
 13
-0.0800698535292473
 23
0.9967892548356473
 33
0.0
 40
0.0
 40
0.0
 40
0.0
 40
0.0
 40
0.0012174894668807
 40
0.0188148282556191
 40
0.0375674443334919
 40
0.05745788966848
 40
0.0784594525011255
 40
0.1007703453799962
 40
0.1007703453799962
 40
0.1007703453799962
 40
0.1007703453799962
 10
-3.118084849521096
 20
6.430248729770227
 30
0.0
 10
-3.118142107646491
 20
6.43065050004256
 30
0.0
 10
-3.119023965387597
 20
6.436859799261753
 30
0.0
 10
-3.120694638934011
 20
6.44927076268533
 30
0.0
 10
-3.12295053335454
 20
6.467881859569473
 30
0.0
 10
-3.125085530234969
 20
6.487648976993369
 30
0.0
 10
-3.127101239739992
 20
6.508620339309345
 30
0.0
 10
-3.128336246777514
 20
6.5230052223298
 30
0.0
 10
-3.128931723419157
 20
6.530418308425623
 30
0.0
 11
-3.118084849521096
 21
6.430248729770227
 31
0.0
 11
-3.118256070467893
 21
6.431454123287323
 31
0.0
 11
-3.120607093540058
 21
6.44889406947999
 31
0.0
 11
-3.122866180075106
 21
6.467510652543865
 31
0.0
 11
-3.125007064467325
 21
6.487284914023234
 31
0.0
 11
-3.127024091874773
 21
6.508189219894916
 31
0.0
 11
-3.128931723419157
 21
6.530418308425623
 31
0.0
  0
SPLINE
  5
E6
330
2
100
AcDbEntity
  8
GAIKEI
  6
Continuous
 62
     7
100
AcDbSpline
210
0.0
220
0.0
230
1.0
 70
     8
 71
     3
 72
    18
 73
    14
 74
    12
 42
0.0000000001
 43
0.0000000001
 44
0.000001
 12
-0.0794509911175653
 22
0.9968387733281829
 32
0.0
 13
-0.0910105620102942
 23
0.9958499272493673
 33
0.0
 40
0.0
 40
0.0
 40
0.0
 40
0.0
 40
0.099549288654065
 40
0.1969603932893473
 40
0.2922436580475816
 40
0.3854074355659266
 40
0.476458369484652
 40
0.5654016139362847
 40
0.6473353674942479
 40
0.7274026450228732
 40
0.8056041326219787
 40
0.8819412306951488
 40
0.9486125760756721
 40
0.9486125760756721
 40
0.9486125760756721
 40
0.9486125760756721
 10
-3.12939239567963
 20
6.529872427224916
 30
0.0
 10
-3.1320288255625
 20
6.562950624154126
 30
0.0
 10
-3.137312187890316
 20
6.628391215234387
 30
0.0
 10
-3.145350918778163
 20
6.725473576847093
 30
0.0
 10
-3.153380999034283
 20
6.820420704934292
 30
0.0
 10
-3.161375034458266
 20
6.913243133808975
 30
0.0
 10
-3.169306557188576
 20
7.003949695635753
 30
0.0
 10
-3.177007884902309
 20
7.090918700495848
 30
0.0
 10
-3.184458726511536
 20
7.17423430232796
 30
0.0
 10
-3.191644502070261
 20
7.253978712747652
 30
0.0
 10
-3.198705957322253
 20
7.331861200912157
 30
0.0
 10
-3.205392040164653
 20
7.405294089195479
 30
0.0
 10
-3.209726236950203
 20
7.452766125221586
 30
0.0
 10
-3.211748835821225
 20
7.474897676703847
 30
0.0
 11
-3.12939239567963
 21
6.529872427224916
 31
0.0
 11
-3.137402890021007
 21
6.629098951032688
 31
0.0
 11
-3.145437233016622
 21
6.726178208780311
 31
0.0
 11
-3.153464149021331
 21
6.821122821229181
 31
0.0
 11
-3.161455005345061
 21
6.913943336169268
 31
0.0
 11
-3.169383698798753
 21
7.004648498163078
 31
0.0
 11
-3.17722654269113
 21
7.093245490880207
 31
0.0
 11
-3.184523352823276
 21
7.174854149722733
 31
0.0
 11
-3.191708683257985
 21
7.254597845501621
 31
0.0
 11
-3.198768049966474
 21
7.332479755436764
 31
0.0
 11
-3.205688537926192
 21
7.408502395148275
 31
0.0
 11
-3.211748835821225
 21
7.474897676703847
 31
0.0
  0
SPLINE
  5
E7
330
2
100
AcDbEntity
  8
GAIKEI
  6
Continuous
 62
     7
100
AcDbSpline
210
0.0
220
0.0
230
1.0
 70
     8
 71
     3
 72
     9
 73
     5
 74
     3
 42
0.0000000001
 43
0.0000000001
 44
0.000001
 12
0.9935543841909055
 22
0.1133564539628463
 32
0.0
 13
0.933432691989333
 23
-0.3587525742423978
 33
0.0
 40
0.0
 40
0.0
 40
0.0
 40
0.0
 40
0.0007769177240025
 40
0.000929376812217
 40
0.000929376812217
 40
0.000929376812217
 40
0.000929376812217
 10
-3.215283882275599
 20
7.511269444001612
 30
0.0
 10
-3.215026578938655
 20
7.511298800214348
 30
0.0
 10
-3.214706188777277
 20
7.511273714071847
 30
0.0
 10
-3.214412543961302
 20
7.511175051647796
 30
0.0
 10
-3.21436510719559
 20
7.511156819950997
 30
0.0
 11
-3.215283882275599
 21
7.511269444001612
 31
0.0
 11
-3.214509239309705
 21
7.511205765312695
 31
0.0
 11
-3.21436510719559
 21
7.511156819950997
 31
0.0
  0
SPLINE
  5
E8
330
2
100
AcDbEntity
  8
GAIKEI
  6
Continuous
 62
     7
100
AcDbSpline
210
0.0
220
0.0
230
1.0
 70
     8
 71
     3
 72
    19
 73
    15
 74
    13
 42
0.0000000001
 43
0.0000000001
 44
0.000001
 12
-0.093056214685267
 22
0.995660856370506
 32
0.0
 13
-0.9999961261199747
 23
0.0027834771498726
 33
0.0
 40
0.0
 40
0.0
 40
0.0
 40
0.0
 40
0.0068644846905438
 40
0.0138667579253798
 40
0.0211457308771237
 40
0.0284423218909594
 40
0.03183544396576
 40
0.0349082399375216
 40
0.0376075365381031
 40
0.0399676123266758
 40
0.0438383313346546
 40
0.0476083645157114
 40
0.050807735798286
 40
0.0514683446557898
 40
0.0514683446557898
 40
0.0514683446557898
 40
0.0514683446557898
 10
-3.214365127778251
 20
7.511156980540903
 30
0.0
 10
-3.214578055431942
 20
7.513435213442733
 30
0.0
 10
-3.215472665890018
 20
7.518008612347784
 30
0.0
 10
-3.218261320972217
 20
7.524539022138498
 30
0.0
 10
-3.222477915215435
 20
7.530435180942163
 30
0.0
 10
-3.226950566182587
 20
7.534493163196174
 30
0.0
 10
-3.230796109620371
 20
7.537006446104101
 30
0.0
 10
-3.233509337425644
 20
7.538421203314214
 30
0.0
 10
-3.236021129198476
 20
7.539449984906184
 30
0.0
 10
-3.238862546891247
 20
7.540345445916443
 30
0.0
 10
-3.242129811510807
 20
7.541045677933794
 30
0.0
 10
-3.245731819169044
 20
7.541407645503284
 30
0.0
 10
-3.248275910836603
 20
7.541442233789638
 30
0.0
 10
-3.249562476047564
 20
7.541454798676625
 30
0.0
 10
-3.249782678147028
 20
7.541455411606506
 30
0.0
 11
-3.214365127778251
 21
7.511156980540903
 31
0.0
 11
-3.21569215782253
 21
7.517892719525065
 31
0.0
 11
-3.218442502473166
 21
7.524332305032771
 31
0.0
 11
-3.222668559590971
 21
7.530258931651417
 31
0.0
 11
-3.228073813174631
 21
7.535160404862153
 31
0.0
 11
-3.230914901340128
 21
7.537015584608496
 31
0.0
 11
-3.23364063602051
 21
7.538434256998584
 31
0.0
 11
-3.236139080339711
 21
7.539456091095587
 31
0.0
 11
-3.238389287646839
 21
7.540167896967204
 31
0.0
 11
-3.242173505341696
 21
7.540981897594605
 31
0.0
 11
-3.245923687304539
 21
7.541368843789939
 31
0.0
 11
-3.249122026569295
 21
7.541451351469618
 31
0.0
 11
-3.249782678147028
 21
7.541455411606506
 31
0.0
  0
SPLINE
  5
E9
330
2
100
AcDbEntity
  8
GAIKEI
  6
Continuous
 62
     7
100
AcDbSpline
210
0.0
220
0.0
230
1.0
 70
     8
 71
     3
 72
    13
 73
     9
 74
     7
 42
0.0000000001
 43
0.0000000001
 44
0.000001
 12
-0.2156938277525596
 22
0.9764610451366962
 32
0.0
 13
-0.0944951599679353
 23
0.9955253209952193
 33
0.0
 40
0.0
 40
0.0
 40
0.0
 40
0.0
 40
0.0041539192547046
 40
0.0100364713111844
 40
0.0152728930945526
 40
0.0212093300103769
 40
0.027803388262907
 40
0.0349678839187808
 40
0.0349678839187808
 40
0.0349678839187808
 40
0.0349678839187808
 10
-3.26029385479768
 20
7.541397854758628
 30
0.0
 10
-3.260592513045757
 20
7.542749901537575
 30
0.0
 10
-3.261285538405815
 20
7.54602308457737
 30
0.0
 10
-3.262214071498426
 20
7.551029269178343
 30
0.0
 10
-3.263138097660835
 20
7.556639066552548
 30
0.0
 10
-3.263992028640771
 20
7.562499855398073
 30
0.0
 10
-3.26481589481316
 20
7.569013353800102
 30
0.0
 10
-3.265296695151917
 20
7.573574686578496
 30
0.0
 10
-3.26552236520628
 20
7.57595216552437
 30
0.0
 11
-3.26029385479768
 21
7.541397854758628
 31
0.0
 11
-3.261151103728565
 21
7.545462645430916
 31
0.0
 11
-3.26223179838341
 21
7.551244874095857
 31
0.0
 11
-3.263084199897434
 21
7.556411424712848
 31
0.0
 11
-3.263941925182606
 21
7.562285552862363
 31
0.0
 11
-3.264769297768481
 21
7.56882748200033
 31
0.0
 11
-3.26552236520628
 21
7.57595216552437
 31
0.0
  0
SPLINE
  5
EA
330
2
100
AcDbEntity
  8
GAIKEI
  6
Continuous
 62
     7
100
AcDbSpline
210
0.0
220
0.0
230
1.0
 70
     8
 71
     3
 72
     9
 73
     5
 74
     3
 42
0.0000000001
 43
0.0000000001
 44
0.000001
 12
0.6409276654430805
 22
0.7676012817014333
 32
0.0
 13
0.3728979314419067
 23
0.9278723687697285
 33
0.0
 40
0.0
 40
0.0
 40
0.0
 40
0.0
 40
0.0134018539500546
 40
0.0266026268253181
 40
0.0266026268253181
 40
0.0266026268253181
 40
0.0266026268253181
 10
-7.00535454379127
 20
6.270329903408224
 30
0.0
 10
-7.002491337469663
 20
6.273758996831304
 30
0.0
 10
-6.997328406748721
 20
6.281020411121062
 30
0.0
 10
-6.993384749889877
 20
6.289008060735341
 30
0.0
 10
-6.991743902923673
 20
6.293090938201117
 30
0.0
 11
-7.00535454379127
 21
6.270329903408224
 31
0.0
 11
-6.997597959493546
 21
6.281259112100485
 31
0.0
 11
-6.991743902923673
 21
6.293090938201117
 31
0.0
  0
LINE
  5
EB
330
2
100
AcDbEntity
  8
GAIKEI
  6
Continuous
 62
     7
100
AcDbLine
 10
-2.259281652448521
 20
5.574794275101595
 30
0.0
 11
-2.253592419862116
 21
5.574794322983308
 31
0.0
  0
LINE
  5
EC
330
2
100
AcDbEntity
  8
GAIKEI
  6
Continuous
 62
     7
100
AcDbLine
 10
-2.25951178486899
 20
5.573623971887002
 30
0.0
 11
-2.259470918851775
 21
5.574794275701634
 31
0.0
  0
LINE
  5
ED
330
2
100
AcDbEntity
  8
GAIKEI
  6
Continuous
 62
     7
100
AcDbLine
 10
-2.268885333355314
 20
5.826379365343655
 30
0.0
 11
-2.269250071470622
 21
5.826921296713578
 31
0.0
  0
LINE
  5
EE
330
2
100
AcDbEntity
  8
GAIKEI
  6
Continuous
 62
     7
100
AcDbLine
 10
-2.26730147853344
 20
5.823943109290155
 30
0.0
 11
-2.268902327991042
 21
5.826405110552911
 31
0.0
  0
LINE
  5
EF
330
2
100
AcDbEntity
  8
GAIKEI
  6
Continuous
 62
     7
100
AcDbLine
 10
-2.269250071470622
 20
5.826921296713578
 30
0.0
 11
-2.269634409687654
 21
5.827468090115218
 31
0.0
  0
LINE
  5
F0
330
2
100
AcDbEntity
  8
GAIKEI
  6
Continuous
 62
     7
100
AcDbLine
 10
-2.676895685538084
 20
6.117717414150376
 30
0.0
 11
-2.652565945015908
 21
6.110401037278109
 31
0.0
  0
LINE
  5
F1
330
2
100
AcDbEntity
  8
GAIKEI
  6
Continuous
 62
     1
100
AcDbLine
 10
-6.985265959110265
 20
6.319663814295779
 30
0.0
 11
-6.98567938657635
 21
6.322030066536598
 31
0.0
  0
LINE
  5
F2
330
2
100
AcDbEntity
  8
GAIKEI
  6
Continuous
 62
     7
100
AcDbLine
 10
-3.128911419142667
 20
6.530431039854619
 30
0.0
 11
-3.129187526858856
 21
6.530431674195853
 31
0.0
  0
LINE
  5
F3
330
2
100
AcDbEntity
  8
GAIKEI
  6
Continuous
 62
     7
100
AcDbLine
 10
-3.129187526858856
 20
6.530431674195853
 30
0.0
 11
-3.1295713707037
 21
6.530432200422183
 31
0.0
  0
LINE
  5
F4
330
2
100
AcDbEntity
  8
GAIKEI
  6
Continuous
 62
     7
100
AcDbLine
 10
-3.128930821756753
 20
6.530418308425623
 30
0.0
 11
-3.128910377433669
 21
6.530418308425623
 31
0.0
  0
LINE
  5
F5
330
2
100
AcDbEntity
  8
GAIKEI
  6
Continuous
 62
     7
100
AcDbLine
 10
-6.985497421442062
 20
6.329382023216112
 30
0.0
 11
-6.985679654010581
 21
6.322020199443613
 31
0.0
  0
LINE
  5
F6
330
2
100
AcDbEntity
  8
GAIKEI
  6
Continuous
 62
     7
100
AcDbLine
 10
-3.211733731738277
 20
7.474794041749703
 30
0.0
 11
-3.211811529368986
 21
7.474794041749703
 31
0.0
  0
LINE
  5
F7
330
2
100
AcDbEntity
  8
GAIKEI
  6
Continuous
 62
     7
100
AcDbLine
 10
-6.957433450134288
 20
7.474794041729666
 30
0.0
 11
-6.985596838104498
 21
6.325365793027003
 31
0.0
  0
LINE
  5
F8
330
2
100
AcDbEntity
  8
GAIKEI
  6
Continuous
 62
     7
100
AcDbLine
 10
-6.953186416452666
 20
7.648127608414682
 30
0.0
 11
-6.957425523797581
 21
7.475117538155075
 31
0.0
  0
LINE
  5
F9
330
2
100
AcDbEntity
  8
GAIKEI
  6
Continuous
 62
     7
100
AcDbLine
 10
-3.211814874176198
 20
7.474794041749703
 30
0.0
 11
-3.215268438458025
 21
7.511121836286832
 31
0.0
  0
LINE
  5
FA
330
2
100
AcDbEntity
  8
GAIKEI
  6
Continuous
 62
     7
100
AcDbLine
 10
-3.215268438458025
 20
7.511121836286832
 30
0.0
 11
-3.215315517196302
 21
7.511611156632397
 31
0.0
  0
LINE
  5
FB
330
2
100
AcDbEntity
  8
GAIKEI
  6
Continuous
 62
     7
100
AcDbLine
 10
-6.985851211961374
 20
6.318155961390488
 30
0.0
 11
-6.985671454831788
 21
6.322180180440511
 31
0.0
  0
LINE
  5
FC
330
2
100
AcDbEntity
  8
GAIKEI
  6
Continuous
 62
     7
100
AcDbLine
 10
-7.068973400729362
 20
6.240888141761786
 30
0.0
 11
-7.062862778504609
 21
6.241100889252152
 31
0.0
  0
LINE
  5
FD
330
2
100
AcDbEntity
  8
GAIKEI
  6
Continuous
 62
     7
100
AcDbLine
 10
-7.015440663477747
 20
6.260206725780562
 30
0.0
 11
-7.00535454379127
 21
6.270329903408224
 31
0.0
  0
LINE
  5
FE
330
2
100
AcDbEntity
  8
GAIKEI
  6
Continuous
 62
     7
100
AcDbLine
 10
-3.265519297204804
 20
7.575564051422389
 30
0.0
 11
-3.272032282891785
 21
7.648125823414972
 31
0.0
  0
ARC
  5
FF
330
2
100
AcDbEntity
  8
GAIKEI
  6
Continuous
 62
     7
100
AcDbCircle
 10
-339.7606466822351
 20
-6.789738480037328
 30
0.0
 40
337.7337912969731
100
AcDbArc
 50
2.098085596368077
 51
2.136863379018478
  0
ARC
  5
100
330
2
100
AcDbEntity
  8
GAIKEI
  6
Continuous
 62
     7
100
AcDbCircle
 10
-3.599947770452644
 20
1.457856512933005
 30
0.0
 40
4.783031638510574
100
AcDbArc
 50
89.73641317892317
 51
90.00191867492679
  0
DIMENSION
  5
101
330
2
100
AcDbEntity
  8
SUNPO
  6
Continuous
100
AcDbDimension
  2
*D7
 10
14.28512528475841
 20
5.541461704538957
 30
0.0
 11
12.53512528475841
 21
20.64479465633789
 31
0.0
 70
    33
  1
906.2
 71
     5
 42
30.20666590359787
  3
STANDARD
100
AcDbAlignedDimension
 13
6.285125284758407
 23
35.74812760813683
 33
0.0
 14
6.285125284758407
 24
5.54146170453896
 34
0.0
1001
ACAD
1000
DSTYLE
1002
{
1070
    40
1040
1.0
1070
   140
1040
2.5
1070
   147
1040
0.5
1070
   172
1070
     1
1070
   279
1070
     0
1070
   288
1070
     0
1002
}
  0
SPLINE
  5
10E
330
2
100
AcDbEntity
  8
GAIKEI
  6
Continuous
 62
     7
100
AcDbSpline
210
0.0
220
0.0
230
1.0
 70
     8
 71
     3
 72
     9
 73
     5
 74
     3
 42
0.0000000001
 43
0.0000000001
 44
0.000001
 12
-0.6588573713310679
 22
0.7522678806400786
 32
0.0
 13
-0.796736735421562
 23
0.6043265461898825
 33
0.0
 40
0.0
 40
0.0
 40
0.0
 40
0.0
 40
0.0020844604033298
 40
0.0062931313272764
 40
0.0062931313272764
 40
0.0062931313272764
 40
0.0062931313272764
 10
40.65106711300178
 20
5.87267262050949
 30
0.0
 10
40.65060932563446
 20
5.873195311379447
 30
0.0
 10
40.64917381304276
 20
5.874726550059108
 30
0.0
 10
40.64758559993856
 20
5.876109746048626
 30
0.0
 10
40.64646786569443
 20
5.876957549903124
 30
0.0
 11
40.65106711300178
 21
5.87267262050949
 31
0.0
 11
40.64964232484278
 21
5.874193438548616
 31
0.0
 11
40.64646786569443
 21
5.876957549903124
 31
0.0
  0
SPLINE
  5
10F
330
2
100
AcDbEntity
  8
GAIKEI
  6
Continuous
 62
     7
100
AcDbSpline
210
0.0
220
0.0
230
1.0
 70
     8
 71
     3
 72
    13
 73
     9
 74
     7
 42
0.0000000001
 43
0.0000000001
 44
0.000001
 12
-0.0956104150738398
 22
0.9954188307086662
 32
0.0
 13
-0.6603505905893035
 23
0.7509574538603092
 33
0.0
 40
0.0
 40
0.0
 40
0.0
 40
0.0
 40
0.0049587954628273
 40
0.0074277434722893
 40
0.0098957550903933
 40
0.0148840302832414
 40
0.0199887613450514
 40
0.0230749689492644
 40
0.0230749689492644
 40
0.0230749689492644
 40
0.0230749689492644
 10
40.65948887043491
 20
5.851649473598627
 30
0.0
 10
40.65933083293742
 20
5.853294833059067
 30
0.0
 10
40.65898544559966
 20
5.855749369786849
 30
0.0
 10
40.65836660143588
 20
5.858990573277026
 30
0.0
 10
40.65750022069868
 20
5.862187771265524
 30
0.0
 10
40.65583435837484
 20
5.866055588612766
 30
0.0
 10
40.65345856287208
 20
5.869769319810899
 30
0.0
 10
40.65174643933983
 20
5.871900083641321
 30
0.0
 10
40.65106711300178
 20
5.87267262050949
 30
0.0
 11
40.65948887043491
 21
5.851649473598627
 31
0.0
 11
40.65881757751069
 21
5.856562537278875
 31
0.0
 11
40.65833697069439
 21
5.85898432874319
 31
0.0
 11
40.6576841700838
 21
5.86136449176729
 31
0.0
 11
40.65573330568494
 21
5.865955542750128
 31
0.0
 11
40.65300416358236
 21
5.870269492693722
 31
0.0
 11
40.65106711300178
 21
5.87267262050949
 31
0.0
  0
SPLINE
  5
110
330
2
100
AcDbEntity
  8
GAIKEI
  6
Continuous
 62
     7
100
AcDbSpline
210
0.0
220
0.0
230
1.0
 70
     8
 71
     3
 72
    15
 73
    11
 74
     9
 42
0.0000000001
 43
0.0000000001
 44
0.000001
 12
0.9999999766159753
 22
-0.0002162592170884
 32
0.0
 13
0.0366475393088663
 23
0.9993282533094943
 33
0.0
 40
0.0
 40
0.0
 40
0.0
 40
0.0
 40
0.0059717959354764
 40
0.0122922681850871
 40
0.018851091743953
 40
0.0255553730324184
 40
0.0322505779258377
 40
0.0388181700834825
 40
0.0451340909501249
 40
0.0511078948294602
 40
0.0511078948294602
 40
0.0511078948294602
 40
0.0511078948294602
 10
40.62913629157094
 20
5.541461704520713
 30
0.0
 10
40.63112689016955
 20
5.541461274035412
 30
0.0
 10
40.63523514773243
 20
5.541821965421377
 30
0.0
 10
40.64131318094733
 20
5.543552971296321
 30
0.0
 10
40.64718565532894
 20
5.54649932154092
 30
0.0
 10
40.65244118094404
 20
5.550653325086813
 30
0.0
 10
40.65677344510842
 20
5.555764135800444
 30
0.0
 10
40.65993874174647
 20
5.561520853301999
 30
0.0
 10
40.66186601305382
 20
5.567542271181878
 30
0.0
 10
40.66237606393778
 20
5.571632590377873
 30
0.0
 10
40.66244903900861
 20
5.573622520709989
 30
0.0
 11
40.62913629157094
 21
5.541461704520713
 31
0.0
 11
40.63508503735469
 21
5.54199223255992
 31
0.0
 11
40.64116702877377
 21
5.543712174112272
 31
0.0
 11
40.64702419371006
 21
5.546663797959297
 31
0.0
 11
40.65228878300672
 21
5.55081493938448
 31
0.0
 11
40.65661496064481
 21
5.555924778641156
 31
0.0
 11
40.65978109166823
 21
5.561678850998191
 31
0.0
 11
40.6617047282566
 21
5.567694734255269
 31
0.0
 11
40.66244903900861
 21
5.573622520709989
 31
0.0
  0
LINE
  5
111
330
2
100
AcDbEntity
  8
GAIKEI
  6
Continuous
 62
     7
100
AcDbLine
 10
40.66915661668097
 20
5.574794153275774
 30
0.0
 11
40.66272718745887
 21
5.574794156069316
 31
0.0
  0
LINE
  5
112
330
2
100
AcDbEntity
  8
GAIKEI
  6
Continuous
 62
     7
100
AcDbLine
 10
40.65948883012667
 20
5.851649476158428
 30
0.0
 11
40.66915661538774
 21
5.574794190310598
 31
0.0
  0
LINE
  5
113
330
2
100
AcDbEntity
  8
GAIKEI
  6
Continuous
 62
     7
100
AcDbLine
 10
40.66248995348661
 20
5.574794150823464
 30
0.0
 11
40.66244904031947
 21
5.5736225250848
 31
0.0
  0
LINE
  5
114
330
2
100
AcDbEntity
  8
GAIKEI
  6
Continuous
 62
     7
100
AcDbLine
 10
40.64166665446487
 20
5.879862250188892
 30
0.0
 11
40.64129804443905
 21
5.880044186140082
 31
0.0
  0
LINE
  5
115
330
2
100
AcDbEntity
  8
GAIKEI
  6
Continuous
 62
     7
100
AcDbLine
 10
40.64217774369129
 20
5.879603299449655
 30
0.0
 11
40.64166665446487
 21
5.879862250188892
 31
0.0
  0
LINE
  5
116
330
2
100
AcDbEntity
  8
GAIKEI
  6
Continuous
 62
     7
100
AcDbLine
 10
40.63660562346025
 20
5.882145778824821
 30
0.0
 11
40.64171861141767
 21
5.879972462518566
 31
0.0
  0
LINE
  5
117
330
2
100
AcDbEntity
  8
GAIKEI
  6
Continuous
 62
     7
100
AcDbLine
 10
40.64282334598994
 20
5.879362855591381
 30
0.0
 11
40.64592131016763
 21
5.877339743122604
 31
0.0
  0
LINE
  5
118
330
2
100
AcDbEntity
  8
GAIKEI
  6
Continuous
 62
     7
100
AcDbLine
 10
40.63611320869969
 20
5.882233389911135
 30
0.0
 11
40.63660562346025
 21
5.882145778824821
 31
0.0
  0
LINE
  5
119
330
2
100
AcDbEntity
  8
GAIKEI
  6
Continuous
 62
     7
100
AcDbLine
 10
40.65112795651188
 20
5.872587637614543
 30
0.0
 11
40.65090387422763
 21
5.87283799656592
 31
0.0
  0
LINE
  5
11A
330
2
100
AcDbEntity
  8
GAIKEI
  6
Continuous
 62
     1
100
AcDbLine
 10
-38.48079171708906
 20
9.639794275061831
 30
0.0
 11
4.412541615825134
 21
9.639794275061831
 31
0.0
  0
LINE
  5
11B
330
2
100
AcDbEntity
  8
GAIKEI
  6
Continuous
 62
     1
100
AcDbLine
 10
-38.48079171708906
 20
33.75646094149284
 30
0.0
 11
4.412541615825134
 21
33.75646094149284
 31
0.0
  0
LINE
  5
11C
330
2
100
AcDbEntity
  8
GAIKEI
  6
Continuous
 62
     1
100
AcDbLine
 10
4.412541615825134
 20
9.639794275061831
 30
0.0
 11
4.412541615825134
 21
33.75646094149284
 31
0.0
  0
LINE
  5
11D
330
2
100
AcDbEntity
  8
GAIKEI
  6
Continuous
 62
     1
100
AcDbLine
 10
-38.48079171708906
 20
9.639794275061831
 30
0.0
 11
-38.48079171708906
 21
33.75646094149284
 31
0.0
  0
ELLIPSE
  5
11E
330
2
100
AcDbEntity
  8
GAIKEI
  6
Continuous
 62
     1
100
AcDbEllipse
 10
4.999116792752857
 20
8.931552431468674
 30
0.0
 11
-0.0472697495618759
 21
0.047269749561876
 31
0.0
210
0.0
220
0.0
230
1.0
 40
0.9972646886342364
 41
2.35756401806304
 42
3.925621289116866
  0
ELLIPSE
  5
11F
330
2
100
AcDbEntity
  8
GAIKEI
  6
Continuous
 62
     1
100
AcDbEllipse
 10
-39.06736689401679
 20
8.931552431468674
 30
0.0
 11
-0.0472697495618759
 21
-0.0472697495618759
 31
0.0
210
0.0
220
0.0
230
1.0
 40
0.9972646886342364
 41
5.499156671652512
 42
7.067213942706339
  0
ELLIPSE
  5
120
330
2
100
AcDbEntity
  8
GAIKEI
  6
Continuous
 62
     1
100
AcDbEllipse
 10
-39.06736689401679
 20
34.46470278508605
 30
0.0
 11
-0.0472697495618759
 21
0.047269749561876
 31
0.0
210
0.0
220
0.0
230
1.0
 40
0.9972646886342364
 41
5.499156671652833
 42
7.067213942706419
  0
ELLIPSE
  5
121
330
2
100
AcDbEntity
  8
GAIKEI
  6
Continuous
 62
     1
100
AcDbEllipse
 10
4.999116792752857
 20
34.46470278508605
 30
0.0
 11
-0.0472697495618759
 21
-0.0472697495618759
 31
0.0
210
0.0
220
0.0
230
1.0
 40
0.9972646886342364
 41
2.35756401806304
 42
3.925621289116545
  0
ELLIPSE
  5
122
330
2
100
AcDbEntity
  8
GAIKEI
  6
Continuous
 62
     1
100
AcDbEllipse
 10
-38.34085538104949
 20
8.214730611116721
 30
0.0
 11
-0.0118749767980549
 21
-0.0118749767980549
 31
0.0
210
0.0
220
0.0
230
1.0
 40
0.9924325091389663
 41
2.359992588466317
 42
3.923192718713268
  0
ELLIPSE
  5
123
330
2
100
AcDbEntity
  8
GAIKEI
  6
Continuous
 62
     1
100
AcDbEllipse
 10
-38.34085538104949
 20
8.014857939036772
 30
0.0
 11
-0.0118749767980549
 21
0.0118749767980549
 31
0.0
210
0.0
220
0.0
230
1.0
 40
0.9924325091389667
 41
2.35999258846552
 42
3.923192718713348
  0
ELLIPSE
  5
124
330
2
100
AcDbEntity
  8
GAIKEI
  6
Continuous
 62
     1
100
AcDbEllipse
 10
-38.5407280531294
 20
8.014857939036772
 30
0.0
 11
-0.0118749767980549
 21
-0.0118749767980549
 31
0.0
210
0.0
220
0.0
230
1.0
 40
0.9924325091389667
 41
5.501585242056749
 42
7.06478537230338
  0
ELLIPSE
  5
125
330
2
100
AcDbEntity
  8
GAIKEI
  6
Continuous
 62
     1
100
AcDbEllipse
 10
-38.5407280531294
 20
8.214730611116721
 30
0.0
 11
-0.0118749767980549
 21
0.0118749767980549
 31
0.0
210
0.0
220
0.0
230
1.0
 40
0.9924325091389667
 41
5.501585242056589
 42
7.064785372302583
  0
ELLIPSE
  5
126
330
2
100
AcDbEntity
  8
GAIKEI
  6
Continuous
 62
     1
100
AcDbEllipse
 10
5.613453020778649
 20
35.07903901311181
 30
0.0
 11
-0.3724071531424042
 21
-0.3724071531424077
 31
0.0
210
0.0
220
0.0
230
1.0
 40
0.4113950764984446
 41
2.751301695074598
 42
3.531883612105006
  0
ELLIPSE
  5
127
330
2
100
AcDbEntity
  8
GAIKEI
  6
Continuous
 62
     1
100
AcDbEllipse
 10
-39.68170312204259
 20
35.07903901311181
 30
0.0
 11
-0.3724071531424042
 21
0.3724071531424077
 31
0.0
210
0.0
220
0.0
230
1.0
 40
0.4113950764984446
 41
5.892894348664372
 42
6.6734762656948
  0
ELLIPSE
  5
128
330
2
100
AcDbEntity
  8
GAIKEI
  6
Continuous
 62
     1
100
AcDbEllipse
 10
-39.68170312204259
 20
8.317216203442825
 30
0.0
 11
-0.3724071531424036
 21
-0.3724071531424106
 31
0.0
210
0.0
220
0.0
230
0.9999999999999998
 40
0.4113950764984433
 41
5.892894348664307
 42
6.673476265694826
  0
ELLIPSE
  5
129
330
2
100
AcDbEntity
  8
GAIKEI
  6
Continuous
 62
     1
100
AcDbEllipse
 10
5.613453020778649
 20
8.317216203442825
 30
0.0
 11
-0.3724071531424041
 21
0.3724071531424101
 31
0.0
210
0.0
220
0.0
230
1.0
 40
0.4113950764984433
 41
2.751301695074553
 42
3.531883612105071
  0
ARC
  5
12A
330
2
100
AcDbEntity
  8
GAIKEI
  6
Continuous
 62
     1
100
AcDbCircle
 10
6.14920828247483
 20
7.781460941746701
 30
0.0
 40
0.1333333333320302
100
AcDbArc
 50
359.9215318330927
 51
0.0
  0
ARC
  5
12B
330
2
100
AcDbEntity
  8
GAIKEI
  6
Continuous
 62
     1
100
AcDbCircle
 10
6.14920828247483
 20
35.61479427480799
 30
0.0
 40
0.1333333333320302
100
AcDbArc
 50
0.0
 51
0.0784681669072908
  0
ARC
  5
12C
330
2
100
AcDbEntity
  8
GAIKEI
  6
Continuous
 62
     1
100
AcDbCircle
 10
-40.21745838373876
 20
35.61479427480799
 30
0.0
 40
0.1333333333320302
100
AcDbArc
 50
179.9215318330927
 51
180.0
  0
ARC
  5
12D
330
2
100
AcDbEntity
  8
GAIKEI
  6
Continuous
 62
     1
100
AcDbCircle
 10
-40.21745838373876
 20
7.781460941746701
 30
0.0
 40
0.1333333333320302
100
AcDbArc
 50
180.0
 51
180.0784681669072
  0
ARC
  5
12E
330
2
100
AcDbEntity
  8
GAIKEI
  6
Continuous
 62
     1
100
AcDbCircle
 10
6.14920828247483
 20
35.61479427480799
 30
0.0
 40
0.1333333333320303
100
AcDbArc
 50
89.92153183309271
 51
90.0
  0
ARC
  5
12F
330
2
100
AcDbEntity
  8
GAIKEI
  6
Continuous
 62
     1
100
AcDbCircle
 10
-40.21745838373876
 20
35.61479427480799
 30
0.0
 40
0.1333333333320303
100
AcDbArc
 50
90.0
 51
90.07846816690729
  0
ARC
  5
130
330
2
100
AcDbEntity
  8
GAIKEI
  6
Continuous
 62
     1
100
AcDbCircle
 10
-40.21745838373876
 20
7.781460941746701
 30
0.0
 40
0.1333333333320303
100
AcDbArc
 50
269.9215318330927
 51
270.0
  0
ARC
  5
131
330
2
100
AcDbEntity
  8
GAIKEI
  6
Continuous
 62
     1
100
AcDbCircle
 10
6.14920828247483
 20
7.781460941746701
 30
0.0
 40
0.1333333333320303
100
AcDbArc
 50
270.0
 51
270.0784681669073
  0
ARC
  5
132
330
2
100
AcDbEntity
  8
GAIKEI
  6
Continuous
 62
     7
100
AcDbCircle
 10
-40.21745838373876
 20
7.781460941746701
 30
0.0
 40
0.1333333333320303
100
AcDbArc
 50
180.0784681669072
 51
269.9215318330927
  0
ARC
  5
133
330
2
100
AcDbEntity
  8
GAIKEI
  6
Continuous
 62
     7
100
AcDbCircle
 10
6.14920828247483
 20
7.781460941746701
 30
0.0
 40
0.1333333333320303
100
AcDbArc
 50
270.0784681669073
 51
359.9215318330927
  0
ARC
  5
134
330
2
100
AcDbEntity
  8
GAIKEI
  6
Continuous
 62
     7
100
AcDbCircle
 10
-40.21745838373876
 20
35.61479427480799
 30
0.0
 40
0.1333333333320303
100
AcDbArc
 50
90.07846816690729
 51
179.9215318330927
  0
ARC
  5
135
330
2
100
AcDbEntity
  8
GAIKEI
  6
Continuous
 62
     7
100
AcDbCircle
 10
6.14920828247483
 20
35.61479427480799
 30
0.0
 40
0.1333333333320303
100
AcDbArc
 50
0.0784681669072908
 51
89.92153183309271
  0
LINE
  5
136
330
2
100
AcDbEntity
  8
GAIKEI
  6
Continuous
 62
     7
100
AcDbLine
 10
6.282541615806849
 20
35.61479427480799
 30
0.0
 11
6.282541615806849
 21
7.781460941746701
 31
0.0
  0
LINE
  5
137
330
2
100
AcDbEntity
  8
GAIKEI
  6
Continuous
 62
     7
100
AcDbLine
 10
-40.35079171707077
 20
35.61479427480799
 30
0.0
 11
-40.35079171707077
 21
7.781460941746701
 31
0.0
  0
LINE
  5
138
330
2
100
AcDbEntity
  8
GAIKEI
  6
Continuous
 62
     7
100
AcDbLine
 10
-40.21745838373876
 20
35.74812760814001
 30
0.0
 11
6.14920828247483
 21
35.74812760814001
 31
0.0
  0
LINE
  5
139
330
2
100
AcDbEntity
  8
GAIKEI
  6
Continuous
 62
     7
100
AcDbLine
 10
-40.21745838373876
 20
7.648127608414682
 30
0.0
 11
6.14920828247483
 21
7.648127608414682
 31
0.0
  0
LINE
  5
13A
330
2
100
AcDbEntity
  8
GAIKEI
  6
Continuous
 62
     1
100
AcDbLine
 10
-40.2782430183114
 20
35.54242830474809
 30
0.0
 11
-40.2782430183114
 21
7.853826911806663
 31
0.0
  0
LINE
  5
13B
330
2
100
AcDbEntity
  8
GAIKEI
  6
Continuous
 62
     1
100
AcDbLine
 10
6.209992917047486
 20
35.542428304748
 30
0.0
 11
6.209992917047486
 21
7.853826911806606
 31
0.0
  0
LINE
  5
13C
330
2
100
AcDbEntity
  8
GAIKEI
  6
Continuous
 62
     1
100
AcDbLine
 10
6.076842312414854
 20
35.67557890938073
 30
0.0
 11
-40.14906754751932
 21
35.67557890938073
 31
0.0
  0
LINE
  5
13D
330
2
100
AcDbEntity
  8
GAIKEI
  6
Continuous
 62
     1
100
AcDbLine
 10
-40.14509241367878
 20
7.720676307174016
 30
0.0
 11
6.076842312414811
 21
7.720676307174045
 31
0.0
  0
LINE
  5
13E
330
2
100
AcDbEntity
  8
GAIKEI
  6
Continuous
 62
     1
100
AcDbLine
 10
4.999299646835765
 20
34.53146094148525
 30
0.0
 11
-39.06754974809968
 21
34.53146094148525
 31
0.0
  0
LINE
  5
13F
330
2
100
AcDbEntity
  8
GAIKEI
  6
Continuous
 62
     1
100
AcDbLine
 10
-39.06754974809968
 20
8.864794275069442
 30
0.0
 11
4.999299646835765
 21
8.864794275069442
 31
0.0
  0
LINE
  5
140
330
2
100
AcDbEntity
  8
GAIKEI
  6
Continuous
 62
     1
100
AcDbLine
 10
-39.13412505041599
 20
34.46488563916893
 30
0.0
 11
-39.13412505041599
 21
8.931369577385765
 31
0.0
  0
LINE
  5
141
330
2
100
AcDbEntity
  8
GAIKEI
  6
Continuous
 62
     1
100
AcDbLine
 10
5.06587494915206
 20
34.46488563916893
 30
0.0
 11
5.06587494915206
 21
8.931369577385765
 31
0.0
  0
LINE
  5
142
330
2
100
AcDbEntity
  8
GAIKEI
  6
Continuous
 62
     1
100
AcDbLine
 10
5.88163107010321
 20
35.48172910478707
 30
0.0
 11
6.075480874696793
 21
35.67557890938068
 31
0.0
  0
LINE
  5
143
330
2
100
AcDbEntity
  8
GAIKEI
  6
Continuous
 62
     1
100
AcDbLine
 10
6.209992917047486
 20
35.54106686703003
 30
0.0
 11
6.01614311245386
 21
35.34721706243642
 31
0.0
  0
LINE
  5
144
330
2
100
AcDbEntity
  8
GAIKEI
  6
Continuous
 62
     1
100
AcDbLine
 10
-39.94988117136714
 20
35.48172910478707
 30
0.0
 11
-40.14373097596072
 21
35.67557890938068
 31
0.0
  0
LINE
  5
145
330
2
100
AcDbEntity
  8
GAIKEI
  6
Continuous
 62
     1
100
AcDbLine
 10
-40.27829123812899
 20
35.54111508684761
 30
0.0
 11
-40.08439321371779
 21
35.34721706243642
 31
0.0
  0
LINE
  5
146
330
2
100
AcDbEntity
  8
GAIKEI
  6
Continuous
 62
     1
100
AcDbLine
 10
-40.08439321371779
 20
8.049038154118278
 30
0.0
 11
-40.2782430183114
 21
7.85518834952461
 31
0.0
  0
LINE
  5
147
330
2
100
AcDbEntity
  8
GAIKEI
  6
Continuous
 62
     1
100
AcDbLine
 10
-40.14373097596069
 20
7.720676307174016
 30
0.0
 11
-39.94988117136723
 21
7.914526111767628
 31
0.0
  0
LINE
  5
148
330
2
100
AcDbEntity
  8
GAIKEI
  6
Continuous
 62
     1
100
AcDbLine
 10
6.01614311245386
 20
8.04903815411825
 30
0.0
 11
6.209992917047486
 21
7.855188349524667
 31
0.0
  0
LINE
  5
149
330
2
100
AcDbEntity
  8
GAIKEI
  6
Continuous
 62
     1
100
AcDbLine
 10
6.075480874696751
 20
7.720676307174016
 30
0.0
 11
5.881631070103253
 21
7.9145261117676
 31
0.0
  0
LINE
  5
14A
330
2
100
AcDbEntity
  8
GAIKEI
  6
Continuous
 62
     1
100
AcDbLine
 10
-38.34072829539194
 20
8.231460941742284
 30
0.0
 11
-38.54085513878691
 21
8.231460941742284
 31
0.0
  0
LINE
  5
14B
330
2
100
AcDbEntity
  8
GAIKEI
  6
Continuous
 62
     1
100
AcDbLine
 10
-38.32412505042391
 20
8.014730853379262
 30
0.0
 11
-38.32412505042391
 21
8.214857696774231
 31
0.0
  0
LINE
  5
14C
330
2
100
AcDbEntity
  8
GAIKEI
  6
Continuous
 62
     1
100
AcDbLine
 10
-38.54085513878691
 20
7.998127608411238
 30
0.0
 11
-38.34072829539194
 21
7.998127608411238
 31
0.0
  0
LINE
  5
14D
330
2
100
AcDbEntity
  8
GAIKEI
  6
Continuous
 62
     1
100
AcDbLine
 10
-38.55745838375496
 20
8.214857696774231
 30
0.0
 11
-38.55745838375496
 21
8.014730853379262
 31
0.0
  0
LINE
  5
14E
330
2
100
AcDbEntity
  8
GAIKEI
  6
Continuous
 62
     1
100
AcDbLine
 10
-39.62079171707791
 20
8.151460941743039
 30
0.0
 11
-39.62079171707791
 21
8.078127608410426
 31
0.0
  0
LINE
  5
14F
330
2
100
AcDbEntity
  8
GAIKEI
  6
Continuous
 62
     1
100
AcDbLine
 10
-39.54745838374531
 20
8.151460941743039
 30
0.0
 11
-39.62079171707791
 21
8.151460941743039
 31
0.0
  0
LINE
  5
150
330
2
100
AcDbEntity
  8
GAIKEI
  6
Continuous
 62
     1
100
AcDbLine
 10
-39.54745838374531
 20
8.078127608410426
 30
0.0
 11
-39.54745838374531
 21
8.151460941743039
 31
0.0
  0
LINE
  5
151
330
2
100
AcDbEntity
  8
GAIKEI
  6
Continuous
 62
     1
100
AcDbLine
 10
-39.62079171707791
 20
8.078127608410426
 30
0.0
 11
-39.54745838374531
 21
8.078127608410426
 31
0.0
  0
LINE
  5
152
330
2
100
AcDbEntity
  8
GAIKEI
  6
Continuous
 62
     1
100
AcDbLine
 10
-39.96781611034723
 20
35.48172910478707
 30
0.0
 11
5.899566009083287
 21
35.48172910478707
 31
0.0
  0
LINE
  5
153
330
2
100
AcDbEntity
  8
GAIKEI
  6
Continuous
 62
     1
100
AcDbLine
 10
-40.08439321371779
 20
8.031103215138188
 30
0.0
 11
-40.08439321371779
 21
35.3651520014165
 31
0.0
  0
LINE
  5
154
330
2
100
AcDbEntity
  8
GAIKEI
  6
Continuous
 62
     1
100
AcDbLine
 10
5.899566009083287
 20
7.914526111767628
 30
0.0
 11
-39.96781611034723
 21
7.914526111767628
 31
0.0
  0
LINE
  5
155
330
2
100
AcDbEntity
  8
GAIKEI
  6
Continuous
 62
     1
100
AcDbLine
 10
6.01614311245386
 20
8.031103215138188
 30
0.0
 11
6.01614311245386
 21
35.3651520014165
 31
0.0
  0
LINE
  5
156
330
2
100
AcDbEntity
  8
GAIKEI
  6
Continuous
 62
     1
100
AcDbLine
 10
5.003337683678012
 20
34.60558909746806
 30
0.0
 11
-39.07158778494196
 21
34.60558909746806
 31
0.0
  0
LINE
  5
157
330
2
100
AcDbEntity
  8
GAIKEI
  6
Continuous
 62
     1
100
AcDbLine
 10
5.140003105134823
 20
34.46892954674942
 30
0.0
 11
5.140003105500397
 21
8.927331540543434
 31
0.0
  0
LINE
  5
158
330
2
100
AcDbEntity
  8
GAIKEI
  6
Continuous
 62
     1
100
AcDbLine
 10
-39.20825320639875
 20
34.46892954674942
 30
0.0
 11
-39.20825320639875
 21
8.927331540543519
 31
0.0
  0
LINE
  5
159
330
2
100
AcDbEntity
  8
GAIKEI
  6
Continuous
 62
     1
100
AcDbLine
 10
-39.07159365568015
 20
8.790666119086665
 30
0.0
 11
5.003343554416218
 21
8.790666119086665
 31
0.0
  0
SPLINE
  5
15A
330
2
100
AcDbEntity
  8
GAIKEI
  6
Continuous
 62
     1
100
AcDbSpline
210
0.0
220
0.0
230
1.0
 70
     8
 71
     3
 72
    21
 73
    17
 74
    15
 42
0.0000000001
 43
0.0000000001
 44
0.000001
 12
-0.999999621973628
 22
0.0008695128527316
 32
0.0
 13
0.0003233581291513
 23
-0.9999999477197587
 33
0.0
 40
0.0
 40
0.0
 40
0.0
 40
0.0
 40
0.0157266923527323
 40
0.0314579356527003
 40
0.0463809568152765
 40
0.0613517293700188
 40
0.0762749437965398
 40
0.0911470571405372
 40
0.1060662022787655
 40
0.1209384435422476
 40
0.1356274801274969
 40
0.1503616400764839
 40
0.1650504605945581
 40
0.1797193528469344
 40
0.1944329919065317
 40
0.2090963292218204
 40
0.2090963292218204
 40
0.2090963292218204
 40
0.2090963292218204
 10
-40.14514640525391
 20
35.67563290095581
 30
0.0
 10
-40.15038863405645
 20
35.67563745914285
 30
0.0
 10
-40.16088532120408
 20
35.67503028483876
 30
0.0
 10
-40.17614297210184
 20
35.67232363622029
 30
0.0
 10
-40.19073417139262
 20
35.66792042742176
 30
0.0
 10
-40.20449512131683
 20
35.66202847223067
 30
0.0
 10
-40.21750547994807
 20
35.65465580657954
 30
0.0
 10
-40.22957183262175
 20
35.64585205315925
 30
0.0
 10
-40.24057991979489
 20
35.63578460493523
 30
0.0
 10
-40.25037207177667
 20
35.62460929554129
 30
0.0
 10
-40.25879739789708
 20
35.61244664508945
 30
0.0
 10
-40.26581609689951
 20
35.59949324266489
 30
0.0
 10
-40.27137751425406
 20
35.58585557003792
 30
0.0
 10
-40.27535718896738
 20
35.57168242549665
 30
0.0
 10
-40.27776787124617
 20
35.55717141489657
 30
0.0
 10
-40.27829859038965
 20
35.54737007517275
 30
0.0
 10
-40.27829700988654
 20
35.54248229632319
 30
0.0
 11
-40.14514640525391
 21
35.67563290095581
 31
0.0
 11
-40.16084738910885
 21
35.67472409457238
 31
0.0
 11
-40.17633555371489
 21
35.67196924923365
 31
0.0
 11
-40.1906244977277
 21
35.66766537080397
 31
0.0
 11
-40.20438730060348
 21
35.66177386027056
 31
0.0
 11
-40.2173657216185
 21
35.65440748338381
 31
0.0
 11
-40.22938621123528
 21
35.64565030072277
 31
0.0
 11
-40.24039553279602
 21
35.63558171660591
 31
0.0
 11
-40.2501891316611
 21
35.62438932434475
 31
0.0
 11
-40.25856151743423
 21
35.61231987643072
 31
0.0
 11
-40.26558074002061
 21
35.59936508445247
 31
0.0
 11
-40.27111746053558
 21
35.58575968433371
 31
0.0
 11
-40.27509344850575
 21
35.57163989655743
 31
0.0
 11
-40.277501215271
 21
35.55712458917043
 31
0.0
 11
-40.27829700988654
 21
35.54248229632319
 31
0.0
  0
SPLINE
  5
15B
330
2
100
AcDbEntity
  8
GAIKEI
  6
Continuous
 62
     1
100
AcDbSpline
210
0.0
220
0.0
230
1.0
 70
     8
 71
     3
 72
    21
 73
    17
 74
    15
 42
0.0000000001
 43
0.0000000001
 44
0.000001
 12
0.999999621973628
 22
0.0008695128527315
 32
0.0
 13
-0.0003233581291514
 23
-0.9999999477197587
 33
0.0
 40
0.0
 40
0.0
 40
0.0
 40
0.0
 40
0.01572669235275
 40
0.0314579356527075
 40
0.0463809568152701
 40
0.0613517293700353
 40
0.0762749437965532
 40
0.0911470571405478
 40
0.1060662022787787
 40
0.1209384435422631
 40
0.1356274801275185
 40
0.1503616400764953
 40
0.1650504605945682
 40
0.1797193528469464
 40
0.1944329919065414
 40
0.2090963292218311
 40
0.2090963292218311
 40
0.2090963292218311
 40
0.2090963292218311
 10
6.076896303989968
 20
35.67563290095581
 30
0.0
 10
6.082138532792512
 20
35.67563745914285
 30
0.0
 10
6.092635219940177
 20
35.67503028483876
 30
0.0
 10
6.107892870837901
 20
35.67232363622029
 30
0.0
 10
6.122484070128649
 20
35.66792042742171
 30
0.0
 10
6.136245020052911
 20
35.6620284722307
 30
0.0
 10
6.149255378684131
 20
35.65465580657954
 30
0.0
 10
6.16132173135783
 20
35.64585205315916
 30
0.0
 10
6.172329818530982
 20
35.63578460493531
 30
0.0
 10
6.182121970512753
 20
35.62460929554126
 30
0.0
 10
6.190547296633184
 20
35.61244664508951
 30
0.0
 10
6.197565995635571
 20
35.59949324266483
 30
0.0
 10
6.203127412990113
 20
35.58585557003801
 30
0.0
 10
6.207107087703477
 20
35.57168242549662
 30
0.0
 10
6.209517769982198
 20
35.55717141489657
 30
0.0
 10
6.210048489125725
 20
35.54737007517275
 30
0.0
 10
6.210046908622615
 20
35.54248229632319
 30
0.0
 11
6.076896303989968
 21
35.67563290095581
 31
0.0
 11
6.092597287844924
 21
35.67472409457238
 31
0.0
 11
6.10808545245095
 21
35.67196924923365
 31
0.0
 11
6.122374396463754
 21
35.66766537080397
 31
0.0
 11
6.136137199339557
 21
35.66177386027056
 31
0.0
 11
6.149115620354578
 21
35.65440748338381
 31
0.0
 11
6.161136109971351
 21
35.64565030072277
 31
0.0
 11
6.172145431532101
 21
35.63558171660591
 31
0.0
 11
6.181939030397174
 21
35.62438932434475
 31
0.0
 11
6.190311416170317
 21
35.61231987643072
 31
0.0
 11
6.197330638756682
 21
35.59936508445247
 31
0.0
 11
6.202867359271635
 21
35.58575968433371
 31
0.0
 11
6.206843347241829
 21
35.57163989655743
 31
0.0
 11
6.209251114007059
 21
35.55712458917043
 31
0.0
 11
6.210046908622615
 21
35.54248229632319
 31
0.0
  0
SPLINE
  5
15C
330
2
100
AcDbEntity
  8
GAIKEI
  6
Continuous
 62
     1
100
AcDbSpline
210
0.0
220
0.0
230
1.0
 70
     8
 71
     3
 72
    21
 73
    17
 74
    15
 42
0.0000000001
 43
0.0000000001
 44
0.000001
 12
-0.0003233581301786
 22
-0.9999999477197585
 32
0.0
 13
0.9999996219736271
 23
0.0008695128539302
 33
0.0
 40
0.0
 40
0.0
 40
0.0
 40
0.0
 40
0.0146633373152604
 40
0.0293769763748904
 40
0.0440458686272589
 40
0.0587346891453068
 40
0.0734688490943188
 40
0.0881578856795447
 40
0.1030301269430482
 40
0.1179492720812765
 40
0.1328213854252907
 40
0.1477445998518117
 40
0.162715372406554
 40
0.1776383935691302
 40
0.1933696368690982
 40
0.2090963292218305
 40
0.2090963292218305
 40
0.2090963292218305
 40
0.2090963292218305
 10
-40.27829700988654
 20
7.853772920231506
 30
0.0
 10
-40.27829859038965
 20
7.848885141381941
 30
0.0
 10
-40.27776787124618
 20
7.839083801658119
 30
0.0
 10
-40.27535718896734
 20
7.82457279105813
 30
0.0
 10
-40.27137751425406
 20
7.810399646516771
 30
0.0
 10
-40.2658160968995
 20
7.796761973889829
 30
0.0
 10
-40.25879739789711
 20
7.783808571465243
 30
0.0
 10
-40.25037207177665
 20
7.771645921013373
 30
0.0
 10
-40.24057991979491
 20
7.760470611619496
 30
0.0
 10
-40.22957183262175
 20
7.750403163395503
 30
0.0
 10
-40.21750547994807
 20
7.741599409975151
 30
0.0
 10
-40.20449512131682
 20
7.734226744324018
 30
0.0
 10
-40.19073417139262
 20
7.728334789132873
 30
0.0
 10
-40.17614297210183
 20
7.723931580334379
 30
0.0
 10
-40.16088532120408
 20
7.721224931715966
 30
0.0
 10
-40.15038863405645
 20
7.720617757411815
 30
0.0
 10
-40.14514640525391
 20
7.720622315598859
 30
0.0
 11
-40.27829700988654
 21
7.853772920231506
 31
0.0
 11
-40.277501215271
 21
7.839130627384292
 31
0.0
 11
-40.27509344850573
 21
7.824615319997263
 31
0.0
 11
-40.27111746053558
 21
7.810495532220983
 31
0.0
 11
-40.26558074002061
 21
7.796890132102248
 31
0.0
 11
-40.25856151743423
 21
7.783935340123974
 31
0.0
 11
-40.2501891316611
 21
7.771865892209973
 31
0.0
 11
-40.24039553279602
 21
7.760673499948779
 31
0.0
 11
-40.22938621123528
 21
7.750604915831928
 31
0.0
 11
-40.2173657216185
 21
7.741847733170857
 31
0.0
 11
-40.20438730060348
 21
7.734481356284106
 31
0.0
 11
-40.1906244977277
 21
7.72858984575069
 31
0.0
 11
-40.17633555371489
 21
7.724285967321009
 31
0.0
 11
-40.16084738910885
 21
7.72153112198228
 31
0.0
 11
-40.14514640525391
 21
7.720622315598859
 31
0.0
  0
SPLINE
  5
15D
330
2
100
AcDbEntity
  8
GAIKEI
  6
Continuous
 62
     1
100
AcDbSpline
210
0.0
220
0.0
230
1.0
 70
     8
 71
     3
 72
    21
 73
    17
 74
    15
 42
0.0000000001
 43
0.0000000001
 44
0.000001
 12
0.0003233581301785
 22
-0.9999999477197585
 32
0.0
 13
-0.9999996219736271
 23
0.0008695128539302
 33
0.0
 40
0.0
 40
0.0
 40
0.0
 40
0.0
 40
0.0146633373152613
 40
0.029376976374889
 40
0.0440458686272595
 40
0.0587346891453061
 40
0.0734688490943079
 40
0.0881578856795399
 40
0.1030301269430456
 40
0.1179492720812766
 40
0.1328213854252879
 40
0.1477445998518058
 40
0.162715372406571
 40
0.1776383935691336
 40
0.193369636869091
 40
0.2090963292218411
 40
0.2090963292218411
 40
0.2090963292218411
 40
0.2090963292218411
 10
6.210046908622615
 20
7.853772920231506
 30
0.0
 10
6.210048489125725
 20
7.848885141381941
 30
0.0
 10
6.209517769982241
 20
7.839083801658148
 30
0.0
 10
6.20710708770342
 20
7.824572791058159
 30
0.0
 10
6.203127412990127
 20
7.810399646516714
 30
0.0
 10
6.197565995635557
 20
7.796761973889829
 30
0.0
 10
6.190547296633212
 20
7.783808571465328
 30
0.0
 10
6.18212197051271
 20
7.771645921013373
 30
0.0
 10
6.172329818530982
 20
7.760470611619467
 30
0.0
 10
6.161321731357844
 20
7.750403163395532
 30
0.0
 10
6.149255378684131
 20
7.741599409975094
 30
0.0
 10
6.136245020052882
 20
7.734226744323962
 30
0.0
 10
6.122484070128678
 20
7.728334789132929
 30
0.0
 10
6.107892870837915
 20
7.723931580334351
 30
0.0
 10
6.092635219940163
 20
7.721224931715994
 30
0.0
 10
6.082138532792512
 20
7.720617757411815
 30
0.0
 10
6.076896303989968
 20
7.720622315598859
 30
0.0
 11
6.210046908622615
 21
7.853772920231506
 31
0.0
 11
6.209251114007059
 21
7.839130627384292
 31
0.0
 11
6.2068433472418
 21
7.824615319997263
 31
0.0
 11
6.202867359271635
 21
7.810495532220983
 31
0.0
 11
6.197330638756682
 21
7.796890132102248
 31
0.0
 11
6.190311416170317
 21
7.783935340123974
 31
0.0
 11
6.181939030397174
 21
7.771865892209973
 31
0.0
 11
6.172145431532101
 21
7.760673499948779
 31
0.0
 11
6.161136109971351
 21
7.750604915831928
 31
0.0
 11
6.149115620354578
 21
7.741847733170857
 31
0.0
 11
6.136137199339557
 21
7.734481356284106
 31
0.0
 11
6.122374396463754
 21
7.72858984575069
 31
0.0
 11
6.10808545245095
 21
7.724285967321009
 31
0.0
 11
6.092597287844924
 21
7.72153112198228
 31
0.0
 11
6.076896303989968
 21
7.720622315598859
 31
0.0
  0
SPLINE
  5
15E
330
2
100
AcDbEntity
  8
GAIKEI
  6
Continuous
 62
     1
100
AcDbSpline
210
0.0
220
0.0
230
1.0
 70
     8
 71
     3
 72
    21
 73
    17
 74
    15
 42
0.0000000001
 43
0.0000000001
 44
0.000001
 12
-0.0024808696790624
 22
-0.9999969226380828
 32
0.0
 13
-0.9999983013874874
 23
-0.0018431554845351
 33
0.0
 40
0.0
 40
0.0
 40
0.0
 40
0.0
 40
0.0153586680112357
 40
0.030770376378432
 40
0.0461343238530646
 40
0.0612906984439673
 40
0.076492254043833
 40
0.091647246168657
 40
0.1072145701395349
 40
0.122834983890294
 40
0.138404584634768
 40
0.1536133149589657
 40
0.1688678604861831
 40
0.1840757649794782
 40
0.1992011987754984
 40
0.2143245386510493
 40
0.2143245386510493
 40
0.2143245386510493
 40
0.2143245386510493
 10
5.140003105865986
 20
8.92733154054332
 30
0.0
 10
5.139990404914726
 20
8.922212000294308
 30
0.0
 10
5.13938716604359
 20
8.911946311788938
 30
0.0
 10
5.136717758624811
 20
8.896769947273497
 30
0.0
 10
5.132406981670783
 20
8.882045106389398
 30
0.0
 10
5.126503033404375
 20
8.86796113560922
 30
0.0
 10
5.11915030378762
 20
8.854657995060392
 30
0.0
 10
5.110322452435951
 20
8.842112869110565
 30
0.0
 10
5.100002390596202
 20
8.830570570999753
 30
0.0
 10
5.088329827671429
 20
8.820192760705026
 30
0.0
 10
5.075657030072704
 20
8.81126738218083
 30
0.0
 10
5.062160633797134
 20
8.803901769140651
 30
0.0
 10
5.048061987076692
 20
8.798080719677216
 30
0.0
 10
5.033438204474521
 20
8.79383601390765
 30
0.0
 10
5.018476011697842
 20
8.791256866492659
 30
0.0
 10
5.008384659145164
 20
8.790675411373399
 30
0.0
 10
5.003343554416218
 20
8.790666119817785
 30
0.0
 11
5.140003105865986
 21
8.92733154054332
 31
0.0
 11
5.139095683813891
 21
8.911999097951991
 31
0.0
 11
5.136437983700091
 21
8.896818260259806
 31
0.0
 11
5.132115412838317
 21
8.882074909054438
 31
0.0
 11
5.126264248110089
 21
8.868093497271445
 31
0.0
 11
5.118909998984236
 21
8.854789264576083
 31
0.0
 11
5.110174709442816
 21
8.842405045592158
 31
0.0
 11
5.099805501834111
 21
8.830793773608689
 31
0.0
 11
5.08813410754243
 21
8.820412232653495
 31
0.0
 11
5.075401143446271
 21
8.811452069347609
 31
0.0
 11
5.06205699528536
 21
8.804155536247236
 31
0.0
 11
5.047955966408494
 21
8.798336404065082
 31
0.0
 11
5.03334859805102
 21
8.794104915238165
 31
0.0
 11
5.018442254825217
 21
8.791539738323479
 31
0.0
 11
5.003343554416218
 21
8.790666119817785
 31
0.0
  0
SPLINE
  5
15F
330
2
100
AcDbEntity
  8
GAIKEI
  6
Continuous
 62
     1
100
AcDbSpline
210
0.0
220
0.0
230
1.0
 70
     8
 71
     3
 72
    21
 73
    17
 74
    15
 42
0.0000000001
 43
0.0000000001
 44
0.000001
 12
-0.9999969226380834
 22
-0.002480869678817
 32
0.0
 13
-0.0018431554850292
 23
-0.9999983013874864
 33
0.0
 40
0.0
 40
0.0
 40
0.0
 40
0.0
 40
0.0153586680112455
 40
0.0307703763784653
 40
0.0461343238530762
 40
0.0612906984439264
 40
0.0764922540437623
 40
0.0916472461685676
 40
0.1072145701393868
 40
0.1228349838902073
 40
0.138404584634615
 40
0.1536133149588451
 40
0.1688678604861014
 40
0.1840757649793948
 40
0.1992011987754794
 40
0.2143245386510155
 40
0.2143245386510155
 40
0.2143245386510155
 40
0.2143245386510155
 10
-39.0715877849421
 20
34.60558909819915
 30
0.0
 10
-39.07670732519112
 20
34.60557639724789
 30
0.0
 10
-39.08697301369649
 20
34.60497315837677
 30
0.0
 10
-39.10214937821193
 20
34.60230375095796
 30
0.0
 10
-39.11687421909602
 20
34.59799297400394
 30
0.0
 10
-39.13095818987618
 20
34.59208902573764
 30
0.0
 10
-39.14426133042498
 20
34.5847362961207
 30
0.0
 10
-39.1568064563748
 20
34.57590844476928
 30
0.0
 10
-39.16834875448555
 20
34.56558838292938
 30
0.0
 10
-39.17872656478029
 20
34.55391582000471
 30
0.0
 10
-39.18765194330458
 20
34.54124302240598
 30
0.0
 10
-39.19501755634477
 20
34.52774662613044
 30
0.0
 10
-39.20083860580815
 20
34.51364797940994
 30
0.0
 10
-39.20508331157776
 20
34.4990241968078
 30
0.0
 10
-39.20766245899284
 20
34.48406200403108
 30
0.0
 10
-39.20824391411206
 20
34.4739706514784
 30
0.0
 10
-39.20825320566768
 20
34.46892954674945
 30
0.0
 11
-39.0715877849421
 21
34.60558909819915
 31
0.0
 11
-39.08692022753342
 21
34.60468167614707
 31
0.0
 11
-39.10210106522564
 21
34.60202397603325
 31
0.0
 11
-39.116844416431
 21
34.59770140517151
 31
0.0
 11
-39.13082582821396
 21
34.59185024044331
 31
0.0
 11
-39.14413006090928
 21
34.58449599131745
 31
0.0
 11
-39.15651427989319
 21
34.57576070177606
 31
0.0
 11
-39.16812555187661
 21
34.56539149416739
 31
0.0
 11
-39.17850709283188
 21
34.55372009987568
 31
0.0
 11
-39.18746725613774
 21
34.54098713577958
 31
0.0
 11
-39.19476378923818
 21
34.52764298761866
 31
0.0
 11
-39.2005829214203
 21
34.51354195874177
 31
0.0
 11
-39.20481441024725
 21
34.4989345903843
 31
0.0
 11
-39.20737958716198
 21
34.48402824715845
 31
0.0
 11
-39.20825320566768
 21
34.46892954674945
 31
0.0
  0
SPLINE
  5
160
330
2
100
AcDbEntity
  8
GAIKEI
  6
Continuous
 62
     1
100
AcDbSpline
210
0.0
220
0.0
230
1.0
 70
     8
 71
     3
 72
    21
 73
    17
 74
    15
 42
0.0000000001
 43
0.0000000001
 44
0.000001
 12
0.0024808696790623
 22
-0.9999969226380828
 32
0.0
 13
0.9999983013874874
 23
-0.0018431554845352
 33
0.0
 40
0.0
 40
0.0
 40
0.0
 40
0.0
 40
0.0153586680112352
 40
0.0307703763784322
 40
0.0461343238530668
 40
0.0612906984439654
 40
0.0764922540438276
 40
0.0916472461686496
 40
0.1072145701395322
 40
0.1228349838903046
 40
0.1384045846347699
 40
0.1536133149589645
 40
0.168867860486195
 40
0.1840757649794833
 40
0.1992011987755069
 40
0.2143245386510543
 40
0.2143245386510543
 40
0.2143245386510543
 40
0.2143245386510543
 10
-39.20825320712991
 20
8.92733154054332
 30
0.0
 10
-39.20824050617865
 20
8.922212000294308
 30
0.0
 10
-39.20763726730753
 20
8.911946311788881
 30
0.0
 10
-39.20496785988873
 20
8.896769947273583
 30
0.0
 10
-39.20065708293471
 20
8.882045106389369
 30
0.0
 10
-39.19475313466832
 20
8.86796113560922
 30
0.0
 10
-39.18740040505154
 20
8.854657995060364
 30
0.0
 10
-39.1785725536999
 20
8.842112869110536
 30
0.0
 10
-39.16825249186016
 20
8.830570570999753
 30
0.0
 10
-39.15657992893534
 20
8.820192760705083
 30
0.0
 10
-39.14390713133664
 20
8.811267382180773
 30
0.0
 10
-39.13041073506105
 20
8.803901769140736
 30
0.0
 10
-39.11631208834061
 20
8.79808071967713
 30
0.0
 10
-39.10168830573845
 20
8.793836013907679
 30
0.0
 10
-39.08672611296175
 20
8.791256866492631
 30
0.0
 10
-39.07663476040909
 20
8.790675411373399
 30
0.0
 10
-39.07159365568015
 20
8.790666119817785
 30
0.0
 11
-39.20825320712991
 21
8.92733154054332
 31
0.0
 11
-39.20734578507782
 21
8.911999097951991
 31
0.0
 11
-39.20468808496402
 21
8.896818260259806
 31
0.0
 11
-39.20036551410225
 21
8.882074909054438
 31
0.0
 11
-39.19451434937402
 21
8.868093497271445
 31
0.0
 11
-39.18716010024818
 21
8.854789264576083
 31
0.0
 11
-39.17842481070676
 21
8.842405045592158
 31
0.0
 11
-39.16805560309806
 21
8.830793773608689
 31
0.0
 11
-39.15638420880636
 21
8.820412232653495
 31
0.0
 11
-39.1436512447102
 21
8.811452069347609
 31
0.0
 11
-39.13030709654929
 21
8.804155536247236
 31
0.0
 11
-39.11620606767242
 21
8.798336404065082
 31
0.0
 11
-39.10159869931495
 21
8.794104915238165
 31
0.0
 11
-39.08669235608915
 21
8.791539738323479
 31
0.0
 11
-39.07159365568015
 21
8.790666119817785
 31
0.0
  0
SPLINE
  5
161
330
2
100
AcDbEntity
  8
GAIKEI
  6
Continuous
 62
     1
100
AcDbSpline
210
0.0
220
0.0
230
1.0
 70
     8
 71
     3
 72
    21
 73
    17
 74
    15
 42
0.0000000001
 43
0.0000000001
 44
0.000001
 12
0.9999969226380834
 22
-0.0024808696788172
 32
0.0
 13
0.0018431554850293
 23
-0.9999983013874864
 33
0.0
 40
0.0
 40
0.0
 40
0.0
 40
0.0
 40
0.015358668011249
 40
0.0307703763784478
 40
0.0461343238530724
 40
0.0612906984439324
 40
0.0764922540437621
 40
0.0916472461685732
 40
0.1072145701393791
 40
0.1228349838902067
 40
0.1384045846346145
 40
0.1536133149588394
 40
0.168867860486093
 40
0.1840757649793864
 40
0.1992011987754746
 40
0.2143245386510105
 40
0.2143245386510105
 40
0.2143245386510105
 40
0.2143245386510105
 10
5.003337683678168
 20
34.60558909819915
 30
0.0
 10
5.008457223927194
 20
34.60557639724789
 30
0.0
 10
5.018722912432551
 20
34.60497315837682
 30
0.0
 10
5.033899276948005
 20
34.60230375095799
 30
0.0
 10
5.048624117832076
 20
34.597992974004
 30
0.0
 10
5.062708088612254
 20
34.59208902573761
 30
0.0
 10
5.076011229161053
 20
34.58473629612075
 30
0.0
 10
5.088556355110881
 20
34.5759084447692
 30
0.0
 10
5.100098653221635
 20
34.56558838292955
 30
0.0
 10
5.110476463516349
 20
34.55391582000471
 30
0.0
 10
5.119401842040659
 20
34.54124302240604
 30
0.0
 10
5.126767455080823
 20
34.52774662613041
 30
0.0
 10
5.132588504544216
 20
34.51364797940997
 30
0.0
 10
5.13683321031381
 20
34.49902419680774
 30
0.0
 10
5.139412357728929
 20
34.4840620040311
 30
0.0
 10
5.139993812848132
 20
34.4739706514784
 30
0.0
 10
5.140003104403746
 20
34.46892954674945
 30
0.0
 11
5.003337683678168
 21
34.60558909819915
 31
0.0
 11
5.018670126269498
 21
34.60468167614707
 31
0.0
 11
5.033850963961697
 21
34.60202397603325
 31
0.0
 11
5.048594315167065
 21
34.59770140517151
 31
0.0
 11
5.062575726950029
 21
34.59185024044331
 31
0.0
 11
5.075879959645348
 21
34.58449599131745
 31
0.0
 11
5.088264178629259
 21
34.57576070177606
 31
0.0
 11
5.099875450612671
 21
34.56539149416739
 31
0.0
 11
5.11025699156795
 21
34.55372009987568
 31
0.0
 11
5.119217154873808
 21
34.54098713577958
 31
0.0
 11
5.126513687974238
 21
34.52764298761866
 31
0.0
 11
5.132332820156364
 21
34.51354195874177
 31
0.0
 11
5.136564308983309
 21
34.4989345903843
 31
0.0
 11
5.139129485898052
 21
34.48402824715845
 31
0.0
 11
5.140003104403746
 21
34.46892954674945
 31
0.0
  0
DIMENSION
  5
162
330
2
100
AcDbEntity
  8
SUNPO
  6
Continuous
100
AcDbDimension
  2
*D6
 10
6.282541615801549
 20
43.74370088737925
 30
0.0
 11
-17.03412505063195
 21
45.49370088737925
 31
0.0
 70
    33
  1
1399
 71
     5
 42
46.633333332867
  3
STANDARD
100
AcDbAlignedDimension
 13
-40.35079171706544
 23
35.74370088737925
 33
0.0
 14
6.282541615801548
 24
35.74370088737925
 34
0.0
1001
ACAD
1000
DSTYLE
1002
{
1070
    40
1040
1.0
1070
   140
1040
2.5
1070
   147
1040
0.5
1070
   172
1070
     1
1070
   279
1070
     0
1070
   288
1070
     0
1002
}
  0
ELLIPSE
  5
16F
330
2
100
AcDbEntity
  8
GAIKEI
  6
Continuous
 62
     7
100
AcDbEllipse
 10
33.21775545212552
 20
35.638512717607
 30
0.0
 11
-0.2881495404895861
 21
0.0124945595228605
 31
0.0
210
0.0
220
0.0
230
1.0
 40
0.0968455342409455
 41
6.227176795229617
 42
6.318824225410621
  0
ELLIPSE
  5
170
330
2
100
AcDbEntity
  8
GAIKEI
  6
Continuous
 62
     7
100
AcDbEllipse
 10
32.97330141183524
 20
35.62570142421859
 30
0.0
 11
0.0026167978121216
 21
-0.0499314767372407
 31
0.0
210
0.0
220
0.0
230
1.0
 40
0.9965844392198029
 41
3.141592653589793
 42
4.152613244623238
  0
ELLIPSE
  5
171
330
2
100
AcDbEntity
  8
GAIKEI
  6
Continuous
 62
     1
100
AcDbEllipse
 10
33.21513865431342
 20
7.75774249894772
 30
0.0
 11
-0.1820847421754359
 21
0.2647949924810234
 31
0.0
210
0.0
220
0.0
230
1.0
 40
0.6217793854148083
 41
0.7351399007579947
 42
0.8267873309388068
  0
ELLIPSE
  5
172
330
2
100
AcDbEntity
  8
GAIKEI
  6
Continuous
 62
     1
100
AcDbEllipse
 10
31.80981447260299
 20
7.781460941746701
 30
0.0
 11
2.544151558339091
 21
0.0
 31
0.0
210
0.0
220
0.0
230
1.0
 40
0.0524077792830372
 41
6.281815779309091
 42
6.283185307179586
  0
ELLIPSE
  5
173
330
2
100
AcDbEntity
  8
GAIKEI
  6
Continuous
 62
     1
100
AcDbEllipse
 10
33.21513865431342
 20
35.638512717607
 30
0.0
 11
0.1820847421754366
 21
0.2647949924810218
 31
0.0
210
0.0
220
0.0
230
1.0
 40
0.6217793854148109
 41
2.314805322650925
 42
2.406452752831748
  0
ELLIPSE
  5
174
330
2
100
AcDbEntity
  8
GAIKEI
  6
Continuous
 62
     1
100
AcDbEllipse
 10
31.80981447260291
 20
35.61479427480799
 30
0.0
 11
2.544151558339091
 21
0.0
 31
0.0
210
0.0
220
0.0
230
1.0
 40
0.0524077792830372
 41
0.0
 42
0.0013695278703665
  0
ARC
  5
175
330
2
100
AcDbEntity
  8
GAIKEI
  6
Continuous
 62
     7
100
AcDbCircle
 10
32.86063269762326
 20
7.914526111767628
 30
0.0
 40
0.0333333333330076
100
AcDbArc
 50
180.0000000000325
 51
212.5508678714826
  0
ARC
  5
176
330
2
100
AcDbEntity
  8
GAIKEI
  6
Continuous
 62
     7
100
AcDbCircle
 10
32.86063269762326
 20
35.48172910478707
 30
0.0
 40
0.0333333333330076
100
AcDbArc
 50
147.4491321285462
 51
180.0
  0
ARC
  5
177
330
2
100
AcDbEntity
  8
GAIKEI
  6
Continuous
 62
     7
100
AcDbCircle
 10
32.97227119121004
 20
7.770607783911259
 30
0.0
 40
0.0499999999995114
100
AcDbArc
 50
212.5508678714537
 51
266.9999999999943
  0
ARC
  5
178
330
2
100
AcDbEntity
  8
GAIKEI
  6
Continuous
 62
     7
100
AcDbCircle
 10
34.35396603094202
 20
7.681460941747644
 30
0.0
 40
0.0333333333330076
100
AcDbArc
 50
270.0
 51
0.0
  0
ARC
  5
179
330
2
100
AcDbEntity
  8
GAIKEI
  6
Continuous
 62
     7
100
AcDbCircle
 10
34.35396603094202
 20
35.71479427480705
 30
0.0
 40
0.0333333333330076
100
AcDbArc
 50
0.0
 51
90.0
  0
LINE
  5
17A
330
2
100
AcDbEntity
  8
GAIKEI
  6
Continuous
 62
     7
100
AcDbLine
 10
32.82729936429027
 20
7.914526111767628
 30
0.0
 11
32.82729936429027
 21
35.48172910478707
 31
0.0
  0
LINE
  5
17B
330
2
100
AcDbEntity
  8
GAIKEI
  6
Continuous
 62
     7
100
AcDbLine
 10
32.97068461402311
 20
35.67563290095586
 30
0.0
 11
32.96965439339792
 21
35.67557890938073
 31
0.0
  0
LINE
  5
17C
330
2
100
AcDbEntity
  8
GAIKEI
  6
Continuous
 62
     7
100
AcDbLine
 10
32.83253556120563
 20
35.49966404376716
 30
0.0
 11
32.93012548658365
 21
35.65254984111357
 31
0.0
  0
LINE
  5
17D
330
2
100
AcDbEntity
  8
GAIKEI
  6
Continuous
 62
     7
100
AcDbLine
 10
32.93012548658365
 20
7.743705375441123
 30
0.0
 11
32.83253556120568
 21
7.896591172787537
 31
0.0
  0
LINE
  5
17E
330
2
100
AcDbEntity
  8
GAIKEI
  6
Continuous
 62
     7
100
AcDbLine
 10
32.97068461402311
 20
35.67563290095583
 30
0.0
 11
34.35396364502864
 21
35.74812748309961
 31
0.0
  0
LINE
  5
17F
330
2
100
AcDbEntity
  8
GAIKEI
  6
Continuous
 62
     7
100
AcDbLine
 10
34.35396364502867
 20
7.648127733455083
 30
0.0
 11
32.96965439339792
 21
7.720676307174016
 31
0.0
  0
LINE
  5
180
330
2
100
AcDbEntity
  8
GAIKEI
  6
Continuous
 62
     1
100
AcDbLine
 10
34.35396603094202
 20
7.781460941746701
 30
0.0
 11
34.38729936427503
 21
7.781460941746701
 31
0.0
  0
LINE
  5
181
330
2
100
AcDbEntity
  8
GAIKEI
  6
Continuous
 62
     7
100
AcDbLine
 10
34.38729936427498
 20
35.61479427480799
 30
0.0
 11
34.38729936427507
 21
7.681460941747644
 31
0.0
  0
LINE
  5
182
330
2
100
AcDbEntity
  8
GAIKEI
  6
Continuous
 62
     1
100
AcDbLine
 10
32.96965439339796
 20
35.51803779876292
 30
0.0
 11
32.96965439339796
 21
7.878217417791773
 31
0.0
  0
LINE
  5
183
330
2
100
AcDbEntity
  8
GAIKEI
  6
Continuous
 62
     1
100
AcDbLine
 10
32.97068461402316
 20
7.853772920231506
 30
0.0
 11
34.35396364502871
 21
7.781278338087702
 31
0.0
  0
LINE
  5
184
330
2
100
AcDbEntity
  8
GAIKEI
  6
Continuous
 62
     1
100
AcDbLine
 10
34.35396364502867
 20
35.61497687846699
 30
0.0
 11
32.97068461402316
 21
35.54248229632319
 31
0.0
  0
LINE
  5
185
330
2
100
AcDbEntity
  8
GAIKEI
  6
Continuous
 62
     1
100
AcDbLine
 10
34.38729936427498
 20
35.61479427480799
 30
0.0
 11
34.35396603094202
 21
35.61479427480799
 31
0.0
  0
LINE
  5
186
330
2
100
AcDbEntity
  8
GAIKEI
  6
Continuous
 62
     7
100
AcDbLine
 10
34.38729936427498
 20
35.71479427480705
 30
0.0
 11
34.38729936427498
 21
35.61479427480799
 31
0.0
  0
LINE
  5
187
330
2
100
AcDbEntity
  8
GAIKEI
  6
Continuous
 62
     7
100
AcDbLine
 10
34.35396603094202
 20
35.74812760814001
 30
0.0
 11
34.35396364502864
 21
35.74812748309966
 31
0.0
  0
LINE
  5
188
330
2
100
AcDbEntity
  8
GAIKEI
  6
Continuous
 62
     1
100
AcDbLine
 10
32.76063269762425
 20
8.082446869589773
 30
0.0
 11
32.76063269762425
 21
8.082715230706526
 31
0.0
  0
LINE
  5
189
330
2
100
AcDbEntity
  8
GAIKEI
  6
Continuous
 62
     1
100
AcDbLine
 10
32.76063269762425
 20
8.082756828396043
 30
0.0
 11
32.76063269762425
 21
8.082715230706526
 31
0.0
  0
LINE
  5
18A
330
2
100
AcDbEntity
  8
GAIKEI
  6
Continuous
 62
     1
100
AcDbLine
 10
32.82729936429027
 20
8.082446869698173
 30
0.0
 11
32.76063269762425
 21
8.082446869698173
 31
0.0
  0
LINE
  5
18B
330
2
100
AcDbEntity
  8
GAIKEI
  6
Continuous
 62
     1
100
AcDbLine
 10
32.76063269762425
 20
8.526555214072743
 30
0.0
 11
32.76063269762425
 21
8.421669324901046
 31
0.0
  0
LINE
  5
18C
330
2
100
AcDbEntity
  8
GAIKEI
  6
Continuous
 62
     1
100
AcDbLine
 10
32.76063269762425
 20
8.526555214072743
 30
0.0
 11
32.82729936429027
 21
8.526555214072743
 31
0.0
  0
LINE
  5
18D
330
2
100
AcDbEntity
  8
GAIKEI
  6
Continuous
 62
     1
100
AcDbLine
 10
32.76063269762425
 20
8.082725485933451
 30
0.0
 11
32.76063269762425
 21
8.134724745743227
 31
0.0
  0
LINE
  5
18E
330
2
100
AcDbEntity
  8
GAIKEI
  6
Continuous
 62
     1
100
AcDbLine
 10
32.82729936429027
 20
8.082725468806927
 30
0.0
 11
32.76063269762425
 21
8.082725468806927
 31
0.0
  0
LINE
  5
18F
330
2
100
AcDbEntity
  8
GAIKEI
  6
Continuous
 62
     1
100
AcDbLine
 10
32.76063269762425
 20
8.134725474425465
 30
0.0
 11
32.76063269762425
 21
8.134724745743227
 31
0.0
  0
LINE
  5
190
330
2
100
AcDbEntity
  8
GAIKEI
  6
Continuous
 62
     1
100
AcDbLine
 10
32.76063269762425
 20
8.300512497987284
 30
0.0
 11
32.76063269762425
 21
8.421669326522447
 31
0.0
  0
LINE
  5
191
330
2
100
AcDbEntity
  8
GAIKEI
  6
Continuous
 62
     1
100
AcDbLine
 10
32.76063269762425
 20
8.300512497987284
 30
0.0
 11
32.76063269762425
 21
8.229394120075625
 31
0.0
  0
LINE
  5
192
330
2
100
AcDbEntity
  8
GAIKEI
  6
Continuous
 62
     1
100
AcDbLine
 10
32.76063269762425
 20
8.134725474352705
 30
0.0
 11
32.76063269762425
 21
8.229394120075625
 31
0.0
  0
ELLIPSE
  5
193
330
2
100
AcDbEntity
  8
GAIKEI
  6
Continuous
 62
     1
100
AcDbEllipse
 10
35.71864272580067
 20
13.30788123713427
 30
0.0
 11
-0.0000278830828835
 21
-0.0166666433424981
 31
0.0
210
0.0
220
0.0
230
1.0
 40
0.98999033333964
 41
1.57245256655046
 42
2.357850757822983
  0
ELLIPSE
  5
194
330
2
100
AcDbEntity
  8
GAIKEI
  6
Continuous
 62
     1
100
AcDbEllipse
 10
35.73513579740217
 20
29.89146094153062
 30
0.0
 11
0.0
 21
0.2030869677674513
 31
0.0
210
0.0
220
0.0
230
1.0
 40
0.1411349973407681
 41
3.14182877081973
 42
6.282949190305136
  0
ELLIPSE
  5
195
330
2
100
AcDbEntity
  8
GAIKEI
  6
Continuous
 62
     1
100
AcDbEllipse
 10
35.72854296265368
 20
13.34502168893425
 30
0.0
 11
0.000027883082842
 21
0.0166666433424982
 31
0.0
210
0.0
220
0.0
230
1.0
 40
0.9899903333396407
 41
1.572452566546936
 42
2.357850757819366
  0
ELLIPSE
  5
196
330
2
100
AcDbEntity
  8
GAIKEI
  6
Continuous
 62
     1
100
AcDbEllipse
 10
35.71203511787511
 20
13.10479427502798
 30
0.0
 11
0.0
 21
0.2402274206027511
 31
0.0
210
0.0
220
0.0
230
1.0
 40
0.1411349973407688
 41
5.899822157622019
 42
6.282949189953956
  0
ELLIPSE
  5
197
330
2
100
AcDbEntity
  8
GAIKEI
  6
Continuous
 62
     1
100
AcDbEllipse
 10
35.69843453705317
 20
12.86451649010769
 30
0.0
 11
-0.0000278830828553
 21
0.0166666433424982
 31
0.0
210
0.0
220
0.0
230
1.0
 40
0.9899903333396739
 41
0.7837418957686584
 42
1.569140087042117
  0
ARC
  5
198
330
2
100
AcDbEntity
  8
GAIKEI
  6
Continuous
 62
     1
100
AcDbCircle
 10
36.05229936425875
 20
12.18478043915633
 30
0.0
 40
0.0666666666660116
100
AcDbArc
 50
109.9999999999805
 51
112.4107549875861
  0
ARC
  5
199
330
2
100
AcDbEntity
  8
GAIKEI
  6
Continuous
 62
     1
100
AcDbCircle
 10
36.05896555999672
 20
12.32909735809542
 30
0.0
 40
0.0666671375947832
100
AcDbArc
 50
340.4697506632401
 51
359.9999303443502
  0
ARC
  5
19A
330
2
100
AcDbEntity
  8
GAIKEI
  6
Continuous
 62
     1
100
AcDbCircle
 10
36.05896591574739
 20
12.32909739128445
 30
0.0
 40
0.0666668134075055
100
AcDbArc
 50
290.0000594387863
 51
340.46962156875
  0
ARC
  5
19B
330
2
100
AcDbEntity
  8
GAIKEI
  6
Continuous
 62
     1
100
AcDbCircle
 10
2.573986671936737
 20
37.84586791269882
 30
0.0
 40
33.80399126824942
100
AcDbArc
 50
347.3145797830716
 51
347.4317476099855
  0
ARC
  5
19C
330
2
100
AcDbEntity
  8
GAIKEI
  6
Continuous
 62
     1
100
AcDbCircle
 10
36.3531229207145
 20
12.32173320678538
 30
0.0
 40
0.9055604988004542
100
AcDbArc
 50
148.9672946791434
 51
152.0975341020431
  0
ARC
  5
19D
330
2
100
AcDbEntity
  8
GAIKEI
  6
Continuous
 62
     1
100
AcDbCircle
 10
36.35312292235736
 20
29.10839987236034
 30
0.0
 40
0.9055605006863903
100
AcDbArc
 50
148.9672946824444
 51
152.0975340987927
  0
LINE
  5
19E
330
2
100
AcDbEntity
  8
GAIKEI
  6
Continuous
 62
     1
100
AcDbLine
 10
36.12563269759136
 20
12.32909727704273
 30
0.0
 11
36.12563269759136
 21
12.32481933930972
 31
0.0
  0
LINE
  5
19F
330
2
100
AcDbEntity
  8
GAIKEI
  6
Continuous
 62
     1
100
AcDbLine
 10
36.12563269759136
 20
12.74146094169819
 30
0.0
 11
36.12563269759136
 21
12.32909727704273
 31
0.0
  0
LINE
  5
1A0
330
2
100
AcDbEntity
  8
GAIKEI
  6
Continuous
 62
     1
100
AcDbLine
 10
36.12558040378659
 20
12.32647019098769
 30
0.0
 11
36.12558938610997
 21
12.32669457267468
 31
0.0
  0
LINE
  5
1A1
330
2
100
AcDbEntity
  8
GAIKEI
  6
Continuous
 62
     7
100
AcDbLine
 10
36.12563269759136
 20
11.84411803087258
 30
0.0
 11
36.12563269759134
 21
31.33146094151647
 31
0.0
  0
LINE
  5
1A2
330
2
100
AcDbEntity
  8
GAIKEI
  6
Continuous
 62
     1
100
AcDbLine
 10
36.08176737381348
 20
12.26645110232835
 30
0.0
 11
36.02949802137061
 21
12.24742661387478
 31
0.0
  0
LINE
  5
1A3
330
2
100
AcDbEntity
  8
GAIKEI
  6
Continuous
 62
     1
100
AcDbLine
 10
35.98563269759273
 20
12.1961671634364
 30
0.0
 11
35.98563269759271
 21
11.67646094170859
 31
0.0
  0
LINE
  5
1A4
330
2
100
AcDbEntity
  8
GAIKEI
  6
Continuous
 62
     7
100
AcDbLine
 10
36.04775851471629
 20
31.85410646416798
 30
0.0
 11
36.12563269759134
 21
31.33146094151647
 31
0.0
  0
LINE
  5
1A5
330
2
100
AcDbEntity
  8
GAIKEI
  6
Continuous
 62
     7
100
AcDbLine
 10
34.90152334566417
 20
34.82970571480189
 30
0.0
 11
34.44605704745459
 21
34.93296003933301
 31
0.0
  0
LINE
  5
1A6
330
2
100
AcDbEntity
  8
GAIKEI
  6
Continuous
 62
     1
100
AcDbLine
 10
35.72138913579967
 20
12.87860515321623
 30
0.0
 11
35.72146306433055
 21
12.87868416729549
 31
0.0
  0
LINE
  5
1A7
330
2
100
AcDbEntity
  8
GAIKEI
  6
Continuous
 62
     1
100
AcDbLine
 10
35.73466974152632
 20
13.31742743492327
 30
0.0
 11
35.72155368169408
 21
13.3308119102835
 31
0.0
  0
LINE
  5
1A8
330
2
100
AcDbEntity
  8
GAIKEI
  6
Continuous
 62
     1
100
AcDbLine
 10
35.72147830292951
 20
12.87869971840814
 30
0.0
 11
35.73467042244067
 21
12.89216180998173
 31
0.0
  0
LINE
  5
1A9
330
2
100
AcDbEntity
  8
GAIKEI
  6
Continuous
 62
     1
100
AcDbLine
 10
35.73514256514942
 20
30.09454790363691
 30
0.0
 11
35.706269210248
 21
30.09459620839337
 31
0.0
  0
LINE
  5
1AA
330
2
100
AcDbEntity
  8
GAIKEI
  6
Continuous
 62
     1
100
AcDbLine
 10
35.68193469770437
 20
13.34507205994831
 30
0.0
 11
35.71204312330492
 21
13.34502168893425
 31
0.0
  0
LINE
  5
1AB
330
2
100
AcDbEntity
  8
GAIKEI
  6
Continuous
 62
     1
100
AcDbLine
 10
35.68676699635484
 20
12.87630160312733
 30
0.0
 11
35.71687542195534
 21
12.87635197414141
 31
0.0
  0
LINE
  5
1AC
330
2
100
AcDbEntity
  8
GAIKEI
  6
Continuous
 62
     1
100
AcDbLine
 10
35.71687542195534
 20
13.33323657591461
 30
0.0
 11
35.73031026649895
 21
13.31966635015394
 31
0.0
  0
LINE
  5
1AD
330
2
100
AcDbEntity
  8
GAIKEI
  6
Continuous
 62
     1
100
AcDbLine
 10
35.55283791353482
 20
12.49855733647641
 30
0.0
 11
35.55283791353482
 21
12.7455064058802
 31
0.0
  0
LINE
  5
1AE
330
2
100
AcDbEntity
  8
GAIKEI
  6
Continuous
 62
     1
100
AcDbLine
 10
35.57717242607845
 20
12.78857434342799
 30
0.0
 11
35.57717242607845
 21
13.42101420662797
 31
0.0
  0
LINE
  5
1AF
330
2
100
AcDbEntity
  8
GAIKEI
  6
Continuous
 62
     1
100
AcDbLine
 10
35.55283791353482
 20
13.46408214417576
 30
0.0
 11
35.55283791353482
 21
29.53217307238285
 31
0.0
  0
LINE
  5
1B0
330
2
100
AcDbEntity
  8
GAIKEI
  6
Continuous
 62
     1
100
AcDbLine
 10
35.57717242607845
 20
29.57524100993055
 30
0.0
 11
35.57717242607845
 21
30.20768087313053
 31
0.0
  0
LINE
  5
1B1
330
2
100
AcDbEntity
  8
GAIKEI
  6
Continuous
 62
     1
100
AcDbLine
 10
35.55283791353482
 20
30.2507488106784
 30
0.0
 11
35.55283791353482
 21
30.42258047057271
 31
0.0
  0
LINE
  5
1B2
330
2
100
AcDbEntity
  8
GAIKEI
  6
Continuous
 62
     1
100
AcDbLine
 10
35.55283791353482
 20
30.42258047057271
 30
0.0
 11
35.27426812896246
 21
30.57215166127188
 31
0.0
  0
LINE
  5
1B3
330
2
100
AcDbEntity
  8
GAIKEI
  6
Continuous
 62
     1
100
AcDbLine
 10
34.9107692495736
 20
8.564940868818922
 30
0.0
 11
34.9107692495736
 21
11.79805842897087
 31
0.0
  0
LINE
  5
1B4
330
2
100
AcDbEntity
  8
GAIKEI
  6
Continuous
 62
     1
100
AcDbLine
 10
35.34942248735219
 20
12.42452017615534
 30
0.0
 11
35.55283791353482
 21
12.49855733647641
 31
0.0
  0
ARC
  5
1B5
330
2
100
AcDbEntity
  8
GAIKEI
  6
Continuous
 62
     1
100
AcDbCircle
 10
34.33663269760881
 20
33.77146094149268
 30
0.0
 40
0.2999999999970892
100
AcDbArc
 50
0.0
 51
16.60154959900615
  0
ARC
  5
1B6
330
2
100
AcDbEntity
  8
GAIKEI
  6
Continuous
 62
     1
100
AcDbCircle
 10
34.33663269760881
 20
33.77146094149268
 30
0.0
 40
0.2999999999970892
100
AcDbArc
 50
343.3984504009938
 51
0.0
  0
ARC
  5
1B7
330
2
100
AcDbEntity
  8
GAIKEI
  6
Continuous
 62
     1
100
AcDbCircle
 10
34.58260017513142
 20
33.69812760816007
 30
0.0
 40
0.0433333333329153
100
AcDbArc
 50
270.0
 51
343.3984504009938
  0
ARC
  5
1B8
330
2
100
AcDbEntity
  8
GAIKEI
  6
Continuous
 62
     1
100
AcDbCircle
 10
34.58260017513142
 20
33.84479427482529
 30
0.0
 40
0.0433333333329153
100
AcDbArc
 50
16.60154959903674
 51
90.0
  0
LINE
  5
1B9
330
2
100
AcDbEntity
  8
GAIKEI
  6
Continuous
 62
     1
100
AcDbLine
 10
34.62412715185602
 20
33.68574665577924
 30
0.0
 11
34.62412715185602
 21
33.85717522720611
 31
0.0
  0
LINE
  5
1BA
330
2
100
AcDbEntity
  8
GAIKEI
  6
Continuous
 62
     1
100
AcDbLine
 10
34.50820439684243
 20
33.65479427482717
 30
0.0
 11
34.58260017513142
 21
33.65479427482717
 31
0.0
  0
LINE
  5
1BB
330
2
100
AcDbEntity
  8
GAIKEI
  6
Continuous
 62
     1
100
AcDbLine
 10
34.58260017513142
 20
33.88812760815824
 30
0.0
 11
34.50820439684243
 21
33.88812760815819
 31
0.0
  0
LINE
  5
1BC
330
2
100
AcDbEntity
  8
GAIKEI
  6
Continuous
 62
     1
100
AcDbLine
 10
34.54996603094012
 20
33.77146712237888
 30
0.0
 11
34.54996603094012
 21
33.88812760815824
 31
0.0
  0
LINE
  5
1BD
330
2
100
AcDbEntity
  8
GAIKEI
  6
Continuous
 62
     1
100
AcDbLine
 10
34.54996603094012
 20
33.65479427482717
 30
0.0
 11
34.54996603094012
 21
33.77146712237888
 31
0.0
  0
LINE
  5
1BE
330
2
100
AcDbEntity
  8
GAIKEI
  6
Continuous
 62
     1
100
AcDbLine
 10
34.58260017513142
 20
33.65479427482717
 30
0.0
 11
34.58260017513142
 21
33.88812760815824
 31
0.0
  0
ARC
  5
1BF
330
2
100
AcDbEntity
  8
GAIKEI
  6
Continuous
 62
     1
100
AcDbCircle
 10
34.33663269760881
 20
31.16146094151821
 30
0.0
 40
0.2999999999970892
100
AcDbArc
 50
0.0
 51
16.60154959900615
  0
ARC
  5
1C0
330
2
100
AcDbEntity
  8
GAIKEI
  6
Continuous
 62
     1
100
AcDbCircle
 10
34.33663269760881
 20
31.16146094151821
 30
0.0
 40
0.2999999999970892
100
AcDbArc
 50
343.3984504009938
 51
0.0
  0
ARC
  5
1C1
330
2
100
AcDbEntity
  8
GAIKEI
  6
Continuous
 62
     1
100
AcDbCircle
 10
34.58260017513142
 20
31.08812760818555
 30
0.0
 40
0.0433333333329128
100
AcDbArc
 50
270.0
 51
343.3984504009938
  0
ARC
  5
1C2
330
2
100
AcDbEntity
  8
GAIKEI
  6
Continuous
 62
     1
100
AcDbCircle
 10
34.58260017513142
 20
31.2347942748508
 30
0.0
 40
0.0433333333329128
100
AcDbArc
 50
16.60154959900615
 51
90.0
  0
LINE
  5
1C3
330
2
100
AcDbEntity
  8
GAIKEI
  6
Continuous
 62
     1
100
AcDbLine
 10
34.50820439684243
 20
31.04479427485265
 30
0.0
 11
34.58260017513142
 21
31.04479427485271
 31
0.0
  0
LINE
  5
1C4
330
2
100
AcDbEntity
  8
GAIKEI
  6
Continuous
 62
     1
100
AcDbLine
 10
34.58260017513142
 20
31.2781276081837
 30
0.0
 11
34.50820439684243
 21
31.2781276081837
 31
0.0
  0
LINE
  5
1C5
330
2
100
AcDbEntity
  8
GAIKEI
  6
Continuous
 62
     1
100
AcDbLine
 10
34.54996603094012
 20
31.16146712240442
 30
0.0
 11
34.54996603094012
 21
31.2781276081837
 31
0.0
  0
LINE
  5
1C6
330
2
100
AcDbEntity
  8
GAIKEI
  6
Continuous
 62
     1
100
AcDbLine
 10
34.54996603094012
 20
31.04479427485271
 30
0.0
 11
34.54996603094012
 21
31.16146712240442
 31
0.0
  0
LINE
  5
1C7
330
2
100
AcDbEntity
  8
GAIKEI
  6
Continuous
 62
     1
100
AcDbLine
 10
34.58260017513142
 20
31.04479427485271
 30
0.0
 11
34.58260017513142
 21
31.2781276081837
 31
0.0
  0
LINE
  5
1C8
330
2
100
AcDbEntity
  8
GAIKEI
  6
Continuous
 62
     1
100
AcDbLine
 10
34.62412715185602
 20
31.07574665580478
 30
0.0
 11
34.62412715185602
 21
31.24717522723162
 31
0.0
  0
ELLIPSE
  5
1C9
330
2
100
AcDbEntity
  8
GAIKEI
  6
Continuous
 62
     1
100
AcDbEllipse
 10
34.93673192753739
 20
34.12708368822817
 30
0.0
 11
0.0624127083586416
 21
0.2936287069581687
 31
0.0
210
0.0
220
0.0
230
1.0
 40
0.9993719049380247
 41
1.137417462013209
 42
1.570796326794884
  0
ELLIPSE
  5
1CA
330
2
100
AcDbEntity
  8
GAIKEI
  6
Continuous
 62
     1
100
AcDbEllipse
 10
34.93673192753739
 20
31.1996334826228
 30
0.0
 11
-0.0624127083586384
 21
0.293628706958169
 31
0.0
210
0.0
220
0.0
230
1.0
 40
0.9993719049380262
 41
1.570796326794934
 42
2.00417519157666
  0
ARC
  5
1CB
330
2
100
AcDbEntity
  8
GAIKEI
  6
Continuous
 62
     1
100
AcDbCircle
 10
35.60096604909708
 20
31.60179615403488
 30
0.0
 40
1.033333333323234
100
AcDbArc
 50
180.0
 51
192.0000000000146
  0
ARC
  5
1CC
330
2
100
AcDbEntity
  8
GAIKEI
  6
Continuous
 62
     1
100
AcDbCircle
 10
35.60096604909708
 20
33.7249210168161
 30
0.0
 40
1.033333333323234
100
AcDbArc
 50
167.9999999999854
 51
170.9125452951274
  0
ARC
  5
1CD
330
2
100
AcDbEntity
  8
GAIKEI
  6
Continuous
 62
     7
100
AcDbCircle
 10
35.68774308945137
 20
34.43278549822372
 30
0.0
 40
0.233333333331053
100
AcDbArc
 50
7.400992475884483
 51
78.55455851726985
  0
ARC
  5
1CE
330
2
100
AcDbEntity
  8
GAIKEI
  6
Continuous
 62
     7
100
AcDbCircle
 10
35.68774308945137
 20
30.89393167262716
 30
0.0
 40
0.233333333331053
100
AcDbArc
 50
281.4454414827301
 51
352.5990075241155
  0
ARC
  5
1CF
330
2
100
AcDbEntity
  8
GAIKEI
  6
Continuous
 62
     1
100
AcDbCircle
 10
35.46430294910817
 20
31.10104641838797
 30
0.0
 40
0.166349195594437
100
AcDbArc
 50
271.9372268506548
 51
352.3643391909059
  0
ARC
  5
1D0
330
2
100
AcDbEntity
  8
GAIKEI
  6
Continuous
 62
     1
100
AcDbCircle
 10
35.46430294910817
 20
34.22567075246301
 30
0.0
 40
0.1663491955944186
100
AcDbArc
 50
7.635660809094169
 51
88.06277314934513
  0
ARC
  5
1D1
330
2
100
AcDbEntity
  8
GAIKEI
  6
Continuous
 62
     1
100
AcDbCircle
 10
35.68774308945137
 20
30.89393167262716
 30
0.0
 40
0.1666666666650379
100
AcDbArc
 50
281.4454414827301
 51
352.5990075241155
  0
ARC
  5
1D2
330
2
100
AcDbEntity
  8
GAIKEI
  6
Continuous
 62
     1
100
AcDbCircle
 10
35.12429938243509
 20
32.50803438180961
 30
0.0
 40
0.9333333333242121
100
AcDbArc
 50
352.5990075241155
 51
0.0
  0
ARC
  5
1D3
330
2
100
AcDbEntity
  8
GAIKEI
  6
Continuous
 62
     1
100
AcDbCircle
 10
35.12429938243509
 20
32.81868278904131
 30
0.0
 40
0.9333333333242121
100
AcDbArc
 50
0.0
 51
7.400992475884483
  0
ARC
  5
1D4
330
2
100
AcDbEntity
  8
GAIKEI
  6
Continuous
 62
     1
100
AcDbCircle
 10
35.68774308945137
 20
34.43278549822372
 30
0.0
 40
0.1666666666650379
100
AcDbArc
 50
7.400992475884483
 51
78.55455851726985
  0
LINE
  5
1D5
330
2
100
AcDbEntity
  8
GAIKEI
  6
Continuous
 62
     1
100
AcDbLine
 10
34.61693749210352
 20
31.26122770899963
 30
0.0
 11
34.59021352834869
 21
31.38695407352526
 31
0.0
  0
LINE
  5
1D6
330
2
100
AcDbEntity
  8
GAIKEI
  6
Continuous
 62
     1
100
AcDbLine
 10
34.64328764732014
 20
31.13725997537804
 30
0.0
 11
34.63653753151874
 21
31.16901677341985
 31
0.0
  0
LINE
  5
1D7
330
2
100
AcDbEntity
  8
GAIKEI
  6
Continuous
 62
     1
100
AcDbLine
 10
34.59021352834869
 20
33.93976309732565
 30
0.0
 11
34.64328764732014
 21
34.18945719547287
 31
0.0
  0
LINE
  5
1D8
330
2
100
AcDbEntity
  8
GAIKEI
  6
Continuous
 62
     1
100
AcDbLine
 10
34.56763271577384
 20
31.60179615403488
 30
0.0
 11
34.5676327157738
 21
33.65479427482717
 31
0.0
  0
LINE
  5
1D9
330
2
100
AcDbEntity
  8
GAIKEI
  6
Continuous
 62
     7
100
AcDbLine
 10
34.90152334566415
 20
34.82970571480189
 30
0.0
 11
35.73404452752973
 21
34.66147878906378
 31
0.0
  0
LINE
  5
1DA
330
2
100
AcDbEntity
  8
GAIKEI
  6
Continuous
 62
     1
100
AcDbLine
 10
36.12429938242531
 20
32.81884033603069
 30
0.0
 11
36.12429938242531
 21
32.81868278904131
 31
0.0
  0
LINE
  5
1DB
330
2
100
AcDbEntity
  8
GAIKEI
  6
Continuous
 62
     7
100
AcDbLine
 10
36.11627747892135
 20
32.3792647788444
 30
0.0
 11
35.91913250673861
 21
30.86387535863384
 31
0.0
  0
LINE
  5
1DC
330
2
100
AcDbEntity
  8
GAIKEI
  6
Continuous
 62
     7
100
AcDbLine
 10
35.73404452752973
 20
30.66523838178714
 30
0.0
 11
34.93421592954437
 21
30.50330440389525
 31
0.0
  0
LINE
  5
1DD
330
2
100
AcDbEntity
  8
GAIKEI
  6
Continuous
 62
     7
100
AcDbLine
 10
34.86823214368391
 20
30.49669191877996
 30
0.0
 11
34.38729936427498
 21
30.49669191877996
 31
0.0
  0
LINE
  5
1DE
330
2
100
AcDbEntity
  8
GAIKEI
  6
Continuous
 62
     1
100
AcDbLine
 10
34.61332097389317
 20
30.90487898008988
 30
0.0
 11
35.46992630801745
 21
30.93479229750824
 31
0.0
  0
LINE
  5
1DF
330
2
100
AcDbEntity
  8
GAIKEI
  6
Continuous
 62
     1
100
AcDbLine
 10
35.81051238176856
 20
32.90631354304617
 30
0.0
 11
35.62917713172263
 21
34.24777411831832
 31
0.0
  0
LINE
  5
1E0
330
2
100
AcDbEntity
  8
GAIKEI
  6
Continuous
 62
     1
100
AcDbLine
 10
35.6291771317227
 20
31.07894305253305
 30
0.0
 11
35.81051238176856
 21
32.42040362780475
 31
0.0
  0
LINE
  5
1E1
330
2
100
AcDbEntity
  8
GAIKEI
  6
Continuous
 62
     1
100
AcDbLine
 10
34.50820439684243
 20
34.32530837198169
 30
0.0
 11
34.50820439684243
 21
31.00140879886919
 31
0.0
  0
LINE
  5
1E2
330
2
100
AcDbEntity
  8
GAIKEI
  6
Continuous
 62
     1
100
AcDbLine
 10
35.76122822226967
 20
34.26562445098156
 30
0.0
 11
35.94256347231559
 21
32.92416387570938
 31
0.0
  0
LINE
  5
1E3
330
2
100
AcDbEntity
  8
GAIKEI
  6
Continuous
 62
     1
100
AcDbLine
 10
35.94256347231559
 20
32.40255329514153
 30
0.0
 11
35.76122822226967
 21
31.06109271986935
 31
0.0
  0
LINE
  5
1E4
330
2
100
AcDbEntity
  8
GAIKEI
  6
Continuous
 62
     1
100
AcDbLine
 10
35.47457673960031
 20
30.80162136082549
 30
0.0
 11
34.61797140547612
 21
30.77170804340722
 31
0.0
  0
LINE
  5
1E5
330
2
100
AcDbEntity
  8
GAIKEI
  6
Continuous
 62
     1
100
AcDbLine
 10
34.47487614033753
 20
31.00140879886919
 30
0.0
 11
34.47487614033757
 21
34.32530837198169
 31
0.0
  0
LINE
  5
1E6
330
2
100
AcDbEntity
  8
GAIKEI
  6
Continuous
 62
     1
100
AcDbLine
 10
34.89487444851683
 20
34.76335858540494
 30
0.0
 11
34.38729936427498
 21
34.76335858540494
 31
0.0
  0
LINE
  5
1E7
330
2
100
AcDbEntity
  8
GAIKEI
  6
Continuous
 62
     1
100
AcDbLine
 10
34.38729936427498
 20
30.56335858544597
 30
0.0
 11
34.89487444851683
 21
30.56335858544597
 31
0.0
  0
LINE
  5
1E8
330
2
100
AcDbEntity
  8
GAIKEI
  6
Continuous
 62
     1
100
AcDbLine
 10
34.89487444851683
 20
30.56335858544597
 30
0.0
 11
35.72081554522168
 21
30.73057932202715
 31
0.0
  0
LINE
  5
1E9
330
2
100
AcDbEntity
  8
GAIKEI
  6
Continuous
 62
     1
100
AcDbLine
 10
35.85302124465653
 20
30.87246287691767
 30
0.0
 11
36.04985705158389
 21
32.38780912583613
 31
0.0
  0
LINE
  5
1EA
330
2
100
AcDbEntity
  8
GAIKEI
  6
Continuous
 62
     1
100
AcDbLine
 10
36.0576327157593
 20
32.50803438180961
 30
0.0
 11
36.0576327157593
 21
32.81868278904131
 31
0.0
  0
LINE
  5
1EB
330
2
100
AcDbEntity
  8
GAIKEI
  6
Continuous
 62
     1
100
AcDbLine
 10
36.04985705158389
 20
32.93890804501478
 30
0.0
 11
35.85302124465653
 21
34.45425429393328
 31
0.0
  0
LINE
  5
1EC
330
2
100
AcDbEntity
  8
GAIKEI
  6
Continuous
 62
     1
100
AcDbLine
 10
35.72081554522168
 20
34.59613784882379
 30
0.0
 11
34.89487444851683
 21
34.76335858540494
 31
0.0
  0
LINE
  5
1ED
330
2
100
AcDbEntity
  8
GAIKEI
  6
Continuous
 62
     1
100
AcDbLine
 10
35.94972455240127
 20
32.81773126720504
 30
0.0
 11
35.94972455240127
 21
32.50898590364588
 31
0.0
  0
LINE
  5
1EE
330
2
100
AcDbEntity
  8
GAIKEI
  6
Continuous
 62
     1
100
AcDbLine
 10
35.81647244213336
 20
32.50898590364588
 30
0.0
 11
35.81647244213336
 21
32.81773126720504
 31
0.0
  0
LINE
  5
1EF
330
2
100
AcDbEntity
  8
GAIKEI
  6
Continuous
 62
     1
100
AcDbLine
 10
34.61797140547612
 20
34.55500912744373
 30
0.0
 11
35.47457673960031
 21
34.52509581002536
 31
0.0
  0
LINE
  5
1F0
330
2
100
AcDbEntity
  8
GAIKEI
  6
Continuous
 62
     1
100
AcDbLine
 10
35.46992630801695
 20
34.3919248733427
 30
0.0
 11
34.61332097389317
 21
34.42183819076106
 31
0.0
  0
LINE
  5
1F1
330
2
100
AcDbEntity
  8
GAIKEI
  6
Continuous
 62
     7
100
AcDbLine
 10
35.834355356968
 20
8.613343965684151
 30
0.0
 11
34.38729936427503
 21
8.53750697460893
 31
0.0
  0
LINE
  5
1F2
330
2
100
AcDbEntity
  8
GAIKEI
  6
Continuous
 62
     7
100
AcDbLine
 10
35.99229936425934
 20
8.786460941736834
 30
0.0
 11
35.99229936425934
 21
8.77978222147496
 31
0.0
  0
LINE
  5
1F3
330
2
100
AcDbEntity
  8
GAIKEI
  6
Continuous
 62
     7
100
AcDbLine
 10
35.99229936425934
 20
8.786460941736834
 30
0.0
 11
35.98563269759268
 21
8.793127608403494
 31
0.0
  0
LINE
  5
1F4
330
2
100
AcDbEntity
  8
GAIKEI
  6
Continuous
 62
     7
100
AcDbLine
 10
36.11627748859346
 20
32.94722564839424
 30
0.0
 11
35.9194238641799
 21
34.46272849356944
 31
0.0
  0
LINE
  5
1F5
330
2
100
AcDbEntity
  8
GAIKEI
  6
Continuous
 62
     1
100
AcDbLine
 10
35.7346269664467
 20
34.66130653792371
 30
0.0
 11
35.73437594268758
 21
34.66135736046203
 31
0.0
  0
LINE
  5
1F6
330
2
100
AcDbEntity
  8
GAIKEI
  6
Continuous
 62
     1
100
AcDbLine
 10
35.73437594268758
 20
34.66135736046203
 30
0.0
 11
35.73397201059595
 21
34.66143914093559
 31
0.0
  0
LINE
  5
1F7
330
2
100
AcDbEntity
  8
GAIKEI
  6
Continuous
 62
     7
100
AcDbLine
 10
36.12458823912137
 20
32.66324458427567
 30
0.0
 11
36.12458823912148
 21
32.50776346999365
 31
0.0
  0
LINE
  5
1F8
330
2
100
AcDbEntity
  8
GAIKEI
  6
Continuous
 62
     1
100
AcDbLine
 10
36.12458823912148
 20
32.81872703189106
 30
0.0
 11
36.12458823912137
 21
32.66324591760901
 31
0.0
  0
LINE
  5
1F9
330
2
100
AcDbEntity
  8
GAIKEI
  6
Continuous
 62
     1
100
AcDbLine
 10
36.1245847673645
 20
32.81872680733687
 30
0.0
 11
36.12458823912148
 21
32.81872703189106
 31
0.0
  0
LINE
  5
1FA
330
2
100
AcDbEntity
  8
GAIKEI
  6
Continuous
 62
     1
100
AcDbLine
 10
36.12429938242531
 20
32.81870834856119
 30
0.0
 11
36.1245847673645
 21
32.81872680733687
 31
0.0
  0
LINE
  5
1FB
330
2
100
AcDbEntity
  8
GAIKEI
  6
Continuous
 62
     7
100
AcDbLine
 10
36.12441776074698
 20
32.48932180012074
 30
0.0
 11
36.12459072925688
 21
32.50776346958438
 31
0.0
  0
LINE
  5
1FC
330
2
100
AcDbEntity
  8
GAIKEI
  6
Continuous
 62
     1
100
AcDbLine
 10
35.91937120628227
 20
34.46313113813932
 30
0.0
 11
35.91912474687676
 21
34.46290149149112
 31
0.0
  0
LINE
  5
1FD
330
2
100
AcDbEntity
  8
GAIKEI
  6
Continuous
 62
     1
100
AcDbLine
 10
35.91937152420864
 20
34.46313143437766
 30
0.0
 11
35.91937120628227
 21
34.46313113813932
 31
0.0
  0
LINE
  5
1FE
330
2
100
AcDbEntity
  8
GAIKEI
  6
Continuous
 62
     1
100
AcDbLine
 10
35.9193975957578
 20
34.46293072178946
 30
0.0
 11
35.91937152420864
 21
34.46313143437766
 31
0.0
  0
LINE
  5
1FF
330
2
100
AcDbEntity
  8
GAIKEI
  6
Continuous
 62
     1
100
AcDbLine
 10
35.91942386417995
 20
34.46272849356944
 30
0.0
 11
35.9193975957578
 21
34.46293072178946
 31
0.0
  0
LINE
  5
200
330
2
100
AcDbEntity
  8
GAIKEI
  6
Continuous
 62
     7
100
AcDbLine
 10
36.11627748859346
 20
32.94722564839424
 30
0.0
 11
35.91942386417995
 21
34.46272849356944
 31
0.0
  0
LINE
  5
201
330
2
100
AcDbEntity
  8
GAIKEI
  6
Continuous
 62
     7
100
AcDbLine
 10
36.12448583061632
 20
32.49343618847507
 30
0.0
 11
36.12458823912144
 21
32.50776346999365
 31
0.0
  0
LINE
  5
202
330
2
100
AcDbEntity
  8
GAIKEI
  6
Continuous
 62
     7
100
AcDbLine
 10
36.11802147053928
 20
32.39348596808927
 30
0.0
 11
36.12061617851369
 21
32.41881933729767
 31
0.0
  0
LINE
  5
203
330
2
100
AcDbEntity
  8
GAIKEI
  6
Continuous
 62
     7
100
AcDbLine
 10
36.11627747892135
 20
32.3792647788444
 30
0.0
 11
36.11802147053928
 21
32.39348596808927
 31
0.0
  0
LINE
  5
204
330
2
100
AcDbEntity
  8
GAIKEI
  6
Continuous
 62
     7
100
AcDbLine
 10
36.12458823912144
 20
32.81872703189106
 30
0.0
 11
36.12458823912144
 21
32.50776346999365
 31
0.0
  0
LINE
  5
205
330
2
100
AcDbEntity
  8
GAIKEI
  6
Continuous
 62
     1
100
AcDbLine
 10
36.12458759946094
 20
32.81872679969081
 30
0.0
 11
36.12458823914562
 21
32.81872695556072
 31
0.0
  0
LINE
  5
206
330
2
100
AcDbEntity
  8
GAIKEI
  6
Continuous
 62
     1
100
AcDbLine
 10
36.12429938246115
 20
32.81870815902681
 30
0.0
 11
36.12458759946094
 21
32.81872679969081
 31
0.0
  0
LINE
  5
207
330
2
100
AcDbEntity
  8
GAIKEI
  6
Continuous
 62
     7
100
AcDbLine
 10
36.11802147048303
 20
32.93300453428321
 30
0.0
 11
36.11627748859346
 21
32.94722564839418
 31
0.0
  0
LINE
  5
208
330
2
100
AcDbEntity
  8
GAIKEI
  6
Continuous
 62
     7
100
AcDbLine
 10
36.12448583061162
 20
32.83305431373651
 30
0.0
 11
36.12379566022
 21
32.85851086321406
 31
0.0
  0
LINE
  5
209
330
2
100
AcDbEntity
  8
GAIKEI
  6
Continuous
 62
     7
100
AcDbLine
 10
36.12458823914562
 20
32.81872695556072
 30
0.0
 11
36.12448583061162
 21
32.83305431373651
 31
0.0
  0
LINE
  5
20A
330
2
100
AcDbEntity
  8
GAIKEI
  6
Continuous
 62
     7
100
AcDbLine
 10
36.11848395333078
 20
32.92891565631743
 30
0.0
 11
36.11627995803664
 21
32.94722596874968
 31
0.0
  0
LINE
  5
20B
330
2
100
AcDbEntity
  8
GAIKEI
  6
Continuous
 62
     7
100
AcDbLine
 10
36.12459072925692
 20
32.81872703226657
 30
0.0
 11
36.1244177607726
 21
32.83716870038677
 31
0.0
  0
LINE
  5
20C
330
2
100
AcDbEntity
  8
GAIKEI
  6
Continuous
 62
     1
100
AcDbLine
 10
35.91912471458818
 20
34.46290173956337
 30
0.0
 11
35.91937117344946
 21
34.46313138750364
 31
0.0
  0
SPLINE
  5
20D
330
2
100
AcDbEntity
  8
GAIKEI
  6
Continuous
 62
     1
100
AcDbSpline
210
0.0
220
0.0
230
1.0
 70
     8
 71
     3
 72
    25
 73
    21
 74
    19
 42
0.0000000001
 43
0.0000000001
 44
0.000001
 12
0.4538797674550777
 22
-0.8910629364387931
 32
0.0
 13
-0.031367967599114
 23
-0.9995079042252248
 33
0.0
 40
0.0
 40
0.0
 40
0.0
 40
0.0
 40
0.0009635445513466
 40
0.0037386866617175
 40
0.0067628531298264
 40
0.010658551153839
 40
0.0155515629082347
 40
0.0213014311678838
 40
0.0276497108278946
 40
0.0347180352811943
 40
0.0426923287668572
 40
0.0513198949512035
 40
0.0601647914632382
 40
0.0694964568742311
 40
0.0795340599820356
 40
0.0899501485660748
 40
0.1003598179824248
 40
0.1109878557865642
 40
0.1220715920395963
 40
0.1332328055209431
 40
0.1332328055209431
 40
0.1332328055209431
 40
0.1332328055209431
 10
32.97068461402311
 20
35.67563290095581
 30
0.0
 10
32.97083039181541
 20
35.67534670801004
 30
0.0
 10
32.97133537861001
 20
35.67418775937194
 30
0.0
 10
32.97112721533996
 20
35.67186762933767
 30
0.0
 10
32.9712290427452
 20
35.66866171769888
 30
0.0
 10
32.97114527069033
 20
35.66471479627788
 30
0.0
 10
32.97109622459465
 20
35.65987255732293
 30
0.0
 10
32.97102592437874
 20
35.65420800063601
 30
0.0
 10
32.97097736832081
 20
35.64781973919372
 30
0.0
 10
32.97094794623609
 20
35.64068935967407
 30
0.0
 10
32.97094850319107
 20
35.63279931717557
 30
0.0
 10
32.97097600953673
 20
35.62431708721846
 30
0.0
 10
32.9710272114298
 20
35.61538252298675
 30
0.0
 10
32.97109038041744
 20
35.60597801334569
 30
0.0
 10
32.97115509098873
 20
35.59604977011932
 30
0.0
 10
32.9712000935682
 20
35.58576206826535
 30
0.0
 10
32.9712053467573
 20
35.57527742591452
 30
0.0
 10
32.971145260161
 20
35.56457037022153
 30
0.0
 10
32.97099485214832
 20
35.55361354005447
 30
0.0
 10
32.97080131555077
 20
35.54620087002164
 30
0.0
 10
32.97068461402316
 20
35.54248229632319
 30
0.0
 11
32.97068461402311
 21
35.67563290095581
 31
0.0
 11
32.97104859695969
 21
35.67474068779461
 31
0.0
 11
32.97118874171801
 21
35.67196924923365
 31
0.0
 11
32.97119566735873
 21
35.66894510963471
 31
0.0
 11
32.97115779333414
 21
35.66504960566851
 31
0.0
 11
32.97109642488954
 21
35.66015698479049
 31
0.0
 11
32.97103181106593
 21
35.65440748338381
 31
0.0
 11
32.97098169737353
 21
35.64805940396662
 31
0.0
 11
32.97095286509125
 21
35.64099114004665
 31
0.0
 11
32.97095156395381
 21
35.63301684797077
 31
0.0
 11
32.970978333239
 21
35.62438932434475
 31
0.0
 11
32.97102672182932
 21
35.61554456101414
 31
0.0
 11
32.97108752700108
 21
35.60621309444594
 31
0.0
 11
32.9711497746611
 21
35.59617568504433
 31
0.0
 11
32.97119240178699
 21
35.58575968433371
 31
0.0
 11
32.9711938398701
 21
35.5753500155264
 31
0.0
 11
32.97113106573329
 21
35.56472216328129
 31
0.0
 11
32.97097145234186
 21
35.55363957479398
 31
0.0
 11
32.97068461402316
 21
35.54248229632319
 31
0.0
  0
SPLINE
  5
20E
330
2
100
AcDbEntity
  8
GAIKEI
  6
Continuous
 62
     1
100
AcDbSpline
210
0.0
220
0.0
230
1.0
 70
     8
 71
     3
 72
    25
 73
    21
 74
    19
 42
0.0000000001
 43
0.0000000001
 44
0.000001
 12
0.0314179304821943
 22
-0.9995063349695268
 32
0.0
 13
-0.4484309915581177
 23
-0.8938174566488415
 33
0.0
 40
0.0
 40
0.0
 40
0.0
 40
0.0
 40
0.0108528937155681
 40
0.0216345802458751
 40
0.0325730328025438
 40
0.0432826587538497
 40
0.0534187669384977
 40
0.0631986144135242
 40
0.0728120903983782
 40
0.081912912526191
 40
0.090308054682827
 40
0.0980874235376478
 40
0.1053896668057153
 40
0.1119313762171241
 40
0.1175302899787301
 40
0.1223210899458506
 40
0.1263686656819303
 40
0.1294941181040798
 40
0.1322428072380089
 40
0.1332320233542436
 40
0.1332320233542436
 40
0.1332320233542436
 40
0.1332320233542436
 10
32.97068461402316
 20
7.853772920231506
 30
0.0
 10
32.97079827250993
 20
7.850157074891029
 30
0.0
 10
32.97098768436371
 20
7.842947838146983
 30
0.0
 10
32.97114147758291
 20
7.832091059559161
 30
0.0
 10
32.97120529028868
 20
7.82128123876123
 30
0.0
 10
32.97120057751872
 20
7.810686463060278
 30
0.0
 10
32.97115643305222
 20
7.80047801905016
 30
0.0
 10
32.97109288792353
 20
7.790635078243639
 30
0.0
 10
32.97102885966139
 20
7.781137245631782
 30
0.0
 10
32.97097673759064
 20
7.772100913870588
 30
0.0
 10
32.97094911072444
 20
7.76367582714846
 30
0.0
 10
32.9709474454248
 20
7.75585026046258
 30
0.0
 10
32.97097592483519
 20
7.748642402566758
 30
0.0
 10
32.97102479746066
 20
7.742162000049574
 30
0.0
 10
32.97109433891329
 20
7.736517437151121
 30
0.0
 10
32.9711433531082
 20
7.731708727008594
 30
0.0
 10
32.97122918245648
 20
7.727711624444623
 30
0.0
 10
32.9711277517409
 20
7.724429810388727
 30
0.0
 10
32.97132917772341
 20
7.722079178927998
 30
0.0
 10
32.97083247907774
 20
7.720917041809883
 30
0.0
 10
32.97068461402311
 20
7.720622315598859
 30
0.0
 11
32.97068461402316
 21
7.853772920231506
 31
0.0
 11
32.97096537240707
 21
7.842923904257247
 31
0.0
 11
32.97112502365205
 21
7.832143398304481
 31
0.0
 11
32.97119306964942
 21
7.821205157601383
 31
0.0
 11
32.97119240178704
 21
7.810495532220983
 31
0.0
 11
32.9711512788044
 21
7.800359508103895
 31
0.0
 11
32.97109108537374
 21
7.79057984655418
 31
0.0
 11
32.97102833465162
 21
7.78096657613392
 31
0.0
 11
32.970978333239
 21
7.771865892209973
 31
0.0
 11
32.97095191663797
 21
7.763470792614981
 31
0.0
 11
32.97095200685526
 21
7.755691425014674
 31
0.0
 11
32.97098056138088
 21
7.748389239330947
 31
0.0
 11
32.97103181106593
 21
7.741847733170857
 31
0.0
 11
32.97109453641406
 21
7.736249174440786
 31
0.0
 11
32.97115471884581
 21
7.731458758220469
 31
0.0
 11
32.97119509484014
 21
7.727411393883443
 31
0.0
 11
32.97118874171801
 21
7.724285967321009
 31
0.0
 11
32.97105200050964
 21
7.721540840917441
 31
0.0
 11
32.97068461402311
 21
7.720622315598859
 31
0.0
  0
SPLINE
  5
20F
330
2
100
AcDbEntity
  8
GAIKEI
  6
Continuous
 62
     1
100
AcDbSpline
210
0.0
220
0.0
230
1.0
 70
     8
 71
     3
 72
    22
 73
    18
 74
    16
 42
0.0000000001
 43
0.0000000001
 44
0.000001
 12
0.0727947973690701
 22
0.9973469393726517
 32
0.0
 13
0.9278605337080868
 23
0.3729273789720249
 33
0.0
 40
0.0
 40
0.0
 40
0.0
 40
0.0
 40
0.0032778957406317
 40
0.0067865985170561
 40
0.0104766905754138
 40
0.0143123070058864
 40
0.0182708376738833
 40
0.0223425453290706
 40
0.0264994538076739
 40
0.0306826602689965
 40
0.0348827468017937
 40
0.039095603490505
 40
0.0436363555787343
 40
0.0487131754926931
 40
0.0563299308192311
 40
0.0649171988949527
 40
0.0744248434708729
 40
0.0744248434708729
 40
0.0744248434708729
 40
0.0744248434708729
 10
35.98580738983987
 20
12.18960348614328
 30
0.0
 10
35.98588692775861
 20
12.19069321923811
 30
0.0
 10
35.9861024796557
 20
12.19294597624886
 30
0.0
 10
35.9865896994825
 20
12.19640525752373
 30
0.0
 10
35.98727920407239
 20
12.20001981895481
 30
0.0
 10
35.98819557289637
 20
12.2037386247035
 30
0.0
 10
35.98936469542696
 20
12.20751975151523
 30
0.0
 10
35.99081173467908
 20
12.21131891592529
 30
0.0
 10
35.99254035825654
 20
12.21508087700226
 30
0.0
 10
35.99451688102234
 20
12.21876720266215
 30
0.0
 10
35.99673422114702
 20
12.2223358690845
 30
0.0
 10
35.99923567822378
 20
12.22585906080766
 30
0.0
 10
36.00217432629489
 20
12.22941738413857
 30
0.0
 10
36.00618616985419
 20
12.23353811717143
 30
0.0
 10
36.01164192687389
 20
12.23810027528074
 30
0.0
 10
36.01886166618047
 20
12.2427562525296
 30
0.0
 10
36.02431444180063
 20
12.24538225410677
 30
0.0
 10
36.02725503119081
 20
12.24656414109739
 30
0.0
 11
35.98580738983987
 21
12.18960348614328
 31
0.0
 11
35.98611755736133
 21
12.19286694280572
 31
0.0
 11
35.98660766344855
 21
12.19634125401654
 31
0.0
 11
35.98730049982314
 21
12.19996573682226
 31
0.0
 11
35.98822021217293
 21
12.20368948039518
 31
0.0
 11
35.98939207139819
 21
12.20747061091458
 31
0.0
 11
35.9908421088164
 21
12.21127540741469
 31
0.0
 11
35.99257382899831
 21
12.2150544726623
 31
0.0
 11
35.99455181354665
 21
12.21874053887271
 31
0.0
 11
35.99676694100116
 21
12.22230904315307
 31
0.0
 11
35.99921081544247
 21
12.22574064995632
 31
0.0
 11
36.00210316059827
 21
12.22924109200016
 31
0.0
 11
36.00564204019169
 21
12.23288125693384
 31
0.0
 11
36.01147983136304
 21
12.23777368660026
 31
0.0
 11
36.01868622863936
 21
12.24244372000362
 31
0.0
 11
36.02725503119081
 21
12.24656414109739
 31
0.0
  0
SPLINE
  5
210
330
2
100
AcDbEntity
  8
GAIKEI
  6
Continuous
 62
     1
100
AcDbSpline
210
0.0
220
0.0
230
1.0
 70
     8
 71
     3
 72
     9
 73
     5
 74
     3
 42
0.0000000001
 43
0.0000000001
 44
0.000001
 12
-0.7062048502932382
 22
0.7080075631109495
 32
0.0
 13
-0.6650217995240688
 23
0.7468239458920484
 33
0.0
 40
0.0
 40
0.0
 40
0.0
 40
0.0
 40
0.000062149670903
 40
0.0001264349399202
 40
0.0001264349399202
 40
0.0001264349399202
 40
0.0001264349399202
 10
35.72147584730905
 20
13.33089139842036
 30
0.0
 10
35.72146121717604
 20
13.33090606589937
 30
0.0
 10
35.72143186805013
 20
13.33093632044986
 30
0.0
 10
35.72140338616809
 20
13.33096739358035
 30
0.0
 10
35.72138913579967
 20
13.33098339683977
 30
0.0
 11
35.72147584730905
 21
13.33089139842036
 31
0.0
 11
35.72143257317265
 21
13.33093600699084
 31
0.0
 11
35.72138913579967
 21
13.33098339683977
 31
0.0
  0
SPLINE
  5
211
330
2
100
AcDbEntity
  8
GAIKEI
  6
Continuous
 62
     1
100
AcDbSpline
210
0.0
220
0.0
230
1.0
 70
     8
 71
     3
 72
    60
 73
    56
 74
    54
 42
0.0000000001
 43
0.0000000001
 44
0.000001
 12
0.6945902575381519
 22
0.7194055699903107
 32
0.0
 13
-0.6922249561118332
 23
0.7216817928533121
 33
0.0
 40
0.0
 40
0.0
 40
0.0
 40
0.0
 40
0.0013757793058956
 40
0.0047814025421925
 40
0.0086609226692214
 40
0.0133607337689764
 40
0.0190741807249487
 40
0.025244895231896
 40
0.0315863351454771
 40
0.0381760958303638
 40
0.0450817663577334
 40
0.0523385736603492
 40
0.0599613847374267
 40
0.0679526792864899
 40
0.0763069078890097
 40
0.0850129613347328
 40
0.0940556583241786
 40
0.1034166981837252
 40
0.1130753069102335
 40
0.1230086993686716
 40
0.1331924270145572
 40
0.143600652050672
 40
0.1542063730702051
 40
0.1649816180343491
 40
0.1758976149049009
 40
0.186924946824047
 40
0.1980336965696397
 40
0.2091935836077216
 40
0.2203740961617529
 40
0.2315446201344308
 40
0.2426742742051826
 40
0.2537325504391286
 40
0.2646892845811931
 40
0.2755147163794649
 40
0.2861796229853776
 40
0.2966554580783979
 40
0.3069144994546177
 40
0.316930008893646
 40
0.3266764097386339
 40
0.3361294901173621
 40
0.3452666436340815
 40
0.354067165605683
 40
0.3625126331872331
 40
0.3705874151742339
 40
0.3782793879773367
 40
0.3855809906130634
 40
0.3924908598051852
 40
0.3990165049364584
 40
0.4051789468344171
 40
0.4110212641535977
 40
0.4166251163999974
 40
0.4221412119208305
 40
0.4269898476362752
 40
0.4308914120159713
 40
0.4338612011100924
 40
0.4338612011100924
 40
0.4338612011100924
 40
0.4338612011100924
 10
35.73473650330982
 20
12.89222988168376
 30
0.0
 10
35.73505503761062
 20
12.89255979611567
 30
0.0
 10
35.73613928707228
 20
12.89372870090108
 30
0.0
 10
35.73792421227283
 20
12.89600548267322
 30
0.0
 10
35.74006845549066
 20
12.89938290850395
 30
0.0
 10
35.74224234136963
 20
12.90362927560562
 30
0.0
 10
35.74435764139223
 20
12.90874196899551
 30
0.0
 10
35.74631867257711
 20
12.91449515843118
 30
0.0
 10
35.74808523915527
 20
12.92061431917949
 30
0.0
 10
35.74968779306344
 20
12.92703064095536
 30
0.0
 10
35.75116833347158
 20
12.93378856787612
 30
0.0
 10
35.75255078739349
 20
12.94091812887379
 30
0.0
 10
35.75384773846442
 20
12.94843110664186
 30
0.0
 10
35.7550656788264
 20
12.95632755121596
 30
0.0
 10
35.75620773104259
 20
12.96459992653416
 30
0.0
 10
35.75727507464745
 20
12.97323547292529
 30
0.0
 10
35.7582677421351
 20
12.98221761269244
 30
0.0
 10
35.75918508798288
 20
12.99152684063784
 30
0.0
 10
35.76002607878388
 20
13.00114132368483
 30
0.0
 10
35.76078948006298
 20
13.01103732863703
 30
0.0
 10
35.76147398079891
 20
13.02118954418762
 30
0.0
 10
35.76207827886674
 20
13.0315713356774
 30
0.0
 10
35.76260114110599
 20
13.04215495589403
 30
0.0
 10
35.7630414463533
 20
13.05291172651283
 30
0.0
 10
35.76339821666909
 20
13.06381219959564
 30
0.0
 10
35.76367064010806
 20
13.07482630539232
 30
0.0
 10
35.76385808720778
 20
13.08592349067945
 30
0.0
 10
35.7639601226274
 20
13.097072850594
 30
0.0
 10
35.76397651286345
 20
13.10824325608416
 30
0.0
 10
35.76390723123008
 20
13.11940338118353
 30
0.0
 10
35.76375246231251
 20
13.13052190002918
 30
0.0
 10
35.76351260108224
 20
13.1415676310169
 30
0.0
 10
35.76318824473847
 20
13.15250975564635
 30
0.0
 10
35.76278018483802
 20
13.16331786769967
 30
0.0
 10
35.76228939655599
 20
13.17396207779603
 30
0.0
 10
35.76171702312775
 20
13.1844131456954
 30
0.0
 10
35.76106435456511
 20
13.19464261952814
 30
0.0
 10
35.76033279877854
 20
13.20462298516815
 30
0.0
 10
35.75952384226147
 20
13.21432783036522
 30
0.0
 10
35.75863899595673
 20
13.22373203039075
 30
0.0
 10
35.75767971943071
 20
13.232811965307
 30
0.0
 10
35.75664731233934
 20
13.24154578435161
 30
0.0
 10
35.75554275497197
 20
13.24991374173197
 30
0.0
 10
35.75436646704762
 20
13.25789864335576
 30
0.0
 10
35.7531179296644
 20
13.26548646985407
 30
0.0
 10
35.75179507106637
 20
13.2726672922964
 30
0.0
 10
35.75039321547595
 20
13.27943668187893
 30
0.0
 10
35.74890321070836
 20
13.2857980291516
 30
0.0
 10
35.74730779087153
 20
13.29176646694867
 30
0.0
 10
35.74557432380998
 20
13.29737612199011
 30
0.0
 10
35.74363839149939
 20
13.30269148665655
 30
0.0
 10
35.74148424548821
 20
13.30756533308562
 30
0.0
 10
35.73917186166011
 20
13.3117295142091
 30
0.0
 10
35.73692595158943
 20
13.31493618025416
 30
0.0
 10
35.73540897739808
 20
13.3166574346954
 30
0.0
 10
35.7347237233563
 20
13.31737184893467
 30
0.0
 11
35.73473650330982
 21
12.89222988168376
 31
0.0
 11
35.73567007056562
 21
12.8932404309358
 31
0.0
 11
35.73778251416179
 21
12.89591168047889
 31
0.0
 11
35.73987386452008
 21
12.89917918650141
 31
0.0
 11
35.74203528781962
 21
12.90335244352033
 31
0.0
 11
35.74424366839216
 21
12.90862179437545
 31
0.0
 11
35.74625343965718
 21
12.91445601170466
 31
0.0
 11
35.74802503057103
 21
12.92054493066041
 31
0.0
 11
35.74963099750983
 21
12.92693597525857
 31
0.0
 11
35.75111582884833
 21
12.93368009903449
 31
0.0
 11
35.75250275808389
 21
12.94080311262957
 31
0.0
 11
35.7538039910925
 21
12.94831401650731
 31
0.0
 11
35.75502588623467
 21
12.95621131887478
 31
0.0
 11
35.75617153224073
 21
12.96448659770382
 31
0.0
 11
35.75724211393499
 21
12.97312655217334
 31
0.0
 11
35.75823768272345
 21
12.98211425403701
 31
0.0
 11
35.75915761541032
 21
12.99142995823428
 31
0.0
 11
35.76000090017828
 21
13.00105165906797
 31
0.0
 11
35.76076632188308
 21
13.01095549312529
 31
0.0
 11
35.7614525861517
 21
13.02111604647754
 31
0.0
 11
35.76205840486551
 21
13.03150660026347
 31
0.0
 11
35.76258255643944
 21
13.04209933561972
 31
0.0
 11
35.76302392911284
 21
13.05286551125397
 31
0.0
 11
35.76338155242374
 21
13.06377562232922
 31
0.0
 11
35.76365462019237
 21
13.07479954644606
 31
0.0
 11
35.76384250718295
 21
13.0859066806847
 31
0.0
 11
35.76394478087113
 21
13.09706607247722
 31
0.0
 11
35.76396120924669
 21
13.1082465463142
 31
0.0
 11
35.76389176523348
 21
13.11941682779178
 31
0.0
 11
35.76373663325933
 21
13.13054537408436
 31
0.0
 11
35.7634962059622
 21
13.14160100991188
 31
0.0
 11
35.76317107646273
 21
13.15255289280969
 31
0.0
 11
35.76276203104427
 21
13.16337056782507
 31
0.0
 11
35.76227003791573
 21
13.174024094348
 31
0.0
 11
35.76169623142235
 21
13.18448417728763
 31
0.0
 11
35.76104189047108
 21
13.1947223047527
 31
0.0
 11
35.76030840930105
 21
13.20471089524608
 31
0.0
 11
35.75949725776079
 21
13.21442345865654
 31
0.0
 11
35.75860992673644
 21
13.22383477727385
 31
0.0
 11
35.75764785192717
 21
13.23292111606474
 31
0.0
 11
35.75661230510431
 21
13.24166047621037
 31
0.0
 11
35.75550423504719
 21
13.25003291362418
 31
0.0
 11
35.75432402805487
 21
13.25802095704671
 31
0.0
 11
35.75307113531792
 21
13.26561018248188
 31
0.0
 11
35.75174347094736
 21
13.2727900402827
 31
0.0
 11
35.75033639649586
 21
13.27955510436106
 31
0.0
 11
35.74884091926617
 21
13.28590705318368
 31
0.0
 11
35.74724030039448
 21
13.29185796628701
 31
0.0
 11
35.74550321337741
 21
13.29743603418603
 31
0.0
 11
35.74356889264536
 21
13.30269542263241
 31
0.0
 11
35.7413135801306
 21
13.30772934743766
 31
0.0
 11
35.73893819729759
 21
13.31195620930202
 31
0.0
 11
35.73668209728311
 21
13.31513926355208
 31
0.0
 11
35.7347237233563
 21
13.31737184893467
 31
0.0
  0
SPLINE
  5
212
330
2
100
AcDbEntity
  8
GAIKEI
  6
Continuous
 62
     1
100
AcDbSpline
210
0.0
220
0.0
230
1.0
 70
     8
 71
     3
 72
     9
 73
     5
 74
     3
 42
0.0000000001
 43
0.0000000001
 44
0.000001
 12
0.9966057535504898
 22
0.0823223662807421
 32
0.0
 13
0.6568525705650793
 23
0.7540190319494911
 33
0.0
 40
0.0
 40
0.0
 40
0.0
 40
0.0
 40
0.0024308106195603
 40
0.0052522874033765
 40
0.0052522874033765
 40
0.0052522874033765
 40
0.0052522874033765
 10
35.71687542195534
 20
12.87635197414141
 30
0.0
 10
35.71768294190508
 20
12.87641867750213
 30
0.0
 10
35.71942635283709
 20
12.8768480760946
 30
0.0
 10
35.72084655772329
 20
12.87797630279255
 30
0.0
 10
35.7214643224827
 20
12.87868545185694
 30
0.0
 11
35.71687542195534
 21
12.87635197414141
 31
0.0
 11
35.71922785135999
 21
12.87696490590287
 31
0.0
 11
35.7214643224827
 21
12.87868545185694
 31
0.0
  0
SPLINE
  5
213
330
2
100
AcDbEntity
  8
GAIKEI
  6
Continuous
 62
     1
100
AcDbSpline
210
0.0
220
0.0
230
1.0
 70
     8
 71
     3
 72
    16
 73
    12
 74
    10
 42
0.0000000001
 43
0.0000000001
 44
0.000001
 12
-0.9890938141075171
 22
0.1472868863621075
 32
0.0
 13
-0.7868271200235437
 23
0.6171734628088413
 33
0.0
 40
0.0
 40
0.0
 40
0.0
 40
0.0
 40
0.0030710371918885
 40
0.0079077202275207
 40
0.0121258837374016
 40
0.0170925369217132
 40
0.0227794922732614
 40
0.0324165324592315
 40
0.0433535110545362
 40
0.0553068352437679
 40
0.0681596882237718
 40
0.0681596882237718
 40
0.0681596882237718
 40
0.0681596882237718
 10
35.706269210248
 20
30.09459620839337
 30
0.0
 10
35.70525669561821
 20
30.09474698289535
 30
0.0
 10
35.70265998510507
 20
30.09530701173225
 30
0.0
 10
35.69904264245976
 20
30.09717882580034
 30
0.0
 10
35.69495829019191
 20
30.09943586898624
 30
0.0
 10
35.69073579817786
 20
30.10204070629885
 30
0.0
 10
35.68507198854135
 20
30.10573640343259
 30
0.0
 10
35.67787533781638
 20
30.1107230097453
 30
0.0
 10
35.66910079471465
 20
30.11709280395155
 30
0.0
 10
35.65958155389649
 20
30.12425857314335
 30
0.0
 10
35.65303807155867
 20
30.1293141580409
 30
0.0
 10
35.64966708046056
 20
30.13195830463445
 30
0.0
 11
35.706269210248
 21
30.09459620839337
 31
0.0
 11
35.70327568659798
 21
30.09528260728806
 31
0.0
 11
35.69887648191882
 21
30.09729234611433
 31
0.0
 11
35.69519082542829
 21
30.09934383117201
 31
0.0
 11
35.69095166432
 21
30.10193168260256
 31
0.0
 11
35.68618560401534
 21
30.10503425973514
 31
0.0
 11
35.67825120103178
 21
30.11050395227087
 31
0.0
 11
35.66939320865694
 21
30.11691903272222
 31
0.0
 11
35.65983604661561
 21
30.12409833527079
 31
0.0
 11
35.64966708046056
 21
30.13195830463445
 31
0.0
  0
SPLINE
  5
214
330
2
100
AcDbEntity
  8
GAIKEI
  6
Continuous
 62
     1
100
AcDbSpline
210
0.0
220
0.0
230
1.0
 70
     8
 71
     3
 72
    13
 73
     9
 74
     7
 42
0.0000000001
 43
0.0000000001
 44
0.000001
 12
-0.7870888971178047
 22
0.6168395804695724
 32
0.0
 13
-0.5665418404738877
 23
0.8240329744570054
 33
0.0
 40
0.0
 40
0.0
 40
0.0
 40
0.0
 40
0.0160011888892427
 40
0.0330147138857679
 40
0.0506047057172428
 40
0.0685176828286254
 40
0.0867522319514882
 40
0.1052046750000837
 40
0.1052046750000837
 40
0.1052046750000837
 40
0.1052046750000837
 10
35.64966708046056
 20
30.13195830463445
 30
0.0
 10
35.64546896108875
 20
30.13524836018161
 30
0.0
 10
35.63694769797053
 20
30.14221848344673
 30
0.0
 10
35.62437289540198
 20
30.15346970539687
 30
0.0
 10
35.61184942268037
 20
30.16570989860333
 30
0.0
 10
35.59963782893212
 20
30.17882329295173
 30
0.0
 10
35.58789861481685
 20
30.19274443788621
 30
0.0
 10
35.58065711976045
 20
30.20261239928681
 30
0.0
 10
35.57717242607845
 20
30.20768087313058
 30
0.0
 11
35.64966708046056
 21
30.13195830463445
 31
0.0
 11
35.63728437072622
 21
30.14209229152994
 31
0.0
 11
35.62460081935674
 21
30.15343191441991
 31
0.0
 11
35.61202509769396
 21
30.16573060198948
 31
0.0
 11
35.59982045245914
 21
30.1788423925745
 31
0.0
 11
35.58810613824689
 21
30.19281585593183
 31
0.0
 11
35.57717242607845
 21
30.20768087313058
 31
0.0
  0
SPLINE
  5
215
330
2
100
AcDbEntity
  8
GAIKEI
  6
Continuous
 62
     1
100
AcDbSpline
210
0.0
220
0.0
230
1.0
 70
     8
 71
     3
 72
    23
 73
    19
 74
    17
 42
0.0000000001
 43
0.0000000001
 44
0.000001
 12
0.687908866031616
 22
-0.7257970735922653
 32
0.0
 13
0.9848252472457863
 23
-0.1735489336967418
 33
0.0
 40
0.0
 40
0.0
 40
0.0
 40
0.0
 40
0.0148520376379528
 40
0.0294909423453855
 40
0.0439090213807339
 40
0.0580959165285537
 40
0.0720371825134793
 40
0.085713100115301
 40
0.0989753875460497
 40
0.1116331888376868
 40
0.1236398016694415
 40
0.1349307160824893
 40
0.1453315651188585
 40
0.1545329327323663
 40
0.1624254765217161
 40
0.1687817590023235
 40
0.1733895755430742
 40
0.176290891724005
 40
0.176290891724005
 40
0.176290891724005
 40
0.176290891724005
 10
35.55283791353436
 20
13.46408214417576
 30
0.0
 10
35.55624352965762
 20
13.46048895569092
 30
0.0
 10
35.56302353987253
 20
13.4533708440392
 30
0.0
 10
35.57317295259251
 20
13.44282504972381
 30
0.0
 10
35.58322477059912
 20
13.43249332097739
 30
0.0
 10
35.59317409573726
 20
13.42238664750215
 30
0.0
 10
35.603013911733
 20
13.41251969685979
 30
0.0
 10
35.61270589115804
 20
13.402941053809
 30
0.0
 10
35.6221702251444
 20
13.39374126667337
 30
0.0
 10
35.63132004428032
 20
13.3850170545119
 30
0.0
 10
35.64008820330979
 20
13.37684562760756
 30
0.0
 10
35.64841314280501
 20
13.3693041599511
 30
0.0
 10
35.65616722069743
 20
13.36252523250806
 30
0.0
 10
35.66321438510792
 20
13.35666882715901
 30
0.0
 10
35.66938148799454
 20
13.3518487011539
 30
0.0
 10
35.67456024557757
 20
13.34831297811314
 30
0.0
 10
35.67853088433093
 20
13.34586118671461
 30
0.0
 10
35.68098226789373
 20
13.34523990005815
 30
0.0
 10
35.68193469770213
 20
13.34507205994831
 30
0.0
 11
35.55283791353436
 21
13.46408214417576
 31
0.0
 11
35.56308225374225
 21
13.45332923436135
 31
0.0
 11
35.57323397227277
 21
13.44278219290879
 31
0.0
 11
35.58328909875565
 21
13.43244897557088
 31
0.0
 11
35.59324289388516
 21
13.42234007366522
 31
0.0
 11
35.60308877922677
 21
13.41247004975633
 31
0.0
 11
35.6128177882388
 21
13.40285875291977
 31
0.0
 11
35.62233021481069
 21
13.39361743726562
 31
0.0
 11
35.63149449781505
 21
13.38488612923896
 31
0.0
 11
35.64028279130592
 21
13.37670538873277
 31
0.0
 11
35.64865663613392
 21
13.36913153210102
 31
0.0
 11
35.65649796524294
 21
13.36229845030146
 31
0.0
 11
35.66358327045569
 21
13.35642790107772
 31
0.0
 11
35.66983676448103
 21
13.35161274761788
 31
0.0
 11
35.67508395571882
 21
13.34802543673805
 31
0.0
 11
35.67913307347573
 21
13.34582645588278
 31
0.0
 11
35.68193469770213
 21
13.34507205994831
 31
0.0
  0
SPLINE
  5
216
330
2
100
AcDbEntity
  8
GAIKEI
  6
Continuous
 62
     1
100
AcDbSpline
210
0.0
220
0.0
230
1.0
 70
     8
 71
     3
 72
    23
 73
    19
 74
    17
 42
0.0000000001
 43
0.0000000001
 44
0.000001
 12
-0.9849129756087034
 22
-0.1730503697702195
 32
0.0
 13
-0.6878333403784377
 23
-0.7258686491809936
 33
0.0
 40
0.0
 40
0.0
 40
0.0
 40
0.0
 40
0.0028916651162966
 40
0.0074806325866024
 40
0.0114979195416363
 40
0.0162377465426083
 40
0.0216697825994883
 40
0.0957228023400943
 40
0.1060809745856726
 40
0.1173295952071723
 40
0.1292915579537441
 40
0.1419024379575816
 40
0.1551160116079356
 40
0.1687941375884396
 40
0.1828198792158222
 40
0.2018603008168368
 40
0.22131989062299
 40
0.2411825403467707
 40
0.2411825403467707
 40
0.2411825403467707
 40
0.2411825403467707
 10
35.73514256515438
 20
29.68837397942434
 30
0.0
 10
35.73419321898966
 20
29.68820717818514
 30
0.0
 10
35.73175061155486
 20
29.68759053133792
 30
0.0
 10
35.72845819034043
 20
29.68555245715703
 30
0.0
 10
35.72475294870602
 20
29.68310807501297
 30
0.0
 10
35.72093772726449
 20
29.68030354278312
 30
0.0
 10
35.69900064242153
 20
29.66278585824137
 30
0.0
 10
35.67245486682404
 20
29.64818707684782
 30
0.0
 10
35.64854921653603
 20
29.62705312105661
 30
0.0
 10
35.64024335960615
 20
29.61955768155636
 30
0.0
 10
35.63150903111802
 20
29.61141449730252
 30
0.0
 10
35.62239008980955
 20
29.60272595093957
 30
0.0
 10
35.61294631098534
 20
29.59354961072936
 30
0.0
 10
35.60324333376315
 20
29.58396411258366
 30
0.0
 10
35.59223908758952
 20
29.57293273089442
 30
0.0
 10
35.57996839986747
 20
29.56044321794099
 30
0.0
 10
35.56644103948936
 20
29.5464616849427
 30
0.0
 10
35.55739197777084
 20
29.53697896395755
 30
0.0
 10
35.55283791353474
 20
29.53217307238285
 30
0.0
 11
35.73514256515438
 21
29.68837397942434
 31
0.0
 11
35.73234991613487
 21
29.68762346976439
 31
0.0
 11
35.72831612954714
 21
29.68543573811942
 31
0.0
 11
35.724969990478
 21
29.68321274469119
 31
0.0
 11
35.72114280727197
 21
29.6804165999184
 31
0.0
 11
35.71686092908417
 21
29.67707409240501
 31
0.0
 11
35.65659556430843
 21
29.63403985457373
 31
0.0
 11
35.64878432948814
 21
29.62723718358825
 31
0.0
 11
35.64043978109474
 21
29.61969397968673
 31
0.0
 11
35.63168212485621
 21
29.61154585529184
 31
0.0
 11
35.6225497714351
 21
29.60284905575747
 31
0.0
 11
35.61307022713516
 21
29.59364380357084
 31
0.0
 11
35.60333771094283
 21
29.58403291617219
 31
0.0
 11
35.59343064754687
 21
29.574104602013
 31
0.0
 11
35.58008389763851
 21
29.56052514159751
 31
0.0
 11
35.56655073334889
 21
29.54654197680847
 31
0.0
 11
35.55283791353474
 21
29.53217307238285
 31
0.0
  0
SPLINE
  5
217
330
2
100
AcDbEntity
  8
GAIKEI
  6
Continuous
 62
     1
100
AcDbSpline
210
0.0
220
0.0
230
1.0
 70
     8
 71
     3
 72
    23
 73
    19
 74
    17
 42
0.0000000001
 43
0.0000000001
 44
0.000001
 12
-0.9849129756083158
 22
-0.1730503697724244
 32
0.0
 13
-0.6878333409424956
 23
-0.7258686486464923
 33
0.0
 40
0.0
 40
0.0
 40
0.0
 40
0.0
 40
0.0028916396695905
 40
0.0074806156075662
 40
0.0114979015111865
 40
0.0162377265272932
 40
0.0216697600832153
 40
0.0308324034687967
 40
0.0411905853882069
 40
0.0524392110557436
 40
0.0644011761032659
 40
0.0770120567997101
 40
0.0902256301957056
 40
0.1039037553704234
 40
0.1179294958761031
 40
0.1369699161344698
 40
0.1564295030422594
 40
0.1762920842942805
 40
0.1762920842942805
 40
0.1762920842942805
 40
0.1762920842942805
 10
35.68193469770437
 20
12.86451649010769
 30
0.0
 10
35.68098535989391
 20
12.86434969033632
 30
0.0
 10
35.67854269273313
 20
12.86373312565962
 30
0.0
 10
35.67525070431066
 20
12.86169450748542
 30
0.0
 10
35.67154385972287
 20
12.8592521834625
 30
0.0
 10
35.66773580090396
 20
12.85643844145414
 30
0.0
 10
35.66266093116403
 20
12.85246732437844
 30
0.0
 10
35.6562666803941
 20
12.84714460883759
 30
0.0
 10
35.6485404732077
 20
12.84039864624395
 30
0.0
 10
35.6402458543335
 20
12.83288736953969
 30
0.0
 10
35.63150820608472
 20
12.82474885598452
 30
0.0
 10
35.62239022752661
 20
12.81605895220622
 30
0.0
 10
35.61294617255064
 20
12.80688300124018
 30
0.0
 10
35.60324327446418
 20
12.79729739314172
 30
0.0
 10
35.59223900575697
 20
12.78626604502767
 30
0.0
 10
35.57996833158575
 20
12.77377651777021
 30
0.0
 10
35.56644097379149
 20
12.75979501696326
 30
0.0
 10
35.55739196207559
 20
12.75031228088423
 30
0.0
 10
35.55283791353482
 20
12.7455064058802
 30
0.0
 11
35.68193469770437
 21
12.86451649010769
 31
0.0
 11
35.67914204868488
 21
12.86376598044776
 31
0.0
 11
35.67510826209721
 21
12.86157824880274
 31
0.0
 11
35.67176212301518
 21
12.85935525536098
 31
0.0
 11
35.66793493982135
 21
12.85655911060462
 31
0.0
 11
35.66365306163419
 21
12.85321660308835
 31
0.0
 11
35.65659556430885
 21
12.84737318807112
 31
0.0
 11
35.64878432948851
 21
12.84057051708561
 31
0.0
 11
35.64043978109513
 21
12.83302731318409
 31
0.0
 11
35.63168212485653
 21
12.82487918878922
 31
0.0
 11
35.62254977143541
 21
12.81618238925486
 31
0.0
 11
35.61307022713545
 21
12.80697713706823
 31
0.0
 11
35.60333771094305
 21
12.79736624966961
 31
0.0
 11
35.59343064754705
 21
12.78743793551035
 31
0.0
 11
35.58008389732423
 21
12.77385847477359
 31
0.0
 11
35.56655073344148
 21
12.75987531039138
 31
0.0
 11
35.55283791353482
 21
12.7455064058802
 31
0.0
  0
SPLINE
  5
218
330
2
100
AcDbEntity
  8
GAIKEI
  6
Continuous
 62
     1
100
AcDbSpline
210
0.0
220
0.0
230
1.0
 70
     8
 71
     3
 72
    15
 73
    11
 74
     9
 42
0.0000000001
 43
0.0000000001
 44
0.000001
 12
0.0885942834982514
 22
-0.9960677953490073
 32
0.0
 13
-0.2180063119608515
 23
-0.9759473592080814
 33
0.0
 40
0.0
 40
0.0
 40
0.0
 40
0.0
 40
0.0048255640089097
 40
0.0229670284850935
 40
0.0424035984881017
 40
0.0617957075137616
 40
0.0820706656987116
 40
0.1023073658399072
 40
0.1235614426831063
 40
0.1447560748525704
 40
0.1447560748525704
 40
0.1447560748525704
 40
0.1447560748525704
 10
35.57894396393113
 20
30.63382158254285
 30
0.0
 10
35.57908646972641
 20
30.63221938624162
 30
0.0
 10
35.57971835872688
 20
30.62458969338039
 30
0.0
 10
35.58044882198266
 20
30.61046820413341
 30
0.0
 10
35.58055389078791
 20
30.59147198769591
 30
0.0
 10
35.57979097660612
 20
30.57177953105295
 30
0.0
 10
35.57817248160737
 20
30.55187140948243
 30
0.0
 10
35.57566977806791
 20
30.5314300318652
 30
0.0
 10
35.57230543173532
 20
30.51080220583572
 30
0.0
 10
35.56948949228493
 20
30.49693146895393
 30
0.0
 10
35.56794930442072
 20
30.49003652052221
 30
0.0
 11
35.57894396393113
 21
30.63382158254285
 31
0.0
 11
35.57934121671087
 21
30.62901164591963
 31
0.0
 11
35.58029099543811
 21
30.61089526218871
 31
0.0
 11
35.58040959759538
 21
30.59145912017129
 31
0.0
 11
35.57966773633051
 21
30.5720812464773
 31
0.0
 11
35.5780335608295
 21
30.55187229469274
 31
0.0
 11
35.57558028027358
 21
30.53178490140473
 31
0.0
 11
35.57216647887577
 21
30.51080688692679
 31
0.0
 11
35.56794930442072
 21
30.49003652052221
 31
0.0
  0
SPLINE
  5
219
330
2
100
AcDbEntity
  8
GAIKEI
  6
Continuous
 62
     1
100
AcDbSpline
210
0.0
220
0.0
230
1.0
 70
     8
 71
     3
 72
    10
 73
     6
 74
     4
 42
0.0000000001
 43
0.0000000001
 44
0.000001
 12
-0.5156837050458629
 22
0.8567790358955871
 32
0.0
 13
-0.4721294852636369
 23
0.8815292106020612
 33
0.0
 40
0.0
 40
0.0
 40
0.0
 40
0.0
 40
0.0243979505867503
 40
0.0488317355834661
 40
0.0494719745814715
 40
0.0494719745814715
 40
0.0494719745814715
 40
0.0494719745814715
 10
35.57717242607845
 20
13.421014206628
 30
0.0
 10
35.57297855089375
 20
13.42798209082184
 30
0.0
 10
35.56475849316672
 20
13.44203473717778
 30
0.0
 10
35.55688674541342
 20
13.45652727434543
 30
0.0
 10
35.55293867210435
 20
13.46389401438293
 30
0.0
 10
35.55283791353482
 20
13.46408214417576
 30
0.0
 11
35.57717242607845
 21
13.421014206628
 31
0.0
 11
35.56487602275394
 21
13.44208694685164
 31
0.0
 11
35.55314031912943
 21
13.46351782625709
 31
0.0
 11
35.55283791353482
 21
13.46408214417576
 31
0.0
  0
SPLINE
  5
21A
330
2
100
AcDbEntity
  8
GAIKEI
  6
Continuous
 62
     1
100
AcDbSpline
210
0.0
220
0.0
230
1.0
 70
     8
 71
     3
 72
    10
 73
     6
 74
     4
 42
0.0000000001
 43
0.0000000001
 44
0.000001
 12
-0.5156837050499992
 22
0.8567790358930974
 32
0.0
 13
-0.4721294856324284
 23
0.8815292104045438
 33
0.0
 40
0.0
 40
0.0
 40
0.0
 40
0.0
 40
0.024397950586243
 40
0.0488317355824887
 40
0.0494719745814993
 40
0.0494719745814993
 40
0.0494719745814993
 40
0.0494719745814993
 10
35.57717242607845
 20
30.20768087313058
 30
0.0
 10
35.57297855089381
 20
30.21464875732426
 30
0.0
 10
35.56475849316546
 20
30.22870140367894
 30
0.0
 10
35.55688674541672
 20
30.24319394084947
 30
0.0
 10
35.55293867210462
 20
30.25056068088531
 30
0.0
 10
35.55283791353486
 20
30.2507488106784
 30
0.0
 11
35.57717242607845
 21
30.20768087313058
 31
0.0
 11
35.56487602275416
 21
30.22875361335378
 31
0.0
 11
35.55314031913014
 21
30.25018449275899
 31
0.0
 11
35.55283791353486
 21
30.2507488106784
 31
0.0
  0
SPLINE
  5
21B
330
2
100
AcDbEntity
  8
GAIKEI
  6
Continuous
 62
     1
100
AcDbSpline
210
0.0
220
0.0
230
1.0
 70
     8
 71
     3
 72
    29
 73
    25
 74
    23
 42
0.0000000001
 43
0.0000000001
 44
0.000001
 12
-0.9395991756015744
 22
-0.3422767728152782
 32
0.0
 13
-0.0004514849944173
 23
-0.9999998980806449
 33
0.0
 40
0.0
 40
0.0
 40
0.0
 40
0.0
 40
0.0383353211381007
 40
0.0767705540777012
 40
0.1152464066072157
 40
0.1537048850344795
 40
0.1902059392887883
 40
0.2268631008977338
 40
0.2636216339410176
 40
0.3004256630179763
 40
0.337220154762603
 40
0.3739528980243056
 40
0.4103596938756507
 40
0.4469244020454923
 40
0.483587995702906
 40
0.520290117970801
 40
0.5569711211927542
 40
0.5935741074164276
 40
0.6302246956660004
 40
0.6670177379821358
 40
0.7038905699655965
 40
0.7407786569758664
 40
0.7776177403705792
 40
0.8143455104040993
 40
0.8143455104040993
 40
0.8143455104040993
 40
0.8143455104040993
 10
35.34942248735223
 20
12.42452017615534
 30
0.0
 10
35.33741587530631
 20
12.42014641282068
 30
0.0
 10
35.3136168303232
 20
12.41069563703866
 30
0.0
 10
35.2787711818045
 20
12.39447590949211
 30
0.0
 10
35.24487389633794
 20
12.37626862794062
 30
0.0
 10
35.21262779867946
 20
12.3564810616435
 30
0.0
 10
35.18206716804167
 20
12.33522733170517
 30
0.0
 10
35.15317271675615
 20
12.3126692479851
 30
0.0
 10
35.12547418141465
 20
12.28850435351503
 30
0.0
 10
35.09909787765688
 20
12.26283688031296
 30
0.0
 10
35.07416951709786
 20
12.23577236378577
 30
0.0
 10
35.05086022383918
 20
12.20747175482842
 30
0.0
 10
35.02922694176696
 20
12.17796570726477
 30
0.0
 10
35.00926033701015
 20
12.14733567312058
 30
0.0
 10
34.99093841676522
 20
12.11558085198621
 30
0.0
 10
34.9743465880341
 20
12.08284521511442
 30
0.0
 10
34.95957040826362
 20
12.04927275817104
 30
0.0
 10
34.94667399488584
 20
12.01495171999724
 30
0.0
 10
34.93572505545265
 20
11.97992146558644
 30
0.0
 10
34.92670839490145
 20
11.94425287825234
 30
0.0
 10
34.91963856412306
 20
11.90806750228162
 30
0.0
 10
34.9145479601022
 20
11.87153538447887
 30
0.0
 10
34.91146333726756
 20
11.8348286045437
 30
0.0
 10
34.91077477691928
 20
11.8103010177343
 30
0.0
 10
34.9107692495736
 20
11.79805842897087
 30
0.0
 11
35.34942248735223
 21
12.42452017615534
 31
0.0
 11
35.31379337141319
 21
12.4103709884597
 31
0.0
 11
35.27894678621446
 21
12.39415425362972
 31
0.0
 11
35.24505171756607
 21
12.37594667998485
 31
0.0
 11
35.21227715127799
 21
12.35582497584485
 31
0.0
 11
35.182308072495
 21
12.33498793656838
 31
0.0
 11
35.15341039672096
 21
12.312434161455
 31
0.0
 11
35.12571063523111
 21
12.28826985375386
 31
0.0
 11
35.09933529930092
 21
12.26260121671385
 31
0.0
 11
35.07441090020556
 21
12.23553445358414
 31
0.0
 11
35.05106394922038
 21
12.2071757676137
 31
0.0
 11
35.02953113165702
 21
12.17781945083345
 31
0.0
 11
35.00955960751344
 21
12.14719075709229
 31
0.0
 11
34.99123528349822
 21
12.11543482814557
 31
0.0
 11
34.97464406632011
 21
12.0826968057487
 31
0.0
 11
34.95987186268778
 21
12.04912183165692
 31
0.0
 11
34.94700457930991
 21
12.01485504762564
 31
0.0
 11
34.93606318332254
 21
11.97987573893596
 31
0.0
 11
34.92704089377828
 21
11.94420605418776
 31
0.0
 11
34.9199690331543
 21
11.90801773709904
 31
0.0
 11
34.91487892392749
 21
11.87148253138792
 31
0.0
 11
34.91180188857493
 21
11.83477218077252
 31
0.0
 11
34.9107692495736
 21
11.79805842897087
 31
0.0
  0
SPLINE
  5
21C
330
2
100
AcDbEntity
  8
GAIKEI
  6
Continuous
 62
     7
100
AcDbSpline
210
0.0
220
0.0
230
1.0
 70
     8
 71
     3
 72
    16
 73
    12
 74
    10
 42
0.0000000001
 43
0.0000000001
 44
0.000001
 12
-0.9716703586731638
 22
0.2363402506471657
 32
0.0
 13
-0.860788780788326
 23
0.5089623511311491
 33
0.0
 40
0.0
 40
0.0
 40
0.0
 40
0.0
 40
0.0060221459593849
 40
0.0118461691116189
 40
0.0174915945843142
 40
0.0229780317597319
 40
0.0283243810831168
 40
0.0335530867432058
 40
0.0391974642272179
 40
0.0456034224716726
 40
0.0484049652199284
 40
0.0484049652199284
 40
0.0484049652199284
 40
0.0484049652199284
 10
34.43227759923599
 20
34.93611656189634
 30
0.0
 10
34.4303270856612
 20
34.93659098705817
 30
0.0
 10
34.42650040939194
 20
34.93756596628214
 30
0.0
 10
34.42087228858876
 20
34.93909055598874
 30
0.0
 10
34.41546312939264
 20
34.94073339595832
 30
0.0
 10
34.41026965498596
 20
34.94252596448234
 30
0.0
 10
34.40528627291269
 20
34.94448861072877
 30
0.0
 10
34.40035942099871
 20
34.94671919571715
 30
0.0
 10
34.39520491319988
 20
34.94929153581188
 30
0.0
 10
34.39085417779438
 20
34.95165635569904
 30
0.0
 10
34.38819819833474
 20
34.9531946610048
 30
0.0
 10
34.38739435281254
 20
34.95366995426611
 30
0.0
 11
34.43227759923599
 21
34.93611656189634
 31
0.0
 11
34.42644010586048
 21
34.93759616282699
 31
0.0
 11
34.42082271725093
 21
34.93913391854306
 31
0.0
 11
34.41542314703584
 21
34.94078189086628
 31
0.0
 11
34.4102388391153
 21
34.94257751313308
 31
0.0
 11
34.40526704519633
 21
34.94454347153237
 31
0.0
 11
34.40049907027427
 21
34.94668961096485
 31
0.0
 11
34.39544596754036
 21
34.9492045938087
 31
0.0
 11
34.38981794887619
 21
34.9522642899764
 31
0.0
 11
34.38739435281254
 21
34.95366995426611
 31
0.0
  0
SPLINE
  5
21D
330
2
100
AcDbEntity
  8
GAIKEI
  6
Continuous
 62
     1
100
AcDbSpline
210
0.0
220
0.0
230
1.0
 70
     8
 71
     3
 72
    19
 73
    15
 74
    13
 42
0.0000000001
 43
0.0000000001
 44
0.000001
 12
-0.9992074579578048
 22
0.0398052253039953
 32
0.0
 13
-0.8321206011986634
 23
-0.5545947214505159
 33
0.0
 40
0.0
 40
0.0
 40
0.0
 40
0.0
 40
0.0006026095041109
 40
0.0255861337965688
 40
0.0506740615027912
 40
0.0758095722551395
 40
0.1009218036023049
 40
0.1259301920878425
 40
0.149973144983544
 40
0.1740681571833248
 40
0.1982101094548341
 40
0.2223640715319024
 40
0.2456678406795653
 40
0.2690275756899767
 40
0.2690275756899767
 40
0.2690275756899767
 40
0.2690275756899767
 10
34.94610997903854
 20
34.39378870416005
 30
0.0
 10
34.94590926840162
 20
34.39379669982907
 30
0.0
 10
34.93738696948753
 20
34.394126400066
 30
0.0
 10
34.92047389946189
 20
34.3940638484662
 30
0.0
 10
34.895467212058
 20
34.39198965977477
 30
0.0
 10
34.87064640532799
 20
34.38802534083345
 30
0.0
 10
34.84621050117262
 20
34.38225786595268
 30
0.0
 10
34.82260389669182
 20
34.37484433967126
 30
0.0
 10
34.79989741085603
 20
34.3659149259737
 30
0.0
 10
34.77802912994562
 20
34.35577320486016
 30
0.0
 10
34.75668276396627
 20
34.34450211045208
 30
0.0
 10
34.73607766865725
 20
34.33244540816287
 30
0.0
 10
34.71613591495823
 20
34.31980982579486
 30
0.0
 10
34.70310492575585
 20
34.31131563353452
 30
0.0
 10
34.69662555350895
 20
34.30699723829076
 30
0.0
 11
34.94610997903854
 21
34.39378870416005
 31
0.0
 11
34.94550773226404
 21
34.39381210103665
 31
0.0
 11
34.92052358914944
 21
34.39373612921509
 31
0.0
 11
34.89552027142501
 21
34.39167773628359
 31
0.0
 11
34.87069787983458
 21
34.38772276905007
 31
0.0
 11
34.84625651512185
 21
34.38195707432232
 31
0.0
 11
34.82239627803072
 21
34.37446649890814
 31
0.0
 11
34.80000735193711
 21
34.36570290773494
 31
0.0
 11
34.77813488197842
 21
34.35559519964164
 31
0.0
 11
34.75677109902179
 21
34.34435137517582
 31
0.0
 11
34.73590823393426
 21
34.33217943488524
 31
0.0
 11
34.71617798822746
 21
34.31977825650136
 31
0.0
 11
34.69662555350895
 21
34.30699723829076
 31
0.0
  0
SPLINE
  5
21E
330
2
100
AcDbEntity
  8
GAIKEI
  6
Continuous
 62
     1
100
AcDbSpline
210
0.0
220
0.0
230
1.0
 70
     8
 71
     3
 72
    19
 73
    15
 74
    13
 42
0.0000000001
 43
0.0000000001
 44
0.000001
 12
0.8321206011986319
 22
-0.5545947214505627
 32
0.0
 13
0.999207457956537
 23
0.0398052253358201
 33
0.0
 40
0.0
 40
0.0
 40
0.0
 40
0.0
 40
0.0233598276496067
 40
0.0466637535057034
 40
0.0708176800782161
 40
0.0949595793437184
 40
0.119054547813589
 40
0.1430974626933137
 40
0.1681058048946749
 40
0.1932179881163358
 40
0.2183534547783212
 40
0.2434413443737571
 40
0.2738531394329657
 40
0.274455678189921
 40
0.274455678189921
 40
0.274455678189921
 40
0.274455678189921
 10
34.69662555350895
 20
31.01971993256018
 30
0.0
 10
34.70310495145151
 20
31.01540152019069
 30
0.0
 10
34.71613471115093
 20
31.00690527401705
 30
0.0
 10
34.73607706127703
 20
30.99427056970296
 30
0.0
 10
34.75668180323336
 20
30.98221291024538
 30
0.0
 10
34.77802889064802
 20
30.97094437613112
 30
0.0
 10
34.79989433549956
 20
30.9607932340914
 30
0.0
 10
34.82261122121168
 20
30.95189923644535
 30
0.0
 10
34.84617723281774
 20
30.94434822650609
 30
0.0
 10
34.87076631097465
 20
30.9391002881068
 30
0.0
 10
34.8950148225691
 20
30.93319562797845
 30
0.0
 10
34.92410919102081
 20
30.93871206785639
 30
0.0
 10
34.93611526782264
 20
30.91599578950616
 30
0.0
 10
34.94648227995782
 20
30.91651224267926
 30
0.0
 10
34.94668296703104
 20
30.9165202374096
 30
0.0
 11
34.69662555350895
 21
31.01971993256018
 31
0.0
 11
34.71617798822746
 21
31.00693891434952
 31
0.0
 11
34.73590823393421
 21
30.99453773596565
 31
0.0
 11
34.75677109902179
 21
30.98236579567509
 31
0.0
 11
34.77813488197842
 21
30.9711219712093
 31
0.0
 11
34.80000735193711
 21
30.96101426311597
 31
0.0
 11
34.82239627803072
 21
30.95225067194281
 31
0.0
 11
34.84625651512189
 21
30.94476009652863
 31
0.0
 11
34.87069787983467
 21
30.93899440180081
 31
0.0
 11
34.89552027142517
 21
30.93503943456727
 31
0.0
 11
34.92052358914958
 21
30.9329810416358
 31
0.0
 11
34.94608072025653
 21
30.91649684053294
 31
0.0
 11
34.94668296703104
 21
30.9165202374096
 31
0.0
  0
SPLINE
  5
21F
330
2
100
AcDbEntity
  8
GAIKEI
  6
Continuous
 62
     7
100
AcDbSpline
210
0.0
220
0.0
230
1.0
 70
     8
 71
     3
 72
    11
 73
     7
 74
     5
 42
0.0000000001
 43
0.0000000001
 44
0.000001
 12
0.9914791239503228
 22
0.1302656776388178
 32
0.0
 13
0.9795636654643457
 23
0.2011343464007472
 33
0.0
 40
0.0
 40
0.0
 40
0.0
 40
0.0
 40
0.0133498540299448
 40
0.0201274708386804
 40
0.0270916512698585
 40
0.0332527050317904
 40
0.0332527050317904
 40
0.0332527050317904
 40
0.0332527050317904
 10
34.90146561155358
 20
30.49758756550304
 30
0.0
 10
34.90587764541307
 20
30.49816724143023
 30
0.0
 10
34.91251453110945
 20
30.49916297152373
 30
0.0
 10
34.92140447804362
 20
30.50075242532463
 30
0.0
 10
34.92791473634819
 20
30.50203010870337
 30
0.0
 10
34.93220421474231
 20
30.50289133738806
 30
0.0
 10
34.93421592954437
 20
30.50330440389525
 30
0.0
 11
34.90146561155358
 21
30.49758756550304
 31
0.0
 11
34.91466776083837
 21
30.49956858438975
 31
0.0
 11
34.9213400306812
 21
30.50075898653304
 31
0.0
 11
34.9281769388367
 21
30.50208609315834
 31
0.0
 11
34.93421592954437
 21
30.50330440389525
 31
0.0
  0
SPLINE
  5
220
330
2
100
AcDbEntity
  8
GAIKEI
  6
Continuous
 62
     7
100
AcDbSpline
210
0.0
220
0.0
230
1.0
 70
     8
 71
     3
 72
    11
 73
     7
 74
     5
 42
0.0000000001
 43
0.0000000001
 44
0.000001
 12
0.9999972872251809
 22
-0.0023292793475527
 32
0.0
 13
0.9975943841515707
 23
0.0693213149705644
 33
0.0
 40
0.0
 40
0.0
 40
0.0
 40
0.0
 40
0.0058529502938241
 40
0.0117056200755462
 40
0.023415012975354
 40
0.0332528414321724
 40
0.0332528414321724
 40
0.0332528414321724
 40
0.0332528414321724
 10
34.86823214368391
 20
30.49669191877996
 30
0.0
 10
34.87018312182261
 20
30.49668737439456
 30
0.0
 10
34.87408501139908
 20
30.49669322299687
 30
0.0
 10
34.88188994695109
 20
30.49673043477458
 30
0.0
 10
34.89102199076709
 20
30.49695852076693
 30
0.0
 10
34.89819422407999
 20
30.49736024176801
 30
0.0
 10
34.90146561155358
 20
30.49758756550304
 30
0.0
 11
34.86823214368391
 21
30.49669191877996
 31
0.0
 11
34.87408486201294
 21
30.49669543872818
 31
0.0
 11
34.87993758034192
 21
30.49673326529927
 31
0.0
 11
34.89164301699995
 21
30.49703876550146
 31
0.0
 11
34.90146561155358
 21
30.49758756550304
 31
0.0
  0
SPLINE
  5
221
330
2
100
AcDbEntity
  8
GAIKEI
  6
Continuous
 62
     1
100
AcDbSpline
210
0.0
220
0.0
230
1.0
 70
     8
 71
     3
 72
    27
 73
    23
 74
    21
 42
0.0000000001
 43
0.0000000001
 44
0.000001
 12
-0.0003660855578095
 22
-0.9999999329906799
 32
0.0
 13
0.9993581724341886
 23
0.0358223839100428
 33
0.0
 40
0.0
 40
0.0
 40
0.0
 40
0.0
 40
0.009253374741961
 40
0.0190190708263379
 40
0.0240985957989932
 40
0.0293100902295472
 40
0.0346552368354915
 40
0.0401359022288482
 40
0.0478805701891287
 40
0.0570674979805697
 40
0.0677122112784287
 40
0.0798340965773097
 40
0.0885521815097056
 40
0.0964426179269656
 40
0.1034976093915183
 40
0.1097100952379452
 40
0.115073875384499
 40
0.1195836779593831
 40
0.1304434384054977
 40
0.1407221928638556
 40
0.1504043698062721
 40
0.1594759221242229
 40
0.1594759221242229
 40
0.1594759221242229
 40
0.1594759221242229
 10
34.50820439684243
 20
31.00140879886919
 30
0.0
 10
34.50820326766681
 20
30.99832434082856
 30
0.0
 10
34.50850910300858
 20
30.99198072453044
 30
0.0
 10
34.50969645044853
 20
30.98402087139152
 30
0.0
 10
34.51120236113017
 20
30.97750423024684
 30
0.0
 10
34.51265326529921
 20
30.97249530056127
 30
0.0
 10
34.51442901415749
 20
30.96744997897412
 30
0.0
 10
34.51681971672406
 20
30.96173644768027
 30
0.0
 10
34.52019051234263
 20
30.95505951022941
 30
0.0
 10
34.52506261125078
 20
30.94724774462532
 30
0.0
 10
34.53162170477587
 20
30.93882823825857
 30
0.0
 10
34.53902738835639
 20
30.93135053617908
 30
0.0
 10
34.54646093932408
 20
30.92529429051723
 30
0.0
 10
34.55297591691763
 20
30.9208328303985
 30
0.0
 10
34.55908031045158
 20
30.91728924677463
 30
0.0
 10
34.56464704170242
 20
30.91452733488009
 30
0.0
 10
34.56957951312002
 20
30.91241805347113
 30
0.0
 10
34.57605619997459
 20
30.91000209544126
 30
0.0
 10
34.58427763182522
 20
30.90759673451436
 30
0.0
 10
34.59439073499073
 20
30.90570201758723
 30
0.0
 10
34.60403947201842
 20
30.90480856836484
 30
0.0
 10
34.6102990639113
 20
30.90477065854666
 30
0.0
 10
34.61332097389317
 20
30.90487898008991
 30
0.0
 11
34.50820439684243
 21
31.00140879886919
 31
0.0
 11
34.50864962918874
 21
30.99216542080493
 31
0.0
 11
34.51009252116364
 21
30.98250689066885
 31
0.0
 11
34.51123622073357
 21
30.97755778630168
 31
0.0
 11
34.51268638590438
 21
30.97255210623698
 31
0.0
 11
34.51446093587033
 21
30.96751011020933
 31
0.0
 11
34.51657686804065
 21
30.96245435091046
 31
0.0
 11
34.5200661174575
 21
30.95554020537833
 31
0.0
 11
34.52492620065991
 21
30.94774406602363
 31
0.0
 11
34.5314670186665
 21
30.93934594986269
 31
0.0
 11
34.53999337348702
 21
30.93072955140406
 31
0.0
 11
34.54675051910341
 21
30.92522079143555
 31
0.0
 11
34.55326048187918
 21
30.92076212377151
 31
0.0
 11
34.55936149738325
 21
30.91721941648217
 31
0.0
 11
34.5649263802086
 21
30.91445766927868
 31
0.0
 11
34.5698577362216
 21
30.91234769465728
 31
0.0
 11
34.57408302330666
 21
30.91077119581911
 31
0.0
 11
34.58450581536114
 21
30.90772155693946
 31
0.0
 11
34.59460846035812
 21
30.90582690453789
 31
0.0
 11
34.60424924839492
 21
30.9049325618318
 31
0.0
 11
34.61332097389317
 21
30.90487898008991
 31
0.0
  0
SPLINE
  5
222
330
2
100
AcDbEntity
  8
GAIKEI
  6
Continuous
 62
     1
100
AcDbSpline
210
0.0
220
0.0
230
1.0
 70
     8
 71
     3
 72
    26
 73
    22
 74
    20
 42
0.0000000001
 43
0.0000000001
 44
0.000001
 12
-0.9993627682554917
 22
0.0356939410085291
 32
0.0
 13
0.0003694631600993
 23
-0.9999999317484842
 33
0.0
 40
0.0
 40
0.0
 40
0.0
 40
0.0
 40
0.0092852600830683
 40
0.0187542291182768
 40
0.0288603754289808
 40
0.0395886222126577
 40
0.0458698807943132
 40
0.0520449618745378
 40
0.0596212968102818
 40
0.0685866004777675
 40
0.0789264076835688
 40
0.0913155563628903
 40
0.1021010777472308
 40
0.1115135633035253
 40
0.1195685704105561
 40
0.1247254382720707
 40
0.1300790657679106
 40
0.1353005560006269
 40
0.1403916032816864
 40
0.1501849384168094
 40
0.159472177655499
 40
0.159472177655499
 40
0.159472177655499
 40
0.159472177655499
 10
34.61332097389317
 20
34.42183819076106
 30
0.0
 10
34.6102278594863
 20
34.42194866660296
 30
0.0
 10
34.60396766945696
 20
34.42190413380746
 30
0.0
 10
34.59437768661234
 20
34.42100716375217
 30
0.0
 10
34.58443311091715
 20
34.41915273783167
 30
0.0
 10
34.57573621595827
 20
34.41663035362402
 30
0.0
 10
34.56850764635046
 20
34.41388542618438
 30
0.0
 10
34.56241230441239
 20
34.41114878113876
 30
0.0
 10
34.55572301269029
 20
34.40758516657292
 30
0.0
 10
34.54817686970488
 20
34.4027310799728
 30
0.0
 10
34.53987103707071
 20
34.39617206119777
 30
0.0
 10
34.53193853706569
 20
34.38826062832794
 30
0.0
 10
34.5252156688868
 20
34.37969952130442
 30
0.0
 10
34.52020817617991
 20
34.37170522023763
 30
0.0
 10
34.51681059269106
 20
34.3649615518666
 30
0.0
 10
34.51442480236395
 20
34.35924830837109
 30
0.0
 10
34.51267817699387
 20
34.35430062909257
 30
0.0
 10
34.51122030132265
 20
34.34928330551543
 30
0.0
 10
34.50970605672127
 20
34.34275174902154
 30
0.0
 10
34.50851116790658
 20
34.33476828051826
 30
0.0
 10
34.50820325307818
 20
34.3284041181833
 30
0.0
 10
34.50820439684243
 20
34.32530837198169
 30
0.0
 11
34.61332097389317
 21
34.42183819076106
 31
0.0
 11
34.60403560968939
 21
34.42177355029869
 31
0.0
 11
34.59460795233681
 21
34.42088996625555
 31
0.0
 11
34.58467335155729
 21
34.41903571625181
 31
0.0
 11
34.57437010190736
 21
34.41604593128622
 31
0.0
 11
34.56849795110287
 21
34.4138160838121
 31
0.0
 11
34.56286544882832
 21
34.41128493351314
 31
0.0
 11
34.55617929671564
 21
34.40772171647945
 31
0.0
 11
34.54863996072734
 21
34.40287037362373
 31
0.0
 11
34.54052696503368
 21
34.39646010462221
 31
0.0
 11
34.53175971357932
 21
34.38770640276249
 31
0.0
 11
34.52509927347697
 21
34.37922308026995
 31
0.0
 11
34.52010428098896
 21
34.37124526637067
 31
0.0
 11
34.51648118426087
 21
34.36405105132707
 31
0.0
 11
34.51449371704367
 21
34.35929254132822
 31
0.0
 11
34.51271157763219
 21
34.35424422807586
 31
0.0
 11
34.51125444560981
 21
34.34923016135218
 31
0.0
 11
34.51010462676939
 21
34.34427064639846
 31
0.0
 11
34.5086528549589
 21
34.33458549822663
 31
0.0
 11
34.50820439684243
 21
34.32530837198169
 31
0.0
  0
SPLINE
  5
223
330
2
100
AcDbEntity
  8
GAIKEI
  6
Continuous
 62
     1
100
AcDbSpline
210
0.0
220
0.0
230
1.0
 70
     8
 71
     3
 72
     9
 73
     5
 74
     3
 42
0.0000000001
 43
0.0000000001
 44
0.000001
 12
0.1338031185345474
 22
0.9910079341107365
 32
0.0
 13
0.0001573976924943
 23
0.9999999876129832
 33
0.0
 40
0.0
 40
0.0
 40
0.0
 40
0.0
 40
0.0444162383113031
 40
0.0888324766226917
 40
0.0888324766226917
 40
0.0888324766226917
 40
0.0888324766226917
 10
35.81051238176856
 20
32.42040362780477
 30
0.0
 10
35.81249339216844
 20
32.43507590932805
 30
0.0
 10
35.81547410380617
 20
32.46456143201982
 30
0.0
 10
35.81647011179555
 20
32.49418049105884
 30
0.0
 10
35.81647244213336
 20
32.50898590364591
 30
0.0
 11
35.81051238176856
 21
32.42040362780477
 31
0.0
 11
35.81497892563826
 21
32.46459474897563
 31
0.0
 11
35.81647244213336
 21
32.50898590364591
 31
0.0
  0
SPLINE
  5
224
330
2
100
AcDbEntity
  8
GAIKEI
  6
Continuous
 62
     1
100
AcDbSpline
210
0.0
220
0.0
230
1.0
 70
     8
 71
     3
 72
     9
 73
     5
 74
     3
 42
0.0000000001
 43
0.0000000001
 44
0.000001
 12
-0.0001573976924944
 22
0.9999999876129832
 32
0.0
 13
-0.1338031185345475
 23
0.9910079341107365
 33
0.0
 40
0.0
 40
0.0
 40
0.0
 40
0.0
 40
0.0444162383113035
 40
0.0888324766227196
 40
0.0888324766227196
 40
0.0888324766227196
 40
0.0888324766227196
 10
35.81647244213336
 20
32.81773126720504
 30
0.0
 10
35.81647011179555
 20
32.83253667979207
 30
0.0
 10
35.81547410380618
 20
32.86215573883115
 30
0.0
 10
35.81249339216844
 20
32.89164126152286
 30
0.0
 10
35.81051238176856
 20
32.9063135430462
 30
0.0
 11
35.81647244213336
 21
32.81773126720504
 31
0.0
 11
35.81497892563826
 21
32.86212242187526
 31
0.0
 11
35.81051238176856
 21
32.9063135430462
 31
0.0
  0
SPLINE
  5
225
330
2
100
AcDbEntity
  8
GAIKEI
  6
Continuous
 62
     1
100
AcDbSpline
210
0.0
220
0.0
230
1.0
 70
     8
 71
     3
 72
     9
 73
     5
 74
     3
 42
0.0000000001
 43
0.0000000001
 44
0.000001
 12
0.1339175551133076
 22
-0.9909924764762212
 32
0.0
 13
0.0000419218556504
 23
-0.999999999121279
 33
0.0
 40
0.0
 40
0.0
 40
0.0
 40
0.0
 40
0.0533667243405479
 40
0.1067334486827851
 40
0.1067334486827851
 40
0.1067334486827851
 40
0.1067334486827851
 10
35.94256347231559
 20
32.92416387570938
 30
0.0
 10
35.94494571939828
 20
32.90653520160416
 30
0.0
 10
35.94852956522439
 20
32.87110807804822
 30
0.0
 10
35.94972380665723
 20
32.83552017530349
 30
0.0
 10
35.94972455240127
 20
32.81773126720504
 30
0.0
 11
35.94256347231559
 21
32.92416387570938
 31
0.0
 11
35.94793316187018
 21
32.8710679503825
 31
0.0
 11
35.94972455240127
 21
32.81773126720504
 31
0.0
  0
SPLINE
  5
226
330
2
100
AcDbEntity
  8
GAIKEI
  6
Continuous
 62
     1
100
AcDbSpline
210
0.0
220
0.0
230
1.0
 70
     8
 71
     3
 72
     9
 73
     5
 74
     3
 42
0.0000000001
 43
0.0000000001
 44
0.000001
 12
-0.0000419218573694
 22
-0.999999999121279
 32
0.0
 13
-0.1339175551115832
 23
-0.9909924764764546
 33
0.0
 40
0.0
 40
0.0
 40
0.0
 40
0.0
 40
0.0533667243415555
 40
0.1067334486828103
 40
0.1067334486828103
 40
0.1067334486828103
 40
0.1067334486828103
 10
35.94972455240127
 20
32.50898590364591
 30
0.0
 10
35.94972380665719
 20
32.49119699554768
 30
0.0
 10
35.9485295652243
 20
32.45560909280303
 30
0.0
 10
35.94494571939828
 20
32.42018196924699
 30
0.0
 10
35.94256347231559
 20
32.40255329514153
 30
0.0
 11
35.94972455240127
 21
32.50898590364591
 31
0.0
 11
35.94793316187018
 21
32.45564922046913
 31
0.0
 11
35.94256347231559
 21
32.40255329514153
 31
0.0
  0
SPLINE
  5
227
330
2
100
AcDbEntity
  8
GAIKEI
  6
Continuous
 62
     1
100
AcDbSpline
210
0.0
220
0.0
230
1.0
 70
     8
 71
     3
 72
    19
 73
    15
 74
    13
 42
0.0000000001
 43
0.0000000001
 44
0.000001
 12
-0.1339036180066847
 22
-0.9909943597643328
 32
0.0
 13
-0.9993944380603197
 23
-0.0347959361721689
 33
0.0
 40
0.0
 40
0.0
 40
0.0
 40
0.0
 40
0.0349325801503495
 40
0.0698163163322998
 40
0.1051353552753166
 40
0.1403398116799981
 40
0.1751159645257575
 40
0.2099450791824094
 40
0.2447457582132309
 40
0.2795219113585218
 40
0.3147548170752009
 40
0.3500601571899216
 40
0.3849438933959071
 40
0.4198907594521769
 40
0.4198907594521769
 40
0.4198907594521769
 40
0.4198907594521769
 10
35.76122822226967
 20
31.06109271986935
 30
0.0
 10
35.75966902264685
 20
31.04955338990234
 30
0.0
 10
35.75520038405843
 20
31.02664928819678
 30
0.0
 10
35.74443424651013
 20
30.9932159614238
 30
0.0
 10
35.72978089068141
 20
30.96119644951392
 30
0.0
 10
35.71166963943188
 20
30.93104198494891
 30
0.0
 10
35.69024446413791
 20
30.90334154303594
 30
0.0
 10
35.66578644805668
 20
30.87847139417497
 30
0.0
 10
35.63861370392272
 20
30.85659958760786
 30
0.0
 10
35.60892106470021
 20
30.83803342570849
 30
0.0
 10
35.57711497541788
 20
30.82299978645375
 30
0.0
 10
35.54379582992083
 20
30.81159087085286
 30
0.0
 10
35.50945800501967
 20
30.80419931771738
 30
0.0
 10
35.48621864078839
 20
30.80202669713245
 30
0.0
 10
35.47457673960031
 20
30.80162136082555
 30
0.0
 11
35.76122822226967
 21
31.06109271986935
 31
0.0
 11
35.75452684156918
 21
31.02680838296976
 31
0.0
 11
35.74384486187593
 21
30.99360038293082
 31
0.0
 11
35.72918228318994
 21
30.96146871975264
 31
0.0
 11
35.7110224635438
 21
30.93130956595672
 31
0.0
 11
35.68973752442865
 21
30.90380805840798
 31
0.0
 11
35.66532746584453
 21
30.87896419710651
 31
0.0
 11
35.63820693647276
 21
30.85715673686957
 31
0.0
 11
35.60872789762729
 21
30.83870767674898
 31
0.0
 11
35.57689034930815
 21
30.82361701674478
 31
0.0
 11
35.54347588851496
 21
30.81221783218672
 31
0.0
 11
35.50937135194568
 21
30.80488594688029
 31
0.0
 11
35.47457673960031
 21
30.80162136082555
 31
0.0
  0
SPLINE
  5
228
330
2
100
AcDbEntity
  8
GAIKEI
  6
Continuous
 62
     1
100
AcDbSpline
210
0.0
220
0.0
230
1.0
 70
     8
 71
     3
 72
    31
 73
    27
 74
    25
 42
0.0000000001
 43
0.0000000001
 44
0.000001
 12
-0.999442812610061
 22
-0.03337760210217
 32
0.0
 13
0.0102088876850998
 23
0.9999478879482836
 33
0.0
 40
0.0
 40
0.0
 40
0.0
 40
0.0
 40
0.0152249671336214
 40
0.0306032386320277
 40
0.0463725273028377
 40
0.0616262613327339
 40
0.0768553026881684
 40
0.0922459997048244
 40
0.1137366029230967
 40
0.1350663025835666
 40
0.1436576372520217
 40
0.1523210390881576
 40
0.1610834194599406
 40
0.1699707907285586
 40
0.1790080861050442
 40
0.1920069475184176
 40
0.2052913488396723
 40
0.2189352085812394
 40
0.2330067816492958
 40
0.2475683093201229
 40
0.2584963164847579
 40
0.2687337214355279
 40
0.2813855249757396
 40
0.2937299095131427
 40
0.3036389700740885
 40
0.3112591148021083
 40
0.3112591148021083
 40
0.3112591148021083
 40
0.3112591148021083
 10
34.61797140547612
 20
30.77170804340719
 30
0.0
 10
34.61289924415148
 20
30.77153865244219
 30
0.0
 10
34.60267004322012
 20
30.77182714278649
 30
0.0
 10
34.58736311631206
 20
30.77424701133282
 30
0.0
 10
34.57246034304588
 20
30.77852039782252
 30
0.0
 10
34.55817522439688
 20
30.78439870237259
 30
0.0
 10
34.54473841210768
 20
30.79176650509072
 30
0.0
 10
34.53050719710765
 20
30.80177991778044
 30
0.0
 10
34.51606038498209
 20
30.8148327942078
 30
0.0
 10
34.50507815576628
 20
30.82807256330151
 30
0.0
 10
34.49789691995408
 20
30.83874864942607
 30
0.0
 10
34.49346613163692
 20
30.846209311189
 30
0.0
 10
34.48940829051634
 20
30.85399010383509
 30
0.0
 10
34.4857252711164
 20
30.86209211226455
 30
0.0
 10
34.48194426799473
 20
30.8716860264829
 30
0.0
 10
34.47834409485741
 20
30.88290867932699
 30
0.0
 10
34.47526859553319
 20
30.8958702355886
 30
0.0
 10
34.47308343027233
 20
30.90937265772749
 30
0.0
 10
34.47179562607545
 20
30.92341608789474
 30
0.0
 10
34.4714265463127
 20
30.93660723943364
 30
0.0
 10
34.47173915220597
 20
30.94851526880296
 30
0.0
 10
34.47239187581871
 20
30.9597695518612
 30
0.0
 10
34.47324498516235
 20
30.97148321305019
 30
0.0
 10
34.47414313926504
 20
30.98308347371651
 30
0.0
 10
34.4747205965488
 20
30.99302621723897
 30
0.0
 10
34.47485020927035
 20
30.99886888299363
 30
0.0
 10
34.47487614033757
 20
31.00140879886919
 30
0.0
 11
34.61797140547612
 21
30.77170804340719
 31
0.0
 11
34.6027518417821
 21
30.77214958162966
 31
0.0
 11
34.58755887438414
 21
30.77452973605125
 31
0.0
 11
34.5723925032822
 21
30.77884850667192
 31
0.0
 11
34.55828830072824
 21
30.78465780275795
 31
0.0
 11
34.54493483706027
 21
30.79197960668754
 31
0.0
 11
34.53233211227834
 21
30.80081391846065
 31
0.0
 11
34.51639228529418
 21
30.8152280873766
 31
0.0
 11
34.50277416690338
 21
30.83164464481578
 31
0.0
 11
34.49797699795317
 21
30.83877193657798
 31
0.0
 11
34.49355130237793
 21
30.84621961050388
 31
0.0
 11
34.48949708017757
 21
30.85398766659352
 31
0.0
 11
34.48581433135217
 21
30.86207610484689
 31
0.0
 11
34.4825030559017
 21
30.87048492526395
 31
0.0
 11
34.47853230335546
 21
30.88286247444415
 31
0.0
 11
34.47545082854553
 21
30.89578455051418
 31
0.0
 11
34.47325863147197
 21
30.90925115347398
 31
0.0
 11
34.4719557121347
 21
30.92326228332354
 31
0.0
 11
34.47154207053386
 21
30.93781794006299
 31
0.0
 11
34.47180375945936
 21
30.94874281720624
 31
0.0
 11
34.47236679235519
 21
30.95896473032343
 31
0.0
 11
34.47326118077955
 21
30.9715848805912
 31
0.0
 11
34.47416099937813
 21
30.98389642485546
 31
0.0
 11
34.47469701428366
 21
30.99379098713467
 31
0.0
 11
34.47487614033757
 21
31.00140879886919
 31
0.0
  0
SPLINE
  5
229
330
2
100
AcDbEntity
  8
GAIKEI
  6
Continuous
 62
     1
100
AcDbSpline
210
0.0
220
0.0
230
1.0
 70
     8
 71
     3
 72
    30
 73
    26
 74
    24
 42
0.0000000001
 43
0.0000000001
 44
0.000001
 12
-0.008889748260986
 22
0.9999604854072268
 32
0.0
 13
0.9995504004609111
 23
-0.0299832776465869
 33
0.0
 40
0.0
 40
0.0
 40
0.0
 40
0.0
 40
0.0068323455130338
 40
0.0155563699989198
 40
0.0261770725786366
 40
0.0381933627668822
 40
0.0483956005102417
 40
0.056615172273979
 40
0.0678949724345677
 40
0.0792553042835735
 40
0.0903199000635098
 40
0.1011188636706324
 40
0.1116845699152953
 40
0.1220515791510944
 40
0.132256470648331
 40
0.1545395723021926
 40
0.1761387589521275
 40
0.190372674101439
 40
0.2046199638386703
 40
0.2190100798107564
 40
0.2343725773074858
 40
0.2496016167265682
 40
0.2648835253199806
 40
0.2883436242798905
 40
0.311219602173291
 40
0.311219602173291
 40
0.311219602173291
 40
0.311219602173291
 10
34.47487614033757
 20
34.32530837198169
 30
0.0
 10
34.47485589439369
 20
34.32758573049358
 30
0.0
 10
34.47475059339045
 20
34.33277098434255
 30
0.0
 10
34.47427347702396
 20
34.34148485322666
 30
0.0
 10
34.47352593728091
 20
34.35191174410602
 30
0.0
 10
34.47266920071418
 20
34.36282478535208
 30
0.0
 10
34.4720329356424
 20
34.37295118718021
 30
0.0
 10
34.47156543593044
 20
34.3828415253866
 30
0.0
 10
34.47148119315989
 20
34.39313173217022
 30
0.0
 10
34.47191689770145
 20
34.40436261701902
 30
0.0
 10
34.47290946234526
 20
34.41539775237732
 30
0.0
 10
34.47445249584945
 20
34.42610232458125
 30
0.0
 10
34.47654758606437
 20
34.43647566526292
 30
0.0
 10
34.4791915186477
 20
34.44651944354402
 30
0.0
 10
34.48367307530503
 20
34.46009011755405
 30
0.0
 10
34.49091599438012
 20
34.47666188779391
 30
0.0
 10
34.5010498389855
 20
34.49324950101513
 30
0.0
 10
34.51141042127159
 20
34.5063697715546
 30
0.0
 10
34.5213189537399
 20
34.5166976826103
 30
0.0
 10
34.53243655240277
 20
34.52629585307028
 30
0.0
 10
34.54472155376161
 20
34.53494249038226
 30
0.0
 10
34.55815988679069
 20
34.54230859465611
 30
0.0
 10
34.57482287960856
 20
34.54916900416697
 30
0.0
 10
34.59482350335729
 20
34.55433645151541
 30
0.0
 10
34.61034950785468
 20
34.55523775970926
 30
0.0
 10
34.61797140547612
 20
34.55500912744373
 30
0.0
 11
34.47487614033757
 21
34.32530837198169
 31
0.0
 11
34.47472804601524
 21
34.33213889386844
 31
0.0
 11
34.47428500216132
 21
34.34085166862948
 31
0.0
 11
34.47354700877582
 21
34.35144669626482
 31
0.0
 11
34.47265459998326
 21
34.36342980124317
 31
0.0
 11
34.47201969462124
 21
34.37361226529708
 31
0.0
 11
34.47165770816348
 21
34.38182386511142
 31
0.0
 11
34.47156842930417
 21
34.39310331568265
 31
0.0
 11
34.47201728289618
 21
34.40445478128396
 31
0.0
 11
34.47301557015793
 21
34.41547425597168
 31
0.0
 11
34.47456329108931
 21
34.42616173974585
 31
0.0
 11
34.47666044569044
 21
34.43651723260649
 31
0.0
 11
34.47930703396125
 21
34.44654073455348
 31
0.0
 11
34.4825030559017
 21
34.45623224558693
 31
0.0
 11
34.49146440829891
 21
34.47663399783332
 31
0.0
 11
34.5027563684941
 21
34.49504641638265
 31
0.0
 11
34.51157912406755
 21
34.50621617669498
 31
0.0
 11
34.52143770532894
 21
34.5165017886975
 31
0.0
 11
34.53233211227834
 21
34.52590325239027
 31
0.0
 11
34.54491000897849
 21
34.53472385792904
 31
0.0
 11
34.55826347264645
 21
34.5420456618586
 31
0.0
 11
34.5723925032822
 21
34.547868664179
 31
0.0
 11
34.59513662108481
 21
34.55362037302788
 31
0.0
 11
34.61797140547612
 21
34.55500912744373
 31
0.0
  0
SPLINE
  5
22A
330
2
100
AcDbEntity
  8
GAIKEI
  6
Continuous
 62
     1
100
AcDbSpline
210
0.0
220
0.0
230
1.0
 70
     8
 71
     3
 72
    19
 73
    15
 74
    13
 42
0.0000000001
 43
0.0000000001
 44
0.000001
 12
0.99939277932344
 22
-0.0348435451148412
 32
0.0
 13
0.1338564090112065
 23
-0.9910007375207269
 33
0.0
 40
0.0
 40
0.0
 40
0.0
 40
0.0
 40
0.0349325801502359
 40
0.0698163163321204
 40
0.1051353552754018
 40
0.140339811680662
 40
0.1751159645263403
 40
0.2099450791824346
 40
0.2447457582140998
 40
0.2795219113594105
 40
0.3147548170753631
 40
0.3500601571913785
 40
0.3849438933973689
 40
0.4198907594523331
 40
0.4198907594523331
 40
0.4198907594523331
 40
0.4198907594523331
 10
35.47457673960031
 20
34.52509581002539
 30
0.0
 10
35.48621386238874
 20
34.52469008504792
 30
0.0
 10
35.50944848106487
 20
34.52251773591707
 30
0.0
 10
35.54378558711571
 20
34.5151244819063
 30
0.0
 10
35.57710183679925
 20
34.50372283785657
 30
0.0
 10
35.60890559893346
 20
34.48869520101113
 30
0.0
 10
35.6385965134742
 20
34.47012635041983
 30
0.0
 10
35.66577225996911
 20
34.44825861945748
 30
0.0
 10
35.69023403340263
 20
34.4233918627977
 30
0.0
 10
35.71165670453954
 20
34.39568943775891
 30
0.0
 10
35.7297741596051
 20
34.36553325354001
 30
0.0
 10
35.74443503858382
 20
34.33351158213728
 30
0.0
 10
35.75519955503862
 20
34.3000773711822
 30
0.0
 10
35.75966893493756
 20
34.2771685743264
 30
0.0
 10
35.76122822226967
 20
34.26562445098156
 30
0.0
 11
35.47457673960031
 21
34.52509581002539
 31
0.0
 11
35.5093570502458
 21
34.52183172495722
 31
0.0
 11
35.54346158681506
 21
34.51449983965086
 31
0.0
 11
35.57689034930817
 21
34.50310015410628
 31
0.0
 11
35.60870359998077
 21
34.48802465448108
 31
0.0
 11
35.63818263882621
 21
34.46957559436049
 31
0.0
 11
35.66532746584453
 21
34.4477529737444
 31
0.0
 11
35.68972002639269
 21
34.4229317847045
 31
0.0
 11
35.71100496550787
 21
34.39543027715581
 31
0.0
 11
35.72918228319009
 21
34.36524845109833
 31
0.0
 11
35.74384294331361
 21
34.33313096919949
 31
0.0
 11
35.75452492300681
 21
34.29992296916055
 31
0.0
 11
35.76122822226967
 21
34.26562445098156
 31
0.0
  0
SPLINE
  5
22B
330
2
100
AcDbEntity
  8
GAIKEI
  6
Continuous
 62
     7
100
AcDbSpline
210
0.0
220
0.0
230
1.0
 70
     8
 71
     3
 72
    21
 73
    17
 74
    15
 42
0.0000000001
 43
0.0000000001
 44
0.000001
 12
-0.0013916012638279
 22
-0.9999990317224925
 32
0.0
 13
-0.9986140251619186
 23
-0.0526310625953074
 33
0.0
 40
0.0
 40
0.0
 40
0.0
 40
0.0
 40
0.018724846555569
 40
0.0375079554429112
 40
0.056231989041217
 40
0.0749607111867537
 40
0.093751926509683
 40
0.1124853893449333
 40
0.1312047126015932
 40
0.1499846267252253
 40
0.1687066216969062
 40
0.1874258349136567
 40
0.2062069529968815
 40
0.2249293718066803
 40
0.2389311533458919
 40
0.2529324484648043
 40
0.2529324484648043
 40
0.2529324484648043
 40
0.2529324484648043
 10
35.99229936425934
 20
8.77978222147496
 30
0.0
 10
35.9922906784193
 20
8.773540612000061
 30
0.0
 10
35.99158085912132
 20
8.761027235229477
 30
0.0
 10
35.98842086455132
 20
8.742514152762367
 30
0.0
 10
35.98323076957242
 20
8.724459424329722
 30
0.0
 10
35.9759965736758
 20
8.70711944354511
 30
0.0
 10
35.96688280745775
 20
8.690688820362822
 30
0.0
 10
35.9560018230039
 20
8.675371703472677
 30
0.0
 10
35.94343423952222
 20
8.661410289166809
 30
0.0
 10
35.92940035646078
 20
8.648933448687586
 30
0.0
 10
35.9140669023558
 20
8.638088830744095
 30
0.0
 10
35.89758780641674
 20
8.629079029213045
 30
0.0
 10
35.88021430297452
 20
8.621952377208572
 30
0.0
 10
35.86366701620966
 20
8.617233075679962
 30
0.0
 10
35.84832153856357
 20
8.61447235627628
 30
0.0
 10
35.83901598686006
 20
8.613589600030763
 30
0.0
 10
35.834355356968
 20
8.613343965684151
 30
0.0
 11
35.99229936425934
 21
8.77978222147496
 31
0.0
 11
35.99123436213856
 21
8.761087141521528
 31
0.0
 11
35.98807881478879
 21
8.742570984446444
 31
0.0
 11
35.98289191072901
 21
8.724579706482558
 31
0.0
 11
35.97569321989026
 21
8.707289684997732
 31
0.0
 11
35.96657828422022
 21
8.690857138547499
 31
0.0
 11
35.95571842189317
 21
8.675592576543863
 31
0.0
 11
35.94320436883709
 21
8.661670924542647
 31
0.0
 11
35.92916921857285
 21
8.649192920666024
 31
0.0
 11
35.91387613040357
 21
8.638393132987658
 31
0.0
 11
35.89745800328115
 21
8.629401205958799
 31
0.0
 11
35.88008150877303
 21
8.622274597185992
 31
0.0
 11
35.86207451588618
 21
8.617148363816653
 31
0.0
 11
35.84829480246038
 21
8.614664505739057
 31
0.0
 11
35.834355356968
 21
8.613343965684151
 31
0.0
  0
SPLINE
  5
22C
330
2
100
AcDbEntity
  8
GAIKEI
  6
Continuous
 62
     1
100
AcDbSpline
210
0.0
220
0.0
230
1.0
 70
     8
 71
     3
 72
    11
 73
     7
 74
     5
 42
0.0000000001
 43
0.0000000001
 44
0.000001
 12
-0.6802432327858541
 22
-0.7329864557064138
 32
0.0
 13
-0.7222769166518247
 23
-0.6916039731464338
 33
0.0
 40
0.0
 40
0.0
 40
0.0
 40
0.0
 40
0.0000340968030456
 40
0.0001842018944005
 40
0.0004368222678833
 40
0.0005227738202125
 40
0.0005227738202125
 40
0.0005227738202125
 40
0.0005227738202125
 10
35.73462659228649
 20
34.66129371271234
 30
0.0
 10
35.73461886091332
 20
34.66128538188073
 30
0.0
 10
35.73457688955981
 20
34.66124056237211
 30
0.0
 10
35.73447350604676
 20
34.66113797125724
 30
0.0
 10
35.73435590498566
 20
34.66102527145242
 30
0.0
 10
35.73427398682004
 20
34.66094764079315
 30
0.0
 10
35.73425329321265
 20
34.66092782598145
 30
0.0
 11
35.73462659228649
 21
34.66129371271234
 31
0.0
 11
35.73460324082077
 21
34.66126886224939
 31
0.0
 11
35.73449681859752
 21
34.66116297111299
 31
0.0
 11
35.73431529984808
 21
34.66098732578795
 31
0.0
 11
35.73425329321265
 21
34.66092782598145
 31
0.0
  0
SPLINE
  5
22D
330
2
100
AcDbEntity
  8
GAIKEI
  6
Continuous
 62
     1
100
AcDbSpline
210
0.0
220
0.0
230
1.0
 70
     8
 71
     3
 72
    15
 73
    11
 74
     9
 42
0.0000000001
 43
0.0000000001
 44
0.000001
 12
0.9801140074554863
 22
-0.1984352095509935
 32
0.0
 13
-0.6668668435619632
 23
-0.7451769004455951
 33
0.0
 40
0.0
 40
0.0
 40
0.0
 40
0.0
 40
0.0000042341417855
 40
0.0000059935104979
 40
0.0000065819295286
 40
0.0000069761874827
 40
0.0000076199717894
 40
0.000009607482369
 40
0.0000176637918857
 40
0.0000201818744397
 40
0.0000201818744397
 40
0.0000201818744397
 40
0.0000201818744397
 10
35.7346269664467
 20
34.66130653792371
 30
0.0
 10
35.73462834976059
 20
34.6613062578561
 30
0.0
 10
35.73463010151407
 20
34.66130516138654
 30
0.0
 10
35.73463232723215
 20
34.66130489953241
 30
0.0
 10
35.73463317939178
 20
34.66130466150224
 30
0.0
 10
35.73463379705219
 20
34.66130466179297
 30
0.0
 10
35.73463390171662
 20
34.66130337056765
 30
0.0
 10
35.7346312734729
 20
34.66130086599594
 30
0.0
 10
35.73462945828687
 20
34.66129701621017
 30
0.0
 10
35.73462715202841
 20
34.66129433818466
 30
0.0
 10
35.73462659228649
 20
34.66129371271234
 30
0.0
 11
35.7346269664467
 21
34.66130653792371
 31
0.0
 11
35.73463187541684
 21
34.66130554404492
 31
0.0
 11
35.73463360207052
 21
34.66130519446259
 31
0.0
 11
35.73463417956998
 21
34.66130507754025
 31
0.0
 11
35.73463456651783
 21
34.66130499919717
 31
0.0
 11
35.734634757647
 21
34.66130429676088
 31
0.0
 11
35.73463377539288
 21
34.66130250441543
 31
0.0
 11
35.7346282907351
 21
34.66129564999687
 31
0.0
 11
35.73462659228649
 21
34.66129371271234
 31
0.0
  0
SPLINE
  5
22E
330
2
100
AcDbEntity
  8
GAIKEI
  6
Continuous
 62
     7
100
AcDbSpline
210
0.0
220
0.0
230
1.0
 70
     8
 71
     3
 72
     9
 73
     5
 74
     3
 42
0.0000000001
 43
0.0000000001
 44
0.000001
 12
0.0382147445236314
 22
0.9992695498718017
 32
0.0
 13
0.0185994861975265
 23
0.9998270145946188
 33
0.0
 40
0.0
 40
0.0
 40
0.0
 40
0.0
 40
0.0097182395934284
 40
0.0196238859737716
 40
0.0196238859737716
 40
0.0196238859737716
 40
0.0196238859737716
 10
36.12386028271621
 20
32.46970607041868
 30
0.0
 10
36.12398407606396
 20
32.47294311738671
 30
0.0
 10
36.12420228892162
 20
32.47948088713557
 30
0.0
 10
36.12435634743594
 20
32.48602048917138
 30
0.0
 10
36.12441776074698
 20
32.48932180012074
 30
0.0
 11
36.12386028271621
 21
32.46970607041868
 31
0.0
 11
36.12418447301059
 21
32.47941890062725
 31
0.0
 11
36.12441776074698
 21
32.48932180012074
 31
0.0
  0
SPLINE
  5
22F
330
2
100
AcDbEntity
  8
GAIKEI
  6
Continuous
 62
     7
100
AcDbSpline
210
0.0
220
0.0
230
1.0
 70
     8
 71
     3
 72
     9
 73
     5
 74
     3
 42
0.0000000001
 43
0.0000000001
 44
0.000001
 12
0.0890934844436245
 22
0.9960232683174092
 32
0.0
 13
0.0382171861496897
 23
0.9992694564944933
 33
0.0
 40
0.0
 40
0.0
 40
0.0
 40
0.0
 40
0.032362343297381
 40
0.0509924813304499
 40
0.0509924813304499
 40
0.0509924813304499
 40
0.0509924813304499
 10
36.12061341529575
 20
32.41882091294508
 30
0.0
 10
36.12157450660546
 20
32.42956546192556
 30
0.0
 10
36.12281507554299
 20
32.44652144137476
 30
0.0
 10
36.12362295223181
 20
32.46350056111643
 30
0.0
 10
36.12386028271621
 20
32.46970607041868
 30
0.0
 11
36.12061341529575
 21
32.41882091294508
 31
0.0
 11
36.12297496263918
 21
32.4510972187444
 31
0.0
 11
36.12386028271621
 21
32.46970607041868
 31
0.0
  0
SPLINE
  5
230
330
2
100
AcDbEntity
  8
GAIKEI
  6
Continuous
 62
     7
100
AcDbSpline
210
0.0
220
0.0
230
1.0
 70
     8
 71
     3
 72
     9
 73
     5
 74
     3
 42
0.0000000001
 43
0.0000000001
 44
0.000001
 12
0.1103453711681145
 22
0.9938933036607958
 32
0.0
 13
0.0891001703377536
 23
0.9960226702469093
 33
0.0
 40
0.0
 40
0.0
 40
0.0
 40
0.0
 40
0.017636848859189
 40
0.0213526907074529
 40
0.0213526907074529
 40
0.0213526907074529
 40
0.0213526907074529
 10
36.1184839534769
 20
32.39757484688352
 30
0.0
 10
36.11913266835477
 20
32.40341789554313
 30
0.0
 10
36.11985570689356
 20
32.41049916590356
 30
0.0
 10
36.12050305458188
 20
32.41758722537176
 30
0.0
 10
36.12061341529575
 20
32.41882091294508
 30
0.0
 11
36.1184839534769
 21
32.39757484688352
 31
0.0
 11
36.12027545910141
 21
32.41512048803583
 31
0.0
 11
36.12061341529575
 21
32.41882091294508
 31
0.0
  0
SPLINE
  5
231
330
2
100
AcDbEntity
  8
GAIKEI
  6
Continuous
 62
     7
100
AcDbSpline
210
0.0
220
0.0
230
1.0
 70
     8
 71
     3
 72
     9
 73
     5
 74
     3
 42
0.0000000001
 43
0.0000000001
 44
0.000001
 12
-0.0908223106603705
 22
0.9958671135680257
 32
0.0
 13
-0.1103459603277674
 23
0.9938932382501366
 33
0.0
 40
0.0
 40
0.0
 40
0.0
 40
0.0
 40
0.0097182395587115
 40
0.019623884799324
 40
0.019623884799324
 40
0.019623884799324
 40
0.019623884799324
 10
36.12045787617065
 20
32.90939153748894
 30
0.0
 10
36.12016366517989
 20
32.91261756254838
 30
0.0
 10
36.11953791185319
 20
32.91912897390029
 30
0.0
 10
36.11884830264303
 20
32.92563393837571
 30
0.0
 10
36.11848395333078
 20
32.92891565631743
 30
0.0
 11
36.12045787617065
 21
32.90939153748894
 31
0.0
 11
36.11952822898684
 21
32.91906520925545
 31
0.0
 11
36.11848395333078
 21
32.92891565631743
 31
0.0
  0
SPLINE
  5
232
330
2
100
AcDbEntity
  8
GAIKEI
  6
Continuous
 62
     7
100
AcDbSpline
210
0.0
220
0.0
230
1.0
 70
     8
 71
     3
 72
     9
 73
     5
 74
     3
 42
0.0000000001
 43
0.0000000001
 44
0.000001
 12
-0.0399492825279237
 22
0.9992017087783146
 32
0.0
 13
-0.0908198773464509
 23
0.9958673354813761
 33
0.0
 40
0.0
 40
0.0
 40
0.0
 40
0.0
 40
0.0323623432638352
 40
0.0509924813019937
 40
0.0509924813019937
 40
0.0509924813019937
 40
0.0509924813019937
 10
36.12379271705883
 20
32.85851206979805
 30
0.0
 10
36.12336176626073
 20
32.86929090602783
 30
0.0
 10
36.12240785313658
 20
32.8862654251609
 30
0.0
 10
36.12102187178783
 20
32.90320715551303
 30
0.0
 10
36.12045787617065
 20
32.90939153748894
 30
0.0
 11
36.12379271705883
 21
32.85851206979805
 31
0.0
 11
36.12197698961421
 21
32.89082367690111
 31
0.0
 11
36.12045787617065
 21
32.90939153748894
 31
0.0
  0
SPLINE
  5
233
330
2
100
AcDbEntity
  8
GAIKEI
  6
Continuous
 62
     7
100
AcDbSpline
210
0.0
220
0.0
230
1.0
 70
     8
 71
     3
 72
     9
 73
     5
 74
     3
 42
0.0000000001
 43
0.0000000001
 44
0.000001
 12
-0.0186000761728346
 22
0.9998270036193087
 32
0.0
 13
-0.0399425752926383
 23
0.9992019769190772
 33
0.0
 40
0.0
 40
0.0
 40
0.0
 40
0.0
 40
0.0176368527678813
 40
0.0213526946119883
 40
0.0213526946119883
 40
0.0213526946119883
 40
0.0213526946119883
 10
36.1244177607726
 20
32.83716870038677
 30
0.0
 10
36.12430841183762
 20
32.84304663427216
 30
0.0
 10
36.12411326857183
 20
32.85016204798353
 30
0.0
 10
36.12384219048971
 20
32.85727444429253
 30
0.0
 10
36.12379271705883
 20
32.85851206979805
 30
0.0
 11
36.1244177607726
 21
32.83716870038677
 31
0.0
 11
36.12393423840877
 21
32.85479894031272
 31
0.0
 11
36.12379271705883
 21
32.85851206979805
 31
0.0
  0
DIMENSION
  5
234
330
2
100
AcDbEntity
  8
SUNPO
100
AcDbDimension
  2
*D5
 10
36.12729936425727
 20
43.74370088737925
 30
0.0
 11
42.7106326975906
 21
45.49370088737925
 31
0.0
 70
    33
  1
99
 71
     5
 42
3.299999999966999
  3
STANDARD
100
AcDbAlignedDimension
 13
32.82729936429027
 23
35.74370088737925
 33
0.0
 14
36.12729936425727
 24
35.74370088737925
 34
0.0
1001
ACAD
1000
DSTYLE
1002
{
1070
    40
1040
1.0
1070
   140
1040
2.5
1070
   147
1040
0.5
1070
   172
1070
     1
1070
   279
1070
     0
1070
   288
1070
     0
1002
}
  0
LINE
  5
243
330
2
100
AcDbEntity
  8
GAIKEI
  6
Continuous
 62
     7
100
AcDbLine
 10
35.98563269759271
 20
10.49464738591996
 30
0.0
 11
35.98563269759268
 21
8.793127608403494
 31
0.0
  0
LINE
  5
244
330
2
100
AcDbEntity
  8
GAIKEI
  6
Continuous
 62
     7
100
AcDbLine
 10
35.98563269759273
 20
11.67646094170865
 30
0.0
 11
35.98563269759271
 21
10.49464738591996
 31
0.0
  0
ARC
  5
245
330
2
100
AcDbEntity
  8
GAIKEI
100
AcDbCircle
 10
35.95226267006905
 20
11.84660736241042
 30
0.0
 40
0.1733878981202967
100
AcDbArc
 50
281.0963120935034
 51
359.1773757409232
  0
TEXT
  5
246
330
2
100
AcDbEntity
  8
MOJI1
100
AcDbText
 10
-33.75520491515386
 20
55.62441000003639
 30
0.0
 40
4.0
  1
ハイビジョンプラズマディスプレイ据置きスタンド付
 41
0.85
100
AcDbText
  0
ENDSEC
  0
SECTION
  2
OBJECTS
  0
DICTIONARY
  5
9
330
0
100
AcDbDictionary
281
     1
  3
ACAD_COLOR
350
31
  3
ACAD_GROUP
350
2D
  3
ACAD_LAYOUT
350
D
  3
ACAD_MATERIAL
350
30
  3
ACAD_MLINESTYLE
350
2E
  3
ACAD_PLOTSETTINGS
350
2F
  3
ACAD_PLOTSTYLENAME
350
8
  3
ACDBHEADERROUNDTRIPXREC
350
295
  3
AcDbVariableDictionary
350
290
  3
ASE_INDEX_DICTIONARY
350
24F
  0
DICTIONARY
  5
15
330
14
100
AcDbDictionary
280
     1
281
     1
  3
ACAD_LAYERFILTERS
360
16
  3
ACAD_LAYERSTATES
360
17
  0
DICTIONARY
  5
3
330
2
100
AcDbDictionary
280
     1
281
     1
  3
ACAD_LAYOUTSELFREF
360
4
  0
DICTIONARY
  5
F
330
E
100
AcDbDictionary
280
     1
281
     1
  3
ACAD_LAYOUTSELFREF
360
10
  0
DICTIONARY
  5
31
102
{ACAD_REACTORS
330
9
102
}
330
9
100
AcDbDictionary
281
     1
  0
DICTIONARY
  5
2D
102
{ACAD_REACTORS
330
9
102
}
330
9
100
AcDbDictionary
281
     1
  0
DICTIONARY
  5
D
102
{ACAD_REACTORS
330
9
102
}
330
9
100
AcDbDictionary
281
     1
  3
Model
350
C
  3
ﾚｲｱｳﾄ1
350
13
  0
DICTIONARY
  5
30
102
{ACAD_REACTORS
330
9
102
}
330
9
100
AcDbDictionary
281
     1
  0
DICTIONARY
  5
2E
102
{ACAD_REACTORS
330
9
102
}
330
9
100
AcDbDictionary
281
     1
  3
STANDARD
350
32
  0
DICTIONARY
  5
2F
102
{ACAD_REACTORS
330
9
102
}
330
9
100
AcDbDictionary
281
     1
  0
ACDBDICTIONARYWDFLT
  5
8
102
{ACAD_REACTORS
330
9
102
}
330
9
100
AcDbDictionary
281
     1
  3
Normal
350
7
100
AcDbDictionaryWithDefault
340
7
  0
DICTIONARY
  5
295
102
{ACAD_REACTORS
330
9
102
}
330
9
100
AcDbDictionary
281
     1
  3
COLORDICT
350
297
  3
MATERIALDICT
350
296
  0
DICTIONARY
  5
290
102
{ACAD_REACTORS
330
9
102
}
330
9
100
AcDbDictionary
281
     1
  3
DIMASSOC
350
292
  3
HIDETEXT
350
291
  3
PROJECTNAME
350
293
  0
DICTIONARY
  5
24F
102
{ACAD_REACTORS
330
9
102
}
330
9
100
AcDbDictionary
281
     1
  3
ASEBlockHierarchyIndexRecord
350
251
1001
DCO15
1040
1627818978.201
  0
DICTIONARY
  5
16
102
{ACAD_REACTORS
330
15
102
}
330
15
100
AcDbDictionary
280
     1
281
     1
  0
DICTIONARY
  5
17
102
{ACAD_REACTORS
330
15
102
}
330
15
100
AcDbDictionary
281
     1
  0
XRECORD
  5
4
102
{ACAD_REACTORS
330
3
102
}
330
3
100
AcDbXrecord
280
     1
340
2
  0
XRECORD
  5
10
102
{ACAD_REACTORS
330
F
102
}
330
F
100
AcDbXrecord
280
     1
340
E
  0
LAYOUT
  5
C
102
{ACAD_XDICTIONARY
360
298
102
}
102
{ACAD_REACTORS
330
D
102
}
330
D
100
AcDbPlotSettings
  1

  2
Ａ４－縦3FRIM01.pc3
  4
A4
  6

 40
5.873749732971191
 41
5.873747825622558
 42
5.873748779296875
 43
5.873748779296875
 44
209.9733276367187
 45
296.9259948730469
 46
5.44
 47
0.0
 48
0.0
 49
0.0
140
0.0
141
0.0
142
1.0
143
1.383239362962726
 70
 11956
 72
     1
 73
     0
 74
     1
  7
tmsacad.ctb
 75
     0
147
0.7229406759059578
148
0.5671991949084259
149
0.1357563133815347
100
AcDbLayout
  1
Model
 70
     1
 71
     0
 10
0.0
 20
0.0
 11
12.0
 21
9.0
 12
0.0
 22
0.0
 32
0.0
 14
0.0
 24
0.0
 34
0.0
 15
0.0
 25
0.0
 35
0.0
146
0.0
 13
0.0
 23
0.0
 33
0.0
 16
1.0
 26
0.0
 36
0.0
 17
0.0
 27
1.0
 37
0.0
 76
     0
330
2
  0
LAYOUT
  5
13
102
{ACAD_XDICTIONARY
360
29A
102
}
102
{ACAD_REACTORS
330
D
102
}
330
D
100
AcDbPlotSettings
  1

  2
C:\Program Files\ACAD2000\plotters\DWF ePlot.pc3
  4

  6

 40
0.0
 41
0.0
 42
0.0
 43
0.0
 44
0.0
 45
0.0
 46
0.0
 47
0.0
 48
0.0
 49
0.0
140
0.0
141
0.0
142
1.0
143
1.0
 70
   688
 72
     0
 73
     0
 74
     5
  7
tmsacad.ctb
 75
    16
147
1.0
148
0.0
149
0.0
100
AcDbLayout
  1
ﾚｲｱｳﾄ1
 70
     1
 71
     1
 10
0.0
 20
0.0
 11
12.0
 21
9.0
 12
0.0
 22
0.0
 32
0.0
 14
1.000000000000000E+20
 24
1.000000000000000E+20
 34
1.000000000000000E+20
 15
-1.000000000000000E+20
 25
-1.000000000000000E+20
 35
-1.000000000000000E+20
146
0.0
 13
0.0
 23
0.0
 33
0.0
 16
1.0
 26
0.0
 36
0.0
 17
0.0
 27
1.0
 37
0.0
 76
     0
330
E
  0
MLINESTYLE
  5
32
102
{ACAD_REACTORS
330
2E
102
}
330
2E
100
AcDbMlineStyle
  2
STANDARD
 70
     0
  3

 62
   256
 51
90.0
 52
90.0
 71
     2
 49
0.5
 62
   256
  6
BYLAYER
 49
-0.5
 62
   256
  6
BYLAYER
  0
ACDBPLACEHOLDER
  5
7
102
{ACAD_REACTORS
330
8
102
}
330
8
  0
XRECORD
  5
297
102
{ACAD_REACTORS
330
295
102
}
330
295
100
AcDbXrecord
280
     1
340
31
  0
XRECORD
  5
296
102
{ACAD_REACTORS
330
295
102
}
330
295
100
AcDbXrecord
280
     1
340
30
  0
DICTIONARYVAR
  5
292
102
{ACAD_REACTORS
330
290
102
}
330
290
100
DictionaryVariables
280
     0
  1
1
  0
DICTIONARYVAR
  5
291
102
{ACAD_REACTORS
330
290
102
}
330
290
100
DictionaryVariables
280
     0
  1
1
  0
DICTIONARYVAR
  5
293
102
{ACAD_REACTORS
330
290
102
}
330
290
100
DictionaryVariables
280
     0
  1

  0
XRECORD
  5
251
102
{ACAD_REACTORS
330
24F
102
}
330
24F
100
AcDbXrecord
280
     1
330
168
330
169
330
107
330
108
330
5D
330
5E
330
23C
330
23D
330
264
330
265
330
270
330
271
330
27C
330
27D
330
288
330
289
  0
DICTIONARY
  5
298
330
C
100
AcDbDictionary
280
     1
281
     1
  3
ACAD_XREC_ROUNDTRIP
360
299
  0
DICTIONARY
  5
29A
330
13
100
AcDbDictionary
280
     1
281
     1
  3
ACAD_XREC_ROUNDTRIP
360
29B
  0
XRECORD
  5
299
102
{ACAD_REACTORS
330
298
102
}
330
298
100
AcDbXrecord
280
     1
102
SHADEPLOT
 70
     0
102
SHADEPLOTRESLEVEL
 70
     2
102
SHADEPLOTCUSTOMDPI
 70
   300
  0
XRECORD
  5
29B
102
{ACAD_REACTORS
330
29A
102
}
330
29A
100
AcDbXrecord
280
     1
102
SHADEPLOT
 70
     0
102
SHADEPLOTRESLEVEL
 70
     2
102
SHADEPLOTCUSTOMDPI
 70
   300
  0
ENDSEC
  0
EOF
