  0
SECTION
  2
HEADER
  9
$ACADVER
  1
AC1015
  9
$ACADMAINTVER
 70
    20
  9
$DWGCODEPAGE
  3
ANSI_932
  9
$INSBASE
 10
0.0
 20
120.4992141396419
 30
0.0
  9
$EXTMIN
 10
-63.2631628295585
 20
-57.9028686618185
 30
-0.0015258207003583
  9
$EXTMAX
 10
61.90140562310261
 20
55.22821325380665
 30
0.0000000349246037
  9
$LIMMIN
 10
-1101.784450318844
 20
-1579.160531687244
  9
$LIMMAX
 10
-508.2420711400536
 20
-1161.440814074914
  9
$ORTHOMODE
 70
     1
  9
$REGENMODE
 70
     1
  9
$FILLMODE
 70
     1
  9
$QTEXTMODE
 70
     0
  9
$MIRRTEXT
 70
     1
  9
$LTSCALE
 40
1.0
  9
$ATTMODE
 70
     1
  9
$TEXTSIZE
 40
3.0
  9
$TRACEWID
 40
0.5
  9
$TEXTSTYLE
  7
STANDARD
  9
$CLAYER
  8
0
  9
$CELTYPE
  6
BYLAYER
  9
$CECOLOR
 62
   256
  9
$CELTSCALE
 40
1.0
  9
$DISPSILH
 70
     0
  9
$DIMSCALE
 40
1.0
  9
$DIMASZ
 40
2.0
  9
$DIMEXO
 40
2.0
  9
$DIMDLI
 40
8.0
  9
$DIMRND
 40
0.0
  9
$DIMDLE
 40
0.0
  9
$DIMEXE
 40
2.0
  9
$DIMTP
 40
0.0
  9
$DIMTM
 40
0.0
  9
$DIMTXT
 40
2.5
  9
$DIMCEN
 40
0.0
  9
$DIMTSZ
 40
0.0
  9
$DIMTOL
 70
     0
  9
$DIMLIM
 70
     0
  9
$DIMTIH
 70
     0
  9
$DIMTOH
 70
     0
  9
$DIMSE1
 70
     0
  9
$DIMSE2
 70
     0
  9
$DIMTAD
 70
     3
  9
$DIMZIN
 70
     0
  9
$DIMBLK
  1

  9
$DIMASO
 70
     1
  9
$DIMSHO
 70
     1
  9
$DIMPOST
  1

  9
$DIMAPOST
  1

  9
$DIMALT
 70
     0
  9
$DIMALTD
 70
     2
  9
$DIMALTF
 40
25.4
  9
$DIMLFAC
 40
1.0
  9
$DIMTOFL
 70
     1
  9
$DIMTVP
 40
0.0
  9
$DIMTIX
 70
     0
  9
$DIMSOXD
 70
     0
  9
$DIMSAH
 70
     1
  9
$DIMBLK1
  1
OPEN30
  9
$DIMBLK2
  1
OPEN30
  9
$DIMSTYLE
  2
STANDARD
  9
$DIMCLRD
 70
     0
  9
$DIMCLRE
 70
     0
  9
$DIMCLRT
 70
     0
  9
$DIMTFAC
 40
1.0
  9
$DIMGAP
 40
0.5
  9
$DIMJUST
 70
     0
  9
$DIMSD1
 70
     0
  9
$DIMSD2
 70
     0
  9
$DIMTOLJ
 70
     1
  9
$DIMTZIN
 70
     0
  9
$DIMALTZ
 70
     0
  9
$DIMALTTZ
 70
     0
  9
$DIMUPT
 70
     0
  9
$DIMDEC
 70
     4
  9
$DIMTDEC
 70
     4
  9
$DIMALTU
 70
     2
  9
$DIMALTTD
 70
     2
  9
$DIMTXSTY
  7
STANDARD
  9
$DIMAUNIT
 70
     0
  9
$DIMADEC
 70
     0
  9
$DIMALTRND
 40
0.0
  9
$DIMAZIN
 70
     0
  9
$DIMDSEP
 70
    46
  9
$DIMATFIT
 70
     3
  9
$DIMFRAC
 70
     0
  9
$DIMLDRBLK
  1
OPEN30
  9
$DIMLUNIT
 70
     2
  9
$DIMLWD
 70
    -2
  9
$DIMLWE
 70
    -2
  9
$DIMTMOVE
 70
     0
  9
$LUNITS
 70
     2
  9
$LUPREC
 70
     4
  9
$SKETCHINC
 40
0.1
  9
$FILLETRAD
 40
0.0
  9
$AUNITS
 70
     0
  9
$AUPREC
 70
     0
  9
$MENU
  1
ACAD
  9
$ELEVATION
 40
0.0
  9
$PELEVATION
 40
0.0
  9
$THICKNESS
 40
0.0
  9
$LIMCHECK
 70
     0
  9
$CHAMFERA
 40
0.0
  9
$CHAMFERB
 40
0.0
  9
$CHAMFERC
 40
0.0
  9
$CHAMFERD
 40
0.0
  9
$SKPOLY
 70
     0
  9
$TDCREATE
 40
2451815.565532581
  9
$TDUCREATE
 40
2451815.190532581
  9
$TDUPDATE
 40
2454643.701004618
  9
$TDUUPDATE
 40
2454643.326004618
  9
$TDINDWG
 40
0.9599061227
  9
$TDUSRTIMER
 40
0.9599061227
  9
$USRTIMER
 70
     1
  9
$ANGBASE
 50
0.0
  9
$ANGDIR
 70
     0
  9
$PDMODE
 70
     0
  9
$PDSIZE
 40
0.0
  9
$PLINEWID
 40
0.0
  9
$SPLFRAME
 70
     0
  9
$SPLINETYPE
 70
     6
  9
$SPLINESEGS
 70
     8
  9
$HANDSEED
  5
3E6
  9
$SURFTAB1
 70
     6
  9
$SURFTAB2
 70
     6
  9
$SURFTYPE
 70
     6
  9
$SURFU
 70
     6
  9
$SURFV
 70
     6
  9
$UCSBASE
  2

  9
$UCSNAME
  2

  9
$UCSORG
 10
0.0
 20
0.0
 30
0.0
  9
$UCSXDIR
 10
1.0
 20
0.0
 30
0.0
  9
$UCSYDIR
 10
0.0
 20
1.0
 30
0.0
  9
$UCSORTHOREF
  2

  9
$UCSORTHOVIEW
 70
     0
  9
$UCSORGTOP
 10
0.0
 20
0.0
 30
0.0
  9
$UCSORGBOTTOM
 10
0.0
 20
0.0
 30
0.0
  9
$UCSORGLEFT
 10
0.0
 20
0.0
 30
0.0
  9
$UCSORGRIGHT
 10
0.0
 20
0.0
 30
0.0
  9
$UCSORGFRONT
 10
0.0
 20
0.0
 30
0.0
  9
$UCSORGBACK
 10
0.0
 20
0.0
 30
0.0
  9
$PUCSBASE
  2

  9
$PUCSNAME
  2

  9
$PUCSORG
 10
0.0
 20
0.0
 30
0.0
  9
$PUCSXDIR
 10
1.0
 20
0.0
 30
0.0
  9
$PUCSYDIR
 10
0.0
 20
1.0
 30
0.0
  9
$PUCSORTHOREF
  2

  9
$PUCSORTHOVIEW
 70
     0
  9
$PUCSORGTOP
 10
0.0
 20
0.0
 30
0.0
  9
$PUCSORGBOTTOM
 10
0.0
 20
0.0
 30
0.0
  9
$PUCSORGLEFT
 10
0.0
 20
0.0
 30
0.0
  9
$PUCSORGRIGHT
 10
0.0
 20
0.0
 30
0.0
  9
$PUCSORGFRONT
 10
0.0
 20
0.0
 30
0.0
  9
$PUCSORGBACK
 10
0.0
 20
0.0
 30
0.0
  9
$USERI1
 70
     0
  9
$USERI2
 70
     0
  9
$USERI3
 70
     0
  9
$USERI4
 70
     0
  9
$USERI5
 70
     0
  9
$USERR1
 40
0.0
  9
$USERR2
 40
0.0
  9
$USERR3
 40
0.0
  9
$USERR4
 40
0.0
  9
$USERR5
 40
0.0
  9
$WORLDVIEW
 70
     1
  9
$SHADEDGE
 70
     3
  9
$SHADEDIF
 70
    70
  9
$TILEMODE
 70
     1
  9
$MAXACTVP
 70
    48
  9
$PINSBASE
 10
0.0
 20
0.0
 30
0.0
  9
$PLIMCHECK
 70
     0
  9
$PEXTMIN
 10
1.000000000000000E+20
 20
1.000000000000000E+20
 30
1.000000000000000E+20
  9
$PEXTMAX
 10
-1.000000000000000E+20
 20
-1.000000000000000E+20
 30
-1.000000000000000E+20
  9
$PLIMMIN
 10
0.0
 20
0.0
  9
$PLIMMAX
 10
12.0
 20
9.0
  9
$UNITMODE
 70
     0
  9
$VISRETAIN
 70
     1
  9
$PLINEGEN
 70
     0
  9
$PSLTSCALE
 70
     1
  9
$TREEDEPTH
 70
  3020
  9
$CMLSTYLE
  2
STANDARD
  9
$CMLJUST
 70
     0
  9
$CMLSCALE
 40
1.0
  9
$PROXYGRAPHICS
 70
     1
  9
$MEASUREMENT
 70
     0
  9
$CELWEIGHT
370
    -1
  9
$ENDCAPS
280
     0
  9
$JOINSTYLE
280
     0
  9
$LWDISPLAY
290
     0
  9
$INSUNITS
 70
     0
  9
$HYPERLINKBASE
  1

  9
$STYLESHEET
  1

  9
$XEDIT
290
     1
  9
$CEPSNTYPE
380
     0
  9
$PSTYLEMODE
290
     1
  9
$FINGERPRINTGUID
  2
{1754B7AB-9B3C-11D4-AD9E-00104B1004F2}
  9
$VERSIONGUID
  2
{FBF8D327-8E40-443E-8D45-22F6EFFA1AE5}
  9
$EXTNAMES
290
     1
  9
$PSVPSCALE
 40
0.0
  9
$OLESTARTUP
290
     0
  0
ENDSEC
  0
SECTION
  2
CLASSES
  0
CLASS
  1
ACDBDICTIONARYWDFLT
  2
AcDbDictionaryWithDefault
  3
ObjectDBX Classes
 90
        0
280
     0
281
     0
  0
CLASS
  1
ACDBPLACEHOLDER
  2
AcDbPlaceHolder
  3
ObjectDBX Classes
 90
        0
280
     0
281
     0
  0
CLASS
  1
LAYOUT
  2
AcDbLayout
  3
ObjectDBX Classes
 90
        0
280
     0
281
     0
  0
CLASS
  1
DICTIONARYVAR
  2
AcDbDictionaryVar
  3
ObjectDBX Classes
 90
        0
280
     0
281
     0
  0
CLASS
  1
SORTENTSTABLE
  2
AcDbSortentsTable
  3
ObjectDBX Classes
 90
    32768
280
     0
281
     0
  0
ENDSEC
  0
SECTION
  2
TABLES
  0
TABLE
  2
VPORT
  5
20
330
0
100
AcDbSymbolTable
 70
     3
  0
VPORT
  5
3DE
330
20
100
AcDbSymbolTableRecord
100
AcDbViewportTableRecord
  2
*Active
 70
     0
 10
0.0
 20
0.0
 11
1.0
 21
1.0
 12
-0.6808786032279386
 22
-1.337327704005929
 13
0.0
 23
0.0
 14
1.0
 24
1.0
 15
0.0
 25
0.0
 16
0.0
 26
0.0
 36
1.0
 17
0.0
 27
0.0
 37
0.0
 40
114.0253987687131
 41
1.439313984168865
 42
50.0
 43
0.0
 44
0.0
 50
0.0
 51
0.0
 71
     0
 72
 10000
 73
     1
 74
     0
 75
     0
 76
     1
 77
     0
 78
     0
281
     0
 65
     1
110
0.0
120
0.0
130
0.0
111
1.0
121
0.0
131
0.0
112
0.0
122
1.0
132
0.0
 79
     0
146
0.0
  0
ENDTAB
  0
TABLE
  2
LTYPE
  5
1B
330
0
100
AcDbSymbolTable
 70
     3
  0
LTYPE
  5
1C
330
1B
100
AcDbSymbolTableRecord
100
AcDbLinetypeTableRecord
  2
BYBLOCK
 70
     0
  3

 72
    65
 73
     0
 40
0.0
  0
LTYPE
  5
1D
330
1B
100
AcDbSymbolTableRecord
100
AcDbLinetypeTableRecord
  2
BYLAYER
 70
     0
  3

 72
    65
 73
     0
 40
0.0
  0
LTYPE
  5
A
330
1B
100
AcDbSymbolTableRecord
100
AcDbLinetypeTableRecord
  2
CONTINUOUS
 70
     0
  3
Solid line
 72
    65
 73
     0
 40
0.0
  0
LTYPE
  5
82
330
1B
100
AcDbSymbolTableRecord
100
AcDbLinetypeTableRecord
  2
HIDDEN2
 70
     0
  3
Hidden (.5x) _ _ _ _ _ _ _ _ _ _ _ _ _ _ _ _ _
 72
    65
 73
     2
 40
1.399999999999999
 49
0.7
 74
     0
 49
-0.7
 74
     0
  0
LTYPE
  5
5B
330
1B
100
AcDbSymbolTableRecord
100
AcDbLinetypeTableRecord
  2
NON_PLOTING
 70
     0
  3
Solid line
 72
    65
 73
     0
 40
0.0
  0
ENDTAB
  0
TABLE
  2
LAYER
  5
14
102
{ACAD_XDICTIONARY
360
15
102
}
330
0
100
AcDbSymbolTable
 70
     7
  0
LAYER
  5
6
330
14
100
AcDbSymbolTableRecord
100
AcDbLayerTableRecord
  2
0
 70
     0
 62
     7
  6
CONTINUOUS
370
    -3
390
7
  0
LAYER
  5
210
330
14
100
AcDbSymbolTableRecord
100
AcDbLayerTableRecord
  2
DEFPOINTS
 70
     0
 62
     7
  6
CONTINUOUS
290
     0
370
    -3
390
7
  0
LAYER
  5
51
330
14
100
AcDbSymbolTableRecord
100
AcDbLayerTableRecord
  2
WAKU
 70
     0
 62
     4
  6
CONTINUOUS
370
    -3
390
7
  0
LAYER
  5
4C
330
14
100
AcDbSymbolTableRecord
100
AcDbLayerTableRecord
  2
MOJI1
 70
     0
 62
     2
  6
CONTINUOUS
370
    -3
390
7
  0
LAYER
  5
54
330
14
100
AcDbSymbolTableRecord
100
AcDbLayerTableRecord
  2
GAIKEI
 70
     0
 62
     7
  6
CONTINUOUS
370
    -3
390
7
  0
LAYER
  5
36
330
14
100
AcDbSymbolTableRecord
100
AcDbLayerTableRecord
  2
SUNPO
 70
     0
 62
     3
  6
CONTINUOUS
370
    -3
390
7
  0
LAYER
  5
34
330
14
100
AcDbSymbolTableRecord
100
AcDbLayerTableRecord
  2
TOUROKU
 70
     0
 62
     1
  6
CONTINUOUS
370
    -3
390
7
  0
ENDTAB
  0
TABLE
  2
STYLE
  5
18
330
0
100
AcDbSymbolTable
 70
     1
  0
STYLE
  5
19
330
18
100
AcDbSymbolTableRecord
100
AcDbTextStyleTableRecord
  2
STANDARD
 70
     0
 40
0.0
 41
1.0
 50
0.0
 71
     0
 42
3.0
  3
MONOTXT.shx
  4
BIGFONT.shx
  0
ENDTAB
  0
TABLE
  2
VIEW
  5
1E
330
0
100
AcDbSymbolTable
 70
     0
  0
ENDTAB
  0
TABLE
  2
UCS
  5
1F
330
0
100
AcDbSymbolTable
 70
     0
  0
ENDTAB
  0
TABLE
  2
APPID
  5
22
330
0
100
AcDbSymbolTable
 70
     2
  0
APPID
  5
23
330
22
100
AcDbSymbolTableRecord
100
AcDbRegAppTableRecord
  2
ACAD
 70
     0
  0
APPID
  5
39C
330
22
100
AcDbSymbolTableRecord
100
AcDbRegAppTableRecord
  2
DCO15
 70
     0
  0
ENDTAB
  0
TABLE
  2
DIMSTYLE
  5
24
330
0
100
AcDbSymbolTable
 70
     1
100
AcDbDimStyleTable
 71
     1
340
25
  0
DIMSTYLE
105
25
102
{ACAD_REACTORS
330
2B4
330
2A7
330
214
330
206
102
}
330
24
100
AcDbSymbolTableRecord
100
AcDbDimStyleTableRecord
  2
STANDARD
 70
     0
 40
0.0
 41
2.0
 42
2.0
 43
8.0
 44
2.0
 73
     0
 74
     0
 77
     3
140
3.0
141
0.0
173
     1
279
     2
288
     1
340
19
341
26
343
26
344
26
  0
ENDTAB
  0
TABLE
  2
BLOCK_RECORD
  5
1
330
0
100
AcDbSymbolTable
 70
     9
  0
BLOCK_RECORD
  5
2
102
{ACAD_XDICTIONARY
360
3
102
}
330
1
100
AcDbSymbolTableRecord
100
AcDbBlockTableRecord
  2
*MODEL_SPACE
340
C
  0
BLOCK_RECORD
  5
E
102
{ACAD_XDICTIONARY
360
F
102
}
330
1
100
AcDbSymbolTableRecord
100
AcDbBlockTableRecord
  2
*PAPER_SPACE
340
13
  0
BLOCK_RECORD
  5
26
330
1
100
AcDbSymbolTableRecord
100
AcDbBlockTableRecord
  2
_OPEN30
340
0
102
{BLKREFS
331
45
331
43
331
20C
331
20D
331
21A
331
21B
331
2AD
331
2AE
331
2BA
331
2BB
331
3AE
331
3AF
331
3BA
331
3BB
331
3C6
331
3C7
331
3D2
331
3D3
102
}
  0
BLOCK_RECORD
  5
2B5
330
1
100
AcDbSymbolTableRecord
100
AcDbBlockTableRecord
  2
*D1
340
0
  0
BLOCK_RECORD
  5
2A8
330
1
100
AcDbSymbolTableRecord
100
AcDbBlockTableRecord
  2
*D2
340
0
  0
BLOCK_RECORD
  5
215
330
1
100
AcDbSymbolTableRecord
100
AcDbBlockTableRecord
  2
*D3
340
0
  0
BLOCK_RECORD
  5
207
330
1
100
AcDbSymbolTableRecord
100
AcDbBlockTableRecord
  2
*D4
340
0
  0
BLOCK_RECORD
  5
3AA
330
1
100
AcDbSymbolTableRecord
100
AcDbBlockTableRecord
  2
*D5
340
0
  0
BLOCK_RECORD
  5
3B6
330
1
100
AcDbSymbolTableRecord
100
AcDbBlockTableRecord
  2
*D6
340
0
  0
BLOCK_RECORD
  5
3C2
330
1
100
AcDbSymbolTableRecord
100
AcDbBlockTableRecord
  2
*D7
340
0
  0
BLOCK_RECORD
  5
3CE
330
1
100
AcDbSymbolTableRecord
100
AcDbBlockTableRecord
  2
*D8
340
0
  0
ENDTAB
  0
ENDSEC
  0
SECTION
  2
BLOCKS
  0
BLOCK
  5
5
330
2
100
AcDbEntity
  8
0
100
AcDbBlockBegin
  2
*MODEL_SPACE
 70
     0
 10
0.0
 20
0.0
 30
0.0
  3
*MODEL_SPACE
  1

  0
ENDBLK
  5
B
330
2
100
AcDbEntity
  8
0
100
AcDbBlockEnd
  0
BLOCK
  5
11
330
E
100
AcDbEntity
 67
     1
  8
0
100
AcDbBlockBegin
  2
*PAPER_SPACE
 70
     0
 10
0.0
 20
0.0
 30
0.0
  3
*PAPER_SPACE
  1

  0
ENDBLK
  5
12
330
E
100
AcDbEntity
 67
     1
  8
0
100
AcDbBlockEnd
  0
BLOCK
  5
27
330
26
100
AcDbEntity
  8
0
100
AcDbBlockBegin
  2
_OPEN30
 70
     0
 10
0.0
 20
0.0
 30
0.0
  3
_OPEN30
  1

  0
LINE
  5
28
330
26
100
AcDbEntity
  8
0
  6
ByBlock
 62
     0
100
AcDbLine
 10
-1.0
 20
0.26794919
 30
0.0
 11
0.0
 21
0.0
 31
0.0
  0
LINE
  5
29
330
26
100
AcDbEntity
  8
0
  6
ByBlock
 62
     0
100
AcDbLine
 10
0.0
 20
0.0
 30
0.0
 11
-1.0
 21
-0.26794919
 31
0.0
  0
LINE
  5
2A
330
26
100
AcDbEntity
  8
0
  6
ByBlock
 62
     0
100
AcDbLine
 10
0.0
 20
0.0
 30
0.0
 11
-1.0
 21
0.0
 31
0.0
  0
ENDBLK
  5
2B
330
26
100
AcDbEntity
  8
0
100
AcDbBlockEnd
  0
BLOCK
  5
2B6
330
2B5
100
AcDbEntity
  8
0
100
AcDbBlockBegin
  2
*D1
 70
     1
 10
0.0
 20
0.0
 30
0.0
  3
*D1
  1

  0
LINE
  5
2B7
330
2B5
100
AcDbEntity
  8
SUNPO
  6
Continuous
 62
     0
370
    -2
100
AcDbLine
 10
73.1170873010582
 20
93.26723266644485
 30
0.0
 11
81.11708730105819
 21
93.26723266644485
 31
0.0
  0
LINE
  5
2B8
330
2B5
100
AcDbEntity
  8
SUNPO
  6
Continuous
 62
     0
370
    -2
100
AcDbLine
 10
73.1170873010582
 20
65.16723266925487
 30
0.0
 11
81.11708730105819
 21
65.16723266925487
 31
0.0
  0
LINE
  5
2B9
330
2B5
100
AcDbEntity
  8
SUNPO
  6
Continuous
 62
     0
370
    -2
100
AcDbLine
 10
79.11708730105819
 20
91.26723266644486
 30
0.0
 11
79.11708730105819
 21
67.16723266925487
 31
0.0
  0
INSERT
  5
2BA
330
2B5
100
AcDbEntity
  8
SUNPO
  6
Continuous
 62
     0
370
    -2
100
AcDbBlockReference
  2
_OPEN30
 10
79.11708730105819
 20
93.26723266644485
 30
0.0
 41
2.0
 42
2.0
 43
2.0
 50
90.0
  0
INSERT
  5
2BB
330
2B5
100
AcDbEntity
  8
SUNPO
  6
Continuous
 62
     0
370
    -2
100
AcDbBlockReference
  2
_OPEN30
 10
79.11708730105819
 20
65.16723266925487
 30
0.0
 41
2.0
 42
2.0
 43
2.0
 50
270.0
  0
MTEXT
  5
2BC
330
2B5
100
AcDbEntity
  8
SUNPO
  6
Continuous
 62
     0
100
AcDbMText
 10
77.36708730105817
 20
79.21723266784988
 30
0.0
 40
2.5
 41
0.0
 71
     5
 72
     1
  1
\A1;843
 11
0.0000000000000001
 21
1.0
 31
0.0
 73
     1
 44
1.0
1001
ACAD
1000
MTEXTBEGIN
1070
    73
1070
     1
1070
    44
1040
1.0
1070
    74
1070
     0
1000
MTEXTEND
  0
POINT
  5
2BD
330
2B5
100
AcDbEntity
  8
DEFPOINTS
  6
Continuous
 62
     0
100
AcDbPoint
 10
71.11708730105821
 20
93.26723266644485
 30
0.0
  0
POINT
  5
2BE
330
2B5
100
AcDbEntity
  8
DEFPOINTS
  6
Continuous
 62
     0
100
AcDbPoint
 10
71.11708730105821
 20
65.16723266925487
 30
0.0
  0
POINT
  5
2BF
330
2B5
100
AcDbEntity
  8
DEFPOINTS
  6
Continuous
 62
     0
100
AcDbPoint
 10
79.11708730105819
 20
65.16723266925487
 30
0.0
  0
ENDBLK
  5
2C0
330
2B5
100
AcDbEntity
  8
0
100
AcDbBlockEnd
  0
BLOCK
  5
2A9
330
2A8
100
AcDbEntity
  8
0
100
AcDbBlockBegin
  2
*D2
 70
     1
 10
0.0
 20
0.0
 30
0.0
  3
*D2
  1

  0
LINE
  5
2AA
330
2A8
100
AcDbEntity
  8
SUNPO
  6
Continuous
 62
     0
370
    -2
100
AcDbLine
 10
24.4811703034316
 20
95.26280594568765
 30
0.0
 11
24.4811703034316
 21
103.2628059456876
 31
0.0
  0
LINE
  5
2AB
330
2A8
100
AcDbEntity
  8
SUNPO
  6
Continuous
 62
     0
370
    -2
100
AcDbLine
 10
71.11450363210159
 20
95.26280594568765
 30
0.0
 11
71.11450363210159
 21
103.2628059456876
 31
0.0
  0
LINE
  5
2AC
330
2A8
100
AcDbEntity
  8
SUNPO
  6
Continuous
 62
     0
370
    -2
100
AcDbLine
 10
26.4811703034316
 20
101.2628059456876
 30
0.0
 11
69.11450363210159
 21
101.2628059456876
 31
0.0
  0
INSERT
  5
2AD
330
2A8
100
AcDbEntity
  8
SUNPO
  6
Continuous
 62
     0
370
    -2
100
AcDbBlockReference
  2
_OPEN30
 10
24.4811703034316
 20
101.2628059456876
 30
0.0
 41
2.0
 42
2.0
 43
2.0
 50
180.0
  0
INSERT
  5
2AE
330
2A8
100
AcDbEntity
  8
SUNPO
  6
Continuous
 62
     0
370
    -2
100
AcDbBlockReference
  2
_OPEN30
 10
71.11450363210159
 20
101.2628059456876
 30
0.0
 41
2.0
 42
2.0
 43
2.0
  0
MTEXT
  5
2AF
330
2A8
100
AcDbEntity
  8
SUNPO
  6
Continuous
 62
     0
100
AcDbMText
 10
47.79783696776659
 20
103.0128059456876
 30
0.0
 40
2.5
 41
0.0
 71
     5
 72
     1
  1
\A1;1399
 73
     1
 44
1.0
1001
ACAD
1000
MTEXTBEGIN
1070
    73
1070
     1
1070
    44
1040
1.0
1070
    74
1070
     0
1000
MTEXTEND
  0
POINT
  5
2B0
330
2A8
100
AcDbEntity
  8
DEFPOINTS
  6
Continuous
 62
     0
100
AcDbPoint
 10
24.4811703034316
 20
93.26280594568764
 30
0.0
  0
POINT
  5
2B1
330
2A8
100
AcDbEntity
  8
DEFPOINTS
  6
Continuous
 62
     0
100
AcDbPoint
 10
71.11450363210159
 20
93.26280594568764
 30
0.0
  0
POINT
  5
2B2
330
2A8
100
AcDbEntity
  8
DEFPOINTS
  6
Continuous
 62
     0
100
AcDbPoint
 10
71.11450363210159
 20
101.2628059456876
 30
0.0
  0
ENDBLK
  5
2B3
330
2A8
100
AcDbEntity
  8
0
100
AcDbBlockEnd
  0
BLOCK
  5
216
330
215
100
AcDbEntity
  8
0
100
AcDbBlockBegin
  2
*D3
 70
     1
 10
0.0
 20
0.0
 30
0.0
  3
*D3
  1

  0
LINE
  5
217
330
215
100
AcDbEntity
  8
SUNPO
 62
     0
370
    -2
100
AcDbLine
 10
34.88117030239154
 20
63.08389933592661
 30
0.0
 11
34.88117030239154
 21
55.08389933592662
 31
0.0
  0
LINE
  5
218
330
215
100
AcDbEntity
  8
SUNPO
 62
     0
370
    -2
100
AcDbLine
 10
60.71450363314153
 20
63.08389933592661
 30
0.0
 11
60.71450363314153
 21
55.08389933592662
 31
0.0
  0
LINE
  5
219
330
215
100
AcDbEntity
  8
SUNPO
 62
     0
370
    -2
100
AcDbLine
 10
36.88117030239154
 20
57.08389933592662
 30
0.0
 11
58.71450363314153
 21
57.08389933592662
 31
0.0
  0
INSERT
  5
21A
330
215
100
AcDbEntity
  8
SUNPO
 62
     0
370
    -2
100
AcDbBlockReference
  2
_OPEN30
 10
34.88117030239154
 20
57.08389933592662
 30
0.0
 41
2.0
 42
2.0
 43
2.0
 50
180.0
  0
INSERT
  5
21B
330
215
100
AcDbEntity
  8
SUNPO
 62
     0
370
    -2
100
AcDbBlockReference
  2
_OPEN30
 10
60.71450363314153
 20
57.08389933592662
 30
0.0
 41
2.0
 42
2.0
 43
2.0
  0
MTEXT
  5
21C
330
215
100
AcDbEntity
  8
SUNPO
 62
     0
100
AcDbMText
 10
47.79783696776653
 20
58.83389933592662
 30
0.0
 40
2.5
 41
0.0
 71
     5
 72
     1
  1
\A1;775
 73
     1
 44
1.0
1001
ACAD
1000
MTEXTBEGIN
1070
    73
1070
     1
1070
    44
1040
1.0
1070
    74
1070
     0
1000
MTEXTEND
  0
POINT
  5
21D
330
215
100
AcDbEntity
  8
DEFPOINTS
 62
     0
100
AcDbPoint
 10
34.88117030239154
 20
65.08389933592662
 30
0.0
  0
POINT
  5
21E
330
215
100
AcDbEntity
  8
DEFPOINTS
 62
     0
100
AcDbPoint
 10
60.71450363314153
 20
65.08389933592662
 30
0.0
  0
POINT
  5
21F
330
215
100
AcDbEntity
  8
DEFPOINTS
 62
     0
100
AcDbPoint
 10
60.71450363314153
 20
57.08389933592662
 30
0.0
  0
ENDBLK
  5
220
330
215
100
AcDbEntity
  8
0
100
AcDbBlockEnd
  0
BLOCK
  5
208
330
207
100
AcDbEntity
  8
0
100
AcDbBlockBegin
  2
*D4
 70
     1
 10
0.0
 20
0.0
 30
0.0
  3
*D4
  1

  0
LINE
  5
209
330
207
100
AcDbEntity
  8
SUNPO
 62
     0
370
    -2
100
AcDbLine
 10
22.07274471176102
 20
68.13389933562165
 30
0.0
 11
14.07274471176102
 21
68.13389933562165
 31
0.0
  0
LINE
  5
20A
330
207
100
AcDbEntity
  8
SUNPO
 62
     0
370
    -2
100
AcDbLine
 10
22.07274471176102
 20
85.33389933390168
 30
0.0
 11
14.07274471176102
 21
85.33389933390168
 31
0.0
  0
LINE
  5
20B
330
207
100
AcDbEntity
  8
SUNPO
 62
     0
370
    -2
100
AcDbLine
 10
16.07274471176102
 20
70.13389933562165
 30
0.0
 11
16.07274471176102
 21
83.33389933390169
 31
0.0
  0
INSERT
  5
20C
330
207
100
AcDbEntity
  8
SUNPO
 62
     0
370
    -2
100
AcDbBlockReference
  2
_OPEN30
 10
16.07274471176102
 20
68.13389933562165
 30
0.0
 41
2.0
 42
2.0
 43
2.0
 50
270.0
  0
INSERT
  5
20D
330
207
100
AcDbEntity
  8
SUNPO
 62
     0
370
    -2
100
AcDbBlockReference
  2
_OPEN30
 10
16.07274471176102
 20
85.33389933390168
 30
0.0
 41
2.0
 42
2.0
 43
2.0
 50
90.0
  0
MTEXT
  5
20E
330
207
100
AcDbEntity
  8
SUNPO
 62
     0
100
AcDbMText
 10
14.32274471176101
 20
76.73389933476167
 30
0.0
 40
2.5
 41
0.0
 71
     5
 72
     1
  1
\A1;516
 11
0.0000000000000001
 21
1.0
 31
0.0
 73
     1
 44
1.0
1001
ACAD
1000
MTEXTBEGIN
1070
    73
1070
     1
1070
    44
1040
1.0
1070
    74
1070
     0
1000
MTEXTEND
  0
POINT
  5
20F
330
207
100
AcDbEntity
  8
DEFPOINTS
 62
     0
100
AcDbPoint
 10
24.07274471176102
 20
68.13389933562165
 30
0.0
  0
POINT
  5
211
330
207
100
AcDbEntity
  8
DEFPOINTS
 62
     0
100
AcDbPoint
 10
24.07274471176102
 20
85.33389933390168
 30
0.0
  0
POINT
  5
212
330
207
100
AcDbEntity
  8
DEFPOINTS
 62
     0
100
AcDbPoint
 10
16.07274471176102
 20
85.33389933390168
 30
0.0
  0
ENDBLK
  5
213
330
207
100
AcDbEntity
  8
0
100
AcDbBlockEnd
  0
BLOCK
  5
3B4
330
3AA
100
AcDbEntity
  8
0
100
AcDbBlockBegin
  2
*D5
 70
     1
 10
0.0
 20
0.0
 30
0.0
  3
*D5
  1

  0
LINE
  5
3AB
330
3AA
100
AcDbEntity
  8
SUNPO
  6
Continuous
 62
     0
370
    -2
100
AcDbLine
 10
7.937873971436061
 20
29.8834478954238
 30
0.0
 11
15.93787397143605
 21
29.88344789542379
 31
0.0
  0
LINE
  5
3AC
330
3AA
100
AcDbEntity
  8
SUNPO
  6
Continuous
 62
     0
370
    -2
100
AcDbLine
 10
7.937873971436061
 20
1.783447898233816
 30
0.0
 11
15.93787397143605
 21
1.783447898233814
 31
0.0
  0
LINE
  5
3AD
330
3AA
100
AcDbEntity
  8
SUNPO
  6
Continuous
 62
     0
370
    -2
100
AcDbLine
 10
13.93787397143605
 20
27.8834478954238
 30
0.0
 11
13.93787397143604
 21
3.783447898233814
 31
0.0
  0
INSERT
  5
3AE
330
3AA
100
AcDbEntity
  8
SUNPO
  6
Continuous
 62
     0
370
    -2
100
AcDbBlockReference
  2
_OPEN30
 10
13.93787397143605
 20
29.88344789542379
 30
0.0
 41
2.0
 42
2.0
 43
2.0
 50
90.0
  0
INSERT
  5
3AF
330
3AA
100
AcDbEntity
  8
SUNPO
  6
Continuous
 62
     0
370
    -2
100
AcDbBlockReference
  2
_OPEN30
 10
13.93787397143604
 20
1.783447898233814
 30
0.0
 41
2.0
 42
2.0
 43
2.0
 50
270.0
  0
MTEXT
  5
3B0
330
3AA
100
AcDbEntity
  8
SUNPO
  6
Continuous
 62
     0
100
AcDbMText
 10
12.18787397143605
 20
15.83344789682881
 30
0.0
 40
2.5
 41
0.0
 71
     5
 72
     1
  1
\A1;843
 11
0.0000000000000001
 21
1.0
 31
0.0
 73
     1
 44
1.0
1001
ACAD
1000
MTEXTBEGIN
1070
    73
1070
     1
1070
    44
1040
1.0
1070
    74
1070
     0
1000
MTEXTEND
  0
POINT
  5
3B1
330
3AA
100
AcDbEntity
  8
DEFPOINTS
  6
Continuous
 62
     0
100
AcDbPoint
 10
5.937873971436061
 20
29.8834478954238
 30
0.0
  0
POINT
  5
3B2
330
3AA
100
AcDbEntity
  8
DEFPOINTS
  6
Continuous
 62
     0
100
AcDbPoint
 10
5.937873971436061
 20
1.783447898233816
 30
0.0
  0
POINT
  5
3B3
330
3AA
100
AcDbEntity
  8
DEFPOINTS
  6
Continuous
 62
     0
100
AcDbPoint
 10
13.93787397143604
 20
1.783447898233814
 30
0.0
  0
ENDBLK
  5
3B5
330
3AA
100
AcDbEntity
  8
0
100
AcDbBlockEnd
  0
BLOCK
  5
3C0
330
3B6
100
AcDbEntity
  8
0
100
AcDbBlockBegin
  2
*D6
 70
     1
 10
0.0
 20
0.0
 30
0.0
  3
*D6
  1

  0
LINE
  5
3B7
330
3B6
100
AcDbEntity
  8
SUNPO
  6
Continuous
 62
     0
370
    -2
100
AcDbLine
 10
-40.69804302619054
 20
31.87902117466659
 30
0.0
 11
-40.69804302619054
 21
39.87902117466658
 31
0.0
  0
LINE
  5
3B8
330
3B6
100
AcDbEntity
  8
SUNPO
  6
Continuous
 62
     0
370
    -2
100
AcDbLine
 10
5.935290302479444
 20
31.87902117466659
 30
0.0
 11
5.935290302479445
 21
39.87902117466658
 31
0.0
  0
LINE
  5
3B9
330
3B6
100
AcDbEntity
  8
SUNPO
  6
Continuous
 62
     0
370
    -2
100
AcDbLine
 10
-38.69804302619055
 20
37.87902117466658
 30
0.0
 11
3.935290302479445
 21
37.87902117466658
 31
0.0
  0
INSERT
  5
3BA
330
3B6
100
AcDbEntity
  8
SUNPO
  6
Continuous
 62
     0
370
    -2
100
AcDbBlockReference
  2
_OPEN30
 10
-40.69804302619054
 20
37.87902117466658
 30
0.0
 41
2.0
 42
2.0
 43
2.0
 50
180.0
  0
INSERT
  5
3BB
330
3B6
100
AcDbEntity
  8
SUNPO
  6
Continuous
 62
     0
370
    -2
100
AcDbBlockReference
  2
_OPEN30
 10
5.935290302479445
 20
37.87902117466658
 30
0.0
 41
2.0
 42
2.0
 43
2.0
  0
MTEXT
  5
3BC
330
3B6
100
AcDbEntity
  8
SUNPO
  6
Continuous
 62
     0
100
AcDbMText
 10
-17.38137636185555
 20
39.62902117466658
 30
0.0
 40
2.5
 41
0.0
 71
     5
 72
     1
  1
\A1;1399
 73
     1
 44
1.0
1001
ACAD
1000
MTEXTBEGIN
1070
    73
1070
     1
1070
    44
1040
1.0
1070
    74
1070
     0
1000
MTEXTEND
  0
POINT
  5
3BD
330
3B6
100
AcDbEntity
  8
DEFPOINTS
  6
Continuous
 62
     0
100
AcDbPoint
 10
-40.69804302619054
 20
29.87902117466659
 30
0.0
  0
POINT
  5
3BE
330
3B6
100
AcDbEntity
  8
DEFPOINTS
  6
Continuous
 62
     0
100
AcDbPoint
 10
5.935290302479444
 20
29.87902117466659
 30
0.0
  0
POINT
  5
3BF
330
3B6
100
AcDbEntity
  8
DEFPOINTS
  6
Continuous
 62
     0
100
AcDbPoint
 10
5.935290302479445
 20
37.87902117466658
 30
0.0
  0
ENDBLK
  5
3C1
330
3B6
100
AcDbEntity
  8
0
100
AcDbBlockEnd
  0
BLOCK
  5
3CC
330
3C2
100
AcDbEntity
  8
0
100
AcDbBlockBegin
  2
*D7
 70
     1
 10
0.0
 20
0.0
 30
0.0
  3
*D7
  1

  0
LINE
  5
3C3
330
3C2
100
AcDbEntity
  8
SUNPO
 62
     0
370
    -2
100
AcDbLine
 10
-30.29804302723061
 20
-0.2998854350944384
 30
0.0
 11
-30.29804302723061
 21
-8.299885435094438
 31
0.0
  0
LINE
  5
3C4
330
3C2
100
AcDbEntity
  8
SUNPO
 62
     0
370
    -2
100
AcDbLine
 10
-4.464709696480611
 20
-0.2998854350944384
 30
0.0
 11
-4.464709696480611
 21
-8.299885435094438
 31
0.0
  0
LINE
  5
3C5
330
3C2
100
AcDbEntity
  8
SUNPO
 62
     0
370
    -2
100
AcDbLine
 10
-28.29804302723061
 20
-6.299885435094438
 30
0.0
 11
-6.464709696480611
 21
-6.299885435094438
 31
0.0
  0
INSERT
  5
3C6
330
3C2
100
AcDbEntity
  8
SUNPO
 62
     0
370
    -2
100
AcDbBlockReference
  2
_OPEN30
 10
-30.29804302723061
 20
-6.299885435094438
 30
0.0
 41
2.0
 42
2.0
 43
2.0
 50
180.0
  0
INSERT
  5
3C7
330
3C2
100
AcDbEntity
  8
SUNPO
 62
     0
370
    -2
100
AcDbBlockReference
  2
_OPEN30
 10
-4.464709696480611
 20
-6.299885435094438
 30
0.0
 41
2.0
 42
2.0
 43
2.0
  0
MTEXT
  5
3C8
330
3C2
100
AcDbEntity
  8
SUNPO
 62
     0
100
AcDbMText
 10
-17.38137636185561
 20
-4.549885435094438
 30
0.0
 40
2.5
 41
0.0
 71
     5
 72
     1
  1
\A1;775
 73
     1
 44
1.0
1001
ACAD
1000
MTEXTBEGIN
1070
    73
1070
     1
1070
    44
1040
1.0
1070
    74
1070
     0
1000
MTEXTEND
  0
POINT
  5
3C9
330
3C2
100
AcDbEntity
  8
DEFPOINTS
 62
     0
100
AcDbPoint
 10
-30.29804302723061
 20
1.700114564905561
 30
0.0
  0
POINT
  5
3CA
330
3C2
100
AcDbEntity
  8
DEFPOINTS
 62
     0
100
AcDbPoint
 10
-4.464709696480611
 20
1.700114564905561
 30
0.0
  0
POINT
  5
3CB
330
3C2
100
AcDbEntity
  8
DEFPOINTS
 62
     0
100
AcDbPoint
 10
-4.464709696480611
 20
-6.299885435094438
 30
0.0
  0
ENDBLK
  5
3CD
330
3C2
100
AcDbEntity
  8
0
100
AcDbBlockEnd
  0
BLOCK
  5
3D8
330
3CE
100
AcDbEntity
  8
0
100
AcDbBlockBegin
  2
*D8
 70
     1
 10
0.0
 20
0.0
 30
0.0
  3
*D8
  1

  0
LINE
  5
3CF
330
3CE
100
AcDbEntity
  8
SUNPO
 62
     0
370
    -2
100
AcDbLine
 10
-43.10646861786112
 20
4.750114564600594
 30
0.0
 11
-51.10646861786113
 21
4.750114564600597
 31
0.0
  0
LINE
  5
3D0
330
3CE
100
AcDbEntity
  8
SUNPO
 62
     0
370
    -2
100
AcDbLine
 10
-43.10646861786112
 20
21.95011456288063
 30
0.0
 11
-51.10646861786112
 21
21.95011456288063
 31
0.0
  0
LINE
  5
3D1
330
3CE
100
AcDbEntity
  8
SUNPO
 62
     0
370
    -2
100
AcDbLine
 10
-49.10646861786113
 20
6.750114564600596
 30
0.0
 11
-49.10646861786112
 21
19.95011456288063
 31
0.0
  0
INSERT
  5
3D2
330
3CE
100
AcDbEntity
  8
SUNPO
 62
     0
370
    -2
100
AcDbBlockReference
  2
_OPEN30
 10
-49.10646861786113
 20
4.750114564600596
 30
0.0
 41
2.0
 42
2.0
 43
2.0
 50
270.0
  0
INSERT
  5
3D3
330
3CE
100
AcDbEntity
  8
SUNPO
 62
     0
370
    -2
100
AcDbBlockReference
  2
_OPEN30
 10
-49.10646861786112
 20
21.95011456288063
 30
0.0
 41
2.0
 42
2.0
 43
2.0
 50
90.0
  0
MTEXT
  5
3D4
330
3CE
100
AcDbEntity
  8
SUNPO
 62
     0
100
AcDbMText
 10
-50.85646861786113
 20
13.3501145637406
 30
0.0
 40
2.5
 41
0.0
 71
     5
 72
     1
  1
\A1;516
 11
0.0000000000000001
 21
1.0
 31
0.0
 73
     1
 44
1.0
1001
ACAD
1000
MTEXTBEGIN
1070
    73
1070
     1
1070
    44
1040
1.0
1070
    74
1070
     0
1000
MTEXTEND
  0
POINT
  5
3D5
330
3CE
100
AcDbEntity
  8
DEFPOINTS
 62
     0
100
AcDbPoint
 10
-41.10646861786112
 20
4.750114564600593
 30
0.0
  0
POINT
  5
3D6
330
3CE
100
AcDbEntity
  8
DEFPOINTS
 62
     0
100
AcDbPoint
 10
-41.10646861786112
 20
21.95011456288063
 30
0.0
  0
POINT
  5
3D7
330
3CE
100
AcDbEntity
  8
DEFPOINTS
 62
     0
100
AcDbPoint
 10
-49.10646861786112
 20
21.95011456288063
 30
0.0
  0
ENDBLK
  5
3D9
330
3CE
100
AcDbEntity
  8
0
100
AcDbBlockEnd
  0
ENDSEC
  0
SECTION
  2
ENTITIES
  0
TEXT
  5
33
330
2
100
AcDbEntity
  8
TOUROKU
100
AcDbText
 10
40.92907671063938
 20
1.17802346230826
 30
0.0
 40
1.5
  1
Ｓ＝１／３０
 41
0.7
 72
     2
 11
47.99907671063937
 21
1.17802346230826
 31
0.0
100
AcDbText
  0
MTEXT
  5
35
330
2
100
AcDbEntity
  8
SUNPO
  6
Continuous
100
AcDbMText
 10
42.23000593726659
 20
39.62902117466668
 30
0.0
 40
2.5
 41
0.0
 71
     5
 72
     1
  1
27.4
 73
     1
 44
1.0
1001
ACAD
1000
MTEXTBEGIN
1070
    73
1070
     1
1070
    44
1040
1.0
1070
    74
1070
     0
1000
MTEXTEND
  0
LINE
  5
37
330
2
100
AcDbEntity
  8
SUNPO
100
AcDbLine
 10
33.79322565406527
 20
37.65574969679896
 30
0.0
 11
34.09686917634882
 21
37.65574969679896
 31
0.0
  0
LINE
  5
38
330
2
100
AcDbEntity
  8
SUNPO
100
AcDbLine
 10
33.73797980561724
 20
37.70574969679392
 30
0.0
 11
34.15211502479682
 21
37.70574969679392
 31
0.0
  0
LINE
  5
39
330
2
100
AcDbEntity
  8
SUNPO
100
AcDbLine
 10
33.70483054917289
 20
37.75574969678894
 30
0.0
 11
34.1852642812412
 21
37.75574969678894
 31
0.0
  0
LINE
  5
3A
330
2
100
AcDbEntity
  8
SUNPO
100
AcDbLine
 10
33.68517958242603
 20
37.80574969678395
 30
0.0
 11
34.20491524798807
 21
37.80574969678395
 31
0.0
  0
LINE
  5
3B
330
2
100
AcDbEntity
  8
SUNPO
100
AcDbLine
 10
33.68617923662684
 20
37.95574969676892
 30
0.0
 11
34.2039155937872
 21
37.95574969676892
 31
0.0
  0
LINE
  5
3C
330
2
100
AcDbEntity
  8
SUNPO
100
AcDbLine
 10
33.70663625424251
 20
38.00574969676396
 30
0.0
 11
34.18345857617158
 21
38.00574969676396
 31
0.0
  0
LINE
  5
3D
330
2
100
AcDbEntity
  8
SUNPO
100
AcDbLine
 10
33.7409223813075
 20
38.05574969675894
 30
0.0
 11
34.14917244910659
 21
38.05574969675894
 31
0.0
  0
LINE
  5
3E
330
2
100
AcDbEntity
  8
SUNPO
100
AcDbLine
 10
33.79843848895241
 20
38.10574969675393
 30
0.0
 11
34.09165634146163
 21
38.10574969675393
 31
0.0
  0
LINE
  5
3F
330
2
100
AcDbEntity
  8
SUNPO
100
AcDbLine
 10
33.67637366120161
 20
37.90574969677397
 30
0.0
 11
34.21372116921249
 21
37.90574969677397
 31
0.0
  0
LINE
  5
40
330
2
100
AcDbEntity
  8
SUNPO
100
AcDbLine
 10
33.67605217676901
 20
37.85574969677893
 30
0.0
 11
34.2140426536451
 21
37.85574969677893
 31
0.0
  0
CIRCLE
  5
41
330
2
100
AcDbEntity
  8
SUNPO
100
AcDbCircle
 10
33.94504741520704
 20
37.87902117466663
 30
0.0
 40
0.269999999973
  0
LINE
  5
42
330
2
100
AcDbEntity
  8
SUNPO
  6
Continuous
100
AcDbLine
 10
34.85671086876201
 20
31.87902117466669
 30
0.0
 11
34.85671086876201
 21
39.87902117466667
 31
0.0
  0
INSERT
  5
43
330
2
100
AcDbEntity
  8
SUNPO
  6
Continuous
100
AcDbBlockReference
  2
_OPEN30
 10
34.85671086876201
 20
37.87902117466668
 30
0.0
 41
2.0
 42
2.0
 43
2.0
 50
180.0
  0
MTEXT
  5
44
330
2
100
AcDbEntity
  8
SUNPO
  6
Continuous
100
AcDbMText
 10
26.14191196340734
 20
39.62902117466668
 30
0.0
 40
2.5
 41
0.0
 71
     5
 72
     1
  1
\A1;99
 73
     1
 44
1.0
1001
ACAD
1000
MTEXTBEGIN
1070
    73
1070
     1
1070
    44
1040
1.0
1070
    74
1070
     0
1000
MTEXTEND
  0
INSERT
  5
45
330
2
100
AcDbEntity
  8
SUNPO
  6
Continuous
100
AcDbBlockReference
  2
_OPEN30
 10
30.64504741553702
 20
37.87902117466668
 30
0.0
 41
2.0
 42
2.0
 43
2.0
  0
LINE
  5
46
330
2
100
AcDbEntity
  8
SUNPO
  6
Continuous
100
AcDbLine
 10
30.64504741553702
 20
37.87902117466668
 30
0.0
 11
34.85671086876199
 21
37.87902117466668
 31
0.0
  0
LINE
  5
47
330
2
100
AcDbEntity
  8
SUNPO
  6
Continuous
100
AcDbLine
 10
35.94504741520706
 20
37.87902117466668
 30
0.0
 11
47.28843032615666
 21
37.87902117466668
 31
0.0
  0
LINE
  5
48
330
2
100
AcDbEntity
  8
SUNPO
  6
Continuous
100
AcDbLine
 10
28.64504741553702
 20
37.87902117466668
 30
0.0
 11
23.24179703808483
 21
37.87902117466668
 31
0.0
  0
LINE
  5
49
330
2
100
AcDbEntity
  8
SUNPO
  6
Continuous
100
AcDbLine
 10
33.94504741520706
 20
31.87902117466669
 30
0.0
 11
33.94504741520706
 21
39.87902117466667
 31
0.0
  0
LINE
  5
4A
330
2
100
AcDbEntity
  8
SUNPO
  6
Continuous
100
AcDbLine
 10
30.64504741553702
 20
31.87902117466672
 30
0.0
 11
30.64504741553702
 21
39.87902117466667
 31
0.0
  0
TEXT
  5
4B
330
2
100
AcDbEntity
  8
MOJI1
100
AcDbText
 10
-21.67921332962226
 20
-41.88457063137912
 30
0.0
 40
3.0
  1
３０７２階調（相当）
100
AcDbText
  0
TEXT
  5
4D
330
2
100
AcDbEntity
  8
MOJI1
100
AcDbText
 10
-21.67921332962226
 20
-36.88457063137912
 30
0.0
 40
3.0
  1
４０００：１（ＭＡＸ　１００００：１）
100
AcDbText
  0
TEXT
  5
4E
330
2
100
AcDbEntity
  8
MOJI1
100
AcDbText
 10
-60.67921332962225
 20
-36.88457063137912
 30
0.0
 40
3.0
  1
コントラスト
100
AcDbText
  0
TEXT
  5
4F
330
2
100
AcDbEntity
  8
MOJI1
100
AcDbText
 10
-60.67921332962225
 20
-41.88457063137912
 30
0.0
 40
3.0
  1
階調数
100
AcDbText
  0
LINE
  5
50
330
2
100
AcDbEntity
  8
WAKU
 62
     1
100
AcDbLine
 10
-63.17921332962225
 20
-37.88457063137912
 30
0.0
 11
61.82078667037751
 21
-37.88457063137912
 31
0.0
  0
LINE
  5
52
330
2
100
AcDbEntity
  8
WAKU
 62
     1
100
AcDbLine
 10
-63.17921332962225
 20
-42.88457063137911
 30
0.0
 11
61.82078667037751
 21
-42.88457063137911
 31
0.0
  0
ARC
  5
53
330
2
100
AcDbEntity
  8
GAIKEI
  6
Continuous
 62
     1
100
AcDbCircle
 10
34.15337753549883
 20
8.766781230767492
 30
0.0
 40
0.0333333333301515
100
AcDbArc
 50
0.0
 51
90.0
  0
ARC
  5
55
330
2
100
AcDbEntity
  8
GAIKEI
  6
Continuous
 62
     1
100
AcDbCircle
 10
34.15337753549883
 20
8.100114564167881
 30
0.0
 40
0.0333333333301515
100
AcDbArc
 50
270.0
 51
0.0
  0
LINE
  5
56
330
2
100
AcDbEntity
  8
GAIKEI
  6
Continuous
 62
     1
100
AcDbLine
 10
34.18671086882895
 20
8.650114564112669
 30
0.0
 11
34.19004420216203
 21
8.650114564112669
 31
0.0
  0
LINE
  5
57
330
2
100
AcDbEntity
  8
GAIKEI
  6
Continuous
 62
     1
100
AcDbLine
 10
34.19004420216203
 20
8.216781230822689
 30
0.0
 11
34.18671086882895
 21
8.216781230822689
 31
0.0
  0
LINE
  5
58
330
2
100
AcDbEntity
  8
GAIKEI
  6
Continuous
 62
     1
100
AcDbLine
 10
34.18671086882895
 20
8.433447897467686
 30
0.0
 11
34.18671086882895
 21
8.766781230767492
 31
0.0
  0
LINE
  5
59
330
2
100
AcDbEntity
  8
GAIKEI
  6
Continuous
 62
     1
100
AcDbLine
 10
34.18671086882895
 20
8.100114564167881
 30
0.0
 11
34.18671086882895
 21
8.433447897467686
 31
0.0
  0
LINE
  5
5A
330
2
100
AcDbEntity
  8
GAIKEI
  6
NON_PLOTING
 62
     1
100
AcDbLine
 10
34.15337753549883
 20
8.433447897467686
 30
0.0
 11
34.15337753549883
 21
8.800114564097697
 31
0.0
  0
LINE
  5
5C
330
2
100
AcDbEntity
  8
GAIKEI
  6
Continuous
 62
     1
100
AcDbLine
 10
33.9433807485413
 20
8.800114564097697
 30
0.0
 11
34.15337753549883
 21
8.800114564097697
 31
0.0
  0
LINE
  5
5D
330
2
100
AcDbEntity
  8
GAIKEI
  6
Continuous
 62
     1
100
AcDbLine
 10
34.15337753549883
 20
8.066781230837676
 30
0.0
 11
33.9433807485413
 21
8.066781230837676
 31
0.0
  0
LINE
  5
5E
330
2
100
AcDbEntity
  8
GAIKEI
  6
NON_PLOTING
 62
     1
100
AcDbLine
 10
34.15337753549883
 20
8.066781230837676
 30
0.0
 11
34.15337753549883
 21
8.433447897467686
 31
0.0
  0
ARC
  5
5F
330
2
100
AcDbEntity
  8
GAIKEI
  6
Continuous
 62
     1
100
AcDbCircle
 10
34.15337753549883
 20
19.4334478963675
 30
0.0
 40
0.0333333333301515
100
AcDbArc
 50
0.0
 51
90.0
  0
ARC
  5
60
330
2
100
AcDbEntity
  8
GAIKEI
  6
Continuous
 62
     1
100
AcDbCircle
 10
34.15337753549883
 20
18.76678122976787
 30
0.0
 40
0.0333333333301515
100
AcDbArc
 50
270.0
 51
0.0
  0
LINE
  5
61
330
2
100
AcDbEntity
  8
GAIKEI
  6
Continuous
 62
     1
100
AcDbLine
 10
34.18671086882895
 20
19.31678122971267
 30
0.0
 11
34.19004420216203
 21
19.31678122971267
 31
0.0
  0
LINE
  5
62
330
2
100
AcDbEntity
  8
GAIKEI
  6
Continuous
 62
     1
100
AcDbLine
 10
34.19004420216203
 20
18.88344789642269
 30
0.0
 11
34.18671086882895
 21
18.88344789642269
 31
0.0
  0
LINE
  5
63
330
2
100
AcDbEntity
  8
GAIKEI
  6
Continuous
 62
     1
100
AcDbLine
 10
34.18671086882895
 20
19.10011456306768
 30
0.0
 11
34.18671086882895
 21
19.4334478963675
 31
0.0
  0
LINE
  5
64
330
2
100
AcDbEntity
  8
GAIKEI
  6
Continuous
 62
     1
100
AcDbLine
 10
34.18671086882895
 20
18.76678122976787
 30
0.0
 11
34.18671086882895
 21
19.10011456306768
 31
0.0
  0
LINE
  5
65
330
2
100
AcDbEntity
  8
GAIKEI
  6
NON_PLOTING
 62
     1
100
AcDbLine
 10
34.15337753549883
 20
19.10011456306768
 30
0.0
 11
34.15337753549883
 21
19.46678122969769
 31
0.0
  0
LINE
  5
66
330
2
100
AcDbEntity
  8
GAIKEI
  6
Continuous
 62
     1
100
AcDbLine
 10
33.9433807485413
 20
19.46678122969769
 30
0.0
 11
34.15337753549883
 21
19.46678122969769
 31
0.0
  0
LINE
  5
67
330
2
100
AcDbEntity
  8
GAIKEI
  6
Continuous
 62
     1
100
AcDbLine
 10
34.15337753549883
 20
18.73344789643766
 30
0.0
 11
33.9433807485413
 21
18.73344789643766
 31
0.0
  0
LINE
  5
68
330
2
100
AcDbEntity
  8
GAIKEI
  6
NON_PLOTING
 62
     1
100
AcDbLine
 10
34.15337753549883
 20
18.73344789643766
 30
0.0
 11
34.15337753549883
 21
19.10011456306768
 31
0.0
  0
TEXT
  5
69
330
2
100
AcDbEntity
  8
MOJI1
100
AcDbText
 10
-21.67921332962226
 20
-56.88457063137912
 30
0.0
 40
3.0
  1
外部スピーカ入力、シリアル
100
AcDbText
  0
TEXT
  5
6A
330
2
100
AcDbEntity
  8
MOJI1
100
AcDbText
 10
-21.67921332962226
 20
-21.88457063137912
 30
0.0
 40
3.0
  1
６３０Ｗ
100
AcDbText
  0
TEXT
  5
6B
330
2
100
AcDbEntity
  8
MOJI1
100
AcDbText
 10
-21.67921332962226
 20
-26.88457063137912
 30
0.0
 40
3.0
  1
５８ｖ型（１４８ｃｍ）／１６：９
100
AcDbText
  0
TEXT
  5
6C
330
2
100
AcDbEntity
  8
MOJI1
100
AcDbText
 10
-21.67921332962226
 20
-46.88457063137912
 30
0.0
 40
3.0
  1
５４．０Ｋｇ
100
AcDbText
  0
LINE
  5
6D
330
2
100
AcDbEntity
  8
WAKU
 62
     1
100
AcDbLine
 10
-63.17921332962225
 20
-22.88457063137912
 30
0.0
 11
61.82078667037751
 21
-22.88457063137912
 31
0.0
  0
LINE
  5
6E
330
2
100
AcDbEntity
  8
WAKU
 62
     1
100
AcDbLine
 10
-63.17921332962225
 20
-32.88457063137912
 30
0.0
 11
61.82078667037751
 21
-32.88457063137912
 31
0.0
  0
LINE
  5
6F
330
2
100
AcDbEntity
  8
WAKU
 62
     4
100
AcDbLine
 10
-63.17921332962225
 20
-12.88457063137912
 30
0.0
 11
61.82078667037751
 21
-12.88457063137912
 31
0.0
  0
LINE
  5
70
330
2
100
AcDbEntity
  8
WAKU
 62
     1
100
AcDbLine
 10
-63.17921332962225
 20
-17.88457063137912
 30
0.0
 11
61.82078667037751
 21
-17.88457063137912
 31
0.0
  0
LINE
  5
71
330
2
100
AcDbEntity
  8
WAKU
 62
     1
100
AcDbLine
 10
-63.17921332962225
 20
-27.88457063137912
 30
0.0
 11
61.82078667037751
 21
-27.88457063137912
 31
0.0
  0
LINE
  5
72
330
2
100
AcDbEntity
  8
WAKU
 62
     1
100
AcDbLine
 10
-63.17921332962225
 20
-47.88457063137911
 30
0.0
 11
61.82078667037751
 21
-47.88457063137911
 31
0.0
  0
LINE
  5
73
330
2
100
AcDbEntity
  8
WAKU
 62
     1
100
AcDbLine
 10
-63.17921332962225
 20
-52.88457063137911
 30
0.0
 11
61.82078667037751
 21
-52.88457063137911
 31
0.0
  0
LINE
  5
74
330
2
100
AcDbEntity
  8
WAKU
 62
     4
100
AcDbLine
 10
61.82078667037751
 20
-57.88457063137911
 30
0.0
 11
-63.17921332962225
 21
-57.88457063137911
 31
0.0
  0
TEXT
  5
75
330
2
100
AcDbEntity
  8
MOJI1
100
AcDbText
 10
-21.67921332962226
 20
-31.88457063137912
 30
0.0
 40
3.0
  1
１３６６×７６８画素
100
AcDbText
  0
TEXT
  5
76
330
2
100
AcDbEntity
  8
MOJI1
100
AcDbText
 10
-21.67921332962226
 20
-51.88457063137912
 30
0.0
 40
3.0
  1
ビデオ入力、Ｓ映像入力、ＰＣ入力
100
AcDbText
  0
TEXT
  5
77
330
2
100
AcDbEntity
  8
MOJI1
100
AcDbText
 10
-21.67921332962226
 20
-16.88457063137912
 30
0.0
 40
3.0
  1
ＡＣ１００Ｖ　５０Ｈｚ／６０Ｈｚ
100
AcDbText
  0
LINE
  5
78
330
2
100
AcDbEntity
  8
WAKU
 62
     4
100
AcDbLine
 10
-23.17921332962249
 20
-12.88457063137912
 30
0.0
 11
-23.17921332962249
 21
-57.88457063137911
 31
0.0
  0
LINE
  5
79
330
2
100
AcDbEntity
  8
WAKU
 62
     4
100
AcDbLine
 10
-63.17921332962249
 20
-12.88457063137912
 30
0.0
 11
-63.17921332962225
 21
-57.88457063137911
 31
0.0
  0
TEXT
  5
7A
330
2
100
AcDbEntity
  8
MOJI1
100
AcDbText
 10
-60.67921332962225
 20
-26.88457063137912
 30
0.0
 40
3.0
  1
画面サイズ
100
AcDbText
  0
TEXT
  5
7B
330
2
100
AcDbEntity
  8
MOJI1
100
AcDbText
 10
-60.67921332962225
 20
-46.88457063137912
 30
0.0
 40
3.0
  1
重　量
100
AcDbText
  0
TEXT
  5
7C
330
2
100
AcDbEntity
  8
MOJI1
100
AcDbText
 10
-60.67921332962225
 20
-51.88457063137912
 30
0.0
 40
3.0
  1
入出力端子
100
AcDbText
  0
TEXT
  5
7D
330
2
100
AcDbEntity
  8
MOJI1
100
AcDbText
 10
-60.67921332962225
 20
-21.88457063137912
 30
0.0
 40
3.0
  1
消費電力
100
AcDbText
  0
TEXT
  5
7E
330
2
100
AcDbEntity
  8
MOJI1
100
AcDbText
 10
-60.67921332962225
 20
-16.88457063137912
 30
0.0
 40
3.0
  1
電  源
100
AcDbText
  0
TEXT
  5
7F
330
2
100
AcDbEntity
  8
MOJI1
100
AcDbText
 10
-60.67921332962225
 20
-31.88457063137912
 30
0.0
 40
3.0
  1
解像度
100
AcDbText
  0
LINE
  5
80
330
2
100
AcDbEntity
  8
WAKU
 62
     4
100
AcDbLine
 10
61.82078667037751
 20
-12.88457063137912
 30
0.0
 11
61.82078667037751
 21
-57.88457063137911
 31
0.0
  0
LINE
  5
81
330
2
100
AcDbEntity
  8
GAIKEI
  6
HIDDEN2
 62
     1
100
AcDbLine
 10
-5.273043029733173
 20
20.18344789639065
 30
0.0
 11
-5.273043029733173
 21
20.68416972967384
 31
0.0
  0
LINE
  5
83
330
2
100
AcDbEntity
  8
GAIKEI
  6
HIDDEN2
 62
     1
100
AcDbLine
 10
-4.464709696480611
 20
20.11678122973064
 30
0.0
 11
-4.464709696480611
 21
21.95011456288063
 31
0.0
  0
LINE
  5
84
330
2
100
AcDbEntity
  8
GAIKEI
  6
HIDDEN2
 62
     1
100
AcDbLine
 10
-5.364709696390633
 20
20.10011456306564
 30
0.0
 11
-5.298043029730607
 21
20.10011456306564
 31
0.0
  0
LINE
  5
85
330
2
100
AcDbEntity
  8
GAIKEI
  6
HIDDEN2
 62
     1
100
AcDbLine
 10
-5.44804302971562
 20
20.03344789640563
 30
0.0
 11
-5.44804302971562
 21
20.10011456306564
 31
0.0
  0
LINE
  5
86
330
2
100
AcDbEntity
  8
GAIKEI
  6
HIDDEN2
 62
     1
100
AcDbLine
 10
-5.44804302971562
 20
20.03344789640563
 30
0.0
 11
-5.381376363055608
 21
20.03344789640563
 31
0.0
  0
POINT
  5
87
330
2
100
AcDbEntity
  8
GAIKEI
  6
HIDDEN2
 62
     1
100
AcDbPoint
 10
-5.731376363020672
 20
20.03344789640563
 30
0.0
  0
ARC
  5
88
330
2
100
AcDbEntity
  8
GAIKEI
  6
HIDDEN2
 62
     1
100
AcDbCircle
 10
-5.798043029680613
 20
20.0641102297359
 30
0.0
 40
0.06666666666
100
AcDbArc
 50
310.6012950000001
 51
0.0
  0
LINE
  5
89
330
2
100
AcDbEntity
  8
GAIKEI
  6
HIDDEN2
 62
     1
100
AcDbLine
 10
-5.731376363020672
 20
20.10011456306564
 30
0.0
 11
-5.731376363020672
 21
20.0641102297359
 31
0.0
  0
LINE
  5
8A
330
2
100
AcDbEntity
  8
GAIKEI
  6
HIDDEN2
 62
     1
100
AcDbLine
 10
-5.714709696355612
 20
20.11678122973064
 30
0.0
 11
-5.714709696355612
 21
20.18344789639065
 31
0.0
  0
LINE
  5
8B
330
2
100
AcDbEntity
  8
GAIKEI
  6
HIDDEN2
 62
     1
100
AcDbLine
 10
-5.381376363055608
 20
20.11678122973064
 30
0.0
 11
-5.381376363055608
 21
20.03344789640563
 31
0.0
  0
LINE
  5
8C
330
2
100
AcDbEntity
  8
GAIKEI
  6
HIDDEN2
 62
     1
100
AcDbLine
 10
-5.714709696355612
 20
20.18344789639065
 30
0.0
 11
-4.464709696480611
 21
20.18344789639065
 31
0.0
  0
LINE
  5
8D
330
2
100
AcDbEntity
  8
GAIKEI
  6
HIDDEN2
 62
     1
100
AcDbLine
 10
-5.298043029730607
 20
19.96678122974561
 30
0.0
 11
-5.381376363055608
 21
19.96678122974561
 31
0.0
  0
LINE
  5
8E
330
2
100
AcDbEntity
  8
GAIKEI
  6
HIDDEN2
 62
     1
100
AcDbLine
 10
-5.364709696390633
 20
20.10011456306564
 30
0.0
 11
-5.364709696390633
 21
19.96678122974561
 31
0.0
  0
ARC
  5
8F
330
2
100
AcDbEntity
  8
GAIKEI
  6
HIDDEN2
 62
     1
100
AcDbCircle
 10
-5.381376363055608
 20
20.03344789640563
 30
0.0
 40
0.06666666666
100
AcDbArc
 50
180.0
 51
270.0
  0
LINE
  5
90
330
2
100
AcDbEntity
  8
GAIKEI
  6
HIDDEN2
 62
     1
100
AcDbLine
 10
-5.754657029684977
 20
20.01349322974093
 30
0.0
 11
-6.023306862991432
 21
19.78322189643062
 31
0.0
  0
ARC
  5
91
330
2
100
AcDbEntity
  8
GAIKEI
  6
HIDDEN2
 62
     1
100
AcDbCircle
 10
-4.964709696430617
 20
21.35011456294065
 30
0.0
 40
0.116666666655
100
AcDbArc
 50
270.0
 51
90.0
  0
ARC
  5
92
330
2
100
AcDbEntity
  8
GAIKEI
  6
HIDDEN2
 62
     1
100
AcDbCircle
 10
-4.964709696430617
 20
21.35011456294065
 30
0.0
 40
0.3333333333
100
AcDbArc
 50
270.0
 51
90.0
  0
LINE
  5
93
330
2
100
AcDbEntity
  8
GAIKEI
  6
HIDDEN2
 62
     1
100
AcDbLine
 10
-5.378043029722689
 20
20.79344789632962
 30
0.0
 11
-5.378043029722689
 21
20.69344789633964
 31
0.0
  0
LINE
  5
94
330
2
100
AcDbEntity
  8
GAIKEI
  6
HIDDEN2
 62
     1
100
AcDbLine
 10
-5.381376363055608
 20
20.76678122966564
 30
0.0
 11
-5.381376363055608
 21
20.69344789633964
 31
0.0
  0
LINE
  5
95
330
2
100
AcDbEntity
  8
GAIKEI
  6
HIDDEN2
 62
     1
100
AcDbLine
 10
-5.884709696338688
 20
20.79344789632962
 30
0.0
 11
-5.884709696338688
 21
20.69344789633964
 31
0.0
  0
LINE
  5
96
330
2
100
AcDbEntity
  8
GAIKEI
  6
HIDDEN2
 62
     1
100
AcDbLine
 10
-5.881376363005614
 20
20.76678122966564
 30
0.0
 11
-5.881376363005614
 21
20.69344789633964
 31
0.0
  0
LINE
  5
97
330
2
100
AcDbEntity
  8
GAIKEI
  6
HIDDEN2
 62
     1
100
AcDbLine
 10
-5.378043029722689
 20
20.79344789632962
 30
0.0
 11
-5.884709696338688
 21
20.79344789632962
 31
0.0
  0
LINE
  5
98
330
2
100
AcDbEntity
  8
GAIKEI
  6
HIDDEN2
 62
     1
100
AcDbLine
 10
-5.378043029722689
 20
20.69344789633964
 30
0.0
 11
-5.884709696338688
 21
20.69344789633964
 31
0.0
  0
LINE
  5
99
330
2
100
AcDbEntity
  8
GAIKEI
  6
HIDDEN2
 62
     1
100
AcDbLine
 10
-5.381376363055608
 20
20.76678122966564
 30
0.0
 11
-5.881376363005614
 21
20.76678122966564
 31
0.0
  0
LINE
  5
9A
330
2
100
AcDbEntity
  8
GAIKEI
  6
HIDDEN2
 62
     1
100
AcDbLine
 10
-5.381376363055608
 20
20.70011456300563
 30
0.0
 11
-5.881376363005614
 21
20.70011456300563
 31
0.0
  0
ARC
  5
9B
330
2
100
AcDbEntity
  8
GAIKEI
  6
HIDDEN2
 62
     1
100
AcDbCircle
 10
-4.939709696433169
 20
20.68416972967384
 30
0.0
 40
0.3333333333
100
AcDbArc
 50
94.30122199999924
 51
180.0
  0
ARC
  5
9C
330
2
100
AcDbEntity
  8
GAIKEI
  6
HIDDEN2
 62
     1
100
AcDbCircle
 10
-7.823043029478128
 20
20.68344789634064
 30
0.0
 40
0.3333333333
100
AcDbArc
 50
0.0
 51
90.0
  0
ARC
  5
9D
330
2
100
AcDbEntity
  8
GAIKEI
  6
HIDDEN2
 62
     1
100
AcDbCircle
 10
-9.048043029355611
 20
21.35011456294065
 30
0.0
 40
0.116666666655
100
AcDbArc
 50
270.0
 51
90.0
  0
LINE
  5
9E
330
2
100
AcDbEntity
  8
GAIKEI
  6
HIDDEN2
 62
     1
100
AcDbLine
 10
-7.489709696178124
 20
20.18344789639065
 30
0.0
 11
-7.489709696178124
 21
20.68344789634064
 31
0.0
  0
LINE
  5
9F
330
2
100
AcDbEntity
  8
GAIKEI
  6
HIDDEN2
 62
     1
100
AcDbLine
 10
-7.031376362890625
 20
20.10011456306564
 30
0.0
 11
-7.031376362890625
 21
20.0641102297359
 31
0.0
  0
POINT
  5
A0
330
2
100
AcDbEntity
  8
GAIKEI
  6
HIDDEN2
 62
     1
100
AcDbPoint
 10
-7.031376362890625
 20
20.03344789640563
 30
0.0
  0
ARC
  5
A1
330
2
100
AcDbEntity
  8
GAIKEI
  6
HIDDEN2
 62
     1
100
AcDbCircle
 10
-6.964709696230613
 20
20.0641102297359
 30
0.0
 40
0.06666666666
100
AcDbArc
 50
180.0
 51
229.3987049999998
  0
LINE
  5
A2
330
2
100
AcDbEntity
  8
GAIKEI
  6
HIDDEN2
 62
     1
100
AcDbLine
 10
-7.0480430295556
 20
20.11678122973064
 30
0.0
 11
-7.0480430295556
 21
20.18344789639065
 31
0.0
  0
LINE
  5
A3
330
2
100
AcDbEntity
  8
GAIKEI
  6
HIDDEN2
 62
     1
100
AcDbLine
 10
-6.139709696313133
 20
19.10011456316565
 30
0.0
 11
-6.139709696313133
 21
19.53013622978928
 31
0.0
  0
POINT
  5
A4
330
2
100
AcDbEntity
  8
GAIKEI
  6
HIDDEN2
 62
     1
100
AcDbPoint
 10
-6.139709696313133
 20
19.68344789644064
 30
0.0
  0
LINE
  5
A5
330
2
100
AcDbEntity
  8
GAIKEI
  6
HIDDEN2
 62
     1
100
AcDbLine
 10
-6.62304302959815
 20
19.10011456316565
 30
0.0
 11
-6.62304302959815
 21
19.53013622978928
 31
0.0
  0
POINT
  5
A6
330
2
100
AcDbEntity
  8
GAIKEI
  6
HIDDEN2
 62
     1
100
AcDbPoint
 10
-6.62304302959815
 20
19.68344789644064
 30
0.0
  0
ARC
  5
A7
330
2
100
AcDbEntity
  8
GAIKEI
  6
HIDDEN2
 62
     1
100
AcDbCircle
 10
-6.956376362898154
 20
19.53013622978928
 30
0.0
 40
0.3333333333
100
AcDbArc
 50
0.0
 51
49.39870499999985
  0
LINE
  5
A8
330
2
100
AcDbEntity
  8
GAIKEI
  6
HIDDEN2
 62
     1
100
AcDbLine
 10
-7.008095862892972
 20
20.01349322974093
 30
0.0
 11
-6.739446029586503
 21
19.78322189643062
 31
0.0
  0
LINE
  5
A9
330
2
100
AcDbEntity
  8
GAIKEI
  6
HIDDEN2
 62
     1
100
AcDbLine
 10
-6.356376362958172
 20
18.88344789652061
 30
0.0
 11
-6.406376362953125
 21
18.88344789652061
 31
0.0
  0
ARC
  5
AA
330
2
100
AcDbEntity
  8
GAIKEI
  6
HIDDEN2
 62
     1
100
AcDbCircle
 10
-6.356376362958172
 20
19.10011456316565
 30
0.0
 40
0.216666666645
100
AcDbArc
 50
270.0
 51
0.0
  0
ARC
  5
AB
330
2
100
AcDbEntity
  8
GAIKEI
  6
HIDDEN2
 62
     1
100
AcDbCircle
 10
-6.406376362953125
 20
19.10011456316565
 30
0.0
 40
0.216666666645
100
AcDbArc
 50
180.0
 51
270.0
  0
LINE
  5
AC
330
2
100
AcDbEntity
  8
GAIKEI
  6
HIDDEN2
 62
     1
100
AcDbLine
 10
-7.398043029520664
 20
20.10011456306564
 30
0.0
 11
-7.464709696180619
 21
20.10011456306564
 31
0.0
  0
LINE
  5
AD
330
2
100
AcDbEntity
  8
GAIKEI
  6
HIDDEN2
 62
     1
100
AcDbLine
 10
-7.314709696195677
 20
20.03344789640563
 30
0.0
 11
-7.314709696195677
 21
20.10011456306564
 31
0.0
  0
LINE
  5
AE
330
2
100
AcDbEntity
  8
GAIKEI
  6
HIDDEN2
 62
     1
100
AcDbLine
 10
-7.314709696195677
 20
20.03344789640563
 30
0.0
 11
-7.381376362855604
 21
20.03344789640563
 31
0.0
  0
LINE
  5
AF
330
2
100
AcDbEntity
  8
GAIKEI
  6
HIDDEN2
 62
     1
100
AcDbLine
 10
-7.381376362855604
 20
20.11678122973064
 30
0.0
 11
-7.381376362855604
 21
20.03344789640563
 31
0.0
  0
LINE
  5
B0
330
2
100
AcDbEntity
  8
GAIKEI
  6
HIDDEN2
 62
     1
100
AcDbLine
 10
-7.464709696180619
 20
19.96678122974561
 30
0.0
 11
-7.381376362855604
 21
19.96678122974561
 31
0.0
  0
LINE
  5
B1
330
2
100
AcDbEntity
  8
GAIKEI
  6
HIDDEN2
 62
     1
100
AcDbLine
 10
-7.398043029520664
 20
20.10011456306564
 30
0.0
 11
-7.398043029520664
 21
19.96678122974561
 31
0.0
  0
ARC
  5
B2
330
2
100
AcDbEntity
  8
GAIKEI
  6
HIDDEN2
 62
     1
100
AcDbCircle
 10
-7.381376362855604
 20
20.03344789640563
 30
0.0
 40
0.06666666666
100
AcDbArc
 50
270.0
 51
0.0
  0
ARC
  5
B3
330
2
100
AcDbEntity
  8
GAIKEI
  6
HIDDEN2
 62
     1
100
AcDbCircle
 10
-6.381376362955606
 20
21.35011456294065
 30
0.0
 40
0.116666666655
100
AcDbArc
 50
90.0
 51
270.0
  0
LINE
  5
B4
330
2
100
AcDbEntity
  8
GAIKEI
  6
HIDDEN2
 62
     1
100
AcDbLine
 10
-6.878043029572694
 20
20.79344789632962
 30
0.0
 11
-6.878043029572694
 21
20.69344789633964
 31
0.0
  0
LINE
  5
B5
330
2
100
AcDbEntity
  8
GAIKEI
  6
HIDDEN2
 62
     1
100
AcDbLine
 10
-6.881376362905612
 20
20.76678122966564
 30
0.0
 11
-6.881376362905612
 21
20.69344789633964
 31
0.0
  0
LINE
  5
B6
330
2
100
AcDbEntity
  8
GAIKEI
  6
HIDDEN2
 62
     1
100
AcDbLine
 10
-7.384709696188679
 20
20.79344789632962
 30
0.0
 11
-7.384709696188679
 21
20.69344789633964
 31
0.0
  0
LINE
  5
B7
330
2
100
AcDbEntity
  8
GAIKEI
  6
HIDDEN2
 62
     1
100
AcDbLine
 10
-7.381376362855604
 20
20.76678122966564
 30
0.0
 11
-7.381376362855604
 21
20.69344789633964
 31
0.0
  0
LINE
  5
B8
330
2
100
AcDbEntity
  8
GAIKEI
  6
HIDDEN2
 62
     1
100
AcDbLine
 10
-7.384709696188679
 20
20.79344789632962
 30
0.0
 11
-6.878043029572694
 21
20.79344789632962
 31
0.0
  0
LINE
  5
B9
330
2
100
AcDbEntity
  8
GAIKEI
  6
HIDDEN2
 62
     1
100
AcDbLine
 10
-7.384709696188679
 20
20.69344789633964
 30
0.0
 11
-6.878043029572694
 21
20.69344789633964
 31
0.0
  0
LINE
  5
BA
330
2
100
AcDbEntity
  8
GAIKEI
  6
HIDDEN2
 62
     1
100
AcDbLine
 10
-6.881376362905612
 20
20.76678122966564
 30
0.0
 11
-7.381376362855604
 21
20.76678122966564
 31
0.0
  0
LINE
  5
BB
330
2
100
AcDbEntity
  8
GAIKEI
  6
HIDDEN2
 62
     1
100
AcDbLine
 10
-6.881376362905612
 20
20.70011456300563
 30
0.0
 11
-7.381376362855604
 21
20.70011456300563
 31
0.0
  0
ARC
  5
BC
330
2
100
AcDbEntity
  8
GAIKEI
  6
HIDDEN2
 62
     1
100
AcDbCircle
 10
-5.806376363013143
 20
19.53013622978928
 30
0.0
 40
0.3333333333
100
AcDbArc
 50
130.6012950000001
 51
180.0
  0
LINE
  5
BD
330
2
100
AcDbEntity
  8
GAIKEI
  6
HIDDEN2
 62
     1
100
AcDbLine
 10
-5.738846196353208
 20
20.03344789640563
 30
0.0
 11
-7.023906529558075
 21
20.03344789640563
 31
0.0
  0
LINE
  5
BE
330
2
100
AcDbEntity
  8
GAIKEI
  6
HIDDEN2
 62
     1
100
AcDbLine
 10
-5.381376363055608
 20
20.10011456306564
 30
0.0
 11
-7.381376362855604
 21
20.10011456306564
 31
0.0
  0
LINE
  5
BF
330
2
100
AcDbEntity
  8
GAIKEI
  6
HIDDEN2
 62
     1
100
AcDbLine
 10
-4.964709696430617
 20
21.2334478962856
 30
0.0
 11
-6.381376362955606
 21
21.2334478962856
 31
0.0
  0
LINE
  5
C0
330
2
100
AcDbEntity
  8
GAIKEI
  6
HIDDEN2
 62
     1
100
AcDbLine
 10
-4.964709696430617
 20
21.46678122959561
 30
0.0
 11
-6.381376362955606
 21
21.46678122959561
 31
0.0
  0
LINE
  5
C1
330
2
100
AcDbEntity
  8
GAIKEI
  6
HIDDEN2
 62
     1
100
AcDbLine
 10
-5.814709696345673
 20
18.24178122991813
 30
0.0
 11
-5.814709696345673
 21
18.29178122991308
 31
0.0
  0
ARC
  5
C2
330
2
100
AcDbEntity
  8
GAIKEI
  6
HIDDEN2
 62
     1
100
AcDbCircle
 10
-6.031376362990627
 20
18.25011456325057
 30
0.0
 40
0.216666666645
100
AcDbArc
 50
270.0
 51
0.0
  0
ARC
  5
C3
330
2
100
AcDbEntity
  8
GAIKEI
  6
HIDDEN2
 62
     1
100
AcDbCircle
 10
-6.031376362990627
 20
18.28344789658062
 30
0.0
 40
0.216666666645
100
AcDbArc
 50
0.0
 51
90.0
  0
ARC
  5
C4
330
2
100
AcDbEntity
  8
GAIKEI
  6
HIDDEN2
 62
     1
100
AcDbCircle
 10
-6.252362196301845
 20
18.66678122987558
 30
0.0
 40
0.16666666665
100
AcDbArc
 50
217.9798719999995
 51
270.0
  0
ARC
  5
C5
330
2
100
AcDbEntity
  8
GAIKEI
  6
HIDDEN2
 62
     1
100
AcDbCircle
 10
-6.764709696250633
 20
18.74994256320064
 30
0.0
 40
0.0668388333266495
100
AcDbArc
 50
355.8873210000001
 51
183.8197659999996
  0
ARC
  5
C6
330
2
100
AcDbEntity
  8
GAIKEI
  6
HIDDEN2
 62
     1
100
AcDbCircle
 10
-6.764709696250633
 20
18.26678122991564
 30
0.0
 40
0.483333333285
100
AcDbArc
 50
37.97987199999952
 51
82.0690160000004
  0
ARC
  5
C7
330
2
100
AcDbEntity
  8
GAIKEI
  6
HIDDEN2
 62
     1
100
AcDbCircle
 10
-6.252362196301845
 20
17.86678122995562
 30
0.0
 40
0.16666666665
100
AcDbArc
 50
90.0
 51
142.0201280000005
  0
ARC
  5
C8
330
2
100
AcDbEntity
  8
GAIKEI
  6
HIDDEN2
 62
     1
100
AcDbCircle
 10
-6.764709696250633
 20
17.78362006329728
 30
0.0
 40
0.0668388333266495
100
AcDbArc
 50
176.1802340000004
 51
4.112678999999912
  0
ARC
  5
C9
330
2
100
AcDbEntity
  8
GAIKEI
  6
HIDDEN2
 62
     1
100
AcDbCircle
 10
-6.764709696250633
 20
18.26678122991564
 30
0.0
 40
0.483333333285
100
AcDbArc
 50
277.9309839999996
 51
322.0201280000005
  0
ARC
  5
CA
330
2
100
AcDbEntity
  8
GAIKEI
  6
HIDDEN2
 62
     1
100
AcDbCircle
 10
-7.217067196205391
 20
18.43653839656528
 30
0.0
 40
0.0668388333266495
100
AcDbArc
 50
65.61198600000018
 51
253.2485960000009
  0
ARC
  5
CB
330
2
100
AcDbEntity
  8
GAIKEI
  6
HIDDEN2
 62
     1
100
AcDbCircle
 10
-6.764709696250633
 20
18.26678122991564
 30
0.0
 40
0.483333333285
100
AcDbArc
 50
167.3612749999993
 51
192.6387249999974
  0
ARC
  5
CC
330
2
100
AcDbEntity
  8
GAIKEI
  6
HIDDEN2
 62
     1
100
AcDbCircle
 10
-7.217067196205391
 20
18.09702422993257
 30
0.0
 40
0.0668388333266495
100
AcDbArc
 50
106.7514039999991
 51
294.6823879999996
  0
ARC
  5
CD
330
2
100
AcDbEntity
  8
GAIKEI
  6
HIDDEN2
 62
     1
100
AcDbCircle
 10
-6.764709696250633
 20
18.26678122991564
 30
0.0
 40
0.483333333285
100
AcDbArc
 50
97.93380099999501
 51
151.4993069999996
  0
ARC
  5
CE
330
2
100
AcDbEntity
  8
GAIKEI
  6
HIDDEN2
 62
     1
100
AcDbCircle
 10
-6.764709696250633
 20
18.26678122991564
 30
0.0
 40
0.483333333285
100
AcDbArc
 50
208.5035099999993
 51
262.0661989999985
  0
LINE
  5
CF
330
2
100
AcDbEntity
  8
GAIKEI
  6
HIDDEN2
 62
     1
100
AcDbLine
 10
-6.031376362990627
 20
18.50011456322558
 30
0.0
 11
-6.252362196301845
 21
18.50011456322558
 31
0.0
  0
LINE
  5
D0
330
2
100
AcDbEntity
  8
GAIKEI
  6
HIDDEN2
 62
     1
100
AcDbLine
 10
-6.031376362990627
 20
18.03344789660562
 30
0.0
 11
-6.252362196301845
 21
18.03344789660562
 31
0.0
  0
LINE
  5
D1
330
2
100
AcDbEntity
  8
GAIKEI
  6
HIDDEN2
 62
     1
100
AcDbLine
 10
-5.831376363010662
 20
9.166781230825591
 30
0.0
 11
-5.831376363010662
 21
9.333389230808919
 31
0.0
  0
ARC
  5
D2
330
2
100
AcDbEntity
  8
GAIKEI
  6
HIDDEN2
 62
     1
100
AcDbCircle
 10
-5.831548529677306
 20
9.400114564135606
 30
0.0
 40
0.0668388333266495
100
AcDbArc
 50
270.1475399999991
 51
93.33963399999895
  0
ARC
  5
D3
330
2
100
AcDbEntity
  8
GAIKEI
  6
HIDDEN2
 62
     1
100
AcDbCircle
 10
-5.973043029663145
 20
8.577820397551192
 30
0.0
 40
0.16666666665
100
AcDbArc
 50
124.7340099999985
 51
180.0
  0
ARC
  5
D4
330
2
100
AcDbEntity
  8
GAIKEI
  6
HIDDEN2
 62
     1
100
AcDbCircle
 10
-6.381376362955606
 20
9.166781230825591
 30
0.0
 40
0.5499999999449999
100
AcDbArc
 50
180.0
 51
235.2659900000015
  0
ARC
  5
D5
330
2
100
AcDbEntity
  8
GAIKEI
  6
HIDDEN2
 62
     1
100
AcDbCircle
 10
-6.789709696248152
 20
8.577820397551192
 30
0.0
 40
0.16666666665
100
AcDbArc
 50
0.0
 51
55.26599000000146
  0
LINE
  5
D6
330
2
100
AcDbEntity
  8
GAIKEI
  6
HIDDEN2
 62
     1
100
AcDbLine
 10
-6.931376362900635
 20
9.166781230825591
 30
0.0
 11
-6.931376362900635
 21
9.333276064142296
 31
0.0
  0
ARC
  5
D7
330
2
100
AcDbEntity
  8
GAIKEI
  6
HIDDEN2
 62
     1
100
AcDbCircle
 10
-6.931204362900643
 20
9.400114564135606
 30
0.0
 40
0.0668388333266495
100
AcDbArc
 50
86.66036600000103
 51
269.8524600000009
  0
ARC
  5
D8
330
2
100
AcDbEntity
  8
GAIKEI
  6
HIDDEN2
 62
     1
100
AcDbCircle
 10
-6.381376362955606
 20
9.400114564135606
 30
0.0
 40
0.5499999999449999
100
AcDbArc
 50
6.973576000000961
 51
173.0689550000011
  0
ARC
  5
D9
330
2
100
AcDbEntity
  8
GAIKEI
  6
HIDDEN2
 62
     1
100
AcDbCircle
 10
-6.381376362955606
 20
9.166781230825591
 30
0.0
 40
0.5499999999449999
100
AcDbArc
 50
304.7340099999985
 51
0.0
  0
ARC
  5
DA
330
2
100
AcDbEntity
  8
GAIKEI
  6
HIDDEN2
 62
     1
100
AcDbCircle
 10
-12.38137636235561
 20
21.35011456294065
 30
0.0
 40
0.116666666655
100
AcDbArc
 50
90.0
 51
270.0
  0
ARC
  5
DB
330
2
100
AcDbEntity
  8
GAIKEI
  6
HIDDEN2
 62
     1
100
AcDbCircle
 10
-15.71470969535561
 20
21.35011456294065
 30
0.0
 40
0.116666666655
100
AcDbArc
 50
270.0
 51
90.0
  0
ARC
  5
DC
330
2
100
AcDbEntity
  8
GAIKEI
  6
HIDDEN2
 62
     1
100
AcDbCircle
 10
-17.38137636185561
 20
20.68344789634064
 30
0.0
 40
0.3333333333
100
AcDbArc
 50
180.0
 51
0.0
  0
ARC
  5
DD
330
2
100
AcDbEntity
  8
GAIKEI
  6
HIDDEN2
 62
     1
100
AcDbCircle
 10
-17.38137636185561
 20
20.68344789634064
 30
0.0
 40
0.116666666655
100
AcDbArc
 50
180.0
 51
0.0
  0
LINE
  5
DE
330
2
100
AcDbEntity
  8
GAIKEI
  6
HIDDEN2
 62
     1
100
AcDbLine
 10
-17.8813763618056
 20
21.2334478962856
 30
0.0
 11
-19.04804302835561
 21
21.2334478962856
 31
0.0
  0
LINE
  5
DF
330
2
100
AcDbEntity
  8
GAIKEI
  6
HIDDEN2
 62
     1
100
AcDbLine
 10
-17.8813763618056
 20
21.46678122959561
 30
0.0
 11
-19.04804302835561
 21
21.46678122959561
 31
0.0
  0
ARC
  5
E0
330
2
100
AcDbEntity
  8
GAIKEI
  6
HIDDEN2
 62
     1
100
AcDbCircle
 10
-19.04804302835561
 20
21.35011456294065
 30
0.0
 40
0.116666666655
100
AcDbArc
 50
90.0
 51
270.0
  0
ARC
  5
E1
330
2
100
AcDbEntity
  8
GAIKEI
  6
HIDDEN2
 62
     1
100
AcDbCircle
 10
-16.88137636190561
 20
21.35011456294065
 30
0.0
 40
0.116666666655
100
AcDbArc
 50
90.0
 51
270.0
  0
LINE
  5
E2
330
2
100
AcDbEntity
  8
GAIKEI
  6
HIDDEN2
 62
     1
100
AcDbLine
 10
-17.26470969520064
 20
21.22505456295315
 30
0.0
 11
-17.26470969520064
 21
21.35011456294065
 31
0.0
  0
ARC
  5
E3
330
2
100
AcDbEntity
  8
GAIKEI
  6
HIDDEN2
 62
     1
100
AcDbCircle
 10
-17.23137636187067
 20
21.22505456295315
 30
0.0
 40
0.03333333333
100
AcDbArc
 50
180.0
 51
234.2382859999954
  0
ARC
  5
E4
330
2
100
AcDbEntity
  8
GAIKEI
  6
HIDDEN2
 62
     1
100
AcDbCircle
 10
-17.8813763618056
 20
21.35011456294065
 30
0.0
 40
0.116666666655
100
AcDbArc
 50
270.0
 51
90.0
  0
LINE
  5
E5
330
2
100
AcDbEntity
  8
GAIKEI
  6
HIDDEN2
 62
     1
100
AcDbLine
 10
-17.49804302851066
 20
21.22505456295315
 30
0.0
 11
-17.49804302851066
 21
21.35011456294065
 31
0.0
  0
ARC
  5
E6
330
2
100
AcDbEntity
  8
GAIKEI
  6
HIDDEN2
 62
     1
100
AcDbCircle
 10
-17.53137636184061
 20
21.22505456295315
 30
0.0
 40
0.03333333333
100
AcDbArc
 50
305.7617140000046
 51
0.0
  0
ARC
  5
E7
330
2
100
AcDbEntity
  8
GAIKEI
  6
HIDDEN2
 62
     1
100
AcDbCircle
 10
-17.38137636185561
 20
21.35011456294065
 30
0.0
 40
0.116666666655
100
AcDbArc
 50
0.0
 51
180.0
  0
LINE
  5
E8
330
2
100
AcDbEntity
  8
GAIKEI
  6
HIDDEN2
 62
     1
100
AcDbLine
 10
-17.26470969520064
 20
20.68344789634064
 30
0.0
 11
-17.26470969520064
 21
20.80850789632814
 31
0.0
  0
ARC
  5
E9
330
2
100
AcDbEntity
  8
GAIKEI
  6
HIDDEN2
 62
     1
100
AcDbCircle
 10
-17.23137636187067
 20
20.80850789632814
 30
0.0
 40
0.03333333333
100
AcDbArc
 50
125.7617140000045
 51
180.0
  0
LINE
  5
EA
330
2
100
AcDbEntity
  8
GAIKEI
  6
HIDDEN2
 62
     1
100
AcDbLine
 10
-17.49804302851066
 20
20.68344789634064
 30
0.0
 11
-17.49804302851066
 21
20.80850789632814
 31
0.0
  0
ARC
  5
EB
330
2
100
AcDbEntity
  8
GAIKEI
  6
HIDDEN2
 62
     1
100
AcDbCircle
 10
-17.53137636184061
 20
20.80850789632814
 30
0.0
 40
0.03333333333
100
AcDbArc
 50
0.0
 51
54.23828599999541
  0
ARC
  5
EC
330
2
100
AcDbEntity
  8
GAIKEI
  6
HIDDEN2
 62
     1
100
AcDbCircle
 10
-18.04804302845561
 20
20.68344789634064
 30
0.0
 40
0.3333333333
100
AcDbArc
 50
0.0
 51
90.0
  0
ARC
  5
ED
330
2
100
AcDbEntity
  8
GAIKEI
  6
HIDDEN2
 62
     1
100
AcDbCircle
 10
-16.7147096952556
 20
20.68344789634064
 30
0.0
 40
0.3333333333
100
AcDbArc
 50
90.0
 51
180.0
  0
ARC
  5
EE
330
2
100
AcDbEntity
  8
GAIKEI
  6
HIDDEN2
 62
     1
100
AcDbCircle
 10
-17.38137636185561
 20
21.01678122964064
 30
0.0
 40
0.223333333311
100
AcDbArc
 50
125.7617140000045
 51
234.2382859999954
  0
ARC
  5
EF
330
2
100
AcDbEntity
  8
GAIKEI
  6
HIDDEN2
 62
     1
100
AcDbCircle
 10
-17.38137636185561
 20
21.01678122964064
 30
0.0
 40
0.223333333311
100
AcDbArc
 50
305.7617140000046
 51
54.23828599999541
  0
ARC
  5
F0
330
2
100
AcDbEntity
  8
GAIKEI
  6
HIDDEN2
 62
     1
100
AcDbCircle
 10
-22.38137636135561
 20
21.35011456294065
 30
0.0
 40
0.116666666655
100
AcDbArc
 50
270.0
 51
90.0
  0
LINE
  5
F1
330
2
100
AcDbEntity
  8
GAIKEI
  6
HIDDEN2
 62
     1
100
AcDbLine
 10
-16.88137636190561
 20
21.2334478962856
 30
0.0
 11
-15.71470969535561
 21
21.2334478962856
 31
0.0
  0
LINE
  5
F2
330
2
100
AcDbEntity
  8
GAIKEI
  6
HIDDEN2
 62
     1
100
AcDbLine
 10
-16.88137636190561
 20
21.46678122959561
 30
0.0
 11
-15.71470969535561
 21
21.46678122959561
 31
0.0
  0
LINE
  5
F3
330
2
100
AcDbEntity
  8
GAIKEI
  6
HIDDEN2
 62
     1
100
AcDbLine
 10
-16.7147096952556
 20
21.01678122964064
 30
0.0
 11
-7.823043029478128
 21
21.01678122964064
 31
0.0
  0
LINE
  5
F4
330
2
100
AcDbEntity
  8
GAIKEI
  6
HIDDEN2
 62
     1
100
AcDbLine
 10
-9.048043029355611
 20
21.2334478962856
 30
0.0
 11
-12.38137636235561
 21
21.2334478962856
 31
0.0
  0
LINE
  5
F5
330
2
100
AcDbEntity
  8
GAIKEI
  6
HIDDEN2
 62
     1
100
AcDbLine
 10
-9.048043029355611
 20
21.46678122959561
 30
0.0
 11
-12.38137636235561
 21
21.46678122959561
 31
0.0
  0
ARC
  5
F6
330
2
100
AcDbEntity
  8
GAIKEI
  6
HIDDEN2
 62
     1
100
AcDbCircle
 10
-25.71470969435561
 20
21.35011456294065
 30
0.0
 40
0.116666666655
100
AcDbArc
 50
90.0
 51
270.0
  0
LINE
  5
F7
330
2
100
AcDbEntity
  8
GAIKEI
  6
HIDDEN2
 62
     1
100
AcDbLine
 10
-27.27304302753316
 20
20.18344789639065
 30
0.0
 11
-27.27304302753316
 21
20.68344789634064
 31
0.0
  0
LINE
  5
F8
330
2
100
AcDbEntity
  8
GAIKEI
  6
HIDDEN2
 62
     1
100
AcDbLine
 10
-29.48970969397811
 20
20.18344789639065
 30
0.0
 11
-29.48970969397811
 21
20.68416972967384
 31
0.0
  0
LINE
  5
F9
330
2
100
AcDbEntity
  8
GAIKEI
  6
HIDDEN2
 62
     1
100
AcDbLine
 10
-30.29804302723061
 20
20.11678122973064
 30
0.0
 11
-30.29804302723061
 21
21.95011456288063
 31
0.0
  0
LINE
  5
FA
330
2
100
AcDbEntity
  8
GAIKEI
  6
HIDDEN2
 62
     1
100
AcDbLine
 10
-29.00809586069298
 20
20.01349322974093
 30
0.0
 11
-28.73944602738651
 21
19.78322189643062
 31
0.0
  0
LINE
  5
FB
330
2
100
AcDbEntity
  8
GAIKEI
  6
HIDDEN2
 62
     1
100
AcDbLine
 10
-29.38137636065561
 20
20.10011456306564
 30
0.0
 11
-27.38137636085561
 21
20.10011456306564
 31
0.0
  0
LINE
  5
FC
330
2
100
AcDbEntity
  8
GAIKEI
  6
HIDDEN2
 62
     1
100
AcDbLine
 10
-29.02390652735801
 20
20.03344789640563
 30
0.0
 11
-27.73884619415321
 21
20.03344789640563
 31
0.0
  0
LINE
  5
FD
330
2
100
AcDbEntity
  8
GAIKEI
  6
HIDDEN2
 62
     1
100
AcDbLine
 10
-29.39804302732067
 20
20.10011456306564
 30
0.0
 11
-29.46470969398061
 21
20.10011456306564
 31
0.0
  0
LINE
  5
FE
330
2
100
AcDbEntity
  8
GAIKEI
  6
HIDDEN2
 62
     1
100
AcDbLine
 10
-29.31470969399567
 20
20.03344789640563
 30
0.0
 11
-29.31470969399567
 21
20.10011456306564
 31
0.0
  0
LINE
  5
FF
330
2
100
AcDbEntity
  8
GAIKEI
  6
HIDDEN2
 62
     1
100
AcDbLine
 10
-29.31470969399567
 20
20.03344789640563
 30
0.0
 11
-29.38137636065561
 21
20.03344789640563
 31
0.0
  0
POINT
  5
100
330
2
100
AcDbEntity
  8
GAIKEI
  6
HIDDEN2
 62
     1
100
AcDbPoint
 10
-29.03137636069061
 20
20.03344789640563
 30
0.0
  0
LINE
  5
101
330
2
100
AcDbEntity
  8
GAIKEI
  6
HIDDEN2
 62
     1
100
AcDbLine
 10
-29.03137636069061
 20
20.10011456306564
 30
0.0
 11
-29.03137636069061
 21
20.0641102297359
 31
0.0
  0
LINE
  5
102
330
2
100
AcDbEntity
  8
GAIKEI
  6
HIDDEN2
 62
     1
100
AcDbLine
 10
-29.04804302735562
 20
20.11678122973064
 30
0.0
 11
-29.04804302735562
 21
20.18344789639065
 31
0.0
  0
LINE
  5
103
330
2
100
AcDbEntity
  8
GAIKEI
  6
HIDDEN2
 62
     1
100
AcDbLine
 10
-29.38137636065561
 20
20.11678122973064
 30
0.0
 11
-29.38137636065561
 21
20.03344789640563
 31
0.0
  0
LINE
  5
104
330
2
100
AcDbEntity
  8
GAIKEI
  6
HIDDEN2
 62
     1
100
AcDbLine
 10
-29.04804302735562
 20
20.18344789639065
 30
0.0
 11
-30.29804302723061
 21
20.18344789639065
 31
0.0
  0
LINE
  5
105
330
2
100
AcDbEntity
  8
GAIKEI
  6
HIDDEN2
 62
     1
100
AcDbLine
 10
-29.46470969398061
 20
19.96678122974561
 30
0.0
 11
-29.38137636065561
 21
19.96678122974561
 31
0.0
  0
LINE
  5
106
330
2
100
AcDbEntity
  8
GAIKEI
  6
HIDDEN2
 62
     1
100
AcDbLine
 10
-29.39804302732067
 20
20.10011456306564
 30
0.0
 11
-29.39804302732067
 21
19.96678122974561
 31
0.0
  0
ARC
  5
107
330
2
100
AcDbEntity
  8
GAIKEI
  6
HIDDEN2
 62
     1
100
AcDbCircle
 10
-29.38137636065561
 20
20.03344789640563
 30
0.0
 40
0.06666666666
100
AcDbArc
 50
270.0
 51
0.0
  0
ARC
  5
108
330
2
100
AcDbEntity
  8
GAIKEI
  6
HIDDEN2
 62
     1
100
AcDbCircle
 10
-28.9647096940306
 20
20.0641102297359
 30
0.0
 40
0.06666666666
100
AcDbArc
 50
180.0
 51
229.3987049999998
  0
LINE
  5
109
330
2
100
AcDbEntity
  8
GAIKEI
  6
HIDDEN2
 62
     1
100
AcDbLine
 10
-27.36470969419062
 20
20.10011456306564
 30
0.0
 11
-27.29804302753061
 21
20.10011456306564
 31
0.0
  0
LINE
  5
10A
330
2
100
AcDbEntity
  8
GAIKEI
  6
HIDDEN2
 62
     1
100
AcDbLine
 10
-27.44804302751563
 20
20.03344789640563
 30
0.0
 11
-27.44804302751563
 21
20.10011456306564
 31
0.0
  0
LINE
  5
10B
330
2
100
AcDbEntity
  8
GAIKEI
  6
HIDDEN2
 62
     1
100
AcDbLine
 10
-27.44804302751563
 20
20.03344789640563
 30
0.0
 11
-27.38137636085561
 21
20.03344789640563
 31
0.0
  0
LINE
  5
10C
330
2
100
AcDbEntity
  8
GAIKEI
  6
HIDDEN2
 62
     1
100
AcDbLine
 10
-27.38137636085561
 20
20.11678122973064
 30
0.0
 11
-27.38137636085561
 21
20.03344789640563
 31
0.0
  0
LINE
  5
10D
330
2
100
AcDbEntity
  8
GAIKEI
  6
HIDDEN2
 62
     1
100
AcDbLine
 10
-27.29804302753061
 20
19.96678122974561
 30
0.0
 11
-27.38137636085561
 21
19.96678122974561
 31
0.0
  0
LINE
  5
10E
330
2
100
AcDbEntity
  8
GAIKEI
  6
HIDDEN2
 62
     1
100
AcDbLine
 10
-27.36470969419062
 20
20.10011456306564
 30
0.0
 11
-27.36470969419062
 21
19.96678122974561
 31
0.0
  0
ARC
  5
10F
330
2
100
AcDbEntity
  8
GAIKEI
  6
HIDDEN2
 62
     1
100
AcDbCircle
 10
-27.38137636085561
 20
20.03344789640563
 30
0.0
 40
0.06666666666
100
AcDbArc
 50
180.0
 51
270.0
  0
LINE
  5
110
330
2
100
AcDbEntity
  8
GAIKEI
  6
HIDDEN2
 62
     1
100
AcDbLine
 10
-27.73137636082066
 20
20.10011456306564
 30
0.0
 11
-27.73137636082066
 21
20.0641102297359
 31
0.0
  0
POINT
  5
111
330
2
100
AcDbEntity
  8
GAIKEI
  6
HIDDEN2
 62
     1
100
AcDbPoint
 10
-27.73137636082066
 20
20.03344789640563
 30
0.0
  0
ARC
  5
112
330
2
100
AcDbEntity
  8
GAIKEI
  6
HIDDEN2
 62
     1
100
AcDbCircle
 10
-27.79804302748062
 20
20.0641102297359
 30
0.0
 40
0.06666666666
100
AcDbArc
 50
310.6012950000001
 51
0.0
  0
LINE
  5
113
330
2
100
AcDbEntity
  8
GAIKEI
  6
HIDDEN2
 62
     1
100
AcDbLine
 10
-27.7147096941556
 20
20.11678122973064
 30
0.0
 11
-27.7147096941556
 21
20.18344789639065
 31
0.0
  0
LINE
  5
114
330
2
100
AcDbEntity
  8
GAIKEI
  6
HIDDEN2
 62
     1
100
AcDbLine
 10
-28.13970969411314
 20
19.10011456316565
 30
0.0
 11
-28.13970969411314
 21
19.53013622978928
 31
0.0
  0
POINT
  5
115
330
2
100
AcDbEntity
  8
GAIKEI
  6
HIDDEN2
 62
     1
100
AcDbPoint
 10
-28.13970969411314
 20
19.68344789644064
 30
0.0
  0
ARC
  5
116
330
2
100
AcDbEntity
  8
GAIKEI
  6
HIDDEN2
 62
     1
100
AcDbCircle
 10
-27.80637636081315
 20
19.53013622978928
 30
0.0
 40
0.3333333333
100
AcDbArc
 50
130.6012950000001
 51
180.0
  0
LINE
  5
117
330
2
100
AcDbEntity
  8
GAIKEI
  6
HIDDEN2
 62
     1
100
AcDbLine
 10
-28.62304302739815
 20
19.10011456316565
 30
0.0
 11
-28.62304302739815
 21
19.53013622978928
 31
0.0
  0
POINT
  5
118
330
2
100
AcDbEntity
  8
GAIKEI
  6
HIDDEN2
 62
     1
100
AcDbPoint
 10
-28.62304302739815
 20
19.68344789644064
 30
0.0
  0
ARC
  5
119
330
2
100
AcDbEntity
  8
GAIKEI
  6
HIDDEN2
 62
     1
100
AcDbCircle
 10
-28.95637636069816
 20
19.53013622978928
 30
0.0
 40
0.3333333333
100
AcDbArc
 50
0.0
 51
49.39870499999985
  0
LINE
  5
11A
330
2
100
AcDbEntity
  8
GAIKEI
  6
HIDDEN2
 62
     1
100
AcDbLine
 10
-27.75465702748497
 20
20.01349322974093
 30
0.0
 11
-28.02330686079144
 21
19.78322189643062
 31
0.0
  0
LINE
  5
11B
330
2
100
AcDbEntity
  8
GAIKEI
  6
HIDDEN2
 62
     1
100
AcDbLine
 10
-28.35637636075816
 20
18.88344789652061
 30
0.0
 11
-28.40637636075312
 21
18.88344789652061
 31
0.0
  0
ARC
  5
11C
330
2
100
AcDbEntity
  8
GAIKEI
  6
HIDDEN2
 62
     1
100
AcDbCircle
 10
-28.40637636075312
 20
19.10011456316565
 30
0.0
 40
0.216666666645
100
AcDbArc
 50
180.0
 51
270.0
  0
ARC
  5
11D
330
2
100
AcDbEntity
  8
GAIKEI
  6
HIDDEN2
 62
     1
100
AcDbCircle
 10
-28.35637636075816
 20
19.10011456316565
 30
0.0
 40
0.216666666645
100
AcDbArc
 50
270.0
 51
0.0
  0
LINE
  5
11E
330
2
100
AcDbEntity
  8
GAIKEI
  6
HIDDEN2
 62
     1
100
AcDbLine
 10
-29.79804302728061
 20
21.2334478962856
 30
0.0
 11
-28.38137636075561
 21
21.2334478962856
 31
0.0
  0
LINE
  5
11F
330
2
100
AcDbEntity
  8
GAIKEI
  6
HIDDEN2
 62
     1
100
AcDbLine
 10
-29.79804302728061
 20
21.46678122959561
 30
0.0
 11
-28.38137636075561
 21
21.46678122959561
 31
0.0
  0
LINE
  5
120
330
2
100
AcDbEntity
  8
GAIKEI
  6
HIDDEN2
 62
     1
100
AcDbLine
 10
-28.87804302737269
 20
20.79344789632962
 30
0.0
 11
-28.87804302737269
 21
20.69344789633964
 31
0.0
  0
LINE
  5
121
330
2
100
AcDbEntity
  8
GAIKEI
  6
HIDDEN2
 62
     1
100
AcDbLine
 10
-28.88137636070562
 20
20.76678122966564
 30
0.0
 11
-28.88137636070562
 21
20.69344789633964
 31
0.0
  0
ARC
  5
122
330
2
100
AcDbEntity
  8
GAIKEI
  6
HIDDEN2
 62
     1
100
AcDbCircle
 10
-29.79804302728061
 20
21.35011456294065
 30
0.0
 40
0.116666666655
100
AcDbArc
 50
90.0
 51
270.0
  0
ARC
  5
123
330
2
100
AcDbEntity
  8
GAIKEI
  6
HIDDEN2
 62
     1
100
AcDbCircle
 10
-29.79804302728061
 20
21.35011456294065
 30
0.0
 40
0.3333333333
100
AcDbArc
 50
90.0
 51
270.0
  0
LINE
  5
124
330
2
100
AcDbEntity
  8
GAIKEI
  6
HIDDEN2
 62
     1
100
AcDbLine
 10
-29.38470969398868
 20
20.79344789632962
 30
0.0
 11
-29.38470969398868
 21
20.69344789633964
 31
0.0
  0
LINE
  5
125
330
2
100
AcDbEntity
  8
GAIKEI
  6
HIDDEN2
 62
     1
100
AcDbLine
 10
-29.38137636065561
 20
20.76678122966564
 30
0.0
 11
-29.38137636065561
 21
20.69344789633964
 31
0.0
  0
ARC
  5
126
330
2
100
AcDbEntity
  8
GAIKEI
  6
HIDDEN2
 62
     1
100
AcDbCircle
 10
-29.82304302727812
 20
20.68416972967384
 30
0.0
 40
0.3333333333
100
AcDbArc
 50
0.0
 51
85.69877800000073
  0
LINE
  5
127
330
2
100
AcDbEntity
  8
GAIKEI
  6
HIDDEN2
 62
     1
100
AcDbLine
 10
-29.38470969398868
 20
20.79344789632962
 30
0.0
 11
-28.87804302737269
 21
20.79344789632962
 31
0.0
  0
LINE
  5
128
330
2
100
AcDbEntity
  8
GAIKEI
  6
HIDDEN2
 62
     1
100
AcDbLine
 10
-29.38470969398868
 20
20.69344789633964
 30
0.0
 11
-28.87804302737269
 21
20.69344789633964
 31
0.0
  0
LINE
  5
129
330
2
100
AcDbEntity
  8
GAIKEI
  6
HIDDEN2
 62
     1
100
AcDbLine
 10
-29.38137636065561
 20
20.76678122966564
 30
0.0
 11
-28.88137636070562
 21
20.76678122966564
 31
0.0
  0
LINE
  5
12A
330
2
100
AcDbEntity
  8
GAIKEI
  6
HIDDEN2
 62
     1
100
AcDbLine
 10
-29.38137636065561
 20
20.70011456300563
 30
0.0
 11
-28.88137636070562
 21
20.70011456300563
 31
0.0
  0
ARC
  5
12B
330
2
100
AcDbEntity
  8
GAIKEI
  6
HIDDEN2
 62
     1
100
AcDbCircle
 10
-28.38137636075561
 20
21.35011456294065
 30
0.0
 40
0.116666666655
100
AcDbArc
 50
270.0
 51
90.0
  0
LINE
  5
12C
330
2
100
AcDbEntity
  8
GAIKEI
  6
HIDDEN2
 62
     1
100
AcDbLine
 10
-27.3780430275227
 20
20.79344789632962
 30
0.0
 11
-27.3780430275227
 21
20.69344789633964
 31
0.0
  0
LINE
  5
12D
330
2
100
AcDbEntity
  8
GAIKEI
  6
HIDDEN2
 62
     1
100
AcDbLine
 10
-27.38137636085561
 20
20.76678122966564
 30
0.0
 11
-27.38137636085561
 21
20.69344789633964
 31
0.0
  0
LINE
  5
12E
330
2
100
AcDbEntity
  8
GAIKEI
  6
HIDDEN2
 62
     1
100
AcDbLine
 10
-27.88470969413868
 20
20.79344789632962
 30
0.0
 11
-27.88470969413868
 21
20.69344789633964
 31
0.0
  0
LINE
  5
12F
330
2
100
AcDbEntity
  8
GAIKEI
  6
HIDDEN2
 62
     1
100
AcDbLine
 10
-27.8813763608056
 20
20.76678122966564
 30
0.0
 11
-27.8813763608056
 21
20.69344789633964
 31
0.0
  0
LINE
  5
130
330
2
100
AcDbEntity
  8
GAIKEI
  6
HIDDEN2
 62
     1
100
AcDbLine
 10
-27.3780430275227
 20
20.79344789632962
 30
0.0
 11
-27.88470969413868
 21
20.79344789632962
 31
0.0
  0
LINE
  5
131
330
2
100
AcDbEntity
  8
GAIKEI
  6
HIDDEN2
 62
     1
100
AcDbLine
 10
-27.3780430275227
 20
20.69344789633964
 30
0.0
 11
-27.88470969413868
 21
20.69344789633964
 31
0.0
  0
LINE
  5
132
330
2
100
AcDbEntity
  8
GAIKEI
  6
HIDDEN2
 62
     1
100
AcDbLine
 10
-27.8813763608056
 20
20.76678122966564
 30
0.0
 11
-27.38137636085561
 21
20.76678122966564
 31
0.0
  0
LINE
  5
133
330
2
100
AcDbEntity
  8
GAIKEI
  6
HIDDEN2
 62
     1
100
AcDbLine
 10
-27.8813763608056
 20
20.70011456300563
 30
0.0
 11
-27.38137636085561
 21
20.70011456300563
 31
0.0
  0
ARC
  5
134
330
2
100
AcDbEntity
  8
GAIKEI
  6
HIDDEN2
 62
     1
100
AcDbCircle
 10
-26.93970969423316
 20
20.68344789634064
 30
0.0
 40
0.3333333333
100
AcDbArc
 50
90.0
 51
180.0
  0
LINE
  5
135
330
2
100
AcDbEntity
  8
GAIKEI
  6
HIDDEN2
 62
     1
100
AcDbLine
 10
-28.03137636079063
 20
18.50844789655811
 30
0.0
 11
-28.77895936071587
 21
18.50844789655811
 31
0.0
  0
LINE
  5
136
330
2
100
AcDbEntity
  8
GAIKEI
  6
HIDDEN2
 62
     1
100
AcDbLine
 10
-28.03137636079063
 20
18.02511456327309
 30
0.0
 11
-28.77895936071587
 21
18.02511456327309
 31
0.0
  0
POINT
  5
137
330
2
100
AcDbEntity
  8
GAIKEI
  6
HIDDEN2
 62
     1
100
AcDbPoint
 10
-28.93137636070064
 20
18.50844789655811
 30
0.0
  0
POINT
  5
138
330
2
100
AcDbEntity
  8
GAIKEI
  6
HIDDEN2
 62
     1
100
AcDbPoint
 10
-28.93137636070064
 20
18.02511456327309
 30
0.0
  0
LINE
  5
139
330
2
100
AcDbEntity
  8
GAIKEI
  6
HIDDEN2
 62
     1
100
AcDbLine
 10
-29.46470969398061
 20
18.81678122986059
 30
0.0
 11
-29.2742516939997
 21
18.81678122986059
 31
0.0
  0
LINE
  5
13A
330
2
100
AcDbEntity
  8
GAIKEI
  6
HIDDEN2
 62
     1
100
AcDbLine
 10
-29.03108036069071
 20
18.62373056321323
 30
0.0
 11
-29.1481911940123
 21
18.75913989653304
 31
0.0
  0
ARC
  5
13B
330
2
100
AcDbEntity
  8
GAIKEI
  6
HIDDEN2
 62
     1
100
AcDbCircle
 10
-29.2742516939997
 20
18.65011456321059
 30
0.0
 40
0.16666666665
100
AcDbArc
 50
40.85537599999951
 51
90.0
  0
LINE
  5
13C
330
2
100
AcDbEntity
  8
GAIKEI
  6
HIDDEN2
 62
     1
100
AcDbLine
 10
-29.46470969398061
 20
17.71678122997062
 30
0.0
 11
-29.2742516939997
 21
17.71678122997062
 31
0.0
  0
LINE
  5
13D
330
2
100
AcDbEntity
  8
GAIKEI
  6
HIDDEN2
 62
     1
100
AcDbLine
 10
-29.03108036069071
 20
17.90983189661799
 30
0.0
 11
-29.1481911940123
 21
17.77442256329817
 31
0.0
  0
POINT
  5
13E
330
2
100
AcDbEntity
  8
GAIKEI
  6
HIDDEN2
 62
     1
100
AcDbPoint
 10
-29.19804302734062
 20
17.71678122997062
 30
0.0
  0
ARC
  5
13F
330
2
100
AcDbEntity
  8
GAIKEI
  6
HIDDEN2
 62
     1
100
AcDbCircle
 10
-29.2742516939997
 20
17.88344789662061
 30
0.0
 40
0.16666666665
100
AcDbArc
 50
270.0
 51
319.1446240000005
  0
LINE
  5
140
330
2
100
AcDbEntity
  8
GAIKEI
  6
HIDDEN2
 62
     1
100
AcDbLine
 10
-29.39804302732067
 20
18.81678122986059
 30
0.0
 11
-29.39804302732067
 21
17.71678122997062
 31
0.0
  0
ARC
  5
141
330
2
100
AcDbEntity
  8
GAIKEI
  6
HIDDEN2
 62
     1
100
AcDbCircle
 10
-28.77895936071587
 20
17.6917812299731
 30
0.0
 40
0.3333333333
100
AcDbArc
 50
90.0
 51
139.1446240000005
  0
ARC
  5
142
330
2
100
AcDbEntity
  8
GAIKEI
  6
HIDDEN2
 62
     1
100
AcDbCircle
 10
-28.77895936071587
 20
18.84178122985811
 30
0.0
 40
0.3333333333
100
AcDbArc
 50
220.8553759999995
 51
270.0
  0
LINE
  5
143
330
2
100
AcDbEntity
  8
GAIKEI
  6
HIDDEN2
 62
     1
100
AcDbLine
 10
-27.81470969414568
 20
18.24178122991813
 30
0.0
 11
-27.81470969414568
 21
18.29178122991308
 31
0.0
  0
ARC
  5
144
330
2
100
AcDbEntity
  8
GAIKEI
  6
HIDDEN2
 62
     1
100
AcDbCircle
 10
-28.03137636079063
 20
18.29178122991308
 30
0.0
 40
0.216666666645
100
AcDbArc
 50
0.0
 51
90.0
  0
ARC
  5
145
330
2
100
AcDbEntity
  8
GAIKEI
  6
HIDDEN2
 62
     1
100
AcDbCircle
 10
-28.03137636079063
 20
18.24178122991813
 30
0.0
 40
0.216666666645
100
AcDbArc
 50
270.0
 51
0.0
  0
ARC
  5
146
330
2
100
AcDbEntity
  8
GAIKEI
  6
HIDDEN2
 62
     1
100
AcDbCircle
 10
-28.38137636075561
 20
9.400114564135606
 30
0.0
 40
0.5499999999449999
100
AcDbArc
 50
6.931044999998847
 51
173.026423999999
  0
ARC
  5
147
330
2
100
AcDbEntity
  8
GAIKEI
  6
HIDDEN2
 62
     1
100
AcDbCircle
 10
-28.38137636075561
 20
9.166781230825591
 30
0.0
 40
0.5499999999449999
100
AcDbArc
 50
180.0
 51
235.2659900000015
  0
LINE
  5
148
330
2
100
AcDbEntity
  8
GAIKEI
  6
HIDDEN2
 62
     1
100
AcDbLine
 10
-28.93137636070064
 20
9.166781230825591
 30
0.0
 11
-28.93137636070064
 21
9.333389230808919
 31
0.0
  0
ARC
  5
149
330
2
100
AcDbEntity
  8
GAIKEI
  6
HIDDEN2
 62
     1
100
AcDbCircle
 10
-28.93120436070063
 20
9.400114564135606
 30
0.0
 40
0.0668388333266495
100
AcDbArc
 50
86.66036600000103
 51
269.8524600000009
  0
ARC
  5
14A
330
2
100
AcDbEntity
  8
GAIKEI
  6
HIDDEN2
 62
     1
100
AcDbCircle
 10
-28.38137636075561
 20
9.166781230825591
 30
0.0
 40
0.5499999999449999
100
AcDbArc
 50
304.7340099999985
 51
0.0
  0
ARC
  5
14B
330
2
100
AcDbEntity
  8
GAIKEI
  6
HIDDEN2
 62
     1
100
AcDbCircle
 10
-27.97304302746315
 20
8.577820397551192
 30
0.0
 40
0.16666666665
100
AcDbArc
 50
124.7340099999985
 51
180.0
  0
LINE
  5
14C
330
2
100
AcDbEntity
  8
GAIKEI
  6
HIDDEN2
 62
     1
100
AcDbLine
 10
-27.83137636081065
 20
9.166781230825591
 30
0.0
 11
-27.83137636081065
 21
9.333276064142296
 31
0.0
  0
ARC
  5
14D
330
2
100
AcDbEntity
  8
GAIKEI
  6
HIDDEN2
 62
     1
100
AcDbCircle
 10
-28.78970969404816
 20
8.577820397551192
 30
0.0
 40
0.16666666665
100
AcDbArc
 50
0.0
 51
55.26599000000146
  0
ARC
  5
14E
330
2
100
AcDbEntity
  8
GAIKEI
  6
HIDDEN2
 62
     1
100
AcDbCircle
 10
-27.83154852747731
 20
9.400114564135606
 30
0.0
 40
0.0668388333266495
100
AcDbArc
 50
270.1475399999991
 51
93.33963399999895
  0
LINE
  5
14F
330
2
100
AcDbEntity
  8
GAIKEI
  6
HIDDEN2
 62
     1
100
AcDbLine
 10
-18.04804302845561
 20
21.01678122964064
 30
0.0
 11
-26.93970969423316
 21
21.01678122964064
 31
0.0
  0
LINE
  5
150
330
2
100
AcDbEntity
  8
GAIKEI
  6
HIDDEN2
 62
     1
100
AcDbLine
 10
-4.464709696480611
 20
21.95011456288063
 30
0.0
 11
-30.29804302723061
 21
21.95011456288063
 31
0.0
  0
LINE
  5
151
330
2
100
AcDbEntity
  8
GAIKEI
  6
HIDDEN2
 62
     1
100
AcDbLine
 10
-4.464709696480611
 20
21.88344789622062
 30
0.0
 11
-30.29804302723061
 21
21.88344789622062
 31
0.0
  0
LINE
  5
152
330
2
100
AcDbEntity
  8
GAIKEI
  6
HIDDEN2
 62
     1
100
AcDbLine
 10
-4.964709696430617
 20
21.68344789624064
 30
0.0
 11
-29.79804302728061
 21
21.68344789624064
 31
0.0
  0
LINE
  5
153
330
2
100
AcDbEntity
  8
GAIKEI
  6
HIDDEN2
 62
     1
100
AcDbLine
 10
-7.0480430295556
 20
20.18344789639065
 30
0.0
 11
-27.7147096941556
 21
20.18344789639065
 31
0.0
  0
LINE
  5
154
330
2
100
AcDbEntity
  8
GAIKEI
  6
HIDDEN2
 62
     1
100
AcDbLine
 10
-30.29804302723061
 20
20.11678122973064
 30
0.0
 11
-4.464709696480611
 21
20.11678122973064
 31
0.0
  0
LINE
  5
155
330
2
100
AcDbEntity
  8
GAIKEI
  6
HIDDEN2
 62
     1
100
AcDbLine
 10
-25.71470969435561
 20
21.2334478962856
 30
0.0
 11
-22.38137636135561
 21
21.2334478962856
 31
0.0
  0
LINE
  5
156
330
2
100
AcDbEntity
  8
GAIKEI
  6
HIDDEN2
 62
     1
100
AcDbLine
 10
-25.71470969435561
 20
21.46678122959561
 30
0.0
 11
-22.38137636135561
 21
21.46678122959561
 31
0.0
  0
ARC
  5
157
330
2
100
AcDbEntity
  8
GAIKEI
  6
HIDDEN2
 62
     1
100
AcDbCircle
 10
-4.964709696430617
 20
5.350114564540646
 30
0.0
 40
0.3333333333
100
AcDbArc
 50
270.0
 51
90.0
  0
LINE
  5
158
330
2
100
AcDbEntity
  8
GAIKEI
  6
HIDDEN2
 62
     1
100
AcDbLine
 10
-4.464709696480611
 20
6.583447897750573
 30
0.0
 11
-4.464709696480611
 21
4.750114564600579
 31
0.0
  0
LINE
  5
159
330
2
100
AcDbEntity
  8
GAIKEI
  6
HIDDEN2
 62
     1
100
AcDbLine
 10
-5.814709696345673
 20
7.575114564318127
 30
0.0
 11
-5.814709696345673
 21
7.625114564313079
 31
0.0
  0
ARC
  5
15A
330
2
100
AcDbEntity
  8
GAIKEI
  6
HIDDEN2
 62
     1
100
AcDbCircle
 10
-6.031376362990627
 20
7.61678123098062
 30
0.0
 40
0.216666666645
100
AcDbArc
 50
2.202597999999954
 51
90.0
  0
LINE
  5
15B
330
2
100
AcDbEntity
  8
GAIKEI
  6
HIDDEN2
 62
     1
100
AcDbLine
 10
-5.364709696390633
 20
6.600114564415648
 30
0.0
 11
-5.364709696390633
 21
6.733447897735601
 31
0.0
  0
LINE
  5
15C
330
2
100
AcDbEntity
  8
GAIKEI
  6
HIDDEN2
 62
     1
100
AcDbLine
 10
-5.298043029730607
 20
6.733447897735601
 30
0.0
 11
-5.381376363055608
 21
6.733447897735601
 31
0.0
  0
LINE
  5
15D
330
2
100
AcDbEntity
  8
GAIKEI
  6
HIDDEN2
 62
     1
100
AcDbLine
 10
-5.364709696390633
 20
6.600114564415648
 30
0.0
 11
-5.298043029730607
 21
6.600114564415648
 31
0.0
  0
ARC
  5
15E
330
2
100
AcDbEntity
  8
GAIKEI
  6
HIDDEN2
 62
     1
100
AcDbCircle
 10
-5.381376363055608
 20
6.666781231075589
 30
0.0
 40
0.06666666666
100
AcDbArc
 50
90.0
 51
180.0
  0
LINE
  5
15F
330
2
100
AcDbEntity
  8
GAIKEI
  6
HIDDEN2
 62
     1
100
AcDbLine
 10
-5.44804302971562
 20
6.666781231075589
 30
0.0
 11
-5.44804302971562
 21
6.600114564415648
 31
0.0
  0
LINE
  5
160
330
2
100
AcDbEntity
  8
GAIKEI
  6
HIDDEN2
 62
     1
100
AcDbLine
 10
-5.44804302971562
 20
6.666781231075589
 30
0.0
 11
-5.381376363055608
 21
6.666781231075589
 31
0.0
  0
LINE
  5
161
330
2
100
AcDbEntity
  8
GAIKEI
  6
HIDDEN2
 62
     1
100
AcDbLine
 10
-5.714709696355612
 20
6.583447897750573
 30
0.0
 11
-5.714709696355612
 21
6.516781231090646
 31
0.0
  0
LINE
  5
162
330
2
100
AcDbEntity
  8
GAIKEI
  6
HIDDEN2
 62
     1
100
AcDbLine
 10
-5.381376363055608
 20
6.583447897750573
 30
0.0
 11
-5.381376363055608
 21
6.666781231075589
 31
0.0
  0
LINE
  5
163
330
2
100
AcDbEntity
  8
GAIKEI
  6
HIDDEN2
 62
     1
100
AcDbLine
 10
-5.714709696355612
 20
6.516781231090646
 30
0.0
 11
-4.464709696480611
 21
6.516781231090646
 31
0.0
  0
LINE
  5
164
330
2
100
AcDbEntity
  8
GAIKEI
  6
HIDDEN2
 62
     1
100
AcDbLine
 10
-5.378043029722689
 20
5.906781231151597
 30
0.0
 11
-5.378043029722689
 21
6.006781231141587
 31
0.0
  0
LINE
  5
165
330
2
100
AcDbEntity
  8
GAIKEI
  6
HIDDEN2
 62
     1
100
AcDbLine
 10
-5.381376363055608
 20
5.933447897815653
 30
0.0
 11
-5.381376363055608
 21
6.006781231141587
 31
0.0
  0
ARC
  5
166
330
2
100
AcDbEntity
  8
GAIKEI
  6
HIDDEN2
 62
     1
100
AcDbCircle
 10
-4.939709696433169
 20
6.016059564474005
 30
0.0
 40
0.3333333333
100
AcDbArc
 50
180.0
 51
265.6987780000008
  0
LINE
  5
167
330
2
100
AcDbEntity
  8
GAIKEI
  6
HIDDEN2
 62
     1
100
AcDbLine
 10
-5.273043029733173
 20
6.516781231090646
 30
0.0
 11
-5.273043029733173
 21
6.016059564474005
 31
0.0
  0
LINE
  5
168
330
2
100
AcDbEntity
  8
GAIKEI
  6
HIDDEN2
 62
     1
100
AcDbLine
 10
-5.884709696338688
 20
5.906781231151597
 30
0.0
 11
-5.884709696338688
 21
6.006781231141587
 31
0.0
  0
LINE
  5
169
330
2
100
AcDbEntity
  8
GAIKEI
  6
HIDDEN2
 62
     1
100
AcDbLine
 10
-5.881376363005614
 20
5.933447897815653
 30
0.0
 11
-5.881376363005614
 21
6.006781231141587
 31
0.0
  0
LINE
  5
16A
330
2
100
AcDbEntity
  8
GAIKEI
  6
HIDDEN2
 62
     1
100
AcDbLine
 10
-5.378043029722689
 20
5.906781231151597
 30
0.0
 11
-5.884709696338688
 21
5.906781231151597
 31
0.0
  0
LINE
  5
16B
330
2
100
AcDbEntity
  8
GAIKEI
  6
HIDDEN2
 62
     1
100
AcDbLine
 10
-5.378043029722689
 20
6.006781231141587
 30
0.0
 11
-5.884709696338688
 21
6.006781231141587
 31
0.0
  0
LINE
  5
16C
330
2
100
AcDbEntity
  8
GAIKEI
  6
HIDDEN2
 62
     1
100
AcDbLine
 10
-5.881376363005614
 20
5.933447897815653
 30
0.0
 11
-5.381376363055608
 21
5.933447897815653
 31
0.0
  0
LINE
  5
16D
330
2
100
AcDbEntity
  8
GAIKEI
  6
HIDDEN2
 62
     1
100
AcDbLine
 10
-5.881376363005614
 20
6.00011456447558
 30
0.0
 11
-5.381376363055608
 21
6.00011456447558
 31
0.0
  0
ARC
  5
16E
330
2
100
AcDbEntity
  8
GAIKEI
  6
HIDDEN2
 62
     1
100
AcDbCircle
 10
-4.964709696430617
 20
5.350114564540646
 30
0.0
 40
0.116666666655
100
AcDbArc
 50
270.0
 51
90.0
  0
ARC
  5
16F
330
2
100
AcDbEntity
  8
GAIKEI
  6
HIDDEN2
 62
     1
100
AcDbCircle
 10
-6.031376362990627
 20
7.583447897650586
 30
0.0
 40
0.216666666645
100
AcDbArc
 50
270.0
 51
357.797402
  0
ARC
  5
170
330
2
100
AcDbEntity
  8
GAIKEI
  6
HIDDEN2
 62
     1
100
AcDbCircle
 10
-7.823043029478128
 20
6.01678123114064
 30
0.0
 40
0.3333333333
100
AcDbArc
 50
270.0
 51
0.0
  0
ARC
  5
171
330
2
100
AcDbEntity
  8
GAIKEI
  6
HIDDEN2
 62
     1
100
AcDbCircle
 10
-9.048043029355611
 20
5.350114564540646
 30
0.0
 40
0.116666666655
100
AcDbArc
 50
270.0
 51
90.0
  0
LINE
  5
172
330
2
100
AcDbEntity
  8
GAIKEI
  6
HIDDEN2
 62
     1
100
AcDbLine
 10
-6.406376362953125
 20
8.216781230920616
 30
0.0
 11
-6.356376362958172
 21
8.216781230920616
 31
0.0
  0
ARC
  5
173
330
2
100
AcDbEntity
  8
GAIKEI
  6
HIDDEN2
 62
     1
100
AcDbCircle
 10
-6.252362196301845
 20
8.000114564275577
 30
0.0
 40
0.16666666665
100
AcDbArc
 50
217.9798719999995
 51
270.0
  0
ARC
  5
174
330
2
100
AcDbEntity
  8
GAIKEI
  6
HIDDEN2
 62
     1
100
AcDbCircle
 10
-6.764709696250633
 20
8.083275897600657
 30
0.0
 40
0.0668388333266495
100
AcDbArc
 50
355.8873210000001
 51
184.1126789999999
  0
ARC
  5
175
330
2
100
AcDbEntity
  8
GAIKEI
  6
HIDDEN2
 62
     1
100
AcDbCircle
 10
-6.764709696250633
 20
7.600114564315646
 30
0.0
 40
0.483333333285
100
AcDbArc
 50
37.97987199999952
 51
82.0690160000004
  0
ARC
  5
176
330
2
100
AcDbEntity
  8
GAIKEI
  6
HIDDEN2
 62
     1
100
AcDbCircle
 10
-6.406376362953125
 20
8.433447897565642
 30
0.0
 40
0.216666666645
100
AcDbArc
 50
180.0
 51
270.0
  0
ARC
  5
177
330
2
100
AcDbEntity
  8
GAIKEI
  6
HIDDEN2
 62
     1
100
AcDbCircle
 10
-6.356376362958172
 20
8.433447897565642
 30
0.0
 40
0.216666666645
100
AcDbArc
 50
270.0
 51
0.0
  0
ARC
  5
178
330
2
100
AcDbEntity
  8
GAIKEI
  6
HIDDEN2
 62
     1
100
AcDbCircle
 10
-6.252362196301845
 20
7.200114564355629
 30
0.0
 40
0.16666666665
100
AcDbArc
 50
90.0
 51
142.0201280000005
  0
LINE
  5
179
330
2
100
AcDbEntity
  8
GAIKEI
  6
HIDDEN2
 62
     1
100
AcDbLine
 10
-7.0480430295556
 20
6.583447897750573
 30
0.0
 11
-7.0480430295556
 21
6.516781231090646
 31
0.0
  0
POINT
  5
17A
330
2
100
AcDbEntity
  8
GAIKEI
  6
HIDDEN2
 62
     1
100
AcDbPoint
 10
-6.864709696240623
 20
7.358447897673102
 30
0.0
  0
ARC
  5
17B
330
2
100
AcDbEntity
  8
GAIKEI
  6
HIDDEN2
 62
     1
100
AcDbCircle
 10
-6.764709696250633
 20
7.116953397697272
 30
0.0
 40
0.0668388333266495
100
AcDbArc
 50
175.8873210000001
 51
4.112678999999912
  0
ARC
  5
17C
330
2
100
AcDbEntity
  8
GAIKEI
  6
HIDDEN2
 62
     1
100
AcDbCircle
 10
-6.764709696250633
 20
7.600114564315646
 30
0.0
 40
0.483333333285
100
AcDbArc
 50
277.9309839999996
 51
322.0201280000005
  0
LINE
  5
17D
330
2
100
AcDbEntity
  8
GAIKEI
  6
HIDDEN2
 62
     1
100
AcDbLine
 10
-6.878043029572694
 20
5.906781231151597
 30
0.0
 11
-6.878043029572694
 21
6.006781231141587
 31
0.0
  0
LINE
  5
17E
330
2
100
AcDbEntity
  8
GAIKEI
  6
HIDDEN2
 62
     1
100
AcDbLine
 10
-6.881376362905612
 20
5.933447897815653
 30
0.0
 11
-6.881376362905612
 21
6.006781231141587
 31
0.0
  0
ARC
  5
17F
330
2
100
AcDbEntity
  8
GAIKEI
  6
HIDDEN2
 62
     1
100
AcDbCircle
 10
-6.381376362955606
 20
5.350114564540646
 30
0.0
 40
0.116666666655
100
AcDbArc
 50
90.0
 51
270.0
  0
ARC
  5
180
330
2
100
AcDbEntity
  8
GAIKEI
  6
HIDDEN2
 62
     1
100
AcDbCircle
 10
-7.217067196205391
 20
7.769871730965292
 30
0.0
 40
0.0668388333266495
100
AcDbArc
 50
65.61198600000018
 51
253.2485960000009
  0
ARC
  5
181
330
2
100
AcDbEntity
  8
GAIKEI
  6
HIDDEN2
 62
     1
100
AcDbCircle
 10
-6.764709696250633
 20
7.600114564315646
 30
0.0
 40
0.483333333285
100
AcDbArc
 50
167.3612749999993
 51
192.6387249999974
  0
LINE
  5
182
330
2
100
AcDbEntity
  8
GAIKEI
  6
HIDDEN2
 62
     1
100
AcDbLine
 10
-7.398043029520664
 20
6.600114564415648
 30
0.0
 11
-7.398043029520664
 21
6.733447897735601
 31
0.0
  0
LINE
  5
183
330
2
100
AcDbEntity
  8
GAIKEI
  6
HIDDEN2
 62
     1
100
AcDbLine
 10
-7.464709696180619
 20
6.733447897735601
 30
0.0
 11
-7.381376362855604
 21
6.733447897735601
 31
0.0
  0
LINE
  5
184
330
2
100
AcDbEntity
  8
GAIKEI
  6
HIDDEN2
 62
     1
100
AcDbLine
 10
-7.398043029520664
 20
6.600114564415648
 30
0.0
 11
-7.464709696180619
 21
6.600114564415648
 31
0.0
  0
ARC
  5
185
330
2
100
AcDbEntity
  8
GAIKEI
  6
HIDDEN2
 62
     1
100
AcDbCircle
 10
-7.381376362855604
 20
6.666781231075589
 30
0.0
 40
0.06666666666
100
AcDbArc
 50
0.0
 51
90.0
  0
LINE
  5
186
330
2
100
AcDbEntity
  8
GAIKEI
  6
HIDDEN2
 62
     1
100
AcDbLine
 10
-7.314709696195677
 20
6.666781231075589
 30
0.0
 11
-7.314709696195677
 21
6.600114564415648
 31
0.0
  0
LINE
  5
187
330
2
100
AcDbEntity
  8
GAIKEI
  6
HIDDEN2
 62
     1
100
AcDbLine
 10
-7.314709696195677
 20
6.666781231075589
 30
0.0
 11
-7.381376362855604
 21
6.666781231075589
 31
0.0
  0
LINE
  5
188
330
2
100
AcDbEntity
  8
GAIKEI
  6
HIDDEN2
 62
     1
100
AcDbLine
 10
-7.381376362855604
 20
6.583447897750573
 30
0.0
 11
-7.381376362855604
 21
6.666781231075589
 31
0.0
  0
LINE
  5
189
330
2
100
AcDbEntity
  8
GAIKEI
  6
HIDDEN2
 62
     1
100
AcDbLine
 10
-7.384709696188679
 20
5.906781231151597
 30
0.0
 11
-7.384709696188679
 21
6.006781231141587
 31
0.0
  0
LINE
  5
18A
330
2
100
AcDbEntity
  8
GAIKEI
  6
HIDDEN2
 62
     1
100
AcDbLine
 10
-7.381376362855604
 20
5.933447897815653
 30
0.0
 11
-7.381376362855604
 21
6.006781231141587
 31
0.0
  0
LINE
  5
18B
330
2
100
AcDbEntity
  8
GAIKEI
  6
HIDDEN2
 62
     1
100
AcDbLine
 10
-7.489709696178124
 20
6.516781231090646
 30
0.0
 11
-7.489709696178124
 21
6.01678123114064
 31
0.0
  0
ARC
  5
18C
330
2
100
AcDbEntity
  8
GAIKEI
  6
HIDDEN2
 62
     1
100
AcDbCircle
 10
-7.217067196205391
 20
7.430357564332581
 30
0.0
 40
0.0668388333266495
100
AcDbArc
 50
106.7514039999991
 51
294.6823879999996
  0
LINE
  5
18D
330
2
100
AcDbEntity
  8
GAIKEI
  6
HIDDEN2
 62
     1
100
AcDbLine
 10
-7.384709696188679
 20
5.906781231151597
 30
0.0
 11
-6.878043029572694
 21
5.906781231151597
 31
0.0
  0
LINE
  5
18E
330
2
100
AcDbEntity
  8
GAIKEI
  6
HIDDEN2
 62
     1
100
AcDbLine
 10
-7.384709696188679
 20
6.006781231141587
 30
0.0
 11
-6.878043029572694
 21
6.006781231141587
 31
0.0
  0
LINE
  5
18F
330
2
100
AcDbEntity
  8
GAIKEI
  6
HIDDEN2
 62
     1
100
AcDbLine
 10
-7.381376362855604
 20
5.933447897815653
 30
0.0
 11
-6.881376362905612
 21
5.933447897815653
 31
0.0
  0
LINE
  5
190
330
2
100
AcDbEntity
  8
GAIKEI
  6
HIDDEN2
 62
     1
100
AcDbLine
 10
-7.381376362855604
 20
6.00011456447558
 30
0.0
 11
-6.881376362905612
 21
6.00011456447558
 31
0.0
  0
ARC
  5
191
330
2
100
AcDbEntity
  8
GAIKEI
  6
HIDDEN2
 62
     1
100
AcDbCircle
 10
-6.764709696250633
 20
7.600114564315646
 30
0.0
 40
0.483333333285
100
AcDbArc
 50
97.93380099999501
 51
151.4993069999996
  0
ARC
  5
192
330
2
100
AcDbEntity
  8
GAIKEI
  6
HIDDEN2
 62
     1
100
AcDbCircle
 10
-6.764709696250633
 20
7.600114564315646
 30
0.0
 40
0.483333333285
100
AcDbArc
 50
208.5035099999993
 51
262.0661989999985
  0
LINE
  5
193
330
2
100
AcDbEntity
  8
GAIKEI
  6
HIDDEN2
 62
     1
100
AcDbLine
 10
-6.031376362990627
 20
7.833447897625575
 30
0.0
 11
-6.252362196301845
 21
7.833447897625575
 31
0.0
  0
LINE
  5
194
330
2
100
AcDbEntity
  8
GAIKEI
  6
HIDDEN2
 62
     1
100
AcDbLine
 10
-6.031376362990627
 20
7.366781231005631
 30
0.0
 11
-6.252362196301845
 21
7.366781231005631
 31
0.0
  0
LINE
  5
195
330
2
100
AcDbEntity
  8
GAIKEI
  6
HIDDEN2
 62
     1
100
AcDbLine
 10
-4.964709696430617
 20
5.466781231195611
 30
0.0
 11
-6.381376362955606
 21
5.466781231195611
 31
0.0
  0
LINE
  5
196
330
2
100
AcDbEntity
  8
GAIKEI
  6
HIDDEN2
 62
     1
100
AcDbLine
 10
-4.964709696430617
 20
5.233447897885596
 30
0.0
 11
-6.381376362955606
 21
5.233447897885596
 31
0.0
  0
LINE
  5
197
330
2
100
AcDbEntity
  8
GAIKEI
  6
HIDDEN2
 62
     1
100
AcDbLine
 10
-5.381376363055608
 20
6.600114564415648
 30
0.0
 11
-7.381376362855604
 21
6.600114564415648
 31
0.0
  0
ARC
  5
198
330
2
100
AcDbEntity
  8
GAIKEI
  6
HIDDEN2
 62
     1
100
AcDbCircle
 10
-12.38137636235561
 20
5.350114564540646
 30
0.0
 40
0.116666666655
100
AcDbArc
 50
90.0
 51
270.0
  0
ARC
  5
199
330
2
100
AcDbEntity
  8
GAIKEI
  6
HIDDEN2
 62
     1
100
AcDbCircle
 10
-15.71470969535561
 20
5.350114564540646
 30
0.0
 40
0.116666666655
100
AcDbArc
 50
270.0
 51
90.0
  0
LINE
  5
19A
330
2
100
AcDbEntity
  8
GAIKEI
  6
HIDDEN2
 62
     1
100
AcDbLine
 10
-17.8813763618056
 20
5.466781231195611
 30
0.0
 11
-19.04804302835561
 21
5.466781231195611
 31
0.0
  0
LINE
  5
19B
330
2
100
AcDbEntity
  8
GAIKEI
  6
HIDDEN2
 62
     1
100
AcDbLine
 10
-17.8813763618056
 20
5.233447897885596
 30
0.0
 11
-19.04804302835561
 21
5.233447897885596
 31
0.0
  0
ARC
  5
19C
330
2
100
AcDbEntity
  8
GAIKEI
  6
HIDDEN2
 62
     1
100
AcDbCircle
 10
-19.04804302835561
 20
5.350114564540646
 30
0.0
 40
0.116666666655
100
AcDbArc
 50
90.0
 51
270.0
  0
LINE
  5
19D
330
2
100
AcDbEntity
  8
GAIKEI
  6
HIDDEN2
 62
     1
100
AcDbLine
 10
-17.26470969520064
 20
6.01678123114064
 30
0.0
 11
-17.26470969520064
 21
5.891721231153155
 31
0.0
  0
ARC
  5
19E
330
2
100
AcDbEntity
  8
GAIKEI
  6
HIDDEN2
 62
     1
100
AcDbCircle
 10
-16.7147096952556
 20
6.01678123114064
 30
0.0
 40
0.3333333333
100
AcDbArc
 50
180.0
 51
270.0
  0
ARC
  5
19F
330
2
100
AcDbEntity
  8
GAIKEI
  6
HIDDEN2
 62
     1
100
AcDbCircle
 10
-17.38137636185561
 20
5.683447897840636
 30
0.0
 40
0.223333333311
100
AcDbArc
 50
305.7617140000046
 51
54.23828599999541
  0
ARC
  5
1A0
330
2
100
AcDbEntity
  8
GAIKEI
  6
HIDDEN2
 62
     1
100
AcDbCircle
 10
-17.23137636187067
 20
5.891721231153155
 30
0.0
 40
0.03333333333
100
AcDbArc
 50
180.0
 51
234.2382859999954
  0
LINE
  5
1A1
330
2
100
AcDbEntity
  8
GAIKEI
  6
HIDDEN2
 62
     1
100
AcDbLine
 10
-17.49804302851066
 20
6.01678123114064
 30
0.0
 11
-17.49804302851066
 21
5.891721231153155
 31
0.0
  0
ARC
  5
1A2
330
2
100
AcDbEntity
  8
GAIKEI
  6
HIDDEN2
 62
     1
100
AcDbCircle
 10
-18.04804302845561
 20
6.01678123114064
 30
0.0
 40
0.3333333333
100
AcDbArc
 50
270.0
 51
0.0
  0
ARC
  5
1A3
330
2
100
AcDbEntity
  8
GAIKEI
  6
HIDDEN2
 62
     1
100
AcDbCircle
 10
-17.38137636185561
 20
5.683447897840636
 30
0.0
 40
0.223333333311
100
AcDbArc
 50
125.7617140000045
 51
234.2382859999954
  0
ARC
  5
1A4
330
2
100
AcDbEntity
  8
GAIKEI
  6
HIDDEN2
 62
     1
100
AcDbCircle
 10
-17.53137636184061
 20
5.891721231153155
 30
0.0
 40
0.03333333333
100
AcDbArc
 50
305.7617140000046
 51
0.0
  0
ARC
  5
1A5
330
2
100
AcDbEntity
  8
GAIKEI
  6
HIDDEN2
 62
     1
100
AcDbCircle
 10
-17.38137636185561
 20
6.01678123114064
 30
0.0
 40
0.3333333333
100
AcDbArc
 50
0.0
 51
180.0
  0
ARC
  5
1A6
330
2
100
AcDbEntity
  8
GAIKEI
  6
HIDDEN2
 62
     1
100
AcDbCircle
 10
-17.38137636185561
 20
6.01678123114064
 30
0.0
 40
0.116666666655
100
AcDbArc
 50
0.0
 51
180.0
  0
ARC
  5
1A7
330
2
100
AcDbEntity
  8
GAIKEI
  6
HIDDEN2
 62
     1
100
AcDbCircle
 10
-16.88137636190561
 20
5.350114564540646
 30
0.0
 40
0.116666666655
100
AcDbArc
 50
90.0
 51
270.0
  0
LINE
  5
1A8
330
2
100
AcDbEntity
  8
GAIKEI
  6
HIDDEN2
 62
     1
100
AcDbLine
 10
-17.26470969520064
 20
5.475174564528145
 30
0.0
 11
-17.26470969520064
 21
5.350114564540646
 31
0.0
  0
ARC
  5
1A9
330
2
100
AcDbEntity
  8
GAIKEI
  6
HIDDEN2
 62
     1
100
AcDbCircle
 10
-17.8813763618056
 20
5.350114564540646
 30
0.0
 40
0.116666666655
100
AcDbArc
 50
270.0
 51
90.0
  0
LINE
  5
1AA
330
2
100
AcDbEntity
  8
GAIKEI
  6
HIDDEN2
 62
     1
100
AcDbLine
 10
-17.49804302851066
 20
5.475174564528145
 30
0.0
 11
-17.49804302851066
 21
5.350114564540646
 31
0.0
  0
ARC
  5
1AB
330
2
100
AcDbEntity
  8
GAIKEI
  6
HIDDEN2
 62
     1
100
AcDbCircle
 10
-17.38137636185561
 20
5.350114564540646
 30
0.0
 40
0.116666666655
100
AcDbArc
 50
180.0
 51
0.0
  0
ARC
  5
1AC
330
2
100
AcDbEntity
  8
GAIKEI
  6
HIDDEN2
 62
     1
100
AcDbCircle
 10
-17.53137636184061
 20
5.475174564528145
 30
0.0
 40
0.03333333333
100
AcDbArc
 50
0.0
 51
54.23828599999541
  0
ARC
  5
1AD
330
2
100
AcDbEntity
  8
GAIKEI
  6
HIDDEN2
 62
     1
100
AcDbCircle
 10
-17.23137636187067
 20
5.475174564528145
 30
0.0
 40
0.03333333333
100
AcDbArc
 50
125.7617140000045
 51
180.0
  0
ARC
  5
1AE
330
2
100
AcDbEntity
  8
GAIKEI
  6
HIDDEN2
 62
     1
100
AcDbCircle
 10
-22.38137636135561
 20
5.350114564540646
 30
0.0
 40
0.116666666655
100
AcDbArc
 50
270.0
 51
90.0
  0
LINE
  5
1AF
330
2
100
AcDbEntity
  8
GAIKEI
  6
HIDDEN2
 62
     1
100
AcDbLine
 10
-16.88137636190561
 20
5.466781231195611
 30
0.0
 11
-15.71470969535561
 21
5.466781231195611
 31
0.0
  0
LINE
  5
1B0
330
2
100
AcDbEntity
  8
GAIKEI
  6
HIDDEN2
 62
     1
100
AcDbLine
 10
-16.88137636190561
 20
5.233447897885596
 30
0.0
 11
-15.71470969535561
 21
5.233447897885596
 31
0.0
  0
LINE
  5
1B1
330
2
100
AcDbEntity
  8
GAIKEI
  6
HIDDEN2
 62
     1
100
AcDbLine
 10
-16.7147096952556
 20
5.683447897840636
 30
0.0
 11
-7.823043029478128
 21
5.683447897840636
 31
0.0
  0
LINE
  5
1B2
330
2
100
AcDbEntity
  8
GAIKEI
  6
HIDDEN2
 62
     1
100
AcDbLine
 10
-9.048043029355611
 20
5.466781231195611
 30
0.0
 11
-12.38137636235561
 21
5.466781231195611
 31
0.0
  0
LINE
  5
1B3
330
2
100
AcDbEntity
  8
GAIKEI
  6
HIDDEN2
 62
     1
100
AcDbLine
 10
-9.048043029355611
 20
5.233447897885596
 30
0.0
 11
-12.38137636235561
 21
5.233447897885596
 31
0.0
  0
ARC
  5
1B4
330
2
100
AcDbEntity
  8
GAIKEI
  6
HIDDEN2
 62
     1
100
AcDbCircle
 10
-25.71470969435561
 20
5.350114564540646
 30
0.0
 40
0.116666666655
100
AcDbArc
 50
90.0
 51
270.0
  0
LINE
  5
1B5
330
2
100
AcDbEntity
  8
GAIKEI
  6
HIDDEN2
 62
     1
100
AcDbLine
 10
-28.03137636079063
 20
7.841781230958105
 30
0.0
 11
-28.77895936071587
 21
7.841781230958105
 31
0.0
  0
LINE
  5
1B6
330
2
100
AcDbEntity
  8
GAIKEI
  6
HIDDEN2
 62
     1
100
AcDbLine
 10
-28.03137636079063
 20
7.358447897673102
 30
0.0
 11
-28.77895936071587
 21
7.358447897673102
 31
0.0
  0
LINE
  5
1B7
330
2
100
AcDbEntity
  8
GAIKEI
  6
HIDDEN2
 62
     1
100
AcDbLine
 10
-29.79804302728061
 20
5.466781231195611
 30
0.0
 11
-28.38137636075561
 21
5.466781231195611
 31
0.0
  0
LINE
  5
1B8
330
2
100
AcDbEntity
  8
GAIKEI
  6
HIDDEN2
 62
     1
100
AcDbLine
 10
-29.79804302728061
 20
5.233447897885596
 30
0.0
 11
-28.38137636075561
 21
5.233447897885596
 31
0.0
  0
LINE
  5
1B9
330
2
100
AcDbEntity
  8
GAIKEI
  6
HIDDEN2
 62
     1
100
AcDbLine
 10
-29.38137636065561
 20
6.600114564415648
 30
0.0
 11
-27.38137636085561
 21
6.600114564415648
 31
0.0
  0
ARC
  5
1BA
330
2
100
AcDbEntity
  8
GAIKEI
  6
HIDDEN2
 62
     1
100
AcDbCircle
 10
-29.79804302728061
 20
5.350114564540646
 30
0.0
 40
0.3333333333
100
AcDbArc
 50
90.0
 51
270.0
  0
LINE
  5
1BB
330
2
100
AcDbEntity
  8
GAIKEI
  6
HIDDEN2
 62
     1
100
AcDbLine
 10
-30.29804302723061
 20
6.583447897750573
 30
0.0
 11
-30.29804302723061
 21
4.750114564600579
 31
0.0
  0
POINT
  5
1BC
330
2
100
AcDbEntity
  8
GAIKEI
  6
HIDDEN2
 62
     1
100
AcDbPoint
 10
-28.93137636070064
 20
7.841781230958105
 30
0.0
  0
LINE
  5
1BD
330
2
100
AcDbEntity
  8
GAIKEI
  6
HIDDEN2
 62
     1
100
AcDbLine
 10
-29.46470969398061
 20
8.150114564260604
 30
0.0
 11
-29.2742516939997
 21
8.150114564260604
 31
0.0
  0
LINE
  5
1BE
330
2
100
AcDbEntity
  8
GAIKEI
  6
HIDDEN2
 62
     1
100
AcDbLine
 10
-29.03108036069071
 20
7.957063897613238
 30
0.0
 11
-29.1481911940123
 21
8.092473230933038
 31
0.0
  0
POINT
  5
1BF
330
2
100
AcDbEntity
  8
GAIKEI
  6
HIDDEN2
 62
     1
100
AcDbPoint
 10
-29.19804302734062
 20
8.150114564260604
 30
0.0
  0
ARC
  5
1C0
330
2
100
AcDbEntity
  8
GAIKEI
  6
HIDDEN2
 62
     1
100
AcDbCircle
 10
-29.2742516939997
 20
7.983447897610602
 30
0.0
 40
0.16666666665
100
AcDbArc
 50
40.85537599999951
 51
90.0
  0
ARC
  5
1C1
330
2
100
AcDbEntity
  8
GAIKEI
  6
HIDDEN2
 62
     1
100
AcDbCircle
 10
-28.77895936071587
 20
8.175114564258109
 30
0.0
 40
0.3333333333
100
AcDbArc
 50
220.8553759999995
 51
270.0
  0
POINT
  5
1C2
330
2
100
AcDbEntity
  8
GAIKEI
  6
HIDDEN2
 62
     1
100
AcDbPoint
 10
-28.93137636070064
 20
7.358447897673102
 30
0.0
  0
LINE
  5
1C3
330
2
100
AcDbEntity
  8
GAIKEI
  6
HIDDEN2
 62
     1
100
AcDbLine
 10
-28.87804302737269
 20
5.906781231151597
 30
0.0
 11
-28.87804302737269
 21
6.006781231141587
 31
0.0
  0
LINE
  5
1C4
330
2
100
AcDbEntity
  8
GAIKEI
  6
HIDDEN2
 62
     1
100
AcDbLine
 10
-28.88137636070562
 20
5.933447897815653
 30
0.0
 11
-28.88137636070562
 21
6.006781231141587
 31
0.0
  0
LINE
  5
1C5
330
2
100
AcDbEntity
  8
GAIKEI
  6
HIDDEN2
 62
     1
100
AcDbLine
 10
-29.39804302732067
 20
6.600114564415648
 30
0.0
 11
-29.39804302732067
 21
6.733447897735601
 31
0.0
  0
LINE
  5
1C6
330
2
100
AcDbEntity
  8
GAIKEI
  6
HIDDEN2
 62
     1
100
AcDbLine
 10
-29.46470969398061
 20
6.733447897735601
 30
0.0
 11
-29.38137636065561
 21
6.733447897735601
 31
0.0
  0
LINE
  5
1C7
330
2
100
AcDbEntity
  8
GAIKEI
  6
HIDDEN2
 62
     1
100
AcDbLine
 10
-29.39804302732067
 20
6.600114564415648
 30
0.0
 11
-29.46470969398061
 21
6.600114564415648
 31
0.0
  0
ARC
  5
1C8
330
2
100
AcDbEntity
  8
GAIKEI
  6
HIDDEN2
 62
     1
100
AcDbCircle
 10
-29.38137636065561
 20
6.666781231075589
 30
0.0
 40
0.06666666666
100
AcDbArc
 50
0.0
 51
90.0
  0
LINE
  5
1C9
330
2
100
AcDbEntity
  8
GAIKEI
  6
HIDDEN2
 62
     1
100
AcDbLine
 10
-29.31470969399567
 20
6.666781231075589
 30
0.0
 11
-29.31470969399567
 21
6.600114564415648
 31
0.0
  0
LINE
  5
1CA
330
2
100
AcDbEntity
  8
GAIKEI
  6
HIDDEN2
 62
     1
100
AcDbLine
 10
-29.31470969399567
 20
6.666781231075589
 30
0.0
 11
-29.38137636065561
 21
6.666781231075589
 31
0.0
  0
LINE
  5
1CB
330
2
100
AcDbEntity
  8
GAIKEI
  6
HIDDEN2
 62
     1
100
AcDbLine
 10
-29.46470969398061
 20
7.050114564370616
 30
0.0
 11
-29.2742516939997
 21
7.050114564370616
 31
0.0
  0
LINE
  5
1CC
330
2
100
AcDbEntity
  8
GAIKEI
  6
HIDDEN2
 62
     1
100
AcDbLine
 10
-29.03108036069071
 20
7.243165231017982
 30
0.0
 11
-29.1481911940123
 21
7.107755897698169
 31
0.0
  0
POINT
  5
1CD
330
2
100
AcDbEntity
  8
GAIKEI
  6
HIDDEN2
 62
     1
100
AcDbPoint
 10
-29.19804302734062
 20
7.050114564370616
 30
0.0
  0
ARC
  5
1CE
330
2
100
AcDbEntity
  8
GAIKEI
  6
HIDDEN2
 62
     1
100
AcDbCircle
 10
-29.2742516939997
 20
7.216781231020604
 30
0.0
 40
0.16666666665
100
AcDbArc
 50
270.0
 51
319.1446240000005
  0
LINE
  5
1CF
330
2
100
AcDbEntity
  8
GAIKEI
  6
HIDDEN2
 62
     1
100
AcDbLine
 10
-29.04804302735562
 20
6.583447897750573
 30
0.0
 11
-29.04804302735562
 21
6.516781231090646
 31
0.0
  0
LINE
  5
1D0
330
2
100
AcDbEntity
  8
GAIKEI
  6
HIDDEN2
 62
     1
100
AcDbLine
 10
-29.38137636065561
 20
6.583447897750573
 30
0.0
 11
-29.38137636065561
 21
6.666781231075589
 31
0.0
  0
LINE
  5
1D1
330
2
100
AcDbEntity
  8
GAIKEI
  6
HIDDEN2
 62
     1
100
AcDbLine
 10
-29.04804302735562
 20
6.516781231090646
 30
0.0
 11
-30.29804302723061
 21
6.516781231090646
 31
0.0
  0
LINE
  5
1D2
330
2
100
AcDbEntity
  8
GAIKEI
  6
HIDDEN2
 62
     1
100
AcDbLine
 10
-29.38470969398868
 20
5.906781231151597
 30
0.0
 11
-29.38470969398868
 21
6.006781231141587
 31
0.0
  0
LINE
  5
1D3
330
2
100
AcDbEntity
  8
GAIKEI
  6
HIDDEN2
 62
     1
100
AcDbLine
 10
-29.38137636065561
 20
5.933447897815653
 30
0.0
 11
-29.38137636065561
 21
6.006781231141587
 31
0.0
  0
ARC
  5
1D4
330
2
100
AcDbEntity
  8
GAIKEI
  6
HIDDEN2
 62
     1
100
AcDbCircle
 10
-29.82304302727812
 20
6.016059564474005
 30
0.0
 40
0.3333333333
100
AcDbArc
 50
274.3012219999993
 51
0.0
  0
LINE
  5
1D5
330
2
100
AcDbEntity
  8
GAIKEI
  6
HIDDEN2
 62
     1
100
AcDbLine
 10
-29.48970969397811
 20
6.516781231090646
 30
0.0
 11
-29.48970969397811
 21
6.016059564474005
 31
0.0
  0
ARC
  5
1D6
330
2
100
AcDbEntity
  8
GAIKEI
  6
HIDDEN2
 62
     1
100
AcDbCircle
 10
-29.79804302728061
 20
5.350114564540646
 30
0.0
 40
0.116666666655
100
AcDbArc
 50
90.0
 51
270.0
  0
LINE
  5
1D7
330
2
100
AcDbEntity
  8
GAIKEI
  6
HIDDEN2
 62
     1
100
AcDbLine
 10
-29.38470969398868
 20
5.906781231151597
 30
0.0
 11
-28.87804302737269
 21
5.906781231151597
 31
0.0
  0
LINE
  5
1D8
330
2
100
AcDbEntity
  8
GAIKEI
  6
HIDDEN2
 62
     1
100
AcDbLine
 10
-29.38470969398868
 20
6.006781231141587
 30
0.0
 11
-28.87804302737269
 21
6.006781231141587
 31
0.0
  0
LINE
  5
1D9
330
2
100
AcDbEntity
  8
GAIKEI
  6
HIDDEN2
 62
     1
100
AcDbLine
 10
-28.88137636070562
 20
5.933447897815653
 30
0.0
 11
-29.38137636065561
 21
5.933447897815653
 31
0.0
  0
LINE
  5
1DA
330
2
100
AcDbEntity
  8
GAIKEI
  6
HIDDEN2
 62
     1
100
AcDbLine
 10
-28.88137636070562
 20
6.00011456447558
 30
0.0
 11
-29.38137636065561
 21
6.00011456447558
 31
0.0
  0
ARC
  5
1DB
330
2
100
AcDbEntity
  8
GAIKEI
  6
HIDDEN2
 62
     1
100
AcDbCircle
 10
-28.77895936071587
 20
7.025114564373097
 30
0.0
 40
0.3333333333
100
AcDbArc
 50
90.0
 51
139.1446240000005
  0
LINE
  5
1DC
330
2
100
AcDbEntity
  8
GAIKEI
  6
HIDDEN2
 62
     1
100
AcDbLine
 10
-29.39804302732067
 20
8.150114564260604
 30
0.0
 11
-29.39804302732067
 21
7.050114564370616
 31
0.0
  0
LINE
  5
1DD
330
2
100
AcDbEntity
  8
GAIKEI
  6
HIDDEN2
 62
     1
100
AcDbLine
 10
-27.81470969414568
 20
7.575114564318127
 30
0.0
 11
-27.81470969414568
 21
7.625114564313079
 31
0.0
  0
ARC
  5
1DE
330
2
100
AcDbEntity
  8
GAIKEI
  6
HIDDEN2
 62
     1
100
AcDbCircle
 10
-28.03137636079063
 20
7.625114564313079
 30
0.0
 40
0.216666666645
100
AcDbArc
 50
0.0
 51
90.0
  0
LINE
  5
1DF
330
2
100
AcDbEntity
  8
GAIKEI
  6
HIDDEN2
 62
     1
100
AcDbLine
 10
-28.35637636075816
 20
8.216781230920616
 30
0.0
 11
-28.40637636075312
 21
8.216781230920616
 31
0.0
  0
ARC
  5
1E0
330
2
100
AcDbEntity
  8
GAIKEI
  6
HIDDEN2
 62
     1
100
AcDbCircle
 10
-28.35637636075816
 20
8.433447897565642
 30
0.0
 40
0.216666666645
100
AcDbArc
 50
270.0
 51
0.0
  0
ARC
  5
1E1
330
2
100
AcDbEntity
  8
GAIKEI
  6
HIDDEN2
 62
     1
100
AcDbCircle
 10
-28.40637636075312
 20
8.433447897565642
 30
0.0
 40
0.216666666645
100
AcDbArc
 50
180.0
 51
270.0
  0
LINE
  5
1E2
330
2
100
AcDbEntity
  8
GAIKEI
  6
HIDDEN2
 62
     1
100
AcDbLine
 10
-27.36470969419062
 20
6.600114564415648
 30
0.0
 11
-27.36470969419062
 21
6.733447897735601
 31
0.0
  0
LINE
  5
1E3
330
2
100
AcDbEntity
  8
GAIKEI
  6
HIDDEN2
 62
     1
100
AcDbLine
 10
-27.29804302753061
 20
6.733447897735601
 30
0.0
 11
-27.38137636085561
 21
6.733447897735601
 31
0.0
  0
LINE
  5
1E4
330
2
100
AcDbEntity
  8
GAIKEI
  6
HIDDEN2
 62
     1
100
AcDbLine
 10
-27.36470969419062
 20
6.600114564415648
 30
0.0
 11
-27.29804302753061
 21
6.600114564415648
 31
0.0
  0
ARC
  5
1E5
330
2
100
AcDbEntity
  8
GAIKEI
  6
HIDDEN2
 62
     1
100
AcDbCircle
 10
-27.38137636085561
 20
6.666781231075589
 30
0.0
 40
0.06666666666
100
AcDbArc
 50
90.0
 51
180.0
  0
LINE
  5
1E6
330
2
100
AcDbEntity
  8
GAIKEI
  6
HIDDEN2
 62
     1
100
AcDbLine
 10
-27.44804302751563
 20
6.666781231075589
 30
0.0
 11
-27.44804302751563
 21
6.600114564415648
 31
0.0
  0
LINE
  5
1E7
330
2
100
AcDbEntity
  8
GAIKEI
  6
HIDDEN2
 62
     1
100
AcDbLine
 10
-27.44804302751563
 20
6.666781231075589
 30
0.0
 11
-27.38137636085561
 21
6.666781231075589
 31
0.0
  0
LINE
  5
1E8
330
2
100
AcDbEntity
  8
GAIKEI
  6
HIDDEN2
 62
     1
100
AcDbLine
 10
-27.38137636085561
 20
6.583447897750573
 30
0.0
 11
-27.38137636085561
 21
6.666781231075589
 31
0.0
  0
LINE
  5
1E9
330
2
100
AcDbEntity
  8
GAIKEI
  6
HIDDEN2
 62
     1
100
AcDbLine
 10
-27.3780430275227
 20
5.906781231151597
 30
0.0
 11
-27.3780430275227
 21
6.006781231141587
 31
0.0
  0
LINE
  5
1EA
330
2
100
AcDbEntity
  8
GAIKEI
  6
HIDDEN2
 62
     1
100
AcDbLine
 10
-27.38137636085561
 20
5.933447897815653
 30
0.0
 11
-27.38137636085561
 21
6.006781231141587
 31
0.0
  0
LINE
  5
1EB
330
2
100
AcDbEntity
  8
GAIKEI
  6
HIDDEN2
 62
     1
100
AcDbLine
 10
-27.27304302753316
 20
6.516781231090646
 30
0.0
 11
-27.27304302753316
 21
6.01678123114064
 31
0.0
  0
LINE
  5
1EC
330
2
100
AcDbEntity
  8
GAIKEI
  6
HIDDEN2
 62
     1
100
AcDbLine
 10
-27.7147096941556
 20
6.583447897750573
 30
0.0
 11
-27.7147096941556
 21
6.516781231090646
 31
0.0
  0
LINE
  5
1ED
330
2
100
AcDbEntity
  8
GAIKEI
  6
HIDDEN2
 62
     1
100
AcDbLine
 10
-27.88470969413868
 20
5.906781231151597
 30
0.0
 11
-27.88470969413868
 21
6.006781231141587
 31
0.0
  0
LINE
  5
1EE
330
2
100
AcDbEntity
  8
GAIKEI
  6
HIDDEN2
 62
     1
100
AcDbLine
 10
-27.8813763608056
 20
5.933447897815653
 30
0.0
 11
-27.8813763608056
 21
6.006781231141587
 31
0.0
  0
LINE
  5
1EF
330
2
100
AcDbEntity
  8
GAIKEI
  6
HIDDEN2
 62
     1
100
AcDbLine
 10
-27.3780430275227
 20
5.906781231151597
 30
0.0
 11
-27.88470969413868
 21
5.906781231151597
 31
0.0
  0
LINE
  5
1F0
330
2
100
AcDbEntity
  8
GAIKEI
  6
HIDDEN2
 62
     1
100
AcDbLine
 10
-27.3780430275227
 20
6.006781231141587
 30
0.0
 11
-27.88470969413868
 21
6.006781231141587
 31
0.0
  0
LINE
  5
1F1
330
2
100
AcDbEntity
  8
GAIKEI
  6
HIDDEN2
 62
     1
100
AcDbLine
 10
-27.38137636085561
 20
5.933447897815653
 30
0.0
 11
-27.8813763608056
 21
5.933447897815653
 31
0.0
  0
LINE
  5
1F2
330
2
100
AcDbEntity
  8
GAIKEI
  6
HIDDEN2
 62
     1
100
AcDbLine
 10
-27.38137636085561
 20
6.00011456447558
 30
0.0
 11
-27.8813763608056
 21
6.00011456447558
 31
0.0
  0
ARC
  5
1F3
330
2
100
AcDbEntity
  8
GAIKEI
  6
HIDDEN2
 62
     1
100
AcDbCircle
 10
-28.38137636075561
 20
5.350114564540646
 30
0.0
 40
0.116666666655
100
AcDbArc
 50
270.0
 51
90.0
  0
ARC
  5
1F4
330
2
100
AcDbEntity
  8
GAIKEI
  6
HIDDEN2
 62
     1
100
AcDbCircle
 10
-28.03137636079063
 20
7.575114564318127
 30
0.0
 40
0.216666666645
100
AcDbArc
 50
270.0
 51
0.0
  0
ARC
  5
1F5
330
2
100
AcDbEntity
  8
GAIKEI
  6
HIDDEN2
 62
     1
100
AcDbCircle
 10
-26.93970969423316
 20
6.01678123114064
 30
0.0
 40
0.3333333333
100
AcDbArc
 50
180.0
 51
270.0
  0
LINE
  5
1F6
330
2
100
AcDbEntity
  8
GAIKEI
  6
HIDDEN2
 62
     1
100
AcDbLine
 10
-18.04804302845561
 20
5.683447897840636
 30
0.0
 11
-26.93970969423316
 21
5.683447897840636
 31
0.0
  0
LINE
  5
1F7
330
2
100
AcDbEntity
  8
GAIKEI
  6
HIDDEN2
 62
     1
100
AcDbLine
 10
-4.464709696480611
 20
4.750114564600579
 30
0.0
 11
-30.29804302723061
 21
4.750114564600579
 31
0.0
  0
LINE
  5
1F8
330
2
100
AcDbEntity
  8
GAIKEI
  6
HIDDEN2
 62
     1
100
AcDbLine
 10
-4.464709696480611
 20
4.816781231260591
 30
0.0
 11
-30.29804302723061
 21
4.816781231260591
 31
0.0
  0
LINE
  5
1F9
330
2
100
AcDbEntity
  8
GAIKEI
  6
HIDDEN2
 62
     1
100
AcDbLine
 10
-4.964709696430617
 20
5.016781231240642
 30
0.0
 11
-29.79804302728061
 21
5.016781231240642
 31
0.0
  0
LINE
  5
1FA
330
2
100
AcDbEntity
  8
GAIKEI
  6
HIDDEN2
 62
     1
100
AcDbLine
 10
-7.0480430295556
 20
6.516781231090646
 30
0.0
 11
-27.7147096941556
 21
6.516781231090646
 31
0.0
  0
LINE
  5
1FB
330
2
100
AcDbEntity
  8
GAIKEI
  6
HIDDEN2
 62
     1
100
AcDbLine
 10
-30.29804302723061
 20
6.583447897750573
 30
0.0
 11
-4.464709696480611
 21
6.583447897750573
 31
0.0
  0
LINE
  5
1FC
330
2
100
AcDbEntity
  8
GAIKEI
  6
HIDDEN2
 62
     1
100
AcDbLine
 10
-25.71470969435561
 20
5.466781231195611
 30
0.0
 11
-22.38137636135561
 21
5.466781231195611
 31
0.0
  0
LINE
  5
1FD
330
2
100
AcDbEntity
  8
GAIKEI
  6
HIDDEN2
 62
     1
100
AcDbLine
 10
-25.71470969435561
 20
5.233447897885596
 30
0.0
 11
-22.38137636135561
 21
5.233447897885596
 31
0.0
  0
LINE
  5
1FE
330
2
100
AcDbEntity
  8
GAIKEI
  6
HIDDEN2
 62
     1
100
AcDbLine
 10
-5.298043029730607
 20
20.10011456306564
 30
0.0
 11
-5.298043029730607
 21
6.600114564415648
 31
0.0
  0
LINE
  5
1FF
330
2
100
AcDbEntity
  8
GAIKEI
  6
HIDDEN2
 62
     1
100
AcDbLine
 10
-7.464709696180619
 20
20.10011456306564
 30
0.0
 11
-7.464709696180619
 21
6.600114564415648
 31
0.0
  0
LINE
  5
200
330
2
100
AcDbEntity
  8
GAIKEI
  6
HIDDEN2
 62
     1
100
AcDbLine
 10
-27.29804302753061
 20
20.10011456306564
 30
0.0
 11
-27.29804302753061
 21
6.600114564415648
 31
0.0
  0
LINE
  5
201
330
2
100
AcDbEntity
  8
GAIKEI
  6
HIDDEN2
 62
     1
100
AcDbLine
 10
-29.46470969398061
 20
20.10011456306564
 30
0.0
 11
-29.46470969398061
 21
6.600114564415648
 31
0.0
  0
LINE
  5
202
330
2
100
AcDbEntity
  8
GAIKEI
  6
HIDDEN2
 62
     1
100
AcDbLine
 10
-28.13970969411314
 20
8.433447897565642
 30
0.0
 11
-28.13970969411314
 21
8.577820397551192
 31
0.0
  0
LINE
  5
203
330
2
100
AcDbEntity
  8
GAIKEI
  6
HIDDEN2
 62
     1
100
AcDbLine
 10
-28.62304302739815
 20
8.433447897565642
 30
0.0
 11
-28.62304302739815
 21
8.577820397551192
 31
0.0
  0
LINE
  5
204
330
2
100
AcDbEntity
  8
GAIKEI
  6
HIDDEN2
 62
     1
100
AcDbLine
 10
-6.139709696313133
 20
8.433447897565642
 30
0.0
 11
-6.139709696313133
 21
8.577820397551192
 31
0.0
  0
LINE
  5
205
330
2
100
AcDbEntity
  8
GAIKEI
  6
HIDDEN2
 62
     1
100
AcDbLine
 10
-6.62304302959815
 20
8.433447897565642
 30
0.0
 11
-6.62304302959815
 21
8.577820397551192
 31
0.0
  0
DIMENSION
  5
206
330
2
100
AcDbEntity
  8
SUNPO
100
AcDbDimension
  2
*D8
 10
-49.10646861786112
 20
21.95011456288063
 30
0.0
 11
-50.85646861786113
 21
13.3501145637406
 31
0.0
 70
    33
  1
516
 71
     5
 42
17.19999999828003
  3
STANDARD
100
AcDbAlignedDimension
 13
-41.10646861786112
 23
4.750114564600593
 33
0.0
 14
-41.10646861786112
 24
21.95011456288063
 34
0.0
1001
ACAD
1000
DSTYLE
1002
{
1070
   287
1070
     3
1070
   287
1070
     3
1070
   287
1070
     3
1070
   287
1070
     3
1070
   287
1070
     3
1070
   287
1070
     3
1070
   287
1070
     3
1070
   287
1070
     3
1070
   287
1070
     3
1070
   287
1070
     3
1070
   287
1070
     3
1070
    40
1040
1.0
1070
   140
1040
2.5
1070
   147
1040
0.5
1070
   172
1070
     1
1070
   279
1070
     0
1070
   288
1070
     0
1002
}
  0
DIMENSION
  5
214
330
2
100
AcDbEntity
  8
SUNPO
100
AcDbDimension
  2
*D7
 10
-4.464709696480611
 20
-6.299885435094438
 30
0.0
 11
-17.38137636185561
 21
-4.549885435094438
 31
0.0
 70
    33
  1
775
 71
     5
 42
25.83333333075
  3
STANDARD
100
AcDbAlignedDimension
 13
-30.29804302723061
 23
1.700114564905561
 33
0.0
 14
-4.464709696480611
 24
1.700114564905561
 34
0.0
1001
ACAD
1000
DSTYLE
1002
{
1070
   287
1070
     3
1070
   287
1070
     3
1070
   287
1070
     3
1070
   287
1070
     3
1070
   287
1070
     3
1070
   287
1070
     3
1070
   287
1070
     3
1070
   287
1070
     3
1070
   287
1070
     3
1070
   287
1070
     3
1070
   287
1070
     3
1070
    40
1040
1.0
1070
   140
1040
2.5
1070
   147
1040
0.5
1070
   172
1070
     1
1070
   279
1070
     0
1070
   288
1070
     0
1002
}
  0
LINE
  5
221
330
2
100
AcDbEntity
  8
GAIKEI
  6
Continuous
 62
     1
100
AcDbLine
 10
34.79004420210202
 20
21.88344789611978
 30
0.0
 11
34.79004420210202
 21
20.18344789629038
 31
0.0
  0
LINE
  5
222
330
2
100
AcDbEntity
  8
GAIKEI
  6
Continuous
 62
     1
100
AcDbLine
 10
34.52337753546217
 20
21.95011456277975
 30
0.0
 11
34.79004420210202
 21
21.95011456277975
 31
0.0
  0
LINE
  5
223
330
2
100
AcDbEntity
  8
GAIKEI
  6
Continuous
 62
     1
100
AcDbLine
 10
34.52337753546217
 20
21.88344789611978
 30
0.0
 11
34.79004420210202
 21
21.88344789611978
 31
0.0
  0
LINE
  5
224
330
2
100
AcDbEntity
  8
GAIKEI
  6
Continuous
 62
     1
100
AcDbLine
 10
34.52337753546217
 20
20.18344789629038
 30
0.0
 11
34.79004420210202
 21
20.18344789629038
 31
0.0
  0
LINE
  5
225
330
2
100
AcDbEntity
  8
GAIKEI
  6
Continuous
 62
     1
100
AcDbLine
 10
34.52337753546217
 20
21.88344789611978
 30
0.0
 11
34.52337753546217
 21
21.95011456277975
 31
0.0
  0
LINE
  5
226
330
2
100
AcDbEntity
  8
GAIKEI
  6
Continuous
 62
     1
100
AcDbLine
 10
34.52337753546217
 20
20.18344789629038
 30
0.0
 11
34.52337753546217
 21
20.11678122963036
 31
0.0
  0
ARC
  5
227
330
2
100
AcDbEntity
  8
GAIKEI
  6
Continuous
 62
     1
100
AcDbCircle
 10
34.79004420210202
 20
21.88344789611978
 30
0.0
 40
0.0666666666599773
100
AcDbArc
 50
0.0
 51
90.0
  0
ARC
  5
228
330
2
100
AcDbEntity
  8
GAIKEI
  6
Continuous
 62
     1
100
AcDbCircle
 10
34.79004420210202
 20
20.18344789629038
 30
0.0
 40
0.0666666666599773
100
AcDbArc
 50
270.0
 51
0.0
  0
ARC
  5
229
330
2
100
AcDbEntity
  8
GAIKEI
  6
Continuous
 62
     1
100
AcDbCircle
 10
34.79004420210202
 20
21.58344789614986
 30
0.0
 40
0.0666666666599773
100
AcDbArc
 50
138.1896849999924
 51
180.0
  0
LINE
  5
22A
330
2
100
AcDbEntity
  8
GAIKEI
  6
Continuous
 62
     1
100
AcDbLine
 10
34.79004420210202
 20
21.68344789613984
 30
0.0
 11
34.74035386877371
 21
21.62789239614547
 31
0.0
  0
ARC
  5
22B
330
2
100
AcDbEntity
  8
GAIKEI
  6
Continuous
 62
     1
100
AcDbCircle
 10
34.79004420210202
 20
21.11678122953006
 30
0.0
 40
0.0666666666599773
100
AcDbArc
 50
180.0
 51
221.8103150000075
  0
LINE
  5
22C
330
2
100
AcDbEntity
  8
GAIKEI
  6
Continuous
 62
     1
100
AcDbLine
 10
34.79004420210202
 20
21.01678122954007
 30
0.0
 11
34.74035386877371
 21
21.07233689620116
 31
0.0
  0
LINE
  5
22D
330
2
100
AcDbEntity
  8
GAIKEI
  6
Continuous
 62
     1
100
AcDbLine
 10
34.72337753544207
 20
21.88344789611978
 30
0.0
 11
34.72337753544207
 21
20.18344789629038
 31
0.0
  0
LINE
  5
22E
330
2
100
AcDbEntity
  8
GAIKEI
  6
Continuous
 62
     1
100
AcDbLine
 10
34.85671086876204
 20
4.816781231165592
 30
0.0
 11
34.85671086876204
 21
6.600114564319994
 31
0.0
  0
LINE
  5
22F
330
2
100
AcDbEntity
  8
GAIKEI
  6
Continuous
 62
     1
100
AcDbLine
 10
34.79004420210202
 20
4.816781231165592
 30
0.0
 11
34.79004420210202
 21
6.516781230994993
 31
0.0
  0
LINE
  5
230
330
2
100
AcDbEntity
  8
GAIKEI
  6
Continuous
 62
     1
100
AcDbLine
 10
34.52337753546217
 20
4.750114564505622
 30
0.0
 11
34.79004420210202
 21
4.750114564505622
 31
0.0
  0
LINE
  5
231
330
2
100
AcDbEntity
  8
GAIKEI
  6
Continuous
 62
     1
100
AcDbLine
 10
34.52337753546217
 20
4.816781231165592
 30
0.0
 11
34.79004420210202
 21
4.816781231165592
 31
0.0
  0
LINE
  5
232
330
2
100
AcDbEntity
  8
GAIKEI
  6
Continuous
 62
     1
100
AcDbLine
 10
34.52337753546217
 20
6.516781230994993
 30
0.0
 11
34.79004420210202
 21
6.516781230994993
 31
0.0
  0
LINE
  5
233
330
2
100
AcDbEntity
  8
GAIKEI
  6
Continuous
 62
     1
100
AcDbLine
 10
34.52337753546217
 20
4.816781231165592
 30
0.0
 11
34.52337753546217
 21
4.750114564505622
 31
0.0
  0
LINE
  5
234
330
2
100
AcDbEntity
  8
GAIKEI
  6
Continuous
 62
     1
100
AcDbLine
 10
34.52337753546217
 20
6.516781230994993
 30
0.0
 11
34.52337753546217
 21
6.58344789765502
 31
0.0
  0
ARC
  5
235
330
2
100
AcDbEntity
  8
GAIKEI
  6
Continuous
 62
     1
100
AcDbCircle
 10
34.79004420210202
 20
4.816781231165592
 30
0.0
 40
0.0666666666599773
100
AcDbArc
 50
270.0
 51
0.0
  0
ARC
  5
236
330
2
100
AcDbEntity
  8
GAIKEI
  6
Continuous
 62
     1
100
AcDbCircle
 10
34.79004420210202
 20
6.516781230994993
 30
0.0
 40
0.0666666666599773
100
AcDbArc
 50
0.0
 51
90.0
  0
ARC
  5
237
330
2
100
AcDbEntity
  8
GAIKEI
  6
Continuous
 62
     1
100
AcDbCircle
 10
34.79004420210202
 20
5.116781231135519
 30
0.0
 40
0.0666666666599773
100
AcDbArc
 50
180.0
 51
221.8103150000075
  0
LINE
  5
238
330
2
100
AcDbEntity
  8
GAIKEI
  6
Continuous
 62
     1
100
AcDbLine
 10
34.79004420210202
 20
5.016781231145529
 30
0.0
 11
34.74035386877371
 21
5.072336897806621
 31
0.0
  0
ARC
  5
239
330
2
100
AcDbEntity
  8
GAIKEI
  6
Continuous
 62
     1
100
AcDbCircle
 10
34.79004420210202
 20
5.58344789775532
 30
0.0
 40
0.0666666666599773
100
AcDbArc
 50
138.1896849999924
 51
180.0
  0
LINE
  5
23A
330
2
100
AcDbEntity
  8
GAIKEI
  6
Continuous
 62
     1
100
AcDbLine
 10
34.79004420210202
 20
5.683447897745296
 30
0.0
 11
34.74035386877371
 21
5.627892397750926
 31
0.0
  0
LINE
  5
23B
330
2
100
AcDbEntity
  8
GAIKEI
  6
Continuous
 62
     1
100
AcDbLine
 10
34.72337753544207
 20
4.816781231165592
 30
0.0
 11
34.72337753544207
 21
6.516781230994993
 31
0.0
  0
LINE
  5
23C
330
2
100
AcDbEntity
  8
GAIKEI
  6
Continuous
 62
     1
100
AcDbLine
 10
34.85671086876204
 20
21.88344789611978
 30
0.0
 11
34.85671086876204
 21
20.10011456296537
 31
0.0
  0
LINE
  5
23D
330
2
100
AcDbEntity
  8
GAIKEI
  6
Continuous
 62
     1
100
AcDbLine
 10
34.19004420216225
 20
20.03344789630539
 30
0.0
 11
34.19004420216225
 21
6.666781230979978
 31
0.0
  0
LINE
  5
23E
330
2
100
AcDbEntity
  8
GAIKEI
  6
Continuous
 62
     1
100
AcDbLine
 10
34.25671086882227
 20
6.600114564319994
 30
0.0
 11
34.77337753543704
 21
6.600114564319994
 31
0.0
  0
LINE
  5
23F
330
2
100
AcDbEntity
  8
GAIKEI
  6
Continuous
 62
     1
100
AcDbLine
 10
34.25671086882227
 20
20.10011456296537
 30
0.0
 11
34.77337753543704
 21
20.10011456296537
 31
0.0
  0
LINE
  5
240
330
2
100
AcDbEntity
  8
GAIKEI
  6
Continuous
 62
     1
100
AcDbLine
 10
34.25671086882227
 20
20.03344789630539
 30
0.0
 11
34.25671086882227
 21
19.96678122964542
 31
0.0
  0
ARC
  5
241
330
2
100
AcDbEntity
  8
GAIKEI
  6
Continuous
 62
     1
100
AcDbCircle
 10
34.25671086882227
 20
6.666781230979978
 30
0.0
 40
0.0666666666599773
100
AcDbArc
 50
180.0
 51
270.0
  0
ARC
  5
242
330
2
100
AcDbEntity
  8
GAIKEI
  6
Continuous
 62
     1
100
AcDbCircle
 10
34.25671086882227
 20
20.03344789630539
 30
0.0
 40
0.0666666666599773
100
AcDbArc
 50
90.0
 51
180.0
  0
CIRCLE
  5
243
330
2
100
AcDbEntity
  8
GAIKEI
  6
Continuous
 62
     1
100
AcDbCircle
 10
34.45671086880216
 20
8.916781230754168
 30
0.0
 40
0.0683333333264767
  0
CIRCLE
  5
244
330
2
100
AcDbEntity
  8
GAIKEI
  6
Continuous
 62
     1
100
AcDbCircle
 10
34.45671086880216
 20
8.916781230754168
 30
0.0
 40
0.0833333333249716
  0
LINE
  5
245
330
2
100
AcDbEntity
  8
GAIKEI
  6
Continuous
 62
     1
100
AcDbLine
 10
34.19004420216225
 20
19.96678122964542
 30
0.0
 11
34.25671086882227
 21
19.96678122964542
 31
0.0
  0
LINE
  5
246
330
2
100
AcDbEntity
  8
GAIKEI
  6
Continuous
 62
     1
100
AcDbLine
 10
34.25671086882227
 20
20.03344789630539
 30
0.0
 11
34.32337753548221
 21
20.03344789630539
 31
0.0
  0
LINE
  5
247
330
2
100
AcDbEntity
  8
GAIKEI
  6
Continuous
 62
     1
100
AcDbLine
 10
34.19004420216225
 20
6.733447897639948
 30
0.0
 11
34.25671086882227
 21
6.733447897639948
 31
0.0
  0
LINE
  5
248
330
2
100
AcDbEntity
  8
GAIKEI
  6
Continuous
 62
     1
100
AcDbLine
 10
34.25671086882227
 20
6.733447897639948
 30
0.0
 11
34.25671086882227
 21
6.668067064313163
 31
0.0
  0
LINE
  5
249
330
2
100
AcDbEntity
  8
GAIKEI
  6
Continuous
 62
     1
100
AcDbLine
 10
34.25671086882227
 20
6.666781230979978
 30
0.0
 11
34.32337753548221
 21
6.666781230979978
 31
0.0
  0
ARC
  5
24A
330
2
100
AcDbEntity
  8
GAIKEI
  6
Continuous
 62
     1
100
AcDbCircle
 10
34.25671086882227
 20
20.03344789630539
 30
0.0
 40
0.0666666666599773
100
AcDbArc
 50
270.0
 51
0.0
  0
ARC
  5
24B
330
2
100
AcDbEntity
  8
GAIKEI
  6
Continuous
 62
     1
100
AcDbCircle
 10
34.39004420214215
 20
20.03344789630539
 30
0.0
 40
0.0666666666599773
100
AcDbArc
 50
90.0
 51
180.0
  0
ARC
  5
24C
330
2
100
AcDbEntity
  8
GAIKEI
  6
Continuous
 62
     1
100
AcDbCircle
 10
34.25671086882227
 20
6.666781230979978
 30
0.0
 40
0.0666666666599773
100
AcDbArc
 50
0.0
 51
90.0
  0
ARC
  5
24D
330
2
100
AcDbEntity
  8
GAIKEI
  6
Continuous
 62
     1
100
AcDbCircle
 10
34.39004420214215
 20
6.666781230979978
 30
0.0
 40
0.0666666666599773
100
AcDbArc
 50
180.0
 51
270.0
  0
ARC
  5
24E
330
2
100
AcDbEntity
  8
GAIKEI
  6
Continuous
 62
     1
100
AcDbCircle
 10
34.77337753543704
 20
20.03344789630539
 30
0.0
 40
0.0666666666599773
100
AcDbArc
 50
0.0
 51
90.0
  0
ARC
  5
24F
330
2
100
AcDbEntity
  8
GAIKEI
  6
Continuous
 62
     1
100
AcDbCircle
 10
34.79004420210202
 20
20.10011456296537
 30
0.0
 40
0.0666666666599773
100
AcDbArc
 50
314.9403499999817
 51
0.0
  0
LINE
  5
250
330
2
100
AcDbEntity
  8
GAIKEI
  6
Continuous
 62
     1
100
AcDbLine
 10
34.84004420209705
 20
20.03344789630539
 30
0.0
 11
34.84004420209705
 21
6.666781230979978
 31
0.0
  0
LINE
  5
251
330
2
100
AcDbEntity
  8
GAIKEI
  6
Continuous
 62
     1
100
AcDbLine
 10
34.79004420210202
 20
20.11678122963036
 30
0.0
 11
34.79004420210202
 21
20.10011456296537
 31
0.0
  0
LINE
  5
252
330
2
100
AcDbEntity
  8
GAIKEI
  6
Continuous
 62
     1
100
AcDbLine
 10
34.72337753544207
 20
20.76678122956514
 30
0.0
 11
34.6233775354521
 21
20.76678122956514
 31
0.0
  0
LINE
  5
253
330
2
100
AcDbEntity
  8
GAIKEI
  6
Continuous
 62
     1
100
AcDbLine
 10
34.72337753544207
 20
20.70011456290517
 30
0.0
 11
34.6233775354521
 21
20.70011456290517
 31
0.0
  0
LINE
  5
254
330
2
100
AcDbEntity
  8
GAIKEI
  6
Continuous
 62
     1
100
AcDbLine
 10
34.6233775354521
 20
20.70011456290517
 30
0.0
 11
34.6233775354521
 21
20.76678122956514
 31
0.0
  0
ARC
  5
255
330
2
100
AcDbEntity
  8
GAIKEI
  6
Continuous
 62
     1
100
AcDbCircle
 10
34.77337753543704
 20
6.666781230979978
 30
0.0
 40
0.0666666666599773
100
AcDbArc
 50
270.0
 51
0.0
  0
ARC
  5
256
330
2
100
AcDbEntity
  8
GAIKEI
  6
Continuous
 62
     1
100
AcDbCircle
 10
34.79004420210202
 20
6.600114564319994
 30
0.0
 40
0.0666666666599773
100
AcDbArc
 50
0.0
 51
45.05965000001822
  0
LINE
  5
257
330
2
100
AcDbEntity
  8
GAIKEI
  6
Continuous
 62
     1
100
AcDbLine
 10
34.79004420210202
 20
6.58344789765502
 30
0.0
 11
34.79004420210202
 21
6.600114564319994
 31
0.0
  0
LINE
  5
258
330
2
100
AcDbEntity
  8
GAIKEI
  6
Continuous
 62
     1
100
AcDbLine
 10
34.72337753544207
 20
5.933447897720213
 30
0.0
 11
34.6233775354521
 21
5.933447897720213
 31
0.0
  0
LINE
  5
259
330
2
100
AcDbEntity
  8
GAIKEI
  6
Continuous
 62
     1
100
AcDbLine
 10
34.72337753544207
 20
6.000114564380197
 30
0.0
 11
34.6233775354521
 21
6.000114564380197
 31
0.0
  0
LINE
  5
25A
330
2
100
AcDbEntity
  8
GAIKEI
  6
Continuous
 62
     1
100
AcDbLine
 10
34.6233775354521
 20
6.000114564380197
 30
0.0
 11
34.6233775354521
 21
5.933447897720213
 31
0.0
  0
LINE
  5
25B
330
2
100
AcDbEntity
  8
GAIKEI
  6
Continuous
 62
     1
100
AcDbLine
 10
34.52337753546217
 20
20.11678122963036
 30
0.0
 11
34.79004420210202
 21
20.11678122963036
 31
0.0
  0
LINE
  5
25C
330
2
100
AcDbEntity
  8
GAIKEI
  6
Continuous
 62
     1
100
AcDbLine
 10
34.52337753546217
 20
6.58344789765502
 30
0.0
 11
34.79004420210202
 21
6.58344789765502
 31
0.0
  0
POINT
  5
25D
330
2
100
AcDbEntity
  8
GAIKEI
  6
Continuous
 62
     1
100
AcDbPoint
 10
34.85671086876204
 20
13.35011456364268
 30
0.0
  0
TEXT
  5
25E
330
2
100
AcDbEntity
  8
TOUROKU
100
AcDbText
 10
14.6207367033053
 20
45.11542936862077
 30
0.0
 40
2.0
  1
ＴＨ５８ＰＨ１０ＫＲ＋ＴＹＷＫ４２ＰＶ７
 72
     2
 11
61.82073670330527
 21
45.11542936862077
 31
0.0
100
AcDbText
  0
LINE
  5
25F
330
2
100
AcDbEntity
  8
GAIKEI
  6
Continuous
 62
     1
100
AcDbLine
 10
-38.82804302638246
 20
3.775114564698554
 30
0.0
 11
4.065290302671328
 21
3.775114564698554
 31
0.0
  0
LINE
  5
260
330
2
100
AcDbEntity
  8
GAIKEI
  6
Continuous
 62
     1
100
AcDbLine
 10
-38.82804302638246
 20
27.89178122895905
 30
0.0
 11
4.065290302671328
 21
27.89178122895905
 31
0.0
  0
LINE
  5
261
330
2
100
AcDbEntity
  8
GAIKEI
  6
Continuous
 62
     1
100
AcDbLine
 10
4.065290302671328
 20
3.775114564698554
 30
0.0
 11
4.065290302671328
 21
27.89178122895905
 31
0.0
  0
LINE
  5
262
330
2
100
AcDbEntity
  8
GAIKEI
  6
Continuous
 62
     1
100
AcDbLine
 10
-38.82804302638246
 20
3.775114564698554
 30
0.0
 11
-38.82804302638246
 21
27.89178122895905
 31
0.0
  0
ELLIPSE
  5
263
330
2
100
AcDbEntity
  8
GAIKEI
  6
Continuous
 62
     1
100
AcDbEllipse
 10
4.651865479546259
 20
3.066872721169119
 30
0.0
 11
-0.0472697495576216
 21
0.0472697495576217
 31
0.0
210
0.0
220
0.0
230
1.0
 40
0.9972646886342365
 41
2.35756401806304
 42
3.925621289116866
  0
ELLIPSE
  5
264
330
2
100
AcDbEntity
  8
GAIKEI
  6
Continuous
 62
     1
100
AcDbEllipse
 10
-39.4146182032574
 20
3.066872721169119
 30
0.0
 11
-0.0472697495576216
 21
-0.0472697495576216
 31
0.0
210
0.0
220
0.0
230
1.0
 40
0.9972646886342365
 41
5.499156671652512
 42
7.067213942706339
  0
ELLIPSE
  5
265
330
2
100
AcDbEntity
  8
GAIKEI
  6
Continuous
 62
     1
100
AcDbEllipse
 10
-39.4146182032574
 20
28.6000230724885
 30
0.0
 11
-0.0472697495576216
 21
0.0472697495576217
 31
0.0
210
0.0
220
0.0
230
1.0
 40
0.9972646886342365
 41
5.499156671652833
 42
7.067213942706419
  0
ELLIPSE
  5
266
330
2
100
AcDbEntity
  8
GAIKEI
  6
Continuous
 62
     1
100
AcDbEllipse
 10
4.651865479546259
 20
28.6000230724885
 30
0.0
 11
-0.0472697495576216
 21
-0.0472697495576216
 31
0.0
210
0.0
220
0.0
230
1.0
 40
0.9972646886342365
 41
2.35756401806304
 42
3.925621289116545
  0
ELLIPSE
  5
267
330
2
100
AcDbEntity
  8
GAIKEI
  6
Continuous
 62
     1
100
AcDbEllipse
 10
-38.6881066903555
 20
2.350050900881683
 30
0.0
 11
-0.0118749767969862
 21
-0.0118749767969861
 31
0.0
210
0.0
220
0.0
230
1.0
 40
0.9924325091389665
 41
2.359992588466317
 42
3.923192718713268
  0
ELLIPSE
  5
268
330
2
100
AcDbEntity
  8
GAIKEI
  6
Continuous
 62
     1
100
AcDbEllipse
 10
-38.6881066903555
 20
2.150178228819726
 30
0.0
 11
-0.0118749767969861
 21
0.0118749767969862
 31
0.0
210
0.0
220
0.0
230
1.0
 40
0.9924325091389665
 41
2.35999258846552
 42
3.923192718713348
  0
ELLIPSE
  5
269
330
2
100
AcDbEntity
  8
GAIKEI
  6
Continuous
 62
     1
100
AcDbEllipse
 10
-38.88797936241741
 20
2.150178228819726
 30
0.0
 11
-0.0118749767969861
 21
-0.0118749767969862
 31
0.0
210
0.0
220
0.0
230
1.0
 40
0.9924325091389665
 41
5.501585242056749
 42
7.06478537230338
  0
ELLIPSE
  5
26A
330
2
100
AcDbEntity
  8
GAIKEI
  6
Continuous
 62
     1
100
AcDbEllipse
 10
-38.88797936241741
 20
2.350050900881683
 30
0.0
 11
-0.0118749767969861
 21
0.0118749767969862
 31
0.0
210
0.0
220
0.0
230
1.0
 40
0.9924325091389665
 41
5.501585242056589
 42
7.064785372302583
  0
ELLIPSE
  5
26B
330
2
100
AcDbEntity
  8
GAIKEI
  6
Continuous
 62
     1
100
AcDbEllipse
 10
5.266201707516771
 20
29.21435930045901
 30
0.0
 11
-0.3724071531088875
 21
-0.3724071531088908
 31
0.0
210
0.0
220
0.0
230
0.9999999999999998
 40
0.4113950764984446
 41
2.751301695074598
 42
3.531883612105006
  0
ELLIPSE
  5
26C
330
2
100
AcDbEntity
  8
GAIKEI
  6
Continuous
 62
     1
100
AcDbEllipse
 10
-40.02895443122791
 20
29.21435930045901
 30
0.0
 11
-0.3724071531088875
 21
0.3724071531088908
 31
0.0
210
0.0
220
0.0
230
0.9999999999999998
 40
0.4113950764984446
 41
5.892894348664372
 42
6.6734762656948
  0
ELLIPSE
  5
26D
330
2
100
AcDbEntity
  8
GAIKEI
  6
Continuous
 62
     1
100
AcDbEllipse
 10
-40.02895443122791
 20
2.452536493198579
 30
0.0
 11
-0.3724071531088872
 21
-0.372407153108894
 31
0.0
210
0.0
220
0.0
230
1.0
 40
0.4113950764984433
 41
5.892894348664307
 42
6.673476265694826
  0
ELLIPSE
  5
26E
330
2
100
AcDbEntity
  8
GAIKEI
  6
Continuous
 62
     1
100
AcDbEllipse
 10
5.266201707516771
 20
2.452536493198579
 30
0.0
 11
-0.3724071531088875
 21
0.3724071531088937
 31
0.0
210
0.0
220
0.0
230
1.0
 40
0.4113950764984433
 41
2.751301695074553
 42
3.531883612105071
  0
ARC
  5
26F
330
2
100
AcDbEntity
  8
GAIKEI
  6
Continuous
 62
     1
100
AcDbCircle
 10
5.80195696916472
 20
1.916781231550658
 30
0.0
 40
0.1333333333200302
100
AcDbArc
 50
359.9215318330927
 51
0.0
  0
ARC
  5
270
330
2
100
AcDbEntity
  8
GAIKEI
  6
Continuous
 62
     1
100
AcDbCircle
 10
5.80195696916472
 20
29.75011456210694
 30
0.0
 40
0.1333333333200302
100
AcDbArc
 50
0.0
 51
0.0784681669072908
  0
ARC
  5
271
330
2
100
AcDbEntity
  8
GAIKEI
  6
Continuous
 62
     1
100
AcDbCircle
 10
-40.56470969287587
 20
29.75011456210694
 30
0.0
 40
0.1333333333200302
100
AcDbArc
 50
179.9215318330927
 51
180.0
  0
ARC
  5
272
330
2
100
AcDbEntity
  8
GAIKEI
  6
Continuous
 62
     1
100
AcDbCircle
 10
-40.56470969287587
 20
1.916781231550658
 30
0.0
 40
0.1333333333200302
100
AcDbArc
 50
180.0
 51
180.0784681669072
  0
ARC
  5
273
330
2
100
AcDbEntity
  8
GAIKEI
  6
Continuous
 62
     1
100
AcDbCircle
 10
5.80195696916472
 20
29.75011456210694
 30
0.0
 40
0.1333333333200303
100
AcDbArc
 50
89.92153183309271
 51
90.0
  0
ARC
  5
274
330
2
100
AcDbEntity
  8
GAIKEI
  6
Continuous
 62
     1
100
AcDbCircle
 10
-40.56470969287587
 20
29.75011456210694
 30
0.0
 40
0.1333333333200303
100
AcDbArc
 50
90.0
 51
90.07846816690729
  0
ARC
  5
275
330
2
100
AcDbEntity
  8
GAIKEI
  6
Continuous
 62
     1
100
AcDbCircle
 10
-40.56470969287587
 20
1.916781231550658
 30
0.0
 40
0.1333333333200303
100
AcDbArc
 50
269.9215318330927
 51
270.0
  0
ARC
  5
276
330
2
100
AcDbEntity
  8
GAIKEI
  6
Continuous
 62
     1
100
AcDbCircle
 10
5.80195696916472
 20
1.916781231550658
 30
0.0
 40
0.1333333333200303
100
AcDbArc
 50
270.0
 51
270.0784681669073
  0
ARC
  5
277
330
2
100
AcDbEntity
  8
GAIKEI
  6
Continuous
 62
     7
100
AcDbCircle
 10
-40.56470969287587
 20
1.916781231550658
 30
0.0
 40
0.1333333333200303
100
AcDbArc
 50
180.0784681669072
 51
269.9215318330927
  0
ARC
  5
278
330
2
100
AcDbEntity
  8
GAIKEI
  6
Continuous
 62
     7
100
AcDbCircle
 10
5.80195696916472
 20
1.916781231550658
 30
0.0
 40
0.1333333333200303
100
AcDbArc
 50
270.0784681669073
 51
359.9215318330927
  0
ARC
  5
279
330
2
100
AcDbEntity
  8
GAIKEI
  6
Continuous
 62
     7
100
AcDbCircle
 10
-40.56470969287587
 20
29.75011456210694
 30
0.0
 40
0.1333333333200303
100
AcDbArc
 50
90.07846816690729
 51
179.9215318330927
  0
ARC
  5
27A
330
2
100
AcDbEntity
  8
GAIKEI
  6
Continuous
 62
     7
100
AcDbCircle
 10
5.80195696916472
 20
29.75011456210694
 30
0.0
 40
0.1333333333200303
100
AcDbArc
 50
0.0784681669072908
 51
89.92153183309271
  0
LINE
  5
27B
330
2
100
AcDbEntity
  8
GAIKEI
  6
Continuous
 62
     7
100
AcDbLine
 10
5.935290302484744
 20
29.75011456210694
 30
0.0
 11
5.935290302484744
 21
1.916781231550658
 31
0.0
  0
LINE
  5
27C
330
2
100
AcDbEntity
  8
GAIKEI
  6
Continuous
 62
     7
100
AcDbLine
 10
-40.69804302619589
 20
29.75011456210694
 30
0.0
 11
-40.69804302619589
 21
1.916781231550658
 31
0.0
  0
LINE
  5
27D
330
2
100
AcDbEntity
  8
GAIKEI
  6
Continuous
 62
     7
100
AcDbLine
 10
-40.56470969287587
 20
29.88344789542698
 30
0.0
 11
5.80195696916472
 21
29.88344789542698
 31
0.0
  0
LINE
  5
27E
330
2
100
AcDbEntity
  8
GAIKEI
  6
Continuous
 62
     7
100
AcDbLine
 10
-40.56470969287587
 20
1.783447898230633
 30
0.0
 11
5.80195696916472
 21
1.783447898230633
 31
0.0
  0
LINE
  5
27F
330
2
100
AcDbEntity
  8
GAIKEI
  6
Continuous
 62
     1
100
AcDbLine
 10
-40.62549432744305
 20
29.67774859205355
 30
0.0
 11
-40.62549432744305
 21
1.989147201604097
 31
0.0
  0
LINE
  5
280
330
2
100
AcDbEntity
  8
GAIKEI
  6
Continuous
 62
     1
100
AcDbLine
 10
5.862741603731905
 20
29.67774859205348
 30
0.0
 11
5.862741603731905
 21
1.989147201604055
 31
0.0
  0
LINE
  5
281
330
2
100
AcDbEntity
  8
GAIKEI
  6
Continuous
 62
     1
100
AcDbLine
 10
5.72959099911128
 20
29.8108991966742
 30
0.0
 11
-40.4963188566626
 21
29.8108991966742
 31
0.0
  0
LINE
  5
282
330
2
100
AcDbEntity
  8
GAIKEI
  6
Continuous
 62
     1
100
AcDbLine
 10
-40.49234372282242
 20
1.85599659698343
 30
0.0
 11
5.729590999111209
 21
1.855996596983473
 31
0.0
  0
LINE
  5
283
330
2
100
AcDbEntity
  8
GAIKEI
  6
Continuous
 62
     1
100
AcDbLine
 10
4.652048333629139
 20
28.66678122888172
 30
0.0
 11
-39.41480105734028
 21
28.66678122888172
 31
0.0
  0
LINE
  5
284
330
2
100
AcDbEntity
  8
GAIKEI
  6
Continuous
 62
     1
100
AcDbLine
 10
-39.41480105734028
 20
3.000114564775884
 30
0.0
 11
4.652048333629139
 21
3.000114564775884
 31
0.0
  0
LINE
  5
285
330
2
100
AcDbEntity
  8
GAIKEI
  6
Continuous
 62
     1
100
AcDbLine
 10
-39.4813763596506
 20
28.60020592657138
 30
0.0
 11
-39.4813763596506
 21
3.066689867086239
 31
0.0
  0
LINE
  5
286
330
2
100
AcDbEntity
  8
GAIKEI
  6
Continuous
 62
     1
100
AcDbLine
 10
4.718623635939451
 20
28.60020592657138
 30
0.0
 11
4.718623635939451
 21
3.066689867086239
 31
0.0
  0
LINE
  5
287
330
2
100
AcDbEntity
  8
GAIKEI
  6
Continuous
 62
     1
100
AcDbLine
 10
5.534379756817187
 20
29.617049392098
 30
0.0
 11
5.72822956139332
 21
29.81089919667417
 31
0.0
  0
LINE
  5
288
330
2
100
AcDbEntity
  8
GAIKEI
  6
Continuous
 62
     1
100
AcDbLine
 10
5.862741603731905
 20
29.67638715433563
 30
0.0
 11
5.66889179915573
 21
29.48253734975946
 31
0.0
  0
LINE
  5
289
330
2
100
AcDbEntity
  8
GAIKEI
  6
Continuous
 62
     1
100
AcDbLine
 10
-40.29713248052833
 20
29.617049392098
 30
0.0
 11
-40.49098228510446
 21
29.81089919667417
 31
0.0
  0
LINE
  5
28A
330
2
100
AcDbEntity
  8
GAIKEI
  6
Continuous
 62
     1
100
AcDbLine
 10
-40.62554254726062
 20
29.67643537415322
 30
0.0
 11
-40.43164452286688
 21
29.48253734975946
 31
0.0
  0
LINE
  5
28B
330
2
100
AcDbEntity
  8
GAIKEI
  6
Continuous
 62
     1
100
AcDbLine
 10
-40.43164452286688
 20
2.184358443898148
 30
0.0
 11
-40.62549432744305
 21
1.990508639321944
 31
0.0
  0
LINE
  5
28C
330
2
100
AcDbEntity
  8
GAIKEI
  6
Continuous
 62
     1
100
AcDbLine
 10
-40.49098228510442
 20
1.85599659698343
 30
0.0
 11
-40.2971324805284
 21
2.049846401559605
 31
0.0
  0
LINE
  5
28D
330
2
100
AcDbEntity
  8
GAIKEI
  6
Continuous
 62
     1
100
AcDbLine
 10
5.66889179915573
 20
2.184358443898105
 30
0.0
 11
5.862741603731905
 21
1.990508639321973
 31
0.0
  0
LINE
  5
28E
330
2
100
AcDbEntity
  8
GAIKEI
  6
Continuous
 62
     1
100
AcDbLine
 10
5.728229561393277
 20
1.85599659698343
 30
0.0
 11
5.53437975681723
 21
2.049846401559562
 31
0.0
  0
LINE
  5
28F
330
2
100
AcDbEntity
  8
GAIKEI
  6
Continuous
 62
     1
100
AcDbLine
 10
-38.68797960469795
 20
2.36678123150574
 30
0.0
 11
-38.88810644807492
 21
2.36678123150574
 31
0.0
  0
LINE
  5
290
330
2
100
AcDbEntity
  8
GAIKEI
  6
Continuous
 62
     1
100
AcDbLine
 10
-38.67137635973143
 20
2.150051143162215
 30
0.0
 11
-38.67137635973143
 21
2.350177986539179
 31
0.0
  0
LINE
  5
291
330
2
100
AcDbEntity
  8
GAIKEI
  6
Continuous
 62
     1
100
AcDbLine
 10
-38.88810644807492
 20
2.133447898195697
 30
0.0
 11
-38.68797960469795
 21
2.133447898195697
 31
0.0
  0
LINE
  5
292
330
2
100
AcDbEntity
  8
GAIKEI
  6
Continuous
 62
     1
100
AcDbLine
 10
-38.90470969304147
 20
2.350177986539179
 30
0.0
 11
-38.90470969304147
 21
2.150051143162215
 31
0.0
  0
LINE
  5
293
330
2
100
AcDbEntity
  8
GAIKEI
  6
Continuous
 62
     1
100
AcDbLine
 10
-39.96804302626872
 20
2.2867812315137
 30
0.0
 11
-39.96804302626872
 21
2.213447898187695
 31
0.0
  0
LINE
  5
294
330
2
100
AcDbEntity
  8
GAIKEI
  6
Continuous
 62
     1
100
AcDbLine
 10
-39.89470969294271
 20
2.2867812315137
 30
0.0
 11
-39.96804302626872
 21
2.2867812315137
 31
0.0
  0
LINE
  5
295
330
2
100
AcDbEntity
  8
GAIKEI
  6
Continuous
 62
     1
100
AcDbLine
 10
-39.89470969294271
 20
2.213447898187695
 30
0.0
 11
-39.89470969294271
 21
2.2867812315137
 31
0.0
  0
LINE
  5
296
330
2
100
AcDbEntity
  8
GAIKEI
  6
Continuous
 62
     1
100
AcDbLine
 10
-39.96804302626872
 20
2.213447898187695
 30
0.0
 11
-39.89470969294271
 21
2.213447898187695
 31
0.0
  0
LINE
  5
297
330
2
100
AcDbEntity
  8
GAIKEI
  6
Continuous
 62
     1
100
AcDbLine
 10
-40.3150674195068
 20
29.617049392098
 30
0.0
 11
5.552314695795658
 21
29.617049392098
 31
0.0
  0
LINE
  5
298
330
2
100
AcDbEntity
  8
GAIKEI
  6
Continuous
 62
     1
100
AcDbLine
 10
-40.43164452286688
 20
2.166423504919691
 30
0.0
 11
-40.43164452286688
 21
29.50047228873792
 31
0.0
  0
LINE
  5
299
330
2
100
AcDbEntity
  8
GAIKEI
  6
Continuous
 62
     1
100
AcDbLine
 10
5.552314695795658
 20
2.049846401559605
 30
0.0
 11
-40.3150674195068
 21
2.049846401559605
 31
0.0
  0
LINE
  5
29A
330
2
100
AcDbEntity
  8
GAIKEI
  6
Continuous
 62
     1
100
AcDbLine
 10
5.66889179915573
 20
2.166423504919691
 30
0.0
 11
5.66889179915573
 21
29.50047228873792
 31
0.0
  0
LINE
  5
29B
330
2
100
AcDbEntity
  8
GAIKEI
  6
Continuous
 62
     1
100
AcDbLine
 10
4.656086370471044
 20
28.74090938485786
 30
0.0
 11
-39.41883909418219
 21
28.74090938485786
 31
0.0
  0
LINE
  5
29C
330
2
100
AcDbEntity
  8
GAIKEI
  6
Continuous
 62
     1
100
AcDbLine
 10
4.792751791915549
 20
28.60424983415152
 30
0.0
 11
4.792751792281123
 21
3.062651830244263
 31
0.0
  0
LINE
  5
29D
330
2
100
AcDbEntity
  8
GAIKEI
  6
Continuous
 62
     1
100
AcDbLine
 10
-39.5555045156267
 20
28.60424983415152
 30
0.0
 11
-39.5555045156267
 21
3.062651830244334
 31
0.0
  0
LINE
  5
29E
330
2
100
AcDbEntity
  8
GAIKEI
  6
Continuous
 62
     1
100
AcDbLine
 10
-39.41884496492038
 20
2.925986408799786
 30
0.0
 11
4.65609224120925
 21
2.925986408799786
 31
0.0
  0
SPLINE
  5
29F
330
2
100
AcDbEntity
  8
GAIKEI
  6
Continuous
 62
     1
100
AcDbSpline
210
0.0
220
0.0
230
1.0
 70
     8
 71
     3
 72
    21
 73
    17
 74
    15
 42
0.0000000001
 43
0.0000000001
 44
0.000001
 12
-0.9999996219736281
 22
0.0008695128527316
 32
0.0
 13
0.0003233581291513
 23
-0.9999999477197587
 33
0.0
 40
0.0
 40
0.0
 40
0.0
 40
0.0
 40
0.0157266923513095
 40
0.0314579356498665
 40
0.0463809568110992
 40
0.0613517293644924
 40
0.0762749437896843
 40
0.0911470571323402
 40
0.1060662022692198
 40
0.1209384435313824
 40
0.1356274801152799
 40
0.1503616400629445
 40
0.165050460579707
 40
0.1797193528307734
 40
0.1944329918890297
 40
0.2090963292030091
 40
0.2090963292030091
 40
0.2090963292030091
 40
0.2090963292030091
 10
-40.49239771439752
 20
29.8109531882493
 30
0.0
 10
-40.49763994319959
 20
29.81095774643634
 30
0.0
 10
-40.5081366303463
 20
29.81035057213225
 30
0.0
 10
-40.52339428124264
 20
29.80764392351408
 30
0.0
 10
-40.53798548053214
 20
29.80324071471592
 30
0.0
 10
-40.55174643045511
 20
29.79734875952545
 30
0.0
 10
-40.56475678908516
 20
29.78997609387486
 30
0.0
 10
-40.57682314175781
 20
29.78117234045534
 30
0.0
 10
-40.58783122892991
 20
29.7711048922323
 30
0.0
 10
-40.5976233809108
 20
29.75992958283936
 30
0.0
 10
-40.60604870703047
 20
29.74776693238864
 30
0.0
 10
-40.61306740603229
 20
29.73481352996518
 30
0.0
 10
-40.61862882338629
 20
29.72117585733954
 30
0.0
 10
-40.6226084980993
 20
29.70700271279941
 30
0.0
 10
-40.62501918037785
 20
29.69249170220074
 30
0.0
 10
-40.62554989952128
 20
29.68269036247777
 30
0.0
 10
-40.62554831901818
 20
29.67780258362865
 30
0.0
 11
-40.49239771439752
 21
29.8109531882493
 31
0.0
 11
-40.50809869825104
 21
29.81004438186595
 31
0.0
 11
-40.52358686285569
 21
29.80728953652745
 31
0.0
 11
-40.53787580686722
 21
29.80298565809818
 31
0.0
 11
-40.55163860974177
 21
29.79709414756531
 31
0.0
 11
-40.56461703075562
 21
29.78972777067918
 31
0.0
 11
-40.57663752037131
 21
29.78097058801895
 31
0.0
 11
-40.58764684193106
 21
29.77090200390299
 31
0.0
 11
-40.59744044079526
 21
29.75970961164282
 31
0.0
 11
-40.60581282656764
 21
29.74764016372991
 31
0.0
 11
-40.6128320491534
 21
29.73468537175282
 31
0.0
 11
-40.61836876966785
 21
29.72107997163529
 31
0.0
 11
-40.62234475763768
 21
29.70696018386028
 31
0.0
 11
-40.62475252440271
 21
29.69244487647458
 31
0.0
 11
-40.62554831901818
 21
29.67780258362865
 31
0.0
  0
SPLINE
  5
2A0
330
2
100
AcDbEntity
  8
GAIKEI
  6
Continuous
 62
     1
100
AcDbSpline
210
0.0
220
0.0
230
1.0
 70
     8
 71
     3
 72
    21
 73
    17
 74
    15
 42
0.0000000001
 43
0.0000000001
 44
0.000001
 12
0.9999996219736281
 22
0.0008695128527315
 32
0.0
 13
-0.0003233581291514
 23
-0.9999999477197587
 33
0.0
 40
0.0
 40
0.0
 40
0.0
 40
0.0
 40
0.015726692351313
 40
0.0314579356498735
 40
0.0463809568110926
 40
0.0613517293644826
 40
0.0762749437896714
 40
0.091147057132336
 40
0.1060662022692286
 40
0.1209384435313842
 40
0.1356274801152797
 40
0.1503616400629409
 40
0.1650504605797074
 40
0.1797193528307681
 40
0.1944329918890267
 40
0.2090963292030063
 40
0.2090963292030063
 40
0.2090963292030063
 40
0.2090963292030063
 10
5.729644990686381
 20
29.8109531882493
 30
0.0
 10
5.734887219488456
 20
29.81095774643634
 30
0.0
 10
5.74538390663514
 20
29.81035057213225
 30
0.0
 10
5.760641557531499
 20
29.80764392351403
 30
0.0
 10
5.775232756820997
 20
29.80324071471597
 30
0.0
 10
5.788993706743966
 20
29.79734875952542
 30
0.0
 10
5.802004065373978
 20
29.78997609387486
 30
0.0
 10
5.814070418046654
 20
29.78117234045534
 30
0.0
 10
5.825078505218783
 20
29.7711048922323
 30
0.0
 10
5.834870657199658
 20
29.75992958283934
 30
0.0
 10
5.843295983319336
 20
29.74776693238866
 30
0.0
 10
5.850314682321126
 20
29.73481352996517
 30
0.0
 10
5.855876099675157
 20
29.72117585733953
 30
0.0
 10
5.859855774388137
 20
29.70700271279941
 30
0.0
 10
5.862266456666702
 20
29.69249170220074
 30
0.0
 10
5.862797175810143
 20
29.68269036247777
 30
0.0
 10
5.862795595307034
 20
29.67780258362865
 30
0.0
 11
5.729644990686381
 21
29.8109531882493
 31
0.0
 11
5.745345974539901
 21
29.81004438186595
 31
0.0
 11
5.760834139144549
 21
29.80728953652745
 31
0.0
 11
5.775123083156074
 21
29.80298565809818
 31
0.0
 11
5.788885886030612
 21
29.79709414756531
 31
0.0
 11
5.801864307044468
 21
29.78972777067918
 31
0.0
 11
5.813884796660175
 21
29.78097058801895
 31
0.0
 11
5.82489411821993
 21
29.77090200390299
 31
0.0
 11
5.834687717084122
 21
29.75970961164282
 31
0.0
 11
5.843060102856497
 21
29.74764016372991
 31
0.0
 11
5.850079325442251
 21
29.73468537175282
 31
0.0
 11
5.855616045956708
 21
29.72107997163529
 31
0.0
 11
5.859592033926531
 21
29.70696018386028
 31
0.0
 11
5.861999800691563
 21
29.69244487647458
 31
0.0
 11
5.862795595307034
 21
29.67780258362865
 31
0.0
  0
SPLINE
  5
2A1
330
2
100
AcDbEntity
  8
GAIKEI
  6
Continuous
 62
     1
100
AcDbSpline
210
0.0
220
0.0
230
1.0
 70
     8
 71
     3
 72
    21
 73
    17
 74
    15
 42
0.0000000001
 43
0.0000000001
 44
0.000001
 12
-0.0003233581301786
 22
-0.9999999477197583
 32
0.0
 13
0.9999996219736271
 23
0.0008695128539302
 33
0.0
 40
0.0
 40
0.0
 40
0.0
 40
0.0
 40
0.0146633373139652
 40
0.0293769763722285
 40
0.044045868623297
 40
0.0587346891400464
 40
0.0734688490877235
 40
0.088157885671621
 40
0.1030301269337836
 40
0.1179492720706631
 40
0.1328213854133442
 40
0.1477445998385291
 40
0.1627153723919223
 40
0.177638393553155
 40
0.193369636851712
 40
0.2090963292030199
 40
0.2090963292030199
 40
0.2090963292030199
 40
0.2090963292030199
 10
-40.62554831901818
 20
1.989093210028968
 30
0.0
 10
-40.62554989952128
 20
1.984205431179844
 30
0.0
 10
-40.62501918037786
 20
1.974404091456875
 30
0.0
 10
-40.62260849809923
 20
1.959893080858222
 30
0.0
 10
-40.61862882338632
 20
1.94571993631807
 30
0.0
 10
-40.61306740603227
 20
1.93208226369245
 30
0.0
 10
-40.60604870703048
 20
1.919128861268973
 30
0.0
 10
-40.5976233809108
 20
1.906966210818268
 30
0.0
 10
-40.58783122892991
 20
1.895790901425328
 30
0.0
 10
-40.57682314175778
 20
1.885723453202274
 30
0.0
 10
-40.56475678908518
 20
1.876919699782689
 30
0.0
 10
-40.5517464304551
 20
1.869547034132182
 30
0.0
 10
-40.53798548053213
 20
1.863655078941619
 30
0.0
 10
-40.52339428124266
 20
1.859251870143552
 30
0.0
 10
-40.50813663034628
 20
1.856545221525337
 30
0.0
 10
-40.49763994319959
 20
1.855938047221272
 30
0.0
 10
-40.49239771439752
 20
1.855942605408316
 30
0.0
 11
-40.62554831901818
 21
1.989093210028968
 31
0.0
 11
-40.62475252440271
 21
1.974450917183048
 31
0.0
 11
-40.62234475763765
 21
1.959935609797355
 31
0.0
 11
-40.61836876966785
 21
1.945815822022325
 31
0.0
 11
-40.6128320491534
 21
1.932210421904812
 31
0.0
 11
-40.60581282656764
 21
1.919255629927704
 31
0.0
 11
-40.59744044079526
 21
1.907186182014797
 31
0.0
 11
-40.58764684193106
 21
1.895993789754626
 31
0.0
 11
-40.57663752037131
 21
1.88592520563867
 31
0.0
 11
-40.56461703075562
 21
1.877168022978395
 31
0.0
 11
-40.55163860974177
 21
1.869801646092284
 31
0.0
 11
-40.53787580686722
 21
1.863910135559407
 31
0.0
 11
-40.52358686285569
 21
1.859606257130138
 31
0.0
 11
-40.50809869825104
 21
1.856851411791637
 31
0.0
 11
-40.49239771439752
 21
1.855942605408316
 31
0.0
  0
SPLINE
  5
2A2
330
2
100
AcDbEntity
  8
GAIKEI
  6
Continuous
 62
     1
100
AcDbSpline
210
0.0
220
0.0
230
1.0
 70
     8
 71
     3
 72
    21
 73
    17
 74
    15
 42
0.0000000001
 43
0.0000000001
 44
0.000001
 12
0.0003233581301785
 22
-0.9999999477197583
 32
0.0
 13
-0.9999996219736271
 23
0.0008695128539302
 33
0.0
 40
0.0
 40
0.0
 40
0.0
 40
0.0
 40
0.0146633373139654
 40
0.0293769763722287
 40
0.0440458686232953
 40
0.0587346891400487
 40
0.0734688490877224
 40
0.0881578856716179
 40
0.1030301269337735
 40
0.1179492720706661
 40
0.1328213854133558
 40
0.1477445998385376
 40
0.1627153723919275
 40
0.1776383935531467
 40
0.1933696368517072
 40
0.2090963292030185
 40
0.2090963292030185
 40
0.2090963292030185
 40
0.2090963292030185
 10
5.862795595307034
 20
1.989093210028968
 30
0.0
 10
5.862797175810143
 20
1.984205431179844
 30
0.0
 10
5.862266456666716
 20
1.974404091456875
 30
0.0
 10
5.85985577438808
 20
1.959893080858222
 30
0.0
 10
5.855876099675157
 20
1.94571993631807
 30
0.0
 10
5.850314682321155
 20
1.932082263692464
 30
0.0
 10
5.843295983319336
 20
1.919128861268973
 30
0.0
 10
5.834870657199687
 20
1.906966210818296
 30
0.0
 10
5.825078505218797
 20
1.895790901425314
 30
0.0
 10
5.81407041804664
 20
1.885723453202274
 30
0.0
 10
5.802004065374021
 20
1.876919699782703
 30
0.0
 10
5.788993706743951
 20
1.869547034132153
 30
0.0
 10
5.775232756820969
 20
1.863655078941633
 30
0.0
 10
5.760641557531513
 20
1.859251870143538
 30
0.0
 10
5.74538390663514
 20
1.856545221525308
 30
0.0
 10
5.734887219488456
 20
1.855938047221272
 30
0.0
 10
5.729644990686381
 20
1.855942605408316
 30
0.0
 11
5.862795595307034
 21
1.989093210028968
 31
0.0
 11
5.861999800691563
 21
1.974450917183048
 31
0.0
 11
5.859592033926503
 21
1.959935609797355
 31
0.0
 11
5.855616045956708
 21
1.945815822022325
 31
0.0
 11
5.850079325442251
 21
1.932210421904812
 31
0.0
 11
5.843060102856497
 21
1.919255629927704
 31
0.0
 11
5.834687717084122
 21
1.907186182014797
 31
0.0
 11
5.82489411821993
 21
1.895993789754626
 31
0.0
 11
5.813884796660175
 21
1.88592520563867
 31
0.0
 11
5.801864307044468
 21
1.877168022978395
 31
0.0
 11
5.788885886030612
 21
1.869801646092284
 31
0.0
 11
5.775123083156074
 21
1.863910135559407
 31
0.0
 11
5.760834139144549
 21
1.859606257130138
 31
0.0
 11
5.745345974539901
 21
1.856851411791637
 31
0.0
 11
5.729644990686381
 21
1.855942605408316
 31
0.0
  0
SPLINE
  5
2A3
330
2
100
AcDbEntity
  8
GAIKEI
  6
Continuous
 62
     1
100
AcDbSpline
210
0.0
220
0.0
230
1.0
 70
     8
 71
     3
 72
    21
 73
    17
 74
    15
 42
0.0000000001
 43
0.0000000001
 44
0.000001
 12
-0.0024808696790624
 22
-0.9999969226380827
 32
0.0
 13
-0.9999983013874874
 23
-0.0018431554845351
 33
0.0
 40
0.0
 40
0.0
 40
0.0
 40
0.0
 40
0.0153586680098679
 40
0.0307703763756788
 40
0.0461343238489119
 40
0.061290698438458
 40
0.0764922540369366
 40
0.0916472461604159
 40
0.1072145701298741
 40
0.1228349838792359
 40
0.1384045846223072
 40
0.153613314945137
 40
0.1688678604709715
 40
0.1840757649629042
 40
0.1992011987575601
 40
0.2143245386317433
 40
0.2143245386317433
 40
0.2143245386317433
 40
0.2143245386317433
 10
4.792751792646697
 20
3.062651830244149
 30
0.0
 10
4.792739091695437
 20
3.057532289995592
 30
0.0
 10
4.792135852824387
 20
3.047266601491159
 30
0.0
 10
4.789466445405821
 20
3.032090236977055
 30
0.0
 10
4.78515566845219
 20
3.017365396094334
 30
0.0
 10
4.779251720186294
 20
3.003281425315407
 30
0.0
 10
4.771898990570207
 20
2.98997828476773
 30
0.0
 10
4.763071139219363
 20
2.977433158819039
 30
0.0
 10
4.752751077380537
 20
2.965890860709293
 30
0.0
 10
4.741078514456773
 20
2.955513050415575
 30
0.0
 10
4.728405716859214
 20
2.946587671892018
 30
0.0
 10
4.714909320584823
 20
2.939222058852635
 30
0.0
 10
4.700810673865674
 20
2.933401009389655
 30
0.0
 10
4.686186891264839
 20
2.929156303620544
 30
0.0
 10
4.671224698489496
 20
2.926577156205652
 30
0.0
 10
4.661133345937741
 20
2.925995701086534
 30
0.0
 10
4.65609224120925
 20
2.925986409530921
 30
0.0
 11
4.792751792646697
 21
3.062651830244149
 31
0.0
 11
4.791844370594702
 21
3.047319387654198
 31
0.0
 11
4.789186670481143
 21
3.032138549963363
 31
0.0
 11
4.784864099619738
 21
3.017395198759345
 31
0.0
 11
4.779012934892037
 21
3.003413786977603
 31
0.0
 11
4.771658685766865
 21
2.990109554283435
 31
0.0
 11
4.762923396226227
 21
2.977725335300632
 31
0.0
 11
4.752554188618461
 21
2.966114063318215
 31
0.0
 11
4.740882794327802
 21
2.955732522363959
 31
0.0
 11
4.728149830232808
 21
2.946772359058869
 31
0.0
 11
4.714805682073091
 21
2.939475825959164
 31
0.0
 11
4.700704653197504
 21
2.933656693777521
 31
0.0
 11
4.686097284841338
 21
2.929425204951002
 31
0.0
 11
4.671190941616885
 21
2.926860028036529
 31
0.0
 11
4.65609224120925
 21
2.925986409530921
 31
0.0
  0
SPLINE
  5
2A4
330
2
100
AcDbEntity
  8
GAIKEI
  6
Continuous
 62
     1
100
AcDbSpline
210
0.0
220
0.0
230
1.0
 70
     8
 71
     3
 72
    21
 73
    17
 74
    15
 42
0.0000000001
 43
0.0000000001
 44
0.000001
 12
-0.9999969226380834
 22
-0.002480869678817
 32
0.0
 13
-0.0018431554850292
 23
-0.9999983013874864
 33
0.0
 40
0.0
 40
0.0
 40
0.0
 40
0.0
 40
0.0153586680098644
 40
0.0307703763756823
 40
0.046134323848929
 40
0.0612906984384226
 40
0.0764922540368701
 40
0.091647246160319
 40
0.1072145701297185
 40
0.1228349838791606
 40
0.1384045846221923
 40
0.1536133149450171
 40
0.1688678604708775
 40
0.184075764962822
 40
0.199201198757526
 40
0.2143245386317511
 40
0.2143245386317511
 40
0.2143245386317511
 40
0.2143245386317511
 10
-39.41883909418233
 20
28.74090938558893
 30
0.0
 10
-39.42395863443089
 20
28.74089668463767
 30
0.0
 10
-39.43422432293532
 20
28.74029344576661
 30
0.0
 10
-39.44940068744943
 20
28.73762403834808
 30
0.0
 10
-39.46412552833216
 20
28.73331326139441
 30
0.0
 10
-39.47820949911108
 20
28.72740931312859
 30
0.0
 10
-39.4915126396587
 20
28.72005658351242
 30
0.0
 10
-39.50405776560737
 20
28.71122873216175
 30
0.0
 10
-39.51560006371708
 20
28.70090867032285
 30
0.0
 10
-39.52597787401089
 20
28.68923610739912
 30
0.0
 10
-39.53490325253435
 20
28.67656330980158
 30
0.0
 10
-39.5422688655739
 20
28.66306691352723
 30
0.0
 10
-39.54808991503674
 20
28.64896826680803
 30
0.0
 10
-39.55233462080597
 20
28.63434448420718
 30
0.0
 10
-39.55491376822087
 20
28.61938229143182
 30
0.0
 10
-39.55549522333999
 20
28.60929093888002
 30
0.0
 10
-39.5555045148956
 20
28.60424983415152
 30
0.0
 11
-39.41883909418233
 21
28.74090938558893
 31
0.0
 11
-39.43417153677228
 21
28.74000196353694
 31
0.0
 11
-39.44935237446312
 21
28.73734426342338
 31
0.0
 11
-39.46409572566715
 21
28.73302169256198
 31
0.0
 11
-39.47807713744886
 21
28.72717052783432
 31
0.0
 11
-39.49138137014299
 21
28.71981627870915
 31
0.0
 11
-39.50376558912579
 21
28.71108098916855
 31
0.0
 11
-39.51537686110815
 21
28.70071178156081
 31
0.0
 11
-39.52575840206249
 21
28.68904038727013
 31
0.0
 11
-39.53471856536756
 21
28.67630742317516
 31
0.0
 11
-39.54201509846733
 21
28.66296327501549
 31
0.0
 11
-39.54783423064893
 21
28.64886224613986
 31
0.0
 11
-39.55206571947549
 21
28.63425487778369
 31
0.0
 11
-39.55463089639001
 21
28.61934853455919
 31
0.0
 11
-39.5555045148956
 21
28.60424983415152
 31
0.0
  0
SPLINE
  5
2A5
330
2
100
AcDbEntity
  8
GAIKEI
  6
Continuous
 62
     1
100
AcDbSpline
210
0.0
220
0.0
230
1.0
 70
     8
 71
     3
 72
    21
 73
    17
 74
    15
 42
0.0000000001
 43
0.0000000001
 44
0.000001
 12
0.0024808696790623
 22
-0.9999969226380827
 32
0.0
 13
0.9999983013874874
 23
-0.0018431554845352
 33
0.0
 40
0.0
 40
0.0
 40
0.0
 40
0.0
 40
0.0153586680098683
 40
0.0307703763756774
 40
0.0461343238489085
 40
0.061290698438456
 40
0.076492254036938
 40
0.0916472461604153
 40
0.1072145701298782
 40
0.122834983879232
 40
0.1384045846223062
 40
0.153613314945133
 40
0.1688678604709938
 40
0.1840757649629059
 40
0.1992011987575653
 40
0.2143245386317592
 40
0.2143245386317592
 40
0.2143245386317592
 40
0.2143245386317592
 10
-39.55550451635784
 20
3.062651830244149
 30
0.0
 10
-39.55549181540659
 20
3.057532289995592
 30
0.0
 10
-39.5548885765355
 20
3.047266601491145
 30
0.0
 10
-39.55221916911698
 20
3.032090236977069
 30
0.0
 10
-39.54790839216332
 20
3.017365396094305
 30
0.0
 10
-39.54200444389747
 20
3.003281425315407
 30
0.0
 10
-39.53465171428133
 20
2.98997828476773
 30
0.0
 10
-39.52582386293052
 20
2.977433158819053
 30
0.0
 10
-39.5155038010917
 20
2.965890860709293
 30
0.0
 10
-39.50383123816791
 20
2.955513050415561
 30
0.0
 10
-39.49115844057038
 20
2.946587671892046
 30
0.0
 10
-39.477662044296
 20
2.939222058852635
 30
0.0
 10
-39.46356339757682
 20
2.933401009389669
 30
0.0
 10
-39.44893961497597
 20
2.929156303620544
 30
0.0
 10
-39.43397742220064
 20
2.926577156205667
 30
0.0
 10
-39.42388606964888
 20
2.925995701086534
 30
0.0
 10
-39.41884496492038
 20
2.925986409530921
 30
0.0
 11
-39.55550451635784
 21
3.062651830244149
 31
0.0
 11
-39.55459709430583
 21
3.047319387654198
 31
0.0
 11
-39.55193939419229
 21
3.032138549963363
 31
0.0
 11
-39.5476168233309
 21
3.017395198759345
 31
0.0
 11
-39.54176565860318
 21
3.003413786977603
 31
0.0
 11
-39.53441140947801
 21
2.990109554283435
 31
0.0
 11
-39.52567611993737
 21
2.977725335300632
 31
0.0
 11
-39.5153069123296
 21
2.966114063318215
 31
0.0
 11
-39.50363551803896
 21
2.955732522363959
 31
0.0
 11
-39.49090255394395
 21
2.946772359058869
 31
0.0
 11
-39.47755840578424
 21
2.939475825959164
 31
0.0
 11
-39.46345737690864
 21
2.933656693777521
 31
0.0
 11
-39.44885000855249
 21
2.929425204951002
 31
0.0
 11
-39.43394366532803
 21
2.926860028036529
 31
0.0
 11
-39.41884496492038
 21
2.925986409530921
 31
0.0
  0
SPLINE
  5
2A6
330
2
100
AcDbEntity
  8
GAIKEI
  6
Continuous
 62
     1
100
AcDbSpline
210
0.0
220
0.0
230
1.0
 70
     8
 71
     3
 72
    21
 73
    17
 74
    15
 42
0.0000000001
 43
0.0000000001
 44
0.000001
 12
0.9999969226380834
 22
-0.0024808696788172
 32
0.0
 13
0.0018431554850293
 23
-0.9999983013874864
 33
0.0
 40
0.0
 40
0.0
 40
0.0
 40
0.0
 40
0.0153586680098537
 40
0.0307703763756787
 40
0.0461343238489117
 40
0.0612906984384021
 40
0.0764922540368557
 40
0.0916472461602989
 40
0.1072145701297169
 40
0.1228349838791472
 40
0.1384045846221707
 40
0.1536133149449973
 40
0.1688678604708603
 40
0.1840757649628088
 40
0.1992011987575091
 40
0.2143245386317349
 40
0.2143245386317349
 40
0.2143245386317349
 40
0.2143245386317349
 10
4.6560863704712
 20
28.74090938558893
 30
0.0
 10
4.661205910719758
 20
28.74089668463767
 30
0.0
 10
4.67147159922419
 20
28.74029344576661
 30
0.0
 10
4.686647963738266
 20
28.73762403834806
 30
0.0
 10
4.701372804621016
 20
28.73331326139441
 30
0.0
 10
4.7154567753999
 20
28.72740931312859
 30
0.0
 10
4.728759915947563
 20
28.72005658351245
 30
0.0
 10
4.741305041896211
 20
28.7112287321617
 30
0.0
 10
4.75284734000597
 20
28.70090867032286
 30
0.0
 10
4.763225150299717
 20
28.68923610739912
 30
0.0
 10
4.772150528823217
 20
28.67656330980155
 30
0.0
 10
4.779516141862742
 20
28.66306691352726
 30
0.0
 10
4.785337191325595
 20
28.64896826680801
 30
0.0
 10
4.789581897094848
 20
28.63434448420718
 30
0.0
 10
4.792161044509683
 20
28.61938229143182
 30
0.0
 10
4.792742499628843
 20
28.60929093888002
 30
0.0
 10
4.792751791184457
 20
28.60424983415152
 30
0.0
 11
4.6560863704712
 21
28.74090938558893
 31
0.0
 11
4.671418813061137
 21
28.74000196353694
 31
0.0
 11
4.686599650751986
 21
28.73734426342338
 31
0.0
 11
4.701343001956004
 21
28.73302169256198
 31
0.0
 11
4.715324413737704
 21
28.72717052783432
 31
0.0
 11
4.728628646431843
 21
28.71981627870915
 31
0.0
 11
4.741012865414631
 21
28.71108098916855
 31
0.0
 11
4.75262413739702
 21
28.70071178156081
 31
0.0
 11
4.763005678351348
 21
28.68904038727013
 31
0.0
 11
4.771965841656395
 21
28.67630742317516
 31
0.0
 11
4.779262374756171
 21
28.66296327501549
 31
0.0
 11
4.785081506937785
 21
28.64886224613986
 31
0.0
 11
4.789312995764362
 21
28.63425487778369
 31
0.0
 11
4.791878172678849
 21
28.61934853455919
 31
0.0
 11
4.792751791184457
 21
28.60424983415152
 31
0.0
  0
DIMENSION
  5
2A7
330
2
100
AcDbEntity
  8
SUNPO
  6
Continuous
100
AcDbDimension
  2
*D6
 10
5.935290302479445
 20
37.87902117466658
 30
0.0
 11
-17.38137636185555
 21
39.62902117466658
 31
0.0
 70
    33
  1
1399
 71
     5
 42
46.63333332866999
  3
STANDARD
100
AcDbAlignedDimension
 13
-40.69804302619054
 23
29.87902117466659
 33
0.0
 14
5.935290302479444
 24
29.87902117466659
 34
0.0
1001
ACAD
1000
DSTYLE
1002
{
1070
    40
1040
1.0
1070
   140
1040
2.5
1070
   147
1040
0.5
1070
   172
1070
     1
1070
   279
1070
     0
1070
   288
1070
     0
1002
}
  0
DIMENSION
  5
2B4
330
2
100
AcDbEntity
  8
SUNPO
  6
Continuous
100
AcDbDimension
  2
*D5
 10
13.93787397143604
 20
1.783447898233814
 30
0.0
 11
12.18787397143605
 21
15.83344789682881
 31
0.0
 70
    33
  1
843
 71
     5
 42
28.09999999718998
  3
STANDARD
100
AcDbAlignedDimension
 13
5.937873971436061
 23
29.8834478954238
 33
0.0
 14
5.937873971436061
 24
1.783447898233816
 34
0.0
1001
ACAD
1000
DSTYLE
1002
{
1070
    40
1040
1.0
1070
   140
1040
2.5
1070
   147
1040
0.5
1070
   172
1070
     1
1070
   279
1070
     0
1070
   288
1070
     0
1002
}
  0
ELLIPSE
  5
2C1
330
2
100
AcDbEntity
  8
GAIKEI
  6
Continuous
 62
     7
100
AcDbEllipse
 10
31.03550350333717
 20
29.77383300490382
 30
0.0
 11
-0.2881495404636526
 21
0.012494559521736
 31
0.0
210
0.0
220
0.0
230
1.0
 40
0.0968455342409455
 41
6.227176795229617
 42
6.318824225410621
  0
ELLIPSE
  5
2C2
330
2
100
AcDbEntity
  8
GAIKEI
  6
Continuous
 62
     7
100
AcDbEllipse
 10
30.79104946306889
 20
29.76102171151658
 30
0.0
 11
0.0026167978118861
 21
-0.0499314767327469
 31
0.0
210
0.0
220
0.0
230
1.0
 40
0.9965844392198031
 41
3.141592653589793
 42
4.152613244623238
  0
ELLIPSE
  5
2C3
330
2
100
AcDbEntity
  8
GAIKEI
  6
Continuous
 62
     1
100
AcDbEllipse
 10
31.03288670552532
 20
1.893062788753809
 30
0.0
 11
-0.1820847421590482
 21
0.2647949924571918
 31
0.0
210
0.0
220
0.0
230
1.0
 40
0.6217793854148083
 41
0.7351399007579947
 42
0.8267873309388068
  0
ELLIPSE
  5
2C4
330
2
100
AcDbEntity
  8
GAIKEI
  6
Continuous
 62
     1
100
AcDbEllipse
 10
29.62756252394135
 20
1.916781231550658
 30
0.0
 11
2.544151558110117
 21
0.0
 31
0.0
210
0.0
220
0.0
230
1.0
 40
0.0524077792830372
 41
6.281815779309091
 42
6.283185307179586
  0
ELLIPSE
  5
2C5
330
2
100
AcDbEntity
  8
GAIKEI
  6
Continuous
 62
     1
100
AcDbEllipse
 10
31.03288670552532
 20
29.77383300490382
 30
0.0
 11
0.1820847421590489
 21
0.2647949924571904
 31
0.0
210
0.0
220
0.0
230
1.0
 40
0.6217793854148106
 41
2.314805322650925
 42
2.406452752831748
  0
ELLIPSE
  5
2C6
330
2
100
AcDbEntity
  8
GAIKEI
  6
Continuous
 62
     1
100
AcDbEllipse
 10
29.62756252394127
 20
29.75011456210696
 30
0.0
 11
2.544151558110117
 21
0.0
 31
0.0
210
0.0
220
0.0
230
1.0
 40
0.0524077792830372
 41
0.0
 42
0.0013695278703665
  0
ARC
  5
2C7
330
2
100
AcDbEntity
  8
GAIKEI
  6
Continuous
 62
     7
100
AcDbCircle
 10
30.67838074886706
 20
2.049846401559605
 30
0.0
 40
0.0333333333300076
100
AcDbArc
 50
180.0000000000325
 51
212.5508678714818
  0
ARC
  5
2C8
330
2
100
AcDbEntity
  8
GAIKEI
  6
Continuous
 62
     7
100
AcDbCircle
 10
30.67838074886706
 20
29.617049392098
 30
0.0
 40
0.0333333333300076
100
AcDbArc
 50
147.4491321285453
 51
180.0
  0
ARC
  5
2C9
330
2
100
AcDbEntity
  8
GAIKEI
  6
Continuous
 62
     7
100
AcDbCircle
 10
30.79001924244379
 20
1.905928073716182
 30
0.0
 40
0.0499999999950114
100
AcDbArc
 50
212.5508678714547
 51
266.9999999999944
  0
ARC
  5
2CA
330
2
100
AcDbEntity
  8
GAIKEI
  6
Continuous
 62
     7
100
AcDbCircle
 10
32.17171408205141
 20
1.816781231560597
 30
0.0
 40
0.0333333333300076
100
AcDbArc
 50
270.0
 51
0.0
  0
ARC
  5
2CB
330
2
100
AcDbEntity
  8
GAIKEI
  6
Continuous
 62
     7
100
AcDbCircle
 10
32.17171408205141
 20
29.85011456209701
 30
0.0
 40
0.0333333333300076
100
AcDbArc
 50
0.0
 51
90.0
  0
LINE
  5
2CC
330
2
100
AcDbEntity
  8
GAIKEI
  6
Continuous
 62
     7
100
AcDbLine
 10
30.64504741553705
 20
2.049846401559605
 30
0.0
 11
30.64504741553705
 21
29.617049392098
 31
0.0
  0
LINE
  5
2CD
330
2
100
AcDbEntity
  8
GAIKEI
  6
Continuous
 62
     7
100
AcDbLine
 10
30.78843266525701
 20
29.81095318824934
 30
0.0
 11
30.78740244463191
 21
29.8108991966742
 31
0.0
  0
LINE
  5
2CE
330
2
100
AcDbEntity
  8
GAIKEI
  6
Continuous
 62
     7
100
AcDbLine
 10
30.65028361245194
 20
29.63498433107647
 30
0.0
 11
30.74787353782119
 21
29.78787012840913
 31
0.0
  0
LINE
  5
2CF
330
2
100
AcDbEntity
  8
GAIKEI
  6
Continuous
 62
     7
100
AcDbLine
 10
30.74787353782119
 20
1.879025665248477
 30
0.0
 11
30.65028361245199
 21
2.031911462581149
 31
0.0
  0
LINE
  5
2D0
330
2
100
AcDbEntity
  8
GAIKEI
  6
Continuous
 62
     7
100
AcDbLine
 10
30.78843266525701
 20
29.8109531882493
 30
0.0
 11
32.17171169613803
 21
29.88344777038658
 31
0.0
  0
LINE
  5
2D1
330
2
100
AcDbEntity
  8
GAIKEI
  6
Continuous
 62
     7
100
AcDbLine
 10
32.17171169613806
 20
1.783448023271034
 30
0.0
 11
30.78740244463191
 21
1.85599659698343
 31
0.0
  0
LINE
  5
2D2
330
2
100
AcDbEntity
  8
GAIKEI
  6
Continuous
 62
     1
100
AcDbLine
 10
32.17171408205141
 20
1.916781231550658
 30
0.0
 11
32.20504741538142
 21
1.916781231550658
 31
0.0
  0
LINE
  5
2D3
330
2
100
AcDbEntity
  8
GAIKEI
  6
Continuous
 62
     7
100
AcDbLine
 10
32.20504741538138
 20
29.75011456210694
 30
0.0
 11
32.20504741538145
 21
1.816781231560597
 31
0.0
  0
LINE
  5
2D4
330
2
100
AcDbEntity
  8
GAIKEI
  6
Continuous
 62
     1
100
AcDbLine
 10
30.78740244463194
 20
29.65335808607058
 30
0.0
 11
30.78740244463194
 21
2.013537707587033
 31
0.0
  0
LINE
  5
2D5
330
2
100
AcDbEntity
  8
GAIKEI
  6
Continuous
 62
     1
100
AcDbLine
 10
30.78843266525704
 20
1.989093210028954
 30
0.0
 11
32.1717116961381
 21
1.916598627891687
 31
0.0
  0
LINE
  5
2D6
330
2
100
AcDbEntity
  8
GAIKEI
  6
Continuous
 62
     1
100
AcDbLine
 10
32.17171169613806
 20
29.75029716576591
 30
0.0
 11
30.78843266525704
 21
29.67780258362865
 31
0.0
  0
LINE
  5
2D7
330
2
100
AcDbEntity
  8
GAIKEI
  6
Continuous
 62
     1
100
AcDbLine
 10
32.20504741538138
 20
29.75011456210694
 30
0.0
 11
32.17171408205141
 21
29.75011456210694
 31
0.0
  0
LINE
  5
2D8
330
2
100
AcDbEntity
  8
GAIKEI
  6
Continuous
 62
     7
100
AcDbLine
 10
32.20504741538138
 20
29.85011456209701
 30
0.0
 11
32.20504741538138
 21
29.75011456210694
 31
0.0
  0
LINE
  5
2D9
330
2
100
AcDbEntity
  8
GAIKEI
  6
Continuous
 62
     7
100
AcDbLine
 10
32.17171408205141
 20
29.88344789542698
 30
0.0
 11
32.17171169613803
 21
29.88344777038662
 31
0.0
  0
LINE
  5
2DA
330
2
100
AcDbEntity
  8
GAIKEI
  6
Continuous
 62
     1
100
AcDbLine
 10
30.57838074887704
 20
2.217767159366644
 30
0.0
 11
30.57838074887704
 21
2.218035520483383
 31
0.0
  0
LINE
  5
2DB
330
2
100
AcDbEntity
  8
GAIKEI
  6
Continuous
 62
     1
100
AcDbLine
 10
30.57838074887704
 20
2.218077118172885
 30
0.0
 11
30.57838074887704
 21
2.218035520483383
 31
0.0
  0
LINE
  5
2DC
330
2
100
AcDbEntity
  8
GAIKEI
  6
Continuous
 62
     1
100
AcDbLine
 10
30.64504741553705
 20
2.217767159475059
 30
0.0
 11
30.57838074887704
 21
2.217767159475059
 31
0.0
  0
LINE
  5
2DD
330
2
100
AcDbEntity
  8
GAIKEI
  6
Continuous
 62
     1
100
AcDbLine
 10
30.57838074887704
 20
2.661875503809625
 30
0.0
 11
30.57838074887704
 21
2.556989614647392
 31
0.0
  0
LINE
  5
2DE
330
2
100
AcDbEntity
  8
GAIKEI
  6
Continuous
 62
     1
100
AcDbLine
 10
30.57838074887704
 20
2.661875503809625
 30
0.0
 11
30.64504741553705
 21
2.661875503809625
 31
0.0
  0
LINE
  5
2DF
330
2
100
AcDbEntity
  8
GAIKEI
  6
Continuous
 62
     1
100
AcDbLine
 10
30.57838074887704
 20
2.218045775710308
 30
0.0
 11
30.57838074887704
 21
2.270045035515408
 31
0.0
  0
LINE
  5
2E0
330
2
100
AcDbEntity
  8
GAIKEI
  6
Continuous
 62
     1
100
AcDbLine
 10
30.64504741553705
 20
2.21804575858377
 30
0.0
 11
30.57838074887704
 21
2.21804575858377
 31
0.0
  0
LINE
  5
2E1
330
2
100
AcDbEntity
  8
GAIKEI
  6
Continuous
 62
     1
100
AcDbLine
 10
30.57838074887704
 20
2.270045764197632
 30
0.0
 11
30.57838074887704
 21
2.270045035515408
 31
0.0
  0
LINE
  5
2E2
330
2
100
AcDbEntity
  8
GAIKEI
  6
Continuous
 62
     1
100
AcDbLine
 10
30.57838074887704
 20
2.43583278774453
 30
0.0
 11
30.57838074887704
 21
2.556989616268793
 31
0.0
  0
LINE
  5
2E3
330
2
100
AcDbEntity
  8
GAIKEI
  6
Continuous
 62
     1
100
AcDbLine
 10
30.57838074887704
 20
2.43583278774453
 30
0.0
 11
30.57838074887704
 21
2.36471440983928
 31
0.0
  0
LINE
  5
2E4
330
2
100
AcDbEntity
  8
GAIKEI
  6
Continuous
 62
     1
100
AcDbLine
 10
30.57838074887704
 20
2.270045764124873
 30
0.0
 11
30.57838074887704
 21
2.36471440983928
 31
0.0
  0
ELLIPSE
  5
2E5
330
2
100
AcDbEntity
  8
GAIKEI
  6
Continuous
 62
     1
100
AcDbEllipse
 10
33.53639077678721
 20
7.443201526440844
 30
0.0
 11
-0.000027883082881
 21
-0.0166666433409982
 31
0.0
210
0.0
220
0.0
230
1.0
 40
0.9899903333396398
 41
1.57245256655046
 42
2.357850757822983
  0
ELLIPSE
  5
2E6
330
2
100
AcDbEntity
  8
GAIKEI
  6
Continuous
 62
     1
100
AcDbEllipse
 10
33.55288384838726
 20
24.02678122934468
 30
0.0
 11
0.0
 21
0.2030869677491735
 31
0.0
210
0.0
220
0.0
230
1.0
 40
0.1411349973407681
 41
3.14182877081973
 42
6.282949190305136
  0
ELLIPSE
  5
2E7
330
2
100
AcDbEntity
  8
GAIKEI
  6
Continuous
 62
     1
100
AcDbEllipse
 10
33.54629101363936
 20
7.480341978237476
 30
0.0
 11
0.0000278830828395
 21
0.0166666433409982
 31
0.0
210
0.0
220
0.0
230
1.0
 40
0.9899903333396409
 41
1.572452566546936
 42
2.357850757819366
  0
ELLIPSE
  5
2E8
330
2
100
AcDbEntity
  8
GAIKEI
  6
Continuous
 62
     1
100
AcDbEllipse
 10
33.52978316886227
 20
7.24011456435285
 30
0.0
 11
0.0
 21
0.2402274205811306
 31
0.0
210
0.0
220
0.0
230
1.0
 40
0.1411349973407688
 41
5.899822157622019
 42
6.282949189953956
  0
ELLIPSE
  5
2E9
330
2
100
AcDbEntity
  8
GAIKEI
  6
Continuous
 62
     1
100
AcDbEllipse
 10
33.51618258804156
 20
6.999836779454156
 30
0.0
 11
-0.0000278830828528
 21
0.0166666433409982
 31
0.0
210
0.0
220
0.0
230
1.0
 40
0.9899903333396739
 41
0.7837418957686584
 42
1.569140087042117
  0
ARC
  5
2EA
330
2
100
AcDbEntity
  8
GAIKEI
  6
Continuous
 62
     1
100
AcDbCircle
 10
33.8700474152153
 20
6.320100728564
 30
0.0
 40
0.0666666666600116
100
AcDbArc
 50
109.9999999999806
 51
112.4107549875856
  0
ARC
  5
2EB
330
2
100
AcDbEntity
  8
GAIKEI
  6
Continuous
 62
     1
100
AcDbCircle
 10
33.87671361095267
 20
6.464417647490094
 30
0.0
 40
0.0666671375887832
100
AcDbArc
 50
340.4697506632418
 51
359.9999303443502
  0
ARC
  5
2EC
330
2
100
AcDbEntity
  8
GAIKEI
  6
Continuous
 62
     1
100
AcDbCircle
 10
33.87671396670334
 20
6.464417680679105
 30
0.0
 40
0.0666668134015055
100
AcDbArc
 50
290.0000594387864
 51
340.4696215687501
  0
ARC
  5
2ED
330
2
100
AcDbEntity
  8
GAIKEI
  6
Continuous
 62
     1
100
AcDbCircle
 10
0.3917347259063319
 20
31.98118819979697
 30
0.0
 40
33.80399126520706
100
AcDbArc
 50
347.3145797830732
 51
347.4317476099855
  0
ARC
  5
2EE
330
2
100
AcDbEntity
  8
GAIKEI
  6
Continuous
 62
     1
100
AcDbCircle
 10
34.17087097164396
 20
6.457053496180719
 30
0.0
 40
0.9055604987189537
100
AcDbArc
 50
148.9672946791434
 51
152.097534102043
  0
ARC
  5
2EF
330
2
100
AcDbEntity
  8
GAIKEI
  6
Continuous
 62
     1
100
AcDbCircle
 10
34.17087097328681
 20
23.24372016024486
 30
0.0
 40
0.9055605006048898
100
AcDbArc
 50
148.9672946824426
 51
152.0975340987926
  0
LINE
  5
2F0
330
2
100
AcDbEntity
  8
GAIKEI
  6
Continuous
 62
     1
100
AcDbLine
 10
33.9433807485413
 20
20.00011456307998
 30
0.0
 11
33.9433807485413
 21
24.33344789598074
 31
0.0
  0
LINE
  5
2F1
330
2
100
AcDbEntity
  8
GAIKEI
  6
Continuous
 62
     1
100
AcDbLine
 10
33.9433807485413
 20
24.65820258551898
 30
0.0
 11
33.9433807485413
 21
24.33344789598074
 31
0.0
  0
LINE
  5
2F2
330
2
100
AcDbEntity
  8
GAIKEI
  6
Continuous
 62
     1
100
AcDbLine
 10
33.9433807485413
 20
20.00011456307998
 30
0.0
 11
33.9433807485413
 21
19.67535987354153
 31
0.0
  0
LINE
  5
2F3
330
2
100
AcDbEntity
  8
GAIKEI
  6
Continuous
 62
     1
100
AcDbLine
 10
33.9433807485413
 20
20.00011456307975
 30
0.0
 11
33.9433807485413
 21
24.33344789598074
 31
0.0
  0
LINE
  5
2F4
330
2
100
AcDbEntity
  8
GAIKEI
  6
Continuous
 62
     1
100
AcDbLine
 10
33.9433807485413
 20
24.65820258551898
 30
0.0
 11
33.9433807485413
 21
24.33344789598074
 31
0.0
  0
LINE
  5
2F5
330
2
100
AcDbEntity
  8
GAIKEI
  6
Continuous
 62
     1
100
AcDbLine
 10
33.9433807485413
 20
20.00011456307975
 30
0.0
 11
33.9433807485413
 21
19.67535987354162
 31
0.0
  0
LINE
  5
2F6
330
2
100
AcDbEntity
  8
GAIKEI
  6
Continuous
 62
     1
100
AcDbLine
 10
33.9433807485413
 20
6.464417566437404
 30
0.0
 11
33.9433807485413
 21
6.460139628704794
 31
0.0
  0
LINE
  5
2F7
330
2
100
AcDbEntity
  8
GAIKEI
  6
Continuous
 62
     1
100
AcDbLine
 10
33.9433807485413
 20
6.876781231055758
 30
0.0
 11
33.9433807485413
 21
6.464417566437404
 31
0.0
  0
LINE
  5
2F8
330
2
100
AcDbEntity
  8
GAIKEI
  6
Continuous
 62
     1
100
AcDbLine
 10
33.94332845473653
 20
6.461790480382603
 30
0.0
 11
33.94333743705991
 21
6.46201486206958
 31
0.0
  0
LINE
  5
2F9
330
2
100
AcDbEntity
  8
GAIKEI
  6
Continuous
 62
     1
100
AcDbLine
 10
33.9433807485413
 20
25.44208421798824
 30
0.0
 11
33.9433807485413
 21
20.00011456308002
 31
0.0
  0
LINE
  5
2FA
330
2
100
AcDbEntity
  8
GAIKEI
  6
Continuous
 62
     1
100
AcDbLine
 10
33.9433807485413
 20
19.67535987354162
 30
0.0
 11
33.9433807485413
 21
20.00011456308002
 31
0.0
  0
LINE
  5
2FB
330
2
100
AcDbEntity
  8
GAIKEI
  6
Continuous
 62
     7
100
AcDbLine
 10
33.9433807485413
 20
5.97943832031089
 30
0.0
 11
33.9433807485413
 21
25.46678122920092
 31
0.0
  0
LINE
  5
2FC
330
2
100
AcDbEntity
  8
GAIKEI
  6
Continuous
 62
     1
100
AcDbLine
 10
33.89951542476737
 20
6.401771391728658
 30
0.0
 11
33.8472460723292
 21
6.382746903276796
 31
0.0
  0
LINE
  5
2FD
330
2
100
AcDbEntity
  8
GAIKEI
  6
Continuous
 62
     1
100
AcDbLine
 10
33.80338074855527
 20
6.331487452843035
 30
0.0
 11
33.80338074855524
 21
5.811781231162015
 31
0.0
  0
LINE
  5
2FE
330
2
100
AcDbEntity
  8
GAIKEI
  6
Continuous
 62
     1
100
AcDbLine
 10
33.94004420218704
 20
8.347168700312721
 30
0.0
 11
33.9433807485413
 21
8.347168700312721
 31
0.0
  0
LINE
  5
2FF
330
2
100
AcDbEntity
  8
GAIKEI
  6
Continuous
 62
     7
100
AcDbLine
 10
33.86550656567325
 20
25.98942675180541
 30
0.0
 11
33.9433807485413
 21
25.46678122920092
 31
0.0
  0
LINE
  5
300
330
2
100
AcDbEntity
  8
GAIKEI
  6
Continuous
 62
     7
100
AcDbLine
 10
32.71927139672428
 20
28.96502600217151
 30
0.0
 11
32.26380509855568
 21
29.06828032669333
 31
0.0
  0
LINE
  5
301
330
2
100
AcDbEntity
  8
GAIKEI
  6
Continuous
 62
     1
100
AcDbLine
 10
33.53913718678598
 20
7.013925442561443
 30
0.0
 11
33.53921111531688
 21
7.014004456640705
 31
0.0
  0
LINE
  5
302
330
2
100
AcDbEntity
  8
GAIKEI
  6
Continuous
 62
     1
100
AcDbLine
 10
33.55241779251143
 20
7.452747724228999
 30
0.0
 11
33.53930173268039
 21
7.466132199588031
 31
0.0
  0
LINE
  5
303
330
2
100
AcDbEntity
  8
GAIKEI
  6
Continuous
 62
     1
100
AcDbLine
 10
33.53922635391582
 20
7.014020007753344
 30
0.0
 11
33.55241847342579
 21
7.027482099325723
 31
0.0
  0
LINE
  5
304
330
2
100
AcDbEntity
  8
GAIKEI
  6
Continuous
 62
     1
100
AcDbLine
 10
33.55289061613451
 20
24.22986819143267
 30
0.0
 11
33.52401726123569
 21
24.22991649618915
 31
0.0
  0
LINE
  5
305
330
2
100
AcDbEntity
  8
GAIKEI
  6
Continuous
 62
     1
100
AcDbLine
 10
33.49968274869424
 20
7.48039234925153
 30
0.0
 11
33.52979117429209
 21
7.480341978237476
 31
0.0
  0
LINE
  5
306
330
2
100
AcDbEntity
  8
GAIKEI
  6
Continuous
 62
     1
100
AcDbLine
 10
33.50451504734427
 20
7.01162189247276
 30
0.0
 11
33.53462347294208
 21
7.011672263486815
 31
0.0
  0
LINE
  5
307
330
2
100
AcDbEntity
  8
GAIKEI
  6
Continuous
 62
     1
100
AcDbLine
 10
33.53462347294208
 20
7.4685568652189
 30
0.0
 11
33.54805831748448
 21
7.454986639459463
 31
0.0
  0
LINE
  5
308
330
2
100
AcDbEntity
  8
GAIKEI
  6
Continuous
 62
     1
100
AcDbLine
 10
33.3705859645363
 20
6.633877625855816
 30
0.0
 11
33.3705859645363
 21
6.880826695237402
 31
0.0
  0
LINE
  5
309
330
2
100
AcDbEntity
  8
GAIKEI
  6
Continuous
 62
     1
100
AcDbLine
 10
33.39492047707775
 20
6.923894632781298
 30
0.0
 11
33.39492047707775
 21
7.556334495924375
 31
0.0
  0
LINE
  5
30A
330
2
100
AcDbEntity
  8
GAIKEI
  6
Continuous
 62
     1
100
AcDbLine
 10
33.3705859645363
 20
7.599402433468284
 30
0.0
 11
33.3705859645363
 21
23.66749336022923
 31
0.0
  0
LINE
  5
30B
330
2
100
AcDbEntity
  8
GAIKEI
  6
Continuous
 62
     1
100
AcDbLine
 10
33.39492047707775
 20
23.71056129777306
 30
0.0
 11
33.39492047707775
 21
24.34300116091615
 31
0.0
  0
LINE
  5
30C
330
2
100
AcDbEntity
  8
GAIKEI
  6
Continuous
 62
     1
100
AcDbLine
 10
33.3705859645363
 20
24.38606909846011
 30
0.0
 11
33.3705859645363
 21
24.55790075833898
 31
0.0
  0
LINE
  5
30D
330
2
100
AcDbEntity
  8
GAIKEI
  6
Continuous
 62
     1
100
AcDbLine
 10
33.3705859645363
 20
24.55790075833898
 30
0.0
 11
33.09201617998903
 21
24.70747194902467
 31
0.0
  0
LINE
  5
30E
330
2
100
AcDbEntity
  8
GAIKEI
  6
Continuous
 62
     1
100
AcDbLine
 10
32.72851730063289
 20
2.700261158552379
 30
0.0
 11
32.72851730063289
 21
5.933378718413337
 31
0.0
  0
LINE
  5
30F
330
2
100
AcDbEntity
  8
GAIKEI
  6
Continuous
 62
     1
100
AcDbLine
 10
33.16717053837199
 20
6.559840465541427
 30
0.0
 11
33.3705859645363
 21
6.633877625855816
 31
0.0
  0
ARC
  5
310
330
2
100
AcDbEntity
  8
GAIKEI
  6
Continuous
 62
     1
100
AcDbCircle
 10
32.15438074871976
 20
27.90678122895754
 30
0.0
 40
0.2999999999700891
100
AcDbArc
 50
0.0
 51
16.60154959900614
  0
ARC
  5
311
330
2
100
AcDbEntity
  8
GAIKEI
  6
Continuous
 62
     1
100
AcDbCircle
 10
32.15438074871976
 20
27.90678122895754
 30
0.0
 40
0.2999999999700891
100
AcDbArc
 50
343.3984504009938
 51
0.0
  0
ARC
  5
312
330
2
100
AcDbEntity
  8
GAIKEI
  6
Continuous
 62
     1
100
AcDbCircle
 10
32.40034822622023
 20
27.83344789563154
 30
0.0
 40
0.0433333333290153
100
AcDbArc
 50
270.0
 51
343.3984504009938
  0
ARC
  5
313
330
2
100
AcDbEntity
  8
GAIKEI
  6
Continuous
 62
     1
100
AcDbCircle
 10
32.40034822622023
 20
27.98011456228355
 30
0.0
 40
0.0433333333290153
100
AcDbArc
 50
16.60154959903675
 51
90.0
  0
LINE
  5
314
330
2
100
AcDbEntity
  8
GAIKEI
  6
Continuous
 62
     1
100
AcDbLine
 10
32.44187520294109
 20
27.82106694325182
 30
0.0
 11
32.44187520294109
 21
27.99249551466326
 31
0.0
  0
LINE
  5
315
330
2
100
AcDbEntity
  8
GAIKEI
  6
Continuous
 62
     1
100
AcDbLine
 10
32.32595244793794
 20
27.79011456230254
 30
0.0
 11
32.40034822622023
 21
27.79011456230254
 31
0.0
  0
LINE
  5
316
330
2
100
AcDbEntity
  8
GAIKEI
  6
Continuous
 62
     1
100
AcDbLine
 10
32.40034822622023
 20
28.02344789561259
 30
0.0
 11
32.32595244793794
 21
28.02344789561255
 31
0.0
  0
LINE
  5
317
330
2
100
AcDbEntity
  8
GAIKEI
  6
Continuous
 62
     1
100
AcDbLine
 10
32.36771408203187
 20
27.90678740984374
 30
0.0
 11
32.36771408203187
 21
28.02344789561259
 31
0.0
  0
LINE
  5
318
330
2
100
AcDbEntity
  8
GAIKEI
  6
Continuous
 62
     1
100
AcDbLine
 10
32.36771408203187
 20
27.79011456230254
 30
0.0
 11
32.36771408203187
 21
27.90678740984374
 31
0.0
  0
LINE
  5
319
330
2
100
AcDbEntity
  8
GAIKEI
  6
Continuous
 62
     1
100
AcDbLine
 10
32.40034822622023
 20
27.79011456230254
 30
0.0
 11
32.40034822622023
 21
28.02344789561259
 31
0.0
  0
ARC
  5
31A
330
2
100
AcDbEntity
  8
GAIKEI
  6
Continuous
 62
     1
100
AcDbCircle
 10
32.15438074871976
 20
25.29678122921796
 30
0.0
 40
0.2999999999700891
100
AcDbArc
 50
0.0
 51
16.60154959900614
  0
ARC
  5
31B
330
2
100
AcDbEntity
  8
GAIKEI
  6
Continuous
 62
     1
100
AcDbCircle
 10
32.15438074871976
 20
25.29678122921796
 30
0.0
 40
0.2999999999700891
100
AcDbArc
 50
343.3984504009938
 51
0.0
  0
ARC
  5
31C
330
2
100
AcDbEntity
  8
GAIKEI
  6
Continuous
 62
     1
100
AcDbCircle
 10
32.40034822622023
 20
25.22344789589191
 30
0.0
 40
0.0433333333290128
100
AcDbArc
 50
270.0
 51
343.3984504009938
  0
ARC
  5
31D
330
2
100
AcDbEntity
  8
GAIKEI
  6
Continuous
 62
     1
100
AcDbCircle
 10
32.40034822622023
 20
25.37011456254396
 30
0.0
 40
0.0433333333290128
100
AcDbArc
 50
16.60154959900614
 51
90.0
  0
LINE
  5
31E
330
2
100
AcDbEntity
  8
GAIKEI
  6
Continuous
 62
     1
100
AcDbLine
 10
32.32595244793794
 20
25.18011456256292
 30
0.0
 11
32.40034822622023
 21
25.18011456256295
 31
0.0
  0
LINE
  5
31F
330
2
100
AcDbEntity
  8
GAIKEI
  6
Continuous
 62
     1
100
AcDbLine
 10
32.40034822622023
 20
25.41344789587296
 30
0.0
 11
32.32595244793794
 21
25.41344789587296
 31
0.0
  0
LINE
  5
320
330
2
100
AcDbEntity
  8
GAIKEI
  6
Continuous
 62
     1
100
AcDbLine
 10
32.36771408203187
 20
25.29678741010416
 30
0.0
 11
32.36771408203187
 21
25.41344789587296
 31
0.0
  0
LINE
  5
321
330
2
100
AcDbEntity
  8
GAIKEI
  6
Continuous
 62
     1
100
AcDbLine
 10
32.36771408203187
 20
25.18011456256295
 30
0.0
 11
32.36771408203187
 21
25.29678741010416
 31
0.0
  0
LINE
  5
322
330
2
100
AcDbEntity
  8
GAIKEI
  6
Continuous
 62
     1
100
AcDbLine
 10
32.40034822622023
 20
25.18011456256295
 30
0.0
 11
32.40034822622023
 21
25.41344789587296
 31
0.0
  0
LINE
  5
323
330
2
100
AcDbEntity
  8
GAIKEI
  6
Continuous
 62
     1
100
AcDbLine
 10
32.44187520294109
 20
25.21106694351224
 30
0.0
 11
32.44187520294109
 21
25.38249551492368
 31
0.0
  0
ELLIPSE
  5
324
330
2
100
AcDbEntity
  8
GAIKEI
  6
Continuous
 62
     1
100
AcDbEllipse
 10
32.75447997859433
 20
28.26240397566102
 30
0.0
 11
0.0624127083530245
 21
0.2936287069317421
 31
0.0
210
0.0
220
0.0
230
1.0
 40
0.9993719049380249
 41
1.137417462013209
 42
1.570796326794884
  0
ELLIPSE
  5
325
330
2
100
AcDbEntity
  8
GAIKEI
  6
Continuous
 62
     1
100
AcDbEllipse
 10
32.75447997859433
 20
25.33495377031912
 30
0.0
 11
-0.0624127083530213
 21
0.2936287069317425
 31
0.0
210
0.0
220
0.0
230
1.0
 40
0.9993719049380262
 41
1.570796326794934
 42
2.00417519157666
  0
ARC
  5
326
330
2
100
AcDbEntity
  8
GAIKEI
  6
Continuous
 62
     1
100
AcDbCircle
 10
33.41871410009424
 20
25.73711644169499
 30
0.0
 40
1.033333333230234
100
AcDbArc
 50
180.0
 51
192.0000000000129
  0
ARC
  5
327
330
2
100
AcDbEntity
  8
GAIKEI
  6
Continuous
 62
     1
100
AcDbCircle
 10
33.41871410009424
 20
27.86024130428513
 30
0.0
 40
1.033333333230234
100
AcDbArc
 50
167.999999999987
 51
170.9125452951274
  0
ARC
  5
328
330
2
100
AcDbEntity
  8
GAIKEI
  6
Continuous
 62
     7
100
AcDbCircle
 10
33.50549114044073
 20
28.56810578562907
 30
0.0
 40
0.233333333310053
100
AcDbArc
 50
7.400992475884481
 51
78.55455851726958
  0
ARC
  5
329
330
2
100
AcDbEntity
  8
GAIKEI
  6
Continuous
 62
     7
100
AcDbCircle
 10
33.50549114044073
 20
25.029251960351
 30
0.0
 40
0.233333333310053
100
AcDbArc
 50
281.4454414827304
 51
352.5990075241155
  0
ARC
  5
32A
330
2
100
AcDbEntity
  8
GAIKEI
  6
Continuous
 62
     1
100
AcDbCircle
 10
33.28205100011763
 20
25.23636670609315
 30
0.0
 40
0.1663491955794656
100
AcDbArc
 50
271.937226850654
 51
352.3643391909041
  0
ARC
  5
32B
330
2
100
AcDbEntity
  8
GAIKEI
  6
Continuous
 62
     1
100
AcDbCircle
 10
33.28205100011763
 20
28.36099103988698
 30
0.0
 40
0.1663491955794471
100
AcDbArc
 50
7.635660809095808
 51
88.062773149346
  0
ARC
  5
32C
330
2
100
AcDbEntity
  8
GAIKEI
  6
Continuous
 62
     1
100
AcDbCircle
 10
33.50549114044073
 20
25.029251960351
 30
0.0
 40
0.1666666666500379
100
AcDbArc
 50
281.4454414827304
 51
352.5990075241155
  0
ARC
  5
32D
330
2
100
AcDbEntity
  8
GAIKEI
  6
Continuous
 62
     1
100
AcDbCircle
 10
32.94204743347514
 20
26.64335466938818
 30
0.0
 40
0.9333333332402121
100
AcDbArc
 50
352.5990075241155
 51
0.0
  0
ARC
  5
32E
330
2
100
AcDbEntity
  8
GAIKEI
  6
Continuous
 62
     1
100
AcDbCircle
 10
32.94204743347514
 20
26.9540030765919
 30
0.0
 40
0.9333333332402121
100
AcDbArc
 50
0.0
 51
7.400992475884481
  0
ARC
  5
32F
330
2
100
AcDbEntity
  8
GAIKEI
  6
Continuous
 62
     1
100
AcDbCircle
 10
33.50549114044073
 20
28.56810578562907
 30
0.0
 40
0.1666666666500379
100
AcDbArc
 50
7.400992475884481
 51
78.55455851726958
  0
LINE
  5
330
330
2
100
AcDbEntity
  8
GAIKEI
  6
Continuous
 62
     1
100
AcDbLine
 10
32.43468554318923
 20
25.3965479966904
 30
0.0
 11
32.4079615794368
 21
25.52227436120472
 31
0.0
  0
LINE
  5
331
330
2
100
AcDbEntity
  8
GAIKEI
  6
Continuous
 62
     1
100
AcDbLine
 10
32.46103569840349
 20
25.27258026307997
 30
0.0
 11
32.45428558260269
 21
25.30433706111893
 31
0.0
  0
LINE
  5
332
330
2
100
AcDbEntity
  8
GAIKEI
  6
Continuous
 62
     1
100
AcDbLine
 10
32.4079615794368
 20
28.07508338477536
 30
0.0
 11
32.46103569840349
 21
28.32477748290012
 31
0.0
  0
LINE
  5
333
330
2
100
AcDbEntity
  8
GAIKEI
  6
Continuous
 62
     1
100
AcDbLine
 10
32.385380766864
 20
25.73711644169499
 30
0.0
 11
32.38538076686396
 21
27.79011456230254
 31
0.0
  0
LINE
  5
334
330
2
100
AcDbEntity
  8
GAIKEI
  6
Continuous
 62
     7
100
AcDbLine
 10
32.71927139672428
 20
28.96502600217151
 30
0.0
 11
33.55179257851492
 21
28.79679907644854
 31
0.0
  0
LINE
  5
335
330
2
100
AcDbEntity
  8
GAIKEI
  6
Continuous
 62
     1
100
AcDbLine
 10
33.94204743337537
 20
26.95416062358127
 30
0.0
 11
33.94204743337537
 21
26.9540030765919
 31
0.0
  0
LINE
  5
336
330
2
100
AcDbEntity
  8
GAIKEI
  6
Continuous
 62
     7
100
AcDbLine
 10
33.93402552987213
 20
26.51458506643456
 30
0.0
 11
33.73688055770714
 21
24.99919564636038
 31
0.0
  0
LINE
  5
337
330
2
100
AcDbEntity
  8
GAIKEI
  6
Continuous
 62
     7
100
AcDbLine
 10
33.55179257851492
 20
24.80055866953154
 30
0.0
 11
32.75196398060152
 21
24.63862469165424
 31
0.0
  0
LINE
  5
338
330
2
100
AcDbEntity
  8
GAIKEI
  6
Continuous
 62
     7
100
AcDbLine
 10
32.68598019474703
 20
24.63201220653954
 30
0.0
 11
32.20504741538138
 21
24.63201220653954
 31
0.0
  0
LINE
  5
339
330
2
100
AcDbEntity
  8
GAIKEI
  6
Continuous
 62
     1
100
AcDbLine
 10
32.43106902497923
 20
25.04019926781274
 30
0.0
 11
33.2876743590264
 21
25.0701125852284
 31
0.0
  0
LINE
  5
33A
330
2
100
AcDbEntity
  8
GAIKEI
  6
Continuous
 62
     1
100
AcDbLine
 10
33.62826043274686
 20
27.04163383058888
 30
0.0
 11
33.44692518271725
 21
28.38309440574031
 31
0.0
  0
LINE
  5
33B
330
2
100
AcDbEntity
  8
GAIKEI
  6
Continuous
 62
     1
100
AcDbLine
 10
33.44692518271732
 20
25.21426334024023
 30
0.0
 11
33.62826043274686
 21
26.55572391539121
 31
0.0
  0
LINE
  5
33C
330
2
100
AcDbEntity
  8
GAIKEI
  6
Continuous
 62
     1
100
AcDbLine
 10
32.32595244793794
 20
28.46062865939672
 30
0.0
 11
32.32595244793794
 21
25.13672908658338
 31
0.0
  0
LINE
  5
33D
330
2
100
AcDbEntity
  8
GAIKEI
  6
Continuous
 62
     1
100
AcDbLine
 10
33.5789762732524
 20
28.40094473840193
 30
0.0
 11
33.76031152328201
 21
27.0594841632505
 31
0.0
  0
LINE
  5
33E
330
2
100
AcDbEntity
  8
GAIKEI
  6
Continuous
 62
     1
100
AcDbLine
 10
33.76031152328201
 20
26.53787358272959
 30
0.0
 11
33.5789762732524
 21
25.19641300757815
 31
0.0
  0
LINE
  5
33F
330
2
100
AcDbEntity
  8
GAIKEI
  6
Continuous
 62
     1
100
AcDbLine
 10
33.29232479060884
 20
24.93694164855765
 30
0.0
 11
32.43571945656174
 21
24.90702833114204
 31
0.0
  0
LINE
  5
340
330
2
100
AcDbEntity
  8
GAIKEI
  6
Continuous
 62
     1
100
AcDbLine
 10
32.29262419143605
 20
25.13672908658338
 30
0.0
 11
32.29262419143609
 21
28.46062865939672
 31
0.0
  0
LINE
  5
341
330
2
100
AcDbEntity
  8
GAIKEI
  6
Continuous
 62
     1
100
AcDbLine
 10
32.71262249957754
 20
28.89867887278052
 30
0.0
 11
32.20504741538138
 21
28.89867887278052
 31
0.0
  0
LINE
  5
342
330
2
100
AcDbEntity
  8
GAIKEI
  6
Continuous
 62
     1
100
AcDbLine
 10
32.20504741538138
 20
24.69867887319957
 30
0.0
 11
32.71262249957754
 21
24.69867887319957
 31
0.0
  0
LINE
  5
343
330
2
100
AcDbEntity
  8
GAIKEI
  6
Continuous
 62
     1
100
AcDbLine
 10
32.71262249957754
 20
24.69867887319957
 30
0.0
 11
33.53856359620805
 21
24.86589960976571
 31
0.0
  0
LINE
  5
344
330
2
100
AcDbEntity
  8
GAIKEI
  6
Continuous
 62
     1
100
AcDbLine
 10
33.67076929563101
 20
25.00778316464346
 30
0.0
 11
33.86760510254064
 21
26.52312941342553
 31
0.0
  0
LINE
  5
345
330
2
100
AcDbEntity
  8
GAIKEI
  6
Continuous
 62
     1
100
AcDbLine
 10
33.87538076671535
 20
26.64335466938818
 30
0.0
 11
33.87538076671535
 21
26.9540030765919
 31
0.0
  0
LINE
  5
346
330
2
100
AcDbEntity
  8
GAIKEI
  6
Continuous
 62
     1
100
AcDbLine
 10
33.86760510254064
 20
27.07422833255455
 30
0.0
 11
33.67076929563101
 21
28.58957458133668
 31
0.0
  0
LINE
  5
347
330
2
100
AcDbEntity
  8
GAIKEI
  6
Continuous
 62
     1
100
AcDbLine
 10
33.53856359620805
 20
28.73145813621441
 30
0.0
 11
32.71262249957754
 21
28.89867887278052
 31
0.0
  0
LINE
  5
348
330
2
100
AcDbEntity
  8
GAIKEI
  6
Continuous
 62
     1
100
AcDbLine
 10
33.76747260336703
 20
26.95305155475572
 30
0.0
 11
33.76747260336703
 21
26.64430619122438
 31
0.0
  0
LINE
  5
349
330
2
100
AcDbEntity
  8
GAIKEI
  6
Continuous
 62
     1
100
AcDbLine
 10
33.63422049311113
 20
26.64430619122438
 30
0.0
 11
33.63422049311113
 21
26.95305155475572
 31
0.0
  0
LINE
  5
34A
330
2
100
AcDbEntity
  8
GAIKEI
  6
Continuous
 62
     1
100
AcDbLine
 10
32.43571945656174
 20
28.69032941483806
 30
0.0
 11
33.29232479060884
 21
28.6604160974224
 31
0.0
  0
LINE
  5
34B
330
2
100
AcDbEntity
  8
GAIKEI
  6
Continuous
 62
     1
100
AcDbLine
 10
33.28767435902591
 20
28.52724516075173
 30
0.0
 11
32.43106902497923
 21
28.55715847816739
 31
0.0
  0
LINE
  5
34C
330
2
100
AcDbEntity
  8
GAIKEI
  6
Continuous
 62
     7
100
AcDbLine
 10
33.65210340794417
 20
2.748664255413245
 30
0.0
 11
32.20504741538142
 21
2.672827264344846
 31
0.0
  0
LINE
  5
34D
330
2
100
AcDbEntity
  8
GAIKEI
  6
Continuous
 62
     7
100
AcDbLine
 10
33.81004741522128
 20
2.921781231450353
 30
0.0
 11
33.81004741522128
 21
2.915102511189076
 31
0.0
  0
LINE
  5
34E
330
2
100
AcDbEntity
  8
GAIKEI
  6
Continuous
 62
     7
100
AcDbLine
 10
33.81004741522128
 20
2.921781231450353
 30
0.0
 11
33.8033807485552
 21
2.928447898116417
 31
0.0
  0
LINE
  5
34F
330
2
100
AcDbEntity
  8
GAIKEI
  6
Continuous
 62
     7
100
AcDbLine
 10
33.93402553954422
 20
27.08254593593327
 30
0.0
 11
33.7371719151484
 21
28.59804878097208
 31
0.0
  0
LINE
  5
350
330
2
100
AcDbEntity
  8
GAIKEI
  6
Continuous
 62
     1
100
AcDbLine
 10
33.55237501743183
 20
28.79662682530847
 30
0.0
 11
33.55212399367272
 21
28.79667764784679
 31
0.0
  0
LINE
  5
351
330
2
100
AcDbEntity
  8
GAIKEI
  6
Continuous
 62
     1
100
AcDbLine
 10
33.55212399367272
 20
28.79667764784679
 30
0.0
 11
33.55172006158114
 21
28.79675942832036
 31
0.0
  0
LINE
  5
352
330
2
100
AcDbEntity
  8
GAIKEI
  6
Continuous
 62
     7
100
AcDbLine
 10
33.94233629007139
 20
26.79856487184029
 30
0.0
 11
33.94233629007151
 21
26.64308375757225
 31
0.0
  0
LINE
  5
353
330
2
100
AcDbEntity
  8
GAIKEI
  6
Continuous
 62
     1
100
AcDbLine
 10
33.94233629007151
 20
26.95404731944166
 30
0.0
 11
33.94233629007139
 21
26.79856620517361
 31
0.0
  0
LINE
  5
354
330
2
100
AcDbEntity
  8
GAIKEI
  6
Continuous
 62
     1
100
AcDbLine
 10
33.94233281831454
 20
26.95404709488748
 30
0.0
 11
33.94233629007151
 21
26.95404731944166
 31
0.0
  0
LINE
  5
355
330
2
100
AcDbEntity
  8
GAIKEI
  6
Continuous
 62
     1
100
AcDbLine
 10
33.94204743337537
 20
26.95402863611182
 30
0.0
 11
33.94233281831454
 21
26.95404709488748
 31
0.0
  0
LINE
  5
356
330
2
100
AcDbEntity
  8
GAIKEI
  6
Continuous
 62
     7
100
AcDbLine
 10
33.94216581169704
 20
26.62464208770098
 30
0.0
 11
33.94233878020692
 21
26.64308375716297
 31
0.0
  0
LINE
  5
357
330
2
100
AcDbEntity
  8
GAIKEI
  6
Continuous
 62
     1
100
AcDbLine
 10
33.73711925725077
 20
28.59845142554194
 30
0.0
 11
33.73687279784528
 21
28.59822177889375
 31
0.0
  0
LINE
  5
358
330
2
100
AcDbEntity
  8
GAIKEI
  6
Continuous
 62
     1
100
AcDbLine
 10
33.73711957517715
 20
28.59845172178028
 30
0.0
 11
33.73711925725077
 21
28.59845142554194
 31
0.0
  0
LINE
  5
359
330
2
100
AcDbEntity
  8
GAIKEI
  6
Continuous
 62
     1
100
AcDbLine
 10
33.7371456467263
 20
28.59825100919208
 30
0.0
 11
33.73711957517715
 21
28.59845172178028
 31
0.0
  0
LINE
  5
35A
330
2
100
AcDbEntity
  8
GAIKEI
  6
Continuous
 62
     1
100
AcDbLine
 10
33.73717191514844
 20
28.59804878097208
 30
0.0
 11
33.7371456467263
 21
28.59825100919208
 31
0.0
  0
LINE
  5
35B
330
2
100
AcDbEntity
  8
GAIKEI
  6
Continuous
 62
     7
100
AcDbLine
 10
33.93402553954422
 20
27.08254593593327
 30
0.0
 11
33.73717191514844
 21
28.59804878097208
 31
0.0
  0
LINE
  5
35C
330
2
100
AcDbEntity
  8
GAIKEI
  6
Continuous
 62
     7
100
AcDbLine
 10
33.94223388156637
 20
26.62875647605496
 30
0.0
 11
33.94233629007148
 21
26.64308375757225
 31
0.0
  0
LINE
  5
35D
330
2
100
AcDbEntity
  8
GAIKEI
  6
Continuous
 62
     7
100
AcDbLine
 10
33.9357695214899
 20
26.52880625567814
 30
0.0
 11
33.93836422946407
 21
26.55413962488426
 31
0.0
  0
LINE
  5
35E
330
2
100
AcDbEntity
  8
GAIKEI
  6
Continuous
 62
     7
100
AcDbLine
 10
33.93402552987213
 20
26.51458506643456
 30
0.0
 11
33.9357695214899
 21
26.52880625567814
 31
0.0
  0
LINE
  5
35F
330
2
100
AcDbEntity
  8
GAIKEI
  6
Continuous
 62
     7
100
AcDbLine
 10
33.94233629007148
 20
26.95404731944166
 30
0.0
 11
33.94233629007148
 21
26.64308375757225
 31
0.0
  0
LINE
  5
360
330
2
100
AcDbEntity
  8
GAIKEI
  6
Continuous
 62
     1
100
AcDbLine
 10
33.94233565041097
 20
26.95404708724141
 30
0.0
 11
33.94233629009566
 21
26.95404724311132
 31
0.0
  0
LINE
  5
361
330
2
100
AcDbEntity
  8
GAIKEI
  6
Continuous
 62
     1
100
AcDbLine
 10
33.94204743341122
 20
26.95402844657744
 30
0.0
 11
33.94233565041097
 21
26.95404708724141
 31
0.0
  0
LINE
  5
362
330
2
100
AcDbEntity
  8
GAIKEI
  6
Continuous
 62
     7
100
AcDbLine
 10
33.93576952143366
 20
27.06832482182353
 30
0.0
 11
33.93402553954422
 21
27.08254593593324
 31
0.0
  0
LINE
  5
363
330
2
100
AcDbEntity
  8
GAIKEI
  6
Continuous
 62
     7
100
AcDbLine
 10
33.94223388156166
 20
26.96837460128583
 30
0.0
 11
33.9415437111701
 21
26.9938311507611
 31
0.0
  0
LINE
  5
364
330
2
100
AcDbEntity
  8
GAIKEI
  6
Continuous
 62
     7
100
AcDbLine
 10
33.94233629009566
 20
26.95404724311132
 30
0.0
 11
33.94223388156166
 21
26.96837460128583
 31
0.0
  0
LINE
  5
365
330
2
100
AcDbEntity
  8
GAIKEI
  6
Continuous
 62
     7
100
AcDbLine
 10
33.93623200428137
 20
27.06423594385813
 30
0.0
 11
33.93402800898741
 21
27.08254625628872
 31
0.0
  0
LINE
  5
366
330
2
100
AcDbEntity
  8
GAIKEI
  6
Continuous
 62
     7
100
AcDbLine
 10
33.94233878020695
 20
26.95404731981716
 30
0.0
 11
33.94216581172265
 21
26.97248898793572
 31
0.0
  0
LINE
  5
367
330
2
100
AcDbEntity
  8
GAIKEI
  6
Continuous
 62
     1
100
AcDbLine
 10
33.73687276555671
 20
28.598222026966
 30
0.0
 11
33.73711922441797
 21
28.59845167490624
 31
0.0
  0
SPLINE
  5
368
330
2
100
AcDbEntity
  8
GAIKEI
  6
Continuous
 62
     1
100
AcDbSpline
210
0.0
220
0.0
230
1.0
 70
     8
 71
     3
 72
    25
 73
    21
 74
    19
 42
0.0000000001
 43
0.0000000001
 44
0.000001
 12
0.4538797674550776
 22
-0.8910629364387931
 32
0.0
 13
-0.031367967599114
 23
-0.9995079042252248
 33
0.0
 40
0.0
 40
0.0
 40
0.0
 40
0.0
 40
0.0009635445512515
 40
0.0037386866614089
 40
0.0067628531292192
 40
0.0106585511528907
 40
0.0155515629068457
 40
0.0213014311659974
 40
0.0276497108253971
 40
0.0347180352780858
 40
0.0426923287630381
 40
0.0513198949466312
 40
0.060164791457799
 40
0.0694964568679535
 40
0.0795340599748911
 40
0.0899501485579782
 40
0.1003598179734187
 40
0.1109878557765774
 40
0.1220715920286289
 40
0.1332328055089667
 40
0.1332328055089667
 40
0.1332328055089667
 40
0.1332328055089667
 10
30.78843266525701
 20
29.8109531882493
 30
0.0
 10
30.78857844304929
 20
29.81066699530357
 30
0.0
 10
30.78908342984383
 20
29.80950804666557
 30
0.0
 10
30.78887526657384
 20
29.8071879166315
 30
0.0
 10
30.78897709397899
 20
29.80398200499294
 30
0.0
 10
30.7888933219242
 20
29.80003508357238
 30
0.0
 10
30.78884427582847
 20
29.79519284461776
 30
0.0
 10
30.78877397561259
 20
29.78952828793149
 30
0.0
 10
30.78872541955464
 20
29.78314002648963
 30
0.0
 10
30.78869599746994
 20
29.77600964697065
 30
0.0
 10
30.78869655442495
 20
29.7681196044729
 30
0.0
 10
30.78872406077058
 20
29.7596373745165
 30
0.0
 10
30.78877526266365
 20
29.75070281028573
 30
0.0
 10
30.7888384316513
 20
29.74129830064544
 30
0.0
 10
30.78890314222255
 20
29.73137005741996
 30
0.0
 10
30.78894814480205
 20
29.72108235556687
 30
0.0
 10
30.78895339799114
 20
29.71059771321711
 30
0.0
 10
30.78889331139482
 20
29.69989065752491
 30
0.0
 10
30.7887429033822
 20
29.68893382735898
 30
0.0
 10
30.78854936678464
 20
29.68152115732676
 30
0.0
 10
30.78843266525704
 20
29.67780258362865
 30
0.0
 11
30.78843266525701
 21
29.8109531882493
 31
0.0
 11
30.78879664819354
 21
29.81006097508819
 31
0.0
 11
30.78893679295184
 21
29.80728953652745
 31
0.0
 11
30.78894371859255
 21
29.80426539692878
 31
0.0
 11
30.78890584456798
 21
29.80036989296295
 31
0.0
 11
30.78884447612339
 21
29.79547727208535
 31
0.0
 11
30.78877986229978
 21
29.78972777067918
 31
0.0
 11
30.7887297486074
 21
29.78337969126258
 31
0.0
 11
30.78870091632512
 21
29.77631142734324
 31
0.0
 11
30.78869961518767
 21
29.76833713526808
 31
0.0
 11
30.78872638447285
 21
29.75970961164282
 31
0.0
 11
30.78877477306317
 21
29.75086484831305
 31
0.0
 11
30.78883557823492
 21
29.74153338174568
 31
0.0
 11
30.78889782589494
 21
29.73149597234495
 31
0.0
 11
30.78894045302084
 21
29.72107997163529
 31
0.0
 11
30.78894189110392
 21
29.71067030282889
 31
0.0
 11
30.78887911696714
 21
29.70004245058476
 31
0.0
 11
30.78871950357572
 21
29.68895986209843
 31
0.0
 11
30.78843266525704
 21
29.67780258362865
 31
0.0
  0
SPLINE
  5
369
330
2
100
AcDbEntity
  8
GAIKEI
  6
Continuous
 62
     1
100
AcDbSpline
210
0.0
220
0.0
230
1.0
 70
     8
 71
     3
 72
    25
 73
    21
 74
    19
 42
0.0000000001
 43
0.0000000001
 44
0.000001
 12
0.0314179304821943
 22
-0.999506334969527
 32
0.0
 13
-0.4484309915581176
 23
-0.8938174566488413
 33
0.0
 40
0.0
 40
0.0
 40
0.0
 40
0.0
 40
0.0108528937145733
 40
0.0216345802439278
 40
0.0325730327996161
 40
0.0432826587499557
 40
0.0534187669336942
 40
0.0631986144078538
 40
0.0728120903918409
 40
0.0819129125188437
 40
0.0903080546747123
 40
0.098087423528851
 40
0.1053896667962364
 40
0.1119313762070483
 40
0.1175302899681711
 40
0.1223210899348369
 40
0.1263686656705756
 40
0.1294941180923983
 40
0.1322428072261138
 40
0.1332320233422403
 40
0.1332320233422403
 40
0.1332320233422403
 40
0.1332320233422403
 10
30.78843266525704
 20
1.989093210028968
 30
0.0
 10
30.78854632374379
 20
1.985477364688819
 30
0.0
 10
30.78873573559756
 20
1.978268127945383
 30
0.0
 10
30.78888952881675
 20
1.967411349358613
 30
0.0
 10
30.7889533415225
 20
1.956601528561606
 30
0.0
 10
30.78894862875258
 20
1.946006752861606
 30
0.0
 10
30.78890448428602
 20
1.935798308852426
 30
0.0
 10
30.78884093915737
 20
1.925955368046714
 30
0.0
 10
30.78877691089531
 20
1.916457535435824
 30
0.0
 10
30.78872478882444
 20
1.907421203675397
 30
0.0
 10
30.78869716195828
 20
1.898996116953952
 30
0.0
 10
30.78869549665865
 20
1.891170550268839
 30
0.0
 10
30.78872397606904
 20
1.883962692373643
 30
0.0
 10
30.78877284869447
 20
1.877482289857027
 30
0.0
 10
30.78884239014712
 20
1.871837726959199
 30
0.0
 10
30.78889140434208
 20
1.867029016817028
 30
0.0
 10
30.78897723369032
 20
1.863031914253454
 30
0.0
 10
30.78887580297467
 20
1.859750100197743
 30
0.0
 10
30.78907722895727
 20
1.857399468737355
 30
0.0
 10
30.78858053031161
 20
1.856237331619311
 30
0.0
 10
30.78843266525701
 20
1.855942605408316
 30
0.0
 11
30.78843266525704
 21
1.989093210028968
 31
0.0
 11
30.78871342364093
 21
1.97824419405569
 31
0.0
 11
30.78887307488589
 21
1.967463688103876
 31
0.0
 11
30.78894112088327
 21
1.956525447401773
 31
0.0
 11
30.78894045302087
 21
1.945815822022325
 31
0.0
 11
30.78889933003824
 21
1.935679797906175
 31
0.0
 11
30.78883913660759
 21
1.925900136357313
 31
0.0
 11
30.78877638588547
 21
1.916286865937934
 31
0.0
 11
30.78872638447285
 21
1.907186182014797
 31
0.0
 11
30.78869996787182
 21
1.898791082420558
 31
0.0
 11
30.78870005808912
 21
1.891011714820933
 31
0.0
 11
30.78872861261475
 21
1.883709529137888
 31
0.0
 11
30.78877986229978
 21
1.877168022978395
 31
0.0
 11
30.78884258764791
 21
1.871569464248807
 31
0.0
 11
30.78890277007966
 21
1.866779048028931
 31
0.0
 11
30.78894314607399
 21
1.86273168369226
 31
0.0
 11
30.78893679295184
 21
1.859606257130138
 31
0.0
 11
30.7888000517435
 21
1.856861130726784
 31
0.0
 11
30.78843266525701
 21
1.855942605408316
 31
0.0
  0
SPLINE
  5
36A
330
2
100
AcDbEntity
  8
GAIKEI
  6
Continuous
 62
     1
100
AcDbSpline
210
0.0
220
0.0
230
1.0
 70
     8
 71
     3
 72
    22
 73
    18
 74
    16
 42
0.0000000001
 43
0.0000000001
 44
0.000001
 12
0.0727947973690701
 22
0.9973469393726519
 32
0.0
 13
0.9278605337080868
 23
0.3729273789720247
 33
0.0
 40
0.0
 40
0.0
 40
0.0
 40
0.0
 40
0.0032778957403192
 40
0.0067865985164682
 40
0.0104766905744803
 40
0.0143123070046289
 40
0.0182708376722392
 40
0.0223425453270888
 40
0.026499453805304
 40
0.030682660266258
 40
0.0348827467986485
 40
0.0390956034869815
 40
0.0436363555748196
 40
0.0487131754882959
 40
0.0563299308141862
 40
0.0649171988891
 40
0.0744248434641874
 40
0.0744248434641874
 40
0.0744248434641874
 40
0.0744248434641874
 10
33.80355544080238
 20
6.324923775550502
 30
0.0
 10
33.80363497872112
 20
6.326013508645232
 30
0.0
 10
33.80385053061821
 20
6.328266265655742
 30
0.0
 10
33.80433775044497
 20
6.331725546930414
 30
0.0
 10
33.80502725503479
 20
6.335340108361108
 30
0.0
 10
33.80594362385867
 20
6.339058914109529
 30
0.0
 10
33.80711274638919
 20
6.342840040920819
 30
0.0
 10
33.80855978564114
 20
6.346639205330603
 30
0.0
 10
33.81028840921846
 20
6.350401166407152
 30
0.0
 10
33.81226493198402
 20
6.354087492066739
 30
0.0
 10
33.81448227210857
 20
6.357656158488737
 30
0.0
 10
33.81698372918518
 20
6.361179350211656
 30
0.0
 10
33.81992237725592
 20
6.364737673542194
 30
0.0
 10
33.82393422081494
 20
6.36885840657473
 30
0.0
 10
33.82938997783404
 20
6.373420564683584
 30
0.0
 10
33.8366097171401
 20
6.378076541932074
 30
0.0
 10
33.84206249275968
 20
6.380702543508974
 30
0.0
 10
33.8450030821496
 20
6.381884430499496
 30
0.0
 11
33.80355544080238
 21
6.324923775550502
 31
0.0
 11
33.80386560832383
 21
6.328187232212641
 31
0.0
 11
33.804355714411
 21
6.33166154342318
 31
0.0
 11
33.80504855078553
 21
6.335286026228558
 31
0.0
 11
33.80596826313524
 21
6.339009769801151
 31
0.0
 11
33.80714012236038
 21
6.342790900320196
 31
0.0
 11
33.80859015977846
 21
6.346595696819974
 31
0.0
 11
33.81032187996022
 21
6.350374762067247
 31
0.0
 11
33.81229986450839
 21
6.354060828277326
 31
0.0
 11
33.8145149919627
 21
6.357629332557337
 31
0.0
 11
33.81695886640379
 21
6.361060939360285
 31
0.0
 11
33.81985121155933
 21
6.364561381403831
 31
0.0
 11
33.82339009115242
 21
6.368201546337161
 31
0.0
 11
33.82922788232325
 21
6.373093976003161
 31
0.0
 11
33.83643427959891
 21
6.377764009406078
 31
0.0
 11
33.8450030821496
 21
6.381884430499496
 31
0.0
  0
SPLINE
  5
36B
330
2
100
AcDbEntity
  8
GAIKEI
  6
Continuous
 62
     1
100
AcDbSpline
210
0.0
220
0.0
230
1.0
 70
     8
 71
     3
 72
     9
 73
     5
 74
     3
 42
0.0000000001
 43
0.0000000001
 44
0.000001
 12
-0.7062048502932383
 22
0.7080075631109495
 32
0.0
 13
-0.665021799524069
 23
0.7468239458920484
 33
0.0
 40
0.0
 40
0.0
 40
0.0
 40
0.0
 40
0.0000621496708928
 40
0.00012643493991
 40
0.00012643493991
 40
0.00012643493991
 40
0.00012643493991
 10
33.53922389829536
 20
7.466211687724893
 30
0.0
 10
33.53920926816235
 20
7.4662263552039
 30
0.0
 10
33.53917991903643
 20
7.466256609754395
 30
0.0
 10
33.5391514371544
 20
7.466287682884868
 30
0.0
 10
33.53913718678598
 20
7.466303686144286
 30
0.0
 11
33.53922389829536
 21
7.466211687724893
 31
0.0
 11
33.53918062415896
 21
7.466256296295341
 31
0.0
 11
33.53913718678598
 21
7.466303686144286
 31
0.0
  0
SPLINE
  5
36C
330
2
100
AcDbEntity
  8
GAIKEI
  6
Continuous
 62
     1
100
AcDbSpline
210
0.0
220
0.0
230
1.0
 70
     8
 71
     3
 72
    60
 73
    56
 74
    54
 42
0.0000000001
 43
0.0000000001
 44
0.000001
 12
0.6945902575381521
 22
0.7194055699903107
 32
0.0
 13
-0.692224956111833
 23
0.7216817928533121
 33
0.0
 40
0.0
 40
0.0
 40
0.0
 40
0.0
 40
0.0013757793057736
 40
0.004781402541791
 40
0.008660922668445
 40
0.0133607337677931
 40
0.0190741807232428
 40
0.0252448952296194
 40
0.0315863351426383
 40
0.0381760958269494
 40
0.04508176635367
 40
0.0523385736556477
 40
0.0599613847320452
 40
0.0679526792803769
 40
0.0763069078821511
 40
0.0850129613270864
 40
0.0940556583156879
 40
0.1034166981744496
 40
0.1130753069000598
 40
0.123008699357614
 40
0.1331924270025733
 40
0.1436006520377767
 40
0.1542063730563277
 40
0.1649816180195192
 40
0.1758976148890901
 40
0.1869249468072552
 40
0.1980336965518243
 40
0.2091935835889258
 40
0.2203740961419054
 40
0.2315446201135885
 40
0.2426742741833596
 40
0.2537325504163108
 40
0.2646892845574086
 40
0.275514716354699
 40
0.2861796229596579
 40
0.2966554580516975
 40
0.3069144994270194
 40
0.3169300088651355
 40
0.3266764097092264
 40
0.3361294900871119
 40
0.3452666436030294
 40
0.3540671655738039
 40
0.3625126331545943
 40
0.3705874151408757
 40
0.3782793879432846
 40
0.3855809905784064
 40
0.3924908597698731
 40
0.3990165049005638
 40
0.4051789467979366
 40
0.4110212641166095
 40
0.4166251163625185
 40
0.4221412118828222
 40
0.4269898475978281
 40
0.4308914119772119
 40
0.4338612010710402
 40
0.4338612010710402
 40
0.4338612010710402
 40
0.4338612010710402
 10
33.55248455429492
 20
7.027550171027755
 30
0.0
 10
33.55280308859569
 20
7.027880085459642
 30
0.0
 10
33.55388733805734
 20
7.029048990244945
 30
0.0
 10
33.55567226325762
 20
7.031325772016828
 30
0.0
 10
33.55781650647531
 20
7.034703197847278
 30
0.0
 10
33.55999039235405
 20
7.03894956494858
 30
0.0
 10
33.56210569237651
 20
7.044062258338044
 30
0.0
 10
33.56406672356113
 20
7.049815447773113
 30
0.0
 10
33.56583329013924
 20
7.055934608520928
 30
0.0
 10
33.56743584404723
 20
7.062350930296261
 30
0.0
 10
33.56891638445522
 20
7.06910885721632
 30
0.0
 10
33.57029883837704
 20
7.076238418213435
 30
0.0
 10
33.57159578944774
 20
7.08375139598074
 30
0.0
 10
33.57281372980971
 20
7.091647840554173
 30
0.0
 10
33.57395578202579
 20
7.099920215871662
 30
0.0
 10
33.57502312563054
 20
7.108555762261943
 30
0.0
 10
33.57601579311813
 20
7.11753790202836
 30
0.0
 10
33.57693313896581
 20
7.126847129972858
 30
0.0
 10
33.57777412976677
 20
7.136461613019065
 30
0.0
 10
33.57853753104578
 20
7.146357617970295
 30
0.0
 10
33.57922203178161
 20
7.15650983351999
 30
0.0
 10
33.57982632984946
 20
7.166891625008901
 30
0.0
 10
33.58034919208856
 20
7.177475245224556
 30
0.0
 10
33.58078949733589
 20
7.188232015842345
 30
0.0
 10
33.58114626765165
 20
7.19913248892422
 30
0.0
 10
33.58141869109058
 20
7.210146594719944
 30
0.0
 10
33.58160613819027
 20
7.22124378000602
 30
0.0
 10
33.5817081736099
 20
7.232393139919579
 30
0.0
 10
33.58172456384591
 20
7.24356354540869
 30
0.0
 10
33.58165528221261
 20
7.25472367050709
 30
0.0
 10
33.58150051329497
 20
7.265842189351673
 30
0.0
 10
33.58126065206477
 20
7.276887920338495
 30
0.0
 10
33.58093629572102
 20
7.287830044966938
 30
0.0
 10
33.58052823582065
 20
7.298638157019325
 30
0.0
 10
33.58003744753864
 20
7.309282367114676
 30
0.0
 10
33.57946507411043
 20
7.319733435013105
 30
0.0
 10
33.57881240554785
 20
7.329962908844905
 30
0.0
 10
33.57808084976139
 20
7.339943274484099
 30
0.0
 10
33.57727189324433
 20
7.349648119680182
 30
0.0
 10
33.5763870469397
 20
7.359052319704957
 30
0.0
 10
33.57542777041381
 20
7.36813225462032
 30
0.0
 10
33.57439536332246
 20
7.376866073664089
 30
0.0
 10
33.57329080595523
 20
7.385234031043822
 30
0.0
 10
33.57211451803099
 20
7.39321893266684
 30
0.0
 10
33.57086598064788
 20
7.400806759164467
 30
0.0
 10
33.56954312204992
 20
7.407987581606164
 30
0.0
 10
33.56814126645969
 20
7.414756971188083
 30
0.0
 10
33.56665126169222
 20
7.421118318460173
 30
0.0
 10
33.5650558418555
 20
7.427086756256727
 30
0.0
 10
33.56332237479413
 20
7.432696411297598
 30
0.0
 10
33.5613864424837
 20
7.438011775963616
 30
0.0
 10
33.55923229647272
 20
7.442885622392168
 30
0.0
 10
33.55691991264476
 20
7.447049803515312
 30
0.0
 10
33.55467400257436
 20
7.450256469560088
 30
0.0
 10
33.55315702838313
 20
7.451977724001167
 30
0.0
 10
33.55247177434141
 20
7.452692138240379
 30
0.0
 11
33.55248455429492
 21
7.027550171027755
 31
0.0
 11
33.55341812155066
 21
7.028560720279685
 31
0.0
 11
33.55553056514664
 21
7.031231969822556
 31
0.0
 11
33.55762191550474
 21
7.034499475844782
 31
0.0
 11
33.55978333880408
 21
7.038672732863318
 31
0.0
 11
33.56199171937642
 21
7.043942083717965
 31
0.0
 11
33.56400149064126
 21
7.049776301046648
 31
0.0
 11
33.56577308155495
 21
7.055865220001848
 31
0.0
 11
33.56737904849359
 21
7.062256264599454
 31
0.0
 11
33.56886387983198
 21
7.069000388374746
 31
0.0
 11
33.57025080906742
 21
7.076123401969184
 31
0.0
 11
33.5715520420759
 21
7.083634305846274
 31
0.0
 11
33.57277393721796
 21
7.091531608213017
 31
0.0
 11
33.57391958322393
 21
7.09980688704131
 31
0.0
 11
33.57499016491809
 21
7.108446841510058
 31
0.0
 11
33.57598573370645
 21
7.117434543372894
 31
0.0
 11
33.57690566639325
 21
7.126750247569361
 31
0.0
 11
33.57774895116114
 21
7.136371948402171
 31
0.0
 11
33.57851437286587
 21
7.146275782458602
 31
0.0
 11
33.57920063713442
 21
7.156436335809928
 31
0.0
 11
33.57980645584817
 21
7.166826889594943
 31
0.0
 11
33.58033060742204
 21
7.177419624950232
 31
0.0
 11
33.58077198009541
 21
7.188185800583511
 31
0.0
 11
33.58112960340629
 21
7.199095911657764
 31
0.0
 11
33.58140267117489
 21
7.210119835773639
 31
0.0
 11
33.58159055816543
 21
7.221226970011258
 31
0.0
 11
33.58169283185362
 21
7.232386361802781
 31
0.0
 11
33.58170926022918
 21
7.243566835638745
 31
0.0
 11
33.58163981621598
 21
7.254737117115311
 31
0.0
 11
33.58148468424185
 21
7.265865663406913
 31
0.0
 11
33.58124425694473
 21
7.276921299233421
 31
0.0
 11
33.58091912744529
 21
7.287873182130283
 31
0.0
 11
33.58051008202688
 21
7.298690857144663
 31
0.0
 11
33.58001808889838
 21
7.30934438366664
 31
0.0
 11
33.57944428240504
 21
7.319804466605305
 31
0.0
 11
33.57878994145384
 21
7.330042594069468
 31
0.0
 11
33.57805646028388
 21
7.340031184561937
 31
0.0
 11
33.57724530874367
 21
7.34974374797153
 31
0.0
 11
33.57635797771941
 21
7.359155066587987
 31
0.0
 11
33.57539590291025
 21
7.368241405378086
 31
0.0
 11
33.57436035608746
 21
7.376980765522887
 31
0.0
 11
33.57325228603043
 21
7.385353202935959
 31
0.0
 11
33.57207207903822
 21
7.393341246357763
 31
0.0
 11
33.57081918630141
 21
7.400930471792264
 31
0.0
 11
33.56949152193094
 21
7.40811032959246
 31
0.0
 11
33.56808444747958
 21
7.4148753936702
 31
0.0
 11
33.56658897025003
 21
7.421227342492244
 31
0.0
 11
33.56498835137847
 21
7.427178255595023
 31
0.0
 11
33.56325126436156
 21
7.432756323493563
 31
0.0
 11
33.56131694362969
 21
7.43801571193947
 31
0.0
 11
33.55906163111511
 21
7.443049636744234
 31
0.0
 11
33.55668624828232
 21
7.447276498608218
 31
0.0
 11
33.55443014826804
 21
7.450459552858006
 31
0.0
 11
33.55247177434141
 21
7.452692138240379
 31
0.0
  0
SPLINE
  5
36D
330
2
100
AcDbEntity
  8
GAIKEI
  6
Continuous
 62
     1
100
AcDbSpline
210
0.0
220
0.0
230
1.0
 70
     8
 71
     3
 72
     9
 73
     5
 74
     3
 42
0.0000000001
 43
0.0000000001
 44
0.000001
 12
0.9966057535504896
 22
0.082322366280742
 32
0.0
 13
0.6568525705650793
 23
0.7540190319494911
 33
0.0
 40
0.0
 40
0.0
 40
0.0
 40
0.0
 40
0.0024308106193433
 40
0.0052522874028952
 40
0.0052522874028952
 40
0.0052522874028952
 40
0.0052522874028952
 10
33.53462347294208
 20
7.011672263486829
 30
0.0
 10
33.53543099289175
 20
7.011738966847545
 30
0.0
 10
33.53717440382361
 20
7.012168365440047
 30
0.0
 10
33.53859460870966
 20
7.01329659213782
 30
0.0
 10
33.53921237346901
 20
7.014005741202154
 30
0.0
 11
33.53462347294208
 21
7.011672263486829
 31
0.0
 11
33.53697590234651
 21
7.012285195248225
 31
0.0
 11
33.53921237346901
 21
7.014005741202154
 31
0.0
  0
SPLINE
  5
36E
330
2
100
AcDbEntity
  8
GAIKEI
  6
Continuous
 62
     1
100
AcDbSpline
210
0.0
220
0.0
230
1.0
 70
     8
 71
     3
 72
    16
 73
    12
 74
    10
 42
0.0000000001
 43
0.0000000001
 44
0.000001
 12
-0.9890938141075173
 22
0.1472868863621075
 32
0.0
 13
-0.7868271200235438
 23
0.6171734628088413
 33
0.0
 40
0.0
 40
0.0
 40
0.0
 40
0.0
 40
0.0030710371916233
 40
0.0079077202268216
 40
0.0121258837363133
 40
0.0170925369201788
 40
0.0227794922712224
 40
0.0324165324563172
 40
0.0433535110506471
 40
0.0553068352388017
 40
0.0681596882176576
 40
0.0681596882176576
 40
0.0681596882176576
 40
0.0681596882176576
 10
33.52401726123569
 20
24.22991649618915
 30
0.0
 10
33.52300474660598
 20
24.2300672706911
 30
0.0
 10
33.52040803609306
 20
24.23062729952793
 30
0.0
 10
33.51679069344813
 20
24.23249911359594
 30
0.0
 10
33.51270634118061
 20
24.23475615678162
 30
0.0
 10
33.50848384916692
 20
24.23736099409389
 30
0.0
 10
33.50282003953099
 20
24.24105669122746
 30
0.0
 10
33.49562338880659
 20
24.24604329753957
 30
0.0
 10
33.48684884570565
 20
24.25241309174533
 30
0.0
 10
33.47732960488838
 20
24.25957886093643
 30
0.0
 10
33.47078612255115
 20
24.26463444583358
 30
0.0
 10
33.46741513145334
 20
24.26727859242689
 30
0.0
 11
33.52401726123569
 21
24.22991649618915
 31
0.0
 11
33.52102373758592
 21
24.23060289508376
 31
0.0
 11
33.51662453290717
 21
24.2326126339099
 31
0.0
 11
33.51293887641697
 21
24.23466411896736
 31
0.0
 11
33.50869971530907
 21
24.23725197039768
 31
0.0
 11
33.50393365500483
 21
24.24035454752998
 31
0.0
 11
33.49599925202199
 21
24.24582424006522
 31
0.0
 11
33.48714125964793
 21
24.252239320516
 31
0.0
 11
33.47758409760746
 21
24.25941862306391
 31
0.0
 11
33.46741513145334
 21
24.26727859242689
 31
0.0
  0
SPLINE
  5
36F
330
2
100
AcDbEntity
  8
GAIKEI
  6
Continuous
 62
     1
100
AcDbSpline
210
0.0
220
0.0
230
1.0
 70
     8
 71
     3
 72
    13
 73
     9
 74
     7
 42
0.0000000001
 43
0.0000000001
 44
0.000001
 12
-0.7870888971178047
 22
0.6168395804695722
 32
0.0
 13
-0.5665418404738877
 23
0.8240329744570054
 33
0.0
 40
0.0
 40
0.0
 40
0.0
 40
0.0
 40
0.0160011888877799
 40
0.033014713882785
 40
0.0506047057126622
 40
0.0685176828224359
 40
0.0867522319436647
 40
0.1052046749905917
 40
0.1052046749905917
 40
0.1052046749905917
 40
0.1052046749905917
 10
33.46741513145334
 20
24.26727859242689
 30
0.0
 10
33.46321701208192
 20
24.27056864797375
 30
0.0
 10
33.45469574896447
 20
24.27753877123824
 30
0.0
 10
33.44212094639704
 20
24.28878999318732
 30
0.0
 10
33.42959747367655
 20
24.30103018639277
 30
0.0
 10
33.41738587992939
 20
24.31414358073985
 30
0.0
 10
33.4056466658152
 20
24.32806472567317
 30
0.0
 10
33.39840517075943
 20
24.33793268707285
 30
0.0
 10
33.39492047707775
 20
24.34300116091618
 30
0.0
 11
33.46741513145334
 21
24.26727859242689
 31
0.0
 11
33.45503242172012
 21
24.27741257932145
 31
0.0
 11
33.44234887035178
 21
24.28875220221041
 31
0.0
 11
33.42977314869013
 21
24.30105088977885
 31
0.0
 11
33.41756850345641
 21
24.3141626803627
 31
0.0
 11
33.40585418924521
 21
24.32813614371875
 31
0.0
 11
33.39492047707775
 21
24.34300116091618
 31
0.0
  0
SPLINE
  5
370
330
2
100
AcDbEntity
  8
GAIKEI
  6
Continuous
 62
     1
100
AcDbSpline
210
0.0
220
0.0
230
1.0
 70
     8
 71
     3
 72
    23
 73
    19
 74
    17
 42
0.0000000001
 43
0.0000000001
 44
0.000001
 12
0.687908866031616
 22
-0.7257970735922653
 32
0.0
 13
0.9848252472457861
 23
-0.1735489336967418
 33
0.0
 40
0.0
 40
0.0
 40
0.0
 40
0.0
 40
0.014852037636616
 40
0.0294909423427422
 40
0.0439090213768042
 40
0.0580959165233379
 40
0.0720371825069873
 40
0.0857131001075731
 40
0.0989753875371454
 40
0.1116331888276365
 40
0.1236398016583156
 40
0.1349307160703377
 40
0.145331565105799
 40
0.1545329327184609
 40
0.1624254765070828
 40
0.1687817589871186
 40
0.17338957552747
 40
0.1762908917081454
 40
0.1762908917081454
 40
0.1762908917081454
 40
0.1762908917081454
 10
33.37058596453585
 20
7.599402433468284
 30
0.0
 10
33.37399158065881
 20
7.595809244983769
 30
0.0
 10
33.38077159087311
 20
7.588691133332687
 30
0.0
 10
33.3909210035922
 20
7.578145339018263
 30
0.0
 10
33.40097282159786
 20
7.567813610272722
 30
0.0
 10
33.41092214673508
 20
7.557706936798382
 30
0.0
 10
33.42076196273001
 20
7.547839986156972
 30
0.0
 10
33.43045394215418
 20
7.538261343107109
 30
0.0
 10
33.43991827613962
 20
7.529061555972234
 30
0.0
 10
33.44906809527474
 20
7.520337343811533
 30
0.0
 10
33.4578362543034
 20
7.51216591690796
 30
0.0
 10
33.46616119379793
 20
7.504624449252162
 30
0.0
 10
33.47391527168964
 20
7.49784552180975
 30
0.0
 10
33.48096243609946
 20
7.491989116461226
 30
0.0
 10
33.48712953898556
 20
7.487168990456552
 30
0.0
 10
33.49230829656807
 20
7.483633267416109
 30
0.0
 10
33.49627893532109
 20
7.481181476017752
 30
0.0
 10
33.49873031888369
 20
7.480560189361369
 30
0.0
 10
33.49968274869201
 20
7.480392349251545
 30
0.0
 11
33.37058596453585
 21
7.599402433468284
 31
0.0
 11
33.38083030474282
 21
7.588649523654837
 31
0.0
 11
33.39098202327243
 21
7.578102482203235
 31
0.0
 11
33.4010371497544
 21
7.567769264866228
 31
0.0
 11
33.41099094488301
 21
7.557660362961499
 31
0.0
 11
33.42083683022373
 21
7.54779033905352
 31
0.0
 11
33.4305658392349
 21
7.538179042217819
 31
0.0
 11
33.44007826580592
 21
7.528937726564493
 31
0.0
 11
33.44924254880945
 21
7.520206418538606
 31
0.0
 11
33.45803084229954
 21
7.512025678033154
 31
0.0
 11
33.46640468712678
 21
7.504451821402099
 31
0.0
 11
33.4742460162351
 21
7.49761873960314
 31
0.0
 11
33.48133132144722
 21
7.491748190379922
 31
0.0
 11
33.48758481547199
 21
7.486933036920532
 31
0.0
 11
33.49283200670931
 21
7.483345726041036
 31
0.0
 11
33.49688112446584
 21
7.481146745185952
 31
0.0
 11
33.49968274869201
 21
7.480392349251545
 31
0.0
  0
SPLINE
  5
371
330
2
100
AcDbEntity
  8
GAIKEI
  6
Continuous
 62
     1
100
AcDbSpline
210
0.0
220
0.0
230
1.0
 70
     8
 71
     3
 72
    23
 73
    19
 74
    17
 42
0.0000000001
 43
0.0000000001
 44
0.000001
 12
-0.9849129756087034
 22
-0.1730503697702195
 32
0.0
 13
-0.6878333403784377
 23
-0.7258686491809936
 33
0.0
 40
0.0
 40
0.0
 40
0.0
 40
0.0
 40
0.0028916651160448
 40
0.0074806325859378
 40
0.0114979195406012
 40
0.0162377465411584
 40
0.0216697825975324
 40
0.0957228023314858
 40
0.1060809745761269
 40
0.1173295951966105
 40
0.1292915579421068
 40
0.1419024379448182
 40
0.1551160115939664
 40
0.1687941375732345
 40
0.1828198791993711
 40
0.2018603007987077
 40
0.2213198906030617
 40
0.2411825403250832
 40
0.2411825403250832
 40
0.2411825403250832
 40
0.2411825403250832
 10
33.55289061613947
 20
23.82369426725668
 30
0.0
 10
33.55194126997484
 20
23.8235274660175
 30
0.0
 10
33.5494986625402
 20
23.82291081917026
 30
0.0
 10
33.54620624132618
 20
23.82087274498969
 30
0.0
 10
33.54250099969205
 20
23.81842836284578
 30
0.0
 10
33.53868577825084
 20
23.8156238306162
 30
0.0
 10
33.51674869340982
 20
23.79810614607584
 30
0.0
 10
33.49020291781466
 20
23.78350736468357
 30
0.0
 10
33.46629726752894
 20
23.76237340889453
 30
0.0
 10
33.45799141059975
 20
23.75487796939478
 30
0.0
 10
33.44925708211247
 20
23.74673478514186
 30
0.0
 10
33.44013814080476
 20
23.7380462387796
 30
0.0
 10
33.4306943619814
 20
23.72886989857024
 30
0.0
 10
33.42099138476013
 20
23.71928440042546
 30
0.0
 10
33.40998713858747
 20
23.70825301873714
 30
0.0
 10
33.39771645086651
 20
23.69576350578474
 30
0.0
 10
33.38418909048963
 20
23.68178197278779
 30
0.0
 10
33.37514002877191
 20
23.67229925180354
 30
0.0
 10
33.37058596453622
 20
23.66749336022925
 30
0.0
 11
33.55289061613947
 21
23.82369426725668
 31
0.0
 11
33.5500979671202
 21
23.82294375759681
 31
0.0
 11
33.54606418053284
 21
23.82075602595202
 31
0.0
 11
33.54271804146402
 21
23.81853303252399
 31
0.0
 11
33.53889085825831
 21
23.81573688775146
 31
0.0
 11
33.5346089800709
 21
23.81239438023837
 31
0.0
 11
33.47434361530059
 21
23.76936014241096
 31
0.0
 11
33.466532380481
 21
23.76255747142609
 31
0.0
 11
33.45818783208836
 21
23.75501426752524
 31
0.0
 11
33.44943017585061
 21
23.74686614313109
 31
0.0
 11
33.44029782243032
 21
23.73816934359749
 31
0.0
 11
33.43081827813123
 21
23.72896409141173
 31
0.0
 11
33.42108576193977
 21
23.71935320401394
 31
0.0
 11
33.4111786985447
 21
23.70942488985563
 31
0.0
 11
33.39783194863753
 21
23.69584542944133
 31
0.0
 11
33.38429878434916
 21
23.68186226465358
 31
0.0
 11
33.37058596453622
 21
23.66749336022925
 31
0.0
  0
SPLINE
  5
372
330
2
100
AcDbEntity
  8
GAIKEI
  6
Continuous
 62
     1
100
AcDbSpline
210
0.0
220
0.0
230
1.0
 70
     8
 71
     3
 72
    23
 73
    19
 74
    17
 42
0.0000000001
 43
0.0000000001
 44
0.000001
 12
-0.9849129756083158
 22
-0.1730503697724244
 32
0.0
 13
-0.6878333409424955
 23
-0.7258686486464923
 33
0.0
 40
0.0
 40
0.0
 40
0.0
 40
0.0
 40
0.002891639669335
 40
0.00748061560689
 40
0.0114979015101556
 40
0.0162377265258528
 40
0.0216697600812601
 40
0.0308324034660155
 40
0.0411905853844885
 40
0.0524392110510292
 40
0.0644011760974945
 40
0.0770120567927734
 40
0.0902256301875929
 40
0.1039037553610848
 40
0.1179294958654682
 40
0.136969916122147
 40
0.1564295030281778
 40
0.1762920842784196
 40
0.1762920842784196
 40
0.1762920842784196
 40
0.1762920842784196
 10
33.49968274869424
 20
6.999836779454156
 30
0.0
 10
33.49873341088387
 20
6.999669979682821
 30
0.0
 10
33.49629074372328
 20
6.999053415006173
 30
0.0
 10
33.49299875530113
 20
6.997014796832218
 30
0.0
 10
33.48929191071368
 20
6.994572472809466
 30
0.0
 10
33.48548385189511
 20
6.99175873080135
 30
0.0
 10
33.48040898215564
 20
6.987787613726027
 30
0.0
 10
33.47401473138629
 20
6.982464898185682
 30
0.0
 10
33.46628852420059
 20
6.975718935592652
 30
0.0
 10
33.45799390532709
 20
6.968207658889056
 30
0.0
 10
33.4492562570792
 20
6.960069145334514
 30
0.0
 10
33.44013827852179
 20
6.951379241557049
 30
0.0
 10
33.43069422354674
 20
6.942203290591862
 30
0.0
 10
33.42099132546112
 20
6.932617682494196
 30
0.0
 10
33.40998705675486
 20
6.92158633438126
 30
0.0
 10
33.39771638258486
 20
6.909096807124853
 30
0.0
 10
33.38418902479173
 20
6.895115306319112
 30
0.0
 10
33.37514001307667
 20
6.885632570240986
 30
0.0
 10
33.3705859645363
 20
6.880826695237402
 30
0.0
 11
33.49968274869424
 21
6.999836779454156
 31
0.0
 11
33.496890099675
 21
6.999086269794318
 31
0.0
 11
33.49285631308769
 21
6.996898538149508
 31
0.0
 11
33.48951017400597
 21
6.994675544707945
 31
0.0
 11
33.48568299081248
 21
6.991879399951812
 31
0.0
 11
33.48140111262572
 21
6.98853689243586
 31
0.0
 11
33.474343615301
 21
6.982693477419161
 31
0.0
 11
33.46653238048137
 21
6.975890806434264
 31
0.0
 11
33.45818783208873
 21
6.968347602533413
 31
0.0
 11
33.44943017585092
 21
6.960199478139259
 31
0.0
 11
33.44029782243062
 21
6.951502678605692
 31
0.0
 11
33.43081827813153
 21
6.942297426419884
 31
0.0
 11
33.42108576193999
 21
6.932686539022142
 31
0.0
 11
33.41117869854489
 21
6.922758224863798
 31
0.0
 11
33.39783194832327
 21
6.909178764128228
 31
0.0
 11
33.38429878444174
 21
6.895195599747282
 31
0.0
 11
33.3705859645363
 21
6.880826695237402
 31
0.0
  0
SPLINE
  5
373
330
2
100
AcDbEntity
  8
GAIKEI
  6
Continuous
 62
     1
100
AcDbSpline
210
0.0
220
0.0
230
1.0
 70
     8
 71
     3
 72
    15
 73
    11
 74
     9
 42
0.0000000001
 43
0.0000000001
 44
0.000001
 12
0.0885942834982514
 22
-0.9960677953490073
 32
0.0
 13
-0.2180063119608516
 23
-0.9759473592080814
 33
0.0
 40
0.0
 40
0.0
 40
0.0
 40
0.0
 40
0.0048255640085391
 40
0.0229670284830857
 40
0.0424035984843175
 40
0.0617957075082423
 40
0.0820706656913819
 40
0.102307365830746
 40
0.1235614426720412
 40
0.1447560748395795
 40
0.1447560748395795
 40
0.1447560748395795
 40
0.1447560748395795
 10
33.39669201493027
 20
24.76914187029013
 30
0.0
 10
33.39683452072554
 20
24.76753967398902
 30
0.0
 10
33.39746640972601
 20
24.75990998112854
 30
0.0
 10
33.39819687298167
 20
24.74578849188275
 30
0.0
 10
33.39830194178686
 20
24.72679227544691
 30
0.0
 10
33.39753902760518
 20
24.70709981880576
 30
0.0
 10
33.39592053260658
 20
24.68719169723701
 30
0.0
 10
33.39341782906728
 20
24.66675031962163
 30
0.0
 10
33.39005348273507
 20
24.64612249359401
 30
0.0
 10
33.38723754328491
 20
24.63225175671349
 30
0.0
 10
33.38569735542085
 20
24.62535680828239
 30
0.0
 11
33.39669201493027
 21
24.76914187029013
 31
0.0
 11
33.39708926770998
 21
24.76433193366731
 31
0.0
 11
33.39803904643712
 21
24.746215549938
 31
0.0
 11
33.39815764859438
 21
24.72677940792235
 31
0.0
 11
33.39741578732958
 21
24.70740153423009
 31
0.0
 11
33.39578161182871
 21
24.68719258244735
 31
0.0
 11
33.39332833127301
 21
24.66710518916116
 31
0.0
 11
33.38991452987553
 21
24.64612717468509
 31
0.0
 11
33.38569735542085
 21
24.62535680828239
 31
0.0
  0
SPLINE
  5
374
330
2
100
AcDbEntity
  8
GAIKEI
  6
Continuous
 62
     1
100
AcDbSpline
210
0.0
220
0.0
230
1.0
 70
     8
 71
     3
 72
    10
 73
     6
 74
     4
 42
0.0000000001
 43
0.0000000001
 44
0.000001
 12
-0.5156837050458629
 22
0.8567790358955871
 32
0.0
 13
-0.472129485263637
 23
0.8815292106020613
 33
0.0
 40
0.0
 40
0.0
 40
0.0
 40
0.0
 40
0.0243979505845715
 40
0.0488317355790621
 40
0.049471974577029
 40
0.049471974577029
 40
0.049471974577029
 40
0.049471974577029
 10
33.39492047707775
 20
7.556334495924389
 30
0.0
 10
33.39072660189342
 20
7.563302380117619
 30
0.0
 10
33.38250654416729
 20
7.577355026472417
 30
0.0
 10
33.37463479641433
 20
7.591847563638253
 30
0.0
 10
33.37068672310582
 20
7.599214303675466
 30
0.0
 10
33.3705859645363
 20
7.599402433468284
 30
0.0
 11
33.39492047707775
 21
7.556334495924389
 31
0.0
 11
33.38262407375435
 21
7.577407236146157
 31
0.0
 11
33.37088837013089
 21
7.598838115549682
 31
0.0
 11
33.3705859645363
 21
7.599402433468284
 31
0.0
  0
SPLINE
  5
375
330
2
100
AcDbEntity
  8
GAIKEI
  6
Continuous
 62
     1
100
AcDbSpline
210
0.0
220
0.0
230
1.0
 70
     8
 71
     3
 72
    10
 73
     6
 74
     4
 42
0.0000000001
 43
0.0000000001
 44
0.000001
 12
-0.5156837050499993
 22
0.8567790358930974
 32
0.0
 13
-0.4721294856324284
 23
0.8815292104045438
 33
0.0
 40
0.0
 40
0.0
 40
0.0
 40
0.0
 40
0.0243979505840641
 40
0.0488317355781164
 40
0.0494719745770636
 40
0.0494719745770636
 40
0.0494719745770636
 40
0.0494719745770636
 10
33.39492047707775
 20
24.34300116091618
 30
0.0
 10
33.39072660189348
 20
24.34996904510923
 30
0.0
 10
33.38250654416591
 20
24.36402169146281
 30
0.0
 10
33.3746347964178
 20
24.37851422863163
 30
0.0
 10
33.37068672310609
 20
24.38588096866705
 30
0.0
 10
33.37058596453633
 20
24.38606909846013
 30
0.0
 11
33.39492047707775
 21
24.34300116091618
 31
0.0
 11
33.38262407375457
 21
24.36407390113749
 31
0.0
 11
33.37088837013161
 21
24.38550478054076
 31
0.0
 11
33.37058596453633
 21
24.38606909846013
 31
0.0
  0
SPLINE
  5
376
330
2
100
AcDbEntity
  8
GAIKEI
  6
Continuous
 62
     1
100
AcDbSpline
210
0.0
220
0.0
230
1.0
 70
     8
 71
     3
 72
    29
 73
    25
 74
    23
 42
0.0000000001
 43
0.0000000001
 44
0.000001
 12
-0.9395991756015746
 22
-0.3422767728152782
 32
0.0
 13
-0.0004514849944173
 23
-0.9999998980806449
 33
0.0
 40
0.0
 40
0.0
 40
0.0
 40
0.0
 40
0.0383353211346517
 40
0.0767705540708182
 40
0.1152464065968475
 40
0.1537048850206555
 40
0.1902059392716766
 40
0.2268631008773304
 40
0.2636216339173001
 40
0.3004256629909327
 40
0.33722015473225
 40
0.373952897990641
 40
0.4103596938387377
 40
0.44692440200528
 40
0.4835879956593958
 40
0.5202901179239924
 40
0.5569711211426296
 40
0.5935741073630064
 40
0.6302246956092756
 40
0.6670177379221228
 40
0.7038905699022419
 40
0.7407786569092118
 40
0.7776177403006154
 40
0.814345510330823
 40
0.814345510330823
 40
0.814345510330823
 40
0.814345510330823
 10
33.16717053837204
 20
6.559840465541427
 30
0.0
 10
33.15516392632719
 20
6.555466702207155
 30
0.0
 10
33.1313648813462
 20
6.546015926426036
 30
0.0
 10
33.09651923283067
 20
6.529796198880902
 30
0.0
 10
33.06262194736707
 20
6.511588917331039
 30
0.0
 10
33.03037584971157
 20
6.491801351035732
 30
0.0
 10
32.99981521907654
 20
6.470547621099314
 30
0.0
 10
32.97092076779362
 20
6.447989537381232
 30
0.0
 10
32.9432222324546
 20
6.423824642913359
 30
0.0
 10
32.91684592869922
 20
6.398157169713599
 30
0.0
 10
32.89191756814242
 20
6.371092653188924
 30
0.0
 10
32.86860827488585
 20
6.342792044234045
 30
0.0
 10
32.8469749928156
 20
6.313285996673073
 30
0.0
 10
32.82700838806056
 20
6.282655962531592
 30
0.0
 10
32.8086864678173
 20
6.250901141400134
 30
0.0
 10
32.79209463908767
 20
6.218165504531242
 30
0.0
 10
32.77731845931848
 20
6.184593047590922
 30
0.0
 10
32.76442204594186
 20
6.15027200942012
 30
0.0
 10
32.75347310650969
 20
6.115241755012561
 30
0.0
 10
32.74445644595929
 20
6.079573167681644
 30
0.0
 10
32.73738661518154
 20
6.043387791714167
 30
0.0
 10
32.73229601116113
 20
6.006855673914714
 30
0.0
 10
32.72921138832679
 20
5.970148893982894
 30
0.0
 10
32.72852282797857
 20
5.945621307175656
 30
0.0
 10
32.72851730063289
 20
5.933378718413337
 30
0.0
 11
33.16717053837204
 21
6.559840465541427
 31
0.0
 11
33.13154142243619
 21
6.545691277847083
 31
0.0
 11
33.09669483724059
 21
6.529474543018523
 31
0.0
 11
33.06279976859526
 21
6.511266969375327
 31
0.0
 11
33.03002520231013
 21
6.491145265237122
 31
0.0
 11
33.00005612352985
 21
6.470308225962526
 31
0.0
 11
32.9711584477584
 21
6.447754450851178
 31
0.0
 11
32.94345868627106
 21
6.423590143152196
 31
0.0
 11
32.91708335034324
 21
6.397921506114514
 31
0.0
 11
32.89215895125011
 21
6.370854742987248
 31
0.0
 11
32.86881200026703
 21
6.342496057019374
 31
0.0
 11
32.84727918270562
 21
6.313139740241723
 31
0.0
 11
32.82730765856383
 21
6.28251104650333
 31
0.0
 11
32.80898333455025
 21
6.250755117559478
 31
0.0
 11
32.79239211737364
 21
6.218017095165535
 31
0.0
 11
32.77761991374263
 21
6.184442121076799
 31
0.0
 11
32.76475263036592
 21
6.150175337048608
 31
0.0
 11
32.75381123437954
 21
6.115196028362078
 31
0.0
 11
32.7447889448361
 21
6.079526343617061
 31
0.0
 11
32.73771708421275
 21
6.043338026531614
 31
0.0
 11
32.73262697498639
 21
6.006802820823793
 31
0.0
 11
32.72954993963411
 21
5.970092470211668
 31
0.0
 11
32.72851730063289
 21
5.933378718413337
 31
0.0
  0
SPLINE
  5
377
330
2
100
AcDbEntity
  8
GAIKEI
  6
Continuous
 62
     7
100
AcDbSpline
210
0.0
220
0.0
230
1.0
 70
     8
 71
     3
 72
    16
 73
    12
 74
    10
 42
0.0000000001
 43
0.0000000001
 44
0.000001
 12
-0.971670358673164
 22
0.2363402506471658
 32
0.0
 13
-0.860788780788326
 23
0.5089623511311491
 33
0.0
 40
0.0
 40
0.0
 40
0.0
 40
0.0
 40
0.0060221459588508
 40
0.0118461691105637
 40
0.0174915945827419
 40
0.0229780317576559
 40
0.0283243810805765
 40
0.0335530867401866
 40
0.0391974642236777
 40
0.0456034224675857
 40
0.0484049652155807
 40
0.0484049652155807
 40
0.0484049652155807
 40
0.0484049652155807
 10
32.25002565033833
 20
29.07143684925637
 30
0.0
 10
32.24807513676372
 20
29.07191127441816
 30
0.0
 10
32.24424846049483
 20
29.07288625364215
 30
0.0
 10
32.23862033969209
 20
29.07441084334845
 30
0.0
 10
32.23321118049653
 20
29.07605368331801
 30
0.0
 10
32.22801770609026
 20
29.07784625184176
 30
0.0
 10
32.22303432401746
 20
29.07980889808802
 30
0.0
 10
32.21810747210393
 20
29.08203948307633
 30
0.0
 10
32.21295296430559
 20
29.08461182317065
 30
0.0
 10
32.20860222890042
 20
29.08697664305771
 30
0.0
 10
32.20594624944104
 20
29.0885149483633
 30
0.0
 10
32.20514240391891
 20
29.08899024162457
 30
0.0
 11
32.25002565033833
 21
29.07143684925637
 31
0.0
 11
32.24418815696335
 21
29.07291645018691
 31
0.0
 11
32.23857076835429
 21
29.07445420590284
 31
0.0
 11
32.2331711981397
 21
29.07610217822591
 31
0.0
 11
32.22798689021963
 21
29.07789780049251
 31
0.0
 11
32.22301509630109
 21
29.07986375889165
 31
0.0
 11
32.21824712137948
 21
29.08200989832394
 31
0.0
 11
32.21319401864602
 21
29.08452488116757
 31
0.0
 11
32.20756599998234
 21
29.087584577335
 31
0.0
 11
32.20514240391891
 21
29.08899024162457
 31
0.0
  0
SPLINE
  5
378
330
2
100
AcDbEntity
  8
GAIKEI
  6
Continuous
 62
     1
100
AcDbSpline
210
0.0
220
0.0
230
1.0
 70
     8
 71
     3
 72
    19
 73
    15
 74
    13
 42
0.0000000001
 43
0.0000000001
 44
0.000001
 12
-0.9992074579578048
 22
0.0398052253039953
 32
0.0
 13
-0.8321206011986632
 23
-0.5545947214505159
 33
0.0
 40
0.0
 40
0.0
 40
0.0
 40
0.0
 40
0.0006026095040683
 40
0.0255861337942666
 40
0.0506740614982243
 40
0.0758095722483067
 40
0.1009218035932206
 40
0.1259301920765158
 40
0.1499731449700481
 40
0.1740681571676542
 40
0.1982101094370091
 40
0.2223640715118895
 40
0.2456678406574541
 40
0.2690275756657761
 40
0.2690275756657761
 40
0.2690275756657761
 40
0.2690275756657761
 10
32.76385803009464
 20
28.52910899156889
 30
0.0
 10
32.76365731945773
 20
28.52911698723792
 30
0.0
 10
32.75513502054451
 20
28.52944668747567
 30
0.0
 10
32.73822195052027
 20
28.5293841358747
 30
0.0
 10
32.71321526311863
 20
28.52730994718383
 30
0.0
 10
32.68839445639091
 20
28.52334562824291
 30
0.0
 10
32.66395855223772
 20
28.51757815336254
 30
0.0
 10
32.64035194775904
 20
28.51016462708182
 30
0.0
 10
32.61764546192529
 20
28.5012352133851
 30
0.0
 10
32.59577718101681
 20
28.4910934922724
 30
0.0
 10
32.57443081503945
 20
28.47982239786538
 30
0.0
 10
32.55382571973223
 20
28.46776569557733
 30
0.0
 10
32.53388396603498
 20
28.4551301132103
 30
0.0
 10
32.52085297683382
 20
28.44663592095077
 30
0.0
 10
32.5143736045875
 20
28.44231752570741
 30
0.0
 11
32.76385803009464
 21
28.52910899156889
 31
0.0
 11
32.76325578332018
 21
28.52913238844548
 31
0.0
 11
32.73827164020784
 21
28.52905641662395
 31
0.0
 11
32.71326832248568
 21
28.52699802369263
 31
0.0
 11
32.68844593089748
 21
28.52304305645949
 31
0.0
 11
32.66400456618695
 21
28.51727736173223
 31
0.0
 11
32.64014432909795
 21
28.50978678631873
 31
0.0
 11
32.61775540300636
 21
28.50102319514633
 31
0.0
 11
32.59588293304964
 21
28.49091548705393
 31
0.0
 11
32.57451915009493
 21
28.47967166258911
 31
0.0
 11
32.55365628500925
 21
28.46749972229965
 31
0.0
 11
32.53392603930425
 21
28.45509854391689
 31
0.0
 11
32.5143736045875
 21
28.44231752570741
 31
0.0
  0
SPLINE
  5
379
330
2
100
AcDbEntity
  8
GAIKEI
  6
Continuous
 62
     1
100
AcDbSpline
210
0.0
220
0.0
230
1.0
 70
     8
 71
     3
 72
    19
 73
    15
 74
    13
 42
0.0000000001
 43
0.0000000001
 44
0.000001
 12
0.8321206011986321
 22
-0.5545947214505627
 32
0.0
 13
0.999207457956537
 23
0.0398052253358201
 33
0.0
 40
0.0
 40
0.0
 40
0.0
 40
0.0
 40
0.0233598276475097
 40
0.0466637535014898
 40
0.0708176800718309
 40
0.0949595793351656
 40
0.1190545478028616
 40
0.1430974626804275
 40
0.1681058048795327
 40
0.1932179880989292
 40
0.2183534547586598
 40
0.2434413443518393
 40
0.2738531394083241
 40
0.2744556781652219
 40
0.2744556781652219
 40
0.2744556781652219
 40
0.2744556781652219
 10
32.5143736045875
 20
25.15504022027268
 30
0.0
 10
32.52085300252949
 20
25.15072180790358
 30
0.0
 10
32.53388276222771
 20
25.14222556173069
 30
0.0
 10
32.55382511235204
 20
25.12959085741787
 30
0.0
 10
32.57442985430652
 20
25.11753319796125
 30
0.0
 10
32.59577694171924
 20
25.10626466384798
 30
0.0
 10
32.61764238656879
 20
25.0961135218092
 30
0.0
 10
32.6403592722789
 20
25.08721952416394
 30
0.0
 10
32.66392528388283
 20
25.07966851422546
 30
0.0
 10
32.68851436203755
 20
25.0744205758266
 30
0.0
 10
32.71276287362979
 20
25.0685159156987
 30
0.0
 10
32.74185724207891
 20
25.07403235557646
 30
0.0
 10
32.75386331887967
 20
25.05131607722744
 30
0.0
 10
32.76423033101389
 20
25.05183253040109
 30
0.0
 10
32.76443101808709
 20
25.05184052513141
 30
0.0
 11
32.5143736045875
 21
25.15504022027268
 31
0.0
 11
32.53392603930425
 21
25.14225920206317
 31
0.0
 11
32.55365628500923
 21
25.12985802368044
 31
0.0
 11
32.57451915009493
 21
25.11768608339096
 31
0.0
 11
32.59588293304964
 21
25.10644225892621
 31
0.0
 11
32.61775540300636
 21
25.09633455083378
 31
0.0
 11
32.64014432909795
 21
25.08757095966138
 31
0.0
 11
32.66400456618697
 21
25.08008038424791
 31
0.0
 11
32.68844593089755
 21
25.07431468952061
 31
0.0
 11
32.71326832248582
 21
25.07035972228739
 31
0.0
 11
32.73827164020798
 21
25.06830132935615
 31
0.0
 11
32.76382877131263
 21
25.05181712825477
 31
0.0
 11
32.76443101808709
 21
25.05184052513141
 31
0.0
  0
SPLINE
  5
37A
330
2
100
AcDbEntity
  8
GAIKEI
  6
Continuous
 62
     7
100
AcDbSpline
210
0.0
220
0.0
230
1.0
 70
     8
 71
     3
 72
    11
 73
     7
 74
     5
 42
0.0000000001
 43
0.0000000001
 44
0.000001
 12
0.991479123950323
 22
0.1302656776388178
 32
0.0
 13
0.9795636654643455
 23
0.2011343464007471
 33
0.0
 40
0.0
 40
0.0
 40
0.0
 40
0.0
 40
0.0133498540287489
 40
0.0201274708368654
 40
0.027091651267408
 40
0.033252705028777
 40
0.033252705028777
 40
0.033252705028777
 40
0.033252705028777
 10
32.7192136626137
 20
24.63290785326257
 30
0.0
 10
32.7236256964728
 20
24.63348752918971
 30
0.0
 10
32.73026258216861
 20
24.63448325928306
 30
0.0
 10
32.73915252910193
 20
24.63607271308385
 30
0.0
 10
32.74566278740589
 20
24.63735039646248
 30
0.0
 10
32.74995226579965
 20
24.63821162514711
 30
0.0
 10
32.75196398060152
 20
24.63862469165426
 30
0.0
 11
32.7192136626137
 21
24.63290785326257
 31
0.0
 11
32.73241581189731
 21
24.63488887214908
 31
0.0
 11
32.73908808173953
 21
24.63607927429226
 31
0.0
 11
32.74592498989441
 21
24.63740638091744
 31
0.0
 11
32.75196398060152
 21
24.63862469165426
 31
0.0
  0
SPLINE
  5
37B
330
2
100
AcDbEntity
  8
GAIKEI
  6
Continuous
 62
     7
100
AcDbSpline
210
0.0
220
0.0
230
1.0
 70
     8
 71
     3
 72
    11
 73
     7
 74
     5
 42
0.0000000001
 43
0.0000000001
 44
0.000001
 12
0.9999972872251811
 22
-0.0023292793475527
 32
0.0
 13
0.9975943841515709
 23
0.0693213149705644
 33
0.0
 40
0.0
 40
0.0
 40
0.0
 40
0.0
 40
0.0058529502932841
 40
0.0117056200744804
 40
0.0234150129732366
 40
0.0332528414291729
 40
0.0332528414291729
 40
0.0332528414291729
 40
0.0332528414291729
 10
32.68598019474703
 20
24.63201220653956
 30
0.0
 10
32.68793117288554
 20
24.63200766215414
 30
0.0
 10
32.69183306246167
 20
24.63201351075648
 30
0.0
 10
32.69963799801298
 20
24.63205072253418
 30
0.0
 10
32.70877004182812
 20
24.63227880852645
 30
0.0
 10
32.71594227514041
 20
24.63268052952756
 30
0.0
 10
32.7192136626137
 20
24.63290785326257
 30
0.0
 11
32.68598019474703
 21
24.63201220653956
 31
0.0
 11
32.69183291307552
 21
24.63201572648778
 31
0.0
 11
32.69768563140397
 21
24.63205355305885
 31
0.0
 11
32.70939106806095
 21
24.63235905326101
 31
0.0
 11
32.7192136626137
 21
24.63290785326257
 31
0.0
  0
SPLINE
  5
37C
330
2
100
AcDbEntity
  8
GAIKEI
  6
Continuous
 62
     1
100
AcDbSpline
210
0.0
220
0.0
230
1.0
 70
     8
 71
     3
 72
    27
 73
    23
 74
    21
 42
0.0000000001
 43
0.0000000001
 44
0.000001
 12
-0.0003660855578095
 22
-0.9999999329906799
 32
0.0
 13
0.9993581724341888
 23
0.0358223839100428
 33
0.0
 40
0.0
 40
0.0
 40
0.0
 40
0.0
 40
0.0092533747411641
 40
0.0190190708246507
 40
0.0240985957968405
 40
0.0293100902269591
 40
0.0346552368323823
 40
0.0401359022252669
 40
0.0478805701848545
 40
0.0570674979754399
 40
0.0677122112723355
 40
0.0798340965701413
 40
0.0885521815017784
 40
0.0964426179183131
 40
0.1034976093822275
 40
0.1097100952281014
 40
0.1150738753741664
 40
0.1195836779486562
 40
0.1304434383937732
 40
0.140722192851225
 40
0.1504043697927705
 40
0.1594759221099113
 40
0.1594759221099113
 40
0.1594759221099113
 40
0.1594759221099113
 10
32.32595244793794
 20
25.13672908658339
 30
0.0
 10
32.32595131876232
 20
25.13364462854303
 30
0.0
 10
32.32625715410404
 20
25.12730101224554
 30
0.0
 10
32.32744450154387
 20
25.11934115910725
 30
0.0
 10
32.32895041222541
 20
25.11282451796316
 30
0.0
 10
32.3304013163943
 20
25.10781558827801
 30
0.0
 10
32.33217706525241
 20
25.10277026669129
 30
0.0
 10
32.33456776781883
 20
25.09705673539806
 30
0.0
 10
32.33793856343702
 20
25.09037979794769
 30
0.0
 10
32.34281066234476
 20
25.0825680323444
 30
0.0
 10
32.34936975586928
 20
25.07414852597839
 30
0.0
 10
32.35677543944913
 20
25.06667082389956
 30
0.0
 10
32.36420899041612
 20
25.0606145782382
 30
0.0
 10
32.3707239680091
 20
25.05615311811984
 30
0.0
 10
32.3768283615426
 20
25.05260953449646
 30
0.0
 10
32.38239509279279
 20
25.04984762260196
 30
0.0
 10
32.38732756421003
 20
25.04773834119339
 30
0.0
 10
32.393804251064
 20
25.04532238316361
 30
0.0
 10
32.40202568291386
 20
25.04291702223705
 30
0.0
 10
32.41213878607844
 20
25.04102230530993
 30
0.0
 10
32.42178752310532
 20
25.04012885608775
 30
0.0
 10
32.42804711499763
 20
25.04009094626949
 30
0.0
 10
32.43106902497923
 20
25.04019926781274
 30
0.0
 11
32.32595244793794
 21
25.13672908658339
 31
0.0
 11
32.3263976802842
 21
25.12748570851993
 31
0.0
 11
32.32784057225898
 21
25.11782717838471
 31
0.0
 11
32.3289842718288
 21
25.11287807401799
 31
0.0
 11
32.33043443699947
 21
25.10787239395373
 31
0.0
 11
32.33220898696527
 21
25.10283039792657
 31
0.0
 11
32.33432491913541
 21
25.09777463862813
 31
0.0
 11
32.33781416855194
 21
25.09086049309662
 31
0.0
 11
32.34267425175389
 21
25.08306435374263
 31
0.0
 11
32.34921506975991
 21
25.07466623758245
 31
0.0
 11
32.35774142457966
 21
25.06604983912459
 31
0.0
 11
32.36449857019545
 21
25.06054107915657
 31
0.0
 11
32.37100853297062
 21
25.05608241149293
 31
0.0
 11
32.37710954847415
 21
25.05253970420393
 31
0.0
 11
32.38267443129901
 21
25.04977795700067
 31
0.0
 11
32.38760578731156
 21
25.0476679823795
 31
0.0
 11
32.39183107439624
 21
25.04609148354143
 31
0.0
 11
32.40225386644977
 21
25.04304184466207
 31
0.0
 11
32.41235651144585
 21
25.04114719226064
 31
0.0
 11
32.42199729948179
 21
25.04025284955464
 31
0.0
 11
32.43106902497923
 21
25.04019926781274
 31
0.0
  0
SPLINE
  5
37D
330
2
100
AcDbEntity
  8
GAIKEI
  6
Continuous
 62
     1
100
AcDbSpline
210
0.0
220
0.0
230
1.0
 70
     8
 71
     3
 72
    26
 73
    22
 74
    20
 42
0.0000000001
 43
0.0000000001
 44
0.000001
 12
-0.9993627682554919
 22
0.0356939410085291
 32
0.0
 13
0.0003694631600993
 23
-0.9999999317484842
 33
0.0
 40
0.0
 40
0.0
 40
0.0
 40
0.0
 40
0.0092852600822441
 40
0.0187542291165945
 40
0.0288603754263731
 40
0.0395886222091013
 40
0.0458698807901996
 40
0.0520449618698774
 40
0.0596212968049343
 40
0.068586600471596
 40
0.0789264076764851
 40
0.091315556354661
 40
0.102101077738043
 40
0.111513563293521
 40
0.119568570399821
 40
0.1247254382608578
 40
0.1300790657562303
 40
0.1353005559884567
 40
0.140391603269089
 40
0.1501849384032816
 40
0.1594721776411459
 40
0.1594721776411459
 40
0.1594721776411459
 40
0.1594721776411459
 10
32.43106902497923
 20
28.55715847816739
 30
0.0
 10
32.42797591057264
 20
28.55726895400927
 30
0.0
 10
32.42171572054392
 20
28.55722442121381
 30
0.0
 10
32.41212573770005
 20
28.5563274511585
 30
0.0
 10
32.40218116200582
 20
28.55447302523828
 30
0.0
 10
32.39348426704771
 20
28.5519506410309
 30
0.0
 10
32.3862556974405
 20
28.54920571359136
 30
0.0
 10
32.38016035550302
 20
28.54646906854604
 30
0.0
 10
32.3734710637815
 20
28.54290545398058
 30
0.0
 10
32.36592492079677
 20
28.53805136738085
 30
0.0
 10
32.35761908816339
 20
28.53149234860642
 30
0.0
 10
32.34968658815905
 20
28.52358091573733
 30
0.0
 10
32.34296371998077
 20
28.5150198087145
 30
0.0
 10
32.33795622727438
 20
28.50702550764848
 30
0.0
 10
32.33455864378577
 20
28.50028183927803
 30
0.0
 10
32.33217285345889
 20
28.49456859578308
 30
0.0
 10
32.33042622808895
 20
28.48962091650495
 30
0.0
 10
32.32896835241792
 20
28.48460359292833
 30
0.0
 10
32.32745410781666
 20
28.47807203643497
 30
0.0
 10
32.32625921900204
 20
28.47008856793245
 30
0.0
 10
32.32595130417369
 20
28.46372440559806
 30
0.0
 10
32.32595244793794
 20
28.46062865939672
 30
0.0
 11
32.43106902497923
 21
28.55715847816739
 31
0.0
 11
32.42178366077627
 21
28.55709383770502
 31
0.0
 11
32.41235600342455
 21
28.55621025366196
 31
0.0
 11
32.40242140264593
 21
28.5543560036584
 31
0.0
 11
32.39211815299692
 21
28.55136621869308
 31
0.0
 11
32.38624600219295
 21
28.54913637121914
 31
0.0
 11
32.3806134999189
 21
28.54660522092041
 31
0.0
 11
32.37392734780681
 21
28.54304200388705
 31
0.0
 11
32.36638801181921
 21
28.53819066103176
 31
0.0
 11
32.35827501612627
 21
28.53178039203081
 31
0.0
 11
32.34950776467271
 21
28.5230266901719
 31
0.0
 11
32.34284732457097
 21
28.51454336768012
 31
0.0
 11
32.33785233208339
 21
28.50656555378154
 31
0.0
 11
32.33422923535562
 21
28.49937133873858
 31
0.0
 11
32.3322417681386
 21
28.49461282874017
 31
0.0
 11
32.33045962872728
 21
28.48956451548827
 31
0.0
 11
32.32900249670505
 21
28.48455044876507
 31
0.0
 11
32.32785267786474
 21
28.47959093381175
 31
0.0
 11
32.32640090605436
 21
28.46990578564082
 31
0.0
 11
32.32595244793794
 21
28.46062865939672
 31
0.0
  0
SPLINE
  5
37E
330
2
100
AcDbEntity
  8
GAIKEI
  6
Continuous
 62
     1
100
AcDbSpline
210
0.0
220
0.0
230
1.0
 70
     8
 71
     3
 72
     9
 73
     5
 74
     3
 42
0.0000000001
 43
0.0000000001
 44
0.000001
 12
0.1338031185345474
 22
0.9910079341107365
 32
0.0
 13
0.0001573976924943
 23
0.9999999876129832
 33
0.0
 40
0.0
 40
0.0
 40
0.0
 40
0.0
 40
0.0444162383073452
 40
0.0888324766147106
 40
0.0888324766147106
 40
0.0888324766147106
 40
0.0888324766147106
 10
33.62826043274686
 20
26.55572391539121
 30
0.0
 10
33.63024144314656
 20
26.5703961969132
 30
0.0
 10
33.63322215478402
 20
26.59988171960228
 30
0.0
 10
33.63421816277333
 20
26.62950077863866
 30
0.0
 10
33.63422049311113
 20
26.64430619122439
 30
0.0
 11
33.62826043274686
 21
26.55572391539121
 31
0.0
 11
33.63272697661614
 21
26.59991503655812
 31
0.0
 11
33.63422049311113
 21
26.64430619122439
 31
0.0
  0
SPLINE
  5
37F
330
2
100
AcDbEntity
  8
GAIKEI
  6
Continuous
 62
     1
100
AcDbSpline
210
0.0
220
0.0
230
1.0
 70
     8
 71
     3
 72
     9
 73
     5
 74
     3
 42
0.0000000001
 43
0.0000000001
 44
0.000001
 12
-0.0001573976924944
 22
0.9999999876129832
 32
0.0
 13
-0.1338031185345475
 23
0.9910079341107365
 33
0.0
 40
0.0
 40
0.0
 40
0.0
 40
0.0
 40
0.0444162383073513
 40
0.0888324766147388
 40
0.0888324766147388
 40
0.0888324766147388
 40
0.0888324766147388
 10
33.63422049311113
 20
26.95305155475572
 30
0.0
 10
33.63421816277333
 20
26.96785696734143
 30
0.0
 10
33.63322215478405
 20
26.99747602637784
 30
0.0
 10
33.63024144314656
 20
27.02696154906693
 30
0.0
 10
33.62826043274686
 20
27.04163383058892
 30
0.0
 11
33.63422049311113
 21
26.95305155475572
 31
0.0
 11
33.63272697661614
 21
26.99744270942197
 31
0.0
 11
33.62826043274686
 21
27.04163383058892
 31
0.0
  0
SPLINE
  5
380
330
2
100
AcDbEntity
  8
GAIKEI
  6
Continuous
 62
     1
100
AcDbSpline
210
0.0
220
0.0
230
1.0
 70
     8
 71
     3
 72
     9
 73
     5
 74
     3
 42
0.0000000001
 43
0.0000000001
 44
0.000001
 12
0.1339175551133076
 22
-0.9909924764762212
 32
0.0
 13
0.0000419218556504
 23
-0.999999999121279
 33
0.0
 40
0.0
 40
0.0
 40
0.0
 40
0.0
 40
0.0533667243357756
 40
0.1067334486731922
 40
0.1067334486731922
 40
0.1067334486731922
 40
0.1067334486731922
 10
33.76031152328201
 20
27.0594841632505
 30
0.0
 10
33.76269377036449
 20
27.04185548914685
 30
0.0
 10
33.76627761619025
 20
27.00642836559401
 30
0.0
 10
33.767471857623
 20
26.97084046285257
 30
0.0
 10
33.76747260336703
 20
26.95305155475572
 30
0.0
 11
33.76031152328201
 21
27.0594841632505
 31
0.0
 11
33.76568121283611
 21
27.00638823792838
 31
0.0
 11
33.76747260336703
 21
26.95305155475572
 31
0.0
  0
SPLINE
  5
381
330
2
100
AcDbEntity
  8
GAIKEI
  6
Continuous
 62
     1
100
AcDbSpline
210
0.0
220
0.0
230
1.0
 70
     8
 71
     3
 72
     9
 73
     5
 74
     3
 42
0.0000000001
 43
0.0000000001
 44
0.000001
 12
-0.0000419218573694
 22
-0.999999999121279
 32
0.0
 13
-0.1339175551115832
 23
-0.9909924764764545
 33
0.0
 40
0.0
 40
0.0
 40
0.0
 40
0.0
 40
0.053366724336735
 40
0.1067334486732033
 40
0.1067334486732033
 40
0.1067334486732033
 40
0.1067334486732033
 10
33.76747260336703
 20
26.64430619122439
 30
0.0
 10
33.76747185762295
 20
26.62651728312777
 30
0.0
 10
33.76627761619019
 20
26.59092938038635
 30
0.0
 10
33.76269377036449
 20
26.55550225683346
 30
0.0
 10
33.76031152328201
 20
26.53787358272959
 30
0.0
 11
33.76747260336703
 21
26.64430619122439
 31
0.0
 11
33.76568121283611
 21
26.59096950805241
 31
0.0
 11
33.76031152328201
 21
26.53787358272959
 31
0.0
  0
SPLINE
  5
382
330
2
100
AcDbEntity
  8
GAIKEI
  6
Continuous
 62
     1
100
AcDbSpline
210
0.0
220
0.0
230
1.0
 70
     8
 71
     3
 72
    19
 73
    15
 74
    13
 42
0.0000000001
 43
0.0000000001
 44
0.000001
 12
-0.1339036180066847
 22
-0.9909943597643328
 32
0.0
 13
-0.9993944380603197
 23
-0.0347959361721689
 33
0.0
 40
0.0
 40
0.0
 40
0.0
 40
0.0
 40
0.0349325801472198
 40
0.069816316325997
 40
0.1051353552658665
 40
0.1403398116673919
 40
0.1751159645099992
 40
0.2099450791634956
 40
0.2447457581911944
 40
0.2795219113333551
 40
0.3147548170468675
 40
0.3500601571584152
 40
0.3849438933612395
 40
0.4198907594143882
 40
0.4198907594143882
 40
0.4198907594143882
 40
0.4198907594143882
 10
33.5789762732524
 20
25.19641300757815
 30
0.0
 10
33.57741707362972
 20
25.18487367761217
 30
0.0
 10
33.57294843504174
 20
25.16196957590864
 30
0.0
 10
33.56218229749435
 20
25.12853624913876
 30
0.0
 10
33.54752894166698
 20
25.09651673723171
 30
0.0
 10
33.52941769041905
 20
25.06636227266933
 30
0.0
 10
33.50799251512706
 20
25.03866183075894
 30
0.0
 10
33.48353449904799
 20
25.01379168190022
 30
0.0
 10
33.45636175491647
 20
24.99191987533507
 30
0.0
 10
33.42666911569667
 20
24.97335371343746
 30
0.0
 10
33.39486302641717
 20
24.95832007418392
 30
0.0
 10
33.36154388092314
 20
24.94691115858412
 30
0.0
 10
33.32720605602505
 20
24.93951960544933
 30
0.0
 10
33.30396669179588
 20
24.93734698486455
 30
0.0
 10
33.29232479060883
 20
24.93694164855768
 30
0.0
 11
33.5789762732524
 21
25.19641300757815
 31
0.0
 11
33.57227489255251
 21
25.16212867068162
 31
0.0
 11
33.56159291286022
 21
25.12892067064572
 31
0.0
 11
33.54693033417556
 21
25.09678900747039
 31
0.0
 11
33.52877051453105
 21
25.06662985367717
 31
0.0
 11
33.50748557541782
 21
25.03912834613092
 31
0.0
 11
33.4830755168359
 21
25.01428448483171
 31
0.0
 11
33.45595498746656
 21
24.99247702459674
 31
0.0
 11
33.42647594862373
 21
24.97402796447782
 31
0.0
 11
33.39463840030747
 21
24.95893730447495
 31
0.0
 11
33.36122393951729
 21
24.94753811991791
 31
0.0
 11
33.32711940295109
 21
24.94020623461216
 31
0.0
 11
33.29232479060883
 21
24.93694164855768
 31
0.0
  0
SPLINE
  5
383
330
2
100
AcDbEntity
  8
GAIKEI
  6
Continuous
 62
     1
100
AcDbSpline
210
0.0
220
0.0
230
1.0
 70
     8
 71
     3
 72
    31
 73
    27
 74
    25
 42
0.0000000001
 43
0.0000000001
 44
0.000001
 12
-0.999442812610061
 22
-0.03337760210217
 32
0.0
 13
0.0102088876850998
 23
0.9999478879482836
 33
0.0
 40
0.0
 40
0.0
 40
0.0
 40
0.0
 40
0.0152249671322577
 40
0.0306032386292692
 40
0.0463725272986581
 40
0.0616262613271793
 40
0.0768553026812334
 40
0.0922459996965216
 40
0.1137366029128523
 40
0.1350663025713845
 40
0.1436576372390828
 40
0.1523210390744413
 40
0.1610834194454551
 40
0.1699707907132522
 40
0.1790080860889358
 40
0.1920069475011452
 40
0.2052913488211866
 40
0.2189352085615178
 40
0.23300678162833
 40
0.2475683092978213
 40
0.2584963164614757
 40
0.2687337214113486
 40
0.2813855249504355
 40
0.2937299094866986
 40
0.3036389700467474
 40
0.3112591147741136
 40
0.3112591147741136
 40
0.3112591147741136
 40
0.3112591147741136
 10
32.43571945656174
 20
24.90702833114202
 30
0.0
 10
32.43064729523755
 20
24.90685894017703
 30
0.0
 10
32.42041809430718
 20
24.90714743052141
 30
0.0
 10
32.40511116740043
 20
24.90956729906745
 30
0.0
 10
32.39020839413563
 20
24.91384068555678
 30
0.0
 10
32.37592327548788
 20
24.91971899010628
 30
0.0
 10
32.36248646319987
 20
24.9270867928237
 30
0.0
 10
32.34825524820113
 20
24.93710020551259
 30
0.0
 10
32.33380843607691
 20
24.95015308193877
 30
0.0
 10
32.32282620686205
 20
24.96339285103128
 30
0.0
 10
32.31564497105053
 20
24.97406893715487
 30
0.0
 10
32.31121418273377
 20
24.98152959891712
 30
0.0
 10
32.30715634161356
 20
24.98931039156253
 30
0.0
 10
32.30347332221388
 20
24.99741239999125
 30
0.0
 10
32.29969231909264
 20
25.00700631420873
 30
0.0
 10
32.29609214595561
 20
25.01822896705184
 30
0.0
 10
32.29301664663166
 20
25.03119052331228
 30
0.0
 10
32.29083148137099
 20
25.04469294544991
 30
0.0
 10
32.28954367717427
 20
25.05873637561584
 30
0.0
 10
32.28917459741152
 20
25.07192752715372
 30
0.0
 10
32.28948720330477
 20
25.08383555652184
 30
0.0
 10
32.29013992691744
 20
25.09508983957914
 30
0.0
 10
32.29099303626106
 20
25.10680350076707
 30
0.0
 10
32.2918911903636
 20
25.11840376143235
 30
0.0
 10
32.29246864764731
 20
25.1283465049539
 30
0.0
 10
32.29259826036886
 20
25.13418917070806
 30
0.0
 10
32.29262419143609
 20
25.13672908658339
 30
0.0
 11
32.43571945656174
 21
24.90702833114202
 31
0.0
 11
32.42049989286909
 21
24.90746986936448
 31
0.0
 11
32.40530692547252
 21
24.90985002378585
 31
0.0
 11
32.39014055437194
 21
24.91416879440612
 31
0.0
 11
32.37603635181924
 21
24.91997809049161
 31
0.0
 11
32.36268288815248
 21
24.92729989442054
 31
0.0
 11
32.35008016337167
 21
24.93613420619288
 31
0.0
 11
32.33414033638894
 21
24.9505483751075
 31
0.0
 11
32.32052221799938
 21
24.96696493254523
 31
0.0
 11
32.3157250490496
 21
24.97409222430679
 31
0.0
 11
32.31129935347475
 21
24.98153989823203
 31
0.0
 11
32.30724513127475
 21
24.98930795432097
 31
0.0
 11
32.30356238244969
 21
24.99739639257361
 31
0.0
 11
32.30025110699953
 21
25.00580521298991
 31
0.0
 11
32.29628035445364
 21
25.01818276216901
 31
0.0
 11
32.293198879644
 21
25.03110483823784
 31
0.0
 11
32.29100668257061
 21
25.04457144119643
 31
0.0
 11
32.28970376323349
 21
25.05858257104474
 31
0.0
 11
32.28929012163266
 21
25.07313822778286
 31
0.0
 11
32.28955181055815
 21
25.08406310492515
 31
0.0
 11
32.29011484345392
 21
25.09428501804143
 31
0.0
 11
32.29100923187821
 21
25.10690516830806
 31
0.0
 11
32.29190905047671
 21
25.11921671257119
 31
0.0
 11
32.29244506538218
 21
25.12911127484952
 31
0.0
 11
32.29262419143609
 21
25.13672908658339
 31
0.0
  0
SPLINE
  5
384
330
2
100
AcDbEntity
  8
GAIKEI
  6
Continuous
 62
     1
100
AcDbSpline
210
0.0
220
0.0
230
1.0
 70
     8
 71
     3
 72
    30
 73
    26
 74
    24
 42
0.0000000001
 43
0.0000000001
 44
0.000001
 12
-0.008889748260986
 22
0.9999604854072268
 32
0.0
 13
0.9995504004609111
 23
-0.0299832776465868
 33
0.0
 40
0.0
 40
0.0
 40
0.0
 40
0.0
 40
0.006832345512437
 40
0.0155563699974836
 40
0.0261770725762314
 40
0.038193362763423
 40
0.0483956005058704
 40
0.0566151722688824
 40
0.0678949724284336
 40
0.0792553042764295
 40
0.0903199000553521
 40
0.1011188636615119
 40
0.1116845699052189
 40
0.1220515791400907
 40
0.1322564706364286
 40
0.154539572288273
 40
0.1761387589362556
 40
0.1903726740843044
 40
0.2046199638202489
 40
0.2190100797910355
 40
0.234372577286369
 40
0.2496016167040973
 40
0.2648835252961454
 40
0.2883436242539217
 40
0.3112196021452735
 40
0.3112196021452735
 40
0.3112196021452735
 40
0.3112196021452735
 10
32.29262419143609
 20
28.46062865939672
 30
0.0
 10
32.29260394549222
 20
28.46290601790841
 30
0.0
 10
32.29249864448892
 20
28.46809127175676
 30
0.0
 10
32.29202152812258
 20
28.47680514064033
 30
0.0
 10
32.29127398837955
 20
28.48723203151863
 30
0.0
 10
32.2904172518129
 20
28.49814507276369
 30
0.0
 10
32.28978098674114
 20
28.50827147459089
 30
0.0
 10
32.28931348702931
 20
28.51816181279645
 30
0.0
 10
32.28922924425871
 20
28.52845201957918
 30
0.0
 10
32.28966494880022
 20
28.53968290442688
 30
0.0
 10
32.29065751344396
 20
28.55071803978426
 30
0.0
 10
32.29220054694796
 20
28.56142261198718
 30
0.0
 10
32.29429563716275
 20
28.57179595266798
 30
0.0
 10
32.29693956974582
 20
28.58183973094808
 30
0.0
 10
32.30142112640276
 20
28.59541040495698
 30
0.0
 10
32.30866404547715
 20
28.61198217519527
 30
0.0
 10
32.31879789008167
 20
28.62856978841508
 30
0.0
 10
32.3291584723668
 20
28.64169005895337
 30
0.0
 10
32.33906700483423
 20
28.65201797000816
 30
0.0
 10
32.35018460349602
 20
28.66161614046715
 30
0.0
 10
32.36246960485386
 20
28.67026277777842
 30
0.0
 10
32.37590793788169
 20
28.67762888205161
 30
0.0
 10
32.39257093069807
 20
28.68448929156182
 30
0.0
 10
32.41257155444499
 20
28.68965673890975
 30
0.0
 10
32.42809755894099
 20
28.6905580471036
 30
0.0
 10
32.43571945656174
 20
28.69032941483808
 30
0.0
 11
32.29262419143609
 21
28.46062865939672
 31
0.0
 11
32.29247609711376
 21
28.46745918128286
 31
0.0
 11
32.29203305325988
 21
28.47617195604309
 31
0.0
 11
32.29129505987446
 21
28.48676698367746
 31
0.0
 11
32.29040265108196
 21
28.49875008865474
 31
0.0
 11
32.28976774572001
 21
28.50893255270774
 31
0.0
 11
32.28940575926228
 21
28.51714415252136
 31
0.0
 11
32.28931648040299
 21
28.52842360309154
 31
0.0
 11
32.28976533399495
 21
28.53977506869185
 31
0.0
 11
32.2907636212566
 21
28.55079454337857
 31
0.0
 11
32.29231134218784
 21
28.5614820271518
 31
0.0
 11
32.29440849678879
 21
28.57183752001148
 31
0.0
 11
32.29705508505936
 21
28.58186102195758
 31
0.0
 11
32.30025110699953
 21
28.59155253299018
 31
0.0
 11
32.30921245939593
 21
28.61195428523472
 31
0.0
 11
32.32050441959009
 21
28.63036670378239
 31
0.0
 11
32.32932717516275
 21
28.64153646409372
 31
0.0
 11
32.33918575642325
 21
28.6518220760953
 31
0.0
 11
32.35008016337167
 21
28.66122353978722
 31
0.0
 11
32.36265806007069
 21
28.67004414532519
 31
0.0
 11
32.37601152373745
 21
28.6773659492541
 31
0.0
 11
32.39014055437194
 21
28.68318895157398
 31
0.0
 11
32.41288467217248
 21
28.68894066042235
 31
0.0
 11
32.43571945656174
 21
28.69032941483808
 31
0.0
  0
SPLINE
  5
385
330
2
100
AcDbEntity
  8
GAIKEI
  6
Continuous
 62
     1
100
AcDbSpline
210
0.0
220
0.0
230
1.0
 70
     8
 71
     3
 72
    19
 73
    15
 74
    13
 42
0.0000000001
 43
0.0000000001
 44
0.000001
 12
0.99939277932344
 22
-0.0348435451148412
 32
0.0
 13
0.1338564090112065
 23
-0.9910007375207268
 33
0.0
 40
0.0
 40
0.0
 40
0.0
 40
0.0
 40
0.0349325801470926
 40
0.0698163163258557
 40
0.1051353552659689
 40
0.140339811668038
 40
0.1751159645105815
 40
0.2099450791635531
 40
0.2447457581921032
 40
0.2795219113342955
 40
0.3147548170470675
 40
0.350060157159891
 40
0.3849438933627354
 40
0.4198907594145699
 40
0.4198907594145699
 40
0.4198907594145699
 40
0.4198907594145699
 10
33.29232479060883
 20
28.66041609742242
 30
0.0
 10
33.30396191339621
 20
28.66001037244497
 30
0.0
 10
33.32719653207029
 20
28.65783802331435
 30
0.0
 10
33.36153363811801
 20
28.65044476930423
 30
0.0
 10
33.39484988779858
 20
28.63904312525554
 30
0.0
 10
33.42665364992988
 20
28.62401548841143
 30
0.0
 10
33.45634456446797
 20
28.60544663782187
 30
0.0
 10
33.48352031096041
 20
28.58357890686138
 30
0.0
 10
33.50798208439178
 20
28.55871215020395
 30
0.0
 10
33.52940475552669
 20
28.53100972516749
 30
0.0
 10
33.54752221059071
 20
28.50085354095144
 30
0.0
 10
33.56218308956802
 20
28.46883186955153
 30
0.0
 10
33.57294760602194
 20
28.43539765859949
 30
0.0
 10
33.57741698592044
 20
28.41248886174573
 30
0.0
 10
33.5789762732524
 20
28.40094473840193
 30
0.0
 11
33.29232479060883
 21
28.66041609742242
 31
0.0
 11
33.32710510125119
 21
28.65715201235457
 31
0.0
 11
33.3612096378174
 21
28.64982012704885
 31
0.0
 11
33.39463840030751
 21
28.63842044150528
 31
0.0
 11
33.42645165097723
 21
28.62334494188144
 31
0.0
 11
33.45593068982001
 21
28.60489588176252
 31
0.0
 11
33.4830755168359
 21
28.5830732611484
 31
0.0
 11
33.50746807738187
 21
28.55825207211072
 31
0.0
 11
33.52875301649513
 21
28.5307505645645
 31
0.0
 11
33.54693033417571
 21
28.50056873850974
 31
0.0
 11
33.5615909942979
 21
28.4684512566138
 31
0.0
 11
33.57227297399016
 21
28.43524325657785
 31
0.0
 11
33.5789762732524
 21
28.40094473840193
 31
0.0
  0
SPLINE
  5
386
330
2
100
AcDbEntity
  8
GAIKEI
  6
Continuous
 62
     7
100
AcDbSpline
210
0.0
220
0.0
230
1.0
 70
     8
 71
     3
 72
    21
 73
    17
 74
    15
 42
0.0000000001
 43
0.0000000001
 44
0.000001
 12
-0.0013916012638279
 22
-0.9999990317224925
 32
0.0
 13
-0.9986140251619186
 23
-0.0526310625953074
 33
0.0
 40
0.0
 40
0.0
 40
0.0
 40
0.0
 40
0.0187248465539042
 40
0.0375079554395291
 40
0.0562319890361933
 40
0.0749607111800226
 40
0.0937519265012665
 40
0.1124853893348169
 40
0.1312047125898057
 40
0.1499846267117267
 40
0.1687066216817439
 40
0.1874258348968091
 40
0.2062069529783264
 40
0.2249293717864523
 40
0.238931153324393
 40
0.2529324484420355
 40
0.2529324484420355
 40
0.2529324484420355
 40
0.2529324484420355
 10
33.81004741522128
 20
2.915102511189076
 30
0.0
 10
33.81003872938123
 20
2.908860901714717
 30
0.0
 10
33.80932891008332
 20
2.896347524945298
 30
0.0
 10
33.8061689155136
 20
2.877834442479823
 30
0.0
 10
33.80097882053521
 20
2.859779714048798
 30
0.0
 10
33.79374462463919
 20
2.842439733265777
 30
0.0
 10
33.78463085842196
 20
2.826009110084925
 30
0.0
 10
33.77374987396908
 20
2.810691993196158
 30
0.0
 10
33.76118229048855
 20
2.796730578891569
 30
0.0
 10
33.74714840742843
 20
2.784253738413525
 30
0.0
 10
33.73181495332476
 20
2.773409120470915
 30
0.0
 10
33.71533585738717
 20
2.764399318940718
 30
0.0
 10
33.69796235394655
 20
2.757272666936898
 30
0.0
 10
33.68141506718317
 20
2.752553365408644
 30
0.0
 10
33.66606958953848
 20
2.749792646005317
 30
0.0
 10
33.6567640378358
 20
2.748909889759829
 30
0.0
 10
33.65210340794417
 20
2.748664255413245
 30
0.0
 11
33.81004741522128
 21
2.915102511189076
 31
0.0
 11
33.80898241310058
 21
2.896407431237321
 31
0.0
 11
33.80582686575112
 21
2.8778912741639
 31
0.0
 11
33.80063996169179
 21
2.859899996201619
 31
0.0
 11
33.79344127085369
 21
2.842609974718357
 31
0.0
 11
33.78432633518446
 21
2.826177428269616
 31
0.0
 11
33.7734664728584
 21
2.810912866267344
 31
0.0
 11
33.76095241980343
 21
2.796991214267393
 31
0.0
 11
33.74691726954047
 21
2.784513210391892
 31
0.0
 11
33.73162418137255
 21
2.773713422714493
 31
0.0
 11
33.71520605425161
 21
2.76472149568643
 31
0.0
 11
33.69782955974507
 21
2.757594886914276
 31
0.0
 11
33.67982256685983
 21
2.752468653545406
 31
0.0
 11
33.66604285343527
 21
2.749984795468037
 31
0.0
 11
33.65210340794417
 21
2.748664255413245
 31
0.0
  0
SPLINE
  5
387
330
2
100
AcDbEntity
  8
GAIKEI
  6
Continuous
 62
     1
100
AcDbSpline
210
0.0
220
0.0
230
1.0
 70
     8
 71
     3
 72
    11
 73
     7
 74
     5
 42
0.0000000001
 43
0.0000000001
 44
0.000001
 12
-0.6802432327858542
 22
-0.7329864557064138
 32
0.0
 13
-0.7222769166518248
 23
-0.6916039731464339
 33
0.0
 40
0.0
 40
0.0
 40
0.0
 40
0.0
 40
0.0000340968030152
 40
0.00018420189436
 40
0.0004368222678227
 40
0.0005227738201519
 40
0.0005227738201519
 40
0.0005227738201519
 40
0.0005227738201519
 10
33.55237464327162
 20
28.79661400009709
 30
0.0
 10
33.55236691189845
 20
28.79660566926551
 30
0.0
 10
33.55232494054492
 20
28.7965608497569
 30
0.0
 10
33.55222155703188
 20
28.79645825864195
 30
0.0
 10
33.5521039559708
 20
28.79634555883726
 30
0.0
 10
33.5520220378052
 20
28.79626792817795
 30
0.0
 10
33.55200134419781
 20
28.79624811336626
 30
0.0
 11
33.55237464327162
 21
28.79661400009709
 31
0.0
 11
33.55235129180591
 21
28.79658914963417
 31
0.0
 11
33.55224486958267
 21
28.79648325849777
 31
0.0
 11
33.55206335083324
 21
28.79630761317276
 31
0.0
 11
33.55200134419781
 21
28.79624811336626
 31
0.0
  0
SPLINE
  5
388
330
2
100
AcDbEntity
  8
GAIKEI
  6
Continuous
 62
     1
100
AcDbSpline
210
0.0
220
0.0
230
1.0
 70
     8
 71
     3
 72
    15
 73
    11
 74
     9
 42
0.0000000001
 43
0.0000000001
 44
0.000001
 12
0.9801140074554865
 22
-0.1984352095509935
 32
0.0
 13
-0.6668668435619632
 23
-0.7451769004455951
 33
0.0
 40
0.0
 40
0.0
 40
0.0
 40
0.0
 40
0.0000042341417902
 40
0.0000059935104998
 40
0.0000065819295416
 40
0.0000069761874957
 40
0.0000076199717989
 40
0.0000096074824102
 40
0.0000176637919386
 40
0.0000201818744725
 40
0.0000201818744725
 40
0.0000201818744725
 40
0.0000201818744725
 10
33.55237501743183
 20
28.79662682530848
 30
0.0
 10
33.55237640074572
 20
28.79662654524087
 30
0.0
 10
33.55237815249927
 20
28.79662544877134
 30
0.0
 10
33.55238037821723
 20
28.79662518691713
 30
0.0
 10
33.55238123037694
 20
28.79662494888703
 30
0.0
 10
33.55238184803731
 20
28.79662494917777
 30
0.0
 10
33.55238195270174
 20
28.7966236579524
 30
0.0
 10
33.55237932445805
 20
28.79662115338076
 30
0.0
 10
33.55237750927199
 20
28.79661730359496
 30
0.0
 10
33.55237520301354
 20
28.79661462556941
 30
0.0
 10
33.55237464327162
 20
28.79661400009709
 30
0.0
 11
33.55237501743183
 21
28.79662682530848
 31
0.0
 11
33.55237992640197
 21
28.79662583142968
 31
0.0
 11
33.55238165305565
 21
28.79662548184736
 31
0.0
 11
33.55238223055511
 21
28.79662536492503
 31
0.0
 11
33.55238261750296
 21
28.79662528658196
 31
0.0
 11
33.55238280863213
 21
28.79662458414566
 31
0.0
 11
33.552381826378
 21
28.79662279180021
 31
0.0
 11
33.55237634172024
 21
28.79661593738163
 31
0.0
 11
33.55237464327162
 21
28.79661400009709
 31
0.0
  0
SPLINE
  5
389
330
2
100
AcDbEntity
  8
GAIKEI
  6
Continuous
 62
     7
100
AcDbSpline
210
0.0
220
0.0
230
1.0
 70
     8
 71
     3
 72
     9
 73
     5
 74
     3
 42
0.0000000001
 43
0.0000000001
 44
0.000001
 12
0.0382147445236314
 22
0.9992695498718017
 32
0.0
 13
0.0185994861975264
 23
0.9998270145946188
 33
0.0
 40
0.0
 40
0.0
 40
0.0
 40
0.0
 40
0.0097182395925185
 40
0.0196238859719951
 40
0.0196238859719951
 40
0.0196238859719951
 40
0.0196238859719951
 10
33.9416083336663
 20
26.60502635800071
 30
0.0
 10
33.94173212701405
 20
26.60826340496844
 30
0.0
 10
33.94195033987165
 20
26.61480117471672
 30
0.0
 10
33.94210439838599
 20
26.62134077675192
 30
0.0
 10
33.94216581169704
 20
26.62464208770099
 30
0.0
 11
33.9416083336663
 21
26.60502635800071
 31
0.0
 11
33.94193252396066
 21
26.61473918820838
 31
0.0
 11
33.94216581169704
 21
26.62464208770099
 31
0.0
  0
SPLINE
  5
38A
330
2
100
AcDbEntity
  8
GAIKEI
  6
Continuous
 62
     7
100
AcDbSpline
210
0.0
220
0.0
230
1.0
 70
     8
 71
     3
 72
     9
 73
     5
 74
     3
 42
0.0000000001
 43
0.0000000001
 44
0.000001
 12
0.0890934844436245
 22
0.9960232683174092
 32
0.0
 13
0.0382171861496897
 23
0.9992694564944933
 33
0.0
 40
0.0
 40
0.0
 40
0.0
 40
0.0
 40
0.0323623432944468
 40
0.0509924813258644
 40
0.0509924813258644
 40
0.0509924813258644
 40
0.0509924813258644
 10
33.93836146624614
 20
26.55414120053169
 30
0.0
 10
33.93932255755576
 20
26.56488574951121
 30
0.0
 10
33.94056312649322
 20
26.58184172895889
 30
0.0
 10
33.94137100318192
 20
26.59882084869902
 30
0.0
 10
33.9416083336663
 20
26.60502635800071
 30
0.0
 11
33.93836146624614
 21
26.55414120053169
 31
0.0
 11
33.94072301358935
 21
26.58641750632808
 31
0.0
 11
33.9416083336663
 21
26.60502635800071
 31
0.0
  0
SPLINE
  5
38B
330
2
100
AcDbEntity
  8
GAIKEI
  6
Continuous
 62
     7
100
AcDbSpline
210
0.0
220
0.0
230
1.0
 70
     8
 71
     3
 72
     9
 73
     5
 74
     3
 42
0.0000000001
 43
0.0000000001
 44
0.000001
 12
0.1103453711681145
 22
0.9938933036607958
 32
0.0
 13
0.0891001703377536
 23
0.9960226702469093
 33
0.0
 40
0.0
 40
0.0
 40
0.0
 40
0.0
 40
0.0176368488576292
 40
0.0213526907055651
 40
0.0213526907055651
 40
0.0213526907055651
 40
0.0213526907055651
 10
33.9362320044275
 20
26.532895134472
 30
0.0
 10
33.93688071930531
 20
26.53873818313109
 30
0.0
 10
33.93760375784393
 20
26.54581945349084
 30
0.0
 10
33.93825110553227
 20
26.55290751295849
 30
0.0
 10
33.93836146624614
 20
26.55414120053169
 30
0.0
 11
33.9362320044275
 21
26.532895134472
 31
0.0
 11
33.93802351005182
 21
26.55044077562275
 31
0.0
 11
33.93836146624614
 21
26.55414120053169
 31
0.0
  0
SPLINE
  5
38C
330
2
100
AcDbEntity
  8
GAIKEI
  6
Continuous
 62
     7
100
AcDbSpline
210
0.0
220
0.0
230
1.0
 70
     8
 71
     3
 72
     9
 73
     5
 74
     3
 42
0.0000000001
 43
0.0000000001
 44
0.000001
 12
-0.0908223106603705
 22
0.9958671135680257
 32
0.0
 13
-0.1103459603277674
 23
0.9938932382501366
 33
0.0
 40
0.0
 40
0.0
 40
0.0
 40
0.0
 40
0.0097182395578122
 40
0.0196238847975537
 40
0.0196238847975537
 40
0.0196238847975537
 40
0.0196238847975537
 10
33.93820592712106
 20
27.04471182503141
 30
0.0
 10
33.93791171613033
 20
27.04793785009055
 30
0.0
 10
33.93728596280368
 20
27.05444926144185
 30
0.0
 10
33.93659635359359
 20
27.0609542259167
 30
0.0
 10
33.93623200428137
 20
27.06423594385814
 30
0.0
 11
33.93820592712106
 21
27.04471182503141
 31
0.0
 11
33.93727627993734
 21
27.05438549679704
 31
0.0
 11
33.93623200428137
 21
27.06423594385814
 31
0.0
  0
SPLINE
  5
38D
330
2
100
AcDbEntity
  8
GAIKEI
  6
Continuous
 62
     7
100
AcDbSpline
210
0.0
220
0.0
230
1.0
 70
     8
 71
     3
 72
     9
 73
     5
 74
     3
 42
0.0000000001
 43
0.0000000001
 44
0.000001
 12
-0.0399492825279237
 22
0.9992017087783146
 32
0.0
 13
-0.0908198773464509
 23
0.9958673354813761
 33
0.0
 40
0.0
 40
0.0
 40
0.0
 40
0.0
 40
0.0323623432609312
 40
0.0509924812974068
 40
0.0509924812974068
 40
0.0509924812974068
 40
0.0509924812974068
 10
33.94154076800893
 20
26.9938323573451
 30
0.0
 10
33.94110981721087
 20
27.00461119357389
 30
0.0
 10
33.94015590408684
 20
27.02158571270546
 30
0.0
 10
33.93876992273821
 20
27.03852744305607
 30
0.0
 10
33.93820592712106
 20
27.04471182503141
 30
0.0
 11
33.94154076800893
 21
26.9938323573451
 31
0.0
 11
33.93972504056448
 21
27.02614396444524
 31
0.0
 11
33.93820592712106
 21
27.04471182503141
 31
0.0
  0
SPLINE
  5
38E
330
2
100
AcDbEntity
  8
GAIKEI
  6
Continuous
 62
     7
100
AcDbSpline
210
0.0
220
0.0
230
1.0
 70
     8
 71
     3
 72
     9
 73
     5
 74
     3
 42
0.0000000001
 43
0.0000000001
 44
0.000001
 12
-0.0186000761728346
 22
0.9998270036193087
 32
0.0
 13
-0.0399425752926383
 23
0.9992019769190772
 33
0.0
 40
0.0
 40
0.0
 40
0.0
 40
0.0
 40
0.0176368527663175
 40
0.0213526946100832
 40
0.0213526946100832
 40
0.0213526946100832
 40
0.0213526946100832
 10
33.94216581172265
 20
26.97248898793572
 30
0.0
 10
33.94205646278768
 20
26.9783669218206
 30
0.0
 10
33.94186131952188
 20
26.98548233553133
 30
0.0
 10
33.94159024143981
 20
26.9925947318397
 30
0.0
 10
33.94154076800893
 20
26.9938323573451
 30
0.0
 11
33.94216581172265
 21
26.97248898793572
 31
0.0
 11
33.94168228935885
 21
26.99011922786008
 31
0.0
 11
33.94154076800893
 21
26.9938323573451
 31
0.0
  0
LINE
  5
38F
330
2
100
AcDbEntity
  8
GAIKEI
  6
Continuous
 62
     7
100
AcDbLine
 10
33.80338074855524
 20
4.629967675479718
 30
0.0
 11
33.8033807485552
 21
2.928447898116417
 31
0.0
  0
LINE
  5
390
330
2
100
AcDbEntity
  8
GAIKEI
  6
Continuous
 62
     7
100
AcDbLine
 10
33.80338074855527
 20
5.811781231162058
 30
0.0
 11
33.80338074855524
 21
4.629967675479718
 31
0.0
  0
ARC
  5
391
330
2
100
AcDbEntity
  8
GAIKEI
100
AcDbCircle
 10
33.77001072103458
 20
5.981927651848536
 30
0.0
 40
0.1733878981046918
100
AcDbArc
 50
281.0963120935033
 51
359.1773757409216
  0
TEXT
  5
392
330
2
100
AcDbEntity
  8
MOJI1
100
AcDbText
 10
-36.17921332962237
 20
51.11542936862099
 30
0.0
 40
4.0
  1
ハイビジョンプラズマディスプレイ壁掛け金具付
 41
0.93
100
AcDbText
  0
ENDSEC
  0
SECTION
  2
OBJECTS
  0
DICTIONARY
  5
9
330
0
100
AcDbDictionary
281
     1
  3
ACAD_COLOR
350
31
  3
ACAD_GROUP
350
2D
  3
ACAD_LAYOUT
350
D
  3
ACAD_MATERIAL
350
30
  3
ACAD_MLINESTYLE
350
2E
  3
ACAD_PLOTSETTINGS
350
2F
  3
ACAD_PLOTSTYLENAME
350
8
  3
ACDBHEADERROUNDTRIPXREC
350
3DF
  3
AcDbVariableDictionary
350
3DA
  3
ASE_INDEX_DICTIONARY
350
39B
  0
DICTIONARY
  5
15
330
14
100
AcDbDictionary
280
     1
281
     1
  3
ACAD_LAYERFILTERS
360
16
  3
ACAD_LAYERSTATES
360
17
  0
DICTIONARY
  5
3
330
2
100
AcDbDictionary
280
     1
281
     1
  3
ACAD_LAYOUTSELFREF
360
4
  0
DICTIONARY
  5
F
330
E
100
AcDbDictionary
280
     1
281
     1
  3
ACAD_LAYOUTSELFREF
360
10
  0
DICTIONARY
  5
31
102
{ACAD_REACTORS
330
9
102
}
330
9
100
AcDbDictionary
281
     1
  0
DICTIONARY
  5
2D
102
{ACAD_REACTORS
330
9
102
}
330
9
100
AcDbDictionary
281
     1
  0
DICTIONARY
  5
D
102
{ACAD_REACTORS
330
9
102
}
330
9
100
AcDbDictionary
281
     1
  3
Model
350
C
  3
ﾚｲｱｳﾄ1
350
13
  0
DICTIONARY
  5
30
102
{ACAD_REACTORS
330
9
102
}
330
9
100
AcDbDictionary
281
     1
  0
DICTIONARY
  5
2E
102
{ACAD_REACTORS
330
9
102
}
330
9
100
AcDbDictionary
281
     1
  3
STANDARD
350
32
  0
DICTIONARY
  5
2F
102
{ACAD_REACTORS
330
9
102
}
330
9
100
AcDbDictionary
281
     1
  0
ACDBDICTIONARYWDFLT
  5
8
102
{ACAD_REACTORS
330
9
102
}
330
9
100
AcDbDictionary
281
     1
  3
Normal
350
7
100
AcDbDictionaryWithDefault
340
7
  0
DICTIONARY
  5
3DF
102
{ACAD_REACTORS
330
9
102
}
330
9
100
AcDbDictionary
281
     1
  3
COLORDICT
350
3E1
  3
MATERIALDICT
350
3E0
  0
DICTIONARY
  5
3DA
102
{ACAD_REACTORS
330
9
102
}
330
9
100
AcDbDictionary
281
     1
  3
DIMASSOC
350
3DC
  3
HIDETEXT
350
3DB
  3
PROJECTNAME
350
3DD
  0
DICTIONARY
  5
39B
102
{ACAD_REACTORS
330
9
102
}
330
9
100
AcDbDictionary
281
     1
  3
ASEBlockHierarchyIndexRecord
350
39D
1001
DCO15
1040
1627818262.799
  0
DICTIONARY
  5
16
102
{ACAD_REACTORS
330
15
102
}
330
15
100
AcDbDictionary
280
     1
281
     1
  0
DICTIONARY
  5
17
102
{ACAD_REACTORS
330
15
102
}
330
15
100
AcDbDictionary
281
     1
  0
XRECORD
  5
4
102
{ACAD_REACTORS
330
3
102
}
330
3
100
AcDbXrecord
280
     1
340
2
  0
XRECORD
  5
10
102
{ACAD_REACTORS
330
F
102
}
330
F
100
AcDbXrecord
280
     1
340
E
  0
LAYOUT
  5
C
102
{ACAD_XDICTIONARY
360
3E2
102
}
102
{ACAD_REACTORS
330
D
102
}
330
D
100
AcDbPlotSettings
  1

  2
Ａ４－縦3FRIM01.pc3
  4
A4
  6

 40
5.873749732971191
 41
5.873747825622558
 42
5.873748779296875
 43
5.873748779296875
 44
209.9733276367187
 45
296.9259948730469
 46
5.44
 47
0.0
 48
0.0
 49
0.0
140
0.0
141
0.0
142
1.0
143
1.383239362962726
 70
 11956
 72
     1
 73
     0
 74
     1
  7
tmsacad.ctb
 75
     0
147
0.7229406759059578
148
0.5671991949084259
149
0.1357563133815347
100
AcDbLayout
  1
Model
 70
     1
 71
     0
 10
0.0
 20
0.0
 11
12.0
 21
9.0
 12
0.0
 22
0.0
 32
0.0
 14
0.0
 24
0.0
 34
0.0
 15
0.0
 25
0.0
 35
0.0
146
0.0
 13
0.0
 23
0.0
 33
0.0
 16
1.0
 26
0.0
 36
0.0
 17
0.0
 27
1.0
 37
0.0
 76
     0
330
2
  0
LAYOUT
  5
13
102
{ACAD_XDICTIONARY
360
3E4
102
}
102
{ACAD_REACTORS
330
D
102
}
330
D
100
AcDbPlotSettings
  1

  2
C:\Program Files\ACAD2000\plotters\DWF ePlot.pc3
  4

  6

 40
0.0
 41
0.0
 42
0.0
 43
0.0
 44
0.0
 45
0.0
 46
0.0
 47
0.0
 48
0.0
 49
0.0
140
0.0
141
0.0
142
1.0
143
1.0
 70
   688
 72
     0
 73
     0
 74
     5
  7
tmsacad.ctb
 75
    16
147
1.0
148
0.0
149
0.0
100
AcDbLayout
  1
ﾚｲｱｳﾄ1
 70
     1
 71
     1
 10
0.0
 20
0.0
 11
12.0
 21
9.0
 12
0.0
 22
0.0
 32
0.0
 14
1.000000000000000E+20
 24
1.000000000000000E+20
 34
1.000000000000000E+20
 15
-1.000000000000000E+20
 25
-1.000000000000000E+20
 35
-1.000000000000000E+20
146
0.0
 13
0.0
 23
0.0
 33
0.0
 16
1.0
 26
0.0
 36
0.0
 17
0.0
 27
1.0
 37
0.0
 76
     0
330
E
  0
MLINESTYLE
  5
32
102
{ACAD_REACTORS
330
2E
102
}
330
2E
100
AcDbMlineStyle
  2
STANDARD
 70
     0
  3

 62
   256
 51
90.0
 52
90.0
 71
     2
 49
0.5
 62
   256
  6
BYLAYER
 49
-0.5
 62
   256
  6
BYLAYER
  0
ACDBPLACEHOLDER
  5
7
102
{ACAD_REACTORS
330
8
102
}
330
8
  0
XRECORD
  5
3E1
102
{ACAD_REACTORS
330
3DF
102
}
330
3DF
100
AcDbXrecord
280
     1
340
31
  0
XRECORD
  5
3E0
102
{ACAD_REACTORS
330
3DF
102
}
330
3DF
100
AcDbXrecord
280
     1
340
30
  0
DICTIONARYVAR
  5
3DC
102
{ACAD_REACTORS
330
3DA
102
}
330
3DA
100
DictionaryVariables
280
     0
  1
1
  0
DICTIONARYVAR
  5
3DB
102
{ACAD_REACTORS
330
3DA
102
}
330
3DA
100
DictionaryVariables
280
     0
  1
1
  0
DICTIONARYVAR
  5
3DD
102
{ACAD_REACTORS
330
3DA
102
}
330
3DA
100
DictionaryVariables
280
     0
  1

  0
XRECORD
  5
39D
102
{ACAD_REACTORS
330
39B
102
}
330
39B
100
AcDbXrecord
280
     1
330
43
330
45
330
2BA
330
2BB
330
2AD
330
2AE
330
21A
330
21B
330
20C
330
20D
330
3AE
330
3AF
330
3BA
330
3BB
330
3C6
330
3C7
330
3D2
330
3D3
  0
DICTIONARY
  5
3E2
330
C
100
AcDbDictionary
280
     1
281
     1
  3
ACAD_XREC_ROUNDTRIP
360
3E3
  0
DICTIONARY
  5
3E4
330
13
100
AcDbDictionary
280
     1
281
     1
  3
ACAD_XREC_ROUNDTRIP
360
3E5
  0
XRECORD
  5
3E3
102
{ACAD_REACTORS
330
3E2
102
}
330
3E2
100
AcDbXrecord
280
     1
102
SHADEPLOT
 70
     0
102
SHADEPLOTRESLEVEL
 70
     2
102
SHADEPLOTCUSTOMDPI
 70
   300
  0
XRECORD
  5
3E5
102
{ACAD_REACTORS
330
3E4
102
}
330
3E4
100
AcDbXrecord
280
     1
102
SHADEPLOT
 70
     0
102
SHADEPLOTRESLEVEL
 70
     2
102
SHADEPLOTCUSTOMDPI
 70
   300
  0
ENDSEC
  0
EOF
