  0
SECTION
  2
HEADER
  9
$ACADVER
  1
AC1015
  9
$ACADMAINTVER
 70
    20
  9
$DWGCODEPAGE
  3
ANSI_932
  9
$INSBASE
 10
129.0
 20
372.4992141396417
 30
0.0
  9
$EXTMIN
 10
-59.56454559090616
 20
-49.83068270706008
 30
-0.0015258207003583
  9
$EXTMAX
 10
65.51596337905857
 20
63.30039920856598
 30
0.0000000349246037
  9
$LIMMIN
 10
-1101.784450318844
 20
-1579.160531687244
  9
$LIMMAX
 10
-508.2420711400536
 20
-1161.440814074914
  9
$ORTHOMODE
 70
     1
  9
$REGENMODE
 70
     1
  9
$FILLMODE
 70
     1
  9
$QTEXTMODE
 70
     0
  9
$MIRRTEXT
 70
     1
  9
$LTSCALE
 40
1.0
  9
$ATTMODE
 70
     1
  9
$TEXTSIZE
 40
3.0
  9
$TRACEWID
 40
0.5
  9
$TEXTSTYLE
  7
STANDARD
  9
$CLAYER
  8
0
  9
$CELTYPE
  6
BYLAYER
  9
$CECOLOR
 62
   256
  9
$CELTSCALE
 40
1.0
  9
$DISPSILH
 70
     0
  9
$DIMSCALE
 40
1.0
  9
$DIMASZ
 40
2.0
  9
$DIMEXO
 40
2.0
  9
$DIMDLI
 40
8.0
  9
$DIMRND
 40
0.0
  9
$DIMDLE
 40
0.0
  9
$DIMEXE
 40
2.0
  9
$DIMTP
 40
0.0
  9
$DIMTM
 40
0.0
  9
$DIMTXT
 40
2.5
  9
$DIMCEN
 40
0.0
  9
$DIMTSZ
 40
0.0
  9
$DIMTOL
 70
     0
  9
$DIMLIM
 70
     0
  9
$DIMTIH
 70
     0
  9
$DIMTOH
 70
     0
  9
$DIMSE1
 70
     0
  9
$DIMSE2
 70
     0
  9
$DIMTAD
 70
     3
  9
$DIMZIN
 70
     0
  9
$DIMBLK
  1

  9
$DIMASO
 70
     1
  9
$DIMSHO
 70
     1
  9
$DIMPOST
  1

  9
$DIMAPOST
  1

  9
$DIMALT
 70
     0
  9
$DIMALTD
 70
     2
  9
$DIMALTF
 40
25.4
  9
$DIMLFAC
 40
1.0
  9
$DIMTOFL
 70
     1
  9
$DIMTVP
 40
0.0
  9
$DIMTIX
 70
     0
  9
$DIMSOXD
 70
     0
  9
$DIMSAH
 70
     1
  9
$DIMBLK1
  1
OPEN30
  9
$DIMBLK2
  1
OPEN30
  9
$DIMSTYLE
  2
STANDARD
  9
$DIMCLRD
 70
     0
  9
$DIMCLRE
 70
     0
  9
$DIMCLRT
 70
     0
  9
$DIMTFAC
 40
1.0
  9
$DIMGAP
 40
0.5
  9
$DIMJUST
 70
     0
  9
$DIMSD1
 70
     0
  9
$DIMSD2
 70
     0
  9
$DIMTOLJ
 70
     1
  9
$DIMTZIN
 70
     0
  9
$DIMALTZ
 70
     0
  9
$DIMALTTZ
 70
     0
  9
$DIMUPT
 70
     0
  9
$DIMDEC
 70
     4
  9
$DIMTDEC
 70
     4
  9
$DIMALTU
 70
     2
  9
$DIMALTTD
 70
     2
  9
$DIMTXSTY
  7
STANDARD
  9
$DIMAUNIT
 70
     0
  9
$DIMADEC
 70
     0
  9
$DIMALTRND
 40
0.0
  9
$DIMAZIN
 70
     0
  9
$DIMDSEP
 70
    46
  9
$DIMATFIT
 70
     3
  9
$DIMFRAC
 70
     0
  9
$DIMLDRBLK
  1
OPEN30
  9
$DIMLUNIT
 70
     2
  9
$DIMLWD
 70
    -2
  9
$DIMLWE
 70
    -2
  9
$DIMTMOVE
 70
     0
  9
$LUNITS
 70
     2
  9
$LUPREC
 70
     4
  9
$SKETCHINC
 40
0.1
  9
$FILLETRAD
 40
0.0
  9
$AUNITS
 70
     0
  9
$AUPREC
 70
     0
  9
$MENU
  1
ACAD
  9
$ELEVATION
 40
0.0
  9
$PELEVATION
 40
0.0
  9
$THICKNESS
 40
0.0
  9
$LIMCHECK
 70
     0
  9
$CHAMFERA
 40
0.0
  9
$CHAMFERB
 40
0.0
  9
$CHAMFERC
 40
0.0
  9
$CHAMFERD
 40
0.0
  9
$SKPOLY
 70
     0
  9
$TDCREATE
 40
2451815.565532581
  9
$TDUCREATE
 40
2451815.190532581
  9
$TDUPDATE
 40
2454643.700637928
  9
$TDUUPDATE
 40
2454643.325637928
  9
$TDINDWG
 40
0.9599715625
  9
$TDUSRTIMER
 40
0.9599715625
  9
$USRTIMER
 70
     1
  9
$ANGBASE
 50
0.0
  9
$ANGDIR
 70
     0
  9
$PDMODE
 70
     0
  9
$PDSIZE
 40
0.0
  9
$PLINEWID
 40
0.0
  9
$SPLFRAME
 70
     0
  9
$SPLINETYPE
 70
     6
  9
$SPLINESEGS
 70
     8
  9
$HANDSEED
  5
1D2
  9
$SURFTAB1
 70
     6
  9
$SURFTAB2
 70
     6
  9
$SURFTYPE
 70
     6
  9
$SURFU
 70
     6
  9
$SURFV
 70
     6
  9
$UCSBASE
  2

  9
$UCSNAME
  2

  9
$UCSORG
 10
0.0
 20
0.0
 30
0.0
  9
$UCSXDIR
 10
1.0
 20
0.0
 30
0.0
  9
$UCSYDIR
 10
0.0
 20
1.0
 30
0.0
  9
$UCSORTHOREF
  2

  9
$UCSORTHOVIEW
 70
     0
  9
$UCSORGTOP
 10
0.0
 20
0.0
 30
0.0
  9
$UCSORGBOTTOM
 10
0.0
 20
0.0
 30
0.0
  9
$UCSORGLEFT
 10
0.0
 20
0.0
 30
0.0
  9
$UCSORGRIGHT
 10
0.0
 20
0.0
 30
0.0
  9
$UCSORGFRONT
 10
0.0
 20
0.0
 30
0.0
  9
$UCSORGBACK
 10
0.0
 20
0.0
 30
0.0
  9
$PUCSBASE
  2

  9
$PUCSNAME
  2

  9
$PUCSORG
 10
0.0
 20
0.0
 30
0.0
  9
$PUCSXDIR
 10
1.0
 20
0.0
 30
0.0
  9
$PUCSYDIR
 10
0.0
 20
1.0
 30
0.0
  9
$PUCSORTHOREF
  2

  9
$PUCSORTHOVIEW
 70
     0
  9
$PUCSORGTOP
 10
0.0
 20
0.0
 30
0.0
  9
$PUCSORGBOTTOM
 10
0.0
 20
0.0
 30
0.0
  9
$PUCSORGLEFT
 10
0.0
 20
0.0
 30
0.0
  9
$PUCSORGRIGHT
 10
0.0
 20
0.0
 30
0.0
  9
$PUCSORGFRONT
 10
0.0
 20
0.0
 30
0.0
  9
$PUCSORGBACK
 10
0.0
 20
0.0
 30
0.0
  9
$USERI1
 70
     0
  9
$USERI2
 70
     0
  9
$USERI3
 70
     0
  9
$USERI4
 70
     0
  9
$USERI5
 70
     0
  9
$USERR1
 40
0.0
  9
$USERR2
 40
0.0
  9
$USERR3
 40
0.0
  9
$USERR4
 40
0.0
  9
$USERR5
 40
0.0
  9
$WORLDVIEW
 70
     1
  9
$SHADEDGE
 70
     3
  9
$SHADEDIF
 70
    70
  9
$TILEMODE
 70
     1
  9
$MAXACTVP
 70
    48
  9
$PINSBASE
 10
0.0
 20
0.0
 30
0.0
  9
$PLIMCHECK
 70
     0
  9
$PEXTMIN
 10
1.000000000000000E+20
 20
1.000000000000000E+20
 30
1.000000000000000E+20
  9
$PEXTMAX
 10
-1.000000000000000E+20
 20
-1.000000000000000E+20
 30
-1.000000000000000E+20
  9
$PLIMMIN
 10
0.0
 20
0.0
  9
$PLIMMAX
 10
12.0
 20
9.0
  9
$UNITMODE
 70
     0
  9
$VISRETAIN
 70
     1
  9
$PLINEGEN
 70
     0
  9
$PSLTSCALE
 70
     1
  9
$TREEDEPTH
 70
  3020
  9
$CMLSTYLE
  2
STANDARD
  9
$CMLJUST
 70
     0
  9
$CMLSCALE
 40
1.0
  9
$PROXYGRAPHICS
 70
     1
  9
$MEASUREMENT
 70
     0
  9
$CELWEIGHT
370
    -1
  9
$ENDCAPS
280
     0
  9
$JOINSTYLE
280
     0
  9
$LWDISPLAY
290
     0
  9
$INSUNITS
 70
     0
  9
$HYPERLINKBASE
  1

  9
$STYLESHEET
  1

  9
$XEDIT
290
     1
  9
$CEPSNTYPE
380
     0
  9
$PSTYLEMODE
290
     1
  9
$FINGERPRINTGUID
  2
{1754B7AB-9B3C-11D4-AD9E-00104B1004F2}
  9
$VERSIONGUID
  2
{852A4AA4-1881-4615-ADE0-EB6EAA0F248C}
  9
$EXTNAMES
290
     1
  9
$PSVPSCALE
 40
0.0
  9
$OLESTARTUP
290
     0
  0
ENDSEC
  0
SECTION
  2
CLASSES
  0
CLASS
  1
ACDBDICTIONARYWDFLT
  2
AcDbDictionaryWithDefault
  3
ObjectDBX Classes
 90
        0
280
     0
281
     0
  0
CLASS
  1
ACDBPLACEHOLDER
  2
AcDbPlaceHolder
  3
ObjectDBX Classes
 90
        0
280
     0
281
     0
  0
CLASS
  1
LAYOUT
  2
AcDbLayout
  3
ObjectDBX Classes
 90
        0
280
     0
281
     0
  0
CLASS
  1
DICTIONARYVAR
  2
AcDbDictionaryVar
  3
ObjectDBX Classes
 90
        0
280
     0
281
     0
  0
CLASS
  1
SORTENTSTABLE
  2
AcDbSortentsTable
  3
ObjectDBX Classes
 90
    32768
280
     0
281
     0
  0
ENDSEC
  0
SECTION
  2
TABLES
  0
TABLE
  2
VPORT
  5
20
330
0
100
AcDbSymbolTable
 70
     3
  0
VPORT
  5
1CA
330
20
100
AcDbSymbolTableRecord
100
AcDbViewportTableRecord
  2
*Active
 70
     0
 10
0.0
 20
0.0
 11
1.0
 21
1.0
 12
2.975708894076198
 22
6.734858250752949
 13
0.0
 23
0.0
 14
1.0
 24
1.0
 15
0.0
 25
0.0
 16
0.0
 26
0.0
 36
1.0
 17
0.0
 27
0.0
 37
0.0
 40
114.025398768714
 41
1.439313984168865
 42
50.0
 43
0.0
 44
0.0
 50
0.0
 51
0.0
 71
     0
 72
 10000
 73
     1
 74
     0
 75
     0
 76
     1
 77
     0
 78
     0
281
     0
 65
     1
110
0.0
120
0.0
130
0.0
111
1.0
121
0.0
131
0.0
112
0.0
122
1.0
132
0.0
 79
     0
146
0.0
  0
ENDTAB
  0
TABLE
  2
LTYPE
  5
1B
330
0
100
AcDbSymbolTable
 70
     2
  0
LTYPE
  5
1C
330
1B
100
AcDbSymbolTableRecord
100
AcDbLinetypeTableRecord
  2
BYBLOCK
 70
     0
  3

 72
    65
 73
     0
 40
0.0
  0
LTYPE
  5
1D
330
1B
100
AcDbSymbolTableRecord
100
AcDbLinetypeTableRecord
  2
BYLAYER
 70
     0
  3

 72
    65
 73
     0
 40
0.0
  0
LTYPE
  5
A
330
1B
100
AcDbSymbolTableRecord
100
AcDbLinetypeTableRecord
  2
CONTINUOUS
 70
     0
  3
Solid line
 72
    65
 73
     0
 40
0.0
  0
LTYPE
  5
40
330
1B
100
AcDbSymbolTableRecord
100
AcDbLinetypeTableRecord
  2
CENTER
 70
     0
  3
Center ____ _ ____ _ ____ _ ____ _ ____ _ ____
 72
    65
 73
     4
 40
50.8
 49
31.75
 74
     0
 49
-6.349999999999999
 74
     0
 49
6.349999999999999
 74
     0
 49
-6.349999999999999
 74
     0
  0
ENDTAB
  0
TABLE
  2
LAYER
  5
14
102
{ACAD_XDICTIONARY
360
15
102
}
330
0
100
AcDbSymbolTable
 70
     7
  0
LAYER
  5
6
330
14
100
AcDbSymbolTableRecord
100
AcDbLayerTableRecord
  2
0
 70
     0
 62
     7
  6
CONTINUOUS
370
    -3
390
7
  0
LAYER
  5
147
330
14
100
AcDbSymbolTableRecord
100
AcDbLayerTableRecord
  2
DEFPOINTS
 70
     0
 62
     7
  6
CONTINUOUS
290
     0
370
    -3
390
7
  0
LAYER
  5
16F
330
14
100
AcDbSymbolTableRecord
100
AcDbLayerTableRecord
  2
WAKU
 70
     0
 62
     4
  6
CONTINUOUS
370
    -3
390
7
  0
LAYER
  5
169
330
14
100
AcDbSymbolTableRecord
100
AcDbLayerTableRecord
  2
MOJI1
 70
     0
 62
     2
  6
CONTINUOUS
370
    -3
390
7
  0
LAYER
  5
36
330
14
100
AcDbSymbolTableRecord
100
AcDbLayerTableRecord
  2
GAIKEI
 70
     0
 62
     7
  6
CONTINUOUS
370
    -3
390
7
  0
LAYER
  5
13D
330
14
100
AcDbSymbolTableRecord
100
AcDbLayerTableRecord
  2
SUNPO
 70
     0
 62
     3
  6
CONTINUOUS
370
    -3
390
7
  0
LAYER
  5
34
330
14
100
AcDbSymbolTableRecord
100
AcDbLayerTableRecord
  2
TOUROKU
 70
     0
 62
     1
  6
CONTINUOUS
370
    -3
390
7
  0
ENDTAB
  0
TABLE
  2
STYLE
  5
18
330
0
100
AcDbSymbolTable
 70
     1
  0
STYLE
  5
19
330
18
100
AcDbSymbolTableRecord
100
AcDbTextStyleTableRecord
  2
STANDARD
 70
     0
 40
0.0
 41
1.0
 50
0.0
 71
     0
 42
3.0
  3
MONOTXT.shx
  4
BIGFONT.shx
  0
ENDTAB
  0
TABLE
  2
VIEW
  5
1E
330
0
100
AcDbSymbolTable
 70
     0
  0
ENDTAB
  0
TABLE
  2
UCS
  5
1F
330
0
100
AcDbSymbolTable
 70
     0
  0
ENDTAB
  0
TABLE
  2
APPID
  5
22
330
0
100
AcDbSymbolTable
 70
     2
  0
APPID
  5
23
330
22
100
AcDbSymbolTableRecord
100
AcDbRegAppTableRecord
  2
ACAD
 70
     0
  0
APPID
  5
192
330
22
100
AcDbSymbolTableRecord
100
AcDbRegAppTableRecord
  2
DCO15
 70
     0
  0
ENDTAB
  0
TABLE
  2
DIMSTYLE
  5
24
330
0
100
AcDbSymbolTable
 70
     1
100
AcDbDimStyleTable
 71
     1
340
25
  0
DIMSTYLE
105
25
102
{ACAD_REACTORS
330
158
330
14B
330
13C
102
}
330
24
100
AcDbSymbolTableRecord
100
AcDbDimStyleTableRecord
  2
STANDARD
 70
     0
 40
0.0
 41
2.0
 42
2.0
 43
8.0
 44
2.0
 73
     0
 74
     0
 77
     3
140
3.0
141
0.0
173
     1
279
     2
288
     1
340
19
341
26
343
26
344
26
  0
ENDTAB
  0
TABLE
  2
BLOCK_RECORD
  5
1
330
0
100
AcDbSymbolTable
 70
     7
  0
BLOCK_RECORD
  5
2
102
{ACAD_XDICTIONARY
360
3
102
}
330
1
100
AcDbSymbolTableRecord
100
AcDbBlockTableRecord
  2
*MODEL_SPACE
340
C
  0
BLOCK_RECORD
  5
E
102
{ACAD_XDICTIONARY
360
F
102
}
330
1
100
AcDbSymbolTableRecord
100
AcDbBlockTableRecord
  2
*PAPER_SPACE
340
13
  0
BLOCK_RECORD
  5
26
330
1
100
AcDbSymbolTableRecord
100
AcDbBlockTableRecord
  2
_OPEN30
340
0
102
{BLKREFS
331
151
331
152
331
160
331
161
331
143
331
144
331
1A6
331
1A7
331
1B2
331
1B3
331
1BE
331
1BF
102
}
  0
BLOCK_RECORD
  5
159
330
1
100
AcDbSymbolTableRecord
100
AcDbBlockTableRecord
  2
*D1
340
0
  0
BLOCK_RECORD
  5
14C
330
1
100
AcDbSymbolTableRecord
100
AcDbBlockTableRecord
  2
*D2
340
0
  0
BLOCK_RECORD
  5
13E
330
1
100
AcDbSymbolTableRecord
100
AcDbBlockTableRecord
  2
*D3
340
0
  0
BLOCK_RECORD
  5
1A0
330
1
100
AcDbSymbolTableRecord
100
AcDbBlockTableRecord
  2
*D4
340
0
  0
BLOCK_RECORD
  5
1AE
330
1
100
AcDbSymbolTableRecord
100
AcDbBlockTableRecord
  2
*D5
340
0
  0
BLOCK_RECORD
  5
1BA
330
1
100
AcDbSymbolTableRecord
100
AcDbBlockTableRecord
  2
*D6
340
0
  0
ENDTAB
  0
ENDSEC
  0
SECTION
  2
BLOCKS
  0
BLOCK
  5
5
330
2
100
AcDbEntity
  8
0
100
AcDbBlockBegin
  2
*MODEL_SPACE
 70
     0
 10
0.0
 20
0.0
 30
0.0
  3
*MODEL_SPACE
  1

  0
ENDBLK
  5
B
330
2
100
AcDbEntity
  8
0
100
AcDbBlockEnd
  0
BLOCK
  5
11
330
E
100
AcDbEntity
 67
     1
  8
0
100
AcDbBlockBegin
  2
*PAPER_SPACE
 70
     0
 10
0.0
 20
0.0
 30
0.0
  3
*PAPER_SPACE
  1

  0
ENDBLK
  5
12
330
E
100
AcDbEntity
 67
     1
  8
0
100
AcDbBlockEnd
  0
BLOCK
  5
27
330
26
100
AcDbEntity
  8
0
100
AcDbBlockBegin
  2
_OPEN30
 70
     0
 10
0.0
 20
0.0
 30
0.0
  3
_OPEN30
  1

  0
LINE
  5
28
330
26
100
AcDbEntity
  8
0
  6
ByBlock
 62
     0
100
AcDbLine
 10
-1.0
 20
0.26794919
 30
0.0
 11
0.0
 21
0.0
 31
0.0
  0
LINE
  5
29
330
26
100
AcDbEntity
  8
0
  6
ByBlock
 62
     0
100
AcDbLine
 10
0.0
 20
0.0
 30
0.0
 11
-1.0
 21
-0.26794919
 31
0.0
  0
LINE
  5
2A
330
26
100
AcDbEntity
  8
0
  6
ByBlock
 62
     0
100
AcDbLine
 10
0.0
 20
0.0
 30
0.0
 11
-1.0
 21
0.0
 31
0.0
  0
ENDBLK
  5
2B
330
26
100
AcDbEntity
  8
0
100
AcDbBlockEnd
  0
BLOCK
  5
15A
330
159
100
AcDbEntity
  8
0
100
AcDbBlockBegin
  2
*D1
 70
     1
 10
0.0
 20
0.0
 30
0.0
  3
*D1
  1

  0
LINE
  5
15B
330
159
100
AcDbEntity
  8
SUNPO
 62
     0
370
    -2
100
AcDbLine
 10
223.6712993903886
 20
342.5480728916253
 30
0.0
 11
223.6712993903886
 21
350.5480728916253
 31
0.0
  0
LINE
  5
15C
330
159
100
AcDbEntity
  8
SUNPO
 62
     0
370
    -2
100
AcDbLine
 10
226.9712993900586
 20
342.5480728916253
 30
0.0
 11
226.9712993900586
 21
350.5480728916253
 31
0.0
  0
LINE
  5
15D
330
159
100
AcDbEntity
  8
SUNPO
 62
     0
370
    -2
100
AcDbLine
 10
221.6712993903886
 20
348.5480728916253
 30
0.0
 11
219.6712993903886
 21
348.5480728916253
 31
0.0
  0
LINE
  5
15E
330
159
100
AcDbEntity
  8
SUNPO
 62
     0
370
    -2
100
AcDbLine
 10
228.9712993900586
 20
348.5480728916253
 30
0.0
 11
236.1379660567253
 21
348.5480728916253
 31
0.0
  0
LINE
  5
15F
330
159
100
AcDbEntity
  8
SUNPO
 62
     0
370
    -2
100
AcDbLine
 10
223.6712993903886
 20
348.5480728916253
 30
0.0
 11
226.9712993900586
 21
348.5480728916253
 31
0.0
  0
INSERT
  5
160
330
159
100
AcDbEntity
  8
SUNPO
 62
     0
370
    -2
100
AcDbBlockReference
  2
_OPEN30
 10
223.6712993903886
 20
348.5480728916253
 30
0.0
 41
2.0
 42
2.0
 43
2.0
  0
INSERT
  5
161
330
159
100
AcDbEntity
  8
SUNPO
 62
     0
370
    -2
100
AcDbBlockReference
  2
_OPEN30
 10
226.9712993900586
 20
348.5480728916253
 30
0.0
 41
2.0
 42
2.0
 43
2.0
 50
180.0
  0
MTEXT
  5
162
330
159
100
AcDbEntity
  8
SUNPO
 62
     0
100
AcDbMText
 10
233.554632723392
 20
350.2980728916253
 30
0.0
 40
2.5
 41
0.0
 71
     5
 72
     1
  1
\A1;99
 73
     1
 44
1.0
1001
ACAD
1000
MTEXTBEGIN
1070
    73
1070
     1
1070
    44
1040
1.0
1070
    74
1070
     0
1000
MTEXTEND
  0
POINT
  5
163
330
159
100
AcDbEntity
  8
DEFPOINTS
 62
     0
100
AcDbPoint
 10
223.6712993903886
 20
340.5480728916253
 30
0.0
  0
POINT
  5
164
330
159
100
AcDbEntity
  8
DEFPOINTS
 62
     0
100
AcDbPoint
 10
226.9712993900586
 20
340.5480728916253
 30
0.0
  0
POINT
  5
165
330
159
100
AcDbEntity
  8
DEFPOINTS
 62
     0
100
AcDbPoint
 10
226.9712993900586
 20
348.5480728916253
 30
0.0
  0
ENDBLK
  5
166
330
159
100
AcDbEntity
  8
0
100
AcDbBlockEnd
  0
BLOCK
  5
14D
330
14C
100
AcDbEntity
  8
0
100
AcDbBlockBegin
  2
*D2
 70
     1
 10
0.0
 20
0.0
 30
0.0
  3
*D2
  1

  0
LINE
  5
14E
330
14C
100
AcDbEntity
  8
SUNPO
 62
     0
370
    -2
100
AcDbLine
 10
149.2913237329522
 20
342.5480728916253
 30
0.0
 11
149.2913237329522
 21
350.5480728916253
 31
0.0
  0
LINE
  5
14F
330
14C
100
AcDbEntity
  8
SUNPO
 62
     0
370
    -2
100
AcDbLine
 10
201.0913237277722
 20
342.5480728916253
 30
0.0
 11
201.0913237277722
 21
350.5480728916253
 31
0.0
  0
LINE
  5
150
330
14C
100
AcDbEntity
  8
SUNPO
 62
     0
370
    -2
100
AcDbLine
 10
151.2913237329522
 20
348.5480728916253
 30
0.0
 11
199.0913237277722
 21
348.5480728916253
 31
0.0
  0
INSERT
  5
151
330
14C
100
AcDbEntity
  8
SUNPO
 62
     0
370
    -2
100
AcDbBlockReference
  2
_OPEN30
 10
149.2913237329522
 20
348.5480728916253
 30
0.0
 41
2.0
 42
2.0
 43
2.0
 50
180.0
  0
INSERT
  5
152
330
14C
100
AcDbEntity
  8
SUNPO
 62
     0
370
    -2
100
AcDbBlockReference
  2
_OPEN30
 10
201.0913237277722
 20
348.5480728916253
 30
0.0
 41
2.0
 42
2.0
 43
2.0
  0
MTEXT
  5
153
330
14C
100
AcDbEntity
  8
SUNPO
 62
     0
100
AcDbMText
 10
175.1913237303622
 20
350.2980728916253
 30
0.0
 40
2.5
 41
0.0
 71
     5
 72
     1
  1
\A1;1554
 73
     1
 44
1.0
1001
ACAD
1000
MTEXTBEGIN
1070
    73
1070
     1
1070
    44
1040
1.0
1070
    74
1070
     0
1000
MTEXTEND
  0
POINT
  5
154
330
14C
100
AcDbEntity
  8
DEFPOINTS
 62
     0
100
AcDbPoint
 10
149.2913237329522
 20
340.5480728916253
 30
0.0
  0
POINT
  5
155
330
14C
100
AcDbEntity
  8
DEFPOINTS
 62
     0
100
AcDbPoint
 10
201.0913237277722
 20
340.5480728916253
 30
0.0
  0
POINT
  5
156
330
14C
100
AcDbEntity
  8
DEFPOINTS
 62
     0
100
AcDbPoint
 10
201.0913237277722
 20
348.5480728916253
 30
0.0
  0
ENDBLK
  5
157
330
14C
100
AcDbEntity
  8
0
100
AcDbBlockEnd
  0
BLOCK
  5
13F
330
13E
100
AcDbEntity
  8
0
100
AcDbBlockBegin
  2
*D3
 70
     1
 10
0.0
 20
0.0
 30
0.0
  3
*D3
  1

  0
LINE
  5
140
330
13E
100
AcDbEntity
  8
SUNPO
 62
     0
370
    -2
100
AcDbLine
 10
206.7361930084944
 20
309.714740028042
 30
0.0
 11
214.7361930084944
 21
309.714740028042
 31
0.0
  0
LINE
  5
141
330
13E
100
AcDbEntity
  8
SUNPO
 62
     0
370
    -2
100
AcDbLine
 10
206.7361930084944
 20
340.5480728916253
 30
0.0
 11
214.7361930084944
 21
340.5480728916253
 31
0.0
  0
LINE
  5
142
330
13E
100
AcDbEntity
  8
SUNPO
 62
     0
370
    -2
100
AcDbLine
 10
212.7361930084944
 20
311.714740028042
 30
0.0
 11
212.7361930084944
 21
338.5480728916253
 31
0.0
  0
INSERT
  5
143
330
13E
100
AcDbEntity
  8
SUNPO
 62
     0
370
    -2
100
AcDbBlockReference
  2
_OPEN30
 10
212.7361930084944
 20
309.714740028042
 30
0.0
 41
2.0
 42
2.0
 43
2.0
 50
270.0
  0
INSERT
  5
144
330
13E
100
AcDbEntity
  8
SUNPO
 62
     0
370
    -2
100
AcDbBlockReference
  2
_OPEN30
 10
212.7361930084944
 20
340.5480728916253
 30
0.0
 41
2.0
 42
2.0
 43
2.0
 50
90.0
  0
MTEXT
  5
145
330
13E
100
AcDbEntity
  8
SUNPO
 62
     0
100
AcDbMText
 10
210.9861930084944
 20
325.1314064598337
 30
0.0
 40
2.5
 41
0.0
 71
     5
 72
     1
  1
\A1;925
 11
0.0000000000000001
 21
1.0
 31
0.0
 73
     1
 44
1.0
1001
ACAD
1000
MTEXTBEGIN
1070
    73
1070
     1
1070
    44
1040
1.0
1070
    74
1070
     0
1000
MTEXTEND
  0
POINT
  5
146
330
13E
100
AcDbEntity
  8
DEFPOINTS
 62
     0
100
AcDbPoint
 10
204.7361930084944
 20
309.714740028042
 30
0.0
  0
POINT
  5
148
330
13E
100
AcDbEntity
  8
DEFPOINTS
 62
     0
100
AcDbPoint
 10
204.7361930084944
 20
340.5480728916253
 30
0.0
  0
POINT
  5
149
330
13E
100
AcDbEntity
  8
DEFPOINTS
 62
     0
100
AcDbPoint
 10
212.7361930084944
 20
340.5480728916253
 30
0.0
  0
ENDBLK
  5
14A
330
13E
100
AcDbEntity
  8
0
100
AcDbBlockEnd
  0
BLOCK
  5
1AC
330
1A0
100
AcDbEntity
  8
0
100
AcDbBlockBegin
  2
*D4
 70
     1
 10
0.0
 20
0.0
 30
0.0
  3
*D4
  1

  0
LINE
  5
1A1
330
1A0
100
AcDbEntity
  8
SUNPO
 62
     0
370
    -2
100
AcDbLine
 10
33.11218592346739
 20
35.24274665724613
 30
0.0
 11
33.11218592346739
 21
43.24274665724607
 31
0.0
  0
LINE
  5
1A2
330
1A0
100
AcDbEntity
  8
SUNPO
 62
     0
370
    -2
100
AcDbLine
 10
36.41218592313743
 20
35.24274665724613
 30
0.0
 11
36.41218592313743
 21
43.24274665724607
 31
0.0
  0
LINE
  5
1A3
330
1A0
100
AcDbEntity
  8
SUNPO
 62
     0
370
    -2
100
AcDbLine
 10
31.1121859234674
 20
41.24274665724607
 30
0.0
 11
29.1121859234674
 21
41.24274665724607
 31
0.0
  0
LINE
  5
1A4
330
1A0
100
AcDbEntity
  8
SUNPO
 62
     0
370
    -2
100
AcDbLine
 10
38.41218592313743
 20
41.24274665724607
 30
0.0
 11
45.57885258980409
 21
41.24274665724607
 31
0.0
  0
LINE
  5
1A5
330
1A0
100
AcDbEntity
  8
SUNPO
 62
     0
370
    -2
100
AcDbLine
 10
33.11218592346739
 20
41.24274665724607
 30
0.0
 11
36.41218592313743
 21
41.24274665724607
 31
0.0
  0
INSERT
  5
1A6
330
1A0
100
AcDbEntity
  8
SUNPO
 62
     0
370
    -2
100
AcDbBlockReference
  2
_OPEN30
 10
33.11218592346739
 20
41.24274665724607
 30
0.0
 41
2.0
 42
2.0
 43
2.0
  0
INSERT
  5
1A7
330
1A0
100
AcDbEntity
  8
SUNPO
 62
     0
370
    -2
100
AcDbBlockReference
  2
_OPEN30
 10
36.41218592313743
 20
41.24274665724607
 30
0.0
 41
2.0
 42
2.0
 43
2.0
 50
180.0
  0
MTEXT
  5
1A8
330
1A0
100
AcDbEntity
  8
SUNPO
 62
     0
100
AcDbMText
 10
42.99551925647076
 20
42.99274665724607
 30
0.0
 40
2.5
 41
0.0
 71
     5
 72
     1
  1
\A1;99
 73
     1
 44
1.0
1001
ACAD
1000
MTEXTBEGIN
1070
    73
1070
     1
1070
    44
1040
1.0
1070
    74
1070
     0
1000
MTEXTEND
  0
POINT
  5
1A9
330
1A0
100
AcDbEntity
  8
DEFPOINTS
 62
     0
100
AcDbPoint
 10
33.11218592346739
 20
33.24274665724613
 30
0.0
  0
POINT
  5
1AA
330
1A0
100
AcDbEntity
  8
DEFPOINTS
 62
     0
100
AcDbPoint
 10
36.41218592313743
 20
33.24274665724613
 30
0.0
  0
POINT
  5
1AB
330
1A0
100
AcDbEntity
  8
DEFPOINTS
 62
     0
100
AcDbPoint
 10
36.41218592313743
 20
41.24274665724607
 30
0.0
  0
ENDBLK
  5
1AD
330
1A0
100
AcDbEntity
  8
0
100
AcDbBlockEnd
  0
BLOCK
  5
1B8
330
1AE
100
AcDbEntity
  8
0
100
AcDbBlockBegin
  2
*D5
 70
     1
 10
0.0
 20
0.0
 30
0.0
  3
*D5
  1

  0
LINE
  5
1AF
330
1AE
100
AcDbEntity
  8
SUNPO
 62
     0
370
    -2
100
AcDbLine
 10
-41.26778973396898
 20
35.24274665724613
 30
0.0
 11
-41.26778973396898
 21
43.24274665724607
 31
0.0
  0
LINE
  5
1B0
330
1AE
100
AcDbEntity
  8
SUNPO
 62
     0
370
    -2
100
AcDbLine
 10
10.53221026085106
 20
35.24274665724613
 30
0.0
 11
10.53221026085106
 21
43.24274665724607
 31
0.0
  0
LINE
  5
1B1
330
1AE
100
AcDbEntity
  8
SUNPO
 62
     0
370
    -2
100
AcDbLine
 10
-39.26778973396898
 20
41.24274665724607
 30
0.0
 11
8.532210260851059
 21
41.24274665724607
 31
0.0
  0
INSERT
  5
1B2
330
1AE
100
AcDbEntity
  8
SUNPO
 62
     0
370
    -2
100
AcDbBlockReference
  2
_OPEN30
 10
-41.26778973396898
 20
41.24274665724607
 30
0.0
 41
2.0
 42
2.0
 43
2.0
 50
180.0
  0
INSERT
  5
1B3
330
1AE
100
AcDbEntity
  8
SUNPO
 62
     0
370
    -2
100
AcDbBlockReference
  2
_OPEN30
 10
10.53221026085106
 20
41.24274665724607
 30
0.0
 41
2.0
 42
2.0
 43
2.0
  0
MTEXT
  5
1B4
330
1AE
100
AcDbEntity
  8
SUNPO
 62
     0
100
AcDbMText
 10
-15.36778973655896
 20
42.99274665724607
 30
0.0
 40
2.5
 41
0.0
 71
     5
 72
     1
  1
\A1;1554
 73
     1
 44
1.0
1001
ACAD
1000
MTEXTBEGIN
1070
    73
1070
     1
1070
    44
1040
1.0
1070
    74
1070
     0
1000
MTEXTEND
  0
POINT
  5
1B5
330
1AE
100
AcDbEntity
  8
DEFPOINTS
 62
     0
100
AcDbPoint
 10
-41.26778973396898
 20
33.24274665724613
 30
0.0
  0
POINT
  5
1B6
330
1AE
100
AcDbEntity
  8
DEFPOINTS
 62
     0
100
AcDbPoint
 10
10.53221026085106
 20
33.24274665724613
 30
0.0
  0
POINT
  5
1B7
330
1AE
100
AcDbEntity
  8
DEFPOINTS
 62
     0
100
AcDbPoint
 10
10.53221026085106
 20
41.24274665724607
 30
0.0
  0
ENDBLK
  5
1B9
330
1AE
100
AcDbEntity
  8
0
100
AcDbBlockEnd
  0
BLOCK
  5
1C4
330
1BA
100
AcDbEntity
  8
0
100
AcDbBlockBegin
  2
*D6
 70
     1
 10
0.0
 20
0.0
 30
0.0
  3
*D6
  1

  0
LINE
  5
1BB
330
1BA
100
AcDbEntity
  8
SUNPO
 62
     0
370
    -2
100
AcDbLine
 10
16.17707954157316
 20
2.409413793662792
 30
0.0
 11
24.17707954157322
 21
2.40941379366279
 31
0.0
  0
LINE
  5
1BC
330
1BA
100
AcDbEntity
  8
SUNPO
 62
     0
370
    -2
100
AcDbLine
 10
16.17707954157316
 20
33.24274665724612
 30
0.0
 11
24.17707954157322
 21
33.24274665724612
 31
0.0
  0
LINE
  5
1BD
330
1BA
100
AcDbEntity
  8
SUNPO
 62
     0
370
    -2
100
AcDbLine
 10
22.17707954157321
 20
4.40941379366279
 30
0.0
 11
22.17707954157322
 21
31.24274665724613
 31
0.0
  0
INSERT
  5
1BE
330
1BA
100
AcDbEntity
  8
SUNPO
 62
     0
370
    -2
100
AcDbBlockReference
  2
_OPEN30
 10
22.17707954157321
 20
2.40941379366279
 30
0.0
 41
2.0
 42
2.0
 43
2.0
 50
270.0
  0
INSERT
  5
1BF
330
1BA
100
AcDbEntity
  8
SUNPO
 62
     0
370
    -2
100
AcDbBlockReference
  2
_OPEN30
 10
22.17707954157322
 20
33.24274665724612
 30
0.0
 41
2.0
 42
2.0
 43
2.0
 50
90.0
  0
MTEXT
  5
1C0
330
1BA
100
AcDbEntity
  8
SUNPO
 62
     0
100
AcDbMText
 10
20.42707954157322
 20
17.82608022545446
 30
0.0
 40
2.5
 41
0.0
 71
     5
 72
     1
  1
\A1;925
 11
0.0000000000000001
 21
1.0
 31
0.0
 73
     1
 44
1.0
1001
ACAD
1000
MTEXTBEGIN
1070
    73
1070
     1
1070
    44
1040
1.0
1070
    74
1070
     0
1000
MTEXTEND
  0
POINT
  5
1C1
330
1BA
100
AcDbEntity
  8
DEFPOINTS
 62
     0
100
AcDbPoint
 10
14.17707954157316
 20
2.409413793662793
 30
0.0
  0
POINT
  5
1C2
330
1BA
100
AcDbEntity
  8
DEFPOINTS
 62
     0
100
AcDbPoint
 10
14.17707954157316
 20
33.24274665724613
 30
0.0
  0
POINT
  5
1C3
330
1BA
100
AcDbEntity
  8
DEFPOINTS
 62
     0
100
AcDbPoint
 10
22.17707954157322
 20
33.24274665724612
 30
0.0
  0
ENDBLK
  5
1C5
330
1BA
100
AcDbEntity
  8
0
100
AcDbBlockEnd
  0
ENDSEC
  0
SECTION
  2
ENTITIES
  0
TEXT
  5
33
330
2
100
AcDbEntity
  8
TOUROKU
100
AcDbText
 10
40.97434795949346
 20
2.446067102462734
 30
0.0
 40
1.5
  1
Ｓ＝１／３０
 41
0.7
 72
     2
 11
48.04434795949345
 21
2.446067102462734
 31
0.0
100
AcDbText
  0
LINE
  5
35
330
2
100
AcDbEntity
  8
GAIKEI
  6
Continuous
 62
     1
100
AcDbLine
 10
-41.60172760060226
 20
2.594080426977541
 30
0.0
 11
-41.60172760060226
 21
33.06434512393054
 31
0.0
  0
LINE
  5
37
330
2
100
AcDbEntity
  8
GAIKEI
  6
Continuous
 62
     1
100
AcDbLine
 10
-41.26778973396898
 20
32.78766935729152
 30
0.0
 11
-41.60172760060226
 21
32.78766935729158
 31
0.0
  0
LINE
  5
38
330
2
100
AcDbEntity
  8
GAIKEI
  6
Continuous
 62
     1
100
AcDbLine
 10
-41.26778973396898
 20
33.06434512393059
 30
0.0
 11
-41.60172760060226
 21
33.06434512393054
 31
0.0
  0
LINE
  5
39
330
2
100
AcDbEntity
  8
GAIKEI
  6
Continuous
 62
     1
100
AcDbLine
 10
-41.60376400060203
 20
2.608055826976112
 30
0.0
 11
-41.60376400060203
 21
33.05036972393191
 31
0.0
  0
LINE
  5
3A
330
2
100
AcDbEntity
  8
GAIKEI
  6
Continuous
 62
     1
100
AcDbLine
 10
-41.82043066724708
 20
2.825636060287649
 30
0.0
 11
-41.82043066724708
 21
32.83278949062026
 31
0.0
  0
LINE
  5
3B
330
2
100
AcDbEntity
  8
GAIKEI
  6
Continuous
 62
     1
100
AcDbLine
 10
-44.62987713363276
 20
2.825636060287649
 30
0.0
 11
-44.62987713363276
 21
32.83278949062026
 31
0.0
  0
LINE
  5
3C
330
2
100
AcDbEntity
  8
GAIKEI
  6
Continuous
100
AcDbLine
 10
-44.91396936693763
 20
33.18207735725207
 30
0.0
 11
-44.91396936693763
 21
2.47621799365595
 31
0.0
  0
LINE
  5
3D
330
2
100
AcDbEntity
  8
GAIKEI
  6
Continuous
 62
     1
100
AcDbLine
 10
-44.84745733361097
 20
2.608055826976112
 30
0.0
 11
-44.84745733361097
 21
33.05036972393191
 31
0.0
  0
LINE
  5
3E
330
2
100
AcDbEntity
  8
GAIKEI
  6
Continuous
 62
     1
100
AcDbLine
 10
-44.62987713363276
 20
2.824338660287821
 30
0.0
 11
-44.62987713363276
 21
32.83149209062043
 31
0.0
  0
ARC
  5
3F
330
2
100
AcDbEntity
  8
GAIKEI
  6
CENTER
 62
     1
100
AcDbCircle
 10
-44.49654380031279
 20
32.83278949062026
 30
0.0
 40
0.13333333332
100
AcDbArc
 50
90.0
 51
180.0
  0
LINE
  5
41
330
2
100
AcDbEntity
  8
GAIKEI
  6
Continuous
100
AcDbLine
 10
-44.84730270027774
 20
33.24874402391202
 30
0.0
 11
-41.64808396726425
 21
33.24874402391202
 31
0.0
  0
LINE
  5
42
330
2
100
AcDbEntity
  8
GAIKEI
  6
Continuous
 62
     1
100
AcDbLine
 10
-41.73709733392207
 20
33.18370305725199
 30
0.0
 11
-44.71412400029106
 21
33.18370305725199
 31
0.0
  0
ARC
  5
43
330
2
100
AcDbEntity
  8
GAIKEI
  6
Continuous
100
AcDbCircle
 10
-44.84730270027774
 20
33.18207735725207
 30
0.0
 40
0.06666666666
100
AcDbArc
 50
90.0
 51
180.0
  0
ARC
  5
44
330
2
100
AcDbEntity
  8
GAIKEI
  6
Continuous
 62
     1
100
AcDbCircle
 10
-44.71412400029106
 20
33.05036972393191
 30
0.0
 40
0.13333333332
100
AcDbArc
 50
90.0
 51
180.0
  0
ARC
  5
45
330
2
100
AcDbEntity
  8
GAIKEI
  6
Continuous
 62
     1
100
AcDbCircle
 10
-41.73709733392207
 20
33.05036972393191
 30
0.0
 40
0.13333333332
100
AcDbArc
 50
0.0
 51
90.0
  0
ARC
  5
46
330
2
100
AcDbEntity
  8
GAIKEI
  6
CENTER
 62
     1
100
AcDbCircle
 10
-41.9537640005671
 20
32.83278949062026
 30
0.0
 40
0.13333333332
100
AcDbArc
 50
0.0
 51
90.0
  0
LINE
  5
47
330
2
100
AcDbEntity
  8
GAIKEI
  6
CENTER
 62
     1
100
AcDbLine
 10
-41.9537640005671
 20
32.96612282394028
 30
0.0
 11
-44.49654380031279
 21
32.96612282394028
 31
0.0
  0
LINE
  5
48
330
2
100
AcDbEntity
  8
GAIKEI
  6
Continuous
100
AcDbLine
 10
-41.58141730060424
 20
33.06434512393054
 30
0.0
 11
-41.58141730060424
 21
33.18207735725207
 31
0.0
  0
ARC
  5
49
330
2
100
AcDbEntity
  8
GAIKEI
  6
Continuous
100
AcDbCircle
 10
-41.64808396726425
 20
33.18207735725207
 30
0.0
 40
0.06666666666
100
AcDbArc
 50
0.0
 51
90.0
  0
LINE
  5
4A
330
2
100
AcDbEntity
  8
GAIKEI
  6
Continuous
 62
     1
100
AcDbLine
 10
-41.26778973396898
 20
2.875633160282689
 30
0.0
 11
-41.60172760060226
 21
2.875633160282745
 31
0.0
  0
LINE
  5
4B
330
2
100
AcDbEntity
  8
GAIKEI
  6
Continuous
 62
     1
100
AcDbLine
 10
-41.26778973396898
 20
2.594080426977541
 30
0.0
 11
-41.60172760060226
 21
2.594080426977541
 31
0.0
  0
LINE
  5
4C
330
2
100
AcDbEntity
  8
GAIKEI
  6
Continuous
100
AcDbLine
 10
-44.84730270027774
 20
2.409551326995995
 30
0.0
 11
-41.64808396726425
 21
2.409551326995995
 31
0.0
  0
LINE
  5
4D
330
2
100
AcDbEntity
  8
GAIKEI
  6
Continuous
 62
     1
100
AcDbLine
 10
-41.73709733392207
 20
2.474722493656088
 30
0.0
 11
-44.71412400029106
 21
2.474722493656088
 31
0.0
  0
ARC
  5
4E
330
2
100
AcDbEntity
  8
GAIKEI
  6
CENTER
 62
     1
100
AcDbCircle
 10
-44.49654380031279
 20
2.825636060287649
 30
0.0
 40
0.13333333332
100
AcDbArc
 50
180.0
 51
270.0
  0
LINE
  5
4F
330
2
100
AcDbEntity
  8
GAIKEI
  6
CENTER
 62
     1
100
AcDbLine
 10
-41.9537640005671
 20
2.692302726967795
 30
0.0
 11
-44.49654380031279
 21
2.692302726967795
 31
0.0
  0
ARC
  5
50
330
2
100
AcDbEntity
  8
GAIKEI
  6
Continuous
100
AcDbCircle
 10
-44.84730270027774
 20
2.47621799365595
 30
0.0
 40
0.06666666666
100
AcDbArc
 50
180.0
 51
270.0
  0
ARC
  5
51
330
2
100
AcDbEntity
  8
GAIKEI
  6
Continuous
 62
     1
100
AcDbCircle
 10
-44.71412400029106
 20
2.608055826976112
 30
0.0
 40
0.13333333332
100
AcDbArc
 50
180.0
 51
270.0
  0
ARC
  5
52
330
2
100
AcDbEntity
  8
GAIKEI
  6
CENTER
 62
     1
100
AcDbCircle
 10
-41.9537640005671
 20
2.825636060287649
 30
0.0
 40
0.13333333332
100
AcDbArc
 50
270.0
 51
0.0
  0
ARC
  5
53
330
2
100
AcDbEntity
  8
GAIKEI
  6
Continuous
100
AcDbCircle
 10
-41.64808396726425
 20
2.47621799365595
 30
0.0
 40
0.06666666666
100
AcDbArc
 50
270.0
 51
0.0
  0
LINE
  5
54
330
2
100
AcDbEntity
  8
GAIKEI
  6
Continuous
100
AcDbLine
 10
-41.58141730060424
 20
2.47621799365595
 30
0.0
 11
-41.58141730060424
 21
2.594080426977484
 31
0.0
  0
ARC
  5
55
330
2
100
AcDbEntity
  8
GAIKEI
  6
Continuous
 62
     1
100
AcDbCircle
 10
-41.73709733392207
 20
2.608055826976112
 30
0.0
 40
0.13333333332
100
AcDbArc
 50
270.0
 51
0.0
  0
LINE
  5
56
330
2
100
AcDbEntity
  8
GAIKEI
  6
Continuous
 62
     1
100
AcDbLine
 10
10.86614812748422
 20
2.594080426977484
 30
0.0
 11
10.86614812748422
 21
33.06434512393054
 31
0.0
  0
LINE
  5
57
330
2
100
AcDbEntity
  8
GAIKEI
  6
Continuous
 62
     1
100
AcDbLine
 10
10.86818452748406
 20
2.608055826976112
 30
0.0
 11
10.86818452748406
 21
33.05036972393191
 31
0.0
  0
LINE
  5
58
330
2
100
AcDbEntity
  8
GAIKEI
  6
Continuous
 62
     1
100
AcDbLine
 10
11.08485119412899
 20
2.825636060287649
 30
0.0
 11
11.08485119412899
 21
32.83278949062026
 31
0.0
  0
LINE
  5
59
330
2
100
AcDbEntity
  8
GAIKEI
  6
Continuous
 62
     1
100
AcDbLine
 10
13.89429766051478
 20
2.825636060287649
 30
0.0
 11
13.89429766051478
 21
32.83278949062026
 31
0.0
  0
LINE
  5
5A
330
2
100
AcDbEntity
  8
GAIKEI
  6
Continuous
100
AcDbLine
 10
14.17838989381965
 20
33.18207735725207
 30
0.0
 11
14.17838989381965
 21
2.47621799365595
 31
0.0
  0
LINE
  5
5B
330
2
100
AcDbEntity
  8
GAIKEI
  6
Continuous
 62
     1
100
AcDbLine
 10
14.11187786049299
 20
2.608055826976112
 30
0.0
 11
14.11187786049299
 21
33.05036972393191
 31
0.0
  0
LINE
  5
5C
330
2
100
AcDbEntity
  8
GAIKEI
  6
Continuous
 62
     1
100
AcDbLine
 10
13.89429766051478
 20
2.824338660287821
 30
0.0
 11
13.89429766051478
 21
32.83149209062043
 31
0.0
  0
LINE
  5
5D
330
2
100
AcDbEntity
  8
GAIKEI
  6
Continuous
 62
     1
100
AcDbLine
 10
10.532210260851
 20
33.06434512393059
 30
0.0
 11
10.86614812748422
 21
33.06434512393054
 31
0.0
  0
LINE
  5
5E
330
2
100
AcDbEntity
  8
GAIKEI
  6
Continuous
 62
     1
100
AcDbLine
 10
10.532210260851
 20
32.78766935729152
 30
0.0
 11
10.86614812748422
 21
32.78766935729158
 31
0.0
  0
ARC
  5
5F
330
2
100
AcDbEntity
  8
GAIKEI
  6
Continuous
100
AcDbCircle
 10
10.91250449414622
 20
33.18207735725207
 30
0.0
 40
0.06666666666
100
AcDbArc
 50
90.0
 51
180.0
  0
LINE
  5
60
330
2
100
AcDbEntity
  8
GAIKEI
  6
Continuous
100
AcDbLine
 10
10.84583782748626
 20
33.06434512393054
 30
0.0
 11
10.84583782748626
 21
33.18207735725207
 31
0.0
  0
LINE
  5
61
330
2
100
AcDbEntity
  8
GAIKEI
  6
CENTER
 62
     1
100
AcDbLine
 10
11.21818452744901
 20
32.96612282394028
 30
0.0
 11
13.76096432719476
 21
32.96612282394028
 31
0.0
  0
ARC
  5
62
330
2
100
AcDbEntity
  8
GAIKEI
  6
CENTER
 62
     1
100
AcDbCircle
 10
11.21818452744901
 20
32.83278949062026
 30
0.0
 40
0.13333333332
100
AcDbArc
 50
90.0
 51
180.0
  0
ARC
  5
63
330
2
100
AcDbEntity
  8
GAIKEI
  6
Continuous
 62
     1
100
AcDbCircle
 10
11.00151786080397
 20
33.05036972393191
 30
0.0
 40
0.13333333332
100
AcDbArc
 50
90.0
 51
180.0
  0
ARC
  5
64
330
2
100
AcDbEntity
  8
GAIKEI
  6
Continuous
 62
     1
100
AcDbCircle
 10
13.97854452717297
 20
33.05036972393191
 30
0.0
 40
0.13333333332
100
AcDbArc
 50
0.0
 51
90.0
  0
ARC
  5
65
330
2
100
AcDbEntity
  8
GAIKEI
  6
Continuous
100
AcDbCircle
 10
14.11172322715964
 20
33.18207735725207
 30
0.0
 40
0.06666666666
100
AcDbArc
 50
0.0
 51
90.0
  0
LINE
  5
66
330
2
100
AcDbEntity
  8
GAIKEI
  6
Continuous
 62
     1
100
AcDbLine
 10
11.00151786080397
 20
33.18370305725199
 30
0.0
 11
13.97854452717297
 21
33.18370305725199
 31
0.0
  0
LINE
  5
67
330
2
100
AcDbEntity
  8
GAIKEI
  6
Continuous
100
AcDbLine
 10
14.11172322715964
 20
33.24874402391202
 30
0.0
 11
10.91250449414622
 21
33.24874402391202
 31
0.0
  0
ARC
  5
68
330
2
100
AcDbEntity
  8
GAIKEI
  6
CENTER
 62
     1
100
AcDbCircle
 10
13.76096432719476
 20
32.83278949062026
 30
0.0
 40
0.13333333332
100
AcDbArc
 50
0.0
 51
90.0
  0
LINE
  5
69
330
2
100
AcDbEntity
  8
GAIKEI
  6
Continuous
 62
     1
100
AcDbLine
 10
10.532210260851
 20
2.875633160282689
 30
0.0
 11
10.86614812748422
 21
2.875633160282745
 31
0.0
  0
LINE
  5
6A
330
2
100
AcDbEntity
  8
GAIKEI
  6
Continuous
 62
     1
100
AcDbLine
 10
10.532210260851
 20
2.594080426977541
 30
0.0
 11
10.83310062748751
 21
2.594080426977484
 31
0.0
  0
ARC
  5
6B
330
2
100
AcDbEntity
  8
GAIKEI
  6
Continuous
 62
     1
100
AcDbCircle
 10
11.00151786080397
 20
2.608055826976112
 30
0.0
 40
0.13333333332
100
AcDbArc
 50
180.0
 51
270.0
  0
LINE
  5
6C
330
2
100
AcDbEntity
  8
GAIKEI
  6
Continuous
100
AcDbLine
 10
10.83310062748751
 20
2.594080426977484
 30
0.0
 11
10.86614812748422
 21
2.594080426977484
 31
0.0
  0
LINE
  5
6D
330
2
100
AcDbEntity
  8
GAIKEI
  6
Continuous
100
AcDbLine
 10
10.84583782748626
 20
2.47621799365595
 30
0.0
 11
10.84583782748626
 21
2.594080426977484
 31
0.0
  0
ARC
  5
6E
330
2
100
AcDbEntity
  8
GAIKEI
  6
Continuous
100
AcDbCircle
 10
10.91250449414622
 20
2.47621799365595
 30
0.0
 40
0.06666666666
100
AcDbArc
 50
180.0
 51
270.0
  0
ARC
  5
6F
330
2
100
AcDbEntity
  8
GAIKEI
  6
CENTER
 62
     1
100
AcDbCircle
 10
11.21818452744901
 20
2.825636060287649
 30
0.0
 40
0.13333333332
100
AcDbArc
 50
180.0
 51
270.0
  0
ARC
  5
70
330
2
100
AcDbEntity
  8
GAIKEI
  6
Continuous
 62
     1
100
AcDbCircle
 10
13.97854452717297
 20
2.608055826976112
 30
0.0
 40
0.13333333332
100
AcDbArc
 50
270.0
 51
0.0
  0
LINE
  5
71
330
2
100
AcDbEntity
  8
GAIKEI
  6
Continuous
100
AcDbLine
 10
14.10977012715989
 20
2.592494026977647
 30
0.0
 11
14.1106815604931
 21
2.592494026977647
 31
0.0
  0
ARC
  5
72
330
2
100
AcDbEntity
  8
GAIKEI
  6
Continuous
100
AcDbCircle
 10
14.11172322715964
 20
2.47621799365595
 30
0.0
 40
0.06666666666
100
AcDbArc
 50
270.0
 51
0.0
  0
LINE
  5
73
330
2
100
AcDbEntity
  8
GAIKEI
  6
CENTER
 62
     1
100
AcDbLine
 10
11.21818452744901
 20
2.692302726967795
 30
0.0
 11
13.76096432719476
 21
2.692302726967795
 31
0.0
  0
ARC
  5
74
330
2
100
AcDbEntity
  8
GAIKEI
  6
CENTER
 62
     1
100
AcDbCircle
 10
13.76096432719476
 20
2.825636060287649
 30
0.0
 40
0.13333333332
100
AcDbArc
 50
270.0
 51
0.0
  0
LINE
  5
75
330
2
100
AcDbEntity
  8
GAIKEI
  6
Continuous
 62
     1
100
AcDbLine
 10
11.00151786080397
 20
2.474722493656088
 30
0.0
 11
13.97854452717297
 21
2.474722493656088
 31
0.0
  0
LINE
  5
76
330
2
100
AcDbEntity
  8
GAIKEI
  6
Continuous
100
AcDbLine
 10
14.11172322715964
 20
2.409551326995995
 30
0.0
 11
10.91250449414622
 21
2.409551326995995
 31
0.0
  0
LINE
  5
77
330
2
100
AcDbEntity
  8
GAIKEI
  6
Continuous
 62
     1
100
AcDbLine
 10
37.90551925632133
 20
7.97941379310572
 30
0.0
 11
37.57218592302133
 21
7.97941379310572
 31
0.0
  0
LINE
  5
78
330
2
100
AcDbEntity
  8
GAIKEI
  6
Continuous
 62
     1
100
AcDbLine
 10
37.57218592302133
 20
7.912747126445481
 30
0.0
 11
37.90551925632133
 21
7.912747126445481
 31
0.0
  0
LINE
  5
79
330
2
100
AcDbEntity
  8
GAIKEI
  6
Continuous
 62
     1
100
AcDbLine
 10
37.90551925632133
 20
7.079413793195499
 30
0.0
 11
37.57218592302133
 21
7.079413793195499
 31
0.0
  0
LINE
  5
7A
330
2
100
AcDbEntity
  8
GAIKEI
  6
Continuous
 62
     1
100
AcDbLine
 10
37.57218592302133
 20
7.012747126535543
 30
0.0
 11
37.90551925632133
 21
7.012747126535543
 31
0.0
  0
LINE
  5
7B
330
2
100
AcDbEntity
  8
GAIKEI
  6
Continuous
 62
     1
100
AcDbLine
 10
34.52885258999237
 20
33.11782738346347
 30
0.0
 11
33.27228562345141
 21
33.05197349059824
 31
0.0
  0
LINE
  5
7C
330
2
100
AcDbEntity
  8
GAIKEI
  6
Continuous
100
AcDbLine
 10
33.27228562345141
 20
33.18530682391838
 30
0.0
 11
34.49551925666231
 21
33.24941379057856
 31
0.0
  0
LINE
  5
7D
330
2
100
AcDbEntity
  8
GAIKEI
  6
Continuous
100
AcDbLine
 10
34.49551925666231
 20
2.409413793662736
 30
0.0
 11
33.27228562345141
 21
2.47352072698959
 31
0.0
  0
LINE
  5
7E
330
2
100
AcDbEntity
  8
GAIKEI
  6
Continuous
 62
     1
100
AcDbLine
 10
33.27228562345141
 20
2.606854060309444
 30
0.0
 11
34.52885258999237
 21
2.541000201686074
 31
0.0
  0
LINE
  5
7F
330
2
100
AcDbEntity
  8
GAIKEI
  6
Continuous
100
AcDbLine
 10
34.52885258999237
 20
33.21608045724844
 30
0.0
 11
34.52885258999237
 21
2.442747126992514
 31
0.0
  0
LINE
  5
80
330
2
100
AcDbEntity
  8
GAIKEI
  6
Continuous
 62
     1
100
AcDbLine
 10
34.49551925666231
 20
33.24941379057856
 30
0.0
 11
34.49551925666231
 21
2.409413793662736
 31
0.0
  0
LINE
  5
81
330
2
100
AcDbEntity
  8
GAIKEI
  6
Continuous
 62
     1
100
AcDbLine
 10
33.27178949011813
 20
33.03883099059959
 30
0.0
 11
33.27178949011813
 21
2.619996560308095
 31
0.0
  0
LINE
  5
82
330
2
100
AcDbEntity
  8
GAIKEI
  6
Continuous
 62
     1
100
AcDbLine
 10
33.27178949011813
 20
33.03883099059959
 30
0.0
 11
33.2317742567887
 21
33.03883099059959
 31
0.0
  0
LINE
  5
83
330
2
100
AcDbEntity
  8
GAIKEI
  6
Continuous
 62
     1
100
AcDbLine
 10
33.2317742567887
 20
2.619996560308095
 30
0.0
 11
33.27178949011813
 21
2.619996560308095
 31
0.0
  0
LINE
  5
84
330
2
100
AcDbEntity
  8
GAIKEI
  6
Continuous
 62
     1
100
AcDbLine
 10
33.2317742567887
 20
2.619996560308095
 30
0.0
 11
33.2317742567887
 21
33.03883099059959
 31
0.0
  0
LINE
  5
85
330
2
100
AcDbEntity
  8
GAIKEI
  6
Continuous
 62
     1
100
AcDbLine
 10
33.2317742567887
 20
33.03883099059959
 30
0.0
 11
33.11218592346734
 21
32.8436805685235
 31
0.0
  0
LINE
  5
86
330
2
100
AcDbEntity
  8
GAIKEI
  6
Continuous
100
AcDbLine
 10
33.11709792346687
 20
32.9743394906061
 30
0.0
 11
33.2317742567887
 21
33.16147425725387
 31
0.0
  0
LINE
  5
87
330
2
100
AcDbEntity
  8
GAIKEI
  6
Continuous
100
AcDbLine
 10
33.2317742567887
 20
2.497353293653816
 30
0.0
 11
33.11709792346687
 21
2.684488093635195
 31
0.0
  0
LINE
  5
88
330
2
100
AcDbEntity
  8
GAIKEI
  6
Continuous
 62
     1
100
AcDbLine
 10
33.11218592346734
 20
2.815147017145591
 30
0.0
 11
33.2317742567887
 21
2.619996560308095
 31
0.0
  0
LINE
  5
89
330
2
100
AcDbEntity
  8
GAIKEI
  6
Continuous
100
AcDbLine
 10
33.27178949011813
 20
33.18528082391839
 30
0.0
 11
33.27228562345141
 21
33.18530682391838
 31
0.0
  0
LINE
  5
8A
330
2
100
AcDbEntity
  8
GAIKEI
  6
Continuous
 62
     1
100
AcDbLine
 10
33.27228562345141
 20
2.47352072698959
 30
0.0
 11
33.27178949011813
 21
2.473546726989582
 31
0.0
  0
LINE
  5
8B
330
2
100
AcDbEntity
  8
GAIKEI
  6
Continuous
100
AcDbLine
 10
33.11218592346734
 20
32.95692285727455
 30
0.0
 11
33.11218592346734
 21
2.701904693633139
 31
0.0
  0
LINE
  5
8C
330
2
100
AcDbEntity
  8
GAIKEI
  6
Continuous
 62
     1
100
AcDbLine
 10
33.36385259010882
 20
2.452080460325021
 30
0.0
 11
33.36251925677567
 21
2.452080460325021
 31
0.0
  0
LINE
  5
8D
330
2
100
AcDbEntity
  8
GAIKEI
  6
Continuous
 62
     1
100
AcDbLine
 10
33.46961552343163
 20
2.463179126990439
 30
0.0
 11
33.43503192343508
 21
2.463782760323795
 31
0.0
  0
LINE
  5
8E
330
2
100
AcDbEntity
  8
GAIKEI
  6
Continuous
 62
     1
100
AcDbLine
 10
33.43503192343508
 20
2.463782760323795
 30
0.0
 11
33.43481679010171
 21
2.465002826990371
 31
0.0
  0
LINE
  5
8F
330
2
100
AcDbEntity
  8
GAIKEI
  6
Continuous
 62
     1
100
AcDbLine
 10
33.43680089010161
 20
2.453750360324931
 30
0.0
 11
33.51425572342714
 21
2.452398393658143
 31
0.0
  0
LINE
  5
90
330
2
100
AcDbEntity
  8
GAIKEI
  6
Continuous
 62
     1
100
AcDbLine
 10
33.43503192343508
 20
2.463782760323795
 30
0.0
 11
33.43680089010161
 21
2.453750360324931
 31
0.0
  0
LINE
  5
91
330
2
100
AcDbEntity
  8
GAIKEI
  6
Continuous
 62
     1
100
AcDbLine
 10
33.51425572342714
 20
2.452398393658143
 30
0.0
 11
33.51573049009369
 21
2.460762326990675
 31
0.0
  0
ARC
  5
92
330
2
100
AcDbEntity
  8
GAIKEI
  6
Continuous
 62
     1
100
AcDbCircle
 10
33.45796249009942
 20
2.620444226974711
 30
0.0
 40
0.1861735333147159
100
AcDbArc
 50
180.1377730000329
 51
184.1861559999895
  0
ARC
  5
93
330
2
100
AcDbEntity
  8
GAIKEI
  6
Continuous
 62
     1
100
AcDbCircle
 10
33.45796845676608
 20
33.03838312393299
 30
0.0
 40
0.1861795333147154
100
AcDbArc
 50
175.8139089999727
 51
179.862162000007
  0
ARC
  5
94
330
2
100
AcDbEntity
  8
GAIKEI
  6
Continuous
100
AcDbCircle
 10
34.49551925666231
 20
33.21608045724844
 30
0.0
 40
0.03333333333
100
AcDbArc
 50
0.0
 51
90.0
  0
ARC
  5
95
330
2
100
AcDbEntity
  8
GAIKEI
  6
Continuous
100
AcDbCircle
 10
34.49551925666231
 20
2.442747126992514
 30
0.0
 40
0.03333333333
100
AcDbArc
 50
270.0
 51
0.0
  0
ARC
  5
96
330
2
100
AcDbEntity
  8
GAIKEI
  6
Continuous
100
AcDbCircle
 10
33.14551925679734
 20
2.701904693633139
 30
0.0
 40
0.03333333333
100
AcDbArc
 50
180.0
 51
211.5000000000294
  0
ARC
  5
97
330
2
100
AcDbEntity
  8
GAIKEI
  6
Continuous
100
AcDbCircle
 10
33.14551925679734
 20
32.95692285727455
 30
0.0
 40
0.03333333333
100
AcDbArc
 50
148.4999999999706
 51
180.0
  0
ARC
  5
98
330
2
100
AcDbEntity
  8
GAIKEI
  6
Continuous
 62
     1
100
AcDbCircle
 10
33.36251925677567
 20
2.471413793656438
 30
0.0
 40
0.0193333333314
100
AcDbArc
 50
184.9000579999872
 51
270.0
  0
ARC
  5
99
330
2
100
AcDbEntity
  8
GAIKEI
  6
Continuous
 62
     1
100
AcDbCircle
 10
33.36385259010882
 20
2.471413793656438
 30
0.0
 40
0.0193333333314
100
AcDbArc
 50
270.0
 51
349.0074989999725
  0
ELLIPSE
  5
9A
330
2
100
AcDbEntity
  8
GAIKEI
  6
Continuous
 62
     1
100
AcDbEllipse
 10
33.27490242345112
 20
2.606854060309785
 30
0.0
 11
0.0498739497004299
 21
0.003548117920671
 31
0.0
210
0.0
220
0.0
230
1.0
 40
0.003719
 41
1.623024084494225
 42
2.644605344464516
  0
ELLIPSE
  5
9B
330
2
100
AcDbEntity
  8
GAIKEI
  6
Continuous
100
AcDbEllipse
 10
33.27490242345112
 20
2.523452226984943
 30
0.0
 11
-0.0026167978117074
 21
-0.0499314767327449
 31
0.0
210
0.0
220
0.0
230
1.0
 40
0.9974719999999997
 41
5.261604047211288
 42
6.283185307179586
  0
ELLIPSE
  5
9C
330
2
100
AcDbEntity
  8
GAIKEI
  6
Continuous
100
AcDbEllipse
 10
33.27490242345112
 20
33.13537535725698
 30
0.0
 11
0.0026167977952214
 21
-0.0499314767336089
 31
0.0
210
0.0
220
0.0
230
1.0
 40
0.9974719999999997
 41
3.141592653589792
 42
4.163173913903976
  0
SPLINE
  5
9D
330
2
100
AcDbEntity
  8
GAIKEI
  6
Continuous
 62
     1
100
AcDbSpline
210
0.0
220
0.0
230
1.0
 70
     8
 71
     3
 72
    26
 73
    22
 74
    20
 42
0.0000000001
 43
0.0000000001
 44
0.000001
 12
0.5564616378802587
 22
-0.8308733029575689
 32
0.0
 13
-0.0249804909418007
 23
-0.9996879388450711
 33
0.0
 40
0.0
 40
0.0
 40
0.0
 40
0.0
 40
0.0004946607508705
 40
0.0018490950687097
 40
0.0041529416157099
 40
0.0074029079155192
 40
0.0114074401038916
 40
0.0162705998041557
 40
0.0220641894707789
 40
0.0287019885467093
 40
0.0358493219026517
 40
0.0437134128813863
 40
0.0523821696674737
 40
0.0617008157768554
 40
0.0712005113192243
 40
0.081192203856729
 40
0.0917701677746416
 40
0.1027275078556962
 40
0.1178616527944907
 40
0.1334121173078249
 40
0.1334141173117033
 40
0.1334141173117033
 40
0.1334141173117033
 40
0.1334141173117033
 10
33.27228562210041
 20
33.18530681900654
 30
0.0
 10
33.27237737534429
 20
33.18516981886921
 30
0.0
 10
33.2726900545018
 20
33.18462614356088
 30
0.0
 10
33.27267344114097
 20
33.1831924710973
 30
0.0
 10
33.27286505585502
 20
33.18092318768993
 30
0.0
 10
33.27289928025269
 20
33.17772390513346
 30
0.0
 10
33.27296174155956
 20
33.17369014989334
 30
0.0
 10
33.27298676083174
 20
33.16880127715496
 30
0.0
 10
33.27300624826563
 20
33.16303709269386
 30
0.0
 10
33.27301483660159
 20
33.15651064721271
 30
0.0
 10
33.27301868561526
 20
33.14929430407921
 30
0.0
 10
33.27301815267566
 20
33.14140089032225
 30
0.0
 10
33.27301323547442
 20
33.13278373275085
 30
0.0
 10
33.27300202389043
 20
33.12362137074661
 30
0.0
 10
33.27298132080151
 20
33.11401804690894
 30
0.0
 10
33.27294629646431
 20
33.10399498659626
 30
0.0
 10
33.27288940248354
 20
33.09348613236045
 30
0.0
 10
33.27279007259708
 20
33.08126336798506
 30
0.0
 10
33.27261795865064
 20
33.06738371528729
 30
0.0
 10
33.27241520178052
 20
33.05715668775713
 30
0.0
 10
33.27228563876202
 20
33.0519741521469
 30
0.0
 10
33.27228562210831
 20
33.05197348568697
 30
0.0
 11
33.27228562210041
 21
33.18530681900654
 31
0.0
 11
33.27252091169493
 21
33.18487163529358
 31
0.0
 11
33.27269222364652
 21
33.18352824919941
 31
0.0
 11
33.27281478522963
 21
33.18122769565196
 31
0.0
 11
33.27289792320192
 21
33.17797880743944
 31
0.0
 11
33.27295013057546
 21
33.17397462367001
 31
0.0
 11
33.27298293522785
 21
33.1691115798443
 31
0.0
 11
33.27300248646697
 21
33.16331802681935
 31
0.0
 11
33.27301282594425
 21
33.15668023843932
 31
0.0
 11
33.27301692260147
 21
33.14953290819313
 31
0.0
 11
33.27301658900677
 21
33.14166881876827
 31
0.0
 11
33.27301149482781
 21
33.13300006478522
 31
0.0
 11
33.27299970870075
 21
33.12368142726427
 31
0.0
 11
33.27297865304883
 21
33.11418175604718
 31
0.0
 11
33.27294291816537
 21
33.10419012835348
 31
0.0
 11
33.27288443306355
 21
33.0936123270618
 31
0.0
 11
33.27279387575487
 21
33.08265536216448
 31
0.0
 11
33.27260025446282
 21
33.06752245725045
 31
0.0
 11
33.27228567206805
 21
33.05197548506135
 31
0.0
 11
33.27228562210831
 21
33.05197348568697
 31
0.0
  0
SPLINE
  5
9E
330
2
100
AcDbEntity
  8
GAIKEI
  6
Continuous
 62
     1
100
AcDbSpline
210
0.0
220
0.0
230
1.0
 70
     8
 71
     3
 72
    26
 73
    22
 74
    20
 42
0.0000000001
 43
0.0000000001
 44
0.000001
 12
0.0249803369490197
 22
-0.9996879426930755
 32
0.0
 13
-0.3963799776558251
 23
-0.9180865500123436
 33
0.0
 40
0.0
 40
0.0
 40
0.0
 40
0.0
 40
0.0000020000002266
 40
0.010930074845573
 40
0.021937631326384
 40
0.0328699199578692
 40
0.0437238301341527
 40
0.0539102419573975
 40
0.0637992265496766
 40
0.0734495280575439
 40
0.0826403625005903
 40
0.0909689652541272
 40
0.098732007871943
 40
0.1059614237671414
 40
0.1124754753117981
 40
0.1179926531181342
 40
0.1227379592723686
 40
0.1267125091650523
 40
0.1297953969472818
 40
0.1324565091089734
 40
0.1334016678455684
 40
0.1334016678455684
 40
0.1334016678455684
 40
0.1334016678455684
 10
33.27228562210769
 20
2.606854071951033
 30
0.0
 10
33.27228563876125
 20
2.606853405492302
 30
0.0
 10
33.27237668045473
 20
2.603211184971826
 30
0.0
 10
33.2725334430283
 20
2.595900256706556
 30
0.0
 10
33.2727020007384
 20
2.584945534606788
 30
0.0
 10
33.27282176738731
 20
2.574014911560311
 30
0.0
 10
33.27290188008883
 20
2.56335766019157
 30
0.0
 10
33.27295368984821
 20
2.553048014273315
 30
0.0
 10
33.2729857773719
 20
2.543139496738717
 30
0.0
 10
33.27300461362336
 20
2.533562805946928
 30
0.0
 10
33.27301445630979
 20
2.524506233439183
 30
0.0
 10
33.27301855732228
 20
2.516078732632479
 30
0.0
 10
33.27301829013274
 20
2.508305072380551
 30
0.0
 10
33.27301420490403
 20
2.50113614612286
 30
0.0
 10
33.27300245727116
 20
2.494716223556565
 30
0.0
 10
33.27298668764104
 20
2.489123223021351
 30
0.0
 10
33.27294290515579
 20
2.484380153673896
 30
0.0
 10
33.27292195524757
 20
2.48043909053274
 30
0.0
 10
33.27275288360323
 20
2.477219741172348
 30
0.0
 10
33.27283580994651
 20
2.474946134177628
 30
0.0
 10
33.27241055273385
 20
2.473809981857584
 30
0.0
 10
33.27228567206754
 20
2.473520736016325
 30
0.0
 11
33.27228562210769
 21
2.606854071951033
 31
0.0
 11
33.27228567206709
 21
2.606852072577567
 31
0.0
 11
33.27252091169419
 21
2.595926751775436
 31
0.0
 11
33.272693254677
 21
2.584920545700811
 31
0.0
 11
33.27281478522861
 21
2.573988933649445
 31
0.0
 11
33.27289792320085
 21
2.563135342889381
 31
0.0
 11
33.27295013057432
 21
2.552949065799055
 31
0.0
 11
33.27298293522671
 21
2.543060136580322
 31
0.0
 11
33.27300248646583
 21
2.533409855912168
 31
0.0
 11
33.27301282594311
 21
2.524219028433208
 31
0.0
 11
33.27301692260034
 21
2.515890427968201
 31
0.0
 11
33.27301658900564
 21
2.508127386911155
 31
0.0
 11
33.2730114948269
 21
2.500897974818769
 31
0.0
 11
33.27299970869984
 21
2.494383936632459
 31
0.0
 11
33.27297865304803
 21
2.488866802643315
 31
0.0
 11
33.27294291816457
 21
2.484121636449515
 31
0.0
 11
33.27288443306293
 21
2.480147525768131
 31
0.0
 11
33.27279387575419
 21
2.477065985004628
 31
0.0
 11
33.27260025446213
 21
2.474412057401991
 31
0.0
 11
33.27228567206754
 21
2.473520736016325
 31
0.0
  0
SPLINE
  5
9F
330
2
100
AcDbEntity
  8
GAIKEI
  6
Continuous
 62
     1
100
AcDbSpline
210
0.0
220
0.0
230
1.0
 70
     8
 71
     3
 72
    17
 73
    13
 74
    11
 42
0.0000000001
 43
0.0000000001
 44
0.000001
 12
-0.0058163483431975
 22
0.999983084902915
 32
0.0
 13
0.0006302425989739
 23
0.9999998013971136
 33
0.0
 40
0.0
 40
0.0
 40
0.0
 40
0.0
 40
0.0020245928353396
 40
0.0051389529987926
 40
0.0115443120694043
 40
0.0200836155045073
 40
0.030613177551675
 40
0.04291388749843
 40
0.056711709856192
 40
0.0717384232839057
 40
0.0876728376066116
 40
0.1042115998850806
 40
0.1042115998850806
 40
0.1042115998850806
 40
0.1042115998850806
 10
33.23105578287988
 20
2.499613406113098
 30
0.0
 10
33.23105185763416
 20
2.500288258976127
 30
0.0
 10
33.23104094571391
 20
2.502001221492946
 30
0.0
 10
33.23098118312888
 20
2.505848890699326
 30
0.0
 10
33.23091824708044
 20
2.511868248279483
 30
0.0
 10
33.23085690796915
 20
2.520359458673851
 30
0.0
 10
33.23083160742894
 20
2.530815986356969
 30
0.0
 10
33.23084031401629
 20
2.543025362575747
 30
0.0
 10
33.23088852579332
 20
2.556733704570433
 30
0.0
 10
33.23095677546837
 20
2.571653194808163
 30
0.0
 10
33.23103555903228
 20
2.587486307368124
 30
0.0
 10
33.23105230840238
 20
2.598310707789494
 30
0.0
 10
33.23105578287988
 20
2.603823627454119
 30
0.0
 11
33.23105578287988
 21
2.499613406113098
 31
0.0
 11
33.23103982421753
 21
2.501637937523128
 31
0.0
 11
33.23099894368534
 21
2.504752027344011
 31
0.0
 11
33.23092764106474
 21
2.511156990644167
 31
0.0
 11
33.23086682392926
 21
2.519696079276343
 31
0.0
 11
33.23083710707971
 21
2.530225601202573
 31
0.0
 11
33.23084437661595
 21
2.542526310583014
 31
0.0
 11
33.23088841340899
 21
2.556324063733484
 31
0.0
 11
33.23095536703369
 21
2.571350628340269
 31
0.0
 11
33.23102462107431
 21
2.587284889991565
 31
0.0
 11
33.23105578287988
 21
2.603823627454119
 31
0.0
  0
SPLINE
  5
A0
330
2
100
AcDbEntity
  8
GAIKEI
  6
Continuous
 62
     1
100
AcDbSpline
210
0.0
220
0.0
230
1.0
 70
     8
 71
     3
 72
    17
 73
    13
 74
    11
 42
0.0000000001
 43
0.0000000001
 44
0.000001
 12
-0.000252527401536
 22
0.9999999681149553
 32
0.0
 13
0.008415620967305
 23
0.9999645880348639
 33
0.0
 40
0.0
 40
0.0
 40
0.0
 40
0.0
 40
0.0115430373204044
 40
0.0228406160511007
 40
0.0385278211814536
 40
0.0531618517256696
 40
0.0664132421491228
 40
0.0780389440330954
 40
0.087761036045082
 40
0.0954506699096939
 40
0.1009486370034525
 40
0.1042115958160752
 40
0.1042115958160752
 40
0.1042115958160752
 40
0.1042115958160752
 10
33.23105578287988
 20
33.05500393018542
 30
0.0
 10
33.23105481123548
 20
33.05885160916955
 30
0.0
 10
33.23104658449469
 20
33.06646515399746
 30
0.0
 10
33.23099524749478
 20
33.0793076672021
 30
0.0
 10
33.23092964791516
 20
33.09318044662229
 30
0.0
 10
33.23086447536005
 20
33.10770451526611
 30
0.0
 10
33.2308332450958
 20
33.12087486015781
 30
0.0
 10
33.23083602756284
 20
33.13240795374236
 30
0.0
 10
33.23088053919799
 20
33.142087005956
 30
0.0
 10
33.23093996065251
 20
33.14972338564905
 30
0.0
 10
33.2310219659278
 20
33.15520632402081
 30
0.0
 10
33.231046629605
 20
33.15812653709145
 30
0.0
 10
33.23105578287988
 20
33.15921415151308
 30
0.0
 11
33.23105578287988
 21
33.05500393018542
 31
0.0
 11
33.23103982421759
 21
33.06654695688781
 31
0.0
 11
33.23099894368562
 21
33.07784446000949
 31
0.0
 11
33.23092764106519
 21
33.09353150286398
 31
0.0
 11
33.23086682393029
 21
33.10816540807901
 31
0.0
 11
33.23083710708096
 21
33.12141676717351
 31
0.0
 11
33.23084437661743
 21
33.13304246929965
 31
0.0
 11
33.23088841341058
 21
33.14276446422798
 31
0.0
 11
33.23095536703505
 21
33.15045380893912
 31
0.0
 11
33.23102462107528
 21
33.15595133888422
 31
0.0
 11
33.23105578287988
 21
33.15921415151308
 31
0.0
  0
SPLINE
  5
A1
330
2
100
AcDbEntity
  8
GAIKEI
  6
Continuous
 62
     1
100
AcDbSpline
210
0.0
220
0.0
230
1.0
 70
     8
 71
     3
 72
    12
 73
     8
 74
     6
 42
0.0000000001
 43
0.0000000001
 44
0.000001
 12
-0.0945624392219587
 22
0.9955189325615025
 32
0.0
 13
0.0008047211369879
 23
0.9999996762118934
 33
0.0
 40
0.0
 40
0.0
 40
0.0
 40
0.0
 40
0.0000019766056927
 40
0.0040373251652748
 40
0.0080803667954042
 40
0.0121348078444808
 40
0.0161946082734069
 40
0.0161946082734069
 40
0.0161946082734069
 40
0.0161946082734069
 10
33.23177426584994
 20
33.03883100660369
 30
0.0
 10
33.23177420354571
 20
33.03883166251984
 30
0.0
 10
33.23164695290691
 20
33.04017140792962
 30
0.0
 10
33.23142891437522
 20
33.04285641596903
 30
0.0
 10
33.23120787298018
 20
33.04689504474891
 30
0.0
 10
33.23108068422462
 20
33.05094580241854
 30
0.0
 10
33.23105469387747
 20
33.05365066381393
 30
0.0
 10
33.23105578287988
 20
33.05500393018542
 30
0.0
 11
33.23177426584994
 21
33.03883100660369
 31
0.0
 11
33.23177407895054
 21
33.03883297435334
 31
0.0
 11
33.2314477162534
 21
33.0428553577151
 31
0.0
 11
33.23122471125135
 21
33.04689214472285
 31
0.0
 11
33.23109643802292
 21
33.05094444907229
 31
0.0
 11
33.23105578287988
 21
33.05500393018542
 31
0.0
  0
SPLINE
  5
A2
330
2
100
AcDbEntity
  8
GAIKEI
  6
Continuous
 62
     1
100
AcDbSpline
210
0.0
220
0.0
230
1.0
 70
     8
 71
     3
 72
    12
 73
     8
 74
     6
 42
0.0000000001
 43
0.0000000001
 44
0.000001
 12
-0.0008015108260579
 22
0.9999996787901464
 32
0.0
 13
0.0945624178073996
 23
0.9955189345956302
 33
0.0
 40
0.0
 40
0.0
 40
0.0
 40
0.0
 40
0.0040481373639826
 40
0.0080949525317679
 40
0.0121447867274794
 40
0.016192631323697
 40
0.0161946079281313
 40
0.0161946079281313
 40
0.0161946079281313
 40
0.0161946079281313
 10
33.23105578287988
 20
2.603823627454119
 30
0.0
 10
33.23105470133791
 20
2.605173006142024
 30
0.0
 10
33.23108054233652
 20
2.607871437005201
 30
0.0
 10
33.2312072615384
 20
2.611918040072396
 30
0.0
 10
33.23142811784084
 20
2.615960573600716
 30
0.0
 10
33.23164655903861
 20
2.618652003033275
 30
0.0
 10
33.23177420354594
 20
2.619995895108331
 30
0.0
 10
33.23177426585011
 20
2.61999655102403
 30
0.0
 11
33.23105578287988
 21
2.603823627454119
 31
0.0
 11
33.23109619889482
 21
2.607871446862134
 31
0.0
 11
33.23122388153632
 21
2.611916139923891
 31
0.0
 11
33.23144687155571
 21
2.615959729688597
 31
0.0
 11
33.23177407895082
 21
2.619994583275513
 31
0.0
 11
33.23177426585011
 21
2.61999655102403
 31
0.0
  0
SPLINE
  5
A3
330
2
100
AcDbEntity
  8
GAIKEI
  6
Continuous
100
AcDbSpline
210
0.0
220
0.0
230
1.0
 70
     8
 71
     3
 72
    12
 73
     8
 74
     6
 42
0.0000000001
 43
0.0000000001
 44
0.000001
 12
0.0046031613032469
 22
0.9999894053968853
 32
0.0
 13
0.5225006256474138
 23
0.8526389014102401
 33
0.0
 40
0.0
 40
0.0
 40
0.0
 40
0.0
 40
0.0005255172990086
 40
0.0010893510373492
 40
0.0017083484983373
 40
0.0023996995680935
 40
0.0024000572874515
 40
0.0024000572874515
 40
0.0024000572874515
 40
0.0024000572874515
 10
33.23105578287988
 20
33.15921415151308
 30
0.0
 10
33.23105658922685
 20
33.15938932209019
 30
0.0
 10
33.23108501132569
 20
33.15975292794417
 30
0.0
 10
33.23121647629662
 20
33.1603091190737
 30
0.0
 10
33.23144501181778
 20
33.16089242957673
 30
0.0
 10
33.23165373649954
 20
33.16127757088805
 30
0.0
 10
33.23177420354691
 20
33.16147416693593
 30
0.0
 10
33.23177426584976
 20
33.16147426860442
 30
0.0
 11
33.23105578287988
 21
33.15921415151308
 31
0.0
 11
33.23109619889482
 21
33.15973876405468
 31
0.0
 11
33.23122388153616
 21
33.16028820370803
 31
0.0
 11
33.23144687155565
 21
33.16086579902935
 31
0.0
 11
33.23177407895077
 21
33.16147396359446
 31
0.0
 11
33.23177426584976
 21
33.16147426860442
 31
0.0
  0
SPLINE
  5
A4
330
2
100
AcDbEntity
  8
GAIKEI
  6
Continuous
100
AcDbSpline
210
0.0
220
0.0
230
1.0
 70
     8
 71
     3
 72
    12
 73
     8
 74
     6
 42
0.0000000001
 43
0.0000000001
 44
0.000001
 12
-0.5225006292944152
 22
0.8526388991753426
 32
0.0
 13
-0.0046447832027012
 23
0.9999892129363196
 33
0.0
 40
0.0
 40
0.0
 40
0.0
 40
0.0
 40
0.0000003577197864
 40
0.0006896974858816
 40
0.0013079032458896
 40
0.0018729774571893
 40
0.0024000558933694
 40
0.0024000558933694
 40
0.0024000558933694
 40
0.0024000558933694
 10
33.23177426585011
 20
2.497353289021759
 30
0.0
 10
33.23177420354716
 20
2.497353390690363
 30
0.0
 10
33.23165408687228
 20
2.497549415104913
 30
0.0
 10
33.2314457587114
 20
2.497933697151893
 30
0.0
 10
33.23121712222388
 20
2.49851639662063
 30
0.0
 10
33.23108517012759
 20
2.499073171262296
 30
0.0
 10
33.23105659893491
 20
2.499437715195938
 30
0.0
 10
33.23105578287988
 20
2.499613406112814
 30
0.0
 11
33.23177426585011
 21
2.497353289021759
 31
0.0
 11
33.23177407895088
 21
2.497353594032006
 31
0.0
 11
33.23144771625391
 21
2.497959929960416
 31
0.0
 11
33.23122471125174
 21
2.498536670697774
 31
0.0
 11
33.23109643802331
 21
2.499087247053353
 31
0.0
 11
33.23105578287988
 21
2.499613406112814
 31
0.0
  0
LINE
  5
A5
330
2
100
AcDbEntity
  8
GAIKEI
  6
Continuous
 62
     1
100
AcDbLine
 10
33.04551925680732
 20
3.049344993598424
 30
0.0
 11
33.11218592346734
 21
3.049344993598424
 31
0.0
  0
LINE
  5
A6
330
2
100
AcDbEntity
  8
GAIKEI
  6
Continuous
 62
     1
100
AcDbLine
 10
33.04551925680732
 20
3.144013626922628
 30
0.0
 11
33.11218592346734
 21
3.144013626922628
 31
0.0
  0
LINE
  5
A7
330
2
100
AcDbEntity
  8
GAIKEI
  6
Continuous
 62
     1
100
AcDbLine
 10
33.04551925680732
 20
3.049344993598424
 30
0.0
 11
33.04551925680732
 21
3.144013626922628
 31
0.0
  0
LINE
  5
A8
330
2
100
AcDbEntity
  8
GAIKEI
  6
Continuous
 62
     1
100
AcDbLine
 10
33.04551925680732
 20
3.215131993582076
 30
0.0
 11
33.11218592346734
 21
3.215131993582076
 31
0.0
  0
LINE
  5
A9
330
2
100
AcDbEntity
  8
GAIKEI
  6
Continuous
 62
     1
100
AcDbLine
 10
33.04551925680732
 20
3.215131993582076
 30
0.0
 11
33.04551925680732
 21
3.144013626922628
 31
0.0
  0
LINE
  5
AA
330
2
100
AcDbEntity
  8
GAIKEI
  6
Continuous
 62
     1
100
AcDbLine
 10
33.04551925680732
 20
3.215131993582076
 30
0.0
 11
33.04551925680732
 21
3.336288826903114
 31
0.0
  0
LINE
  5
AB
330
2
100
AcDbEntity
  8
GAIKEI
  6
Continuous
 62
     1
100
AcDbLine
 10
33.11218592346734
 20
3.336288826903114
 30
0.0
 11
33.04551925680732
 21
3.336288826903114
 31
0.0
  0
LINE
  5
AC
330
2
100
AcDbEntity
  8
GAIKEI
  6
Continuous
 62
     1
100
AcDbLine
 10
33.04551925680732
 20
3.049344260265286
 30
0.0
 11
33.11218592346734
 21
3.049344260265286
 31
0.0
  0
LINE
  5
AD
330
2
100
AcDbEntity
  8
GAIKEI
  6
Continuous
 62
     1
100
AcDbLine
 10
33.04551925680732
 20
3.049344993598424
 30
0.0
 11
33.04551925680732
 21
3.049344260265286
 31
0.0
  0
LINE
  5
AE
330
2
100
AcDbEntity
  8
GAIKEI
  6
Continuous
 62
     1
100
AcDbLine
 10
33.11218592346734
 20
2.997344960270368
 30
0.0
 11
33.04551925680732
 21
2.997344960270368
 31
0.0
  0
LINE
  5
AF
330
2
100
AcDbEntity
  8
GAIKEI
  6
Continuous
 62
     1
100
AcDbLine
 10
33.04551925680732
 20
2.997344993603633
 30
0.0
 11
33.04551925680732
 21
3.049344260265286
 31
0.0
  0
LINE
  5
B0
330
2
100
AcDbEntity
  8
GAIKEI
  6
Continuous
 62
     1
100
AcDbLine
 10
33.04551925680732
 20
3.441174726892882
 30
0.0
 11
33.11218592346734
 21
3.441174726892882
 31
0.0
  0
LINE
  5
B1
330
2
100
AcDbEntity
  8
GAIKEI
  6
Continuous
 62
     1
100
AcDbLine
 10
33.04551925680732
 20
3.441174726892882
 30
0.0
 11
33.04551925680732
 21
3.336288826903114
 31
0.0
  0
LINE
  5
B2
330
2
100
AcDbEntity
  8
GAIKEI
  6
Continuous
 62
     1
100
AcDbLine
 10
33.11218592346734
 20
2.997066360270537
 30
0.0
 11
33.04551925680732
 21
2.997066360270537
 31
0.0
  0
LINE
  5
B3
330
2
100
AcDbEntity
  8
GAIKEI
  6
Continuous
 62
     1
100
AcDbLine
 10
33.04551925680732
 20
2.997376326937001
 30
0.0
 11
33.04551925680732
 21
2.99733472693731
 31
0.0
  0
LINE
  5
B4
330
2
100
AcDbEntity
  8
GAIKEI
  6
Continuous
 62
     1
100
AcDbLine
 10
33.04551925680732
 20
2.997066360270537
 30
0.0
 11
33.04551925680732
 21
2.99733472693731
 31
0.0
  0
LINE
  5
B5
330
2
100
AcDbEntity
  8
GAIKEI
  6
Continuous
 62
     1
100
AcDbLine
 10
37.57218592302133
 20
7.496080459820461
 30
0.0
 11
37.43877845636803
 21
7.496080459820461
 31
0.0
  0
LINE
  5
B6
330
2
100
AcDbEntity
  8
GAIKEI
  6
Continuous
 62
     1
100
AcDbLine
 10
37.50551925636137
 20
7.529432293150478
 30
0.0
 11
37.43877845636803
 21
7.496080459820461
 31
0.0
  0
LINE
  5
B7
330
2
100
AcDbEntity
  8
GAIKEI
  6
Continuous
 62
     1
100
AcDbLine
 10
37.57218592302133
 20
7.496080459820461
 30
0.0
 11
37.57218592302133
 21
7.529432293150478
 31
0.0
  0
LINE
  5
B8
330
2
100
AcDbEntity
  8
GAIKEI
  6
Continuous
 62
     1
100
AcDbLine
 10
36.40551925647134
 20
7.496080459820461
 30
0.0
 11
36.53892672312469
 21
7.496080459820461
 31
0.0
  0
LINE
  5
B9
330
2
100
AcDbEntity
  8
GAIKEI
  6
Continuous
 62
     1
100
AcDbLine
 10
36.47218592313135
 20
7.46272859315718
 30
0.0
 11
36.53892672312469
 21
7.496080459820461
 31
0.0
  0
LINE
  5
BA
330
2
100
AcDbEntity
  8
GAIKEI
  6
Continuous
 62
     1
100
AcDbLine
 10
36.47218592313135
 20
8.129395259757188
 30
0.0
 11
36.47218592313135
 21
7.529432293150478
 31
0.0
  0
LINE
  5
BB
330
2
100
AcDbEntity
  8
GAIKEI
  6
Continuous
 62
     1
100
AcDbLine
 10
36.47218592313135
 20
7.46272859315718
 30
0.0
 11
36.47218592313135
 21
7.079413793195499
 31
0.0
  0
LINE
  5
BC
330
2
100
AcDbEntity
  8
GAIKEI
  6
Continuous
 62
     1
100
AcDbLine
 10
36.40551925647134
 20
7.079413793195499
 30
0.0
 11
36.47218592313135
 21
7.079413793195499
 31
0.0
  0
LINE
  5
BD
330
2
100
AcDbEntity
  8
GAIKEI
  6
Continuous
 62
     1
100
AcDbLine
 10
36.47218592313135
 20
8.546080459715653
 30
0.0
 11
36.47218592313135
 21
8.196098959750486
 31
0.0
  0
LINE
  5
BE
330
2
100
AcDbEntity
  8
GAIKEI
  6
Continuous
 62
     1
100
AcDbLine
 10
36.40551925647134
 20
8.546080459715653
 30
0.0
 11
36.47218592313135
 21
8.546080459715653
 31
0.0
  0
LINE
  5
BF
330
2
100
AcDbEntity
  8
GAIKEI
  6
Continuous
 62
     1
100
AcDbLine
 10
36.53892672312469
 20
7.496080459820461
 30
0.0
 11
36.47218592313135
 21
7.529432293150478
 31
0.0
  0
LINE
  5
C0
330
2
100
AcDbEntity
  8
GAIKEI
  6
Continuous
 62
     1
100
AcDbLine
 10
36.40551925647134
 20
8.16274712642047
 30
0.0
 11
36.53892672312469
 21
8.16274712642047
 31
0.0
  0
LINE
  5
C1
330
2
100
AcDbEntity
  8
GAIKEI
  6
Continuous
 62
     1
100
AcDbLine
 10
36.53892672312469
 20
8.16274712642047
 30
0.0
 11
36.47218592313135
 21
8.196098959750486
 31
0.0
  0
LINE
  5
C2
330
2
100
AcDbEntity
  8
GAIKEI
  6
Continuous
 62
     1
100
AcDbLine
 10
37.57218592302133
 20
7.46272859315718
 30
0.0
 11
37.57218592302133
 21
7.079413793195499
 31
0.0
  0
LINE
  5
C3
330
2
100
AcDbEntity
  8
GAIKEI
  6
Continuous
 62
     1
100
AcDbLine
 10
37.50551925636137
 20
7.079413793195499
 30
0.0
 11
37.57218592302133
 21
7.079413793195499
 31
0.0
  0
LINE
  5
C4
330
2
100
AcDbEntity
  8
GAIKEI
  6
Continuous
 62
     1
100
AcDbLine
 10
37.50551925636137
 20
7.46272859315718
 30
0.0
 11
37.50551925636137
 21
7.079413793195499
 31
0.0
  0
LINE
  5
C5
330
2
100
AcDbEntity
  8
GAIKEI
  6
Continuous
 62
     1
100
AcDbLine
 10
36.47218592313135
 20
8.129395259757188
 30
0.0
 11
36.53892672312469
 21
8.16274712642047
 31
0.0
  0
LINE
  5
C6
330
2
100
AcDbEntity
  8
GAIKEI
  6
Continuous
 62
     1
100
AcDbLine
 10
36.47218592313135
 20
7.079413793195499
 30
0.0
 11
37.50551925636137
 21
7.079413793195499
 31
0.0
  0
LINE
  5
C7
330
2
100
AcDbEntity
  8
GAIKEI
  6
Continuous
 62
     1
100
AcDbLine
 10
37.50551925636137
 20
7.912747126445481
 30
0.0
 11
37.50551925636137
 21
7.529432293150478
 31
0.0
  0
LINE
  5
C8
330
2
100
AcDbEntity
  8
GAIKEI
  6
Continuous
 62
     1
100
AcDbLine
 10
37.43877845636803
 20
7.496080459820461
 30
0.0
 11
37.50551925636137
 21
7.46272859315718
 31
0.0
  0
LINE
  5
C9
330
2
100
AcDbEntity
  8
GAIKEI
  6
Continuous
 62
     1
100
AcDbLine
 10
36.47218592313135
 20
8.546080459715653
 30
0.0
 11
37.50551925636137
 21
7.912747126445481
 31
0.0
  0
LINE
  5
CA
330
2
100
AcDbEntity
  8
GAIKEI
  6
Continuous
 62
     1
100
AcDbLine
 10
37.50551925636137
 20
7.912747126445481
 30
0.0
 11
37.57218592302133
 21
7.912747126445481
 31
0.0
  0
LINE
  5
CB
330
2
100
AcDbEntity
  8
GAIKEI
  6
Continuous
 62
     1
100
AcDbLine
 10
37.57218592302133
 20
7.912747126445481
 30
0.0
 11
37.57218592302133
 21
7.529432293150478
 31
0.0
  0
LINE
  5
CC
330
2
100
AcDbEntity
  8
GAIKEI
  6
Continuous
 62
     1
100
AcDbLine
 10
37.57218592302133
 20
7.46272859315718
 30
0.0
 11
37.57218592302133
 21
7.496080459820461
 31
0.0
  0
ARC
  5
CD
330
2
100
AcDbEntity
  8
GAIKEI
  6
Continuous
 62
     1
100
AcDbCircle
 10
37.57218592302133
 20
7.079413793195499
 30
0.0
 40
0.06666666666
100
AcDbArc
 50
180.0
 51
270.0
  0
ARC
  5
CE
330
2
100
AcDbEntity
  8
GAIKEI
  6
Continuous
 62
     1
100
AcDbCircle
 10
37.57218592302133
 20
7.912747126445481
 30
0.0
 40
0.06666666666
100
AcDbArc
 50
90.0
 51
180.0
  0
ELLIPSE
  5
CF
330
2
100
AcDbEntity
  8
GAIKEI
  6
Continuous
 62
     1
100
AcDbEllipse
 10
37.50551925636143
 20
7.496117493154201
 30
0.0
 11
0.0648866693257501
 21
0.0400722693097286
 31
0.0
210
0.0
220
0.0
230
1.0
 40
0.3818709999999999
 41
6.051583804818521
 42
7.62238013161066
  0
ELLIPSE
  5
D0
330
2
100
AcDbEntity
  8
GAIKEI
  6
Continuous
 62
     1
100
AcDbEllipse
 10
36.47218592313141
 20
7.496043393154138
 30
0.0
 11
0.0648866693257042
 21
0.0400722693097033
 31
0.0
210
0.0
220
0.0
230
1.0
 40
0.3818710000000001
 41
2.909991151225782
 42
4.480787478020809
  0
ELLIPSE
  5
D1
330
2
100
AcDbEntity
  8
GAIKEI
  6
Continuous
 62
     1
100
AcDbEllipse
 10
36.47218592313141
 20
8.162710059754147
 30
0.0
 11
0.0648866693257042
 21
0.0400722693097033
 31
0.0
210
0.0
220
0.0
230
1.0
 40
0.3818710000000001
 41
2.909991151225834
 42
4.480787478020792
  0
ELLIPSE
  5
D2
330
2
100
AcDbEntity
  8
GAIKEI
  6
Continuous
 62
     1
100
AcDbEllipse
 10
36.47218592313141
 20
7.496117493154201
 30
0.0
 11
-0.0648866693257046
 21
0.0400722693097005
 31
0.0
210
0.0
220
0.0
230
1.0
 40
0.3818709999999999
 41
4.943990482748574
 42
6.514786809543458
  0
ELLIPSE
  5
D3
330
2
100
AcDbEntity
  8
GAIKEI
  6
Continuous
 62
     1
100
AcDbEllipse
 10
36.47218592313141
 20
8.16278415975421
 30
0.0
 11
-0.0648866693257046
 21
0.0400722693097005
 31
0.0
210
0.0
220
0.0
230
1.0
 40
0.3818709999999999
 41
4.943990482748574
 42
6.514786809543458
  0
ELLIPSE
  5
D4
330
2
100
AcDbEntity
  8
GAIKEI
  6
Continuous
 62
     1
100
AcDbEllipse
 10
37.50551925636143
 20
7.496043393154138
 30
0.0
 11
-0.0648866693257497
 21
0.0400722693097313
 31
0.0
210
0.0
220
0.0
230
1.0
 40
0.3818709999999999
 41
1.802397829158842
 42
3.373194155950855
  0
LINE
  5
D5
330
2
100
AcDbEntity
  8
GAIKEI
  6
Continuous
 62
     1
100
AcDbLine
 10
36.43885258980134
 20
5.179413793385549
 30
0.0
 11
36.43885258980134
 21
5.112747126725594
 31
0.0
  0
LINE
  5
D6
330
2
100
AcDbEntity
  8
GAIKEI
  6
Continuous
 62
     1
100
AcDbLine
 10
36.43885258980134
 20
5.112747126725594
 30
0.0
 11
36.43885258980134
 21
5.046080460065695
 31
0.0
  0
ARC
  5
D7
330
2
100
AcDbEntity
  8
GAIKEI
  6
Continuous
 62
     1
100
AcDbCircle
 10
36.40551925647134
 20
5.046080460065695
 30
0.0
 40
0.03333333333
100
AcDbArc
 50
270.0
 51
0.0
  0
ARC
  5
D8
330
2
100
AcDbEntity
  8
GAIKEI
  6
Continuous
 62
     1
100
AcDbCircle
 10
36.40551925647134
 20
5.179413793385549
 30
0.0
 40
0.03333333333
100
AcDbArc
 50
0.0
 51
90.0
  0
LINE
  5
D9
330
2
100
AcDbEntity
  8
GAIKEI
  6
Continuous
 62
     1
100
AcDbLine
 10
36.06339178983893
 20
3.379413793565674
 30
0.0
 11
36.06339178983893
 21
32.24701009356852
 31
0.0
  0
LINE
  5
DA
330
2
100
AcDbEntity
  8
GAIKEI
  6
Continuous
100
AcDbLine
 10
34.52885258999237
 20
3.379413793565674
 30
0.0
 11
36.37218592314133
 21
3.379413793565674
 31
0.0
  0
LINE
  5
DB
330
2
100
AcDbEntity
  8
GAIKEI
  6
Continuous
100
AcDbLine
 10
34.52885258999237
 20
32.47544407814149
 30
0.0
 11
36.37709388980756
 21
32.2003118906834
 31
0.0
  0
LINE
  5
DC
330
2
100
AcDbEntity
  8
GAIKEI
  6
Continuous
100
AcDbLine
 10
36.40551925647134
 20
32.16734185735351
 30
0.0
 11
36.40551925647134
 21
3.41274712689551
 31
0.0
  0
LINE
  5
DD
330
2
100
AcDbEntity
  8
GAIKEI
  6
Continuous
100
AcDbLine
 10
36.40551925647134
 20
3.41274712689551
 30
0.0
 11
36.40551925647134
 21
3.672747126869694
 31
0.0
  0
LINE
  5
DE
330
2
100
AcDbEntity
  8
GAIKEI
  6
Continuous
100
AcDbLine
 10
36.40551925647134
 20
3.712747126865679
 30
0.0
 11
36.40551925647134
 21
4.579413793445496
 31
0.0
  0
LINE
  5
DF
330
2
100
AcDbEntity
  8
GAIKEI
  6
Continuous
100
AcDbLine
 10
36.40551925647134
 20
4.579413793445496
 30
0.0
 11
36.40551925647134
 21
4.646080460105736
 31
0.0
  0
LINE
  5
E0
330
2
100
AcDbEntity
  8
GAIKEI
  6
Continuous
100
AcDbLine
 10
36.40551925647134
 20
4.712747126765691
 30
0.0
 11
36.40551925647134
 21
4.646080460105736
 31
0.0
  0
LINE
  5
E1
330
2
100
AcDbEntity
  8
GAIKEI
  6
Continuous
100
AcDbLine
 10
36.40551925647134
 20
14.49608045912049
 30
0.0
 11
36.40551925647134
 21
14.42941379246053
 31
0.0
  0
LINE
  5
E2
330
2
100
AcDbEntity
  8
GAIKEI
  6
Continuous
100
AcDbLine
 10
36.40551925647134
 20
4.712747126765691
 30
0.0
 11
36.40551925647134
 21
5.012747126735519
 31
0.0
  0
LINE
  5
E3
330
2
100
AcDbEntity
  8
GAIKEI
  6
Continuous
100
AcDbLine
 10
36.40551925647134
 20
8.546080459715653
 30
0.0
 11
36.40551925647134
 21
14.42941379246053
 31
0.0
  0
ARC
  5
E4
330
2
100
AcDbEntity
  8
GAIKEI
  6
Continuous
100
AcDbCircle
 10
36.37218592314133
 20
32.16734185735351
 30
0.0
 40
0.03333333333
100
AcDbArc
 50
33.69006800000138
 51
81.53303299998276
  0
ARC
  5
E5
330
2
100
AcDbEntity
  8
GAIKEI
  6
Continuous
100
AcDbCircle
 10
36.37218592314133
 20
3.41274712689551
 30
0.0
 40
0.03333333333
100
AcDbArc
 50
270.0
 51
326.3099319999986
  0
ARC
  5
E6
330
2
100
AcDbEntity
  8
GAIKEI
  6
Continuous
100
AcDbCircle
 10
36.37218592314133
 20
32.16734185735351
 30
0.0
 40
0.03333333333
100
AcDbArc
 50
0.0
 51
33.69006800000138
  0
ARC
  5
E7
330
2
100
AcDbEntity
  8
GAIKEI
  6
Continuous
100
AcDbCircle
 10
36.37218592314133
 20
3.41274712689551
 30
0.0
 40
0.03333333333
100
AcDbArc
 50
326.3099319999986
 51
0.0
  0
LINE
  5
E8
330
2
100
AcDbEntity
  8
GAIKEI
  6
Continuous
 62
     1
100
AcDbLine
 10
38.17218592296138
 20
7.362747126500607
 30
0.0
 11
38.17218592296138
 21
7.346080459835548
 31
0.0
  0
LINE
  5
E9
330
2
100
AcDbEntity
  8
GAIKEI
  6
Continuous
 62
     1
100
AcDbLine
 10
38.23885258962133
 20
7.346080459835548
 30
0.0
 11
38.23885258962133
 21
7.362747126500607
 31
0.0
  0
LINE
  5
EA
330
2
100
AcDbEntity
  8
GAIKEI
  6
Continuous
 62
     1
100
AcDbLine
 10
38.17218592296138
 20
7.646080459805716
 30
0.0
 11
38.17218592296138
 21
7.629413793140656
 31
0.0
  0
LINE
  5
EB
330
2
100
AcDbEntity
  8
GAIKEI
  6
Continuous
 62
     1
100
AcDbLine
 10
38.23885258962133
 20
7.629413793140656
 30
0.0
 11
38.23885258962133
 21
7.646080459805716
 31
0.0
  0
LINE
  5
EC
330
2
100
AcDbEntity
  8
GAIKEI
  6
Continuous
 62
     1
100
AcDbLine
 10
38.23885258962133
 20
7.529413793150581
 30
0.0
 11
38.17218592296138
 21
7.529413793150581
 31
0.0
  0
LINE
  5
ED
330
2
100
AcDbEntity
  8
GAIKEI
  6
Continuous
 62
     1
100
AcDbLine
 10
38.17218592296138
 20
7.529413793150581
 30
0.0
 11
38.17218592296138
 21
7.629413793140656
 31
0.0
  0
LINE
  5
EE
330
2
100
AcDbEntity
  8
GAIKEI
  6
Continuous
 62
     1
100
AcDbLine
 10
38.23885258962133
 20
7.629413793140656
 30
0.0
 11
38.23885258962133
 21
7.529413793150581
 31
0.0
  0
LINE
  5
EF
330
2
100
AcDbEntity
  8
GAIKEI
  6
Continuous
 62
     1
100
AcDbLine
 10
38.17218592296138
 20
7.362747126500607
 30
0.0
 11
38.17218592296138
 21
7.462747126490683
 31
0.0
  0
LINE
  5
F0
330
2
100
AcDbEntity
  8
GAIKEI
  6
Continuous
 62
     1
100
AcDbLine
 10
38.17218592296138
 20
7.462747126490683
 30
0.0
 11
38.23885258962133
 21
7.462747126490683
 31
0.0
  0
LINE
  5
F1
330
2
100
AcDbEntity
  8
GAIKEI
  6
Continuous
 62
     1
100
AcDbLine
 10
38.23885258962133
 20
7.462747126490683
 30
0.0
 11
38.23885258962133
 21
7.362747126500607
 31
0.0
  0
ARC
  5
F2
330
2
100
AcDbEntity
  8
GAIKEI
  6
Continuous
 62
     1
100
AcDbCircle
 10
37.90551925632133
 20
7.346080459835548
 30
0.0
 40
0.3333333333
100
AcDbArc
 50
270.0
 51
0.0
  0
ARC
  5
F3
330
2
100
AcDbEntity
  8
GAIKEI
  6
Continuous
 62
     1
100
AcDbCircle
 10
37.90551925632133
 20
7.346080459835548
 30
0.0
 40
0.26666666664
100
AcDbArc
 50
270.0
 51
0.0
  0
ARC
  5
F4
330
2
100
AcDbEntity
  8
GAIKEI
  6
Continuous
 62
     1
100
AcDbCircle
 10
37.90551925632133
 20
7.646080459805716
 30
0.0
 40
0.26666666664
100
AcDbArc
 50
0.0
 51
90.0
  0
ARC
  5
F5
330
2
100
AcDbEntity
  8
GAIKEI
  6
Continuous
 62
     1
100
AcDbCircle
 10
37.90551925632133
 20
7.646080459805716
 30
0.0
 40
0.3333333333
100
AcDbArc
 50
0.0
 51
90.0
  0
LINE
  5
F6
330
2
100
AcDbEntity
  8
GAIKEI
  6
Continuous
 62
     1
100
AcDbLine
 10
-41.05720696732333
 20
2.497353293653816
 30
0.0
 11
-40.85265556734412
 21
2.701904693633139
 31
0.0
  0
LINE
  5
F7
330
2
100
AcDbEntity
  8
GAIKEI
  6
Continuous
 62
     1
100
AcDbLine
 10
-40.97529880066486
 20
2.824547993621195
 30
0.0
 11
-41.17985023397773
 21
2.619996560308095
 31
0.0
  0
LINE
  5
F8
330
2
100
AcDbEntity
  8
GAIKEI
  6
Continuous
 62
     1
100
AcDbLine
 10
10.32162749420536
 20
2.497353293653816
 30
0.0
 11
10.11707609422615
 21
2.701904693633139
 31
0.0
  0
LINE
  5
F9
330
2
100
AcDbEntity
  8
GAIKEI
  6
Continuous
 62
     1
100
AcDbLine
 10
10.23971932754688
 20
2.824547993621195
 30
0.0
 11
10.44427076085981
 21
2.619996560308095
 31
0.0
  0
LINE
  5
FA
330
2
100
AcDbEntity
  8
GAIKEI
  6
Continuous
 62
     1
100
AcDbLine
 10
10.44427076085981
 20
33.03883099059959
 30
0.0
 11
10.23971932754688
 21
32.83427959372239
 31
0.0
  0
LINE
  5
FB
330
2
100
AcDbEntity
  8
GAIKEI
  6
Continuous
 62
     1
100
AcDbLine
 10
10.1170760577902
 20
32.95692285727455
 30
0.0
 11
10.32162749420536
 21
33.16147425725387
 31
0.0
  0
LINE
  5
FC
330
2
100
AcDbEntity
  8
GAIKEI
  6
Continuous
 62
     1
100
AcDbLine
 10
-40.97529880066486
 20
2.807131360289531
 30
0.0
 11
-40.97529880066486
 21
32.85169622395176
 31
0.0
  0
LINE
  5
FD
330
2
100
AcDbEntity
  8
GAIKEI
  6
Continuous
 62
     1
100
AcDbLine
 10
10.23971932754688
 20
2.807131360289531
 30
0.0
 11
10.23971932754688
 21
32.85169622395176
 31
0.0
  0
LINE
  5
FE
330
2
100
AcDbEntity
  8
GAIKEI
  6
Continuous
 62
     1
100
AcDbLine
 10
-40.18528973407723
 20
2.956913793607952
 30
0.0
 11
-40.11028973408468
 21
2.956913793607952
 31
0.0
  0
LINE
  5
FF
330
2
100
AcDbEntity
  8
GAIKEI
  6
Continuous
 62
     1
100
AcDbLine
 10
-40.18528973407723
 20
2.881913793615296
 30
0.0
 11
-40.18528973407723
 21
2.956913793607952
 31
0.0
  0
LINE
  5
100
330
2
100
AcDbEntity
  8
GAIKEI
  6
Continuous
 62
     1
100
AcDbLine
 10
-40.11028973408468
 20
2.881913793615296
 30
0.0
 11
-40.18528973407723
 21
2.881913793615296
 31
0.0
  0
LINE
  5
101
330
2
100
AcDbEntity
  8
GAIKEI
  6
Continuous
 62
     1
100
AcDbLine
 10
-40.11028973408468
 20
2.956913793607952
 30
0.0
 11
-40.11028973408468
 21
2.881913793615296
 31
0.0
  0
LINE
  5
102
330
2
100
AcDbEntity
  8
GAIKEI
  6
Continuous
 62
     1
100
AcDbLine
 10
-39.1202897341837
 20
3.018580460268253
 30
0.0
 11
-39.1202897341837
 21
2.820247126954711
 31
0.0
  0
LINE
  5
103
330
2
100
AcDbEntity
  8
GAIKEI
  6
Continuous
 62
     1
100
AcDbLine
 10
-39.1036230675187
 20
2.803580460289936
 30
0.0
 11
-38.90528973420521
 21
2.803580460289936
 31
0.0
  0
LINE
  5
104
330
2
100
AcDbEntity
  8
GAIKEI
  6
Continuous
 62
     1
100
AcDbLine
 10
-38.88862306754021
 20
2.820247126954711
 30
0.0
 11
-38.88862306754021
 21
3.018580460268253
 31
0.0
  0
LINE
  5
105
330
2
100
AcDbEntity
  8
GAIKEI
  6
Continuous
 62
     1
100
AcDbLine
 10
-38.90528973420521
 20
3.035247126933313
 30
0.0
 11
-39.1036230675187
 21
3.035247126933313
 31
0.0
  0
LINE
  5
106
330
2
100
AcDbEntity
  8
GAIKEI
  6
Continuous
 62
     1
100
AcDbLine
 10
-40.87007216734207
 20
2.701904693633139
 30
0.0
 11
10.13449269422409
 21
2.701904693633139
 31
0.0
  0
LINE
  5
107
330
2
100
AcDbEntity
  8
GAIKEI
  6
Continuous
 62
     1
100
AcDbLine
 10
10.13449269422409
 20
32.95692285727455
 30
0.0
 11
-40.87007216734207
 21
32.95692285727455
 31
0.0
  0
LINE
  5
108
330
2
100
AcDbEntity
  8
GAIKEI
  6
Continuous
 62
     1
100
AcDbLine
 10
9.219350727648929
 20
31.82057432405469
 30
0.0
 11
9.219350727648929
 21
3.838253226852998
 31
0.0
  0
LINE
  5
109
330
2
100
AcDbEntity
  8
GAIKEI
  6
Continuous
 62
     1
100
AcDbLine
 10
-39.85895030077654
 20
31.91655422404529
 30
0.0
 11
9.123370827658561
 21
31.91655422404529
 31
0.0
  0
LINE
  5
10A
330
2
100
AcDbEntity
  8
GAIKEI
  6
Continuous
 62
     1
100
AcDbLine
 10
-39.95493020076691
 20
3.838253226852998
 30
0.0
 11
-39.95493020076691
 21
31.82057432405469
 31
0.0
  0
LINE
  5
10B
330
2
100
AcDbEntity
  8
GAIKEI
  6
Continuous
 62
     1
100
AcDbLine
 10
9.123370827658561
 20
3.742273326862687
 30
0.0
 11
-39.85895030077654
 21
3.742273326862687
 31
0.0
  0
LINE
  5
10C
330
2
100
AcDbEntity
  8
GAIKEI
  6
Continuous
 62
     1
100
AcDbLine
 10
10.32162749420536
 20
33.16147425725387
 30
0.0
 11
-41.05720696732333
 21
33.16147425725387
 31
0.0
  0
LINE
  5
10D
330
2
100
AcDbEntity
  8
GAIKEI
  6
Continuous
 62
     1
100
AcDbLine
 10
-41.17985023397773
 20
2.619996560308095
 30
0.0
 11
-41.17985023397773
 21
33.03883099059959
 31
0.0
  0
LINE
  5
10E
330
2
100
AcDbEntity
  8
GAIKEI
  6
Continuous
 62
     1
100
AcDbLine
 10
10.44427076085981
 20
2.619996560308095
 30
0.0
 11
10.44427076085981
 21
33.03883099059959
 31
0.0
  0
LINE
  5
10F
330
2
100
AcDbEntity
  8
GAIKEI
  6
Continuous
 62
     1
100
AcDbLine
 10
-41.05720696732333
 20
2.497353293653816
 30
0.0
 11
10.32162749420536
 21
2.497353293653816
 31
0.0
  0
LINE
  5
110
330
2
100
AcDbEntity
  8
GAIKEI
  6
Continuous
 62
     1
100
AcDbLine
 10
-39.88445640077396
 20
31.74608045739546
 30
0.0
 11
-39.88445640077396
 21
3.912747126845488
 31
0.0
  0
LINE
  5
111
330
2
100
AcDbEntity
  8
GAIKEI
  6
Continuous
 62
     1
100
AcDbLine
 10
9.048876927665958
 20
3.812747126855754
 30
0.0
 11
-39.78445640078394
 21
3.812747126855754
 31
0.0
  0
LINE
  5
112
330
2
100
AcDbEntity
  8
GAIKEI
  6
Continuous
 62
     1
100
AcDbLine
 10
-39.78445640078394
 20
31.84608045738554
 30
0.0
 11
9.048876927665958
 21
31.84608045738554
 31
0.0
  0
LINE
  5
113
330
2
100
AcDbEntity
  8
GAIKEI
  6
Continuous
 62
     1
100
AcDbLine
 10
9.148876927656033
 20
31.74608045739546
 30
0.0
 11
9.148876927656033
 21
3.912747126845488
 31
0.0
  0
LINE
  5
114
330
2
100
AcDbEntity
  8
GAIKEI
  6
Continuous
100
AcDbLine
 10
-41.26778973396898
 20
33.11608045725871
 30
0.0
 11
-41.26778973396898
 21
2.54274712698259
 31
0.0
  0
LINE
  5
115
330
2
100
AcDbEntity
  8
GAIKEI
  6
Continuous
100
AcDbLine
 10
10.532210260851
 20
33.11608045725871
 30
0.0
 11
10.532210260851
 21
2.54274712698259
 31
0.0
  0
LINE
  5
116
330
2
100
AcDbEntity
  8
GAIKEI
  6
Continuous
100
AcDbLine
 10
10.39887692753103
 20
33.24941379057856
 30
0.0
 11
-41.13445640064895
 21
33.24941379057856
 31
0.0
  0
LINE
  5
117
330
2
100
AcDbEntity
  8
GAIKEI
  6
Continuous
100
AcDbLine
 10
10.39887692753103
 20
2.409413793662736
 30
0.0
 11
-41.13445640064895
 21
2.409413793662736
 31
0.0
  0
ARC
  5
118
330
2
100
AcDbEntity
  8
GAIKEI
  6
Continuous
 62
     1
100
AcDbCircle
 10
-41.14713140064771
 20
1.912868093712233
 30
0.0
 40
0.5913622666075305
100
AcDbArc
 50
81.25349099998324
 51
82.8357269999824
  0
ARC
  5
119
330
2
100
AcDbEntity
  8
GAIKEI
  6
Continuous
 62
     1
100
AcDbCircle
 10
-41.75860073391987
 20
2.530873526983668
 30
0.0
 40
0.5855724332747761
100
AcDbArc
 50
7.156451000022363
 51
8.754332000003183
  0
ARC
  5
11A
330
2
100
AcDbEntity
  8
GAIKEI
  6
Continuous
 62
     1
100
AcDbCircle
 10
11.02302126080195
 20
2.530873526983668
 30
0.0
 40
0.5855724332747761
100
AcDbArc
 50
171.2456679999968
 51
172.8435489999776
  0
ARC
  5
11B
330
2
100
AcDbEntity
  8
GAIKEI
  6
Continuous
 62
     1
100
AcDbCircle
 10
10.4115518941964
 20
1.912868093712233
 30
0.0
 40
0.5913622666075305
100
AcDbArc
 50
97.16427300001761
 51
98.74650900001674
  0
ARC
  5
11C
330
2
100
AcDbEntity
  8
GAIKEI
  6
Continuous
 62
     1
100
AcDbCircle
 10
-41.76433543391931
 20
33.12875542392379
 30
0.0
 40
0.5913622666075305
100
AcDbArc
 50
351.2534910000339
 51
352.8357269999872
  0
ARC
  5
11D
330
2
100
AcDbEntity
  8
GAIKEI
  6
Continuous
 62
     1
100
AcDbCircle
 10
-41.14632996731439
 20
33.74022479052945
 30
0.0
 40
0.5855724332747761
100
AcDbArc
 50
277.1564510000302
 51
278.7543319999968
  0
ARC
  5
11E
330
2
100
AcDbEntity
  8
GAIKEI
  6
Continuous
 62
     1
100
AcDbCircle
 10
10.41075049419652
 20
33.74022479052945
 30
0.0
 40
0.5855724332747761
100
AcDbArc
 50
261.245668000003
 51
262.8435489999698
  0
ARC
  5
11F
330
2
100
AcDbEntity
  8
GAIKEI
  6
Continuous
 62
     1
100
AcDbCircle
 10
11.02875596080139
 20
33.12875542392379
 30
0.0
 40
0.5913622666075305
100
AcDbArc
 50
187.1642730000127
 51
188.7465089999661
  0
ARC
  5
120
330
2
100
AcDbEntity
  8
GAIKEI
  6
Continuous
 62
     1
100
AcDbCircle
 10
-39.1036230675187
 20
2.820247126954711
 30
0.0
 40
0.016666666665
100
AcDbArc
 50
180.0
 51
270.0
  0
ARC
  5
121
330
2
100
AcDbEntity
  8
GAIKEI
  6
Continuous
 62
     1
100
AcDbCircle
 10
-38.90528973420521
 20
2.820247126954711
 30
0.0
 40
0.016666666665
100
AcDbArc
 50
270.0
 51
0.0
  0
ARC
  5
122
330
2
100
AcDbEntity
  8
GAIKEI
  6
Continuous
 62
     1
100
AcDbCircle
 10
-38.90528973420521
 20
3.018580460268253
 30
0.0
 40
0.016666666665
100
AcDbArc
 50
0.0
 51
90.0
  0
ARC
  5
123
330
2
100
AcDbEntity
  8
GAIKEI
  6
Continuous
 62
     1
100
AcDbCircle
 10
-39.1036230675187
 20
3.018580460268253
 30
0.0
 40
0.016666666665
100
AcDbArc
 50
90.0
 51
180.0
  0
ARC
  5
124
330
2
100
AcDbEntity
  8
GAIKEI
  6
Continuous
100
AcDbCircle
 10
10.39887692753103
 20
33.11608045725871
 30
0.0
 40
0.13333333332
100
AcDbArc
 50
0.0
 51
90.0
  0
ARC
  5
125
330
2
100
AcDbEntity
  8
GAIKEI
  6
Continuous
100
AcDbCircle
 10
10.39887692753103
 20
2.54274712698259
 30
0.0
 40
0.13333333332
100
AcDbArc
 50
270.0
 51
0.0
  0
ARC
  5
126
330
2
100
AcDbEntity
  8
GAIKEI
  6
Continuous
100
AcDbCircle
 10
-41.13445640064895
 20
2.54274712698259
 30
0.0
 40
0.13333333332
100
AcDbArc
 50
180.0
 51
270.0
  0
ARC
  5
127
330
2
100
AcDbEntity
  8
GAIKEI
  6
Continuous
100
AcDbCircle
 10
-41.13445640064895
 20
33.11608045725871
 30
0.0
 40
0.13333333332
100
AcDbArc
 50
90.0
 51
180.0
  0
SPLINE
  5
128
330
2
100
AcDbEntity
  8
GAIKEI
  6
Continuous
 62
     1
100
AcDbSpline
210
0.0
220
0.0
230
1.0
 70
     8
 71
     3
 72
    25
 73
    21
 74
    19
 42
0.0000000001
 43
0.0000000001
 44
0.000001
 12
-0.999999999016644
 22
0.000044347631279
 32
0.0
 13
0.0000708084285261
 23
0.9999999974930833
 33
0.0
 40
0.0
 40
0.0
 40
0.0
 40
0.0
 40
0.0088869517840266
 40
0.0177742600796088
 40
0.026905730447412
 40
0.0360368514759504
 40
0.0449285707259159
 40
0.0538199683618932
 40
0.0629877062306082
 40
0.072155206708871
 40
0.0807483311030993
 40
0.0893414341049521
 40
0.098195851729584
 40
0.1070504338468595
 40
0.1154692112085087
 40
0.1238882301927364
 40
0.1325343899647748
 40
0.1411808491471889
 40
0.1534060190745682
 40
0.1657846095541946
 40
0.1657846095541946
 40
0.1657846095541946
 40
0.1657846095541946
 10
-40.87007217076205
 20
2.701904701657042
 30
0.0
 10
-40.87303448802049
 20
2.701904833028777
 30
0.0
 10
-40.87896187479799
 20
2.702142993081395
 30
0.0
 10
-40.88787533144944
 20
2.703215465364849
 30
0.0
 10
-40.89675140863511
 20
2.705035332920829
 30
0.0
 10
-40.90544494058619
 20
2.707594581322666
 30
0.0
 10
-40.91381413146925
 20
2.710855445045353
 30
0.0
 10
-40.92188952572786
 20
2.714816561513373
 30
0.0
 10
-40.92966473994707
 20
2.719520996727624
 30
0.0
 10
-40.93690933014369
 20
2.724841547459504
 30
0.0
 10
-40.94351103715519
 20
2.730652833201361
 30
0.0
 10
-40.949525600077
 20
2.736926060522023
 30
0.0
 10
-40.95502768747713
 20
2.743766446724066
 30
0.0
 10
-40.95988450374782
 20
2.751009002344744
 30
0.0
 10
-40.96403938269037
 20
2.758508587927508
 30
0.0
 10
-40.96754706006499
 20
2.766255248401989
 30
0.0
 10
-40.97043787353539
 20
2.77433384290316
 30
0.0
 10
-40.97299912111739
 20
2.78384427497059
 30
0.0
 10
-40.97484161132896
 20
2.794796867474133
 30
0.0
 10
-40.97529910611214
 20
2.803005148018939
 30
0.0
 10
-40.97529881394263
 20
2.807131344835113
 30
0.0
 11
-40.87007217076205
 21
2.701904701657042
 31
0.0
 11
-40.87895254338696
 21
2.702259729692002
 31
0.0
 11
-40.88777590487114
 21
2.703323999514168
 31
0.0
 11
-40.89672115918569
 21
2.705158808932139
 31
0.0
 11
-40.90547963898029
 21
2.707740826289352
 31
0.0
 11
-40.91376449976843
 21
2.710969478840752
 31
0.0
 11
-40.92174580775065
 21
2.714888171372081
 31
0.0
 11
-40.92958963803494
 21
2.71963393632842
 31
0.0
 11
-40.93697685999603
 21
2.725062801299543
 31
0.0
 11
-40.94342780781409
 21
2.730739733266773
 31
0.0
 11
-40.94937378773551
 21
2.736943541788377
 31
0.0
 11
-40.95492523669753
 21
2.743841559471832
 31
0.0
 11
-40.95985656399967
 21
2.751195887614017
 31
0.0
 11
-40.96393878591629
 21
2.758558747561778
 31
0.0
 11
-40.96741187668539
 21
2.766228031774971
 31
0.0
 11
-40.97032770625008
 21
2.774367711242689
 31
0.0
 11
-40.97257709486195
 21
2.782716471110404
 31
0.0
 11
-40.97461028133341
 21
2.794771396864234
 31
0.0
 11
-40.97529881394263
 21
2.807131344835113
 31
0.0
  0
SPLINE
  5
129
330
2
100
AcDbEntity
  8
GAIKEI
  6
Continuous
 62
     1
100
AcDbSpline
210
0.0
220
0.0
230
1.0
 70
     8
 71
     3
 72
    25
 73
    21
 74
    19
 42
0.0000000001
 43
0.0000000001
 44
0.000001
 12
0.9999999992068005
 22
-0.0000398296276659
 32
0.0
 13
-0.0000708084285262
 23
0.9999999974930833
 33
0.0
 40
0.0
 40
0.0
 40
0.0
 40
0.0
 40
0.0088583611600152
 40
0.0177742877641921
 40
0.0268731363766315
 40
0.0360369327943801
 40
0.0448965507325041
 40
0.0538201110511837
 40
0.0629508382714127
 40
0.072155435007537
 40
0.0807174245674518
 40
0.0893417292157869
 40
0.0981625087846498
 40
0.1070508037041593
 40
0.115441851222817
 40
0.1239740019471984
 40
0.1325064333824659
 40
0.1411812669712582
 40
0.1534064369119067
 40
0.1657850276806043
 40
0.1657850276806043
 40
0.1657850276806043
 40
0.1657850276806043
 10
10.13449269509334
 20
2.701904701657042
 30
0.0
 10
10.13744548214433
 20
2.701904584048634
 30
0.0
 10
10.14337290615515
 20
2.702141566560953
 30
0.0
 10
10.15227561463061
 20
2.703212714133485
 30
0.0
 10
10.16116160381398
 20
2.705031483829998
 30
0.0
 10
10.16984481587923
 20
2.707588240815368
 30
0.0
 10
10.17822536485735
 20
2.710849780899707
 30
0.0
 10
10.18628938746849
 20
2.714806300677992
 30
0.0
 10
10.19407595257718
 20
2.719512520155035
 30
0.0
 10
10.20131166109229
 20
2.724827900407831
 30
0.0
 10
10.20792509528871
 20
2.730644448957036
 30
0.0
 10
10.21393122445363
 20
2.736910398260533
 30
0.0
 10
10.21944288511429
 20
2.743756318934401
 30
0.0
 10
10.22429374728455
 20
2.750991910121001
 30
0.0
 10
10.22847088605036
 20
2.758524480290645
 30
0.0
 10
10.23196980096634
 20
2.766265092176126
 30
0.0
 10
10.23486421719565
 20
2.774351833830337
 30
0.0
 10
10.23741758137953
 20
2.783835106939363
 30
0.0
 10
10.23926229794898
 20
2.794796808180876
 30
0.0
 10
10.23971963044337
 20
2.803005147922533
 30
0.0
 10
10.23971933827386
 20
2.807131344835113
 30
0.0
 11
10.13449269509334
 21
2.701904701657042
 31
0.0
 11
10.14334456214794
 21
2.702257074430406
 31
0.0
 11
10.15219642920254
 21
2.703323999514168
 31
0.0
 11
10.16111012733131
 21
2.705150296130227
 31
0.0
 11
10.16990016331152
 21
2.707740826289352
 31
0.0
 11
10.17815586824338
 21
2.710955884787153
 31
0.0
 11
10.18616633208194
 21
2.714888171372081
 31
0.0
 11
10.19397984699998
 21
2.719612544080803
 31
0.0
 11
10.20139738432726
 21
2.725062801299543
 31
0.0
 11
10.2078263502072
 21
2.730717582966235
 31
0.0
 11
10.21379431206679
 21
2.736943541788377
 31
0.0
 11
10.21932647800264
 21
2.743813899154076
 31
0.0
 11
10.22427708833101
 21
2.751195887614017
 31
0.0
 11
10.22834738998671
 21
2.758533649608921
 31
0.0
 11
10.23186390131758
 21
2.766307461471228
 31
0.0
 11
10.23474028659734
 21
2.77434046551474
 31
0.0
 11
10.23699761919312
 21
2.782716471110404
 31
0.0
 11
10.23903080566475
 21
2.794771396864234
 31
0.0
 11
10.23971933827386
 21
2.807131344835113
 31
0.0
  0
SPLINE
  5
12A
330
2
100
AcDbEntity
  8
GAIKEI
  6
Continuous
 62
     1
100
AcDbSpline
210
0.0
220
0.0
230
1.0
 70
     8
 71
     3
 72
    21
 73
    17
 74
    15
 42
0.0000000001
 43
0.0000000001
 44
0.000001
 12
-0.0006952151951139
 22
0.9999997583378871
 32
0.0
 13
-0.9999999848615342
 23
0.0001740026763733
 33
0.0
 40
0.0
 40
0.0
 40
0.0
 40
0.0
 40
0.0119981231002635
 40
0.0240318307126908
 40
0.0360276495881652
 40
0.048051189425271
 40
0.0601143592138984
 40
0.0721347564028099
 40
0.0837497018499831
 40
0.0954036594180324
 40
0.1070193568544564
 40
0.1183805918997529
 40
0.1297767624725953
 40
0.1411409818195375
 40
0.1534426802479941
 40
0.1657445761676854
 40
0.1657445761676854
 40
0.1657445761676854
 40
0.1657445761676854
 10
10.23971933827386
 20
32.85169621278863
 30
0.0
 10
10.23971655784802
 20
32.85569558618886
 30
0.0
 10
10.23927975361931
 20
32.86371268144615
 30
0.0
 10
10.2373321389077
 20
32.87558543532361
 30
0.0
 10
10.23409931816309
 20
32.88718689626603
 30
0.0
 10
10.22954246387778
 20
32.89834682501618
 30
0.0
 10
10.22373992068264
 20
32.90892104477831
 30
0.0
 10
10.21683027192921
 20
32.91864425869665
 30
0.0
 10
10.20889559728511
 20
32.92736433946016
 30
0.0
 10
10.20012662321366
 20
32.93503820459148
 30
0.0
 10
10.19061486173609
 20
32.94162458171332
 30
0.0
 10
10.18048629780588
 20
32.94703142280162
 30
0.0
 10
10.16991506019968
 20
32.95128572924352
 30
0.0
 10
10.15865030232518
 20
32.95448248019602
 30
0.0
 10
10.14680124320546
 20
32.95646541465624
 30
0.0
 10
10.13859332700619
 20
32.95692214244849
 30
0.0
 10
10.13449269509504
 20
32.95692285596942
 30
0.0
 11
10.23971933827386
 21
32.85169621278863
 31
0.0
 11
10.23906628718879
 21
32.86367706061708
 31
0.0
 11
10.23711631951863
 21
32.87555174094325
 31
0.0
 11
10.23388321364172
 21
32.88710368100664
 31
0.0
 11
10.22934170597773
 21
32.89823656465842
 31
0.0
 11
10.22353530594301
 21
32.90881043326772
 31
0.0
 11
10.21656123863113
 21
32.91860090202249
 31
0.0
 11
10.20875129431198
 21
32.92719814829519
 31
0.0
 11
10.19998174928258
 21
32.93487348052662
 31
0.0
 11
10.19042815231643
 21
32.94148060602646
 31
0.0
 11
10.18041131377498
 21
32.94684170393379
 31
0.0
 11
10.16984031170824
 21
32.95109932272891
 31
0.0
 11
10.1589075688193
 21
32.9542011368888
 31
0.0
 11
10.14677621373539
 21
32.95624131220035
 31
0.0
 11
10.13449269509504
 21
32.95692285596942
 31
0.0
  0
SPLINE
  5
12B
330
2
100
AcDbEntity
  8
GAIKEI
  6
Continuous
 62
     1
100
AcDbSpline
210
0.0
220
0.0
230
1.0
 70
     8
 71
     3
 72
    21
 73
    17
 74
    15
 42
0.0000000001
 43
0.0000000001
 44
0.000001
 12
0.0006952151951138
 22
0.9999997583378871
 32
0.0
 13
0.9999999848615342
 23
0.0001740026763733
 33
0.0
 40
0.0
 40
0.0
 40
0.0
 40
0.0
 40
0.0119981231002666
 40
0.0240318307127031
 40
0.0360276495881469
 40
0.0480511894252742
 40
0.0601143592139016
 40
0.072134756402813
 40
0.0837497018499862
 40
0.09540365941795
 40
0.1070193568544675
 40
0.118380591899764
 40
0.1297767624727119
 40
0.1411409818195447
 40
0.1534426802479452
 40
0.1657445761676366
 40
0.1657445761676366
 40
0.1657445761676366
 40
0.1657445761676366
 10
-40.97529881394263
 20
32.85169621278863
 30
0.0
 10
-40.9752960335168
 20
32.85569558618886
 30
0.0
 10
-40.97485922928797
 20
32.86371268144632
 30
0.0
 10
-40.9729116145763
 20
32.87558543532356
 30
0.0
 10
-40.96967879383197
 20
32.8871868962662
 30
0.0
 10
-40.96512193954646
 20
32.89834682501606
 30
0.0
 10
-40.95931939635136
 20
32.90892104477831
 30
0.0
 10
-40.95240974759789
 20
32.91864425869676
 30
0.0
 10
-40.94447507295379
 20
32.92736433946016
 30
0.0
 10
-40.93570609888252
 20
32.9350382045916
 30
0.0
 10
-40.92619433740469
 20
32.94162458171332
 30
0.0
 10
-40.91606577347465
 20
32.94703142280167
 30
0.0
 10
-40.90549453586834
 20
32.95128572924352
 30
0.0
 10
-40.89422977799393
 20
32.95448248019602
 30
0.0
 10
-40.8823807188742
 20
32.95646541465618
 30
0.0
 10
-40.87417280267496
 20
32.95692214244849
 30
0.0
 10
-40.87007217076382
 20
32.95692285596942
 30
0.0
 11
-40.97529881394263
 21
32.85169621278863
 31
0.0
 11
-40.97464576285751
 21
32.86367706061708
 31
0.0
 11
-40.97269579518729
 21
32.87555174094325
 31
0.0
 11
-40.96946268931048
 21
32.88710368100664
 31
0.0
 11
-40.96492118164644
 21
32.89823656465842
 31
0.0
 11
-40.95911478161172
 21
32.90881043326772
 31
0.0
 11
-40.95214071429984
 21
32.91860090202249
 31
0.0
 11
-40.94433076998069
 21
32.92719814829519
 31
0.0
 11
-40.93556122495141
 21
32.93487348052662
 31
0.0
 11
-40.92600762798514
 21
32.94148060602646
 31
0.0
 11
-40.91599078944369
 21
32.94684170393379
 31
0.0
 11
-40.90541978737684
 21
32.95109932272891
 31
0.0
 11
-40.89448704448801
 21
32.9542011368888
 31
0.0
 11
-40.88235568940416
 21
32.95624131220035
 31
0.0
 11
-40.87007217076382
 21
32.95692285596942
 31
0.0
  0
SPLINE
  5
12C
330
2
100
AcDbEntity
  8
GAIKEI
  6
Continuous
 62
     1
100
AcDbSpline
210
0.0
220
0.0
230
1.0
 70
     8
 71
     3
 72
    17
 73
    13
 74
    11
 42
0.0000000001
 43
0.0000000001
 44
0.000001
 12
-0.9920513048680184
 22
0.1258340514712218
 32
0.0
 13
-0.1263611953854212
 23
0.9919842984144292
 33
0.0
 40
0.0
 40
0.0
 40
0.0
 40
0.0
 40
0.0117187676019406
 40
0.0234376012402496
 40
0.0403817859152992
 40
0.0573248063717807
 40
0.0742501708177654
 40
0.0911753894203259
 40
0.1080541896931466
 40
0.1249338354398682
 40
0.1417897893327826
 40
0.1586468468347963
 40
0.1586468468347963
 40
0.1586468468347963
 40
0.1586468468347963
 10
-41.07337988814549
 20
2.499613406113098
 30
0.0
 10
-41.0772550943758
 20
2.500104946114959
 30
0.0
 10
-41.08496374477605
 20
2.501458356364196
 30
0.0
 10
-41.09795995812828
 20
2.50503338276826
 30
0.0
 10
-41.11208112641395
 20
2.510803734133787
 30
0.0
 10
-41.12676686021958
 20
2.519355202010444
 30
0.0
 10
-41.14006120336575
 20
2.529932894553553
 30
0.0
 10
-41.15172493540538
 20
2.54225593177307
 30
0.0
 10
-41.16147677045401
 20
2.556121637098044
 30
0.0
 10
-41.16919447107855
 20
2.571187785390691
 30
0.0
 10
-41.17469786729986
 20
2.587184462811308
 30
0.0
 10
-41.17688008350751
 20
2.598249648667604
 30
0.0
 10
-41.1775901094864
 20
2.603823627454119
 30
0.0
 11
-41.07337988814549
 21
2.499613406113098
 31
0.0
 11
-41.0849229148452
 21
2.501637937523128
 31
0.0
 11
-41.0962204179645
 21
2.504752027344011
 31
0.0
 11
-41.11190746082042
 21
2.511156990644167
 31
0.0
 11
-41.12654136603715
 21
2.519696079276343
 31
0.0
 11
-41.13979272513495
 21
2.530225601202573
 31
0.0
 11
-41.15141842726387
 21
2.542526310583014
 31
0.0
 11
-41.16114042219521
 21
2.556324063733484
 31
0.0
 11
-41.16882976690914
 21
2.571350628340269
 31
0.0
 11
-41.1743272968556
 21
2.587284889991565
 31
0.0
 11
-41.1775901094864
 21
2.603823627454119
 31
0.0
  0
SPLINE
  5
12D
330
2
100
AcDbEntity
  8
GAIKEI
  6
Continuous
 62
     1
100
AcDbSpline
210
0.0
220
0.0
230
1.0
 70
     8
 71
     3
 72
    17
 73
    13
 74
    11
 42
0.0000000001
 43
0.0000000001
 44
0.000001
 12
0.9920513048680184
 22
0.1258340514712215
 32
0.0
 13
0.1263611953854212
 23
0.9919842984144292
 33
0.0
 40
0.0
 40
0.0
 40
0.0
 40
0.0
 40
0.0117187676019897
 40
0.0234376012402232
 40
0.0403817859152202
 40
0.0573248063717999
 40
0.0742501708176065
 40
0.0911753894202451
 40
0.1080541896930658
 40
0.1249338354397616
 40
0.1417897893327316
 40
0.1586468468347343
 40
0.1586468468347343
 40
0.1586468468347343
 40
0.1586468468347343
 10
10.33780041247678
 20
2.499613406113098
 30
0.0
 10
10.34167561870711
 20
2.500104946114959
 30
0.0
 10
10.3493842691073
 20
2.501458356364707
 30
0.0
 10
10.36238048245957
 20
2.505033382768033
 30
0.0
 10
10.37650165074515
 20
2.510803734133844
 30
0.0
 10
10.3911873845509
 20
2.519355202010387
 30
0.0
 10
10.40448172769695
 20
2.529932894553553
 30
0.0
 10
10.41614545973661
 20
2.542255931773183
 30
0.0
 10
10.42589729478524
 20
2.55612163709793
 30
0.0
 10
10.43361499540964
 20
2.571187785390804
 30
0.0
 10
10.43911839163132
 20
2.58718446281108
 30
0.0
 10
10.4413006078388
 20
2.59824964866766
 30
0.0
 10
10.44201063381769
 20
2.603823627454119
 30
0.0
 11
10.33780041247678
 21
2.499613406113098
 31
0.0
 11
10.34934343917649
 21
2.501637937523469
 31
0.0
 11
10.36064094229579
 21
2.504752027344011
 31
0.0
 11
10.37632798515164
 21
2.511156990644167
 31
0.0
 11
10.39096189036849
 21
2.519696079276343
 31
0.0
 11
10.40421324946606
 21
2.530225601202573
 31
0.0
 11
10.4158389515951
 21
2.542526310583014
 31
0.0
 11
10.42556094652644
 21
2.556324063733484
 31
0.0
 11
10.43325029124031
 21
2.571350628340269
 31
0.0
 11
10.43874782118695
 21
2.587284889991565
 31
0.0
 11
10.44201063381769
 21
2.603823627454119
 31
0.0
  0
SPLINE
  5
12E
330
2
100
AcDbEntity
  8
GAIKEI
  6
Continuous
 62
     1
100
AcDbSpline
210
0.0
220
0.0
230
1.0
 70
     8
 71
     3
 72
    17
 73
    13
 74
    11
 42
0.0000000001
 43
0.0000000001
 44
0.000001
 12
0.1258340515666572
 22
0.9920513048559131
 32
0.0
 13
0.9919842984270729
 23
0.126361195286164
 33
0.0
 40
0.0
 40
0.0
 40
0.0
 40
0.0
 40
0.0117187676049011
 40
0.0234376012460357
 40
0.040381785920339
 40
0.0573248063760986
 40
0.0742501708192722
 40
0.0911753894194053
 40
0.1080541896883628
 40
0.1249338354313614
 40
0.1417897893223615
 40
0.158646846822445
 40
0.158646846822445
 40
0.158646846822445
 40
0.158646846822445
 10
-41.1775901094847
 20
33.05500393018542
 30
0.0
 10
-41.17709856948232
 20
33.05887913641669
 30
0.0
 10
-41.17574515923172
 20
33.06658778681862
 30
0.0
 10
-41.17217013282576
 20
33.07958400017202
 30
0.0
 10
-41.16639978145857
 20
33.09370516845758
 30
0.0
 10
-41.15784831358067
 20
33.10839090226085
 30
0.0
 10
-41.14727062103776
 20
33.12168524540442
 30
0.0
 10
-41.13494758381889
 20
33.13334897744068
 30
0.0
 10
-41.12108187849656
 20
33.14310081248692
 30
0.0
 10
-41.10601573020594
 20
33.1508185131085
 30
0.0
 10
-41.09001905278776
 20
33.1563219093286
 30
0.0
 10
-41.07895386693226
 20
33.15850412553482
 30
0.0
 10
-41.07337988814634
 20
33.15921415151308
 30
0.0
 11
-41.1775901094847
 21
33.05500393018542
 31
0.0
 11
-41.17556557807273
 21
33.06654695688781
 31
0.0
 11
-41.1724514882498
 21
33.07784446000949
 31
0.0
 11
-41.16604652494816
 21
33.09353150286398
 31
0.0
 11
-41.15750743631457
 21
33.10816540807901
 31
0.0
 11
-41.14697791438868
 21
33.12141676717351
 31
0.0
 11
-41.13467720500892
 21
33.13304246929965
 31
0.0
 11
-41.12087945186106
 21
33.14276446422798
 31
0.0
 11
-41.10585288725707
 21
33.15045380893912
 31
0.0
 11
-41.0899186256073
 21
33.15595133888422
 31
0.0
 11
-41.07337988814634
 21
33.15921415151308
 31
0.0
  0
SPLINE
  5
12F
330
2
100
AcDbEntity
  8
GAIKEI
  6
Continuous
 62
     1
100
AcDbSpline
210
0.0
220
0.0
230
1.0
 70
     8
 71
     3
 72
    17
 73
    13
 74
    11
 42
0.0000000001
 43
0.0000000001
 44
0.000001
 12
-0.1258340515666571
 22
0.9920513048559131
 32
0.0
 13
-0.9919842984270728
 23
0.1263611952861642
 33
0.0
 40
0.0
 40
0.0
 40
0.0
 40
0.0
 40
0.011718767604911
 40
0.0234376012460304
 40
0.0403817859203337
 40
0.0573248063761507
 40
0.0742501708192181
 40
0.0911753894193926
 40
0.10805418968835
 40
0.124933835431298
 40
0.1417897893223518
 40
0.1586468468223796
 40
0.1586468468223796
 40
0.1586468468223796
 40
0.1586468468223796
 10
10.44201063381598
 20
33.05500393018542
 30
0.0
 10
10.44151909381361
 20
33.05887913641669
 30
0.0
 10
10.44016568356292
 20
33.06658778681867
 30
0.0
 10
10.43659065715704
 20
33.07958400017208
 30
0.0
 10
10.43082030578995
 20
33.09370516845758
 30
0.0
 10
10.42226883791176
 20
33.10839090226068
 30
0.0
 10
10.41169114536905
 20
33.12168524540459
 30
0.0
 10
10.39936810815027
 20
33.13334897744062
 30
0.0
 10
10.38550240282785
 20
33.14310081248692
 30
0.0
 10
10.37043625453728
 20
33.15081851310856
 30
0.0
 10
10.35443957711905
 20
33.15632190932871
 30
0.0
 10
10.34337439126358
 20
33.15850412553482
 30
0.0
 10
10.33780041247769
 20
33.15921415151308
 30
0.0
 11
10.44201063381598
 21
33.05500393018542
 31
0.0
 11
10.43998610240396
 21
33.06654695688781
 31
0.0
 11
10.43687201258109
 21
33.07784446000949
 31
0.0
 11
10.43046704927945
 21
33.09353150286398
 31
0.0
 11
10.42192796064574
 21
33.10816540807901
 31
0.0
 11
10.41139843872002
 21
33.12141676717351
 31
0.0
 11
10.39909772934021
 21
33.13304246929965
 31
0.0
 11
10.38529997619235
 21
33.14276446422798
 31
0.0
 11
10.37027341158841
 21
33.15045380893912
 31
0.0
 11
10.35433914993859
 21
33.15595133888422
 31
0.0
 11
10.33780041247769
 21
33.15921415151308
 31
0.0
  0
SPLINE
  5
130
330
2
100
AcDbEntity
  8
GAIKEI
  6
Continuous
 62
     1
100
AcDbSpline
210
0.0
220
0.0
230
1.0
 70
     8
 71
     3
 72
    20
 73
    16
 74
    14
 42
0.0000000001
 43
0.0000000001
 44
0.000001
 12
0.9999995888701286
 22
-0.0009067852964629
 32
0.0
 13
-0.0002574072790882
 23
-0.9999999668707458
 33
0.0
 40
0.0
 40
0.0
 40
0.0
 40
0.0
 40
0.0108878157930513
 40
0.0218092092537442
 40
0.0326956238353398
 40
0.0437056356237619
 40
0.0547513475502066
 40
0.0657586131983395
 40
0.0764885721128005
 40
0.0872550800268501
 40
0.0979862192408646
 40
0.1136776855741775
 40
0.1293706422236803
 40
0.1401632936047915
 40
0.150956492556564
 40
0.150956492556564
 40
0.150956492556564
 40
0.150956492556564
 10
9.123370814798988
 20
31.91655422948384
 30
0.0
 10
9.127000085237909
 20
31.91655093851341
 30
0.0
 10
9.134275805819754
 20
31.91614698640478
 30
0.0
 10
9.145046274856326
 20
31.91434945356178
 30
0.0
 10
9.155594089035133
 20
31.91136101569493
 30
0.0
 10
9.165764582906433
 20
31.90715724890186
 30
0.0
 10
9.175430832989434
 20
31.90181519904792
 30
0.0
 10
9.184347271682355
 20
31.89545272453444
 30
0.0
 10
9.192365886136116
 20
31.88812971385772
 30
0.0
 10
9.199435569101723
 20
31.88001050840114
 30
0.0
 10
9.206477629642449
 20
31.86977704928285
 30
0.0
 10
9.212745761406836
 20
31.85714300943505
 30
0.0
 10
9.216941704826353
 20
31.84365811872272
 30
0.0
 10
9.218959884126235
 20
31.83137354011183
 30
0.0
 10
9.219351637868811
 20
31.82417206536144
 30
0.0
 10
9.219350711786148
 20
31.82057433249668
 30
0.0
 11
9.123370814798988
 21
31.91655422948384
 31
0.0
 11
9.134242393923614
 21
31.91595027211838
 31
0.0
 11
9.145014563595225
 21
31.91415098522396
 31
0.0
 11
9.155486407477098
 21
31.91117524660388
 31
0.0
 11
9.165664166484816
 21
31.90697592776007
 31
0.0
 11
9.175330004259137
 21
31.901629900628
 31
0.0
 11
9.184282431809322
 21
31.89522563344969
 31
0.0
 11
9.192211188970645
 21
31.88799600512346
 31
0.0
 11
9.199282237465013
 21
31.87987697515786
 31
0.0
 11
9.205362468426585
 21
31.87103453361948
 31
0.0
 11
9.212359159313336
 21
31.85698925947594
 31
0.0
 11
9.21700836816484
 21
31.84200075365481
 31
0.0
 11
9.218766462785595
 21
31.83135224827259
 31
0.0
 11
9.219350711786148
 21
31.82057433249668
 31
0.0
  0
SPLINE
  5
131
330
2
100
AcDbEntity
  8
GAIKEI
  6
Continuous
 62
     1
100
AcDbSpline
210
0.0
220
0.0
230
1.0
 70
     8
 71
     3
 72
    20
 73
    16
 74
    14
 42
0.0000000001
 43
0.0000000001
 44
0.000001
 12
-0.0002574072790884
 22
0.9999999668707458
 32
0.0
 13
0.9999995888701286
 23
0.000906785296463
 33
0.0
 40
0.0
 40
0.0
 40
0.0
 40
0.0
 40
0.0107931989517725
 40
0.0215858503328837
 40
0.0372788069823866
 40
0.0529702733156995
 40
0.0637014125297461
 40
0.0744679204437211
 40
0.0851978793581821
 40
0.0962051450063612
 40
0.1072508569327562
 40
0.1182608687211256
 40
0.1291472833027213
 40
0.1400686767634703
 40
0.1509564925565216
 40
0.1509564925565216
 40
0.1509564925565216
 40
0.1509564925565216
 10
-39.95493018745487
 20
31.82057433249668
 30
0.0
 10
-39.95493111353752
 20
31.82417206536144
 30
0.0
 10
-39.95453935979492
 20
31.83137354011183
 30
0.0
 10
-39.95252118049513
 20
31.84365811872266
 30
0.0
 10
-39.94832523707547
 20
31.85714300943505
 30
0.0
 10
-39.94205710531119
 20
31.86977704928291
 30
0.0
 10
-39.93501504477038
 20
31.88001050840114
 30
0.0
 10
-39.9279453618048
 20
31.88812971385767
 30
0.0
 10
-39.91992674735121
 20
31.89545272453461
 30
0.0
 10
-39.91101030865809
 20
31.90181519904786
 30
0.0
 10
-39.90134405857526
 20
31.90715724890191
 30
0.0
 10
-39.89117356470396
 20
31.91136101569504
 30
0.0
 10
-39.88062575052513
 20
31.91434945356161
 30
0.0
 10
-39.86985528148855
 20
31.91614698640484
 30
0.0
 10
-39.86257956090668
 20
31.91655093851341
 30
0.0
 10
-39.85895029046776
 20
31.91655422948384
 30
0.0
 11
-39.95493018745487
 21
31.82057433249668
 31
0.0
 11
-39.95434593845431
 21
31.83135224827259
 31
0.0
 11
-39.95258784383356
 21
31.84200075365481
 31
0.0
 11
-39.94793863498205
 21
31.85698925947594
 31
0.0
 11
-39.9409419440953
 21
31.87103453361948
 31
0.0
 11
-39.93486171313367
 21
31.87987697515786
 31
0.0
 11
-39.92779066463942
 21
31.88799600512346
 31
0.0
 11
-39.91986190747809
 21
31.89522563344969
 31
0.0
 11
-39.91090947992785
 21
31.901629900628
 31
0.0
 11
-39.90124364215359
 21
31.90697592776007
 31
0.0
 11
-39.89106588314593
 21
31.91117524660388
 31
0.0
 11
-39.88059403926405
 21
31.91415098522396
 31
0.0
 11
-39.86982186959238
 21
31.91595027211838
 31
0.0
 11
-39.85895029046776
 21
31.91655422948384
 31
0.0
  0
SPLINE
  5
132
330
2
100
AcDbEntity
  8
GAIKEI
  6
Continuous
 62
     1
100
AcDbSpline
210
0.0
220
0.0
230
1.0
 70
     8
 71
     3
 72
    20
 73
    16
 74
    14
 42
0.0000000001
 43
0.0000000001
 44
0.000001
 12
-0.9999995888701295
 22
0.0009067852954251
 32
0.0
 13
0.0002574072776907
 23
0.9999999668707461
 33
0.0
 40
0.0
 40
0.0
 40
0.0
 40
0.0
 40
0.0108878157930481
 40
0.0218092092537971
 40
0.0326956238353928
 40
0.0437056356237839
 40
0.0547513475501514
 40
0.0657586131983636
 40
0.0764885721130161
 40
0.0872550800267767
 40
0.0979862192405423
 40
0.1136776855738552
 40
0.1293706422234124
 40
0.1401632936048318
 40
0.150956492556595
 40
0.150956492556595
 40
0.150956492556595
 40
0.150956492556595
 10
-39.85895029046776
 20
3.742273328142971
 30
0.0
 10
-39.86257956090668
 20
3.742276619113397
 30
0.0
 10
-39.8698552814885
 20
3.742680571221967
 30
0.0
 10
-39.8806257505251
 20
3.744478104065024
 30
0.0
 10
-39.89117356470399
 20
3.747466541931771
 30
0.0
 10
-39.90134405857523
 20
3.751670308724897
 30
0.0
 10
-39.91101030865815
 20
3.75701235857889
 30
0.0
 10
-39.91992674735121
 20
3.76337483309237
 30
0.0
 10
-39.92794536180466
 20
3.770697843769369
 30
0.0
 10
-39.93501504477035
 20
3.778817049225779
 30
0.0
 10
-39.94205710531133
 20
3.789050508343507
 30
0.0
 10
-39.94832523707549
 20
3.801684548191587
 30
0.0
 10
-39.95252118049507
 20
3.815169438903922
 30
0.0
 10
-39.95453935979521
 20
3.827454017514753
 30
0.0
 10
-39.95493111353752
 20
3.834655492265426
 30
0.0
 10
-39.95493018745487
 20
3.838253225130131
 30
0.0
 11
-39.85895029046776
 21
3.742273328142971
 31
0.0
 11
-39.86982186959238
 21
3.74287728550837
 31
0.0
 11
-39.88059403926405
 21
3.744676572402795
 31
0.0
 11
-39.89106588314593
 21
3.747652311022875
 31
0.0
 11
-39.90124364215359
 21
3.751851629866735
 31
0.0
 11
-39.91090947992785
 21
3.757197656998755
 31
0.0
 11
-39.91986190747809
 21
3.763601924177123
 31
0.0
 11
-39.92779066463942
 21
3.770831552503636
 31
0.0
 11
-39.93486171313367
 21
3.778950582468951
 31
0.0
 11
-39.9409419440953
 21
3.787793024006987
 31
0.0
 11
-39.94793863498205
 21
3.801838298150528
 31
0.0
 11
-39.95258784383356
 21
3.816826803971707
 31
0.0
 11
-39.95434593845448
 21
3.827475309354213
 31
0.0
 11
-39.95493018745487
 21
3.838253225130131
 31
0.0
  0
SPLINE
  5
133
330
2
100
AcDbEntity
  8
GAIKEI
  6
Continuous
 62
     1
100
AcDbSpline
210
0.0
220
0.0
230
1.0
 70
     8
 71
     3
 72
    20
 73
    16
 74
    14
 42
0.0000000001
 43
0.0000000001
 44
0.000001
 12
0.0002574072769913
 22
-0.9999999668707463
 32
0.0
 13
-0.9999995888701286
 23
-0.0009067852964616
 33
0.0
 40
0.0
 40
0.0
 40
0.0
 40
0.0
 40
0.0107931989517664
 40
0.0215858503331765
 40
0.0372788069827336
 40
0.0529702733160465
 40
0.0637014125297799
 40
0.0744679204435033
 40
0.0851978793582398
 40
0.096205145006452
 40
0.1072508569328194
 40
0.118260868721319
 40
0.1291472833028369
 40
0.140068676763642
 40
0.1509564925566901
 40
0.1509564925566901
 40
0.1509564925566901
 40
0.1509564925566901
 10
9.219350711786148
 20
3.838253225130131
 30
0.0
 10
9.219351637868811
 20
3.834655492265426
 30
0.0
 10
9.218959884126405
 20
3.827454017514867
 30
0.0
 10
9.216941704826353
 20
3.815169438903865
 30
0.0
 10
9.212745761406779
 20
3.801684548191531
 30
0.0
 10
9.20647762964262
 20
3.789050508343677
 30
0.0
 10
9.199435569101666
 20
3.778817049225608
 30
0.0
 10
9.19236588613603
 20
3.770697843769312
 30
0.0
 10
9.184347271682611
 20
3.763374833092257
 30
0.0
 10
9.175430832989491
 20
3.75701235857889
 30
0.0
 10
9.165764582906376
 20
3.75167030872501
 30
0.0
 10
9.155594089035417
 20
3.747466541931316
 30
0.0
 10
9.145046274856298
 20
3.74447810406508
 30
0.0
 10
9.134275805819754
 20
3.742680571221796
 30
0.0
 10
9.127000085237909
 20
3.742276619113397
 30
0.0
 10
9.123370814798988
 20
3.742273328142971
 30
0.0
 11
9.219350711786148
 21
3.838253225130131
 31
0.0
 11
9.218766462785708
 21
3.827475309354213
 31
0.0
 11
9.21700836816484
 21
3.816826803971707
 31
0.0
 11
9.212359159313336
 21
3.801838298150528
 31
0.0
 11
9.205362468426585
 21
3.787793024006987
 31
0.0
 11
9.199282237465013
 21
3.778950582468951
 31
0.0
 11
9.192211188970816
 21
3.770831552503636
 31
0.0
 11
9.184282431809378
 21
3.763601924177123
 31
0.0
 11
9.175330004259137
 21
3.757197656998755
 31
0.0
 11
9.165664166484873
 21
3.751851629866735
 31
0.0
 11
9.155486407477212
 21
3.747652311022591
 31
0.0
 11
9.145014563595339
 21
3.744676572402795
 31
0.0
 11
9.134242393923614
 21
3.74287728550837
 31
0.0
 11
9.123370814798988
 21
3.742273328142971
 31
0.0
  0
SPLINE
  5
134
330
2
100
AcDbEntity
  8
GAIKEI
  6
Continuous
 62
     1
100
AcDbSpline
210
0.0
220
0.0
230
1.0
 70
     8
 71
     3
 72
    21
 73
    17
 74
    15
 42
0.0000000001
 43
0.0000000001
 44
0.000001
 12
-0.0022613087208951
 22
-0.9999974432381659
 32
0.0
 13
-0.9999986717690051
 23
-0.001629865094319
 33
0.0
 40
0.0
 40
0.0
 40
0.0
 40
0.0
 40
0.0112719229147392
 40
0.0225828053258942
 40
0.0338589301197158
 40
0.0451219675089841
 40
0.0564193032361869
 40
0.067680391292916
 40
0.07905992260429
 40
0.0904793548197855
 40
0.1018613243453542
 40
0.1128734816469828
 40
0.1239181148128136
 40
0.1349301360592355
 40
0.1459241914218233
 40
0.1569165053515153
 40
0.1569165053515153
 40
0.1569165053515153
 40
0.1569165053515153
 10
9.148876926380637
 20
3.912747113538387
 30
0.0
 10
9.148868429948095
 20
3.908989815506686
 30
0.0
 10
9.148428038104412
 20
3.901455623861124
 30
0.0
 10
9.146475302524464
 20
3.890316370340428
 30
0.0
 10
9.143308951903776
 20
3.879461959434024
 30
0.0
 10
9.13894677659988
 20
3.869035540442553
 30
0.0
 10
9.133474113789986
 20
3.859153825200678
 30
0.0
 10
9.126923173663982
 20
3.849900550205688
 30
0.0
 10
9.119293466958879
 20
3.841456875601693
 30
0.0
 10
9.110710227071251
 20
3.833926598096184
 30
0.0
 10
9.101426763711856
 20
3.827490457333738
 30
0.0
 10
9.091585952938373
 20
3.822209253035623
 30
0.0
 10
9.081354480134109
 20
3.818052506211017
 30
0.0
 10
9.070740866648293
 20
3.815018043538202
 30
0.0
 10
9.059875890591115
 20
3.813169509661577
 30
0.0
 10
9.052541026167062
 20
3.812753085544557
 30
0.0
 10
9.048876926390619
 20
3.812747113548311
 30
0.0
 11
9.148876926380637
 21
3.912747113538387
 31
0.0
 11
9.148214801355891
 21
3.901494055893351
 31
0.0
 11
9.146270892013717
 21
3.890351452923141
 31
0.0
 11
9.143108895889838
 21
3.879527735017688
 31
0.0
 11
9.138766996682932
 21
3.869135229655398
 31
0.0
 11
9.133292368538377
 21
3.859252997557291
 31
0.0
 11
9.126773236172482
 21
3.850070765937118
 31
0.0
 11
9.119149167072862
 21
3.841622820842474
 31
0.0
 11
9.110567479124199
 21
3.834088995600495
 31
0.0
 11
9.101211691557068
 21
3.827606800509897
 31
0.0
 11
9.091513135097613
 21
3.822390882360252
 31
0.0
 11
9.081280180312944
 21
3.818235081289913
 31
0.0
 11
9.070690979746416
 21
3.815212886201322
 31
0.0
 11
9.059852044342733
 21
3.813372492714734
 31
0.0
 11
9.048876926390619
 21
3.812747113548311
 31
0.0
  0
SPLINE
  5
135
330
2
100
AcDbEntity
  8
GAIKEI
  6
Continuous
 62
     1
100
AcDbSpline
210
0.0
220
0.0
230
1.0
 70
     8
 71
     3
 72
    21
 73
    17
 74
    15
 42
0.0000000001
 43
0.0000000001
 44
0.000001
 12
0.0022613087209003
 22
0.9999974432381659
 32
0.0
 13
0.999998671769004
 23
0.0016298650950614
 33
0.0
 40
0.0
 40
0.0
 40
0.0
 40
0.0
 40
0.0112719229147392
 40
0.0225828053252684
 40
0.033858930119347
 40
0.0451219675088994
 40
0.0564193032361022
 40
0.0676803912927984
 40
0.0790599226039994
 40
0.0904793548201211
 40
0.1018613243456825
 40
0.1128734816475728
 40
0.1239181148133805
 40
0.1349301360598727
 40
0.1459241914220856
 40
0.1569165053513714
 40
0.1569165053513714
 40
0.1569165053513714
 40
0.1569165053513714
 10
-39.88445640204935
 20
31.74608044408842
 30
0.0
 10
-39.88444790561681
 20
31.74983774212012
 30
0.0
 10
-39.88400751377316
 20
31.7573719337654
 30
0.0
 10
-39.88205477819315
 20
31.7685111872861
 30
0.0
 10
-39.87888842757257
 20
31.77936559819244
 30
0.0
 10
-39.87452625226874
 20
31.78979201718414
 30
0.0
 10
-39.8690535894587
 20
31.79967373242596
 30
0.0
 10
-39.86250264933289
 20
31.80892700742123
 30
0.0
 10
-39.85487294262734
 20
31.81737068202483
 30
0.0
 10
-39.84628970274008
 20
31.82490095953097
 30
0.0
 10
-39.83700623937981
 20
31.8313371002929
 30
0.0
 10
-39.82716542860678
 20
31.83661830459164
 30
0.0
 10
-39.81693395580197
 20
31.84077505141562
 30
0.0
 10
-39.80632034231653
 20
31.84380951408872
 30
0.0
 10
-39.79545536625935
 20
31.84565804796461
 30
0.0
 10
-39.78812050183567
 20
31.84607447208219
 30
0.0
 10
-39.78445640205933
 20
31.84608044407844
 30
0.0
 11
-39.88445640204935
 21
31.74608044408842
 31
0.0
 11
-39.88379427702461
 21
31.75733350173346
 31
0.0
 11
-39.88185036768249
 21
31.76847610470304
 31
0.0
 11
-39.87868837155867
 21
31.77929982260878
 31
0.0
 11
-39.87434647235171
 21
31.78969232797135
 31
0.0
 11
-39.86887184420715
 21
31.79957456006946
 31
0.0
 11
-39.86235271184131
 21
31.80875679168963
 31
0.0
 11
-39.85472864274163
 21
31.81720473678399
 31
0.0
 11
-39.84614695479269
 21
31.8247385620266
 31
0.0
 11
-39.83679116722533
 21
31.83122075711685
 31
0.0
 11
-39.82709261076576
 21
31.83643667526684
 31
0.0
 11
-39.81685965598098
 21
31.84059247633684
 31
0.0
 11
-39.80627045541439
 21
31.84361467142549
 31
0.0
 11
-39.79543152001105
 21
31.84545506491168
 31
0.0
 11
-39.78445640205933
 21
31.84608044407844
 31
0.0
  0
SPLINE
  5
136
330
2
100
AcDbEntity
  8
GAIKEI
  6
Continuous
 62
     1
100
AcDbSpline
210
0.0
220
0.0
230
1.0
 70
     8
 71
     3
 72
    21
 73
    17
 74
    15
 42
0.0000000001
 43
0.0000000001
 44
0.000001
 12
0.0022613087193831
 22
-0.9999974432381693
 32
0.0
 13
0.9999986717689822
 23
-0.0016298651084615
 33
0.0
 40
0.0
 40
0.0
 40
0.0
 40
0.0
 40
0.0112719229156572
 40
0.0225828053274477
 40
0.0338589301222858
 40
0.0451219675123634
 40
0.0564193032405539
 40
0.0676803912979097
 40
0.0790599226127152
 40
0.0904793548319198
 40
0.1018613243607341
 40
0.1128734816606656
 40
0.1239181148248114
 40
0.1349301360694611
 40
0.1459241914268677
 40
0.1569165053514927
 40
0.1569165053514927
 40
0.1569165053514927
 40
0.1569165053514927
 10
-39.88445640204935
 20
3.912747113538387
 30
0.0
 10
-39.88444790561684
 20
3.908989815506402
 30
0.0
 10
-39.88400751377287
 20
3.901455623860385
 30
0.0
 10
-39.88205477819298
 20
3.890316370338723
 30
0.0
 10
-39.87888842757175
 20
3.879461959431523
 30
0.0
 10
-39.87452625226709
 20
3.869035540439483
 30
0.0
 10
-39.86905358945626
 20
3.859153825197154
 30
0.0
 10
-39.86250264932903
 20
3.84990055020097
 30
0.0
 10
-39.8548729426218
 20
3.841456875595326
 30
0.0
 10
-39.84628970273067
 20
3.833926598088623
 30
0.0
 10
-39.83700623936861
 20
3.827490457326689
 30
0.0
 10
-39.82716542859461
 20
3.822209253029996
 30
0.0
 10
-39.81693395579134
 20
3.818052506207266
 30
0.0
 10
-39.80632034230826
 20
3.815018043535872
 30
0.0
 10
-39.79545536625466
 20
3.813169509661804
 30
0.0
 10
-39.7881205018341
 20
3.812753085544613
 30
0.0
 10
-39.78445640205933
 20
3.812747113548311
 30
0.0
 11
-39.88445640204935
 21
3.912747113538387
 31
0.0
 11
-39.88379427702444
 21
3.901494055892442
 31
0.0
 11
-39.88185036768215
 21
3.890351452921606
 31
0.0
 11
-39.87868837155776
 21
3.879527735015244
 31
0.0
 11
-39.87434647235011
 21
3.869135229652385
 31
0.0
 11
-39.86887184420465
 21
3.859252997553653
 31
0.0
 11
-39.86235271183807
 21
3.850070765933196
 31
0.0
 11
-39.85472864273572
 21
3.841622820836391
 31
0.0
 11
-39.84614695478342
 21
3.834088995592935
 31
0.0
 11
-39.83679116721254
 21
3.827606800502053
 31
0.0
 11
-39.82709261075388
 21
3.822390882354511
 31
0.0
 11
-39.81685965597029
 21
3.81823508128599
 31
0.0
 11
-39.80627045540519
 21
3.815212886198878
 31
0.0
 11
-39.79543152000639
 21
3.813372492714449
 31
0.0
 11
-39.78445640205933
 21
3.812747113548311
 31
0.0
  0
SPLINE
  5
137
330
2
100
AcDbEntity
  8
GAIKEI
  6
Continuous
 62
     1
100
AcDbSpline
210
0.0
220
0.0
230
1.0
 70
     8
 71
     3
 72
    21
 73
    17
 74
    15
 42
0.0000000001
 43
0.0000000001
 44
0.000001
 12
-0.0022613087208363
 22
0.9999974432381662
 32
0.0
 13
-0.9999986717690793
 23
0.0016298650487871
 33
0.0
 40
0.0
 40
0.0
 40
0.0
 40
0.0
 40
0.0112719229150296
 40
0.0225828053261748
 40
0.0338589301203171
 40
0.0451219675102281
 40
0.0564193032376788
 40
0.0676803912944932
 40
0.0790599226074985
 40
0.0904793548250632
 40
0.1018613243523823
 40
0.1128734816521751
 40
0.1239181148159553
 40
0.1349301360606281
 40
0.1459241914224678
 40
0.1569165053513742
 40
0.1569165053513742
 40
0.1569165053513742
 40
0.1569165053513742
 10
9.148876926380637
 20
31.74608044408842
 30
0.0
 10
9.148868429948095
 20
31.74983774212023
 30
0.0
 10
9.148428038104242
 20
31.75737193376586
 30
0.0
 10
9.146475302524436
 20
31.76851118728678
 30
0.0
 10
9.143308951903378
 20
31.77936559819341
 30
0.0
 10
9.138946776599766
 20
31.78979201718539
 30
0.0
 10
9.13347411378902
 20
31.79967373242732
 30
0.0
 10
9.126923173662532
 20
31.80892700742266
 30
0.0
 10
9.119293466956293
 20
31.81737068202745
 30
0.0
 10
9.110710227067215
 20
31.82490095953387
 30
0.0
 10
9.101426763706655
 20
31.8313371002962
 30
0.0
 10
9.091585952933428
 20
31.83661830459283
 30
0.0
 10
9.081354480130556
 20
31.84077505141607
 30
0.0
 10
9.070740866646644
 20
31.8438095140894
 30
0.0
 10
9.059875890590319
 20
31.84565804796552
 30
0.0
 10
9.052541026166807
 20
31.84607447208236
 30
0.0
 10
9.048876926390619
 20
31.84608044407844
 30
0.0
 11
9.148876926380637
 21
31.74608044408842
 31
0.0
 11
9.148214801355777
 21
31.75733350173374
 31
0.0
 11
9.14627089201366
 21
31.76847610470395
 31
0.0
 11
9.143108895889611
 21
31.77929982260969
 31
0.0
 11
9.138766996682534
 21
31.7896923279726
 31
0.0
 11
9.133292368537468
 21
31.79957456007071
 31
0.0
 11
9.126773236171345
 21
31.80875679169083
 31
0.0
 11
9.119149167070361
 21
31.81720473678644
 31
0.0
 11
9.110567479119993
 21
31.82473856202961
 31
0.0
 11
9.101211691550929
 21
31.83122075712049
 31
0.0
 11
9.091513135092611
 21
31.83643667526837
 31
0.0
 11
9.081280180309647
 21
31.84059247633746
 31
0.0
 11
9.070690979744938
 21
31.84361467142605
 31
0.0
 11
9.059852044341994
 21
31.84545506491236
 31
0.0
 11
9.048876926390619
 21
31.84608044407844
 31
0.0
  0
LINE
  5
138
330
2
100
AcDbEntity
  8
GAIKEI
  6
Continuous
 62
     1
100
AcDbLine
 10
8.532210261050977
 20
31.27941379077561
 30
0.0
 11
8.532210261050977
 21
4.379413793465687
 31
0.0
  0
LINE
  5
139
330
2
100
AcDbEntity
  8
GAIKEI
  6
Continuous
 62
     1
100
AcDbLine
 10
-39.26778973416896
 20
31.27941379077561
 30
0.0
 11
-39.26778973416896
 21
4.379413793465687
 31
0.0
  0
LINE
  5
13A
330
2
100
AcDbEntity
  8
GAIKEI
  6
Continuous
 62
     1
100
AcDbLine
 10
8.532210261050977
 20
31.27941379077561
 30
0.0
 11
-39.26778973416896
 21
31.27941379077561
 31
0.0
  0
LINE
  5
13B
330
2
100
AcDbEntity
  8
GAIKEI
  6
Continuous
 62
     1
100
AcDbLine
 10
8.532210261050977
 20
4.379413793465687
 30
0.0
 11
-39.26778973416896
 21
4.379413793465687
 31
0.0
  0
DIMENSION
  5
13C
330
2
100
AcDbEntity
  8
SUNPO
100
AcDbDimension
  2
*D6
 10
22.17707954157322
 20
33.24274665724612
 30
0.0
 11
20.42707954157322
 21
17.82608022545446
 31
0.0
 70
    33
  1
925
 71
     5
 42
30.83333286358334
  3
STANDARD
100
AcDbAlignedDimension
 13
14.17707954157316
 23
2.409413793662793
 33
0.0
 14
14.17707954157316
 24
33.24274665724613
 34
0.0
1001
ACAD
1000
DSTYLE
1002
{
1070
   287
1070
     3
1070
   287
1070
     3
1070
   287
1070
     3
1070
   287
1070
     3
1070
    40
1040
1.0
1070
   140
1040
2.5
1070
   147
1040
0.5
1070
   172
1070
     1
1070
   279
1070
     0
1070
   288
1070
     0
1002
}
  0
DIMENSION
  5
14B
330
2
100
AcDbEntity
  8
SUNPO
100
AcDbDimension
  2
*D5
 10
10.53221026085106
 20
41.24274665724607
 30
0.0
 11
-15.36778973655896
 21
42.99274665724607
 31
0.0
 70
    33
  1
1554
 71
     5
 42
51.79999999482004
  3
STANDARD
100
AcDbAlignedDimension
 13
-41.26778973396898
 23
33.24274665724613
 33
0.0
 14
10.53221026085106
 24
33.24274665724613
 34
0.0
1001
ACAD
1000
DSTYLE
1002
{
1070
   287
1070
     3
1070
   287
1070
     3
1070
   287
1070
     3
1070
   287
1070
     3
1070
    40
1040
1.0
1070
   140
1040
2.5
1070
   147
1040
0.5
1070
   172
1070
     1
1070
   279
1070
     0
1070
   288
1070
     0
1002
}
  0
DIMENSION
  5
158
330
2
100
AcDbEntity
  8
SUNPO
100
AcDbDimension
  2
*D4
 10
36.41218592313743
 20
41.24274665724607
 30
0.0
 11
42.99551925647076
 21
42.99274665724607
 31
0.0
 70
    33
  1
99
 71
     5
 42
3.299999999670035
  3
STANDARD
100
AcDbAlignedDimension
 13
33.11218592346739
 23
33.24274665724613
 33
0.0
 14
36.41218592313743
 24
33.24274665724613
 34
0.0
1001
ACAD
1000
DSTYLE
1002
{
1070
   287
1070
     3
1070
   287
1070
     3
1070
   287
1070
     3
1070
   287
1070
     3
1070
    40
1040
1.0
1070
   140
1040
2.5
1070
   147
1040
0.5
1070
   172
1070
     1
1070
   279
1070
     0
1070
   288
1070
     0
1002
}
  0
TEXT
  5
167
330
2
100
AcDbEntity
  8
TOUROKU
100
AcDbText
 10
15.84083656600607
 20
53.19388790526261
 30
0.0
 40
2.0
  1
ＴＨ６５ＰＦ１０ＫＲ＋ＴＹＳＰ６５Ｐ１０Ｋ
 72
     2
 11
65.44083656600605
 21
53.19388790526261
 31
0.0
100
AcDbText
  0
TEXT
  5
168
330
2
100
AcDbEntity
  8
MOJI1
100
AcDbText
 10
-32.55911346692142
 20
59.19388790526267
 30
0.0
 40
4.0
  1
ハイビジョンプラズマディスプレイ（ＳＰ付）
100
AcDbText
  0
TEXT
  5
16A
330
2
100
AcDbEntity
  8
MOJI1
100
AcDbText
 10
-18.0591134669213
 20
-33.80611209473727
 30
0.0
 40
3.0
  1
４０９６階調（相当）
100
AcDbText
  0
TEXT
  5
16B
330
2
100
AcDbEntity
  8
MOJI1
100
AcDbText
 10
-18.0591134669213
 20
-28.80611209473727
 30
0.0
 40
3.0
  1
１００００：１
100
AcDbText
  0
TEXT
  5
16C
330
2
100
AcDbEntity
  8
MOJI1
100
AcDbText
 10
-57.0591134669213
 20
-28.80611209473727
 30
0.0
 40
3.0
  1
コントラスト
100
AcDbText
  0
TEXT
  5
16D
330
2
100
AcDbEntity
  8
MOJI1
100
AcDbText
 10
-57.0591134669213
 20
-33.80611209473727
 30
0.0
 40
3.0
  1
階調数
100
AcDbText
  0
LINE
  5
16E
330
2
100
AcDbEntity
  8
WAKU
 62
     1
100
AcDbLine
 10
-59.5591134669213
 20
-34.80611209473727
 30
0.0
 11
65.44088653307847
 21
-34.80611209473727
 31
0.0
  0
LINE
  5
170
330
2
100
AcDbEntity
  8
WAKU
 62
     1
100
AcDbLine
 10
-59.5591134669213
 20
-29.80611209473727
 30
0.0
 11
65.44088653307847
 21
-29.80611209473727
 31
0.0
  0
TEXT
  5
171
330
2
100
AcDbEntity
  8
MOJI1
100
AcDbText
 10
-18.0591134669213
 20
-38.80611209473727
 30
0.0
 40
3.0
  1
２０Ｗ（１０Ｗ＋１０Ｗ）
100
AcDbText
  0
TEXT
  5
172
330
2
100
AcDbEntity
  8
MOJI1
100
AcDbText
 10
-57.0591134669213
 20
-38.80611209473727
 30
0.0
 40
3.0
  1
音声最大出力
100
AcDbText
  0
LINE
  5
173
330
2
100
AcDbEntity
  8
WAKU
 62
     4
100
AcDbLine
 10
65.44088653307847
 20
-4.806112094737272
 30
0.0
 11
65.44088653307847
 21
-49.80611209473727
 31
0.0
  0
TEXT
  5
174
330
2
100
AcDbEntity
  8
MOJI1
100
AcDbText
 10
-57.0591134669213
 20
-18.80611209473727
 30
0.0
 40
3.0
  1
画面サイズ
100
AcDbText
  0
TEXT
  5
175
330
2
100
AcDbEntity
  8
MOJI1
100
AcDbText
 10
-57.0591134669213
 20
-43.80611209473727
 30
0.0
 40
3.0
  1
接続端子
100
AcDbText
  0
TEXT
  5
176
330
2
100
AcDbEntity
  8
MOJI1
100
AcDbText
 10
-57.0591134669213
 20
-13.80611209473727
 30
0.0
 40
3.0
  1
消費電力
100
AcDbText
  0
TEXT
  5
177
330
2
100
AcDbEntity
  8
MOJI1
100
AcDbText
 10
-57.0591134669213
 20
-8.806112094737272
 30
0.0
 40
3.0
  1
電  源
100
AcDbText
  0
TEXT
  5
178
330
2
100
AcDbEntity
  8
MOJI1
100
AcDbText
 10
-57.0591134669213
 20
-23.80611209473727
 30
0.0
 40
3.0
  1
画素数
100
AcDbText
  0
LINE
  5
179
330
2
100
AcDbEntity
  8
WAKU
 62
     4
100
AcDbLine
 10
-59.55911346692153
 20
-4.806112094737272
 30
0.0
 11
-59.5591134669213
 21
-49.80611209473727
 31
0.0
  0
LINE
  5
17A
330
2
100
AcDbEntity
  8
WAKU
 62
     4
100
AcDbLine
 10
-19.55911346692153
 20
-4.806112094737272
 30
0.0
 11
-19.55911346692153
 21
-49.80611209473727
 31
0.0
  0
TEXT
  5
17B
330
2
100
AcDbEntity
  8
MOJI1
100
AcDbText
 10
-18.0591134669213
 20
-18.80611209473727
 30
0.0
 40
3.0
  1
６５ｖ型（１６：９）
100
AcDbText
  0
LINE
  5
17C
330
2
100
AcDbEntity
  8
WAKU
 62
     1
100
AcDbLine
 10
-59.5591134669213
 20
-14.80611209473727
 30
0.0
 11
65.44088653307847
 21
-14.80611209473727
 31
0.0
  0
LINE
  5
17D
330
2
100
AcDbEntity
  8
WAKU
 62
     4
100
AcDbLine
 10
-59.5591134669213
 20
-4.806112094737272
 30
0.0
 11
65.44088653307847
 21
-4.806112094737272
 31
0.0
  0
LINE
  5
17E
330
2
100
AcDbEntity
  8
WAKU
 62
     1
100
AcDbLine
 10
-59.5591134669213
 20
-9.806112094737272
 30
0.0
 11
65.44088653307847
 21
-9.806112094737272
 31
0.0
  0
LINE
  5
17F
330
2
100
AcDbEntity
  8
WAKU
 62
     1
100
AcDbLine
 10
-59.5591134669213
 20
-19.80611209473727
 30
0.0
 11
65.44088653307847
 21
-19.80611209473727
 31
0.0
  0
LINE
  5
180
330
2
100
AcDbEntity
  8
WAKU
 62
     1
100
AcDbLine
 10
-59.5591134669213
 20
-24.80611209473727
 30
0.0
 11
65.44088653307847
 21
-24.80611209473727
 31
0.0
  0
LINE
  5
181
330
2
100
AcDbEntity
  8
WAKU
 62
     1
100
AcDbLine
 10
-59.5591134669213
 20
-44.80611209473727
 30
0.0
 11
65.44088653307847
 21
-44.80611209473727
 31
0.0
  0
LINE
  5
182
330
2
100
AcDbEntity
  8
WAKU
 62
     4
100
AcDbLine
 10
65.44088653307847
 20
-49.80611209473727
 30
0.0
 11
-59.5591134669213
 21
-49.80611209473727
 31
0.0
  0
TEXT
  5
183
330
2
100
AcDbEntity
  8
MOJI1
100
AcDbText
 10
-18.0591134669213
 20
-23.80611209473727
 30
0.0
 40
3.0
  1
２０７３６００画素（水平１９２０×垂直１０８０）
 41
0.9699999999999999
100
AcDbText
  0
TEXT
  5
184
330
2
100
AcDbEntity
  8
MOJI1
100
AcDbText
 10
-18.0591134669213
 20
-43.80611209473727
 30
0.0
 40
3.0
  1
ＤＶＩ－Ｄ／コンポーネントビデオ
100
AcDbText
  0
TEXT
  5
185
330
2
100
AcDbEntity
  8
MOJI1
100
AcDbText
 10
-18.0591134669213
 20
-8.806112094737272
 30
0.0
 40
3.0
  1
ＡＣ１００Ｖ　５０Ｈｚ／６０Ｈｚ
100
AcDbText
  0
TEXT
  5
186
330
2
100
AcDbEntity
  8
MOJI1
100
AcDbText
 10
-18.0591134669213
 20
-48.80611209473727
 30
0.0
 40
3.0
  1
ＰＣ／外部スピーカー／シリアル
100
AcDbText
  0
TEXT
  5
187
330
2
100
AcDbEntity
  8
MOJI1
100
AcDbText
 10
-18.0591134669213
 20
-13.80611209473727
 30
0.0
 40
3.0
  1
７５５Ｗ
100
AcDbText
  0
LINE
  5
188
330
2
100
AcDbEntity
  8
WAKU
 62
     1
100
AcDbLine
 10
-59.5591134669213
 20
-39.80611209473727
 30
0.0
 11
65.44088653307847
 21
-39.80611209473727
 31
0.0
  0
ENDSEC
  0
SECTION
  2
OBJECTS
  0
DICTIONARY
  5
9
330
0
100
AcDbDictionary
281
     1
  3
ACAD_COLOR
350
31
  3
ACAD_GROUP
350
2D
  3
ACAD_LAYOUT
350
D
  3
ACAD_MATERIAL
350
30
  3
ACAD_MLINESTYLE
350
2E
  3
ACAD_PLOTSETTINGS
350
2F
  3
ACAD_PLOTSTYLENAME
350
8
  3
ACDBHEADERROUNDTRIPXREC
350
1CB
  3
AcDbVariableDictionary
350
1C6
  3
ASE_INDEX_DICTIONARY
350
191
  0
DICTIONARY
  5
15
330
14
100
AcDbDictionary
280
     1
281
     1
  3
ACAD_LAYERFILTERS
360
16
  3
ACAD_LAYERSTATES
360
17
  0
DICTIONARY
  5
3
330
2
100
AcDbDictionary
280
     1
281
     1
  3
ACAD_LAYOUTSELFREF
360
4
  0
DICTIONARY
  5
F
330
E
100
AcDbDictionary
280
     1
281
     1
  3
ACAD_LAYOUTSELFREF
360
10
  0
DICTIONARY
  5
31
102
{ACAD_REACTORS
330
9
102
}
330
9
100
AcDbDictionary
281
     1
  0
DICTIONARY
  5
2D
102
{ACAD_REACTORS
330
9
102
}
330
9
100
AcDbDictionary
281
     1
  0
DICTIONARY
  5
D
102
{ACAD_REACTORS
330
9
102
}
330
9
100
AcDbDictionary
281
     1
  3
Model
350
C
  3
ﾚｲｱｳﾄ1
350
13
  0
DICTIONARY
  5
30
102
{ACAD_REACTORS
330
9
102
}
330
9
100
AcDbDictionary
281
     1
  0
DICTIONARY
  5
2E
102
{ACAD_REACTORS
330
9
102
}
330
9
100
AcDbDictionary
281
     1
  3
STANDARD
350
32
  0
DICTIONARY
  5
2F
102
{ACAD_REACTORS
330
9
102
}
330
9
100
AcDbDictionary
281
     1
  0
ACDBDICTIONARYWDFLT
  5
8
102
{ACAD_REACTORS
330
9
102
}
330
9
100
AcDbDictionary
281
     1
  3
Normal
350
7
100
AcDbDictionaryWithDefault
340
7
  0
DICTIONARY
  5
1CB
102
{ACAD_REACTORS
330
9
102
}
330
9
100
AcDbDictionary
281
     1
  3
COLORDICT
350
1CD
  3
MATERIALDICT
350
1CC
  0
DICTIONARY
  5
1C6
102
{ACAD_REACTORS
330
9
102
}
330
9
100
AcDbDictionary
281
     1
  3
DIMASSOC
350
1C8
  3
HIDETEXT
350
1C7
  3
PROJECTNAME
350
1C9
  0
DICTIONARY
  5
191
102
{ACAD_REACTORS
330
9
102
}
330
9
100
AcDbDictionary
281
     1
  3
ASEBlockHierarchyIndexRecord
350
193
1001
DCO15
1040
1627818231.117
  0
DICTIONARY
  5
16
102
{ACAD_REACTORS
330
15
102
}
330
15
100
AcDbDictionary
280
     1
281
     1
  0
DICTIONARY
  5
17
102
{ACAD_REACTORS
330
15
102
}
330
15
100
AcDbDictionary
281
     1
  0
XRECORD
  5
4
102
{ACAD_REACTORS
330
3
102
}
330
3
100
AcDbXrecord
280
     1
340
2
  0
XRECORD
  5
10
102
{ACAD_REACTORS
330
F
102
}
330
F
100
AcDbXrecord
280
     1
340
E
  0
LAYOUT
  5
C
102
{ACAD_XDICTIONARY
360
1CE
102
}
102
{ACAD_REACTORS
330
D
102
}
330
D
100
AcDbPlotSettings
  1

  2
Ａ４－縦3FRIM01.pc3
  4
A4
  6

 40
5.873749732971191
 41
5.873747825622558
 42
5.873748779296875
 43
5.873748779296875
 44
209.9733276367187
 45
296.9259948730469
 46
5.44
 47
0.0
 48
0.0
 49
0.0
140
0.0
141
0.0
142
1.0
143
1.383239362962726
 70
 11956
 72
     1
 73
     0
 74
     1
  7
tmsacad.ctb
 75
     0
147
0.7229406759059578
148
0.5671991949084259
149
0.1357563133815347
100
AcDbLayout
  1
Model
 70
     1
 71
     0
 10
0.0
 20
0.0
 11
12.0
 21
9.0
 12
0.0
 22
0.0
 32
0.0
 14
0.0
 24
0.0
 34
0.0
 15
0.0
 25
0.0
 35
0.0
146
0.0
 13
0.0
 23
0.0
 33
0.0
 16
1.0
 26
0.0
 36
0.0
 17
0.0
 27
1.0
 37
0.0
 76
     0
330
2
  0
LAYOUT
  5
13
102
{ACAD_XDICTIONARY
360
1D0
102
}
102
{ACAD_REACTORS
330
D
102
}
330
D
100
AcDbPlotSettings
  1

  2
C:\Program Files\ACAD2000\plotters\DWF ePlot.pc3
  4

  6

 40
0.0
 41
0.0
 42
0.0
 43
0.0
 44
0.0
 45
0.0
 46
0.0
 47
0.0
 48
0.0
 49
0.0
140
0.0
141
0.0
142
1.0
143
1.0
 70
   688
 72
     0
 73
     0
 74
     5
  7
tmsacad.ctb
 75
    16
147
1.0
148
0.0
149
0.0
100
AcDbLayout
  1
ﾚｲｱｳﾄ1
 70
     1
 71
     1
 10
0.0
 20
0.0
 11
12.0
 21
9.0
 12
0.0
 22
0.0
 32
0.0
 14
1.000000000000000E+20
 24
1.000000000000000E+20
 34
1.000000000000000E+20
 15
-1.000000000000000E+20
 25
-1.000000000000000E+20
 35
-1.000000000000000E+20
146
0.0
 13
0.0
 23
0.0
 33
0.0
 16
1.0
 26
0.0
 36
0.0
 17
0.0
 27
1.0
 37
0.0
 76
     0
330
E
  0
MLINESTYLE
  5
32
102
{ACAD_REACTORS
330
2E
102
}
330
2E
100
AcDbMlineStyle
  2
STANDARD
 70
     0
  3

 62
   256
 51
90.0
 52
90.0
 71
     2
 49
0.5
 62
   256
  6
BYLAYER
 49
-0.5
 62
   256
  6
BYLAYER
  0
ACDBPLACEHOLDER
  5
7
102
{ACAD_REACTORS
330
8
102
}
330
8
  0
XRECORD
  5
1CD
102
{ACAD_REACTORS
330
1CB
102
}
330
1CB
100
AcDbXrecord
280
     1
340
31
  0
XRECORD
  5
1CC
102
{ACAD_REACTORS
330
1CB
102
}
330
1CB
100
AcDbXrecord
280
     1
340
30
  0
DICTIONARYVAR
  5
1C8
102
{ACAD_REACTORS
330
1C6
102
}
330
1C6
100
DictionaryVariables
280
     0
  1
1
  0
DICTIONARYVAR
  5
1C7
102
{ACAD_REACTORS
330
1C6
102
}
330
1C6
100
DictionaryVariables
280
     0
  1
1
  0
DICTIONARYVAR
  5
1C9
102
{ACAD_REACTORS
330
1C6
102
}
330
1C6
100
DictionaryVariables
280
     0
  1

  0
XRECORD
  5
193
102
{ACAD_REACTORS
330
191
102
}
330
191
100
AcDbXrecord
280
     1
330
160
330
161
330
151
330
152
330
143
330
144
330
1A6
330
1A7
330
1B2
330
1B3
330
1BE
330
1BF
  0
DICTIONARY
  5
1CE
330
C
100
AcDbDictionary
280
     1
281
     1
  3
ACAD_XREC_ROUNDTRIP
360
1CF
  0
DICTIONARY
  5
1D0
330
13
100
AcDbDictionary
280
     1
281
     1
  3
ACAD_XREC_ROUNDTRIP
360
1D1
  0
XRECORD
  5
1CF
102
{ACAD_REACTORS
330
1CE
102
}
330
1CE
100
AcDbXrecord
280
     1
102
SHADEPLOT
 70
     0
102
SHADEPLOTRESLEVEL
 70
     2
102
SHADEPLOTCUSTOMDPI
 70
   300
  0
XRECORD
  5
1D1
102
{ACAD_REACTORS
330
1D0
102
}
330
1D0
100
AcDbXrecord
280
     1
102
SHADEPLOT
 70
     0
102
SHADEPLOTRESLEVEL
 70
     2
102
SHADEPLOTCUSTOMDPI
 70
   300
  0
ENDSEC
  0
EOF
