  0
SECTION
  2
HEADER
  9
$ACADVER
  1
AC1015
  9
$ACADMAINTVER
 70
    20
  9
$DWGCODEPAGE
  3
ANSI_932
  9
$INSBASE
 10
129.0
 20
246.4992141396418
 30
0.0
  9
$EXTMIN
 10
-61.58197317562553
 20
-55.37278052674537
 30
-0.0015258207003583
  9
$EXTMAX
 10
64.17101165591202
 20
57.75830138888068
 30
0.0000000349246037
  9
$LIMMIN
 10
-1101.784450318844
 20
-1579.160531687244
  9
$LIMMAX
 10
-508.2420711400536
 20
-1161.440814074914
  9
$ORTHOMODE
 70
     1
  9
$REGENMODE
 70
     1
  9
$FILLMODE
 70
     1
  9
$QTEXTMODE
 70
     0
  9
$MIRRTEXT
 70
     1
  9
$LTSCALE
 40
1.0
  9
$ATTMODE
 70
     1
  9
$TEXTSIZE
 40
3.0
  9
$TRACEWID
 40
0.5
  9
$TEXTSTYLE
  7
STANDARD
  9
$CLAYER
  8
0
  9
$CELTYPE
  6
BYLAYER
  9
$CECOLOR
 62
   256
  9
$CELTSCALE
 40
1.0
  9
$DISPSILH
 70
     0
  9
$DIMSCALE
 40
1.0
  9
$DIMASZ
 40
2.0
  9
$DIMEXO
 40
2.0
  9
$DIMDLI
 40
8.0
  9
$DIMRND
 40
0.0
  9
$DIMDLE
 40
0.0
  9
$DIMEXE
 40
2.0
  9
$DIMTP
 40
0.0
  9
$DIMTM
 40
0.0
  9
$DIMTXT
 40
2.5
  9
$DIMCEN
 40
0.0
  9
$DIMTSZ
 40
0.0
  9
$DIMTOL
 70
     0
  9
$DIMLIM
 70
     0
  9
$DIMTIH
 70
     0
  9
$DIMTOH
 70
     0
  9
$DIMSE1
 70
     0
  9
$DIMSE2
 70
     0
  9
$DIMTAD
 70
     3
  9
$DIMZIN
 70
     0
  9
$DIMBLK
  1

  9
$DIMASO
 70
     1
  9
$DIMSHO
 70
     1
  9
$DIMPOST
  1

  9
$DIMAPOST
  1

  9
$DIMALT
 70
     0
  9
$DIMALTD
 70
     2
  9
$DIMALTF
 40
25.4
  9
$DIMLFAC
 40
1.0
  9
$DIMTOFL
 70
     1
  9
$DIMTVP
 40
0.0
  9
$DIMTIX
 70
     0
  9
$DIMSOXD
 70
     0
  9
$DIMSAH
 70
     1
  9
$DIMBLK1
  1
OPEN30
  9
$DIMBLK2
  1
OPEN30
  9
$DIMSTYLE
  2
STANDARD
  9
$DIMCLRD
 70
     0
  9
$DIMCLRE
 70
     0
  9
$DIMCLRT
 70
     0
  9
$DIMTFAC
 40
1.0
  9
$DIMGAP
 40
0.5
  9
$DIMJUST
 70
     0
  9
$DIMSD1
 70
     0
  9
$DIMSD2
 70
     0
  9
$DIMTOLJ
 70
     1
  9
$DIMTZIN
 70
     0
  9
$DIMALTZ
 70
     0
  9
$DIMALTTZ
 70
     0
  9
$DIMUPT
 70
     0
  9
$DIMDEC
 70
     4
  9
$DIMTDEC
 70
     4
  9
$DIMALTU
 70
     2
  9
$DIMALTTD
 70
     2
  9
$DIMTXSTY
  7
STANDARD
  9
$DIMAUNIT
 70
     0
  9
$DIMADEC
 70
     0
  9
$DIMALTRND
 40
0.0
  9
$DIMAZIN
 70
     0
  9
$DIMDSEP
 70
    46
  9
$DIMATFIT
 70
     3
  9
$DIMFRAC
 70
     0
  9
$DIMLDRBLK
  1
OPEN30
  9
$DIMLUNIT
 70
     2
  9
$DIMLWD
 70
    -2
  9
$DIMLWE
 70
    -2
  9
$DIMTMOVE
 70
     0
  9
$LUNITS
 70
     2
  9
$LUPREC
 70
     4
  9
$SKETCHINC
 40
0.1
  9
$FILLETRAD
 40
0.0
  9
$AUNITS
 70
     0
  9
$AUPREC
 70
     0
  9
$MENU
  1
ACAD
  9
$ELEVATION
 40
0.0
  9
$PELEVATION
 40
0.0
  9
$THICKNESS
 40
0.0
  9
$LIMCHECK
 70
     0
  9
$CHAMFERA
 40
0.0
  9
$CHAMFERB
 40
0.0
  9
$CHAMFERC
 40
0.0
  9
$CHAMFERD
 40
0.0
  9
$SKPOLY
 70
     0
  9
$TDCREATE
 40
2451815.565532581
  9
$TDUCREATE
 40
2451815.190532581
  9
$TDUPDATE
 40
2454643.700458924
  9
$TDUUPDATE
 40
2454643.325458924
  9
$TDINDWG
 40
0.9605257755
  9
$TDUSRTIMER
 40
0.9605257755
  9
$USRTIMER
 70
     1
  9
$ANGBASE
 50
0.0
  9
$ANGDIR
 70
     0
  9
$PDMODE
 70
     0
  9
$PDSIZE
 40
0.0
  9
$PLINEWID
 40
0.0
  9
$SPLFRAME
 70
     0
  9
$SPLINETYPE
 70
     6
  9
$SPLINESEGS
 70
     8
  9
$HANDSEED
  5
208
  9
$SURFTAB1
 70
     6
  9
$SURFTAB2
 70
     6
  9
$SURFTYPE
 70
     6
  9
$SURFU
 70
     6
  9
$SURFV
 70
     6
  9
$UCSBASE
  2

  9
$UCSNAME
  2

  9
$UCSORG
 10
0.0
 20
0.0
 30
0.0
  9
$UCSXDIR
 10
1.0
 20
0.0
 30
0.0
  9
$UCSYDIR
 10
0.0
 20
1.0
 30
0.0
  9
$UCSORTHOREF
  2

  9
$UCSORTHOVIEW
 70
     0
  9
$UCSORGTOP
 10
0.0
 20
0.0
 30
0.0
  9
$UCSORGBOTTOM
 10
0.0
 20
0.0
 30
0.0
  9
$UCSORGLEFT
 10
0.0
 20
0.0
 30
0.0
  9
$UCSORGRIGHT
 10
0.0
 20
0.0
 30
0.0
  9
$UCSORGFRONT
 10
0.0
 20
0.0
 30
0.0
  9
$UCSORGBACK
 10
0.0
 20
0.0
 30
0.0
  9
$PUCSBASE
  2

  9
$PUCSNAME
  2

  9
$PUCSORG
 10
0.0
 20
0.0
 30
0.0
  9
$PUCSXDIR
 10
1.0
 20
0.0
 30
0.0
  9
$PUCSYDIR
 10
0.0
 20
1.0
 30
0.0
  9
$PUCSORTHOREF
  2

  9
$PUCSORTHOVIEW
 70
     0
  9
$PUCSORGTOP
 10
0.0
 20
0.0
 30
0.0
  9
$PUCSORGBOTTOM
 10
0.0
 20
0.0
 30
0.0
  9
$PUCSORGLEFT
 10
0.0
 20
0.0
 30
0.0
  9
$PUCSORGRIGHT
 10
0.0
 20
0.0
 30
0.0
  9
$PUCSORGFRONT
 10
0.0
 20
0.0
 30
0.0
  9
$PUCSORGBACK
 10
0.0
 20
0.0
 30
0.0
  9
$USERI1
 70
     0
  9
$USERI2
 70
     0
  9
$USERI3
 70
     0
  9
$USERI4
 70
     0
  9
$USERI5
 70
     0
  9
$USERR1
 40
0.0
  9
$USERR2
 40
0.0
  9
$USERR3
 40
0.0
  9
$USERR4
 40
0.0
  9
$USERR5
 40
0.0
  9
$WORLDVIEW
 70
     1
  9
$SHADEDGE
 70
     3
  9
$SHADEDIF
 70
    70
  9
$TILEMODE
 70
     1
  9
$MAXACTVP
 70
    48
  9
$PINSBASE
 10
0.0
 20
0.0
 30
0.0
  9
$PLIMCHECK
 70
     0
  9
$PEXTMIN
 10
1.000000000000000E+20
 20
1.000000000000000E+20
 30
1.000000000000000E+20
  9
$PEXTMAX
 10
-1.000000000000000E+20
 20
-1.000000000000000E+20
 30
-1.000000000000000E+20
  9
$PLIMMIN
 10
0.0
 20
0.0
  9
$PLIMMAX
 10
12.0
 20
9.0
  9
$UNITMODE
 70
     0
  9
$VISRETAIN
 70
     1
  9
$PLINEGEN
 70
     0
  9
$PSLTSCALE
 70
     1
  9
$TREEDEPTH
 70
  3020
  9
$CMLSTYLE
  2
STANDARD
  9
$CMLJUST
 70
     0
  9
$CMLSCALE
 40
1.0
  9
$PROXYGRAPHICS
 70
     1
  9
$MEASUREMENT
 70
     0
  9
$CELWEIGHT
370
    -1
  9
$ENDCAPS
280
     0
  9
$JOINSTYLE
280
     0
  9
$LWDISPLAY
290
     0
  9
$INSUNITS
 70
     0
  9
$HYPERLINKBASE
  1

  9
$STYLESHEET
  1

  9
$XEDIT
290
     1
  9
$CEPSNTYPE
380
     0
  9
$PSTYLEMODE
290
     1
  9
$FINGERPRINTGUID
  2
{1754B7AB-9B3C-11D4-AD9E-00104B1004F2}
  9
$VERSIONGUID
  2
{0F58A5EC-1D78-47E0-9DDA-EFAD4607F5E4}
  9
$EXTNAMES
290
     1
  9
$PSVPSCALE
 40
0.0
  9
$OLESTARTUP
290
     0
  0
ENDSEC
  0
SECTION
  2
CLASSES
  0
CLASS
  1
ACDBDICTIONARYWDFLT
  2
AcDbDictionaryWithDefault
  3
ObjectDBX Classes
 90
        0
280
     0
281
     0
  0
CLASS
  1
ACDBPLACEHOLDER
  2
AcDbPlaceHolder
  3
ObjectDBX Classes
 90
        0
280
     0
281
     0
  0
CLASS
  1
LAYOUT
  2
AcDbLayout
  3
ObjectDBX Classes
 90
        0
280
     0
281
     0
  0
CLASS
  1
DICTIONARYVAR
  2
AcDbDictionaryVar
  3
ObjectDBX Classes
 90
        0
280
     0
281
     0
  0
CLASS
  1
SORTENTSTABLE
  2
AcDbSortentsTable
  3
ObjectDBX Classes
 90
    32768
280
     0
281
     0
  0
ENDSEC
  0
SECTION
  2
TABLES
  0
TABLE
  2
VPORT
  5
20
330
0
100
AcDbSymbolTable
 70
     3
  0
VPORT
  5
200
330
20
100
AcDbSymbolTableRecord
100
AcDbViewportTableRecord
  2
*Active
 70
     0
 10
0.0
 20
0.0
 11
1.0
 21
1.0
 12
1.294519240143245
 22
1.192760431067654
 13
0.0
 23
0.0
 14
1.0
 24
1.0
 15
0.0
 25
0.0
 16
0.0
 26
0.0
 36
1.0
 17
0.0
 27
0.0
 37
0.0
 40
114.025398768714
 41
1.439313984168865
 42
50.0
 43
0.0
 44
0.0
 50
0.0
 51
0.0
 71
     0
 72
 10000
 73
     1
 74
     0
 75
     0
 76
     1
 77
     0
 78
     0
281
     0
 65
     1
110
0.0
120
0.0
130
0.0
111
1.0
121
0.0
131
0.0
112
0.0
122
1.0
132
0.0
 79
     0
146
0.0
  0
ENDTAB
  0
TABLE
  2
LTYPE
  5
1B
330
0
100
AcDbSymbolTable
 70
     1
  0
LTYPE
  5
1C
330
1B
100
AcDbSymbolTableRecord
100
AcDbLinetypeTableRecord
  2
BYBLOCK
 70
     0
  3

 72
    65
 73
     0
 40
0.0
  0
LTYPE
  5
1D
330
1B
100
AcDbSymbolTableRecord
100
AcDbLinetypeTableRecord
  2
BYLAYER
 70
     0
  3

 72
    65
 73
     0
 40
0.0
  0
LTYPE
  5
A
330
1B
100
AcDbSymbolTableRecord
100
AcDbLinetypeTableRecord
  2
CONTINUOUS
 70
     0
  3
Solid line
 72
    65
 73
     0
 40
0.0
  0
ENDTAB
  0
TABLE
  2
LAYER
  5
14
102
{ACAD_XDICTIONARY
360
15
102
}
330
0
100
AcDbSymbolTable
 70
     7
  0
LAYER
  5
6
330
14
100
AcDbSymbolTableRecord
100
AcDbLayerTableRecord
  2
0
 70
     0
 62
     7
  6
CONTINUOUS
370
    -3
390
7
  0
LAYER
  5
40
330
14
100
AcDbSymbolTableRecord
100
AcDbLayerTableRecord
  2
DEFPOINTS
 70
     0
 62
     7
  6
CONTINUOUS
290
     0
370
    -3
390
7
  0
LAYER
  5
18D
330
14
100
AcDbSymbolTableRecord
100
AcDbLayerTableRecord
  2
WAKU
 70
     0
 62
     4
  6
CONTINUOUS
370
    -3
390
7
  0
LAYER
  5
187
330
14
100
AcDbSymbolTableRecord
100
AcDbLayerTableRecord
  2
MOJI1
 70
     0
 62
     2
  6
CONTINUOUS
370
    -3
390
7
  0
LAYER
  5
45
330
14
100
AcDbSymbolTableRecord
100
AcDbLayerTableRecord
  2
GAIKEI
 70
     0
 62
     7
  6
CONTINUOUS
370
    -3
390
7
  0
LAYER
  5
36
330
14
100
AcDbSymbolTableRecord
100
AcDbLayerTableRecord
  2
SUNPO
 70
     0
 62
     3
  6
CONTINUOUS
370
    -3
390
7
  0
LAYER
  5
34
330
14
100
AcDbSymbolTableRecord
100
AcDbLayerTableRecord
  2
TOUROKU
 70
     0
 62
     1
  6
CONTINUOUS
370
    -3
390
7
  0
ENDTAB
  0
TABLE
  2
STYLE
  5
18
330
0
100
AcDbSymbolTable
 70
     1
  0
STYLE
  5
19
330
18
100
AcDbSymbolTableRecord
100
AcDbTextStyleTableRecord
  2
STANDARD
 70
     0
 40
0.0
 41
1.0
 50
0.0
 71
     0
 42
3.0
  3
MONOTXT.shx
  4
BIGFONT.shx
  0
ENDTAB
  0
TABLE
  2
VIEW
  5
1E
330
0
100
AcDbSymbolTable
 70
     0
  0
ENDTAB
  0
TABLE
  2
UCS
  5
1F
330
0
100
AcDbSymbolTable
 70
     0
  0
ENDTAB
  0
TABLE
  2
APPID
  5
22
330
0
100
AcDbSymbolTable
 70
     2
  0
APPID
  5
23
330
22
100
AcDbSymbolTableRecord
100
AcDbRegAppTableRecord
  2
ACAD
 70
     0
  0
APPID
  5
1B0
330
22
100
AcDbSymbolTableRecord
100
AcDbRegAppTableRecord
  2
DCO15
 70
     0
  0
ENDTAB
  0
TABLE
  2
DIMSTYLE
  5
24
330
0
100
AcDbSymbolTable
 70
     1
100
AcDbDimStyleTable
 71
     1
340
25
  0
DIMSTYLE
105
25
102
{ACAD_REACTORS
330
E2
330
D5
330
82
330
35
330
178
102
}
330
24
100
AcDbSymbolTableRecord
100
AcDbDimStyleTableRecord
  2
STANDARD
 70
     0
 40
0.0
 41
2.0
 42
2.0
 43
8.0
 44
2.0
 73
     0
 74
     0
 77
     3
140
3.0
141
0.0
173
     1
279
     2
288
     1
340
19
341
26
343
26
344
26
  0
ENDTAB
  0
TABLE
  2
BLOCK_RECORD
  5
1
330
0
100
AcDbSymbolTable
 70
    11
  0
BLOCK_RECORD
  5
2
102
{ACAD_XDICTIONARY
360
3
102
}
330
1
100
AcDbSymbolTableRecord
100
AcDbBlockTableRecord
  2
*MODEL_SPACE
340
C
  0
BLOCK_RECORD
  5
E
102
{ACAD_XDICTIONARY
360
F
102
}
330
1
100
AcDbSymbolTableRecord
100
AcDbBlockTableRecord
  2
*PAPER_SPACE
340
13
  0
BLOCK_RECORD
  5
26
330
1
100
AcDbSymbolTableRecord
100
AcDbBlockTableRecord
  2
_OPEN30
340
0
102
{BLKREFS
331
17E
331
17F
331
3C
331
3D
331
88
331
89
331
DB
331
DC
331
EA
331
EB
331
1C2
331
1C3
331
1D0
331
1D1
331
1DC
331
1DD
331
1E8
331
1E9
331
1F4
331
1F5
102
}
  0
BLOCK_RECORD
  5
E3
330
1
100
AcDbSymbolTableRecord
100
AcDbBlockTableRecord
  2
*D1
340
0
  0
BLOCK_RECORD
  5
D6
330
1
100
AcDbSymbolTableRecord
100
AcDbBlockTableRecord
  2
*D2
340
0
  0
BLOCK_RECORD
  5
83
330
1
100
AcDbSymbolTableRecord
100
AcDbBlockTableRecord
  2
*D3
340
0
  0
BLOCK_RECORD
  5
37
330
1
100
AcDbSymbolTableRecord
100
AcDbBlockTableRecord
  2
*D4
340
0
  0
BLOCK_RECORD
  5
179
330
1
100
AcDbSymbolTableRecord
100
AcDbBlockTableRecord
  2
*D5
340
0
  0
BLOCK_RECORD
  5
1BE
330
1
100
AcDbSymbolTableRecord
100
AcDbBlockTableRecord
  2
*D6
340
0
  0
BLOCK_RECORD
  5
1CA
330
1
100
AcDbSymbolTableRecord
100
AcDbBlockTableRecord
  2
*D7
340
0
  0
BLOCK_RECORD
  5
1D8
330
1
100
AcDbSymbolTableRecord
100
AcDbBlockTableRecord
  2
*D8
340
0
  0
BLOCK_RECORD
  5
1E4
330
1
100
AcDbSymbolTableRecord
100
AcDbBlockTableRecord
  2
*D9
340
0
  0
BLOCK_RECORD
  5
1F0
330
1
100
AcDbSymbolTableRecord
100
AcDbBlockTableRecord
  2
*D10
340
0
  0
ENDTAB
  0
ENDSEC
  0
SECTION
  2
BLOCKS
  0
BLOCK
  5
5
330
2
100
AcDbEntity
  8
0
100
AcDbBlockBegin
  2
*MODEL_SPACE
 70
     0
 10
0.0
 20
0.0
 30
0.0
  3
*MODEL_SPACE
  1

  0
ENDBLK
  5
B
330
2
100
AcDbEntity
  8
0
100
AcDbBlockEnd
  0
BLOCK
  5
11
330
E
100
AcDbEntity
 67
     1
  8
0
100
AcDbBlockBegin
  2
*PAPER_SPACE
 70
     0
 10
0.0
 20
0.0
 30
0.0
  3
*PAPER_SPACE
  1

  0
ENDBLK
  5
12
330
E
100
AcDbEntity
 67
     1
  8
0
100
AcDbBlockEnd
  0
BLOCK
  5
27
330
26
100
AcDbEntity
  8
0
100
AcDbBlockBegin
  2
_OPEN30
 70
     0
 10
0.0
 20
0.0
 30
0.0
  3
_OPEN30
  1

  0
LINE
  5
28
330
26
100
AcDbEntity
  8
0
  6
ByBlock
 62
     0
100
AcDbLine
 10
-1.0
 20
0.26794919
 30
0.0
 11
0.0
 21
0.0
 31
0.0
  0
LINE
  5
29
330
26
100
AcDbEntity
  8
0
  6
ByBlock
 62
     0
100
AcDbLine
 10
0.0
 20
0.0
 30
0.0
 11
-1.0
 21
-0.26794919
 31
0.0
  0
LINE
  5
2A
330
26
100
AcDbEntity
  8
0
  6
ByBlock
 62
     0
100
AcDbLine
 10
0.0
 20
0.0
 30
0.0
 11
-1.0
 21
0.0
 31
0.0
  0
ENDBLK
  5
2B
330
26
100
AcDbEntity
  8
0
100
AcDbBlockEnd
  0
BLOCK
  5
E4
330
E3
100
AcDbEntity
  8
0
100
AcDbBlockBegin
  2
*D1
 70
     1
 10
0.0
 20
0.0
 30
0.0
  3
*D1
  1

  0
LINE
  5
E5
330
E3
100
AcDbEntity
  8
SUNPO
 62
     0
370
    -2
100
AcDbLine
 10
229.2060389270744
 20
224.4522825884013
 30
0.0
 11
229.2060389270744
 21
232.4522825884014
 31
0.0
  0
LINE
  5
E6
330
E3
100
AcDbEntity
  8
SUNPO
 62
     0
370
    -2
100
AcDbLine
 10
232.5060389267444
 20
224.4522825884013
 30
0.0
 11
232.5060389267444
 21
232.4522825884014
 31
0.0
  0
LINE
  5
E7
330
E3
100
AcDbEntity
  8
SUNPO
 62
     0
370
    -2
100
AcDbLine
 10
227.2060389270744
 20
230.4522825884014
 30
0.0
 11
225.2060389270744
 21
230.4522825884014
 31
0.0
  0
LINE
  5
E8
330
E3
100
AcDbEntity
  8
SUNPO
 62
     0
370
    -2
100
AcDbLine
 10
234.5060389267444
 20
230.4522825884014
 30
0.0
 11
241.672705593411
 21
230.4522825884014
 31
0.0
  0
LINE
  5
E9
330
E3
100
AcDbEntity
  8
SUNPO
 62
     0
370
    -2
100
AcDbLine
 10
229.2060389270744
 20
230.4522825884014
 30
0.0
 11
232.5060389267444
 21
230.4522825884014
 31
0.0
  0
INSERT
  5
EA
330
E3
100
AcDbEntity
  8
SUNPO
 62
     0
370
    -2
100
AcDbBlockReference
  2
_OPEN30
 10
229.2060389270744
 20
230.4522825884014
 30
0.0
 41
2.0
 42
2.0
 43
2.0
  0
INSERT
  5
EB
330
E3
100
AcDbEntity
  8
SUNPO
 62
     0
370
    -2
100
AcDbBlockReference
  2
_OPEN30
 10
232.5060389267444
 20
230.4522825884014
 30
0.0
 41
2.0
 42
2.0
 43
2.0
 50
180.0
  0
MTEXT
  5
EC
330
E3
100
AcDbEntity
  8
SUNPO
 62
     0
100
AcDbMText
 10
239.0893722600778
 20
232.2022825884014
 30
0.0
 40
2.5
 41
0.0
 71
     5
 72
     1
  1
\A1;99
 73
     1
 44
1.0
1001
ACAD
1000
MTEXTBEGIN
1070
    73
1070
     1
1070
    44
1040
1.0
1070
    74
1070
     0
1000
MTEXTEND
  0
POINT
  5
ED
330
E3
100
AcDbEntity
  8
DEFPOINTS
 62
     0
100
AcDbPoint
 10
229.2060389270744
 20
222.4522825884013
 30
0.0
  0
POINT
  5
EE
330
E3
100
AcDbEntity
  8
DEFPOINTS
 62
     0
100
AcDbPoint
 10
232.5060389267444
 20
222.4522825884013
 30
0.0
  0
POINT
  5
EF
330
E3
100
AcDbEntity
  8
DEFPOINTS
 62
     0
100
AcDbPoint
 10
232.5060389267444
 20
230.4522825884014
 30
0.0
  0
ENDBLK
  5
F0
330
E3
100
AcDbEntity
  8
0
100
AcDbBlockEnd
  0
BLOCK
  5
D7
330
D6
100
AcDbEntity
  8
0
100
AcDbBlockBegin
  2
*D2
 70
     1
 10
0.0
 20
0.0
 30
0.0
  3
*D2
  1

  0
LINE
  5
D8
330
D6
100
AcDbEntity
  8
SUNPO
 62
     0
370
    -2
100
AcDbLine
 10
149.7402125619504
 20
224.4522825884013
 30
0.0
 11
149.7402125619504
 21
232.4522825884014
 31
0.0
  0
LINE
  5
D9
330
D6
100
AcDbEntity
  8
SUNPO
 62
     0
370
    -2
100
AcDbLine
 10
201.5402125567705
 20
224.4522825884013
 30
0.0
 11
201.5402125567705
 21
232.4522825884014
 31
0.0
  0
LINE
  5
DA
330
D6
100
AcDbEntity
  8
SUNPO
 62
     0
370
    -2
100
AcDbLine
 10
151.7402125619504
 20
230.4522825884014
 30
0.0
 11
199.5402125567705
 21
230.4522825884014
 31
0.0
  0
INSERT
  5
DB
330
D6
100
AcDbEntity
  8
SUNPO
 62
     0
370
    -2
100
AcDbBlockReference
  2
_OPEN30
 10
149.7402125619504
 20
230.4522825884014
 30
0.0
 41
2.0
 42
2.0
 43
2.0
 50
180.0
  0
INSERT
  5
DC
330
D6
100
AcDbEntity
  8
SUNPO
 62
     0
370
    -2
100
AcDbBlockReference
  2
_OPEN30
 10
201.5402125567705
 20
230.4522825884014
 30
0.0
 41
2.0
 42
2.0
 43
2.0
  0
MTEXT
  5
DD
330
D6
100
AcDbEntity
  8
SUNPO
 62
     0
100
AcDbMText
 10
175.6402125593604
 20
232.2022825884014
 30
0.0
 40
2.5
 41
0.0
 71
     5
 72
     1
  1
\A1;1554
 73
     1
 44
1.0
1001
ACAD
1000
MTEXTBEGIN
1070
    73
1070
     1
1070
    44
1040
1.0
1070
    74
1070
     0
1000
MTEXTEND
  0
POINT
  5
DE
330
D6
100
AcDbEntity
  8
DEFPOINTS
 62
     0
100
AcDbPoint
 10
149.7402125619504
 20
222.4522825884013
 30
0.0
  0
POINT
  5
DF
330
D6
100
AcDbEntity
  8
DEFPOINTS
 62
     0
100
AcDbPoint
 10
201.5402125567705
 20
222.4522825884013
 30
0.0
  0
POINT
  5
E0
330
D6
100
AcDbEntity
  8
DEFPOINTS
 62
     0
100
AcDbPoint
 10
201.5402125567705
 20
230.4522825884014
 30
0.0
  0
ENDBLK
  5
E1
330
D6
100
AcDbEntity
  8
0
100
AcDbBlockEnd
  0
BLOCK
  5
84
330
83
100
AcDbEntity
  8
0
100
AcDbBlockBegin
  2
*D3
 70
     1
 10
0.0
 20
0.0
 30
0.0
  3
*D3
  1

  0
LINE
  5
85
330
83
100
AcDbEntity
  8
SUNPO
 62
     0
370
    -2
100
AcDbLine
 10
203.5241896400863
 20
191.618949724818
 30
0.0
 11
211.5241896400863
 21
191.618949724818
 31
0.0
  0
LINE
  5
86
330
83
100
AcDbEntity
  8
SUNPO
 62
     0
370
    -2
100
AcDbLine
 10
203.5241896400863
 20
222.4522825884013
 30
0.0
 11
211.5241896400863
 21
222.4522825884013
 31
0.0
  0
LINE
  5
87
330
83
100
AcDbEntity
  8
SUNPO
 62
     0
370
    -2
100
AcDbLine
 10
209.5241896400863
 20
193.618949724818
 30
0.0
 11
209.5241896400863
 21
220.4522825884013
 31
0.0
  0
INSERT
  5
88
330
83
100
AcDbEntity
  8
SUNPO
 62
     0
370
    -2
100
AcDbBlockReference
  2
_OPEN30
 10
209.5241896400863
 20
191.618949724818
 30
0.0
 41
2.0
 42
2.0
 43
2.0
 50
270.0
  0
INSERT
  5
89
330
83
100
AcDbEntity
  8
SUNPO
 62
     0
370
    -2
100
AcDbBlockReference
  2
_OPEN30
 10
209.5241896400863
 20
222.4522825884013
 30
0.0
 41
2.0
 42
2.0
 43
2.0
 50
90.0
  0
MTEXT
  5
8A
330
83
100
AcDbEntity
  8
SUNPO
 62
     0
100
AcDbMText
 10
207.7741896400863
 20
207.0356161566097
 30
0.0
 40
2.5
 41
0.0
 71
     5
 72
     1
  1
\A1;925
 11
0.0000000000000001
 21
1.0
 31
0.0
 73
     1
 44
1.0
1001
ACAD
1000
MTEXTBEGIN
1070
    73
1070
     1
1070
    44
1040
1.0
1070
    74
1070
     0
1000
MTEXTEND
  0
POINT
  5
8B
330
83
100
AcDbEntity
  8
DEFPOINTS
 62
     0
100
AcDbPoint
 10
201.5241896400863
 20
191.618949724818
 30
0.0
  0
POINT
  5
8C
330
83
100
AcDbEntity
  8
DEFPOINTS
 62
     0
100
AcDbPoint
 10
201.5241896400863
 20
222.4522825884013
 30
0.0
  0
POINT
  5
8D
330
83
100
AcDbEntity
  8
DEFPOINTS
 62
     0
100
AcDbPoint
 10
209.5241896400863
 20
222.4522825884013
 30
0.0
  0
ENDBLK
  5
8E
330
83
100
AcDbEntity
  8
0
100
AcDbBlockEnd
  0
BLOCK
  5
38
330
37
100
AcDbEntity
  8
0
100
AcDbBlockBegin
  2
*D4
 70
     1
 10
0.0
 20
0.0
 30
0.0
  3
*D4
  1

  0
LINE
  5
39
330
37
100
AcDbEntity
  8
SUNPO
 62
     0
370
    -2
100
AcDbLine
 10
204.8575229732863
 20
222.4522825884013
 30
0.0
 11
216.5241896400864
 21
222.4522825884013
 31
0.0
  0
LINE
  5
3A
330
37
100
AcDbEntity
  8
SUNPO
 62
     0
370
    -2
100
AcDbLine
 10
197.160264624075
 20
188.7220901917741
 30
0.0
 11
216.5241896400863
 21
188.7220901917741
 31
0.0
  0
LINE
  5
3B
330
37
100
AcDbEntity
  8
SUNPO
 62
     0
370
    -2
100
AcDbLine
 10
214.5241896400864
 20
220.4522825884013
 30
0.0
 11
214.5241896400863
 21
190.7220901917741
 31
0.0
  0
INSERT
  5
3C
330
37
100
AcDbEntity
  8
SUNPO
 62
     0
370
    -2
100
AcDbBlockReference
  2
_OPEN30
 10
214.5241896400864
 20
222.4522825884013
 30
0.0
 41
2.0
 42
2.0
 43
2.0
 50
90.0
  0
INSERT
  5
3D
330
37
100
AcDbEntity
  8
SUNPO
 62
     0
370
    -2
100
AcDbBlockReference
  2
_OPEN30
 10
214.5241896400863
 20
188.7220901917741
 30
0.0
 41
2.0
 42
2.0
 43
2.0
 50
270.0
  0
MTEXT
  5
3E
330
37
100
AcDbEntity
  8
SUNPO
 62
     0
100
AcDbMText
 10
212.7741896400863
 20
205.5871863900878
 30
0.0
 40
2.5
 41
0.0
 71
     5
 72
     1
  1
\A1;1012
 11
0.0000000000000001
 21
1.0
 31
0.0
 73
     1
 44
1.0
1001
ACAD
1000
MTEXTBEGIN
1070
    73
1070
     1
1070
    44
1040
1.0
1070
    74
1070
     0
1000
MTEXTEND
  0
POINT
  5
3F
330
37
100
AcDbEntity
  8
DEFPOINTS
 62
     0
100
AcDbPoint
 10
202.8575229732863
 20
222.4522825884013
 30
0.0
  0
POINT
  5
41
330
37
100
AcDbEntity
  8
DEFPOINTS
 62
     0
100
AcDbPoint
 10
195.160264624075
 20
188.7220901917741
 30
0.0
  0
POINT
  5
42
330
37
100
AcDbEntity
  8
DEFPOINTS
 62
     0
100
AcDbPoint
 10
214.5241896400863
 20
188.7220901917741
 30
0.0
  0
ENDBLK
  5
43
330
37
100
AcDbEntity
  8
0
100
AcDbBlockEnd
  0
BLOCK
  5
17A
330
179
100
AcDbEntity
  8
0
100
AcDbBlockBegin
  2
*D5
 70
     1
 10
0.0
 20
0.0
 30
0.0
  3
*D5
  1

  0
LINE
  5
17B
330
179
100
AcDbEntity
  8
SUNPO
 62
     0
370
    -2
100
AcDbLine
 10
223.2889355459616
 20
186.7373860457979
 30
0.0
 11
223.2889355459616
 21
178.7373860457979
 31
0.0
  0
LINE
  5
17C
330
179
100
AcDbEntity
  8
SUNPO
 62
     0
370
    -2
100
AcDbLine
 10
236.3791267718339
 20
186.7373860457979
 30
0.0
 11
236.3791267718339
 21
178.7373860457979
 31
0.0
  0
LINE
  5
17D
330
179
100
AcDbEntity
  8
SUNPO
 62
     0
370
    -2
100
AcDbLine
 10
225.2889355459616
 20
180.7373860457979
 30
0.0
 11
234.3791267718339
 21
180.7373860457979
 31
0.0
  0
INSERT
  5
17E
330
179
100
AcDbEntity
  8
SUNPO
 62
     0
370
    -2
100
AcDbBlockReference
  2
_OPEN30
 10
223.2889355459616
 20
180.7373860457979
 30
0.0
 41
2.0
 42
2.0
 43
2.0
 50
180.0
  0
INSERT
  5
17F
330
179
100
AcDbEntity
  8
SUNPO
 62
     0
370
    -2
100
AcDbBlockReference
  2
_OPEN30
 10
236.3791267718339
 20
180.7373860457979
 30
0.0
 41
2.0
 42
2.0
 43
2.0
  0
MTEXT
  5
180
330
179
100
AcDbEntity
  8
SUNPO
 62
     0
100
AcDbMText
 10
229.8340311588977
 20
182.4873860457979
 30
0.0
 40
2.5
 41
0.0
 71
     5
 72
     1
  1
\A1;393
 73
     1
 44
1.0
1001
ACAD
1000
MTEXTBEGIN
1070
    73
1070
     1
1070
    44
1040
1.0
1070
    74
1070
     0
1000
MTEXTEND
  0
POINT
  5
181
330
179
100
AcDbEntity
  8
DEFPOINTS
 62
     0
100
AcDbPoint
 10
223.2889355459616
 20
188.7373860457979
 30
0.0
  0
POINT
  5
182
330
179
100
AcDbEntity
  8
DEFPOINTS
 62
     0
100
AcDbPoint
 10
236.3791267718339
 20
188.7373860457979
 30
0.0
  0
POINT
  5
183
330
179
100
AcDbEntity
  8
DEFPOINTS
 62
     0
100
AcDbPoint
 10
236.3791267718339
 20
180.7373860457979
 30
0.0
  0
ENDBLK
  5
184
330
179
100
AcDbEntity
  8
0
100
AcDbBlockEnd
  0
BLOCK
  5
1C8
330
1BE
100
AcDbEntity
  8
0
100
AcDbBlockBegin
  2
*D6
 70
     1
 10
0.0
 20
0.0
 30
0.0
  3
*D6
  1

  0
LINE
  5
1BF
330
1BE
100
AcDbEntity
  8
SUNPO
 62
     0
370
    -2
100
AcDbLine
 10
30.75451108959948
 20
-0.0434608833251105
 30
0.0
 11
30.75451108959948
 21
-8.04346088332511
 31
0.0
  0
LINE
  5
1C0
330
1BE
100
AcDbEntity
  8
SUNPO
 62
     0
370
    -2
100
AcDbLine
 10
43.84470231547178
 20
-0.0434608833251105
 30
0.0
 11
43.84470231547178
 21
-8.04346088332511
 31
0.0
  0
LINE
  5
1C1
330
1BE
100
AcDbEntity
  8
SUNPO
 62
     0
370
    -2
100
AcDbLine
 10
32.75451108959948
 20
-6.04346088332511
 30
0.0
 11
41.84470231547178
 21
-6.04346088332511
 31
0.0
  0
INSERT
  5
1C2
330
1BE
100
AcDbEntity
  8
SUNPO
 62
     0
370
    -2
100
AcDbBlockReference
  2
_OPEN30
 10
30.75451108959948
 20
-6.04346088332511
 30
0.0
 41
2.0
 42
2.0
 43
2.0
 50
180.0
  0
INSERT
  5
1C3
330
1BE
100
AcDbEntity
  8
SUNPO
 62
     0
370
    -2
100
AcDbBlockReference
  2
_OPEN30
 10
43.84470231547178
 20
-6.04346088332511
 30
0.0
 41
2.0
 42
2.0
 43
2.0
  0
MTEXT
  5
1C4
330
1BE
100
AcDbEntity
  8
SUNPO
 62
     0
100
AcDbMText
 10
37.29960670253563
 20
-4.29346088332511
 30
0.0
 40
2.5
 41
0.0
 71
     5
 72
     1
  1
\A1;393
 73
     1
 44
1.0
1001
ACAD
1000
MTEXTBEGIN
1070
    73
1070
     1
1070
    44
1040
1.0
1070
    74
1070
     0
1000
MTEXTEND
  0
POINT
  5
1C5
330
1BE
100
AcDbEntity
  8
DEFPOINTS
 62
     0
100
AcDbPoint
 10
30.75451108959948
 20
1.956539116674889
 30
0.0
  0
POINT
  5
1C6
330
1BE
100
AcDbEntity
  8
DEFPOINTS
 62
     0
100
AcDbPoint
 10
43.84470231547178
 20
1.956539116674889
 30
0.0
  0
POINT
  5
1C7
330
1BE
100
AcDbEntity
  8
DEFPOINTS
 62
     0
100
AcDbPoint
 10
43.84470231547178
 20
-6.04346088332511
 30
0.0
  0
ENDBLK
  5
1C9
330
1BE
100
AcDbEntity
  8
0
100
AcDbBlockEnd
  0
BLOCK
  5
1D6
330
1CA
100
AcDbEntity
  8
0
100
AcDbBlockBegin
  2
*D7
 70
     1
 10
0.0
 20
0.0
 30
0.0
  3
*D7
  1

  0
LINE
  5
1CB
330
1CA
100
AcDbEntity
  8
SUNPO
 62
     0
370
    -2
100
AcDbLine
 10
36.67161447071226
 20
37.67143565927824
 30
0.0
 11
36.67161447071226
 21
45.67143565927827
 31
0.0
  0
LINE
  5
1CC
330
1CA
100
AcDbEntity
  8
SUNPO
 62
     0
370
    -2
100
AcDbLine
 10
39.97161447038229
 20
37.67143565927824
 30
0.0
 11
39.97161447038229
 21
45.67143565927827
 31
0.0
  0
LINE
  5
1CD
330
1CA
100
AcDbEntity
  8
SUNPO
 62
     0
370
    -2
100
AcDbLine
 10
34.67161447071226
 20
43.67143565927827
 30
0.0
 11
32.67161447071226
 21
43.67143565927827
 31
0.0
  0
LINE
  5
1CE
330
1CA
100
AcDbEntity
  8
SUNPO
 62
     0
370
    -2
100
AcDbLine
 10
41.97161447038229
 20
43.67143565927827
 30
0.0
 11
49.13828113704895
 21
43.67143565927827
 31
0.0
  0
LINE
  5
1CF
330
1CA
100
AcDbEntity
  8
SUNPO
 62
     0
370
    -2
100
AcDbLine
 10
36.67161447071226
 20
43.67143565927827
 30
0.0
 11
39.97161447038229
 21
43.67143565927827
 31
0.0
  0
INSERT
  5
1D0
330
1CA
100
AcDbEntity
  8
SUNPO
 62
     0
370
    -2
100
AcDbBlockReference
  2
_OPEN30
 10
36.67161447071226
 20
43.67143565927827
 30
0.0
 41
2.0
 42
2.0
 43
2.0
  0
INSERT
  5
1D1
330
1CA
100
AcDbEntity
  8
SUNPO
 62
     0
370
    -2
100
AcDbBlockReference
  2
_OPEN30
 10
39.97161447038229
 20
43.67143565927827
 30
0.0
 41
2.0
 42
2.0
 43
2.0
 50
180.0
  0
MTEXT
  5
1D2
330
1CA
100
AcDbEntity
  8
SUNPO
 62
     0
100
AcDbMText
 10
46.55494780371562
 20
45.42143565927827
 30
0.0
 40
2.5
 41
0.0
 71
     5
 72
     1
  1
\A1;99
 73
     1
 44
1.0
1001
ACAD
1000
MTEXTBEGIN
1070
    73
1070
     1
1070
    44
1040
1.0
1070
    74
1070
     0
1000
MTEXTEND
  0
POINT
  5
1D3
330
1CA
100
AcDbEntity
  8
DEFPOINTS
 62
     0
100
AcDbPoint
 10
36.67161447071226
 20
35.67143565927825
 30
0.0
  0
POINT
  5
1D4
330
1CA
100
AcDbEntity
  8
DEFPOINTS
 62
     0
100
AcDbPoint
 10
39.97161447038229
 20
35.67143565927825
 30
0.0
  0
POINT
  5
1D5
330
1CA
100
AcDbEntity
  8
DEFPOINTS
 62
     0
100
AcDbPoint
 10
39.97161447038229
 20
43.67143565927827
 30
0.0
  0
ENDBLK
  5
1D7
330
1CA
100
AcDbEntity
  8
0
100
AcDbBlockEnd
  0
BLOCK
  5
1E2
330
1D8
100
AcDbEntity
  8
0
100
AcDbBlockBegin
  2
*D8
 70
     1
 10
0.0
 20
0.0
 30
0.0
  3
*D8
  1

  0
LINE
  5
1D9
330
1D8
100
AcDbEntity
  8
SUNPO
 62
     0
370
    -2
100
AcDbLine
 10
-42.79421189441166
 20
37.67143565927824
 30
0.0
 11
-42.79421189441166
 21
45.67143565927827
 31
0.0
  0
LINE
  5
1DA
330
1D8
100
AcDbEntity
  8
SUNPO
 62
     0
370
    -2
100
AcDbLine
 10
9.005788100408381
 20
37.67143565927824
 30
0.0
 11
9.005788100408381
 21
45.67143565927827
 31
0.0
  0
LINE
  5
1DB
330
1D8
100
AcDbEntity
  8
SUNPO
 62
     0
370
    -2
100
AcDbLine
 10
-40.79421189441165
 20
43.67143565927827
 30
0.0
 11
7.005788100408381
 21
43.67143565927827
 31
0.0
  0
INSERT
  5
1DC
330
1D8
100
AcDbEntity
  8
SUNPO
 62
     0
370
    -2
100
AcDbBlockReference
  2
_OPEN30
 10
-42.79421189441166
 20
43.67143565927827
 30
0.0
 41
2.0
 42
2.0
 43
2.0
 50
180.0
  0
INSERT
  5
1DD
330
1D8
100
AcDbEntity
  8
SUNPO
 62
     0
370
    -2
100
AcDbBlockReference
  2
_OPEN30
 10
9.005788100408381
 20
43.67143565927827
 30
0.0
 41
2.0
 42
2.0
 43
2.0
  0
MTEXT
  5
1DE
330
1D8
100
AcDbEntity
  8
SUNPO
 62
     0
100
AcDbMText
 10
-16.89421189700164
 20
45.42143565927827
 30
0.0
 40
2.5
 41
0.0
 71
     5
 72
     1
  1
\A1;1554
 73
     1
 44
1.0
1001
ACAD
1000
MTEXTBEGIN
1070
    73
1070
     1
1070
    44
1040
1.0
1070
    74
1070
     0
1000
MTEXTEND
  0
POINT
  5
1DF
330
1D8
100
AcDbEntity
  8
DEFPOINTS
 62
     0
100
AcDbPoint
 10
-42.79421189441166
 20
35.67143565927825
 30
0.0
  0
POINT
  5
1E0
330
1D8
100
AcDbEntity
  8
DEFPOINTS
 62
     0
100
AcDbPoint
 10
9.005788100408381
 20
35.67143565927825
 30
0.0
  0
POINT
  5
1E1
330
1D8
100
AcDbEntity
  8
DEFPOINTS
 62
     0
100
AcDbPoint
 10
9.005788100408381
 20
43.67143565927827
 30
0.0
  0
ENDBLK
  5
1E3
330
1D8
100
AcDbEntity
  8
0
100
AcDbBlockEnd
  0
BLOCK
  5
1EE
330
1E4
100
AcDbEntity
  8
0
100
AcDbBlockBegin
  2
*D9
 70
     1
 10
0.0
 20
0.0
 30
0.0
  3
*D9
  1

  0
LINE
  5
1E5
330
1E4
100
AcDbEntity
  8
SUNPO
 62
     0
370
    -2
100
AcDbLine
 10
10.98976518372421
 20
4.838102795694907
 30
0.0
 11
18.98976518372424
 21
4.838102795694904
 31
0.0
  0
LINE
  5
1E6
330
1E4
100
AcDbEntity
  8
SUNPO
 62
     0
370
    -2
100
AcDbLine
 10
10.98976518372421
 20
35.67143565927825
 30
0.0
 11
18.98976518372424
 21
35.67143565927824
 31
0.0
  0
LINE
  5
1E7
330
1E4
100
AcDbEntity
  8
SUNPO
 62
     0
370
    -2
100
AcDbLine
 10
16.98976518372424
 20
6.838102795694905
 30
0.0
 11
16.98976518372424
 21
33.67143565927824
 31
0.0
  0
INSERT
  5
1E8
330
1E4
100
AcDbEntity
  8
SUNPO
 62
     0
370
    -2
100
AcDbBlockReference
  2
_OPEN30
 10
16.98976518372424
 20
4.838102795694905
 30
0.0
 41
2.0
 42
2.0
 43
2.0
 50
270.0
  0
INSERT
  5
1E9
330
1E4
100
AcDbEntity
  8
SUNPO
 62
     0
370
    -2
100
AcDbBlockReference
  2
_OPEN30
 10
16.98976518372424
 20
35.67143565927824
 30
0.0
 41
2.0
 42
2.0
 43
2.0
 50
90.0
  0
MTEXT
  5
1EA
330
1E4
100
AcDbEntity
  8
SUNPO
 62
     0
100
AcDbMText
 10
15.23976518372424
 20
20.25476922748658
 30
0.0
 40
2.5
 41
0.0
 71
     5
 72
     1
  1
\A1;925
 11
0.0000000000000001
 21
1.0
 31
0.0
 73
     1
 44
1.0
1001
ACAD
1000
MTEXTBEGIN
1070
    73
1070
     1
1070
    44
1040
1.0
1070
    74
1070
     0
1000
MTEXTEND
  0
POINT
  5
1EB
330
1E4
100
AcDbEntity
  8
DEFPOINTS
 62
     0
100
AcDbPoint
 10
8.989765183724216
 20
4.838102795694908
 30
0.0
  0
POINT
  5
1EC
330
1E4
100
AcDbEntity
  8
DEFPOINTS
 62
     0
100
AcDbPoint
 10
8.989765183724216
 20
35.67143565927825
 30
0.0
  0
POINT
  5
1ED
330
1E4
100
AcDbEntity
  8
DEFPOINTS
 62
     0
100
AcDbPoint
 10
16.98976518372424
 20
35.67143565927824
 30
0.0
  0
ENDBLK
  5
1EF
330
1E4
100
AcDbEntity
  8
0
100
AcDbBlockEnd
  0
BLOCK
  5
1FA
330
1F0
100
AcDbEntity
  8
0
100
AcDbBlockBegin
  2
*D10
 70
     1
 10
0.0
 20
0.0
 30
0.0
  3
*D10
  1

  0
LINE
  5
1F1
330
1F0
100
AcDbEntity
  8
SUNPO
 62
     0
370
    -2
100
AcDbLine
 10
12.32309851692418
 20
35.67143565927825
 30
0.0
 11
23.98976518372422
 21
35.67143565927824
 31
0.0
  0
LINE
  5
1F2
330
1F0
100
AcDbEntity
  8
SUNPO
 62
     0
370
    -2
100
AcDbLine
 10
4.625840167712908
 20
1.941243262651084
 30
0.0
 11
23.98976518372422
 21
1.941243262651078
 31
0.0
  0
LINE
  5
1F3
330
1F0
100
AcDbEntity
  8
SUNPO
 62
     0
370
    -2
100
AcDbLine
 10
21.98976518372422
 20
33.67143565927824
 30
0.0
 11
21.98976518372422
 21
3.941243262651079
 31
0.0
  0
INSERT
  5
1F4
330
1F0
100
AcDbEntity
  8
SUNPO
 62
     0
370
    -2
100
AcDbBlockReference
  2
_OPEN30
 10
21.98976518372422
 20
35.67143565927824
 30
0.0
 41
2.0
 42
2.0
 43
2.0
 50
90.0
  0
INSERT
  5
1F5
330
1F0
100
AcDbEntity
  8
SUNPO
 62
     0
370
    -2
100
AcDbBlockReference
  2
_OPEN30
 10
21.98976518372422
 20
1.941243262651079
 30
0.0
 41
2.0
 42
2.0
 43
2.0
 50
270.0
  0
MTEXT
  5
1F6
330
1F0
100
AcDbEntity
  8
SUNPO
 62
     0
100
AcDbMText
 10
20.23976518372422
 20
18.80633946096466
 30
0.0
 40
2.5
 41
0.0
 71
     5
 72
     1
  1
\A1;1012
 11
0.0000000000000001
 21
1.0
 31
0.0
 73
     1
 44
1.0
1001
ACAD
1000
MTEXTBEGIN
1070
    73
1070
     1
1070
    44
1040
1.0
1070
    74
1070
     0
1000
MTEXTEND
  0
POINT
  5
1F7
330
1F0
100
AcDbEntity
  8
DEFPOINTS
 62
     0
100
AcDbPoint
 10
10.32309851692417
 20
35.67143565927825
 30
0.0
  0
POINT
  5
1F8
330
1F0
100
AcDbEntity
  8
DEFPOINTS
 62
     0
100
AcDbPoint
 10
2.625840167712908
 20
1.941243262651084
 30
0.0
  0
POINT
  5
1F9
330
1F0
100
AcDbEntity
  8
DEFPOINTS
 62
     0
100
AcDbPoint
 10
21.98976518372422
 20
1.941243262651079
 30
0.0
  0
ENDBLK
  5
1FB
330
1F0
100
AcDbEntity
  8
0
100
AcDbBlockEnd
  0
ENDSEC
  0
SECTION
  2
ENTITIES
  0
TEXT
  5
33
330
2
100
AcDbEntity
  8
TOUROKU
100
AcDbText
 10
47.15580429965473
 20
1.716613593426131
 30
0.0
 40
1.5
  1
Ｓ＝１／３０
 41
0.7
 72
     2
 11
54.22580429965472
 21
1.716613593426131
 31
0.0
100
AcDbText
  0
DIMENSION
  5
35
330
2
100
AcDbEntity
  8
SUNPO
100
AcDbDimension
  2
*D10
 10
21.98976518372422
 20
1.941243262651079
 30
0.0
 11
20.23976518372422
 21
18.80633946096466
 31
0.0
 70
    32
  1
1012
 71
     5
 42
33.73019239662716
  3
STANDARD
100
AcDbAlignedDimension
 13
10.32309851692417
 23
35.67143565927825
 33
0.0
 14
2.625840167712908
 24
1.941243262651084
 34
0.0
 50
90.0
100
AcDbRotatedDimension
1001
ACAD
1000
DSTYLE
1002
{
1070
    40
1040
1.0
1070
   140
1040
2.5
1070
   147
1040
0.5
1070
   172
1070
     1
1070
   279
1070
     0
1070
   288
1070
     0
1002
}
  0
ARC
  5
44
330
2
100
AcDbEntity
  8
GAIKEI
  6
Continuous
100
AcDbCircle
 10
41.04882737027458
 20
27.18808036012638
 30
0.0
 40
0.06666666666
100
AcDbArc
 50
0.0000359999984121
 51
90.00001800001225
  0
ARC
  5
46
330
2
100
AcDbEntity
  8
GAIKEI
  6
Continuous
100
AcDbCircle
 10
40.17213467036225
 20
27.18808036012638
 30
0.0
 40
0.06666666666
100
AcDbArc
 50
90.00001800001225
 51
180.0
  0
LINE
  5
47
330
2
100
AcDbEntity
  8
GAIKEI
  6
Continuous
100
AcDbLine
 10
40.10546800370224
 20
27.18808036012638
 30
0.0
 11
40.10546800370224
 21
27.09146579346938
 31
0.0
  0
LINE
  5
48
330
2
100
AcDbEntity
  8
GAIKEI
  6
Continuous
100
AcDbLine
 10
41.11549403693459
 20
27.09146579346938
 30
0.0
 11
41.11549403693459
 21
27.18808036012638
 31
0.0
  0
LINE
  5
49
330
2
100
AcDbEntity
  8
GAIKEI
  6
Continuous
100
AcDbLine
 10
41.04882737027458
 20
27.25474702678639
 30
0.0
 11
40.17213467036225
 21
27.25474702678639
 31
0.0
  0
LINE
  5
4A
330
2
100
AcDbEntity
  8
GAIKEI
  6
Continuous
 62
     1
100
AcDbLine
 10
40.10546800370224
 20
27.09146579346938
 30
0.0
 11
41.11549403693459
 21
27.09146579346938
 31
0.0
  0
LINE
  5
4B
330
2
100
AcDbEntity
  8
GAIKEI
  6
Continuous
 62
     1
100
AcDbLine
 10
40.11054613703504
 20
25.09146579366939
 30
0.0
 11
40.05716070370709
 21
25.09146579366939
 31
0.0
  0
LINE
  5
4C
330
2
100
AcDbEntity
  8
GAIKEI
  6
Continuous
 62
     1
100
AcDbLine
 10
41.16054613693006
 20
23.95149182711671
 30
0.0
 11
41.16054613693006
 21
25.2314397269887
 31
0.0
  0
ARC
  5
4D
330
2
100
AcDbEntity
  8
GAIKEI
  6
Continuous
 62
     1
100
AcDbCircle
 10
41.11054613693505
 20
25.2314397269887
 30
0.0
 40
0.049999999995
100
AcDbArc
 50
0.0000909999974337
 51
90.00007299999172
  0
ARC
  5
4E
330
2
100
AcDbEntity
  8
GAIKEI
  6
Continuous
 62
     1
100
AcDbCircle
 10
41.11054613693505
 20
23.95149182711671
 30
0.0
 40
0.049999999995
100
AcDbArc
 50
269.9999449999944
 51
359.9999270000018
  0
LINE
  5
4F
330
2
100
AcDbEntity
  8
GAIKEI
  6
Continuous
 62
     1
100
AcDbLine
 10
40.11054613703504
 20
23.95813246044938
 30
0.0
 11
39.97721280371513
 21
23.95813246044938
 31
0.0
  0
LINE
  5
50
330
2
100
AcDbEntity
  8
GAIKEI
  6
Continuous
 62
     1
100
AcDbLine
 10
39.97721280371513
 20
25.09146579366939
 30
0.0
 11
40.05716070370709
 21
25.09146579366939
 31
0.0
  0
LINE
  5
51
330
2
100
AcDbEntity
  8
GAIKEI
  6
Continuous
 62
     1
100
AcDbLine
 10
41.16054613693006
 20
12.95149182821672
 30
0.0
 11
41.16054613693006
 21
14.2314397280887
 31
0.0
  0
ARC
  5
52
330
2
100
AcDbEntity
  8
GAIKEI
  6
Continuous
 62
     1
100
AcDbCircle
 10
41.11054613693505
 20
12.95149182821672
 30
0.0
 40
0.049999999995
100
AcDbArc
 50
269.9999449999944
 51
359.9999270000018
  0
ARC
  5
53
330
2
100
AcDbEntity
  8
GAIKEI
  6
Continuous
 62
     1
100
AcDbCircle
 10
41.11054613693505
 20
14.2314397280887
 30
0.0
 40
0.049999999995
100
AcDbArc
 50
0.0000909999974337
 51
90.00007299999172
  0
LINE
  5
54
330
2
100
AcDbEntity
  8
GAIKEI
  6
Continuous
100
AcDbLine
 10
41.11054613693505
 20
10.35782582847605
 30
0.0
 11
41.11054613693505
 21
27.09146579346938
 31
0.0
  0
LINE
  5
55
330
2
100
AcDbEntity
  8
GAIKEI
  6
Continuous
100
AcDbLine
 10
40.11054613703504
 20
10.9707290617481
 30
0.0
 11
40.11054613703504
 21
27.09146579346938
 31
0.0
  0
LINE
  5
56
330
2
100
AcDbEntity
  8
GAIKEI
  6
Continuous
100
AcDbLine
 10
41.21379783692475
 20
4.908386395687699
 30
0.0
 11
41.21379783692475
 21
4.909037462354291
 31
0.0
  0
LINE
  5
57
330
2
100
AcDbEntity
  8
GAIKEI
  6
Continuous
100
AcDbLine
 10
41.28046450358477
 20
4.862292662358953
 30
0.0
 11
41.28046450358477
 21
4.86086036235909
 31
0.0
  0
ARC
  5
58
330
2
100
AcDbEntity
  8
GAIKEI
  6
Continuous
100
AcDbCircle
 10
41.15677010359706
 20
4.908132462354387
 30
0.0
 40
0.03333333333
100
AcDbArc
 50
55.29151000000457
 51
90.00001800001225
  0
LINE
  5
59
330
2
100
AcDbEntity
  8
GAIKEI
  6
Continuous
100
AcDbLine
 10
41.15677010359706
 20
4.941465795684393
 30
0.0
 11
41.13046800359973
 21
4.941465795684393
 31
0.0
  0
ARC
  5
5A
330
2
100
AcDbEntity
  8
GAIKEI
  6
Continuous
100
AcDbCircle
 10
41.13046800359973
 20
4.924799129019362
 30
0.0
 40
0.016666666665
100
AcDbArc
 50
90.00001800001225
 51
179.9999690000021
  0
LINE
  5
5B
330
2
100
AcDbEntity
  8
GAIKEI
  6
Continuous
100
AcDbLine
 10
41.11389963693471
 20
4.924787662352713
 30
0.0
 11
41.11389993693473
 21
4.918147029020047
 31
0.0
  0
ARC
  5
5C
330
2
100
AcDbEntity
  8
GAIKEI
  6
Continuous
100
AcDbCircle
 10
41.10390550360245
 20
4.918158495686725
 30
0.0
 40
0.009999999999
100
AcDbArc
 50
270.0000540000107
 51
0.0000359999984121
  0
SPLINE
  5
5D
330
2
100
AcDbEntity
  8
GAIKEI
  6
Continuous
100
AcDbSpline
210
0.0
220
0.0
230
1.0
 70
     8
 71
     3
 72
     9
 73
     5
 74
     3
 42
0.0000000001
 43
0.0000000001
 44
0.000001
 12
-0.8156973731221807
 22
0.5784788634700267
 32
0.0
 13
-0.8005879596917452
 23
0.599215252473273
 33
0.0
 40
0.0
 40
0.0
 40
0.0
 40
0.0
 40
0.0400901758194218
 40
0.0772428857709785
 40
0.0772428857709785
 40
0.0772428857709785
 40
0.0772428857709785
 10
41.34661384524474
 20
4.813991825919629
 30
0.0
 10
41.33571336154344
 20
4.821722265701083
 30
0.0
 10
41.31455134881218
 20
4.836386508209187
 30
0.0
 10
41.29350768267016
 20
4.851232460757245
 30
0.0
 10
41.28359301191778
 20
4.858653284248475
 30
0.0
 11
41.34661384524474
 21
4.813991825919629
 31
0.0
 11
41.31377910476828
 21
4.836993886171683
 31
0.0
 11
41.28359301191778
 21
4.858653284248475
 31
0.0
  0
LINE
  5
5E
330
2
100
AcDbEntity
  8
GAIKEI
  6
Continuous
100
AcDbLine
 10
41.11054613693505
 20
4.914773062353702
 30
0.0
 11
41.11054613693505
 21
9.508132461894376
 31
0.0
  0
LINE
  5
5F
330
2
100
AcDbEntity
  8
GAIKEI
  6
Continuous
100
AcDbLine
 10
40.06966070370583
 20
4.941465795684393
 30
0.0
 11
40.004686770379
 21
4.941465795684393
 31
0.0
  0
LINE
  5
60
330
2
100
AcDbEntity
  8
GAIKEI
  6
Continuous
100
AcDbLine
 10
39.04965310380783
 20
4.941456229017717
 30
0.0
 11
38.21723123722438
 21
4.941455029017731
 31
0.0
  0
ARC
  5
61
330
2
100
AcDbEntity
  8
GAIKEI
  6
Continuous
100
AcDbCircle
 10
38.21718677055776
 20
4.908132462354387
 30
0.0
 40
0.03333333333
100
AcDbArc
 50
90.00001800001225
 51
179.9999640000016
  0
ARC
  5
62
330
2
100
AcDbEntity
  8
GAIKEI
  6
Continuous
100
AcDbCircle
 10
40.004686770379
 20
4.931439729018705
 30
0.0
 40
0.009999999999
100
AcDbArc
 50
90.00001800001225
 51
134.9999440000038
  0
LINE
  5
63
330
2
100
AcDbEntity
  8
GAIKEI
  6
Continuous
100
AcDbLine
 10
39.99756150371303
 20
4.938536095684668
 30
0.0
 11
39.97008977038246
 21
4.911064329020746
 31
0.0
  0
ARC
  5
64
330
2
100
AcDbEntity
  8
GAIKEI
  6
Continuous
100
AcDbCircle
 10
39.96302010371648
 20
4.918158495686725
 30
0.0
 40
0.009999999999
100
AcDbArc
 50
270.0000540000107
 51
315.0000180000038
  0
LINE
  5
65
330
2
100
AcDbEntity
  8
GAIKEI
  6
Continuous
100
AcDbLine
 10
39.96302010371648
 20
4.908132462354387
 30
0.0
 11
39.09127530380369
 21
4.908132462354387
 31
0.0
  0
ARC
  5
66
330
2
100
AcDbEntity
  8
GAIKEI
  6
Continuous
100
AcDbCircle
 10
39.09127530380369
 20
4.918158495686725
 30
0.0
 40
0.009999999999
100
AcDbArc
 50
225.0000900000009
 51
270.0000540000107
  0
LINE
  5
67
330
2
100
AcDbEntity
  8
GAIKEI
  6
Continuous
100
AcDbLine
 10
39.08419937047109
 20
4.911092929020753
 30
0.0
 11
39.05676237047379
 21
4.938530362351343
 31
0.0
  0
ARC
  5
68
330
2
100
AcDbEntity
  8
GAIKEI
  6
Continuous
100
AcDbCircle
 10
39.04973883714115
 20
4.931439729018705
 30
0.0
 40
0.009999999999
100
AcDbArc
 50
44.99999999999539
 51
90.00001800001225
  0
ARC
  5
69
330
2
100
AcDbEntity
  8
GAIKEI
  6
Continuous
100
AcDbCircle
 10
40.11132737036831
 20
4.918158495686725
 30
0.0
 40
0.009999999999
100
AcDbArc
 50
225.0000900000009
 51
270.0000540000107
  0
LINE
  5
6A
330
2
100
AcDbEntity
  8
GAIKEI
  6
Continuous
100
AcDbLine
 10
40.10426093703569
 20
4.911045762354063
 30
0.0
 11
40.07673167037182
 21
4.938575095684683
 31
0.0
  0
ARC
  5
6B
330
2
100
AcDbEntity
  8
GAIKEI
  6
Continuous
100
AcDbCircle
 10
40.06966070370583
 20
4.931439729018705
 30
0.0
 40
0.009999999999
100
AcDbArc
 50
44.99999999999539
 51
90.00001800001225
  0
LINE
  5
6C
330
2
100
AcDbEntity
  8
GAIKEI
  6
Continuous
100
AcDbLine
 10
41.10390550360245
 20
4.908132462354387
 30
0.0
 11
40.11132737036831
 21
4.908132462354387
 31
0.0
  0
LINE
  5
6D
330
2
100
AcDbEntity
  8
GAIKEI
  6
Continuous
100
AcDbLine
 10
40.11054613703504
 20
4.908132462354387
 30
0.0
 11
40.11054613703504
 21
9.508132461894376
 31
0.0
  0
LINE
  5
6E
330
2
100
AcDbEntity
  8
GAIKEI
  6
Continuous
100
AcDbLine
 10
37.45011680396777
 20
4.723519695706158
 30
0.0
 11
37.94087583725201
 21
3.957935962449397
 31
0.0
  0
ARC
  5
6F
330
2
100
AcDbEntity
  8
GAIKEI
  6
Continuous
100
AcDbCircle
 10
38.15052010389775
 20
4.808132462364369
 30
0.0
 40
0.03333333333
100
AcDbArc
 50
270.0000540000107
 51
0.0000359999984121
  0
LINE
  5
70
330
2
100
AcDbEntity
  8
GAIKEI
  6
Continuous
100
AcDbLine
 10
38.15052010389775
 20
4.774799129034391
 30
0.0
 11
37.47812427063161
 21
4.774799129034391
 31
0.0
  0
ARC
  5
71
330
2
100
AcDbEntity
  8
GAIKEI
  6
Continuous
100
AcDbCircle
 10
37.47812427063161
 20
4.741465795704385
 30
0.0
 40
0.03333333333
100
AcDbArc
 50
90.00001800001225
 51
212.6608890000066
  0
LINE
  5
72
330
2
100
AcDbEntity
  8
GAIKEI
  6
Continuous
100
AcDbLine
 10
38.1838534372277
 20
4.908132462354387
 30
0.0
 11
38.1838534372277
 21
4.808132462364369
 31
0.0
  0
LINE
  5
73
330
2
100
AcDbEntity
  8
GAIKEI
  6
Continuous
100
AcDbLine
 10
43.6850218366776
 20
2.801485429231718
 30
0.0
 11
43.6798135033448
 21
2.801485429231718
 31
0.0
  0
ARC
  5
74
330
2
100
AcDbEntity
  8
GAIKEI
  6
Continuous
100
AcDbCircle
 10
40.54908780365787
 20
-46.47229559917426
 30
0.0
 40
49.99999999499999
100
AcDbArc
 50
93.2903659999922
 51
101.254530000002
  0
ARC
  5
75
330
2
100
AcDbEntity
  8
GAIKEI
  6
Continuous
100
AcDbCircle
 10
30.80052010463277
 20
2.517116829260146
 30
0.0
 40
0.049999999995
100
AcDbArc
 50
101.254530000002
 51
179.999945000001
  0
LINE
  5
76
330
2
100
AcDbEntity
  8
GAIKEI
  6
Continuous
100
AcDbLine
 10
30.75052010463776
 20
2.517116829260146
 30
0.0
 11
30.75052010463776
 21
2.290944962616123
 31
0.0
  0
ARC
  5
77
330
2
100
AcDbEntity
  8
GAIKEI
  6
Continuous
100
AcDbCircle
 10
30.85052010462772
 20
2.290944962616123
 30
0.0
 40
0.09999999999
100
AcDbArc
 50
180.0000719999968
 51
216.3844350000025
  0
LINE
  5
78
330
2
100
AcDbEntity
  8
GAIKEI
  6
Continuous
100
AcDbLine
 10
30.77005067130244
 20
2.231667295955332
 30
0.0
 11
30.96886503794923
 21
1.961847795982322
 31
0.0
  0
ARC
  5
79
330
2
100
AcDbEntity
  8
GAIKEI
  6
Continuous
100
AcDbCircle
 10
31.00911383794517
 20
1.991465795979394
 30
0.0
 40
0.049999999995
100
AcDbArc
 50
216.3844350000025
 51
269.9999990000051
  0
LINE
  5
7A
330
2
100
AcDbEntity
  8
GAIKEI
  6
Continuous
100
AcDbLine
 10
31.00911293794525
 20
1.9414640293177
 30
0.0
 11
43.54479003669166
 21
1.941464095984372
 31
0.0
  0
ARC
  5
7B
330
2
100
AcDbEntity
  8
GAIKEI
  6
Continuous
100
AcDbCircle
 10
43.54479093669164
 20
1.951491829316722
 30
0.0
 40
0.009999999999
100
AcDbArc
 50
270.0000540000107
 51
329.3873470000002
  0
LINE
  5
7C
330
2
100
AcDbEntity
  8
GAIKEI
  6
Continuous
100
AcDbLine
 10
43.55339213669077
 20
1.94638716265058
 30
0.0
 11
43.81332190333142
 21
2.38568012927331
 31
0.0
  0
ARC
  5
7D
330
2
100
AcDbEntity
  8
GAIKEI
  6
Continuous
100
AcDbCircle
 10
43.58385343668771
 20
2.521413695926383
 30
0.0
 40
0.26666666664
100
AcDbArc
 50
329.3873470000002
 51
43.48981800000601
  0
LINE
  5
7E
330
2
100
AcDbEntity
  8
GAIKEI
  6
Continuous
100
AcDbLine
 10
43.66051117001342
 20
2.82057139589645
 30
0.0
 11
43.66051153668007
 21
2.824868262562716
 31
0.0
  0
ARC
  5
7F
330
2
100
AcDbEntity
  8
GAIKEI
  6
Continuous
100
AcDbCircle
 10
31.68437427121103
 20
-8.766045602944842
 30
0.0
 40
16.666666665
100
AcDbArc
 50
44.06366299999543
 51
46.80295099999375
  0
ARC
  5
80
330
2
100
AcDbEntity
  8
GAIKEI
  6
Continuous
100
AcDbCircle
 10
37.66015550394673
 20
3.77805432913405
 30
0.0
 40
0.3333333333
100
AcDbArc
 50
273.2904569999902
 51
32.66090800000154
  0
ARC
  5
81
330
2
100
AcDbEntity
  8
GAIKEI
  6
Continuous
100
AcDbCircle
 10
31.68567633787757
 20
-8.765418969611602
 30
0.0
 40
16.666666665
100
AcDbArc
 50
43.48992699999296
 51
55.29151000000457
  0
DIMENSION
  5
82
330
2
100
AcDbEntity
  8
SUNPO
100
AcDbDimension
  2
*D9
 10
16.98976518372424
 20
35.67143565927824
 30
0.0
 11
15.23976518372424
 21
20.25476922748658
 31
0.0
 70
    33
  1
925
 71
     5
 42
30.83333286358334
  3
STANDARD
100
AcDbAlignedDimension
 13
8.989765183724216
 23
4.838102795694908
 33
0.0
 14
8.989765183724216
 24
35.67143565927825
 34
0.0
1001
ACAD
1000
DSTYLE
1002
{
1070
   287
1070
     3
1070
   287
1070
     3
1070
   287
1070
     3
1070
   287
1070
     3
1070
    40
1040
1.0
1070
   140
1040
2.5
1070
   147
1040
0.5
1070
   172
1070
     1
1070
   279
1070
     0
1070
   288
1070
     0
1002
}
  0
LINE
  5
8F
330
2
100
AcDbEntity
  8
GAIKEI
  6
Continuous
 62
     1
100
AcDbLine
 10
7.005788100608299
 20
6.808102795497831
 30
0.0
 11
-40.79421189461164
 21
6.808102795497831
 31
0.0
  0
LINE
  5
90
330
2
100
AcDbEntity
  8
GAIKEI
  6
Continuous
 62
     1
100
AcDbLine
 10
7.005788100608299
 20
33.70810279280775
 30
0.0
 11
-40.79421189461164
 21
33.70810279280775
 31
0.0
  0
LINE
  5
91
330
2
100
AcDbEntity
  8
GAIKEI
  6
Continuous
 62
     1
100
AcDbLine
 10
-40.79421189461164
 20
33.70810279280775
 30
0.0
 11
-40.79421189461164
 21
6.808102795497831
 31
0.0
  0
LINE
  5
92
330
2
100
AcDbEntity
  8
GAIKEI
  6
Continuous
 62
     1
100
AcDbLine
 10
7.005788100608299
 20
33.70810279280775
 30
0.0
 11
7.005788100608299
 21
6.808102795497831
 31
0.0
  0
SPLINE
  5
93
330
2
100
AcDbEntity
  8
GAIKEI
  6
Continuous
 62
     1
100
AcDbSpline
210
0.0
220
0.0
230
1.0
 70
     8
 71
     3
 72
    21
 73
    17
 74
    15
 42
0.0000000001
 43
0.0000000001
 44
0.000001
 12
-0.0022613087208363
 22
0.9999974432381662
 32
0.0
 13
-0.9999986717690793
 23
0.0016298650487871
 33
0.0
 40
0.0
 40
0.0
 40
0.0
 40
0.0
 40
0.0112719229150296
 40
0.0225828053261468
 40
0.0338589301203869
 40
0.0451219675102716
 40
0.056419303237645
 40
0.067680391294529
 40
0.0790599226075302
 40
0.0904793548250522
 40
0.1018613243524181
 40
0.1128734816521472
 40
0.1239181148160122
 40
0.134930136060685
 40
0.1459241914224544
 40
0.156916505351364
 40
0.156916505351364
 40
0.156916505351364
 40
0.156916505351364
 10
7.622454765937959
 20
34.17476944612054
 30
0.0
 10
7.622446269505417
 20
34.17852674415235
 30
0.0
 10
7.622005877661592
 20
34.18606093579791
 30
0.0
 10
7.620053142081815
 20
34.19720018931898
 30
0.0
 10
7.616886791460615
 20
34.20805460022553
 30
0.0
 10
7.61252461615706
 20
34.21848101921757
 30
0.0
 10
7.607051953346228
 20
34.2283627344593
 30
0.0
 10
7.600501013219968
 20
34.23761600945494
 30
0.0
 10
7.592871306513387
 20
34.24605968405939
 30
0.0
 10
7.584288066624623
 20
34.25358996156615
 30
0.0
 10
7.575004603263948
 20
34.26002610232823
 30
0.0
 10
7.565163792490722
 20
34.26530730662498
 30
0.0
 10
7.554932319687878
 20
34.26946405344831
 30
0.0
 10
7.54431870620391
 20
34.27249851612157
 30
0.0
 10
7.533453730147613
 20
34.27434704999752
 30
0.0
 10
7.526118865724129
 20
34.27476347411448
 30
0.0
 10
7.522454765947941
 20
34.27476944611058
 30
0.0
 11
7.622454765937959
 21
34.17476944612054
 31
0.0
 11
7.621792640913099
 21
34.18602250376586
 31
0.0
 11
7.619848731570982
 21
34.19716510673607
 31
0.0
 11
7.616686735446876
 21
34.20798882464183
 31
0.0
 11
7.612344836239799
 21
34.21838133000472
 31
0.0
 11
7.60687020809479
 21
34.2282635621028
 31
0.0
 11
7.600351075728667
 21
34.237445793723
 31
0.0
 11
7.592727006627626
 21
34.24589373881855
 31
0.0
 11
7.584145318677315
 21
34.25342756406172
 31
0.0
 11
7.574789531108194
 21
34.25990975915264
 31
0.0
 11
7.565090974649933
 21
34.26512567730049
 31
0.0
 11
7.554858019866912
 21
34.26928147836961
 31
0.0
 11
7.544268819302203
 21
34.27230367345823
 31
0.0
 11
7.533429883899316
 21
34.27414406694444
 31
0.0
 11
7.522454765947941
 21
34.27476944611058
 31
0.0
  0
SPLINE
  5
94
330
2
100
AcDbEntity
  8
GAIKEI
  6
Continuous
 62
     1
100
AcDbSpline
210
0.0
220
0.0
230
1.0
 70
     8
 71
     3
 72
    21
 73
    17
 74
    15
 42
0.0000000001
 43
0.0000000001
 44
0.000001
 12
0.0022613087193831
 22
-0.9999974432381693
 32
0.0
 13
0.9999986717689822
 23
-0.0016298651084615
 33
0.0
 40
0.0
 40
0.0
 40
0.0
 40
0.0
 40
0.0112719229156856
 40
0.02258280532742
 40
0.0338589301223127
 40
0.0451219675123904
 40
0.0564193032405035
 40
0.0676803912979386
 40
0.079059922612723
 40
0.0904793548319036
 40
0.1018613243607485
 40
0.1128734816606935
 40
0.1239181148248499
 40
0.1349301360694372
 40
0.1459241914269232
 40
0.156916505351463
 40
0.156916505351463
 40
0.156916505351463
 40
0.156916505351463
 10
-41.41087856249202
 20
6.34143611557053
 30
0.0
 10
-41.41087006605951
 20
6.337678817538517
 30
0.0
 10
-41.41042967421563
 20
6.330144625892501
 30
0.0
 10
-41.40847693863562
 20
6.319005372370838
 30
0.0
 10
-41.4053105880144
 20
6.308150961463752
 30
0.0
 10
-41.40094841270974
 20
6.297724542471684
 30
0.0
 10
-41.39547574989902
 20
6.287842827229241
 30
0.0
 10
-41.38892480977171
 20
6.278589552233086
 30
0.0
 10
-41.3812951030645
 20
6.270145877627498
 30
0.0
 10
-41.37271186317341
 20
6.262615600120682
 30
0.0
 10
-41.36342839981131
 20
6.256179459358833
 30
0.0
 10
-41.35358758903729
 20
6.250898255062082
 30
0.0
 10
-41.34335611623408
 20
6.246741508239239
 30
0.0
 10
-41.3327425027509
 20
6.243707045568044
 30
0.0
 10
-41.32187752669733
 20
6.241858511693919
 30
0.0
 10
-41.3145426622768
 20
6.241442087576757
 30
0.0
 10
-41.31087856250206
 20
6.241436115580455
 30
0.0
 11
-41.41087856249202
 21
6.34143611557053
 31
0.0
 11
-41.41021643746711
 21
6.330183057924557
 31
0.0
 11
-41.40827252812482
 21
6.31904045495375
 31
0.0
 11
-41.40511053200043
 21
6.308216737047388
 31
0.0
 11
-41.40076863279278
 21
6.297824231684529
 31
0.0
 11
-41.39529400464738
 21
6.287941999585825
 31
0.0
 11
-41.38877487228074
 21
6.278759767965311
 31
0.0
 11
-41.3811508031784
 21
6.270311822868535
 31
0.0
 11
-41.37256911522615
 21
6.26277799762505
 31
0.0
 11
-41.36321332765521
 21
6.256295802534168
 31
0.0
 11
-41.35351477119655
 21
6.251079884386598
 31
0.0
 11
-41.34328181641296
 21
6.246924083318106
 31
0.0
 11
-41.33269261584792
 21
6.243901888230993
 31
0.0
 11
-41.32185368044907
 21
6.242061494746593
 31
0.0
 11
-41.31087856250206
 21
6.241436115580455
 31
0.0
  0
SPLINE
  5
95
330
2
100
AcDbEntity
  8
GAIKEI
  6
Continuous
 62
     1
100
AcDbSpline
210
0.0
220
0.0
230
1.0
 70
     8
 71
     3
 72
    21
 73
    17
 74
    15
 42
0.0000000001
 43
0.0000000001
 44
0.000001
 12
0.0022613087209003
 22
0.9999974432381659
 32
0.0
 13
0.999998671769004
 23
0.0016298650950614
 33
0.0
 40
0.0
 40
0.0
 40
0.0
 40
0.0
 40
0.0112719229147392
 40
0.0225828053252307
 40
0.033858930119407
 40
0.0451219675089332
 40
0.0564193032360836
 40
0.0676803912928359
 40
0.0790599226040369
 40
0.0904793548201399
 40
0.1018613243457012
 40
0.1128734816475915
 40
0.1239181148134314
 40
0.1349301360599001
 40
0.1459241914220665
 40
0.1569165053513507
 40
0.1569165053513507
 40
0.1569165053513507
 40
0.1569165053513507
 10
-41.41087856249202
 20
34.17476944612054
 30
0.0
 10
-41.41087006605949
 20
34.17852674415224
 30
0.0
 10
-41.41042967421586
 20
34.18606093579749
 30
0.0
 10
-41.40847693863588
 20
34.19720018931821
 30
0.0
 10
-41.40531058801525
 20
34.20805460022461
 30
0.0
 10
-41.40094841271144
 20
34.21848101921623
 30
0.0
 10
-41.39547574990138
 20
34.22836273445819
 30
0.0
 10
-41.3889248097756
 20
34.23761600945326
 30
0.0
 10
-41.38129510307002
 20
34.246059684057
 30
0.0
 10
-41.37271186318272
 20
34.25358996156311
 30
0.0
 10
-41.3634283998225
 20
34.26002610232504
 30
0.0
 10
-41.35358758904942
 20
34.26530730662364
 30
0.0
 10
-41.34335611624467
 20
34.26946405344791
 30
0.0
 10
-41.33274250275923
 20
34.27249851612072
 30
0.0
 10
-41.32187752670207
 20
34.27434704999681
 30
0.0
 10
-41.3145426622784
 20
34.27476347411431
 30
0.0
 10
-41.31087856250206
 20
34.27476944611058
 30
0.0
 11
-41.41087856249202
 21
34.17476944612054
 31
0.0
 11
-41.41021643746728
 21
34.18602250376557
 31
0.0
 11
-41.40827252812522
 21
34.19716510673516
 31
0.0
 11
-41.40511053200135
 21
34.20798882464092
 31
0.0
 11
-41.40076863279438
 21
34.21838133000347
 31
0.0
 11
-41.39529400464988
 21
34.22826356210157
 31
0.0
 11
-41.38877487228398
 21
34.23744579372178
 31
0.0
 11
-41.38115080318431
 21
34.24589373881614
 31
0.0
 11
-41.37256911523536
 21
34.25342756405871
 31
0.0
 11
-41.363213327668
 21
34.259909759149
 31
0.0
 11
-41.35351477120844
 21
34.26512567729898
 31
0.0
 11
-41.34328181642366
 21
34.26928147836901
 31
0.0
 11
-41.33269261585707
 21
34.2723036734576
 31
0.0
 11
-41.32185368045378
 21
34.27414406694385
 31
0.0
 11
-41.31087856250206
 21
34.27476944611058
 31
0.0
  0
SPLINE
  5
96
330
2
100
AcDbEntity
  8
GAIKEI
  6
Continuous
 62
     1
100
AcDbSpline
210
0.0
220
0.0
230
1.0
 70
     8
 71
     3
 72
    21
 73
    17
 74
    15
 42
0.0000000001
 43
0.0000000001
 44
0.000001
 12
-0.0022613087208951
 22
-0.9999974432381659
 32
0.0
 13
-0.9999986717690051
 23
-0.001629865094319
 33
0.0
 40
0.0
 40
0.0
 40
0.0
 40
0.0
 40
0.0112719229147676
 40
0.0225828053258946
 40
0.0338589301197867
 40
0.0451219675089806
 40
0.0564193032361585
 40
0.0676803912929108
 40
0.079059922604344
 40
0.0904793548197781
 40
0.1018613243453773
 40
0.1128734816469693
 40
0.1239181148128215
 40
0.1349301360592356
 40
0.1459241914218138
 40
0.1569165053515074
 40
0.1569165053515074
 40
0.1569165053515074
 40
0.1569165053515074
 10
7.622454765937959
 20
6.34143611557053
 30
0.0
 10
7.622446269505417
 20
6.337678817538829
 30
0.0
 10
7.62200587766182
 20
6.330144625893353
 30
0.0
 10
7.620053142081815
 20
6.319005372372458
 30
0.0
 10
7.616886791460956
 20
6.308150961466225
 30
0.0
 10
7.612524616157315
 20
6.297724542474725
 30
0.0
 10
7.607051953347252
 20
6.28784282723285
 30
0.0
 10
7.600501013221276
 20
6.278589552237747
 30
0.0
 10
7.592871306516201
 20
6.27014587763378
 30
0.0
 10
7.584288066628488
 20
6.262615600128327
 30
0.0
 10
7.575004603269093
 20
6.256179459365853
 30
0.0
 10
7.565163792495638
 20
6.250898255067824
 30
0.0
 10
7.554932319691374
 20
6.246741508243019
 30
0.0
 10
7.5443187062057
 20
6.243707045570374
 30
0.0
 10
7.533453730148409
 20
6.241858511693749
 30
0.0
 10
7.526118865724384
 20
6.241442087576729
 30
0.0
 10
7.522454765947941
 20
6.241436115580455
 30
0.0
 11
7.622454765937959
 21
6.34143611557053
 31
0.0
 11
7.621792640913213
 21
6.330183057925466
 31
0.0
 11
7.619848731571039
 21
6.319040454955256
 31
0.0
 11
7.616686735447103
 21
6.308216737049804
 31
0.0
 11
7.612344836240254
 21
6.29782423168757
 31
0.0
 11
7.606870208095699
 21
6.287941999589463
 31
0.0
 11
7.600351075729804
 21
6.278759767969262
 31
0.0
 11
7.592727006630127
 21
6.270311822874589
 31
0.0
 11
7.584145318681521
 21
6.262777997632639
 31
0.0
 11
7.574789531114333
 21
6.256295802542041
 31
0.0
 11
7.565090974654935
 21
6.251079884392368
 31
0.0
 11
7.554858019870266
 21
6.246924083322028
 31
0.0
 11
7.544268819303738
 21
6.243901888233438
 31
0.0
 11
7.533429883900055
 21
6.242061494746906
 31
0.0
 11
7.522454765947941
 21
6.241436115580455
 31
0.0
  0
SPLINE
  5
97
330
2
100
AcDbEntity
  8
GAIKEI
  6
Continuous
 62
     1
100
AcDbSpline
210
0.0
220
0.0
230
1.0
 70
     8
 71
     3
 72
    20
 73
    16
 74
    14
 42
0.0000000001
 43
0.0000000001
 44
0.000001
 12
0.0002574072769913
 22
-0.9999999668707463
 32
0.0
 13
-0.9999995888701286
 23
-0.0009067852964616
 33
0.0
 40
0.0
 40
0.0
 40
0.0
 40
0.0
 40
0.010793198951738
 40
0.0215858503331854
 40
0.0372788069827426
 40
0.0529702733160047
 40
0.0637014125297381
 40
0.07446792044344
 40
0.0851978793582568
 40
0.0962051450064227
 40
0.1072508569327902
 40
0.1182608687212897
 40
0.1291472833027922
 40
0.1400686767636626
 40
0.150956492556654
 40
0.150956492556654
 40
0.150956492556654
 40
0.150956492556654
 10
7.69292855134347
 20
6.266942227162246
 30
0.0
 10
7.692929477426133
 20
6.263344494297513
 30
0.0
 10
7.692537723683699
 20
6.256143019546954
 30
0.0
 10
7.690519544383676
 20
6.243858440936094
 30
0.0
 10
7.686323600963987
 20
6.230373550223646
 30
0.0
 10
7.680055469199942
 20
6.217739510375793
 30
0.0
 10
7.673013408659045
 20
6.207506051257865
 30
0.0
 10
7.665943725693352
 20
6.199386845801427
 30
0.0
 10
7.657925111239848
 20
6.192063835124486
 30
0.0
 10
7.649008672546727
 20
6.185701360610948
 30
0.0
 10
7.639342422463784
 20
6.180359310757182
 30
0.0
 10
7.629171928592739
 20
6.176155543963346
 30
0.0
 10
7.618624114413535
 20
6.173167106097309
 30
0.0
 10
7.60785364537719
 20
6.171369573254025
 30
0.0
 10
7.600577924795203
 20
6.170965621145512
 30
0.0
 10
7.59694865435631
 20
6.170962330175086
 30
0.0
 11
7.69292855134347
 21
6.266942227162246
 31
0.0
 11
7.69234430234303
 21
6.256164311386328
 31
0.0
 11
7.690586207722105
 21
6.245515806003822
 31
0.0
 11
7.685936998870602
 21
6.230527300182671
 31
0.0
 11
7.678940307983907
 21
6.21648202603913
 31
0.0
 11
7.672860077022335
 21
6.207639584501066
 31
0.0
 11
7.665789028528138
 21
6.19952055453578
 31
0.0
 11
7.657860271366644
 21
6.192290926209238
 31
0.0
 11
7.648907843816459
 21
6.18588665903087
 31
0.0
 11
7.639242006042195
 21
6.18054063189885
 31
0.0
 11
7.629064247034534
 21
6.176341313054706
 31
0.0
 11
7.618592403152661
 21
6.173365574434939
 31
0.0
 11
7.607820233480879
 21
6.171566287540485
 31
0.0
 11
7.59694865435631
 21
6.170962330175086
 31
0.0
  0
SPLINE
  5
98
330
2
100
AcDbEntity
  8
GAIKEI
  6
Continuous
 62
     1
100
AcDbSpline
210
0.0
220
0.0
230
1.0
 70
     8
 71
     3
 72
    20
 73
    16
 74
    14
 42
0.0000000001
 43
0.0000000001
 44
0.000001
 12
-0.9999995888701295
 22
0.0009067852954251
 32
0.0
 13
0.0002574072776907
 23
0.9999999668707461
 33
0.0
 40
0.0
 40
0.0
 40
0.0
 40
0.0
 40
0.0108878157929914
 40
0.0218092092538058
 40
0.032695623835339
 40
0.0437056356237193
 40
0.0547513475501365
 40
0.0657586131983025
 40
0.0764885721129932
 40
0.0872550800267325
 40
0.0979862192405303
 40
0.1136776855737924
 40
0.1293706422233664
 40
0.1401632936048045
 40
0.1509564925565394
 40
0.1509564925565394
 40
0.1509564925565394
 40
0.1509564925565394
 10
-41.3853724509105
 20
6.170962330175086
 30
0.0
 10
-41.38900172134938
 20
6.170965621145512
 30
0.0
 10
-41.39627744193131
 20
6.171369573253969
 30
0.0
 10
-41.40704791096775
 20
6.173167106097281
 30
0.0
 10
-41.41759572514672
 20
6.17615554396383
 30
0.0
 10
-41.42776621901794
 20
6.180359310757069
 30
0.0
 10
-41.43743246910079
 20
6.185701360611005
 30
0.0
 10
-41.446348907794
 20
6.192063835124372
 30
0.0
 10
-41.45436752224731
 20
6.199386845801569
 30
0.0
 10
-41.46143720521306
 20
6.207506051257809
 30
0.0
 10
-41.46847926575404
 20
6.217739510375764
 30
0.0
 10
-41.47474739751817
 20
6.230373550223646
 30
0.0
 10
-41.47894334093786
 20
6.243858440936037
 30
0.0
 10
-41.48096152023782
 20
6.256143019546982
 30
0.0
 10
-41.4813532739802
 20
6.263344494297513
 30
0.0
 10
-41.48135234789754
 20
6.266942227162246
 30
0.0
 11
-41.3853724509105
 21
6.170962330175086
 31
0.0
 11
-41.39624403003506
 21
6.171566287540485
 31
0.0
 11
-41.40701619970679
 21
6.173365574434939
 31
0.0
 11
-41.41748804358861
 21
6.176341313055019
 31
0.0
 11
-41.42766580259626
 21
6.18054063189885
 31
0.0
 11
-41.43733164037058
 21
6.18588665903087
 31
0.0
 11
-41.44628406792077
 21
6.192290926209238
 31
0.0
 11
-41.45421282508209
 21
6.19952055453578
 31
0.0
 11
-41.46128387357634
 21
6.207639584501066
 31
0.0
 11
-41.46736410453804
 21
6.21648202603913
 31
0.0
 11
-41.47436079542472
 21
6.230527300182671
 31
0.0
 11
-41.47901000427629
 21
6.245515806003822
 31
0.0
 11
-41.48076809889715
 21
6.256164311386328
 31
0.0
 11
-41.48135234789754
 21
6.266942227162246
 31
0.0
  0
SPLINE
  5
99
330
2
100
AcDbEntity
  8
GAIKEI
  6
Continuous
 62
     1
100
AcDbSpline
210
0.0
220
0.0
230
1.0
 70
     8
 71
     3
 72
    20
 73
    16
 74
    14
 42
0.0000000001
 43
0.0000000001
 44
0.000001
 12
-0.0002574072790884
 22
0.9999999668707458
 32
0.0
 13
0.9999995888701286
 23
0.000906785296463
 33
0.0
 40
0.0
 40
0.0
 40
0.0
 40
0.0
 40
0.0107931989517441
 40
0.0215858503328741
 40
0.0372788069824209
 40
0.0529702733156831
 40
0.0637014125297385
 40
0.0744679204437135
 40
0.0851978793581936
 40
0.0962051450063596
 40
0.1072508569327768
 40
0.1182608687211571
 40
0.1291472833026981
 40
0.1400686767635078
 40
0.1509564925564991
 40
0.1509564925564991
 40
0.1509564925564991
 40
0.1509564925564991
 10
-41.48135234789754
 20
34.24926333452879
 30
0.0
 10
-41.4813532739802
 20
34.25286106739353
 30
0.0
 10
-41.4809615202376
 20
34.26006254214397
 30
0.0
 10
-41.47894334093789
 20
34.2723471207548
 30
0.0
 10
-41.47474739751811
 20
34.28583201146703
 30
0.0
 10
-41.46847926575398
 20
34.29846605131505
 30
0.0
 10
-41.46143720521303
 20
34.30869951043317
 30
0.0
 10
-41.45436752224751
 20
34.31681871588981
 30
0.0
 10
-41.44634890779388
 20
34.32414172656661
 30
0.0
 10
-41.43743246910083
 20
34.33050420108012
 30
0.0
 10
-41.4277662190179
 20
34.33584625093388
 30
0.0
 10
-41.41759572514669
 20
34.34005001772721
 30
0.0
 10
-41.40704791096777
 20
34.34303845559384
 30
0.0
 10
-41.39627744193126
 20
34.34483598843707
 30
0.0
 10
-41.38900172134938
 20
34.34523994054553
 30
0.0
 10
-41.3853724509105
 20
34.34524323151595
 30
0.0
 11
-41.48135234789754
 21
34.24926333452879
 31
0.0
 11
-41.48076809889698
 21
34.26004125030471
 31
0.0
 11
-41.47901000427629
 21
34.27068975568693
 31
0.0
 11
-41.47436079542472
 21
34.28567826150806
 31
0.0
 11
-41.46736410453804
 21
34.2997235356516
 31
0.0
 11
-41.46128387357634
 21
34.30856597718997
 31
0.0
 11
-41.45421282508209
 21
34.31668500715557
 31
0.0
 11
-41.44628406792077
 21
34.3239146354818
 31
0.0
 11
-41.43733164037058
 21
34.33031890266017
 31
0.0
 11
-41.42766580259626
 21
34.33566492979219
 31
0.0
 11
-41.41748804358861
 21
34.33986424863602
 31
0.0
 11
-41.40701619970679
 21
34.34283998725613
 31
0.0
 11
-41.39624403003506
 21
34.34463927415055
 31
0.0
 11
-41.3853724509105
 21
34.34524323151595
 31
0.0
  0
SPLINE
  5
9A
330
2
100
AcDbEntity
  8
GAIKEI
  6
Continuous
 62
     1
100
AcDbSpline
210
0.0
220
0.0
230
1.0
 70
     8
 71
     3
 72
    20
 73
    16
 74
    14
 42
0.0000000001
 43
0.0000000001
 44
0.000001
 12
0.9999995888701286
 22
-0.0009067852964629
 32
0.0
 13
-0.0002574072790882
 23
-0.9999999668707458
 33
0.0
 40
0.0
 40
0.0
 40
0.0
 40
0.0
 40
0.0108878157929914
 40
0.021809209253745
 40
0.032695623835286
 40
0.0437056356237189
 40
0.0547513475501858
 40
0.0657586131983518
 40
0.0764885721127899
 40
0.0872550800268769
 40
0.0979862192408679
 40
0.11367768557413
 40
0.12937064222366
 40
0.1401632936048085
 40
0.1509564925565526
 40
0.1509564925565526
 40
0.1509564925565526
 40
0.1509564925565526
 10
7.59694865435631
 20
34.34524323151595
 30
0.0
 10
7.600577924795203
 20
34.34523994054553
 30
0.0
 10
7.607853645377076
 20
34.34483598843707
 30
0.0
 10
7.618624114413591
 20
34.34303845559381
 30
0.0
 10
7.629171928592455
 20
34.34005001772715
 30
0.0
 10
7.639342422463727
 20
34.33584625093397
 30
0.0
 10
7.649008672546784
 20
34.33050420108017
 30
0.0
 10
7.657925111239705
 20
34.32414172656658
 30
0.0
 10
7.665943725693352
 20
34.31681871588978
 30
0.0
 10
7.673013408659073
 20
34.30869951043323
 30
0.0
 10
7.680055469199743
 20
34.29846605131496
 30
0.0
 10
7.686323600964072
 20
34.28583201146711
 30
0.0
 10
7.69051954438359
 20
34.27234712075474
 30
0.0
 10
7.692537723683557
 20
34.260062542144
 30
0.0
 10
7.692929477426133
 20
34.25286106739353
 30
0.0
 10
7.69292855134347
 20
34.24926333452879
 30
0.0
 11
7.59694865435631
 21
34.34524323151595
 31
0.0
 11
7.607820233480879
 21
34.34463927415055
 31
0.0
 11
7.618592403152547
 21
34.34283998725613
 31
0.0
 11
7.629064247034364
 21
34.33986424863602
 31
0.0
 11
7.639242006042081
 21
34.33566492979219
 31
0.0
 11
7.648907843816459
 21
34.33031890266017
 31
0.0
 11
7.657860271366644
 21
34.3239146354818
 31
0.0
 11
7.66578902852791
 21
34.31668500715557
 31
0.0
 11
7.672860077022335
 21
34.30856597718997
 31
0.0
 11
7.678940307983907
 21
34.2997235356516
 31
0.0
 11
7.685936998870602
 21
34.28567826150806
 31
0.0
 11
7.690586207722105
 21
34.27068975568693
 31
0.0
 11
7.692344302342917
 21
34.26004125030471
 31
0.0
 11
7.69292855134347
 21
34.24926333452879
 31
0.0
  0
SPLINE
  5
9B
330
2
100
AcDbEntity
  8
GAIKEI
  6
Continuous
 62
     1
100
AcDbSpline
210
0.0
220
0.0
230
1.0
 70
     8
 71
     3
 72
    17
 73
    13
 74
    11
 42
0.0000000001
 43
0.0000000001
 44
0.000001
 12
-0.1258340515666571
 22
0.9920513048559131
 32
0.0
 13
-0.9919842984270728
 23
0.1263611952861642
 33
0.0
 40
0.0
 40
0.0
 40
0.0
 40
0.0
 40
0.011718767604967
 40
0.0234376012460741
 40
0.0403817859203559
 40
0.0573248063761729
 40
0.0742501708191958
 40
0.0911753894194093
 40
0.1080541896883668
 40
0.1249338354312889
 40
0.1417897893223705
 40
0.158646846822443
 40
0.158646846822443
 40
0.158646846822443
 40
0.158646846822443
 10
8.915588473373304
 20
35.48369293221754
 30
0.0
 10
8.915096933370932
 20
35.48756813844881
 30
0.0
 10
8.913743523120217
 20
35.49527678885073
 30
0.0
 10
8.910168496714277
 20
35.50827300220419
 30
0.0
 10
8.904398145347272
 20
35.52239417048978
 30
0.0
 10
8.895846677469108
 20
35.53707990429285
 30
0.0
 10
8.885268984926398
 20
35.55037424743674
 30
0.0
 10
8.872945947707563
 20
35.56203797947268
 30
0.0
 10
8.859080242385203
 20
35.57178981451909
 30
0.0
 10
8.844014094094518
 20
35.57950751514056
 30
0.0
 10
8.828017416676345
 20
35.58501091136091
 30
0.0
 10
8.816952230820874
 20
35.58719312756696
 30
0.0
 10
8.811378252034955
 20
35.5879031535452
 30
0.0
 11
8.915588473373304
 21
35.48369293221754
 31
0.0
 11
8.913563941961285
 21
35.49523595891998
 31
0.0
 11
8.910449852138356
 21
35.5065334620416
 31
0.0
 11
8.904044888836779
 21
35.5222205048961
 31
0.0
 11
8.895505800203068
 21
35.53685441011118
 31
0.0
 11
8.884976278277349
 21
35.55010576920563
 31
0.0
 11
8.872675568897534
 21
35.56173147133177
 31
0.0
 11
8.858877815749679
 21
35.57145346626015
 31
0.0
 11
8.843851251145736
 21
35.57914281097124
 31
0.0
 11
8.827916989495918
 21
35.58464034091637
 31
0.0
 11
8.811378252034955
 21
35.5879031535452
 31
0.0
  0
SPLINE
  5
9C
330
2
100
AcDbEntity
  8
GAIKEI
  6
Continuous
 62
     1
100
AcDbSpline
210
0.0
220
0.0
230
1.0
 70
     8
 71
     3
 72
    17
 73
    13
 74
    11
 42
0.0000000001
 43
0.0000000001
 44
0.000001
 12
0.1258340515666572
 22
0.9920513048559131
 32
0.0
 13
0.9919842984270729
 23
0.126361195286164
 33
0.0
 40
0.0
 40
0.0
 40
0.0
 40
0.0
 40
0.0117187676049473
 40
0.0234376012460544
 40
0.0403817859203578
 40
0.0573248063761461
 40
0.0742501708192751
 40
0.091175389419406
 40
0.1080541896883635
 40
0.1249338354313867
 40
0.1417897893223609
 40
0.1586468468224892
 40
0.1586468468224892
 40
0.1586468468224892
 40
0.1586468468224892
 10
-42.70401226992738
 20
35.48369293221754
 30
0.0
 10
-42.703520729925
 20
35.48756813844881
 30
0.0
 10
-42.70216731967446
 20
35.49527678885079
 30
0.0
 10
-42.69859229326846
 20
35.50827300220425
 30
0.0
 10
-42.69282194190134
 20
35.52239417048969
 30
0.0
 10
-42.68427047402338
 20
35.53707990429297
 30
0.0
 10
-42.67369278148033
 20
35.55037424743657
 30
0.0
 10
-42.66136974426172
 20
35.56203797947276
 30
0.0
 10
-42.64750403893924
 20
35.57178981451915
 30
0.0
 10
-42.63243789064865
 20
35.57950751514051
 30
0.0
 10
-42.61644121323047
 20
35.58501091136091
 30
0.0
 10
-42.60537602737497
 20
35.58719312756696
 30
0.0
 10
-42.59980204858902
 20
35.5879031535452
 30
0.0
 11
-42.70401226992738
 21
35.48369293221754
 31
0.0
 11
-42.70198773851547
 21
35.49523595891998
 31
0.0
 11
-42.69887364869254
 21
35.5065334620416
 31
0.0
 11
-42.69246868539091
 21
35.5222205048961
 31
0.0
 11
-42.68392959675725
 21
35.53685441011118
 31
0.0
 11
-42.67340007483136
 21
35.55010576920563
 31
0.0
 11
-42.66109936545166
 21
35.56173147133177
 31
0.0
 11
-42.64730161230381
 21
35.57145346626015
 31
0.0
 11
-42.63227504769974
 21
35.57914281097124
 31
0.0
 11
-42.61634078605005
 21
35.58464034091637
 31
0.0
 11
-42.59980204858902
 21
35.5879031535452
 31
0.0
  0
SPLINE
  5
9D
330
2
100
AcDbEntity
  8
GAIKEI
  6
Continuous
 62
     1
100
AcDbSpline
210
0.0
220
0.0
230
1.0
 70
     8
 71
     3
 72
    17
 73
    13
 74
    11
 42
0.0000000001
 43
0.0000000001
 44
0.000001
 12
0.9920513048680184
 22
0.1258340514712215
 32
0.0
 13
0.1263611953854212
 23
0.9919842984144292
 33
0.0
 40
0.0
 40
0.0
 40
0.0
 40
0.0
 40
0.0117187676020457
 40
0.0234376012402716
 40
0.0403817859152793
 40
0.05732480637181
 40
0.0742501708176611
 40
0.09117538942024
 40
0.1080541896930934
 40
0.1249338354398145
 40
0.1417897893327391
 40
0.1586468468347807
 40
0.1586468468347807
 40
0.1586468468347807
 40
0.1586468468347807
 10
8.811378252034046
 20
4.928302408145242
 30
0.0
 10
8.815253458264407
 20
4.928793948147102
 30
0.0
 10
8.822962108664569
 20
4.930147358396766
 30
0.0
 10
8.835958322016949
 20
4.933722384800176
 30
0.0
 10
8.850079490302562
 20
4.939492736166016
 30
0.0
 10
8.86476522410814
 20
4.94804420404256
 30
0.0
 10
8.878059567254268
 20
4.958621896585668
 30
0.0
 10
8.889723299293848
 20
4.970944933805242
 30
0.0
 10
8.899475134342594
 20
4.984810639130103
 30
0.0
 10
8.907192834966906
 20
4.999876787422863
 30
0.0
 10
8.912696231188618
 20
5.015873464843224
 30
0.0
 10
8.91487844739612
 20
5.026938650699776
 30
0.0
 10
8.915588473375009
 20
5.032512629486262
 30
0.0
 11
8.811378252034046
 21
4.928302408145242
 31
0.0
 11
8.822921278733815
 21
4.930326939555584
 31
0.0
 11
8.83421878185311
 21
4.933441029376126
 31
0.0
 11
8.849905824708969
 21
4.939845992676282
 31
0.0
 11
8.864539729925752
 21
4.948385081308487
 31
0.0
 11
8.877791089023389
 21
4.958914603234745
 31
0.0
 11
8.88941679115237
 21
4.971215312615129
 31
0.0
 11
8.899138786083767
 21
4.985013065765627
 31
0.0
 11
8.906828130797634
 21
5.000039630372413
 31
0.0
 11
8.912325660744215
 21
5.01597389202368
 31
0.0
 11
8.915588473375009
 21
5.032512629486262
 31
0.0
  0
SPLINE
  5
9E
330
2
100
AcDbEntity
  8
GAIKEI
  6
Continuous
 62
     1
100
AcDbSpline
210
0.0
220
0.0
230
1.0
 70
     8
 71
     3
 72
    17
 73
    13
 74
    11
 42
0.0000000001
 43
0.0000000001
 44
0.000001
 12
-0.9920513048680184
 22
0.1258340514712218
 32
0.0
 13
-0.1263611953854212
 23
0.9919842984144292
 33
0.0
 40
0.0
 40
0.0
 40
0.0
 40
0.0
 40
0.0117187676019357
 40
0.0234376012402447
 40
0.0403817859153576
 40
0.0573248063718392
 40
0.0742501708178238
 40
0.0911753894203246
 40
0.1080541896931781
 40
0.1249338354398991
 40
0.1417897893328052
 40
0.1586468468348358
 40
0.1586468468348358
 40
0.1586468468348358
 40
0.1586468468348358
 10
-42.59980204858817
 20
4.928302408145242
 30
0.0
 10
-42.60367725481848
 20
4.928793948147102
 30
0.0
 10
-42.61138590521881
 20
4.930147358396226
 30
0.0
 10
-42.62438211857096
 20
4.933722384800432
 30
0.0
 10
-42.63850328685665
 20
4.939492736165817
 30
0.0
 10
-42.65318902066232
 20
4.948044204042673
 30
0.0
 10
-42.66648336380851
 20
4.958621896585583
 30
0.0
 10
-42.67814709584809
 20
4.970944933805299
 30
0.0
 10
-42.68789893089675
 20
4.984810639130159
 30
0.0
 10
-42.69561663152117
 20
4.999876787422863
 30
0.0
 10
-42.70112002774275
 20
5.015873464843281
 30
0.0
 10
-42.70330224395019
 20
5.026938650699776
 30
0.0
 10
-42.70401226992908
 20
5.032512629486262
 30
0.0
 11
-42.59980204858817
 21
4.928302408145242
 31
0.0
 11
-42.61134507528788
 21
4.930326939555271
 31
0.0
 11
-42.62264257840718
 21
4.933441029376126
 31
0.0
 11
-42.63832962126315
 21
4.939845992676282
 31
0.0
 11
-42.65296352647988
 21
4.948385081308487
 31
0.0
 11
-42.66621488557769
 21
4.958914603234745
 31
0.0
 11
-42.67784058770655
 21
4.971215312615129
 31
0.0
 11
-42.68756258263795
 21
4.985013065765627
 31
0.0
 11
-42.69525192735182
 21
5.000039630372413
 31
0.0
 11
-42.70074945729834
 21
5.01597389202368
 31
0.0
 11
-42.70401226992908
 21
5.032512629486262
 31
0.0
  0
SPLINE
  5
9F
330
2
100
AcDbEntity
  8
GAIKEI
  6
Continuous
 62
     1
100
AcDbSpline
210
0.0
220
0.0
230
1.0
 70
     8
 71
     3
 72
    21
 73
    17
 74
    15
 42
0.0000000001
 43
0.0000000001
 44
0.000001
 12
0.0006952151951138
 22
0.9999997583378871
 32
0.0
 13
0.9999999848615342
 23
0.0001740026763733
 33
0.0
 40
0.0
 40
0.0
 40
0.0
 40
0.0
 40
0.0119981231002635
 40
0.0240318307126158
 40
0.0360276495881023
 40
0.048051189425177
 40
0.0601143592138293
 40
0.0721347564027639
 40
0.0837497018498989
 40
0.0954036594178867
 40
0.1070193568544365
 40
0.1183805918996695
 40
0.1297767624726701
 40
0.141140981819503
 40
0.1534426802479082
 40
0.1657445761675412
 40
0.1657445761675412
 40
0.1657445761675412
 40
0.1657445761675412
 10
-42.50172097438531
 20
35.2803852148208
 30
0.0
 10
-42.50171819395947
 20
35.28438458822106
 30
0.0
 10
-42.50128138973079
 20
35.29240168347835
 30
0.0
 10
-42.49933377501901
 20
35.30427443735579
 30
0.0
 10
-42.4961009542747
 20
35.31587589829817
 30
0.0
 10
-42.49154409998908
 20
35.32703582704821
 30
0.0
 10
-42.48574155679409
 20
35.33761004681045
 30
0.0
 10
-42.47883190804055
 20
35.34733326072873
 30
0.0
 10
-42.47089723339661
 20
35.35605334149233
 30
0.0
 10
-42.46212825932508
 20
35.36372720662371
 30
0.0
 10
-42.45261649784748
 20
35.37031358374532
 30
0.0
 10
-42.44248793391733
 20
35.37572042483382
 30
0.0
 10
-42.43191669631104
 20
35.37997473127564
 30
0.0
 10
-42.4206519384366
 20
35.38317148222814
 30
0.0
 10
-42.40880287931694
 20
35.3851544166883
 30
0.0
 10
-42.40059496311769
 20
35.38561114448061
 30
0.0
 10
-42.39649433120655
 20
35.38561185800154
 30
0.0
 11
-42.50172097438531
 21
35.2803852148208
 31
0.0
 11
-42.50106792330024
 21
35.29236606264925
 31
0.0
 11
-42.49911795563003
 21
35.30424074297537
 31
0.0
 11
-42.49588484975316
 21
35.31579268303875
 31
0.0
 11
-42.49134334208912
 21
35.32692556669051
 31
0.0
 11
-42.4855369420544
 21
35.33749943529981
 31
0.0
 11
-42.47856287474252
 21
35.34728990405461
 31
0.0
 11
-42.47075293042342
 21
35.3558871503273
 31
0.0
 11
-42.46198338539409
 21
35.36356248255874
 31
0.0
 11
-42.45242978842782
 21
35.37016960805861
 31
0.0
 11
-42.44241294988642
 21
35.3755307059659
 31
0.0
 11
-42.43184194781952
 21
35.37978832476103
 31
0.0
 11
-42.42090920493069
 21
35.38289013892092
 31
0.0
 11
-42.40877784984684
 21
35.38493031423249
 31
0.0
 11
-42.39649433120655
 21
35.38561185800154
 31
0.0
  0
SPLINE
  5
A0
330
2
100
AcDbEntity
  8
GAIKEI
  6
Continuous
 62
     1
100
AcDbSpline
210
0.0
220
0.0
230
1.0
 70
     8
 71
     3
 72
    21
 73
    17
 74
    15
 42
0.0000000001
 43
0.0000000001
 44
0.000001
 12
-0.0006952151951139
 22
0.9999997583378871
 32
0.0
 13
-0.9999999848615342
 23
0.0001740026763733
 33
0.0
 40
0.0
 40
0.0
 40
0.0
 40
0.0
 40
0.0119981231002635
 40
0.0240318307125974
 40
0.0360276495880992
 40
0.0480511894251524
 40
0.0601143592138047
 40
0.0721347564027723
 40
0.0837497018499073
 40
0.0954036594179379
 40
0.107019356854441
 40
0.118380591899674
 40
0.1297767624725164
 40
0.1411409818194586
 40
0.1534426802479759
 40
0.165744576167609
 40
0.165744576167609
 40
0.165744576167609
 40
0.165744576167609
 10
8.713297177831123
 20
35.2803852148208
 30
0.0
 10
8.713294397405292
 20
35.28438458822106
 30
0.0
 10
8.712857593176522
 20
35.29240168347838
 30
0.0
 10
8.710909978465025
 20
35.30427443735582
 30
0.0
 10
8.707677157720496
 20
35.31587589829826
 30
0.0
 10
8.703120303435014
 20
35.32703582704812
 30
0.0
 10
8.697317760240025
 20
35.33761004681051
 30
0.0
 10
8.690408111486476
 20
35.34733326072865
 30
0.0
 10
8.682473436842485
 20
35.35605334149238
 30
0.0
 10
8.673704462770899
 20
35.36372720662348
 30
0.0
 10
8.664192701293359
 20
35.37031358374543
 30
0.0
 10
8.654064137363207
 20
35.37572042483367
 30
0.0
 10
8.643492899757006
 20
35.37997473127575
 30
0.0
 10
8.632228141882507
 20
35.38317148222814
 30
0.0
 10
8.620379082762752
 20
35.38515441668832
 30
0.0
 10
8.612171166563513
 20
35.38561114448061
 30
0.0
 10
8.60807053465237
 20
35.38561185800154
 30
0.0
 11
8.713297177831123
 21
35.2803852148208
 31
0.0
 11
8.712644126746056
 21
35.29236606264925
 31
0.0
 11
8.710694159075956
 21
35.30424074297537
 31
0.0
 11
8.70746105319904
 21
35.31579268303875
 31
0.0
 11
8.702919545535053
 21
35.32692556669051
 31
0.0
 11
8.697113145500338
 21
35.33749943529981
 31
0.0
 11
8.690139078188394
 21
35.34728990405461
 31
0.0
 11
8.682329133869302
 21
35.3558871503273
 31
0.0
 11
8.673559588839907
 21
35.36356248255874
 31
0.0
 11
8.664005991873693
 21
35.37016960805861
 31
0.0
 11
8.653989153332304
 21
35.3755307059659
 31
0.0
 11
8.643418151265564
 21
35.37978832476103
 31
0.0
 11
8.632485408376624
 21
35.38289013892092
 31
0.0
 11
8.620354053292658
 21
35.38493031423249
 31
0.0
 11
8.60807053465237
 21
35.38561185800154
 31
0.0
  0
SPLINE
  5
A1
330
2
100
AcDbEntity
  8
GAIKEI
  6
Continuous
 62
     1
100
AcDbSpline
210
0.0
220
0.0
230
1.0
 70
     8
 71
     3
 72
    25
 73
    21
 74
    19
 42
0.0000000001
 43
0.0000000001
 44
0.000001
 12
0.9999999992068005
 22
-0.0000398296276659
 32
0.0
 13
-0.0000708084285262
 23
0.9999999974930833
 33
0.0
 40
0.0
 40
0.0
 40
0.0
 40
0.0
 40
0.0088583611599595
 40
0.0177742877641297
 40
0.0268731363766305
 40
0.036036932794363
 40
0.0448965507325076
 40
0.0538201110511362
 40
0.0629508382714138
 40
0.0721554350074922
 40
0.0807174245674498
 40
0.0893417292157439
 40
0.0981625087846068
 40
0.1070508037041871
 40
0.115441851222795
 40
0.1239740019471789
 40
0.1325064333824731
 40
0.1411812669712253
 40
0.1534064369119485
 40
0.1657850276805609
 40
0.1657850276805609
 40
0.1657850276805609
 40
0.1657850276805609
 10
8.608070534650664
 20
5.130593703689186
 30
0.0
 10
8.611023321701651
 20
5.130593586080777
 30
0.0
 10
8.616950745712443
 20
5.130830568593239
 30
0.0
 10
8.625853454187904
 20
5.131901716165572
 30
0.0
 10
8.634739443371273
 20
5.133720485862085
 30
0.0
 10
8.64342265543658
 20
5.136277242847427
 30
0.0
 10
8.651803204414591
 20
5.139538782931822
 30
0.0
 10
8.659867227025927
 20
5.143495302710363
 30
0.0
 10
8.667653792134387
 20
5.148201522187008
 30
0.0
 10
8.674889500649584
 20
5.153516902440031
 30
0.0
 10
8.68150293484598
 20
5.159333450989095
 30
0.0
 10
8.68750906401101
 20
5.165599400292677
 30
0.0
 10
8.69302072467164
 20
5.172445320966545
 30
0.0
 10
8.697871586841841
 20
5.179680912153116
 30
0.0
 10
8.70204872560771
 20
5.187213482322789
 30
0.0
 10
8.705547640523604
 20
5.194954094208299
 30
0.0
 10
8.708442056752886
 20
5.203040835862509
 30
0.0
 10
8.710995420936797
 20
5.212524108971422
 30
0.0
 10
8.712840137506219
 20
5.223485810213048
 30
0.0
 10
8.71329747000064
 20
5.231694149954705
 30
0.0
 10
8.713297177831123
 20
5.235820346867228
 30
0.0
 11
8.608070534650664
 21
5.130593703689186
 31
0.0
 11
8.61692240170521
 21
5.130946076462549
 31
0.0
 11
8.625774268759812
 21
5.132013001546283
 31
0.0
 11
8.634687966888634
 21
5.133839298162371
 31
0.0
 11
8.643478002868846
 21
5.136429828321467
 31
0.0
 11
8.651733707800701
 21
5.139644886819269
 31
0.0
 11
8.659744171639204
 21
5.143577173404224
 31
0.0
 11
8.667557686557302
 21
5.148301546112918
 31
0.0
 11
8.67497522388453
 21
5.153751803331687
 31
0.0
 11
8.681404189764521
 21
5.15940658499835
 31
0.0
 11
8.687372151624117
 21
5.165632543820493
 31
0.0
 11
8.692904317559964
 21
5.172502901186192
 31
0.0
 11
8.697854927888329
 21
5.179884889646189
 31
0.0
 11
8.701925229544031
 21
5.187222651641036
 31
0.0
 11
8.705441740874846
 21
5.1949964635034
 31
0.0
 11
8.708318126154608
 21
5.203029467546883
 31
0.0
 11
8.71057545875044
 21
5.211405473142519
 31
0.0
 11
8.712608645222019
 21
5.223460398896406
 31
0.0
 11
8.713297177831123
 21
5.235820346867228
 31
0.0
  0
SPLINE
  5
A2
330
2
100
AcDbEntity
  8
GAIKEI
  6
Continuous
 62
     1
100
AcDbSpline
210
0.0
220
0.0
230
1.0
 70
     8
 71
     3
 72
    25
 73
    21
 74
    19
 42
0.0000000001
 43
0.0000000001
 44
0.000001
 12
-0.999999999016644
 22
0.000044347631279
 32
0.0
 13
0.0000708084285261
 23
0.9999999974930833
 33
0.0
 40
0.0
 40
0.0
 40
0.0
 40
0.0
 40
0.0088869517839698
 40
0.0177742600795486
 40
0.0269057304473518
 40
0.0360368514758902
 40
0.044928570725866
 40
0.0538199683618308
 40
0.0629877062305945
 40
0.0721552067088282
 40
0.080748331103019
 40
0.0893414341048923
 40
0.0981958517295377
 40
0.1070504338469077
 40
0.1154692112084796
 40
0.1238882301926814
 40
0.1325343899647197
 40
0.1411808491471339
 40
0.1534060190746067
 40
0.1657846095541447
 40
0.1657846095541447
 40
0.1657846095541447
 40
0.1657846095541447
 10
-42.39649433120479
 20
5.130593703689186
 30
0.0
 10
-42.39945664846319
 20
5.130593835060949
 30
0.0
 10
-42.40538403524076
 20
5.130831995113538
 30
0.0
 10
-42.41429749189205
 20
5.131904467396964
 30
0.0
 10
-42.42317356907778
 20
5.133724334952944
 30
0.0
 10
-42.43186710102884
 20
5.136283583354781
 30
0.0
 10
-42.44023629191192
 20
5.139544447077526
 30
0.0
 10
-42.44831168617054
 20
5.143505563545545
 30
0.0
 10
-42.45608690038975
 20
5.148209998759767
 30
0.0
 10
-42.46333149058637
 20
5.153530549491762
 30
0.0
 10
-42.46993319759787
 20
5.159341835233419
 30
0.0
 10
-42.47594776051968
 20
5.165615062554138
 30
0.0
 10
-42.48144984791989
 20
5.172455448756181
 30
0.0
 10
-42.48630666419049
 20
5.179698004376973
 30
0.0
 10
-42.49046154313305
 20
5.187197589959623
 30
0.0
 10
-42.49396922050766
 20
5.194944250434105
 30
0.0
 10
-42.49686003397806
 20
5.20302284493519
 30
0.0
 10
-42.4994212815601
 20
5.21253327700262
 30
0.0
 10
-42.5012637717717
 20
5.22348586950622
 30
0.0
 10
-42.50172126655482
 20
5.231694150051055
 30
0.0
 10
-42.50172097438531
 20
5.235820346867228
 30
0.0
 11
-42.39649433120479
 21
5.130593703689186
 31
0.0
 11
-42.40537470382963
 21
5.130948731724146
 31
0.0
 11
-42.41419806531382
 21
5.132013001546283
 31
0.0
 11
-42.42314331962837
 21
5.133847810964255
 31
0.0
 11
-42.43190179942297
 21
5.136429828321467
 31
0.0
 11
-42.44018666021111
 21
5.139658480872867
 31
0.0
 11
-42.44816796819333
 21
5.143577173404224
 31
0.0
 11
-42.45601179847767
 21
5.148322938360536
 31
0.0
 11
-42.46339902043871
 21
5.153751803331687
 31
0.0
 11
-42.46984996825676
 21
5.159428735298888
 31
0.0
 11
-42.47579594817818
 21
5.165632543820493
 31
0.0
 11
-42.48134739714027
 21
5.172530561503947
 31
0.0
 11
-42.4862787244424
 21
5.179884889646189
 31
0.0
 11
-42.49036094635897
 21
5.187247749593893
 31
0.0
 11
-42.49383403712807
 21
5.194917033807087
 31
0.0
 11
-42.49674986669276
 21
5.203056713274804
 31
0.0
 11
-42.49899925530463
 21
5.211405473142519
 31
0.0
 11
-42.50103244177615
 21
5.223460398896406
 31
0.0
 11
-42.50172097438531
 21
5.235820346867228
 31
0.0
  0
ARC
  5
A3
330
2
100
AcDbEntity
  8
GAIKEI
  6
Continuous
100
AcDbCircle
 10
-42.66087856109163
 20
35.54476945929082
 30
0.0
 40
0.13333333332
100
AcDbArc
 50
90.0
 51
180.0
  0
ARC
  5
A4
330
2
100
AcDbEntity
  8
GAIKEI
  6
Continuous
100
AcDbCircle
 10
-42.66087856109163
 20
4.971436129014733
 30
0.0
 40
0.13333333332
100
AcDbArc
 50
180.0
 51
270.0
  0
ARC
  5
A5
330
2
100
AcDbEntity
  8
GAIKEI
  6
Continuous
100
AcDbCircle
 10
8.872454767088356
 20
4.971436129014733
 30
0.0
 40
0.13333333332
100
AcDbArc
 50
270.0
 51
0.0
  0
ARC
  5
A6
330
2
100
AcDbEntity
  8
GAIKEI
  6
Continuous
100
AcDbCircle
 10
8.872454767088356
 20
35.54476945929082
 30
0.0
 40
0.13333333332
100
AcDbArc
 50
0.0
 51
90.0
  0
ARC
  5
A7
330
2
100
AcDbEntity
  8
GAIKEI
  6
Continuous
 62
     1
100
AcDbCircle
 10
-40.63004522796137
 20
5.447269462300425
 30
0.0
 40
0.016666666665
100
AcDbArc
 50
90.0
 51
180.0
  0
ARC
  5
A8
330
2
100
AcDbEntity
  8
GAIKEI
  6
Continuous
 62
     1
100
AcDbCircle
 10
-40.43171189464788
 20
5.447269462300425
 30
0.0
 40
0.016666666665
100
AcDbArc
 50
0.0
 51
90.0
  0
ARC
  5
A9
330
2
100
AcDbEntity
  8
GAIKEI
  6
Continuous
 62
     1
100
AcDbCircle
 10
-40.43171189464788
 20
5.248936128986827
 30
0.0
 40
0.016666666665
100
AcDbArc
 50
270.0
 51
0.0
  0
ARC
  5
AA
330
2
100
AcDbEntity
  8
GAIKEI
  6
Continuous
 62
     1
100
AcDbCircle
 10
-40.63004522796137
 20
5.248936128986827
 30
0.0
 40
0.016666666665
100
AcDbArc
 50
180.0
 51
270.0
  0
ARC
  5
AB
330
2
100
AcDbEntity
  8
GAIKEI
  6
Continuous
 62
     1
100
AcDbCircle
 10
9.502333800358712
 20
35.55744442595591
 30
0.0
 40
0.5913622666075305
100
AcDbArc
 50
187.1642730000128
 51
188.7465089999662
  0
ARC
  5
AC
330
2
100
AcDbEntity
  8
GAIKEI
  6
Continuous
 62
     1
100
AcDbCircle
 10
8.884328333753842
 20
36.1689137925616
 30
0.0
 40
0.5855724332747761
100
AcDbArc
 50
261.2456680000033
 51
262.8435489999695
  0
ARC
  5
AD
330
2
100
AcDbEntity
  8
GAIKEI
  6
Continuous
 62
     1
100
AcDbCircle
 10
-42.67275212775712
 20
36.1689137925616
 30
0.0
 40
0.5855724332747761
100
AcDbArc
 50
277.1564510000305
 51
278.7543319999967
  0
ARC
  5
AE
330
2
100
AcDbEntity
  8
GAIKEI
  6
Continuous
 62
     1
100
AcDbCircle
 10
-43.29075759436199
 20
35.55744442595591
 30
0.0
 40
0.5913622666075305
100
AcDbArc
 50
351.2534910000338
 51
352.8357269999872
  0
ARC
  5
AF
330
2
100
AcDbEntity
  8
GAIKEI
  6
Continuous
 62
     1
100
AcDbCircle
 10
8.885129733753728
 20
4.341557095744377
 30
0.0
 40
0.5913622666075305
100
AcDbArc
 50
97.16427300001766
 51
98.74650900001711
  0
ARC
  5
B0
330
2
100
AcDbEntity
  8
GAIKEI
  6
Continuous
 62
     1
100
AcDbCircle
 10
9.496599100359276
 20
4.95956252901584
 30
0.0
 40
0.5855724332747761
100
AcDbArc
 50
171.2456679999968
 51
172.8435489999776
  0
ARC
  5
B1
330
2
100
AcDbEntity
  8
GAIKEI
  6
Continuous
 62
     1
100
AcDbCircle
 10
-43.28502289436255
 20
4.95956252901584
 30
0.0
 40
0.5855724332747761
100
AcDbArc
 50
7.156451000022399
 51
8.754332000003113
  0
ARC
  5
B2
330
2
100
AcDbEntity
  8
GAIKEI
  6
Continuous
 62
     1
100
AcDbCircle
 10
-42.67355356109038
 20
4.341557095744377
 30
0.0
 40
0.5913622666075305
100
AcDbArc
 50
81.2534909999829
 51
82.83572699998233
  0
LINE
  5
B3
330
2
100
AcDbEntity
  8
GAIKEI
  6
Continuous
100
AcDbLine
 10
8.872454767088356
 20
4.838102795694879
 30
0.0
 11
-42.66087856109163
 21
4.838102795694879
 31
0.0
  0
LINE
  5
B4
330
2
100
AcDbEntity
  8
GAIKEI
  6
Continuous
100
AcDbLine
 10
8.872454767088356
 20
35.6781027926107
 30
0.0
 11
-42.66087856109163
 21
35.6781027926107
 31
0.0
  0
LINE
  5
B5
330
2
100
AcDbEntity
  8
GAIKEI
  6
Continuous
100
AcDbLine
 10
9.005788100408267
 20
35.54476945929082
 30
0.0
 11
9.005788100408267
 21
4.971436129014733
 31
0.0
  0
LINE
  5
B6
330
2
100
AcDbEntity
  8
GAIKEI
  6
Continuous
100
AcDbLine
 10
-42.79421189441166
 20
35.54476945929082
 30
0.0
 11
-42.79421189441166
 21
4.971436129014733
 31
0.0
  0
LINE
  5
B7
330
2
100
AcDbEntity
  8
GAIKEI
  6
Continuous
 62
     1
100
AcDbLine
 10
7.622454767213355
 20
34.17476945942764
 30
0.0
 11
7.622454767213355
 21
6.341436128877631
 31
0.0
  0
LINE
  5
B8
330
2
100
AcDbEntity
  8
GAIKEI
  6
Continuous
 62
     1
100
AcDbLine
 10
-41.31087856122661
 20
34.27476945941771
 30
0.0
 11
7.52245476722328
 21
34.27476945941771
 31
0.0
  0
LINE
  5
B9
330
2
100
AcDbEntity
  8
GAIKEI
  6
Continuous
 62
     1
100
AcDbLine
 10
7.52245476722328
 20
6.241436128887869
 30
0.0
 11
-41.31087856122661
 21
6.241436128887869
 31
0.0
  0
LINE
  5
BA
330
2
100
AcDbEntity
  8
GAIKEI
  6
Continuous
 62
     1
100
AcDbLine
 10
-41.41087856121663
 20
34.17476945942764
 30
0.0
 11
-41.41087856121663
 21
6.341436128877631
 31
0.0
  0
LINE
  5
BB
330
2
100
AcDbEntity
  8
GAIKEI
  6
Continuous
 62
     1
100
AcDbLine
 10
-42.58362912776601
 20
4.926042295685931
 30
0.0
 11
8.79520533376268
 21
4.926042295685931
 31
0.0
  0
LINE
  5
BC
330
2
100
AcDbEntity
  8
GAIKEI
  6
Continuous
 62
     1
100
AcDbLine
 10
8.91784860041713
 20
5.048685562340267
 30
0.0
 11
8.91784860041713
 21
35.46751999263174
 31
0.0
  0
LINE
  5
BD
330
2
100
AcDbEntity
  8
GAIKEI
  6
Continuous
 62
     1
100
AcDbLine
 10
-42.70627239442041
 20
5.048685562340267
 30
0.0
 11
-42.70627239442041
 21
35.46751999263174
 31
0.0
  0
LINE
  5
BE
330
2
100
AcDbEntity
  8
GAIKEI
  6
Continuous
 62
     1
100
AcDbLine
 10
8.79520533376268
 20
35.59016325928605
 30
0.0
 11
-42.58362912776601
 21
35.59016325928605
 31
0.0
  0
LINE
  5
BF
330
2
100
AcDbEntity
  8
GAIKEI
  6
Continuous
 62
     1
100
AcDbLine
 10
7.596948667215883
 20
6.17096232889483
 30
0.0
 11
-41.38537246121922
 21
6.17096232889483
 31
0.0
  0
LINE
  5
C0
330
2
100
AcDbEntity
  8
GAIKEI
  6
Continuous
 62
     1
100
AcDbLine
 10
-41.48135236120959
 20
6.266942228885142
 30
0.0
 11
-41.48135236120959
 21
34.24926332608686
 31
0.0
  0
LINE
  5
C1
330
2
100
AcDbEntity
  8
GAIKEI
  6
Continuous
 62
     1
100
AcDbLine
 10
-41.38537246121922
 20
34.34524322607746
 30
0.0
 11
7.596948667215883
 21
34.34524322607746
 31
0.0
  0
LINE
  5
C2
330
2
100
AcDbEntity
  8
GAIKEI
  6
Continuous
 62
     1
100
AcDbLine
 10
7.692928567206251
 20
34.24926332608686
 30
0.0
 11
7.692928567206251
 21
6.266942228885142
 31
0.0
  0
LINE
  5
C3
330
2
100
AcDbEntity
  8
GAIKEI
  6
Continuous
 62
     1
100
AcDbLine
 10
8.608070533781415
 20
35.38561185930666
 30
0.0
 11
-42.3964943277848
 21
35.38561185930666
 31
0.0
  0
LINE
  5
C4
330
2
100
AcDbEntity
  8
GAIKEI
  6
Continuous
 62
     1
100
AcDbLine
 10
-42.3964943277848
 20
5.130593695665311
 30
0.0
 11
8.608070533781415
 21
5.130593695665311
 31
0.0
  0
LINE
  5
C5
330
2
100
AcDbEntity
  8
GAIKEI
  6
Continuous
 62
     1
100
AcDbLine
 10
-40.43171189464788
 20
5.463936128965485
 30
0.0
 11
-40.63004522796137
 21
5.463936128965485
 31
0.0
  0
LINE
  5
C6
330
2
100
AcDbEntity
  8
GAIKEI
  6
Continuous
 62
     1
100
AcDbLine
 10
-40.41504522798288
 20
5.248936128986827
 30
0.0
 11
-40.41504522798288
 21
5.447269462300425
 31
0.0
  0
LINE
  5
C7
330
2
100
AcDbEntity
  8
GAIKEI
  6
Continuous
 62
     1
100
AcDbLine
 10
-40.63004522796137
 20
5.232269462322079
 30
0.0
 11
-40.43171189464788
 21
5.232269462322079
 31
0.0
  0
LINE
  5
C8
330
2
100
AcDbEntity
  8
GAIKEI
  6
Continuous
 62
     1
100
AcDbLine
 10
-40.64671189462638
 20
5.447269462300425
 30
0.0
 11
-40.64671189462638
 21
5.248936128986827
 31
0.0
  0
LINE
  5
C9
330
2
100
AcDbEntity
  8
GAIKEI
  6
Continuous
 62
     1
100
AcDbLine
 10
-41.63671189452736
 20
5.385602795640096
 30
0.0
 11
-41.63671189452736
 21
5.310602795647469
 31
0.0
  0
LINE
  5
CA
330
2
100
AcDbEntity
  8
GAIKEI
  6
Continuous
 62
     1
100
AcDbLine
 10
-41.63671189452736
 20
5.310602795647469
 30
0.0
 11
-41.71171189451991
 21
5.310602795647469
 31
0.0
  0
LINE
  5
CB
330
2
100
AcDbEntity
  8
GAIKEI
  6
Continuous
 62
     1
100
AcDbLine
 10
-41.71171189451991
 20
5.310602795647469
 30
0.0
 11
-41.71171189451991
 21
5.385602795640096
 31
0.0
  0
LINE
  5
CC
330
2
100
AcDbEntity
  8
GAIKEI
  6
Continuous
 62
     1
100
AcDbLine
 10
-41.71171189451991
 20
5.385602795640096
 30
0.0
 11
-41.63671189452736
 21
5.385602795640096
 31
0.0
  0
LINE
  5
CD
330
2
100
AcDbEntity
  8
GAIKEI
  6
Continuous
 62
     1
100
AcDbLine
 10
8.713297167104201
 20
5.235820362321675
 30
0.0
 11
8.713297167104201
 21
35.28038522598391
 31
0.0
  0
LINE
  5
CE
330
2
100
AcDbEntity
  8
GAIKEI
  6
Continuous
 62
     1
100
AcDbLine
 10
-42.50172096110754
 20
5.235820362321675
 30
0.0
 11
-42.50172096110754
 21
35.28038522598391
 31
0.0
  0
LINE
  5
CF
330
2
100
AcDbEntity
  8
GAIKEI
  6
Continuous
 62
     1
100
AcDbLine
 10
8.590653897347522
 20
35.38561185930672
 30
0.0
 11
8.79520533376268
 21
35.59016325928605
 31
0.0
  0
LINE
  5
D0
330
2
100
AcDbEntity
  8
GAIKEI
  6
Continuous
 62
     1
100
AcDbLine
 10
8.91784860041713
 20
35.46751999263174
 30
0.0
 11
8.713297167104201
 21
35.26296859575453
 31
0.0
  0
LINE
  5
D1
330
2
100
AcDbEntity
  8
GAIKEI
  6
Continuous
 62
     1
100
AcDbLine
 10
8.713297167104201
 20
5.253236995653367
 30
0.0
 11
8.91784860041713
 21
5.048685562340267
 31
0.0
  0
LINE
  5
D2
330
2
100
AcDbEntity
  8
GAIKEI
  6
Continuous
 62
     1
100
AcDbLine
 10
8.79520533376268
 20
4.926042295685931
 30
0.0
 11
8.590653933783471
 21
5.130593695665311
 31
0.0
  0
LINE
  5
D3
330
2
100
AcDbEntity
  8
GAIKEI
  6
Continuous
 62
     1
100
AcDbLine
 10
-42.50172096110754
 20
5.253236995653338
 30
0.0
 11
-42.70627239442041
 21
5.048685562340267
 31
0.0
  0
LINE
  5
D4
330
2
100
AcDbEntity
  8
GAIKEI
  6
Continuous
 62
     1
100
AcDbLine
 10
-42.58362912776601
 20
4.926042295685931
 30
0.0
 11
-42.3790777277868
 21
5.130593695665311
 31
0.0
  0
DIMENSION
  5
D5
330
2
100
AcDbEntity
  8
SUNPO
100
AcDbDimension
  2
*D8
 10
9.005788100408381
 20
43.67143565927827
 30
0.0
 11
-16.89421189700164
 21
45.42143565927827
 31
0.0
 70
    33
  1
1554
 71
     5
 42
51.79999999482004
  3
STANDARD
100
AcDbAlignedDimension
 13
-42.79421189441166
 23
35.67143565927825
 33
0.0
 14
9.005788100408381
 24
35.67143565927825
 34
0.0
1001
ACAD
1000
DSTYLE
1002
{
1070
   287
1070
     3
1070
   287
1070
     3
1070
   287
1070
     3
1070
   287
1070
     3
1070
    40
1040
1.0
1070
   140
1040
2.5
1070
   147
1040
0.5
1070
   172
1070
     1
1070
   279
1070
     0
1070
   288
1070
     0
1002
}
  0
DIMENSION
  5
E2
330
2
100
AcDbEntity
  8
SUNPO
100
AcDbDimension
  2
*D7
 10
39.97161447038229
 20
43.67143565927827
 30
0.0
 11
46.55494780371562
 21
45.42143565927827
 31
0.0
 70
    33
  1
99
 71
     5
 42
3.299999999670035
  3
STANDARD
100
AcDbAlignedDimension
 13
36.67161447071226
 23
35.67143565927825
 33
0.0
 14
39.97161447038229
 24
35.67143565927825
 34
0.0
1001
ACAD
1000
DSTYLE
1002
{
1070
   287
1070
     3
1070
   287
1070
     3
1070
   287
1070
     3
1070
   287
1070
     3
1070
    40
1040
1.0
1070
   140
1040
2.5
1070
   147
1040
0.5
1070
   172
1070
     1
1070
   279
1070
     0
1070
   288
1070
     0
1002
}
  0
LINE
  5
F1
330
2
100
AcDbEntity
  8
GAIKEI
  6
Continuous
 62
     1
100
AcDbLine
 10
41.46494780356619
 20
10.40810279513789
 30
0.0
 11
41.13161447026619
 21
10.40810279513789
 31
0.0
  0
LINE
  5
F2
330
2
100
AcDbEntity
  8
GAIKEI
  6
Continuous
 62
     1
100
AcDbLine
 10
41.13161447026619
 20
10.34143612847762
 30
0.0
 11
41.46494780356619
 21
10.34143612847762
 31
0.0
  0
LINE
  5
F3
330
2
100
AcDbEntity
  8
GAIKEI
  6
Continuous
 62
     1
100
AcDbLine
 10
41.46494780356619
 20
9.508102795227642
 30
0.0
 11
41.13161447026619
 21
9.508102795227642
 31
0.0
  0
LINE
  5
F4
330
2
100
AcDbEntity
  8
GAIKEI
  6
Continuous
 62
     1
100
AcDbLine
 10
41.13161447026619
 20
9.441436128567687
 30
0.0
 11
41.46494780356619
 21
9.441436128567687
 31
0.0
  0
LINE
  5
F5
330
2
100
AcDbEntity
  8
GAIKEI
  6
Continuous
 62
     1
100
AcDbLine
 10
38.08828113723723
 20
35.54651638549561
 30
0.0
 11
36.83171417069627
 21
35.48066249263036
 31
0.0
  0
LINE
  5
F6
330
2
100
AcDbEntity
  8
GAIKEI
  6
Continuous
100
AcDbLine
 10
36.83171417069627
 20
35.61399582595055
 30
0.0
 11
38.05494780390717
 21
35.6781027926107
 31
0.0
  0
LINE
  5
F7
330
2
100
AcDbEntity
  8
GAIKEI
  6
Continuous
100
AcDbLine
 10
38.05494780390717
 20
4.838102795694879
 30
0.0
 11
36.83171417069627
 21
4.902209729021734
 31
0.0
  0
LINE
  5
F8
330
2
100
AcDbEntity
  8
GAIKEI
  6
Continuous
 62
     1
100
AcDbLine
 10
36.83171417069627
 20
5.035543062341616
 30
0.0
 11
38.08828113723723
 21
4.969689203718246
 31
0.0
  0
LINE
  5
F9
330
2
100
AcDbEntity
  8
GAIKEI
  6
Continuous
100
AcDbLine
 10
38.08828113723723
 20
35.64476945928058
 30
0.0
 11
38.08828113723723
 21
4.871436129024687
 31
0.0
  0
LINE
  5
FA
330
2
100
AcDbEntity
  8
GAIKEI
  6
Continuous
 62
     1
100
AcDbLine
 10
38.05494780390717
 20
35.6781027926107
 30
0.0
 11
38.05494780390717
 21
4.838102795694879
 31
0.0
  0
LINE
  5
FB
330
2
100
AcDbEntity
  8
GAIKEI
  6
Continuous
 62
     1
100
AcDbLine
 10
36.83121803736299
 20
35.46751999263174
 30
0.0
 11
36.83121803736299
 21
5.048685562340267
 31
0.0
  0
LINE
  5
FC
330
2
100
AcDbEntity
  8
GAIKEI
  6
Continuous
 62
     1
100
AcDbLine
 10
36.83121803736299
 20
35.46751999263174
 30
0.0
 11
36.79120280403356
 21
35.46751999263174
 31
0.0
  0
LINE
  5
FD
330
2
100
AcDbEntity
  8
GAIKEI
  6
Continuous
 62
     1
100
AcDbLine
 10
36.79120280403356
 20
5.048685562340267
 30
0.0
 11
36.83121803736299
 21
5.048685562340267
 31
0.0
  0
LINE
  5
FE
330
2
100
AcDbEntity
  8
GAIKEI
  6
Continuous
 62
     1
100
AcDbLine
 10
36.79120280403356
 20
5.048685562340267
 30
0.0
 11
36.79120280403356
 21
35.46751999263174
 31
0.0
  0
LINE
  5
FF
330
2
100
AcDbEntity
  8
GAIKEI
  6
Continuous
 62
     1
100
AcDbLine
 10
36.79120280403356
 20
35.46751999263174
 30
0.0
 11
36.67161447071226
 21
35.27236957055567
 31
0.0
  0
LINE
  5
100
330
2
100
AcDbEntity
  8
GAIKEI
  6
Continuous
100
AcDbLine
 10
36.67652647071179
 20
35.40302849263821
 30
0.0
 11
36.79120280403356
 21
35.59016325928605
 31
0.0
  0
LINE
  5
101
330
2
100
AcDbEntity
  8
GAIKEI
  6
Continuous
100
AcDbLine
 10
36.79120280403356
 20
4.926042295685931
 30
0.0
 11
36.67652647071179
 21
5.113177095667339
 31
0.0
  0
LINE
  5
102
330
2
100
AcDbEntity
  8
GAIKEI
  6
Continuous
 62
     1
100
AcDbLine
 10
36.67161447071226
 20
5.243836019177706
 30
0.0
 11
36.79120280403356
 21
5.048685562340267
 31
0.0
  0
LINE
  5
103
330
2
100
AcDbEntity
  8
GAIKEI
  6
Continuous
100
AcDbLine
 10
36.83121803736299
 20
35.61396982595056
 30
0.0
 11
36.83171417069627
 21
35.61399582595055
 31
0.0
  0
LINE
  5
104
330
2
100
AcDbEntity
  8
GAIKEI
  6
Continuous
 62
     1
100
AcDbLine
 10
36.83171417069627
 20
4.902209729021734
 30
0.0
 11
36.83121803736299
 21
4.902235729021754
 31
0.0
  0
LINE
  5
105
330
2
100
AcDbEntity
  8
GAIKEI
  6
Continuous
100
AcDbLine
 10
36.67161447071226
 20
35.38561185930666
 30
0.0
 11
36.67161447071226
 21
5.130593695665311
 31
0.0
  0
LINE
  5
106
330
2
100
AcDbEntity
  8
GAIKEI
  6
Continuous
 62
     1
100
AcDbLine
 10
36.92328113735368
 20
4.880769462357164
 30
0.0
 11
36.92194780402053
 21
4.880769462357164
 31
0.0
  0
LINE
  5
107
330
2
100
AcDbEntity
  8
GAIKEI
  6
Continuous
 62
     1
100
AcDbLine
 10
37.02904407067649
 20
4.891868129022583
 30
0.0
 11
36.99446047068
 21
4.892471762355938
 31
0.0
  0
LINE
  5
108
330
2
100
AcDbEntity
  8
GAIKEI
  6
Continuous
 62
     1
100
AcDbLine
 10
36.99446047068
 20
4.892471762355938
 30
0.0
 11
36.99424533734663
 21
4.893691829022486
 31
0.0
  0
LINE
  5
109
330
2
100
AcDbEntity
  8
GAIKEI
  6
Continuous
 62
     1
100
AcDbLine
 10
36.99622943734647
 20
4.882439362357104
 30
0.0
 11
37.07368427067206
 21
4.881087395690286
 31
0.0
  0
LINE
  5
10A
330
2
100
AcDbEntity
  8
GAIKEI
  6
Continuous
 62
     1
100
AcDbLine
 10
36.99446047068
 20
4.892471762355938
 30
0.0
 11
36.99622943734647
 21
4.882439362357104
 31
0.0
  0
LINE
  5
10B
330
2
100
AcDbEntity
  8
GAIKEI
  6
Continuous
 62
     1
100
AcDbLine
 10
37.07368427067206
 20
4.881087395690286
 30
0.0
 11
37.07515903733855
 21
4.889451329022847
 31
0.0
  0
ARC
  5
10C
330
2
100
AcDbEntity
  8
GAIKEI
  6
Continuous
 62
     1
100
AcDbCircle
 10
37.01739103734428
 20
5.049133229006855
 30
0.0
 40
0.1861735333147159
100
AcDbArc
 50
180.1377730000329
 51
184.1861559999896
  0
ARC
  5
10D
330
2
100
AcDbEntity
  8
GAIKEI
  6
Continuous
 62
     1
100
AcDbCircle
 10
37.01739700401095
 20
35.46707212596513
 30
0.0
 40
0.1861795333147154
100
AcDbArc
 50
175.8139089999726
 51
179.862162000007
  0
ARC
  5
10E
330
2
100
AcDbEntity
  8
GAIKEI
  6
Continuous
100
AcDbCircle
 10
38.05494780390717
 20
35.64476945928058
 30
0.0
 40
0.03333333333
100
AcDbArc
 50
0.0
 51
90.0
  0
ARC
  5
10F
330
2
100
AcDbEntity
  8
GAIKEI
  6
Continuous
100
AcDbCircle
 10
38.05494780390717
 20
4.871436129024687
 30
0.0
 40
0.03333333333
100
AcDbArc
 50
270.0
 51
0.0
  0
ARC
  5
110
330
2
100
AcDbEntity
  8
GAIKEI
  6
Continuous
100
AcDbCircle
 10
36.70494780404221
 20
5.130593695665311
 30
0.0
 40
0.03333333333
100
AcDbArc
 50
180.0
 51
211.5000000000292
  0
ARC
  5
111
330
2
100
AcDbEntity
  8
GAIKEI
  6
Continuous
100
AcDbCircle
 10
36.70494780404221
 20
35.38561185930666
 30
0.0
 40
0.03333333333
100
AcDbArc
 50
148.4999999999707
 51
180.0
  0
ARC
  5
112
330
2
100
AcDbEntity
  8
GAIKEI
  6
Continuous
 62
     1
100
AcDbCircle
 10
36.92194780402053
 20
4.900102795688553
 30
0.0
 40
0.0193333333314
100
AcDbArc
 50
184.9000579999871
 51
270.0
  0
ARC
  5
113
330
2
100
AcDbEntity
  8
GAIKEI
  6
Continuous
 62
     1
100
AcDbCircle
 10
36.92328113735368
 20
4.900102795688553
 30
0.0
 40
0.0193333333314
100
AcDbArc
 50
270.0
 51
349.0074989999724
  0
ELLIPSE
  5
114
330
2
100
AcDbEntity
  8
GAIKEI
  6
Continuous
 62
     1
100
AcDbEllipse
 10
36.83433097069605
 20
5.035543062341929
 30
0.0
 11
0.0498739497004299
 21
0.003548117920671
 31
0.0
210
0.0
220
0.0
230
1.0
 40
0.003719
 41
1.623024084494225
 42
2.644605344464516
  0
ELLIPSE
  5
115
330
2
100
AcDbEntity
  8
GAIKEI
  6
Continuous
100
AcDbEllipse
 10
36.83433097069605
 20
4.952141229017087
 30
0.0
 11
-0.0026167978117074
 21
-0.0499314767327449
 31
0.0
210
0.0
220
0.0
230
1.0
 40
0.9974719999999997
 41
5.261604047211288
 42
6.283185307179586
  0
ELLIPSE
  5
116
330
2
100
AcDbEntity
  8
GAIKEI
  6
Continuous
100
AcDbEllipse
 10
36.83433097069605
 20
35.56406435928909
 30
0.0
 11
0.0026167977952214
 21
-0.0499314767336089
 31
0.0
210
0.0
220
0.0
230
1.0
 40
0.9974719999999997
 41
3.141592653589792
 42
4.163173913903976
  0
SPLINE
  5
117
330
2
100
AcDbEntity
  8
GAIKEI
  6
Continuous
 62
     1
100
AcDbSpline
210
0.0
220
0.0
230
1.0
 70
     8
 71
     3
 72
    26
 73
    22
 74
    20
 42
0.0000000001
 43
0.0000000001
 44
0.000001
 12
0.5564616378802587
 22
-0.8308733029575689
 32
0.0
 13
-0.0249804909418007
 23
-0.9996879388450711
 33
0.0
 40
0.0
 40
0.0
 40
0.0
 40
0.0
 40
0.0004946607508433
 40
0.0018490950687389
 40
0.0041529416157108
 40
0.0074029079154917
 40
0.0114074401038648
 40
0.0162705998041854
 40
0.0220641894707519
 40
0.0287019885467391
 40
0.0358493219026247
 40
0.0437134128813594
 40
0.052382169667475
 40
0.0617008157768853
 40
0.0712005113192257
 40
0.081192203856702
 40
0.0917701677745862
 40
0.1027275078557261
 40
0.1178616527945205
 40
0.133412117307798
 40
0.1334141173117047
 40
0.1334141173117047
 40
0.1334141173117047
 40
0.1334141173117047
 10
36.83171416934533
 20
35.61399582103869
 30
0.0
 10
36.83180592258921
 20
35.61385882090139
 30
0.0
 10
36.83211860174666
 20
35.61331514559299
 30
0.0
 10
36.8321019883858
 20
35.61188147312936
 30
0.0
 10
36.83229360309997
 20
35.60961218972213
 30
0.0
 10
36.8323278274975
 20
35.6064129071656
 30
0.0
 10
36.83239028880459
 20
35.60237915192545
 30
0.0
 10
36.83241530807646
 20
35.59749027918704
 30
0.0
 10
36.83243479551064
 20
35.59172609472609
 30
0.0
 10
36.8324433838464
 20
35.58519964924483
 30
0.0
 10
36.83244723286023
 20
35.5779833061113
 30
0.0
 10
36.83244669992041
 20
35.57008989235436
 30
0.0
 10
36.83244178271946
 20
35.56147273478305
 30
0.0
 10
36.83243057113532
 20
35.55231037277878
 30
0.0
 10
36.83240986804634
 20
35.54270704894111
 30
0.0
 10
36.83237484370938
 20
35.53268398862849
 30
0.0
 10
36.83231794972778
 20
35.52217513439257
 30
0.0
 10
36.83221861984424
 20
35.50995237001706
 30
0.0
 10
36.8320465058834
 20
35.49607271732049
 30
0.0
 10
36.83184374905193
 20
35.48584568978672
 30
0.0
 10
36.83171418600688
 20
35.48066315417901
 30
0.0
 10
36.83171416935318
 20
35.48066248771909
 30
0.0
 11
36.83171416934533
 21
35.61399582103869
 31
0.0
 11
36.83194945893979
 21
35.61356063732572
 31
0.0
 11
36.83212077089138
 21
35.6122172512315
 31
0.0
 11
36.83224333247449
 21
35.60991669768407
 31
0.0
 11
36.83232647044679
 21
35.60666780947156
 31
0.0
 11
36.83237867782037
 21
35.60266362570215
 31
0.0
 11
36.83241148247271
 21
35.59780058187639
 31
0.0
 11
36.83243103371188
 21
35.59200702885147
 31
0.0
 11
36.83244137318917
 21
35.58536924047141
 31
0.0
 11
36.83244546984639
 21
35.57822191022524
 31
0.0
 11
36.83244513625164
 21
35.57035782080041
 31
0.0
 11
36.83244004207273
 21
35.56168906681734
 31
0.0
 11
36.83242825594561
 21
35.55237042929639
 31
0.0
 11
36.83240720029369
 21
35.54287075807926
 31
0.0
 11
36.83237146541023
 21
35.53287913038563
 31
0.0
 11
36.83231298030842
 21
35.52230132909395
 31
0.0
 11
36.83222242299974
 21
35.51134436419659
 31
0.0
 11
36.83202880170768
 21
35.49621145928256
 31
0.0
 11
36.83171421931297
 21
35.48066448709346
 31
0.0
 11
36.83171416935318
 21
35.48066248771909
 31
0.0
  0
SPLINE
  5
118
330
2
100
AcDbEntity
  8
GAIKEI
  6
Continuous
 62
     1
100
AcDbSpline
210
0.0
220
0.0
230
1.0
 70
     8
 71
     3
 72
    26
 73
    22
 74
    20
 42
0.0000000001
 43
0.0000000001
 44
0.000001
 12
0.0249803369490197
 22
-0.9996879426930755
 32
0.0
 13
-0.3963799776558251
 23
-0.9180865500123436
 33
0.0
 40
0.0
 40
0.0
 40
0.0
 40
0.0
 40
0.0000020000001982
 40
0.010930074845515
 40
0.0219376313263828
 40
0.0328699199578396
 40
0.0437238301341515
 40
0.0539102419573682
 40
0.0637992265496757
 40
0.0734495280575145
 40
0.0826403625005042
 40
0.0909689652541547
 40
0.0987320078719421
 40
0.1059614237671689
 40
0.1124754753118256
 40
0.1179926531181617
 40
0.1227379592723676
 40
0.1267125091649946
 40
0.1297953969473377
 40
0.1324565091089968
 40
0.1334016678455571
 40
0.1334016678455571
 40
0.1334016678455571
 40
0.1334016678455571
 10
36.83171416935261
 20
5.035543073983149
 30
0.0
 10
36.83171418600617
 20
5.035542407524445
 30
0.0
 10
36.83180522766188
 20
5.031900186978248
 30
0.0
 10
36.83196199029087
 20
5.024589258750751
 30
0.0
 10
36.83213054797846
 20
5.01363453663572
 30
0.0
 10
36.8322503146334
 20
5.002703913593251
 30
0.0
 10
36.83233042733343
 20
4.992046662223543
 30
0.0
 10
36.83238223709321
 20
4.981737016305515
 30
0.0
 10
36.83241432461682
 20
4.971828498770832
 30
0.0
 10
36.83243316086822
 20
4.962251807979072
 30
0.0
 10
36.83244300355472
 20
4.953195235471355
 30
0.0
 10
36.83244710456719
 20
4.944767734664651
 30
0.0
 10
36.83244683737766
 20
4.936994074412638
 30
0.0
 10
36.83244275214892
 20
4.929825148155003
 30
0.0
 10
36.83243100451597
 20
4.923405225588595
 30
0.0
 10
36.8324152348859
 20
4.917812225053523
 30
0.0
 10
36.83237145240065
 20
4.913069155705954
 30
0.0
 10
36.83235050249249
 20
4.909128092564998
 30
0.0
 10
36.83218143084798
 20
4.905908743204435
 30
0.0
 10
36.83226435719155
 20
4.9036351362098
 30
0.0
 10
36.83183909997871
 20
4.902498983889699
 30
0.0
 10
36.8317142193124
 20
4.902209738048469
 30
0.0
 11
36.83171416935261
 21
5.035543073983149
 31
0.0
 11
36.83171421931195
 21
5.03554107460971
 31
0.0
 11
36.83194945893905
 21
5.02461575380758
 31
0.0
 11
36.83212180192186
 21
5.013609547732926
 31
0.0
 11
36.83224333247347
 21
5.00267793568156
 31
0.0
 11
36.83232647044571
 21
4.991824344921496
 31
0.0
 11
36.83237867781924
 21
4.981638067831198
 31
0.0
 11
36.83241148247163
 21
4.971749138612466
 31
0.0
 11
36.83243103371075
 21
4.962098857944312
 31
0.0
 11
36.83244137318804
 21
4.95290803046538
 31
0.0
 11
36.83244546984525
 21
4.944579430000317
 31
0.0
 11
36.8324451362505
 21
4.93681638894327
 31
0.0
 11
36.83244004207177
 21
4.929586976850885
 31
0.0
 11
36.83242825594471
 21
4.923072938664574
 31
0.0
 11
36.83240720029289
 21
4.91755580467543
 31
0.0
 11
36.83237146540944
 21
4.91281063848163
 31
0.0
 11
36.83231298030779
 21
4.908836527800275
 31
0.0
 11
36.83222242299905
 21
4.905754987036715
 31
0.0
 11
36.83202880170706
 21
4.903101059434078
 31
0.0
 11
36.8317142193124
 21
4.902209738048469
 31
0.0
  0
SPLINE
  5
119
330
2
100
AcDbEntity
  8
GAIKEI
  6
Continuous
 62
     1
100
AcDbSpline
210
0.0
220
0.0
230
1.0
 70
     8
 71
     3
 72
    17
 73
    13
 74
    11
 42
0.0000000001
 43
0.0000000001
 44
0.000001
 12
-0.0058163483431975
 22
0.999983084902915
 32
0.0
 13
0.0006302425989739
 23
0.9999998013971136
 33
0.0
 40
0.0
 40
0.0
 40
0.0
 40
0.0
 40
0.0020245928353676
 40
0.0051389529987921
 40
0.0115443120693761
 40
0.0200836155045359
 40
0.030613177551732
 40
0.0429138874984018
 40
0.0567117098561922
 40
0.0717384232838778
 40
0.0876728376065553
 40
0.104211599885081
 40
0.104211599885081
 40
0.104211599885081
 40
0.104211599885081
 10
36.79048433012474
 20
4.928302408145242
 30
0.0
 10
36.79048040487902
 20
4.928977261008299
 30
0.0
 10
36.79046949295886
 20
4.930690223525061
 30
0.0
 10
36.79040973037377
 20
4.934537892731441
 30
0.0
 10
36.79034679432539
 20
4.940557250311712
 30
0.0
 10
36.79028545521396
 20
4.949048460705995
 30
0.0
 10
36.79026015467386
 20
4.959504988389198
 30
0.0
 10
36.79026886126121
 20
4.971714364607919
 30
0.0
 10
36.79031707303813
 20
4.985422706602463
 30
0.0
 10
36.79038532271329
 20
5.00034219684025
 30
0.0
 10
36.79046410627723
 20
5.016175309400153
 30
0.0
 10
36.79048085564725
 20
5.026999709821637
 30
0.0
 10
36.79048433012474
 20
5.032512629486262
 30
0.0
 11
36.79048433012474
 21
4.928302408145242
 31
0.0
 11
36.79046837146245
 21
4.930326939555271
 31
0.0
 11
36.79042749093026
 21
4.933441029376126
 31
0.0
 11
36.7903561883096
 21
4.939845992676282
 31
0.0
 11
36.79029537117413
 21
4.948385081308487
 31
0.0
 11
36.79026565432457
 21
4.958914603234745
 31
0.0
 11
36.79027292386081
 21
4.971215312615129
 31
0.0
 11
36.79031696065385
 21
4.985013065765627
 31
0.0
 11
36.79038391427861
 21
5.000039630372413
 31
0.0
 11
36.79045316831923
 21
5.01597389202368
 31
0.0
 11
36.79048433012474
 21
5.032512629486262
 31
0.0
  0
SPLINE
  5
11A
330
2
100
AcDbEntity
  8
GAIKEI
  6
Continuous
 62
     1
100
AcDbSpline
210
0.0
220
0.0
230
1.0
 70
     8
 71
     3
 72
    17
 73
    13
 74
    11
 42
0.0000000001
 43
0.0000000001
 44
0.000001
 12
-0.000252527401536
 22
0.9999999681149553
 32
0.0
 13
0.008415620967305
 23
0.9999645880348639
 33
0.0
 40
0.0
 40
0.0
 40
0.0
 40
0.0
 40
0.0115430373204613
 40
0.0228406160511007
 40
0.0385278211814818
 40
0.0531618517257549
 40
0.0664132421490944
 40
0.0780389440330953
 40
0.0877610360451389
 40
0.0954506699097228
 40
0.1009486370034807
 40
0.1042115958160749
 40
0.1042115958160749
 40
0.1042115958160749
 40
0.1042115958160749
 10
36.79048433012474
 20
35.48369293221754
 30
0.0
 10
36.79048335848035
 20
35.48754061120167
 30
0.0
 10
36.79047513173967
 20
35.4951541560296
 30
0.0
 10
36.79042379473955
 20
35.50799666923428
 30
0.0
 10
36.79035819516022
 20
35.52186944865451
 30
0.0
 10
36.79029302260483
 20
35.53639351729834
 30
0.0
 10
36.79026179234069
 20
35.5495638621899
 30
0.0
 10
36.79026457480777
 20
35.56109695577459
 30
0.0
 10
36.79030908644293
 20
35.57077600798817
 30
0.0
 10
36.79036850789737
 20
35.57841238768117
 30
0.0
 10
36.79045051317269
 20
35.5838953260529
 30
0.0
 10
36.79047517684987
 20
35.58681553912359
 30
0.0
 10
36.79048433012474
 20
35.5879031535452
 30
0.0
 11
36.79048433012474
 21
35.48369293221754
 31
0.0
 11
36.79046837146245
 21
35.49523595891998
 31
0.0
 11
36.79042749093048
 21
35.5065334620416
 31
0.0
 11
36.79035618831012
 21
35.5222205048961
 31
0.0
 11
36.79029537117515
 21
35.53685441011118
 31
0.0
 11
36.79026565432582
 21
35.55010576920563
 31
0.0
 11
36.79027292386229
 21
35.56173147133177
 31
0.0
 11
36.79031696065545
 21
35.57145346626015
 31
0.0
 11
36.79038391427997
 21
35.57914281097124
 31
0.0
 11
36.79045316832014
 21
35.58464034091637
 31
0.0
 11
36.79048433012474
 21
35.5879031535452
 31
0.0
  0
SPLINE
  5
11B
330
2
100
AcDbEntity
  8
GAIKEI
  6
Continuous
 62
     1
100
AcDbSpline
210
0.0
220
0.0
230
1.0
 70
     8
 71
     3
 72
    12
 73
     8
 74
     6
 42
0.0000000001
 43
0.0000000001
 44
0.000001
 12
-0.0945624392219587
 22
0.9955189325615025
 32
0.0
 13
0.0008047211369879
 23
0.9999996762118934
 33
0.0
 40
0.0
 40
0.0
 40
0.0
 40
0.0
 40
0.0000019766056927
 40
0.0040373251651898
 40
0.0080803667953791
 40
0.0121348078444841
 40
0.0161946082734102
 40
0.0161946082734102
 40
0.0161946082734102
 40
0.0161946082734102
 10
36.79120281309486
 20
35.4675200086358
 30
0.0
 10
36.79120275079063
 20
35.46752066455193
 30
0.0
 10
36.79107550017344
 20
35.46886040997612
 30
0.0
 10
36.7908574616101
 20
35.47154541799438
 30
0.0
 10
36.79063642022772
 20
35.47558404678273
 30
0.0
 10
36.79050923146869
 20
35.47963480445011
 30
0.0
 10
36.79048324112233
 20
35.48233966584607
 30
0.0
 10
36.79048433012474
 20
35.48369293221754
 30
0.0
 11
36.79120281309486
 21
35.4675200086358
 31
0.0
 11
36.7912026261954
 21
35.46752197638551
 31
0.0
 11
36.79087626349826
 21
35.47154435974722
 31
0.0
 11
36.79065325849621
 21
35.47558114675496
 31
0.0
 11
36.79052498526778
 21
35.47963345110446
 31
0.0
 11
36.79048433012474
 21
35.48369293221754
 31
0.0
  0
SPLINE
  5
11C
330
2
100
AcDbEntity
  8
GAIKEI
  6
Continuous
 62
     1
100
AcDbSpline
210
0.0
220
0.0
230
1.0
 70
     8
 71
     3
 72
    12
 73
     8
 74
     6
 42
0.0000000001
 43
0.0000000001
 44
0.000001
 12
-0.0008015108260579
 22
0.9999996787901464
 32
0.0
 13
0.0945624178073996
 23
0.9955189345956302
 33
0.0
 40
0.0
 40
0.0
 40
0.0
 40
0.0
 40
0.0040481373639257
 40
0.0080949525317395
 40
0.0121447867273942
 40
0.0161926313236401
 40
0.0161946079281028
 40
0.0161946079281028
 40
0.0161946079281028
 40
0.0161946079281028
 10
36.79048433012474
 20
5.032512629486262
 30
0.0
 10
36.79048324858277
 20
5.033862008174139
 30
0.0
 10
36.79050908958072
 20
5.036560439036804
 30
0.0
 10
36.7906358087854
 20
5.040607042106017
 30
0.0
 10
36.79085666507751
 20
5.044649575626777
 30
0.0
 10
36.79107510630121
 20
5.047341005078578
 30
0.0
 10
36.79120275079081
 20
5.048684897140418
 30
0.0
 10
36.79120281309497
 20
5.048685553056145
 30
0.0
 11
36.79048433012474
 21
5.032512629486262
 31
0.0
 11
36.79052474613968
 21
5.036560448894249
 31
0.0
 11
36.79065242878119
 21
5.040605141956035
 31
0.0
 11
36.79087541880063
 21
5.044648731720712
 31
0.0
 11
36.79120262619574
 21
5.048683585307657
 31
0.0
 11
36.79120281309497
 21
5.048685553056145
 31
0.0
  0
SPLINE
  5
11D
330
2
100
AcDbEntity
  8
GAIKEI
  6
Continuous
100
AcDbSpline
210
0.0
220
0.0
230
1.0
 70
     8
 71
     3
 72
    12
 73
     8
 74
     6
 42
0.0000000001
 43
0.0000000001
 44
0.000001
 12
0.0046031613032469
 22
0.9999894053968853
 32
0.0
 13
0.5225006256474138
 23
0.8526389014102401
 33
0.0
 40
0.0
 40
0.0
 40
0.0
 40
0.0
 40
0.000525517299037
 40
0.0010893510373498
 40
0.0017083484983114
 40
0.002399699568056
 40
0.0024000572874476
 40
0.0024000572874476
 40
0.0024000572874476
 40
0.0024000572874476
 10
36.79048433012474
 20
35.5879031535452
 30
0.0
 10
36.79048513647172
 20
35.58807832412234
 30
0.0
 10
36.7905135585691
 20
35.58844192997609
 30
0.0
 10
36.79064502354729
 20
35.58899812110667
 30
0.0
 10
36.79087355903724
 20
35.58958143160499
 30
0.0
 10
36.79108228380565
 20
35.58996657292951
 30
0.0
 10
36.79120275079177
 20
35.59016316896805
 30
0.0
 10
36.79120281309463
 20
35.59016327063654
 30
0.0
 11
36.79048433012474
 21
35.5879031535452
 31
0.0
 11
36.79052474613968
 21
35.58842776608682
 31
0.0
 11
36.79065242878102
 21
35.58897720574015
 31
0.0
 11
36.79087541880051
 21
35.58955480106147
 31
0.0
 11
36.79120262619563
 21
35.59016296562658
 31
0.0
 11
36.79120281309463
 21
35.59016327063654
 31
0.0
  0
SPLINE
  5
11E
330
2
100
AcDbEntity
  8
GAIKEI
  6
Continuous
100
AcDbSpline
210
0.0
220
0.0
230
1.0
 70
     8
 71
     3
 72
    12
 73
     8
 74
     6
 42
0.0000000001
 43
0.0000000001
 44
0.000001
 12
-0.5225006292944152
 22
0.8526388991753426
 32
0.0
 13
-0.0046447832027012
 23
0.9999892129363196
 33
0.0
 40
0.0
 40
0.0
 40
0.0
 40
0.0
 40
0.0000003577197621
 40
0.0006896974858055
 40
0.0013079032458605
 40
0.0018729774571878
 40
0.0024000558933679
 40
0.0024000558933679
 40
0.0024000558933679
 40
0.0024000558933679
 10
36.79120281309497
 20
4.926042291053903
 30
0.0
 10
36.79120275079203
 20
4.926042392722507
 30
0.0
 10
36.79108263411701
 20
4.926238417123045
 30
0.0
 10
36.79087430595632
 20
4.926622699189806
 30
0.0
 10
36.79064566946875
 20
4.927205398651352
 30
0.0
 10
36.79051371737248
 20
4.927762173294837
 30
0.0
 10
36.79048514617978
 20
4.92812671722811
 30
0.0
 10
36.79048433012474
 20
4.928302408144958
 30
0.0
 11
36.79120281309497
 21
4.926042291053903
 31
0.0
 11
36.79120262619574
 21
4.926042596064149
 31
0.0
 11
36.79087626349883
 21
4.926648931992531
 31
0.0
 11
36.79065325849661
 21
4.927225672729889
 31
0.0
 11
36.79052498526818
 21
4.927776249085468
 31
0.0
 11
36.79048433012474
 21
4.928302408144958
 31
0.0
  0
LINE
  5
11F
330
2
100
AcDbEntity
  8
GAIKEI
  6
Continuous
 62
     1
100
AcDbLine
 10
36.60494780405225
 20
5.478033995630596
 30
0.0
 11
36.67161447071226
 21
5.478033995630596
 31
0.0
  0
LINE
  5
120
330
2
100
AcDbEntity
  8
GAIKEI
  6
Continuous
 62
     1
100
AcDbLine
 10
36.60494780405225
 20
5.572702628954772
 30
0.0
 11
36.67161447071226
 21
5.572702628954772
 31
0.0
  0
LINE
  5
121
330
2
100
AcDbEntity
  8
GAIKEI
  6
Continuous
 62
     1
100
AcDbLine
 10
36.60494780405225
 20
5.478033995630596
 30
0.0
 11
36.60494780405225
 21
5.572702628954772
 31
0.0
  0
LINE
  5
122
330
2
100
AcDbEntity
  8
GAIKEI
  6
Continuous
 62
     1
100
AcDbLine
 10
36.60494780405225
 20
5.64382099561422
 30
0.0
 11
36.67161447071226
 21
5.64382099561422
 31
0.0
  0
LINE
  5
123
330
2
100
AcDbEntity
  8
GAIKEI
  6
Continuous
 62
     1
100
AcDbLine
 10
36.60494780405225
 20
5.64382099561422
 30
0.0
 11
36.60494780405225
 21
5.572702628954772
 31
0.0
  0
LINE
  5
124
330
2
100
AcDbEntity
  8
GAIKEI
  6
Continuous
 62
     1
100
AcDbLine
 10
36.60494780405225
 20
5.64382099561422
 30
0.0
 11
36.60494780405225
 21
5.764977828935258
 31
0.0
  0
LINE
  5
125
330
2
100
AcDbEntity
  8
GAIKEI
  6
Continuous
 62
     1
100
AcDbLine
 10
36.67161447071226
 20
5.764977828935258
 30
0.0
 11
36.60494780405225
 21
5.764977828935258
 31
0.0
  0
LINE
  5
126
330
2
100
AcDbEntity
  8
GAIKEI
  6
Continuous
 62
     1
100
AcDbLine
 10
36.60494780405225
 20
5.478033262297429
 30
0.0
 11
36.67161447071226
 21
5.478033262297429
 31
0.0
  0
LINE
  5
127
330
2
100
AcDbEntity
  8
GAIKEI
  6
Continuous
 62
     1
100
AcDbLine
 10
36.60494780405225
 20
5.478033995630596
 30
0.0
 11
36.60494780405225
 21
5.478033262297429
 31
0.0
  0
LINE
  5
128
330
2
100
AcDbEntity
  8
GAIKEI
  6
Continuous
 62
     1
100
AcDbLine
 10
36.67161447071226
 20
5.426033962302511
 30
0.0
 11
36.60494780405225
 21
5.426033962302511
 31
0.0
  0
LINE
  5
129
330
2
100
AcDbEntity
  8
GAIKEI
  6
Continuous
 62
     1
100
AcDbLine
 10
36.60494780405225
 20
5.426033995635805
 30
0.0
 11
36.60494780405225
 21
5.478033262297429
 31
0.0
  0
LINE
  5
12A
330
2
100
AcDbEntity
  8
GAIKEI
  6
Continuous
 62
     1
100
AcDbLine
 10
36.60494780405225
 20
5.869863728924997
 30
0.0
 11
36.67161447071226
 21
5.869863728924997
 31
0.0
  0
LINE
  5
12B
330
2
100
AcDbEntity
  8
GAIKEI
  6
Continuous
 62
     1
100
AcDbLine
 10
36.60494780405225
 20
5.869863728924997
 30
0.0
 11
36.60494780405225
 21
5.764977828935258
 31
0.0
  0
LINE
  5
12C
330
2
100
AcDbEntity
  8
GAIKEI
  6
Continuous
 62
     1
100
AcDbLine
 10
36.67161447071226
 20
5.425755362302709
 30
0.0
 11
36.60494780405225
 21
5.425755362302709
 31
0.0
  0
LINE
  5
12D
330
2
100
AcDbEntity
  8
GAIKEI
  6
Continuous
 62
     1
100
AcDbLine
 10
36.60494780405225
 20
5.426065328969116
 30
0.0
 11
36.60494780405225
 21
5.426023728969482
 31
0.0
  0
LINE
  5
12E
330
2
100
AcDbEntity
  8
GAIKEI
  6
Continuous
 62
     1
100
AcDbLine
 10
36.60494780405225
 20
5.425755362302709
 30
0.0
 11
36.60494780405225
 21
5.426023728969482
 31
0.0
  0
LINE
  5
12F
330
2
100
AcDbEntity
  8
GAIKEI
  6
Continuous
 62
     1
100
AcDbLine
 10
41.13161447026619
 20
9.924769461852633
 30
0.0
 11
40.99820700361294
 21
9.924769461852633
 31
0.0
  0
LINE
  5
130
330
2
100
AcDbEntity
  8
GAIKEI
  6
Continuous
 62
     1
100
AcDbLine
 10
41.06494780360629
 20
9.95812129518265
 30
0.0
 11
40.99820700361294
 21
9.924769461852633
 31
0.0
  0
LINE
  5
131
330
2
100
AcDbEntity
  8
GAIKEI
  6
Continuous
 62
     1
100
AcDbLine
 10
41.13161447026619
 20
9.924769461852633
 30
0.0
 11
41.13161447026619
 21
9.95812129518265
 31
0.0
  0
LINE
  5
132
330
2
100
AcDbEntity
  8
GAIKEI
  6
Continuous
 62
     1
100
AcDbLine
 10
39.9649478037162
 20
9.924769461852633
 30
0.0
 11
40.09835527036955
 21
9.924769461852633
 31
0.0
  0
LINE
  5
133
330
2
100
AcDbEntity
  8
GAIKEI
  6
Continuous
 62
     1
100
AcDbLine
 10
40.03161447037621
 20
9.891417595189324
 30
0.0
 11
40.09835527036955
 21
9.924769461852633
 31
0.0
  0
LINE
  5
134
330
2
100
AcDbEntity
  8
GAIKEI
  6
Continuous
 62
     1
100
AcDbLine
 10
40.03161447037621
 20
10.55808426178933
 30
0.0
 11
40.03161447037621
 21
9.95812129518265
 31
0.0
  0
LINE
  5
135
330
2
100
AcDbEntity
  8
GAIKEI
  6
Continuous
 62
     1
100
AcDbLine
 10
40.03161447037621
 20
9.891417595189324
 30
0.0
 11
40.03161447037621
 21
9.508102795227642
 31
0.0
  0
LINE
  5
136
330
2
100
AcDbEntity
  8
GAIKEI
  6
Continuous
 62
     1
100
AcDbLine
 10
39.9649478037162
 20
9.508102795227642
 30
0.0
 11
40.03161447037621
 21
9.508102795227642
 31
0.0
  0
LINE
  5
137
330
2
100
AcDbEntity
  8
GAIKEI
  6
Continuous
 62
     1
100
AcDbLine
 10
40.03161447037621
 20
10.97476946174782
 30
0.0
 11
40.03161447037621
 21
10.62478796178266
 31
0.0
  0
LINE
  5
138
330
2
100
AcDbEntity
  8
GAIKEI
  6
Continuous
 62
     1
100
AcDbLine
 10
39.9649478037162
 20
10.97476946174782
 30
0.0
 11
40.03161447037621
 21
10.97476946174782
 31
0.0
  0
LINE
  5
139
330
2
100
AcDbEntity
  8
GAIKEI
  6
Continuous
 62
     1
100
AcDbLine
 10
40.09835527036955
 20
9.924769461852633
 30
0.0
 11
40.03161447037621
 21
9.95812129518265
 31
0.0
  0
LINE
  5
13A
330
2
100
AcDbEntity
  8
GAIKEI
  6
Continuous
 62
     1
100
AcDbLine
 10
39.9649478037162
 20
10.59143612845264
 30
0.0
 11
40.09835527036955
 21
10.59143612845264
 31
0.0
  0
LINE
  5
13B
330
2
100
AcDbEntity
  8
GAIKEI
  6
Continuous
 62
     1
100
AcDbLine
 10
40.09835527036955
 20
10.59143612845264
 30
0.0
 11
40.03161447037621
 21
10.62478796178266
 31
0.0
  0
LINE
  5
13C
330
2
100
AcDbEntity
  8
GAIKEI
  6
Continuous
 62
     1
100
AcDbLine
 10
41.13161447026619
 20
9.891417595189324
 30
0.0
 11
41.13161447026619
 21
9.508102795227642
 31
0.0
  0
LINE
  5
13D
330
2
100
AcDbEntity
  8
GAIKEI
  6
Continuous
 62
     1
100
AcDbLine
 10
41.06494780360629
 20
9.508102795227642
 30
0.0
 11
41.13161447026619
 21
9.508102795227642
 31
0.0
  0
LINE
  5
13E
330
2
100
AcDbEntity
  8
GAIKEI
  6
Continuous
 62
     1
100
AcDbLine
 10
41.06494780360629
 20
9.891417595189324
 30
0.0
 11
41.06494780360629
 21
9.508102795227642
 31
0.0
  0
LINE
  5
13F
330
2
100
AcDbEntity
  8
GAIKEI
  6
Continuous
 62
     1
100
AcDbLine
 10
40.03161447037621
 20
10.55808426178933
 30
0.0
 11
40.09835527036955
 21
10.59143612845264
 31
0.0
  0
LINE
  5
140
330
2
100
AcDbEntity
  8
GAIKEI
  6
Continuous
 62
     1
100
AcDbLine
 10
40.03161447037621
 20
9.508102795227642
 30
0.0
 11
41.06494780360629
 21
9.508102795227642
 31
0.0
  0
LINE
  5
141
330
2
100
AcDbEntity
  8
GAIKEI
  6
Continuous
 62
     1
100
AcDbLine
 10
41.06494780360629
 20
10.34143612847762
 30
0.0
 11
41.06494780360629
 21
9.95812129518265
 31
0.0
  0
LINE
  5
142
330
2
100
AcDbEntity
  8
GAIKEI
  6
Continuous
 62
     1
100
AcDbLine
 10
40.99820700361294
 20
9.924769461852633
 30
0.0
 11
41.06494780360629
 21
9.891417595189324
 31
0.0
  0
LINE
  5
143
330
2
100
AcDbEntity
  8
GAIKEI
  6
Continuous
 62
     1
100
AcDbLine
 10
40.03161447037621
 20
10.97476946174782
 30
0.0
 11
41.06494780360629
 21
10.34143612847762
 31
0.0
  0
LINE
  5
144
330
2
100
AcDbEntity
  8
GAIKEI
  6
Continuous
 62
     1
100
AcDbLine
 10
41.06494780360629
 20
10.34143612847762
 30
0.0
 11
41.13161447026619
 21
10.34143612847762
 31
0.0
  0
LINE
  5
145
330
2
100
AcDbEntity
  8
GAIKEI
  6
Continuous
 62
     1
100
AcDbLine
 10
41.13161447026619
 20
10.34143612847762
 30
0.0
 11
41.13161447026619
 21
9.95812129518265
 31
0.0
  0
LINE
  5
146
330
2
100
AcDbEntity
  8
GAIKEI
  6
Continuous
 62
     1
100
AcDbLine
 10
41.13161447026619
 20
9.891417595189324
 30
0.0
 11
41.13161447026619
 21
9.924769461852633
 31
0.0
  0
ARC
  5
147
330
2
100
AcDbEntity
  8
GAIKEI
  6
Continuous
 62
     1
100
AcDbCircle
 10
41.13161447026619
 20
9.508102795227642
 30
0.0
 40
0.06666666666
100
AcDbArc
 50
180.0
 51
270.0
  0
ARC
  5
148
330
2
100
AcDbEntity
  8
GAIKEI
  6
Continuous
 62
     1
100
AcDbCircle
 10
41.13161447026619
 20
10.34143612847762
 30
0.0
 40
0.06666666666
100
AcDbArc
 50
90.0
 51
180.0
  0
ELLIPSE
  5
149
330
2
100
AcDbEntity
  8
GAIKEI
  6
Continuous
 62
     1
100
AcDbEllipse
 10
41.06494780360629
 20
9.924806495186317
 30
0.0
 11
0.0648866693257501
 21
0.0400722693097286
 31
0.0
210
0.0
220
0.0
230
1.0
 40
0.3818709999999999
 41
6.051583804818521
 42
7.62238013161066
  0
ELLIPSE
  5
14A
330
2
100
AcDbEntity
  8
GAIKEI
  6
Continuous
 62
     1
100
AcDbEllipse
 10
40.03161447037633
 20
9.924732395186282
 30
0.0
 11
0.0648866693257042
 21
0.0400722693097033
 31
0.0
210
0.0
220
0.0
230
1.0
 40
0.3818710000000001
 41
2.909991151225782
 42
4.480787478020809
  0
ELLIPSE
  5
14B
330
2
100
AcDbEntity
  8
GAIKEI
  6
Continuous
 62
     1
100
AcDbEllipse
 10
40.03161447037633
 20
10.59139906178629
 30
0.0
 11
0.0648866693257042
 21
0.0400722693097033
 31
0.0
210
0.0
220
0.0
230
1.0
 40
0.3818710000000001
 41
2.909991151225834
 42
4.480787478020792
  0
ELLIPSE
  5
14C
330
2
100
AcDbEntity
  8
GAIKEI
  6
Continuous
 62
     1
100
AcDbEllipse
 10
40.03161447037633
 20
9.924806495186317
 30
0.0
 11
-0.0648866693257046
 21
0.0400722693097005
 31
0.0
210
0.0
220
0.0
230
1.0
 40
0.3818709999999999
 41
4.943990482748574
 42
6.514786809543458
  0
ELLIPSE
  5
14D
330
2
100
AcDbEntity
  8
GAIKEI
  6
Continuous
 62
     1
100
AcDbEllipse
 10
40.03161447037633
 20
10.59147316178632
 30
0.0
 11
-0.0648866693257046
 21
0.0400722693097005
 31
0.0
210
0.0
220
0.0
230
1.0
 40
0.3818709999999999
 41
4.943990482748574
 42
6.514786809543458
  0
ELLIPSE
  5
14E
330
2
100
AcDbEntity
  8
GAIKEI
  6
Continuous
 62
     1
100
AcDbEllipse
 10
41.06494780360629
 20
9.924732395186282
 30
0.0
 11
-0.0648866693257497
 21
0.0400722693097313
 31
0.0
210
0.0
220
0.0
230
1.0
 40
0.3818709999999999
 41
1.802397829158842
 42
3.373194155950855
  0
LINE
  5
14F
330
2
100
AcDbEntity
  8
GAIKEI
  6
Continuous
 62
     1
100
AcDbLine
 10
39.99828113704621
 20
7.608102795417693
 30
0.0
 11
39.99828113704621
 21
7.541436128757766
 31
0.0
  0
LINE
  5
150
330
2
100
AcDbEntity
  8
GAIKEI
  6
Continuous
 62
     1
100
AcDbLine
 10
39.99828113704621
 20
7.541436128757766
 30
0.0
 11
39.99828113704621
 21
7.47476946209781
 31
0.0
  0
ARC
  5
151
330
2
100
AcDbEntity
  8
GAIKEI
  6
Continuous
 62
     1
100
AcDbCircle
 10
39.9649478037162
 20
7.47476946209781
 30
0.0
 40
0.03333333333
100
AcDbArc
 50
270.0
 51
0.0
  0
ARC
  5
152
330
2
100
AcDbEntity
  8
GAIKEI
  6
Continuous
 62
     1
100
AcDbCircle
 10
39.9649478037162
 20
7.608102795417693
 30
0.0
 40
0.03333333333
100
AcDbArc
 50
0.0
 51
90.0
  0
LINE
  5
153
330
2
100
AcDbEntity
  8
GAIKEI
  6
Continuous
 62
     1
100
AcDbLine
 10
39.6228203370838
 20
5.808102795597818
 30
0.0
 11
39.6228203370838
 21
34.67569909560066
 31
0.0
  0
LINE
  5
154
330
2
100
AcDbEntity
  8
GAIKEI
  6
Continuous
100
AcDbLine
 10
38.08828113723723
 20
5.808102795597818
 30
0.0
 11
39.9316144703862
 21
5.808102795597818
 31
0.0
  0
LINE
  5
155
330
2
100
AcDbEntity
  8
GAIKEI
  6
Continuous
100
AcDbLine
 10
38.08828113723723
 20
34.90413308017366
 30
0.0
 11
39.93652243705242
 21
34.62900089271551
 31
0.0
  0
LINE
  5
156
330
2
100
AcDbEntity
  8
GAIKEI
  6
Continuous
100
AcDbLine
 10
39.9649478037162
 20
34.59603085938562
 30
0.0
 11
39.9649478037162
 21
5.841436128927625
 31
0.0
  0
LINE
  5
157
330
2
100
AcDbEntity
  8
GAIKEI
  6
Continuous
100
AcDbLine
 10
39.9649478037162
 20
5.841436128927625
 30
0.0
 11
39.9649478037162
 21
6.101436128901866
 31
0.0
  0
LINE
  5
158
330
2
100
AcDbEntity
  8
GAIKEI
  6
Continuous
100
AcDbLine
 10
39.9649478037162
 20
6.141436128897822
 30
0.0
 11
39.9649478037162
 21
7.00810279547764
 31
0.0
  0
LINE
  5
159
330
2
100
AcDbEntity
  8
GAIKEI
  6
Continuous
100
AcDbLine
 10
39.9649478037162
 20
7.00810279547764
 30
0.0
 11
39.9649478037162
 21
7.074769462137879
 31
0.0
  0
LINE
  5
15A
330
2
100
AcDbEntity
  8
GAIKEI
  6
Continuous
100
AcDbLine
 10
39.9649478037162
 20
7.141436128797806
 30
0.0
 11
39.9649478037162
 21
7.074769462137879
 31
0.0
  0
LINE
  5
15B
330
2
100
AcDbEntity
  8
GAIKEI
  6
Continuous
100
AcDbLine
 10
39.9649478037162
 20
16.92476946115263
 30
0.0
 11
39.9649478037162
 21
16.85810279449271
 31
0.0
  0
LINE
  5
15C
330
2
100
AcDbEntity
  8
GAIKEI
  6
Continuous
100
AcDbLine
 10
39.9649478037162
 20
7.141436128797806
 30
0.0
 11
39.9649478037162
 21
7.441436128767691
 31
0.0
  0
LINE
  5
15D
330
2
100
AcDbEntity
  8
GAIKEI
  6
Continuous
100
AcDbLine
 10
39.9649478037162
 20
10.97476946174782
 30
0.0
 11
39.9649478037162
 21
16.85810279449271
 31
0.0
  0
ARC
  5
15E
330
2
100
AcDbEntity
  8
GAIKEI
  6
Continuous
100
AcDbCircle
 10
39.9316144703862
 20
34.59603085938562
 30
0.0
 40
0.03333333333
100
AcDbArc
 50
33.69006800000132
 51
81.53303299998265
  0
ARC
  5
15F
330
2
100
AcDbEntity
  8
GAIKEI
  6
Continuous
100
AcDbCircle
 10
39.9316144703862
 20
5.841436128927625
 30
0.0
 40
0.03333333333
100
AcDbArc
 50
270.0
 51
326.3099319999987
  0
ARC
  5
160
330
2
100
AcDbEntity
  8
GAIKEI
  6
Continuous
100
AcDbCircle
 10
39.9316144703862
 20
34.59603085938562
 30
0.0
 40
0.03333333333
100
AcDbArc
 50
0.0
 51
33.69006800000132
  0
ARC
  5
161
330
2
100
AcDbEntity
  8
GAIKEI
  6
Continuous
100
AcDbCircle
 10
39.9316144703862
 20
5.841436128927625
 30
0.0
 40
0.03333333333
100
AcDbArc
 50
326.3099319999987
 51
0.0
  0
LINE
  5
162
330
2
100
AcDbEntity
  8
GAIKEI
  6
Continuous
 62
     1
100
AcDbLine
 10
41.73161447020624
 20
9.791436128532751
 30
0.0
 11
41.73161447020624
 21
9.774769461867691
 31
0.0
  0
LINE
  5
163
330
2
100
AcDbEntity
  8
GAIKEI
  6
Continuous
 62
     1
100
AcDbLine
 10
41.79828113686619
 20
9.774769461867691
 30
0.0
 11
41.79828113686619
 21
9.791436128532751
 31
0.0
  0
LINE
  5
164
330
2
100
AcDbEntity
  8
GAIKEI
  6
Continuous
 62
     1
100
AcDbLine
 10
41.73161447020624
 20
10.07476946183789
 30
0.0
 11
41.73161447020624
 21
10.05810279517283
 31
0.0
  0
LINE
  5
165
330
2
100
AcDbEntity
  8
GAIKEI
  6
Continuous
 62
     1
100
AcDbLine
 10
41.79828113686619
 20
10.05810279517283
 30
0.0
 11
41.79828113686619
 21
10.07476946183789
 31
0.0
  0
LINE
  5
166
330
2
100
AcDbEntity
  8
GAIKEI
  6
Continuous
 62
     1
100
AcDbLine
 10
41.79828113686619
 20
9.958102795182753
 30
0.0
 11
41.73161447020624
 21
9.958102795182753
 31
0.0
  0
LINE
  5
167
330
2
100
AcDbEntity
  8
GAIKEI
  6
Continuous
 62
     1
100
AcDbLine
 10
41.73161447020624
 20
9.958102795182753
 30
0.0
 11
41.73161447020624
 21
10.05810279517283
 31
0.0
  0
LINE
  5
168
330
2
100
AcDbEntity
  8
GAIKEI
  6
Continuous
 62
     1
100
AcDbLine
 10
41.79828113686619
 20
10.05810279517283
 30
0.0
 11
41.79828113686619
 21
9.958102795182753
 31
0.0
  0
LINE
  5
169
330
2
100
AcDbEntity
  8
GAIKEI
  6
Continuous
 62
     1
100
AcDbLine
 10
41.73161447020624
 20
9.791436128532751
 30
0.0
 11
41.73161447020624
 21
9.891436128522826
 31
0.0
  0
LINE
  5
16A
330
2
100
AcDbEntity
  8
GAIKEI
  6
Continuous
 62
     1
100
AcDbLine
 10
41.73161447020624
 20
9.891436128522826
 30
0.0
 11
41.79828113686619
 21
9.891436128522826
 31
0.0
  0
LINE
  5
16B
330
2
100
AcDbEntity
  8
GAIKEI
  6
Continuous
 62
     1
100
AcDbLine
 10
41.79828113686619
 20
9.891436128522826
 30
0.0
 11
41.79828113686619
 21
9.791436128532751
 31
0.0
  0
ARC
  5
16C
330
2
100
AcDbEntity
  8
GAIKEI
  6
Continuous
 62
     1
100
AcDbCircle
 10
41.46494780356619
 20
9.774769461867691
 30
0.0
 40
0.3333333333
100
AcDbArc
 50
270.0
 51
0.0
  0
ARC
  5
16D
330
2
100
AcDbEntity
  8
GAIKEI
  6
Continuous
 62
     1
100
AcDbCircle
 10
41.46494780356619
 20
9.774769461867691
 30
0.0
 40
0.26666666664
100
AcDbArc
 50
270.0
 51
0.0
  0
ARC
  5
16E
330
2
100
AcDbEntity
  8
GAIKEI
  6
Continuous
 62
     1
100
AcDbCircle
 10
41.46494780356619
 20
10.07476946183789
 30
0.0
 40
0.26666666664
100
AcDbArc
 50
0.0
 51
90.0
  0
ARC
  5
16F
330
2
100
AcDbEntity
  8
GAIKEI
  6
Continuous
 62
     1
100
AcDbCircle
 10
41.46494780356619
 20
10.07476946183789
 30
0.0
 40
0.3333333333
100
AcDbArc
 50
0.0
 51
90.0
  0
LINE
  5
170
330
2
100
AcDbEntity
  8
GAIKEI
  6
Continuous
 62
     1
100
AcDbLine
 10
-36.41413376171641
 20
3.957641362449408
 30
0.0
 11
2.625840167712908
 21
3.957641362449408
 31
0.0
  0
LINE
  5
171
330
2
100
AcDbEntity
  8
GAIKEI
  6
Continuous
 62
     1
100
AcDbLine
 10
2.625840167712908
 20
3.445011162500691
 30
0.0
 11
-36.41413376171641
 21
3.445011162500691
 31
0.0
  0
LINE
  5
172
330
2
100
AcDbEntity
  8
GAIKEI
  6
Continuous
 62
     1
100
AcDbLine
 10
-36.41413376171641
 20
2.565942162588612
 30
0.0
 11
2.625840167712908
 21
2.565942162588612
 31
0.0
  0
LINE
  5
173
330
2
100
AcDbEntity
  8
GAIKEI
  6
Continuous
 62
     1
100
AcDbLine
 10
-36.41413376171641
 20
2.290771262616118
 30
0.0
 11
2.625840167712908
 21
2.290771262616118
 31
0.0
  0
LINE
  5
174
330
2
100
AcDbEntity
  8
GAIKEI
  6
Continuous
100
AcDbLine
 10
-36.41413376171641
 20
1.941243262651084
 30
0.0
 11
2.625840167712908
 21
1.941243262651084
 31
0.0
  0
LINE
  5
175
330
2
100
AcDbEntity
  8
GAIKEI
  6
Continuous
100
AcDbLine
 10
-36.41413376171641
 20
4.838102795694879
 30
0.0
 11
-36.41413376171641
 21
1.941243262651084
 31
0.0
  0
LINE
  5
176
330
2
100
AcDbEntity
  8
GAIKEI
  6
Continuous
 62
     1
100
AcDbLine
 10
-36.41413376171641
 20
4.723136162372895
 30
0.0
 11
2.625840167712908
 21
4.723136162372895
 31
0.0
  0
LINE
  5
177
330
2
100
AcDbEntity
  8
GAIKEI
  6
Continuous
100
AcDbLine
 10
2.625840167712908
 20
4.838102795694879
 30
0.0
 11
2.625840167712908
 21
1.941243262651084
 31
0.0
  0
DIMENSION
  5
178
330
2
100
AcDbEntity
  8
SUNPO
100
AcDbDimension
  2
*D6
 10
43.84470231547178
 20
-6.04346088332511
 30
0.0
 11
37.29960670253563
 21
-4.29346088332511
 31
0.0
 70
    33
  1
393
 71
     5
 42
13.0901912258723
  3
STANDARD
100
AcDbAlignedDimension
 13
30.75451108959948
 23
1.956539116674889
 33
0.0
 14
43.84470231547178
 24
1.956539116674889
 34
0.0
1001
ACAD
1000
DSTYLE
1002
{
1070
    40
1040
1.0
1070
   140
1040
2.5
1070
   147
1040
0.5
1070
   172
1070
     1
1070
   279
1070
     0
1070
   288
1070
     0
1002
}
  0
TEXT
  5
185
330
2
100
AcDbEntity
  8
TOUROKU
100
AcDbText
 10
21.06552557656526
 20
47.71836721051886
 30
0.0
 40
2.0
  1
ＴＨ６５ＰＦ１０ＫＲ＋ＴＹＳＴ６５Ｋ
 72
     2
 11
63.46552557656526
 21
47.71836721051886
 31
0.0
100
AcDbText
  0
TEXT
  5
186
330
2
100
AcDbEntity
  8
MOJI1
100
AcDbText
 10
-34.53442445636222
 20
53.71836721051892
 30
0.0
 40
4.0
  1
ハイビジョンプラズマディスプレイ（スタンド付）
 41
0.9200000000000001
100
AcDbText
  0
TEXT
  5
188
330
2
100
AcDbEntity
  8
MOJI1
100
AcDbText
 10
-20.03442445636222
 20
-39.28163278948125
 30
0.0
 40
3.0
  1
４０９６階調（相当）
100
AcDbText
  0
TEXT
  5
189
330
2
100
AcDbEntity
  8
MOJI1
100
AcDbText
 10
-20.03442445636222
 20
-34.28163278948125
 30
0.0
 40
3.0
  1
１００００：１
100
AcDbText
  0
TEXT
  5
18A
330
2
100
AcDbEntity
  8
MOJI1
100
AcDbText
 10
-59.03442445636222
 20
-34.28163278948125
 30
0.0
 40
3.0
  1
コントラスト
100
AcDbText
  0
TEXT
  5
18B
330
2
100
AcDbEntity
  8
MOJI1
100
AcDbText
 10
-59.03442445636222
 20
-39.28163278948125
 30
0.0
 40
3.0
  1
階調数
100
AcDbText
  0
LINE
  5
18C
330
2
100
AcDbEntity
  8
WAKU
 62
     1
100
AcDbLine
 10
-61.53442445636222
 20
-35.28163278948125
 30
0.0
 11
63.46557554363755
 21
-35.28163278948125
 31
0.0
  0
LINE
  5
18E
330
2
100
AcDbEntity
  8
WAKU
 62
     1
100
AcDbLine
 10
-61.53442445636222
 20
-40.28163278948125
 30
0.0
 11
63.46557554363755
 21
-40.28163278948125
 31
0.0
  0
TEXT
  5
18F
330
2
100
AcDbEntity
  8
MOJI1
100
AcDbText
 10
-20.03442445636222
 20
-44.28163278948125
 30
0.0
 40
3.0
  1
２０Ｗ（１０Ｗ＋１０Ｗ）
100
AcDbText
  0
TEXT
  5
190
330
2
100
AcDbEntity
  8
MOJI1
100
AcDbText
 10
-59.03442445636222
 20
-44.28163278948125
 30
0.0
 40
3.0
  1
音声最大出力
100
AcDbText
  0
LINE
  5
191
330
2
100
AcDbEntity
  8
WAKU
 62
     1
100
AcDbLine
 10
-61.53442445636222
 20
-45.28163278948125
 30
0.0
 11
63.46557554363755
 21
-45.28163278948125
 31
0.0
  0
TEXT
  5
192
330
2
100
AcDbEntity
  8
MOJI1
100
AcDbText
 10
-20.03442445636222
 20
-19.28163278948125
 30
0.0
 40
3.0
  1
７５５Ｗ
100
AcDbText
  0
TEXT
  5
193
330
2
100
AcDbEntity
  8
MOJI1
100
AcDbText
 10
-20.03442445636222
 20
-54.28163278948125
 30
0.0
 40
3.0
  1
ＰＣ／外部スピーカー／シリアル
100
AcDbText
  0
TEXT
  5
194
330
2
100
AcDbEntity
  8
MOJI1
100
AcDbText
 10
-20.03442445636222
 20
-14.28163278948125
 30
0.0
 40
3.0
  1
ＡＣ１００Ｖ　５０Ｈｚ／６０Ｈｚ
100
AcDbText
  0
TEXT
  5
195
330
2
100
AcDbEntity
  8
MOJI1
100
AcDbText
 10
-20.03442445636222
 20
-49.28163278948125
 30
0.0
 40
3.0
  1
ＤＶＩ－Ｄ／コンポーネントビデオ
100
AcDbText
  0
TEXT
  5
196
330
2
100
AcDbEntity
  8
MOJI1
100
AcDbText
 10
-20.03442445636222
 20
-29.28163278948125
 30
0.0
 40
3.0
  1
２０７３６００画素（水平１９２０×垂直１０８０）
 41
0.9699999999999999
100
AcDbText
  0
LINE
  5
197
330
2
100
AcDbEntity
  8
WAKU
 62
     4
100
AcDbLine
 10
63.46557554363755
 20
-55.28163278948125
 30
0.0
 11
-61.53442445636222
 21
-55.28163278948125
 31
0.0
  0
LINE
  5
198
330
2
100
AcDbEntity
  8
WAKU
 62
     1
100
AcDbLine
 10
-61.53442445636222
 20
-50.28163278948125
 30
0.0
 11
63.46557554363755
 21
-50.28163278948125
 31
0.0
  0
LINE
  5
199
330
2
100
AcDbEntity
  8
WAKU
 62
     1
100
AcDbLine
 10
-61.53442445636222
 20
-30.28163278948125
 30
0.0
 11
63.46557554363755
 21
-30.28163278948125
 31
0.0
  0
LINE
  5
19A
330
2
100
AcDbEntity
  8
WAKU
 62
     1
100
AcDbLine
 10
-61.53442445636222
 20
-25.28163278948125
 30
0.0
 11
63.46557554363755
 21
-25.28163278948125
 31
0.0
  0
LINE
  5
19B
330
2
100
AcDbEntity
  8
WAKU
 62
     1
100
AcDbLine
 10
-61.53442445636222
 20
-15.28163278948125
 30
0.0
 11
63.46557554363755
 21
-15.28163278948125
 31
0.0
  0
LINE
  5
19C
330
2
100
AcDbEntity
  8
WAKU
 62
     4
100
AcDbLine
 10
-61.53442445636222
 20
-10.28163278948125
 30
0.0
 11
63.46557554363755
 21
-10.28163278948125
 31
0.0
  0
LINE
  5
19D
330
2
100
AcDbEntity
  8
WAKU
 62
     1
100
AcDbLine
 10
-61.53442445636222
 20
-20.28163278948125
 30
0.0
 11
63.46557554363755
 21
-20.28163278948125
 31
0.0
  0
TEXT
  5
19E
330
2
100
AcDbEntity
  8
MOJI1
100
AcDbText
 10
-20.03442445636222
 20
-24.28163278948125
 30
0.0
 40
3.0
  1
６５ｖ型（１６：９）
100
AcDbText
  0
LINE
  5
19F
330
2
100
AcDbEntity
  8
WAKU
 62
     4
100
AcDbLine
 10
-21.53442445636244
 20
-10.28163278948125
 30
0.0
 11
-21.53442445636244
 21
-55.28163278948125
 31
0.0
  0
LINE
  5
1A0
330
2
100
AcDbEntity
  8
WAKU
 62
     4
100
AcDbLine
 10
-61.53442445636244
 20
-10.28163278948125
 30
0.0
 11
-61.53442445636222
 21
-55.28163278948125
 31
0.0
  0
TEXT
  5
1A1
330
2
100
AcDbEntity
  8
MOJI1
100
AcDbText
 10
-59.03442445636222
 20
-29.28163278948125
 30
0.0
 40
3.0
  1
画素数
100
AcDbText
  0
TEXT
  5
1A2
330
2
100
AcDbEntity
  8
MOJI1
100
AcDbText
 10
-59.03442445636222
 20
-14.28163278948125
 30
0.0
 40
3.0
  1
電  源
100
AcDbText
  0
TEXT
  5
1A3
330
2
100
AcDbEntity
  8
MOJI1
100
AcDbText
 10
-59.03442445636222
 20
-19.28163278948125
 30
0.0
 40
3.0
  1
消費電力
100
AcDbText
  0
TEXT
  5
1A4
330
2
100
AcDbEntity
  8
MOJI1
100
AcDbText
 10
-59.03442445636222
 20
-49.28163278948125
 30
0.0
 40
3.0
  1
接続端子
100
AcDbText
  0
TEXT
  5
1A5
330
2
100
AcDbEntity
  8
MOJI1
100
AcDbText
 10
-59.03442445636222
 20
-24.28163278948125
 30
0.0
 40
3.0
  1
画面サイズ
100
AcDbText
  0
LINE
  5
1A6
330
2
100
AcDbEntity
  8
WAKU
 62
     4
100
AcDbLine
 10
63.46557554363755
 20
-10.28163278948125
 30
0.0
 11
63.46557554363755
 21
-55.28163278948125
 31
0.0
  0
ENDSEC
  0
SECTION
  2
OBJECTS
  0
DICTIONARY
  5
9
330
0
100
AcDbDictionary
281
     1
  3
ACAD_COLOR
350
31
  3
ACAD_GROUP
350
2D
  3
ACAD_LAYOUT
350
D
  3
ACAD_MATERIAL
350
30
  3
ACAD_MLINESTYLE
350
2E
  3
ACAD_PLOTSETTINGS
350
2F
  3
ACAD_PLOTSTYLENAME
350
8
  3
ACDBHEADERROUNDTRIPXREC
350
201
  3
AcDbVariableDictionary
350
1FC
  3
ASE_INDEX_DICTIONARY
350
1AF
  0
DICTIONARY
  5
15
330
14
100
AcDbDictionary
280
     1
281
     1
  3
ACAD_LAYERFILTERS
360
16
  3
ACAD_LAYERSTATES
360
17
  0
DICTIONARY
  5
3
330
2
100
AcDbDictionary
280
     1
281
     1
  3
ACAD_LAYOUTSELFREF
360
4
  0
DICTIONARY
  5
F
330
E
100
AcDbDictionary
280
     1
281
     1
  3
ACAD_LAYOUTSELFREF
360
10
  0
DICTIONARY
  5
31
102
{ACAD_REACTORS
330
9
102
}
330
9
100
AcDbDictionary
281
     1
  0
DICTIONARY
  5
2D
102
{ACAD_REACTORS
330
9
102
}
330
9
100
AcDbDictionary
281
     1
  0
DICTIONARY
  5
D
102
{ACAD_REACTORS
330
9
102
}
330
9
100
AcDbDictionary
281
     1
  3
Model
350
C
  3
ﾚｲｱｳﾄ1
350
13
  0
DICTIONARY
  5
30
102
{ACAD_REACTORS
330
9
102
}
330
9
100
AcDbDictionary
281
     1
  0
DICTIONARY
  5
2E
102
{ACAD_REACTORS
330
9
102
}
330
9
100
AcDbDictionary
281
     1
  3
STANDARD
350
32
  0
DICTIONARY
  5
2F
102
{ACAD_REACTORS
330
9
102
}
330
9
100
AcDbDictionary
281
     1
  0
ACDBDICTIONARYWDFLT
  5
8
102
{ACAD_REACTORS
330
9
102
}
330
9
100
AcDbDictionary
281
     1
  3
Normal
350
7
100
AcDbDictionaryWithDefault
340
7
  0
DICTIONARY
  5
201
102
{ACAD_REACTORS
330
9
102
}
330
9
100
AcDbDictionary
281
     1
  3
COLORDICT
350
203
  3
MATERIALDICT
350
202
  0
DICTIONARY
  5
1FC
102
{ACAD_REACTORS
330
9
102
}
330
9
100
AcDbDictionary
281
     1
  3
DIMASSOC
350
1FE
  3
HIDETEXT
350
1FD
  3
PROJECTNAME
350
1FF
  0
DICTIONARY
  5
1AF
102
{ACAD_REACTORS
330
9
102
}
330
9
100
AcDbDictionary
281
     1
  3
ASEBlockHierarchyIndexRecord
350
1B1
1001
DCO15
1040
1627818215.651
  0
DICTIONARY
  5
16
102
{ACAD_REACTORS
330
15
102
}
330
15
100
AcDbDictionary
280
     1
281
     1
  0
DICTIONARY
  5
17
102
{ACAD_REACTORS
330
15
102
}
330
15
100
AcDbDictionary
281
     1
  0
XRECORD
  5
4
102
{ACAD_REACTORS
330
3
102
}
330
3
100
AcDbXrecord
280
     1
340
2
  0
XRECORD
  5
10
102
{ACAD_REACTORS
330
F
102
}
330
F
100
AcDbXrecord
280
     1
340
E
  0
LAYOUT
  5
C
102
{ACAD_XDICTIONARY
360
204
102
}
102
{ACAD_REACTORS
330
D
102
}
330
D
100
AcDbPlotSettings
  1

  2
Ａ４－縦3FRIM01.pc3
  4
A4
  6

 40
5.873749732971191
 41
5.873747825622558
 42
5.873748779296875
 43
5.873748779296875
 44
209.9733276367187
 45
296.9259948730469
 46
5.44
 47
0.0
 48
0.0
 49
0.0
140
0.0
141
0.0
142
1.0
143
1.383239362962726
 70
 11956
 72
     1
 73
     0
 74
     1
  7
tmsacad.ctb
 75
     0
147
0.7229406759059578
148
0.5671991949084259
149
0.1357563133815347
100
AcDbLayout
  1
Model
 70
     1
 71
     0
 10
0.0
 20
0.0
 11
12.0
 21
9.0
 12
0.0
 22
0.0
 32
0.0
 14
0.0
 24
0.0
 34
0.0
 15
0.0
 25
0.0
 35
0.0
146
0.0
 13
0.0
 23
0.0
 33
0.0
 16
1.0
 26
0.0
 36
0.0
 17
0.0
 27
1.0
 37
0.0
 76
     0
330
2
  0
LAYOUT
  5
13
102
{ACAD_XDICTIONARY
360
206
102
}
102
{ACAD_REACTORS
330
D
102
}
330
D
100
AcDbPlotSettings
  1

  2
C:\Program Files\ACAD2000\plotters\DWF ePlot.pc3
  4

  6

 40
0.0
 41
0.0
 42
0.0
 43
0.0
 44
0.0
 45
0.0
 46
0.0
 47
0.0
 48
0.0
 49
0.0
140
0.0
141
0.0
142
1.0
143
1.0
 70
   688
 72
     0
 73
     0
 74
     5
  7
tmsacad.ctb
 75
    16
147
1.0
148
0.0
149
0.0
100
AcDbLayout
  1
ﾚｲｱｳﾄ1
 70
     1
 71
     1
 10
0.0
 20
0.0
 11
12.0
 21
9.0
 12
0.0
 22
0.0
 32
0.0
 14
1.000000000000000E+20
 24
1.000000000000000E+20
 34
1.000000000000000E+20
 15
-1.000000000000000E+20
 25
-1.000000000000000E+20
 35
-1.000000000000000E+20
146
0.0
 13
0.0
 23
0.0
 33
0.0
 16
1.0
 26
0.0
 36
0.0
 17
0.0
 27
1.0
 37
0.0
 76
     0
330
E
  0
MLINESTYLE
  5
32
102
{ACAD_REACTORS
330
2E
102
}
330
2E
100
AcDbMlineStyle
  2
STANDARD
 70
     0
  3

 62
   256
 51
90.0
 52
90.0
 71
     2
 49
0.5
 62
   256
  6
BYLAYER
 49
-0.5
 62
   256
  6
BYLAYER
  0
ACDBPLACEHOLDER
  5
7
102
{ACAD_REACTORS
330
8
102
}
330
8
  0
XRECORD
  5
203
102
{ACAD_REACTORS
330
201
102
}
330
201
100
AcDbXrecord
280
     1
340
31
  0
XRECORD
  5
202
102
{ACAD_REACTORS
330
201
102
}
330
201
100
AcDbXrecord
280
     1
340
30
  0
DICTIONARYVAR
  5
1FE
102
{ACAD_REACTORS
330
1FC
102
}
330
1FC
100
DictionaryVariables
280
     0
  1
1
  0
DICTIONARYVAR
  5
1FD
102
{ACAD_REACTORS
330
1FC
102
}
330
1FC
100
DictionaryVariables
280
     0
  1
1
  0
DICTIONARYVAR
  5
1FF
102
{ACAD_REACTORS
330
1FC
102
}
330
1FC
100
DictionaryVariables
280
     0
  1

  0
XRECORD
  5
1B1
102
{ACAD_REACTORS
330
1AF
102
}
330
1AF
100
AcDbXrecord
280
     1
330
EA
330
EB
330
DB
330
DC
330
88
330
89
330
3C
330
3D
330
17E
330
17F
330
1C2
330
1C3
330
1D0
330
1D1
330
1DC
330
1DD
330
1E8
330
1E9
330
1F4
330
1F5
  0
DICTIONARY
  5
204
330
C
100
AcDbDictionary
280
     1
281
     1
  3
ACAD_XREC_ROUNDTRIP
360
205
  0
DICTIONARY
  5
206
330
13
100
AcDbDictionary
280
     1
281
     1
  3
ACAD_XREC_ROUNDTRIP
360
207
  0
XRECORD
  5
205
102
{ACAD_REACTORS
330
204
102
}
330
204
100
AcDbXrecord
280
     1
102
SHADEPLOT
 70
     0
102
SHADEPLOTRESLEVEL
 70
     2
102
SHADEPLOTCUSTOMDPI
 70
   300
  0
XRECORD
  5
207
102
{ACAD_REACTORS
330
206
102
}
330
206
100
AcDbXrecord
280
     1
102
SHADEPLOT
 70
     0
102
SHADEPLOTRESLEVEL
 70
     2
102
SHADEPLOTCUSTOMDPI
 70
   300
  0
ENDSEC
  0
EOF
