  0
SECTION
  2
HEADER
  9
$ACADVER
  1
AC1015
  9
$ACADMAINTVER
 70
    20
  9
$DWGCODEPAGE
  3
ANSI_932
  9
$INSBASE
 10
0.4999999440410648
 20
246.5008351249344
 30
0.0
  9
$EXTMIN
 10
-60.991515206396
 20
-48.63592465808142
 30
-0.0015258207003583
  9
$EXTMAX
 10
64.0420537861554
 20
64.38867229571179
 30
0.0000000349246037
  9
$LIMMIN
 10
0.0
 20
0.0
  9
$LIMMAX
 10
420.0
 20
297.0
  9
$ORTHOMODE
 70
     1
  9
$REGENMODE
 70
     0
  9
$FILLMODE
 70
     1
  9
$QTEXTMODE
 70
     0
  9
$MIRRTEXT
 70
     0
  9
$LTSCALE
 40
1.0
  9
$ATTMODE
 70
     1
  9
$TEXTSIZE
 40
2.5
  9
$TRACEWID
 40
1.0
  9
$TEXTSTYLE
  7
Standard
  9
$CLAYER
  8
S6
  9
$CELTYPE
  6
ByLayer
  9
$CECOLOR
 62
   256
  9
$CELTSCALE
 40
1.0
  9
$DISPSILH
 70
     0
  9
$DIMSCALE
 40
1.0
  9
$DIMASZ
 40
2.0
  9
$DIMEXO
 40
2.0
  9
$DIMDLI
 40
8.0
  9
$DIMRND
 40
0.0
  9
$DIMDLE
 40
0.0
  9
$DIMEXE
 40
2.0
  9
$DIMTP
 40
0.0
  9
$DIMTM
 40
0.0
  9
$DIMTXT
 40
2.5
  9
$DIMCEN
 40
0.0
  9
$DIMTSZ
 40
0.0
  9
$DIMTOL
 70
     0
  9
$DIMLIM
 70
     0
  9
$DIMTIH
 70
     0
  9
$DIMTOH
 70
     0
  9
$DIMSE1
 70
     0
  9
$DIMSE2
 70
     0
  9
$DIMTAD
 70
     3
  9
$DIMZIN
 70
     0
  9
$DIMBLK
  1

  9
$DIMASO
 70
     1
  9
$DIMSHO
 70
     1
  9
$DIMPOST
  1

  9
$DIMAPOST
  1

  9
$DIMALT
 70
     0
  9
$DIMALTD
 70
     2
  9
$DIMALTF
 40
25.4
  9
$DIMLFAC
 40
1.0
  9
$DIMTOFL
 70
     1
  9
$DIMTVP
 40
0.0
  9
$DIMTIX
 70
     0
  9
$DIMSOXD
 70
     0
  9
$DIMSAH
 70
     1
  9
$DIMBLK1
  1
OPEN30
  9
$DIMBLK2
  1
OPEN30
  9
$DIMSTYLE
  2
STANDARD
  9
$DIMCLRD
 70
     0
  9
$DIMCLRE
 70
     0
  9
$DIMCLRT
 70
     0
  9
$DIMTFAC
 40
1.0
  9
$DIMGAP
 40
0.5
  9
$DIMJUST
 70
     0
  9
$DIMSD1
 70
     0
  9
$DIMSD2
 70
     0
  9
$DIMTOLJ
 70
     1
  9
$DIMTZIN
 70
     0
  9
$DIMALTZ
 70
     0
  9
$DIMALTTZ
 70
     0
  9
$DIMUPT
 70
     0
  9
$DIMDEC
 70
     4
  9
$DIMTDEC
 70
     4
  9
$DIMALTU
 70
     2
  9
$DIMALTTD
 70
     2
  9
$DIMTXSTY
  7
Standard
  9
$DIMAUNIT
 70
     0
  9
$DIMADEC
 70
     0
  9
$DIMALTRND
 40
0.0
  9
$DIMAZIN
 70
     0
  9
$DIMDSEP
 70
    46
  9
$DIMATFIT
 70
     3
  9
$DIMFRAC
 70
     0
  9
$DIMLDRBLK
  1
OPEN30
  9
$DIMLUNIT
 70
     2
  9
$DIMLWD
 70
    -2
  9
$DIMLWE
 70
    -2
  9
$DIMTMOVE
 70
     0
  9
$LUNITS
 70
     2
  9
$LUPREC
 70
     4
  9
$SKETCHINC
 40
1.0
  9
$FILLETRAD
 40
0.0
  9
$AUNITS
 70
     0
  9
$AUPREC
 70
     0
  9
$MENU
  1
.
  9
$ELEVATION
 40
0.0
  9
$PELEVATION
 40
0.0
  9
$THICKNESS
 40
0.0
  9
$LIMCHECK
 70
     0
  9
$CHAMFERA
 40
0.0
  9
$CHAMFERB
 40
0.0
  9
$CHAMFERC
 40
0.0
  9
$CHAMFERD
 40
0.0
  9
$SKPOLY
 70
     0
  9
$TDCREATE
 40
2454349.434269746
  9
$TDUCREATE
 40
2454349.059269746
  9
$TDUPDATE
 40
2454803.579143900
  9
$TDUUPDATE
 40
2454803.204143900
  9
$TDINDWG
 40
1.4354247801
  9
$TDUSRTIMER
 40
1.4354247801
  9
$USRTIMER
 70
     1
  9
$ANGBASE
 50
0.0
  9
$ANGDIR
 70
     0
  9
$PDMODE
 70
     0
  9
$PDSIZE
 40
0.0
  9
$PLINEWID
 40
0.0
  9
$SPLFRAME
 70
     0
  9
$SPLINETYPE
 70
     6
  9
$SPLINESEGS
 70
     8
  9
$HANDSEED
  5
2A9
  9
$SURFTAB1
 70
     6
  9
$SURFTAB2
 70
     6
  9
$SURFTYPE
 70
     6
  9
$SURFU
 70
     6
  9
$SURFV
 70
     6
  9
$UCSBASE
  2

  9
$UCSNAME
  2

  9
$UCSORG
 10
0.0
 20
0.0
 30
0.0
  9
$UCSXDIR
 10
1.0
 20
0.0
 30
0.0
  9
$UCSYDIR
 10
0.0
 20
1.0
 30
0.0
  9
$UCSORTHOREF
  2

  9
$UCSORTHOVIEW
 70
     0
  9
$UCSORGTOP
 10
0.0
 20
0.0
 30
0.0
  9
$UCSORGBOTTOM
 10
0.0
 20
0.0
 30
0.0
  9
$UCSORGLEFT
 10
0.0
 20
0.0
 30
0.0
  9
$UCSORGRIGHT
 10
0.0
 20
0.0
 30
0.0
  9
$UCSORGFRONT
 10
0.0
 20
0.0
 30
0.0
  9
$UCSORGBACK
 10
0.0
 20
0.0
 30
0.0
  9
$PUCSBASE
  2

  9
$PUCSNAME
  2

  9
$PUCSORG
 10
0.0
 20
0.0
 30
0.0
  9
$PUCSXDIR
 10
1.0
 20
0.0
 30
0.0
  9
$PUCSYDIR
 10
0.0
 20
1.0
 30
0.0
  9
$PUCSORTHOREF
  2

  9
$PUCSORTHOVIEW
 70
     0
  9
$PUCSORGTOP
 10
0.0
 20
0.0
 30
0.0
  9
$PUCSORGBOTTOM
 10
0.0
 20
0.0
 30
0.0
  9
$PUCSORGLEFT
 10
0.0
 20
0.0
 30
0.0
  9
$PUCSORGRIGHT
 10
0.0
 20
0.0
 30
0.0
  9
$PUCSORGFRONT
 10
0.0
 20
0.0
 30
0.0
  9
$PUCSORGBACK
 10
0.0
 20
0.0
 30
0.0
  9
$USERI1
 70
     0
  9
$USERI2
 70
     0
  9
$USERI3
 70
     0
  9
$USERI4
 70
     0
  9
$USERI5
 70
     0
  9
$USERR1
 40
0.0
  9
$USERR2
 40
0.0
  9
$USERR3
 40
0.0
  9
$USERR4
 40
0.0
  9
$USERR5
 40
0.0
  9
$WORLDVIEW
 70
     1
  9
$SHADEDGE
 70
     3
  9
$SHADEDIF
 70
    70
  9
$TILEMODE
 70
     1
  9
$MAXACTVP
 70
    64
  9
$PINSBASE
 10
0.0
 20
0.0
 30
0.0
  9
$PLIMCHECK
 70
     0
  9
$PEXTMIN
 10
0.0
 20
0.0
 30
0.0
  9
$PEXTMAX
 10
0.0
 20
0.0
 30
0.0
  9
$PLIMMIN
 10
0.0
 20
0.0
  9
$PLIMMAX
 10
12.0
 20
9.0
  9
$UNITMODE
 70
     0
  9
$VISRETAIN
 70
     1
  9
$PLINEGEN
 70
     0
  9
$PSLTSCALE
 70
     1
  9
$TREEDEPTH
 70
  3020
  9
$CMLSTYLE
  2
Standard
  9
$CMLJUST
 70
     0
  9
$CMLSCALE
 40
20.0
  9
$PROXYGRAPHICS
 70
     1
  9
$MEASUREMENT
 70
     1
  9
$CELWEIGHT
370
    -1
  9
$ENDCAPS
280
     0
  9
$JOINSTYLE
280
     0
  9
$LWDISPLAY
290
     0
  9
$INSUNITS
 70
     4
  9
$HYPERLINKBASE
  1

  9
$STYLESHEET
  1

  9
$XEDIT
290
     1
  9
$CEPSNTYPE
380
     0
  9
$PSTYLEMODE
290
     1
  9
$FINGERPRINTGUID
  2
{FDEAD578-A652-11D2-9A35-0060089B3A3F}
  9
$VERSIONGUID
  2
{135D9041-465E-464C-84E4-79113DBC2EC4}
  9
$EXTNAMES
290
     1
  9
$PSVPSCALE
 40
0.0
  9
$OLESTARTUP
290
     0
  0
ENDSEC
  0
SECTION
  2
CLASSES
  0
CLASS
  1
ACDBDICTIONARYWDFLT
  2
AcDbDictionaryWithDefault
  3
ObjectDBX Classes
 90
        0
280
     0
281
     0
  0
CLASS
  1
ACDBPLACEHOLDER
  2
AcDbPlaceHolder
  3
ObjectDBX Classes
 90
        0
280
     0
281
     0
  0
CLASS
  1
LAYOUT
  2
AcDbLayout
  3
ObjectDBX Classes
 90
        0
280
     0
281
     0
  0
CLASS
  1
DICTIONARYVAR
  2
AcDbDictionaryVar
  3
ObjectDBX Classes
 90
        0
280
     0
281
     0
  0
CLASS
  1
DIMASSOC
  2
AcDbDimAssoc
  3
"AcDbDimAssoc|Product Desc:     AcDim ARX App For Dimension|Company:          Autodesk, Inc.|WEB Address:      www.autodesk.com"
 90
    32768
280
     0
281
     0
  0
CLASS
  1
SORTENTSTABLE
  2
AcDbSortentsTable
  3
ObjectDBX Classes
 90
    32768
280
     0
281
     0
  0
ENDSEC
  0
SECTION
  2
TABLES
  0
TABLE
  2
VPORT
  5
1B
330
0
100
AcDbSymbolTable
 70
     3
  0
VPORT
  5
2A1
330
1B
100
AcDbSymbolTableRecord
100
AcDbViewportTableRecord
  2
*Active
 70
     0
 10
0.0
 20
0.0
 11
1.0
 21
1.0
 12
1.525269289879712
 22
7.876373818815189
 13
0.0
 23
0.0
 14
10.0
 24
10.0
 15
10.0
 25
10.0
 16
0.0
 26
0.0
 36
1.0
 17
0.0
 27
0.0
 37
0.0
 40
113.8973737642472
 41
1.387886597938144
 42
50.0
 43
0.0
 44
0.0
 50
0.0
 51
0.0
 71
     0
 72
  1000
 73
     1
 74
     2
 75
     0
 76
     0
 77
     0
 78
     0
281
     0
 65
     1
110
0.0
120
0.0
130
0.0
111
1.0
121
0.0
131
0.0
112
0.0
122
1.0
132
0.0
 79
     0
146
0.0
  0
ENDTAB
  0
TABLE
  2
LTYPE
  5
16
330
0
100
AcDbSymbolTable
 70
     4
  0
LTYPE
  5
17
330
16
100
AcDbSymbolTableRecord
100
AcDbLinetypeTableRecord
  2
ByBlock
 70
     0
  3

 72
    65
 73
     0
 40
0.0
  0
LTYPE
  5
18
330
16
100
AcDbSymbolTableRecord
100
AcDbLinetypeTableRecord
  2
ByLayer
 70
     0
  3

 72
    65
 73
     0
 40
0.0
  0
LTYPE
  5
8
330
16
100
AcDbSymbolTableRecord
100
AcDbLinetypeTableRecord
  2
Continuous
 70
     0
  3
Solid line
 72
    65
 73
     0
 40
0.0
  0
LTYPE
  5
C6
330
16
100
AcDbSymbolTableRecord
100
AcDbLinetypeTableRecord
  2
PHANTOM
 70
     0
  3
Phantom ______  __  __  ______  __  __  ______
 72
    65
 73
     6
 40
63.5
 49
31.75
 74
     0
 49
-6.349999999999999
 74
     0
 49
6.349999999999999
 74
     0
 49
-6.349999999999999
 74
     0
 49
6.349999999999999
 74
     0
 49
-6.349999999999999
 74
     0
  0
LTYPE
  5
D0
330
16
100
AcDbSymbolTableRecord
100
AcDbLinetypeTableRecord
  2
CENTER
 70
     0
  3
Center ____ _ ____ _ ____ _ ____ _ ____ _ ____
 72
    65
 73
     4
 40
50.8
 49
31.75
 74
     0
 49
-6.349999999999999
 74
     0
 49
6.349999999999999
 74
     0
 49
-6.349999999999999
 74
     0
  0
LTYPE
  5
D8
330
16
100
AcDbSymbolTableRecord
100
AcDbLinetypeTableRecord
  2
DASHED
 70
     0
  3
Dashed __ __ __ __ __ __ __ __ __ __ __ __ __ _
 72
    65
 73
     2
 40
19.05
 49
12.7
 74
     0
 49
-6.349999999999999
 74
     0
  0
ENDTAB
  0
TABLE
  2
LAYER
  5
10
102
{ACAD_XDICTIONARY
360
11
102
}
330
0
100
AcDbSymbolTable
 70
     8
  0
LAYER
  5
4
330
10
100
AcDbSymbolTableRecord
100
AcDbLayerTableRecord
  2
0
 70
     0
 62
     7
  6
Continuous
370
    -3
390
5
  0
LAYER
  5
33
330
10
100
AcDbSymbolTableRecord
100
AcDbLayerTableRecord
  2
WAKU
 70
     0
 62
     4
  6
Continuous
370
    -3
390
5
  0
LAYER
  5
30
330
10
100
AcDbSymbolTableRecord
100
AcDbLayerTableRecord
  2
MOJI1
 70
     0
 62
     2
  6
Continuous
370
    -3
390
5
  0
LAYER
  5
255
330
10
100
AcDbSymbolTableRecord
100
AcDbLayerTableRecord
  2
TOUROKU
 70
     0
 62
     1
  6
Continuous
370
    -3
390
5
  0
LAYER
  5
6E
330
10
100
AcDbSymbolTableRecord
100
AcDbLayerTableRecord
  2
GAIKEI
 70
     0
 62
     7
  6
Continuous
370
    -3
390
5
  0
LAYER
  5
50
330
10
100
AcDbSymbolTableRecord
100
AcDbLayerTableRecord
  2
SUNPO
 70
     0
 62
     3
  6
Continuous
370
    -3
390
5
  0
LAYER
  5
5C
330
10
100
AcDbSymbolTableRecord
100
AcDbLayerTableRecord
  2
Defpoints
 70
     0
 62
     7
  6
Continuous
290
     0
370
    -3
390
5
  0
LAYER
  5
2D
330
10
100
AcDbSymbolTableRecord
100
AcDbLayerTableRecord
  2
S6
 70
     0
 62
     6
  6
Continuous
370
    -3
390
5
  0
ENDTAB
  0
TABLE
  2
STYLE
  5
13
330
0
100
AcDbSymbolTable
 70
     1
  0
STYLE
  5
14
330
13
100
AcDbSymbolTableRecord
100
AcDbTextStyleTableRecord
  2
Standard
 70
     0
 40
0.0
 41
1.0
 50
0.0
 71
     0
 42
2.5
  3
MONOTXT.shx
  4
BIGFONT.shx
  0
ENDTAB
  0
TABLE
  2
VIEW
  5
19
330
0
100
AcDbSymbolTable
 70
     0
  0
ENDTAB
  0
TABLE
  2
UCS
  5
1A
330
0
100
AcDbSymbolTable
 70
     0
  0
ENDTAB
  0
TABLE
  2
APPID
  5
1D
330
0
100
AcDbSymbolTable
 70
     1
  0
APPID
  5
1E
330
1D
100
AcDbSymbolTableRecord
100
AcDbRegAppTableRecord
  2
ACAD
 70
     0
  0
ENDTAB
  0
TABLE
  2
DIMSTYLE
  5
1F
330
0
100
AcDbSymbolTable
 70
     1
100
AcDbDimStyleTable
 71
     1
340
20
  0
DIMSTYLE
105
20
102
{ACAD_REACTORS
330
6F
330
7C
330
60
330
4F
102
}
330
1F
100
AcDbSymbolTableRecord
100
AcDbDimStyleTableRecord
  2
STANDARD
 70
     0
 40
0.0
 41
2.0
 42
2.0
 43
8.0
 44
2.0
 73
     0
 74
     0
 77
     3
140
3.0
141
0.0
173
     1
279
     2
288
     1
340
14
341
21
343
21
344
21
  0
ENDTAB
  0
TABLE
  2
BLOCK_RECORD
  5
1
330
0
100
AcDbSymbolTable
 70
     9
  0
BLOCK_RECORD
  5
2
330
1
100
AcDbSymbolTableRecord
100
AcDbBlockTableRecord
  2
*Model_Space
340
A
  0
BLOCK_RECORD
  5
C
330
1
100
AcDbSymbolTableRecord
100
AcDbBlockTableRecord
  2
*Paper_Space
340
F
  0
BLOCK_RECORD
  5
21
330
1
100
AcDbSymbolTableRecord
100
AcDbBlockTableRecord
  2
_OPEN30
340
0
102
{BLKREFS
331
58
331
59
331
66
331
67
331
75
331
76
331
82
331
83
331
26F
331
270
331
27B
331
27C
331
287
331
288
331
295
331
296
102
}
  0
BLOCK_RECORD
  5
70
330
1
100
AcDbSymbolTableRecord
100
AcDbBlockTableRecord
  2
*D1
340
0
  0
BLOCK_RECORD
  5
7D
330
1
100
AcDbSymbolTableRecord
100
AcDbBlockTableRecord
  2
*D2
340
0
  0
BLOCK_RECORD
  5
61
330
1
100
AcDbSymbolTableRecord
100
AcDbBlockTableRecord
  2
*D3
340
0
  0
BLOCK_RECORD
  5
51
330
1
100
AcDbSymbolTableRecord
100
AcDbBlockTableRecord
  2
*D4
340
0
  0
BLOCK_RECORD
  5
26B
330
1
100
AcDbSymbolTableRecord
100
AcDbBlockTableRecord
  2
*D5
340
0
  0
BLOCK_RECORD
  5
277
330
1
100
AcDbSymbolTableRecord
100
AcDbBlockTableRecord
  2
*D6
340
0
  0
BLOCK_RECORD
  5
283
330
1
100
AcDbSymbolTableRecord
100
AcDbBlockTableRecord
  2
*D7
340
0
  0
BLOCK_RECORD
  5
28F
330
1
100
AcDbSymbolTableRecord
100
AcDbBlockTableRecord
  2
*D8
340
0
  0
ENDTAB
  0
ENDSEC
  0
SECTION
  2
BLOCKS
  0
BLOCK
  5
3
330
2
100
AcDbEntity
  8
0
100
AcDbBlockBegin
  2
*Model_Space
 70
     0
 10
0.0
 20
0.0
 30
0.0
  3
*Model_Space
  1

  0
ENDBLK
  5
9
330
2
100
AcDbEntity
  8
0
100
AcDbBlockEnd
  0
BLOCK
  5
D
330
C
100
AcDbEntity
 67
     1
  8
0
100
AcDbBlockBegin
  2
*Paper_Space
 70
     0
 10
0.0
 20
0.0
 30
0.0
  3
*Paper_Space
  1

  0
ENDBLK
  5
E
330
C
100
AcDbEntity
 67
     1
  8
0
100
AcDbBlockEnd
  0
BLOCK
  5
22
330
21
100
AcDbEntity
  8
0
100
AcDbBlockBegin
  2
_OPEN30
 70
     0
 10
0.0
 20
0.0
 30
0.0
  3
_OPEN30
  1

  0
LINE
  5
23
330
21
100
AcDbEntity
  8
0
  6
ByBlock
 62
     0
100
AcDbLine
 10
-1.0
 20
0.26794919
 30
0.0
 11
0.0
 21
0.0
 31
0.0
  0
LINE
  5
24
330
21
100
AcDbEntity
  8
0
  6
ByBlock
 62
     0
100
AcDbLine
 10
0.0
 20
0.0
 30
0.0
 11
-1.0
 21
-0.26794919
 31
0.0
  0
LINE
  5
25
330
21
100
AcDbEntity
  8
0
  6
ByBlock
 62
     0
100
AcDbLine
 10
0.0
 20
0.0
 30
0.0
 11
-1.0
 21
0.0
 31
0.0
  0
ENDBLK
  5
26
330
21
100
AcDbEntity
  8
0
100
AcDbBlockEnd
  0
BLOCK
  5
71
330
70
100
AcDbEntity
  8
0
100
AcDbBlockBegin
  2
*D1
 70
     1
 10
0.0
 20
0.0
 30
0.0
  3
*D1
  1

  0
LINE
  5
72
330
70
100
AcDbEntity
  8
SUNPO
 62
     0
370
    -2
100
AcDbLine
 10
85.6969400476006
 20
214.7282805928896
 30
0.0
 11
93.69694004760061
 21
214.7282805928896
 31
0.0
  0
LINE
  5
73
330
70
100
AcDbEntity
  8
SUNPO
 62
     0
370
    -2
100
AcDbLine
 10
85.6969400476006
 20
183.8882805928897
 30
0.0
 11
93.69694004760061
 21
183.8882805928897
 31
0.0
  0
LINE
  5
74
330
70
100
AcDbEntity
  8
SUNPO
 62
     0
370
    -2
100
AcDbLine
 10
91.6969400476006
 20
212.7282805928896
 30
0.0
 11
91.6969400476006
 21
185.8882805928898
 31
0.0
  0
INSERT
  5
75
330
70
100
AcDbEntity
  8
SUNPO
 62
     0
370
    -2
100
AcDbBlockReference
  2
_OPEN30
 10
91.6969400476006
 20
214.7282805928896
 30
0.0
 41
2.0
 42
2.0
 43
2.0
 50
90.0
  0
INSERT
  5
76
330
70
100
AcDbEntity
  8
SUNPO
 62
     0
370
    -2
100
AcDbBlockReference
  2
_OPEN30
 10
91.6969400476006
 20
183.8882805928897
 30
0.0
 41
2.0
 42
2.0
 43
2.0
 50
270.0
  0
MTEXT
  5
77
330
70
100
AcDbEntity
  8
SUNPO
 62
     0
100
AcDbMText
 10
89.94694004760058
 20
199.3082805928897
 30
0.0
 40
2.5
 41
0.0
 71
     5
 72
     1
  1
\A1;925
 11
0.0000000000000001
 21
1.0
 31
0.0
 73
     1
 44
1.0
1001
ACAD
1000
MTEXTBEGIN
1070
    73
1070
     1
1070
    44
1040
1.0
1070
    74
1070
     0
1000
MTEXTEND
  0
POINT
  5
78
330
70
100
AcDbEntity
  8
Defpoints
 62
     0
100
AcDbPoint
 10
83.69694004760061
 20
214.7282805928896
 30
0.0
  0
POINT
  5
79
330
70
100
AcDbEntity
  8
Defpoints
 62
     0
100
AcDbPoint
 10
83.69694004760061
 20
183.8882805928897
 30
0.0
  0
POINT
  5
7A
330
70
100
AcDbEntity
  8
Defpoints
 62
     0
100
AcDbPoint
 10
91.6969400476006
 20
183.8882805928897
 30
0.0
  0
ENDBLK
  5
7B
330
70
100
AcDbEntity
  8
0
100
AcDbBlockEnd
  0
BLOCK
  5
7E
330
7D
100
AcDbEntity
  8
0
100
AcDbBlockBegin
  2
*D2
 70
     1
 10
0.0
 20
0.0
 30
0.0
  3
*D2
  1

  0
LINE
  5
7F
330
7D
100
AcDbEntity
  8
SUNPO
 62
     0
370
    -2
100
AcDbLine
 10
27.9256778891052
 20
216.7204409214094
 30
0.0
 11
27.9256778891052
 21
224.7204409214094
 31
0.0
  0
LINE
  5
80
330
7D
100
AcDbEntity
  8
SUNPO
 62
     0
370
    -2
100
AcDbLine
 10
79.72567788910521
 20
216.7204409214094
 30
0.0
 11
79.72567788910521
 21
224.7204409214094
 31
0.0
  0
LINE
  5
81
330
7D
100
AcDbEntity
  8
SUNPO
 62
     0
370
    -2
100
AcDbLine
 10
29.9256778891052
 20
222.7204409214094
 30
0.0
 11
77.72567788910521
 21
222.7204409214094
 31
0.0
  0
INSERT
  5
82
330
7D
100
AcDbEntity
  8
SUNPO
 62
     0
370
    -2
100
AcDbBlockReference
  2
_OPEN30
 10
27.9256778891052
 20
222.7204409214094
 30
0.0
 41
2.0
 42
2.0
 43
2.0
 50
180.0
  0
INSERT
  5
83
330
7D
100
AcDbEntity
  8
SUNPO
 62
     0
370
    -2
100
AcDbBlockReference
  2
_OPEN30
 10
79.72567788910521
 20
222.7204409214094
 30
0.0
 41
2.0
 42
2.0
 43
2.0
  0
MTEXT
  5
84
330
7D
100
AcDbEntity
  8
SUNPO
 62
     0
100
AcDbMText
 10
53.8256778891052
 20
224.4704409214094
 30
0.0
 40
2.5
 41
0.0
 71
     5
 72
     1
  1
\A1;1554
 73
     1
 44
1.0
1001
ACAD
1000
MTEXTBEGIN
1070
    73
1070
     1
1070
    44
1040
1.0
1070
    74
1070
     0
1000
MTEXTEND
  0
POINT
  5
85
330
7D
100
AcDbEntity
  8
Defpoints
 62
     0
100
AcDbPoint
 10
27.9256778891052
 20
214.7204409214094
 30
0.0
  0
POINT
  5
86
330
7D
100
AcDbEntity
  8
Defpoints
 62
     0
100
AcDbPoint
 10
79.72567788910521
 20
214.7204409214094
 30
0.0
  0
POINT
  5
87
330
7D
100
AcDbEntity
  8
Defpoints
 62
     0
100
AcDbPoint
 10
79.72567788910521
 20
222.7204409214094
 30
0.0
  0
ENDBLK
  5
88
330
7D
100
AcDbEntity
  8
0
100
AcDbBlockEnd
  0
BLOCK
  5
62
330
61
100
AcDbEntity
  8
0
100
AcDbBlockBegin
  2
*D3
 70
     1
 10
0.0
 20
0.0
 30
0.0
  3
*D3
  1

  0
LINE
  5
63
330
61
100
AcDbEntity
  8
SUNPO
 62
     0
370
    -2
100
AcDbLine
 10
24.2794982557719
 20
216.7204409214094
 30
0.0
 11
24.2794982557719
 21
229.7204409214093
 31
0.0
  0
LINE
  5
64
330
61
100
AcDbEntity
  8
SUNPO
 62
     0
370
    -2
100
AcDbLine
 10
83.37185752243845
 20
216.7204409214094
 30
0.0
 11
83.37185752243845
 21
229.7204409214093
 31
0.0
  0
LINE
  5
65
330
61
100
AcDbEntity
  8
SUNPO
 62
     0
370
    -2
100
AcDbLine
 10
26.2794982557719
 20
227.7204409214093
 30
0.0
 11
81.37185752243846
 21
227.7204409214093
 31
0.0
  0
INSERT
  5
66
330
61
100
AcDbEntity
  8
SUNPO
 62
     0
370
    -2
100
AcDbBlockReference
  2
_OPEN30
 10
24.2794982557719
 20
227.7204409214093
 30
0.0
 41
2.0
 42
2.0
 43
2.0
 50
180.0
  0
INSERT
  5
67
330
61
100
AcDbEntity
  8
SUNPO
 62
     0
370
    -2
100
AcDbBlockReference
  2
_OPEN30
 10
83.37185752243845
 20
227.7204409214093
 30
0.0
 41
2.0
 42
2.0
 43
2.0
  0
MTEXT
  5
68
330
61
100
AcDbEntity
  8
SUNPO
 62
     0
100
AcDbMText
 10
53.82567788910518
 20
229.4704409214094
 30
0.0
 40
2.5
 41
0.0
 71
     5
 72
     1
  1
\A1;1773
 73
     1
 44
1.0
1001
ACAD
1000
MTEXTBEGIN
1070
    73
1070
     1
1070
    44
1040
1.0
1070
    74
1070
     0
1000
MTEXTEND
  0
POINT
  5
69
330
61
100
AcDbEntity
  8
Defpoints
 62
     0
100
AcDbPoint
 10
24.2794982557719
 20
214.7204409214094
 30
0.0
  0
POINT
  5
6A
330
61
100
AcDbEntity
  8
Defpoints
 62
     0
100
AcDbPoint
 10
83.37185752243845
 20
214.7204409214094
 30
0.0
  0
POINT
  5
6B
330
61
100
AcDbEntity
  8
Defpoints
 62
     0
100
AcDbPoint
 10
83.37185752243845
 20
227.7204409214093
 30
0.0
  0
ENDBLK
  5
6C
330
61
100
AcDbEntity
  8
0
100
AcDbBlockEnd
  0
BLOCK
  5
52
330
51
100
AcDbEntity
  8
0
100
AcDbBlockBegin
  2
*D4
 70
     1
 10
0.0
 20
0.0
 30
0.0
  3
*D4
  1

  0
LINE
  5
53
330
51
100
AcDbEntity
  8
SUNPO
 62
     0
370
    -2
100
AcDbLine
 10
101.4990054074208
 20
216.7204409214094
 30
0.0
 11
101.4990054074208
 21
224.7204409214094
 31
0.0
  0
LINE
  5
54
330
51
100
AcDbEntity
  8
SUNPO
 62
     0
370
    -2
100
AcDbLine
 10
104.7990054074208
 20
216.7204409214094
 30
0.0
 11
104.7990054074208
 21
224.7204409214094
 31
0.0
  0
LINE
  5
55
330
51
100
AcDbEntity
  8
SUNPO
 62
     0
370
    -2
100
AcDbLine
 10
99.49900540742083
 20
222.7204409214094
 30
0.0
 11
97.49900540742082
 21
222.7204409214094
 31
0.0
  0
LINE
  5
56
330
51
100
AcDbEntity
  8
SUNPO
 62
     0
370
    -2
100
AcDbLine
 10
106.7990054074208
 20
222.7204409214094
 30
0.0
 11
113.9656720740875
 21
222.7204409214094
 31
0.0
  0
LINE
  5
57
330
51
100
AcDbEntity
  8
SUNPO
 62
     0
370
    -2
100
AcDbLine
 10
101.4990054074208
 20
222.7204409214094
 30
0.0
 11
104.7990054074208
 21
222.7204409214094
 31
0.0
  0
INSERT
  5
58
330
51
100
AcDbEntity
  8
SUNPO
 62
     0
370
    -2
100
AcDbBlockReference
  2
_OPEN30
 10
101.4990054074208
 20
222.7204409214094
 30
0.0
 41
2.0
 42
2.0
 43
2.0
  0
INSERT
  5
59
330
51
100
AcDbEntity
  8
SUNPO
 62
     0
370
    -2
100
AcDbBlockReference
  2
_OPEN30
 10
104.7990054074208
 20
222.7204409214094
 30
0.0
 41
2.0
 42
2.0
 43
2.0
 50
180.0
  0
MTEXT
  5
5A
330
51
100
AcDbEntity
  8
SUNPO
 62
     0
100
AcDbMText
 10
111.3823387407541
 20
224.4704409214094
 30
0.0
 40
2.5
 41
0.0
 71
     5
 72
     1
  1
\A1;99
 73
     1
 44
1.0
1001
ACAD
1000
MTEXTBEGIN
1070
    73
1070
     1
1070
    44
1040
1.0
1070
    74
1070
     0
1000
MTEXTEND
  0
POINT
  5
5B
330
51
100
AcDbEntity
  8
Defpoints
 62
     0
100
AcDbPoint
 10
101.4990054074208
 20
214.7204409214094
 30
0.0
  0
POINT
  5
5D
330
51
100
AcDbEntity
  8
Defpoints
 62
     0
100
AcDbPoint
 10
104.7990054074208
 20
214.7204409214094
 30
0.0
  0
POINT
  5
5E
330
51
100
AcDbEntity
  8
Defpoints
 62
     0
100
AcDbPoint
 10
104.7990054074208
 20
222.7204409214094
 30
0.0
  0
ENDBLK
  5
5F
330
51
100
AcDbEntity
  8
0
100
AcDbBlockEnd
  0
BLOCK
  5
275
330
26B
100
AcDbEntity
  8
0
100
AcDbBlockBegin
  2
*D5
 70
     1
 10
0.0
 20
0.0
 30
0.0
  3
*D5
  1

  0
LINE
  5
26C
330
26B
100
AcDbEntity
  8
SUNPO
 62
     0
370
    -2
100
AcDbLine
 10
-35.54025506418378
 20
36.59751656120813
 30
0.0
 11
-35.54025506418378
 21
44.59751656120812
 31
0.0
  0
LINE
  5
26D
330
26B
100
AcDbEntity
  8
SUNPO
 62
     0
370
    -2
100
AcDbLine
 10
16.25974493581623
 20
36.59751656120813
 30
0.0
 11
16.25974493581623
 21
44.59751656120812
 31
0.0
  0
LINE
  5
26E
330
26B
100
AcDbEntity
  8
SUNPO
 62
     0
370
    -2
100
AcDbLine
 10
-33.54025506418378
 20
42.59751656120812
 30
0.0
 11
14.25974493581623
 21
42.59751656120812
 31
0.0
  0
INSERT
  5
26F
330
26B
100
AcDbEntity
  8
SUNPO
 62
     0
370
    -2
100
AcDbBlockReference
  2
_OPEN30
 10
-35.54025506418378
 20
42.59751656120812
 30
0.0
 41
2.0
 42
2.0
 43
2.0
 50
180.0
  0
INSERT
  5
270
330
26B
100
AcDbEntity
  8
SUNPO
 62
     0
370
    -2
100
AcDbBlockReference
  2
_OPEN30
 10
16.25974493581623
 20
42.59751656120812
 30
0.0
 41
2.0
 42
2.0
 43
2.0
  0
MTEXT
  5
271
330
26B
100
AcDbEntity
  8
SUNPO
 62
     0
100
AcDbMText
 10
-9.640255064183776
 20
44.34751656120812
 30
0.0
 40
2.5
 41
0.0
 71
     5
 72
     1
  1
\A1;1554
 73
     1
 44
1.0
1001
ACAD
1000
MTEXTBEGIN
1070
    73
1070
     1
1070
    44
1040
1.0
1070
    74
1070
     0
1000
MTEXTEND
  0
POINT
  5
272
330
26B
100
AcDbEntity
  8
Defpoints
 62
     0
100
AcDbPoint
 10
-35.54025506418378
 20
34.59751656120813
 30
0.0
  0
POINT
  5
273
330
26B
100
AcDbEntity
  8
Defpoints
 62
     0
100
AcDbPoint
 10
16.25974493581623
 20
34.59751656120813
 30
0.0
  0
POINT
  5
274
330
26B
100
AcDbEntity
  8
Defpoints
 62
     0
100
AcDbPoint
 10
16.25974493581623
 20
42.59751656120812
 30
0.0
  0
ENDBLK
  5
276
330
26B
100
AcDbEntity
  8
0
100
AcDbBlockEnd
  0
BLOCK
  5
281
330
277
100
AcDbEntity
  8
0
100
AcDbBlockBegin
  2
*D6
 70
     1
 10
0.0
 20
0.0
 30
0.0
  3
*D6
  1

  0
LINE
  5
278
330
277
100
AcDbEntity
  8
SUNPO
 62
     0
370
    -2
100
AcDbLine
 10
22.23100709431162
 20
34.60535623268828
 30
0.0
 11
30.23100709431163
 21
34.60535623268828
 31
0.0
  0
LINE
  5
279
330
277
100
AcDbEntity
  8
SUNPO
 62
     0
370
    -2
100
AcDbLine
 10
22.23100709431162
 20
3.765356232688474
 30
0.0
 11
30.23100709431162
 21
3.765356232688472
 31
0.0
  0
LINE
  5
27A
330
277
100
AcDbEntity
  8
SUNPO
 62
     0
370
    -2
100
AcDbLine
 10
28.23100709431163
 20
32.60535623268828
 30
0.0
 11
28.23100709431162
 21
5.765356232688472
 31
0.0
  0
INSERT
  5
27B
330
277
100
AcDbEntity
  8
SUNPO
 62
     0
370
    -2
100
AcDbBlockReference
  2
_OPEN30
 10
28.23100709431163
 20
34.60535623268828
 30
0.0
 41
2.0
 42
2.0
 43
2.0
 50
90.0
  0
INSERT
  5
27C
330
277
100
AcDbEntity
  8
SUNPO
 62
     0
370
    -2
100
AcDbBlockReference
  2
_OPEN30
 10
28.23100709431162
 20
3.765356232688473
 30
0.0
 41
2.0
 42
2.0
 43
2.0
 50
270.0
  0
MTEXT
  5
27D
330
277
100
AcDbEntity
  8
SUNPO
 62
     0
100
AcDbMText
 10
26.48100709431162
 20
19.18535623268838
 30
0.0
 40
2.5
 41
0.0
 71
     5
 72
     1
  1
\A1;925
 11
0.0000000000000001
 21
1.0
 31
0.0
 73
     1
 44
1.0
1001
ACAD
1000
MTEXTBEGIN
1070
    73
1070
     1
1070
    44
1040
1.0
1070
    74
1070
     0
1000
MTEXTEND
  0
POINT
  5
27E
330
277
100
AcDbEntity
  8
Defpoints
 62
     0
100
AcDbPoint
 10
20.23100709431162
 20
34.60535623268828
 30
0.0
  0
POINT
  5
27F
330
277
100
AcDbEntity
  8
Defpoints
 62
     0
100
AcDbPoint
 10
20.23100709431162
 20
3.765356232688475
 30
0.0
  0
POINT
  5
280
330
277
100
AcDbEntity
  8
Defpoints
 62
     0
100
AcDbPoint
 10
28.23100709431162
 20
3.765356232688473
 30
0.0
  0
ENDBLK
  5
282
330
277
100
AcDbEntity
  8
0
100
AcDbBlockEnd
  0
BLOCK
  5
28D
330
283
100
AcDbEntity
  8
0
100
AcDbBlockBegin
  2
*D7
 70
     1
 10
0.0
 20
0.0
 30
0.0
  3
*D7
  1

  0
LINE
  5
284
330
283
100
AcDbEntity
  8
SUNPO
 62
     0
370
    -2
100
AcDbLine
 10
-39.18643469751709
 20
36.59751656120815
 30
0.0
 11
-39.18643469751709
 21
49.59751656120807
 31
0.0
  0
LINE
  5
285
330
283
100
AcDbEntity
  8
SUNPO
 62
     0
370
    -2
100
AcDbLine
 10
19.90592456914948
 20
36.59751656120813
 30
0.0
 11
19.90592456914948
 21
49.59751656120807
 31
0.0
  0
LINE
  5
286
330
283
100
AcDbEntity
  8
SUNPO
 62
     0
370
    -2
100
AcDbLine
 10
-37.18643469751709
 20
47.59751656120807
 30
0.0
 11
17.90592456914948
 21
47.59751656120807
 31
0.0
  0
INSERT
  5
287
330
283
100
AcDbEntity
  8
SUNPO
 62
     0
370
    -2
100
AcDbBlockReference
  2
_OPEN30
 10
-39.18643469751709
 20
47.59751656120807
 30
0.0
 41
2.0
 42
2.0
 43
2.0
 50
180.0
  0
INSERT
  5
288
330
283
100
AcDbEntity
  8
SUNPO
 62
     0
370
    -2
100
AcDbBlockReference
  2
_OPEN30
 10
19.90592456914948
 20
47.59751656120807
 30
0.0
 41
2.0
 42
2.0
 43
2.0
  0
MTEXT
  5
289
330
283
100
AcDbEntity
  8
SUNPO
 62
     0
100
AcDbMText
 10
-9.640255064183804
 20
49.34751656120806
 30
0.0
 40
2.5
 41
0.0
 71
     5
 72
     1
  1
\A1;1773
 73
     1
 44
1.0
1001
ACAD
1000
MTEXTBEGIN
1070
    73
1070
     1
1070
    44
1040
1.0
1070
    74
1070
     0
1000
MTEXTEND
  0
POINT
  5
28A
330
283
100
AcDbEntity
  8
Defpoints
 62
     0
100
AcDbPoint
 10
-39.18643469751709
 20
34.59751656120815
 30
0.0
  0
POINT
  5
28B
330
283
100
AcDbEntity
  8
Defpoints
 62
     0
100
AcDbPoint
 10
19.90592456914948
 20
34.59751656120813
 30
0.0
  0
POINT
  5
28C
330
283
100
AcDbEntity
  8
Defpoints
 62
     0
100
AcDbPoint
 10
19.90592456914948
 20
47.59751656120807
 30
0.0
  0
ENDBLK
  5
28E
330
283
100
AcDbEntity
  8
0
100
AcDbBlockEnd
  0
BLOCK
  5
29B
330
28F
100
AcDbEntity
  8
0
100
AcDbBlockBegin
  2
*D8
 70
     1
 10
0.0
 20
0.0
 30
0.0
  3
*D8
  1

  0
LINE
  5
290
330
28F
100
AcDbEntity
  8
SUNPO
 62
     0
370
    -2
100
AcDbLine
 10
38.03307245413184
 20
36.59751656120807
 30
0.0
 11
38.03307245413184
 21
44.59751656120812
 31
0.0
  0
LINE
  5
291
330
28F
100
AcDbEntity
  8
SUNPO
 62
     0
370
    -2
100
AcDbLine
 10
41.33307245413184
 20
36.59751656120813
 30
0.0
 11
41.33307245413184
 21
44.59751656120812
 31
0.0
  0
LINE
  5
292
330
28F
100
AcDbEntity
  8
SUNPO
 62
     0
370
    -2
100
AcDbLine
 10
36.03307245413184
 20
42.59751656120812
 30
0.0
 11
34.03307245413184
 21
42.59751656120812
 31
0.0
  0
LINE
  5
293
330
28F
100
AcDbEntity
  8
SUNPO
 62
     0
370
    -2
100
AcDbLine
 10
43.33307245413183
 20
42.59751656120812
 30
0.0
 11
50.4997391207985
 21
42.59751656120812
 31
0.0
  0
LINE
  5
294
330
28F
100
AcDbEntity
  8
SUNPO
 62
     0
370
    -2
100
AcDbLine
 10
38.03307245413184
 20
42.59751656120812
 30
0.0
 11
41.33307245413184
 21
42.59751656120812
 31
0.0
  0
INSERT
  5
295
330
28F
100
AcDbEntity
  8
SUNPO
 62
     0
370
    -2
100
AcDbBlockReference
  2
_OPEN30
 10
38.03307245413184
 20
42.59751656120812
 30
0.0
 41
2.0
 42
2.0
 43
2.0
  0
INSERT
  5
296
330
28F
100
AcDbEntity
  8
SUNPO
 62
     0
370
    -2
100
AcDbBlockReference
  2
_OPEN30
 10
41.33307245413184
 20
42.59751656120812
 30
0.0
 41
2.0
 42
2.0
 43
2.0
 50
180.0
  0
MTEXT
  5
297
330
28F
100
AcDbEntity
  8
SUNPO
 62
     0
100
AcDbMText
 10
47.91640578746517
 20
44.34751656120812
 30
0.0
 40
2.5
 41
0.0
 71
     5
 72
     1
  1
\A1;99
 73
     1
 44
1.0
1001
ACAD
1000
MTEXTBEGIN
1070
    73
1070
     1
1070
    44
1040
1.0
1070
    74
1070
     0
1000
MTEXTEND
  0
POINT
  5
298
330
28F
100
AcDbEntity
  8
Defpoints
 62
     0
100
AcDbPoint
 10
38.03307245413184
 20
34.59751656120807
 30
0.0
  0
POINT
  5
299
330
28F
100
AcDbEntity
  8
Defpoints
 62
     0
100
AcDbPoint
 10
41.33307245413184
 20
34.59751656120813
 30
0.0
  0
POINT
  5
29A
330
28F
100
AcDbEntity
  8
Defpoints
 62
     0
100
AcDbPoint
 10
41.33307245413184
 20
42.59751656120812
 30
0.0
  0
ENDBLK
  5
29C
330
28F
100
AcDbEntity
  8
0
100
AcDbBlockEnd
  0
ENDSEC
  0
SECTION
  2
ENTITIES
  0
TEXT
  5
2F
330
2
100
AcDbEntity
  8
MOJI1
100
AcDbText
 10
-58.46593300924761
 20
-32.62208923526657
 30
0.0
 40
3.0
  1
階調数
100
AcDbText
  0
TEXT
  5
31
330
2
100
AcDbEntity
  8
MOJI1
100
AcDbText
 10
-58.46593300924761
 20
-27.62208923526657
 30
0.0
 40
3.0
  1
コントラスト
100
AcDbText
  0
LINE
  5
32
330
2
100
AcDbEntity
  8
WAKU
 62
     1
100
AcDbLine
 10
-60.96593300924761
 20
-33.62208923526657
 30
0.0
 11
64.03406699075216
 21
-33.62208923526657
 31
0.0
  0
LINE
  5
34
330
2
100
AcDbEntity
  8
WAKU
 62
     1
100
AcDbLine
 10
-60.96593300924761
 20
-28.62208923526657
 30
0.0
 11
64.03406699075216
 21
-28.62208923526657
 31
0.0
  0
TEXT
  5
35
330
2
100
AcDbEntity
  8
MOJI1
100
AcDbText
 10
-58.46593300924761
 20
-7.622089235266571
 30
0.0
 40
3.0
  1
電  源
100
AcDbText
  0
TEXT
  5
36
330
2
100
AcDbEntity
  8
MOJI1
100
AcDbText
 10
-58.46593300924761
 20
-12.62208923526657
 30
0.0
 40
3.0
  1
消費電力
100
AcDbText
  0
TEXT
  5
37
330
2
100
AcDbEntity
  8
MOJI1
100
AcDbText
 10
-58.46593300924761
 20
-17.62208923526657
 30
0.0
 40
3.0
  1
画面サイズ
100
AcDbText
  0
TEXT
  5
38
330
2
100
AcDbEntity
  8
MOJI1
100
AcDbText
 10
-19.4659330092476
 20
-12.62208923526657
 30
0.0
 40
3.0
  1
７３５Ｗ
100
AcDbText
  0
TEXT
  5
39
330
2
100
AcDbEntity
  8
MOJI1
100
AcDbText
 10
-19.4659330092476
 20
-17.62208923526657
 30
0.0
 40
3.0
  1
６５Ｖ型（１６：９）
100
AcDbText
  0
TEXT
  5
3A
330
2
100
AcDbEntity
  8
MOJI1
100
AcDbText
 10
-19.4659330092476
 20
-7.622089235266571
 30
0.0
 40
3.0
  1
ＡＣ１００Ｖ±１０％　５０Ｈｚ／６０Ｈｚ
100
AcDbText
  0
TEXT
  5
3B
330
2
100
AcDbEntity
  8
MOJI1
100
AcDbText
 10
-58.46593300924761
 20
-42.62208923526657
 30
0.0
 40
3.0
  1
接続端子
100
AcDbText
  0
TEXT
  5
3C
330
2
100
AcDbEntity
  8
MOJI1
100
AcDbText
 10
-58.46593300924761
 20
-37.62208923526657
 30
0.0
 40
3.0
  1
音声最大出力
100
AcDbText
  0
TEXT
  5
3D
330
2
100
AcDbEntity
  8
MOJI1
100
AcDbText
 10
-19.4659330092476
 20
-37.62208923526657
 30
0.0
 40
3.0
  1
２０Ｗ（１０Ｗ＋１０Ｗ）
100
AcDbText
  0
TEXT
  5
3E
330
2
100
AcDbEntity
  8
MOJI1
100
AcDbText
 10
-19.4659330092476
 20
-42.62208923526657
 30
0.0
 40
3.0
  1
ＤＶＩ－Ｄ／コンポーネントビデオ／ＰＣ
100
AcDbText
  0
TEXT
  5
3F
330
2
100
AcDbEntity
  8
MOJI1
100
AcDbText
 10
-19.4659330092476
 20
-22.62208923526657
 30
0.0
 40
3.0
  1
水平１９２０×垂直１０８０　画素
100
AcDbText
  0
LINE
  5
40
330
2
100
AcDbEntity
  8
WAKU
 62
     4
100
AcDbLine
 10
-20.96593300924784
 20
-3.622089235266571
 30
0.0
 11
-20.96593300924784
 21
-48.62208923526657
 31
0.0
  0
TEXT
  5
41
330
2
100
AcDbEntity
  8
MOJI1
100
AcDbText
 10
-58.46593300924761
 20
-22.62208923526657
 30
0.0
 40
3.0
  1
画素数
100
AcDbText
  0
LINE
  5
42
330
2
100
AcDbEntity
  8
WAKU
 62
     4
100
AcDbLine
 10
64.03406699075216
 20
-3.622089235266571
 30
0.0
 11
64.03406699075216
 21
-48.62208923526657
 31
0.0
  0
LINE
  5
43
330
2
100
AcDbEntity
  8
WAKU
 62
     4
100
AcDbLine
 10
-60.96593300924784
 20
-3.622089235266571
 30
0.0
 11
-60.96593300924761
 21
-48.62208923526657
 31
0.0
  0
LINE
  5
44
330
2
100
AcDbEntity
  8
WAKU
 62
     4
100
AcDbLine
 10
64.03406699075216
 20
-48.62208923526657
 30
0.0
 11
-60.96593300924761
 21
-48.62208923526657
 31
0.0
  0
LINE
  5
45
330
2
100
AcDbEntity
  8
WAKU
 62
     1
100
AcDbLine
 10
-60.96593300924761
 20
-43.62208923526657
 30
0.0
 11
64.03406699075216
 21
-43.62208923526657
 31
0.0
  0
LINE
  5
46
330
2
100
AcDbEntity
  8
WAKU
 62
     1
100
AcDbLine
 10
-60.96593300924761
 20
-38.62208923526657
 30
0.0
 11
64.03406699075216
 21
-38.62208923526657
 31
0.0
  0
LINE
  5
47
330
2
100
AcDbEntity
  8
WAKU
 62
     1
100
AcDbLine
 10
-60.96593300924761
 20
-18.62208923526657
 30
0.0
 11
64.03406699075216
 21
-18.62208923526657
 31
0.0
  0
LINE
  5
48
330
2
100
AcDbEntity
  8
WAKU
 62
     1
100
AcDbLine
 10
-60.96593300924761
 20
-8.622089235266571
 30
0.0
 11
64.03406699075216
 21
-8.622089235266571
 31
0.0
  0
LINE
  5
49
330
2
100
AcDbEntity
  8
WAKU
 62
     4
100
AcDbLine
 10
-60.96593300924761
 20
-3.622089235266571
 30
0.0
 11
64.03406699075216
 21
-3.622089235266571
 31
0.0
  0
LINE
  5
4A
330
2
100
AcDbEntity
  8
WAKU
 62
     1
100
AcDbLine
 10
-60.96593300924761
 20
-23.62208923526657
 30
0.0
 11
64.03406699075216
 21
-23.62208923526657
 31
0.0
  0
LINE
  5
4B
330
2
100
AcDbEntity
  8
WAKU
 62
     1
100
AcDbLine
 10
-60.96593300924761
 20
-13.62208923526657
 30
0.0
 11
64.03406699075216
 21
-13.62208923526657
 31
0.0
  0
TEXT
  5
4C
330
2
100
AcDbEntity
  8
MOJI1
100
AcDbText
 10
-19.4659330092476
 20
-32.62208923526657
 30
0.0
 40
3.0
  1
５１２０階調（相当）
100
AcDbText
  0
TEXT
  5
4D
330
2
100
AcDbEntity
  8
MOJI1
100
AcDbText
 10
-19.4659330092476
 20
-27.62208923526657
 30
0.0
 40
3.0
  1
３００００：１
100
AcDbText
  0
TEXT
  5
4E
330
2
100
AcDbEntity
  8
MOJI1
100
AcDbText
 10
-19.4659330092476
 20
-47.62208923526657
 30
0.0
 40
3.0
  1
外部スピーカ／シリアル
100
AcDbText
  0
DIMENSION
  5
4F
330
2
100
AcDbEntity
  8
SUNPO
100
AcDbDimension
  2
*D8
 10
41.33307245413184
 20
42.59751656120812
 30
0.0
 11
47.91640578746517
 21
44.34751656120812
 31
0.0
 70
    33
  1
99
 71
     5
 42
3.299999999999997
  3
STANDARD
100
AcDbAlignedDimension
 13
38.03307245413184
 23
34.59751656120807
 33
0.0
 14
41.33307245413184
 24
34.59751656120813
 34
0.0
1001
ACAD
1000
DSTYLE
1002
{
1070
    40
1040
1.0
1070
   140
1040
2.5
1070
   147
1040
0.5
1070
   172
1070
     1
1070
   279
1070
     0
1070
   288
1070
     0
1002
}
  0
DIMENSION
  5
60
330
2
100
AcDbEntity
  8
SUNPO
100
AcDbDimension
  2
*D7
 10
19.90592456914948
 20
47.59751656120807
 30
0.0
 11
-9.640255064183804
 21
49.34751656120806
 31
0.0
 70
    33
  1
1773
 71
     5
 42
59.09235926666656
  3
STANDARD
100
AcDbAlignedDimension
 13
-39.18643469751709
 23
34.59751656120815
 33
0.0
 14
19.90592456914948
 24
34.59751656120813
 34
0.0
1001
ACAD
1000
DSTYLE
1002
{
1070
    40
1040
1.0
1070
   140
1040
2.5
1070
   147
1040
0.5
1070
   172
1070
     1
1070
   279
1070
     0
1070
   288
1070
     0
1002
}
  0
LINE
  5
6D
330
2
100
AcDbEntity
  8
GAIKEI
  6
Continuous
 62
     7
100
AcDbLine
 10
40.4964025207986
 20
33.31879485174295
 30
0.0
 11
40.49640252079848
 21
33.55361679935498
 31
0.0
  0
DIMENSION
  5
6F
330
2
100
AcDbEntity
  8
SUNPO
100
AcDbDimension
  2
*D6
 10
28.23100709431162
 20
3.765356232688473
 30
0.0
 11
26.48100709431162
 21
19.18535623268838
 31
0.0
 70
    33
  1
925
 71
     5
 42
30.83999999999981
  3
STANDARD
100
AcDbAlignedDimension
 13
20.23100709431162
 23
34.60535623268828
 33
0.0
 14
20.23100709431162
 24
3.765356232688475
 34
0.0
1001
ACAD
1000
DSTYLE
1002
{
1070
    40
1040
1.0
1070
   140
1040
2.5
1070
   147
1040
0.5
1070
   172
1070
     1
1070
   279
1070
     0
1070
   288
1070
     0
1002
}
  0
DIMENSION
  5
7C
330
2
100
AcDbEntity
  8
SUNPO
100
AcDbDimension
  2
*D5
 10
16.25974493581623
 20
42.59751656120812
 30
0.0
 11
-9.640255064183776
 21
44.34751656120812
 31
0.0
 70
    33
  1
1554
 71
     5
 42
51.80000000000001
  3
STANDARD
100
AcDbAlignedDimension
 13
-35.54025506418378
 23
34.59751656120813
 33
0.0
 14
16.25974493581623
 24
34.59751656120813
 34
0.0
1001
ACAD
1000
DSTYLE
1002
{
1070
    40
1040
1.0
1070
   140
1040
2.5
1070
   147
1040
0.5
1070
   172
1070
     1
1070
   279
1070
     0
1070
   288
1070
     0
1002
}
  0
LINE
  5
89
330
2
100
AcDbEntity
  8
GAIKEI
  6
Continuous
 62
     1
100
AcDbLine
 10
-35.41721396610564
 20
3.76575406409978
 30
0.0
 11
-35.12512089751715
 21
4.057847132688266
 31
0.0
  0
LINE
  5
8A
330
2
100
AcDbEntity
  8
GAIKEI
  6
Continuous
 62
     1
100
AcDbLine
 10
-35.24776413085039
 20
4.180490432688372
 30
0.0
 11
-35.53985723277231
 21
3.888397330766281
 31
0.0
  0
LINE
  5
8B
330
2
100
AcDbEntity
  8
GAIKEI
  6
Continuous
 62
     1
100
AcDbLine
 10
16.13670383773819
 20
3.76575406409978
 30
0.0
 11
15.8446107691496
 21
4.057847132688209
 31
0.0
  0
LINE
  5
8C
330
2
100
AcDbEntity
  8
GAIKEI
  6
Continuous
 62
     1
100
AcDbLine
 10
15.96725400248283
 20
4.180490432688316
 30
0.0
 11
16.25934710440475
 21
3.888397330766338
 31
0.0
  0
LINE
  5
8D
330
2
100
AcDbEntity
  8
GAIKEI
  6
Continuous
 62
     1
100
AcDbLine
 10
-35.53985723628813
 20
34.48231508919941
 30
0.0
 11
-35.24776413085039
 21
34.19022203579061
 31
0.0
  0
LINE
  5
8E
330
2
100
AcDbEntity
  8
GAIKEI
  6
Continuous
 62
     1
100
AcDbLine
 10
-35.12512086108143
 20
34.312865299355
 30
0.0
 11
-35.41721401151648
 21
34.60495839776104
 31
0.0
  0
LINE
  5
8F
330
2
100
AcDbEntity
  8
GAIKEI
  6
Continuous
 62
     1
100
AcDbLine
 10
16.25934710792057
 20
34.48231508919929
 30
0.0
 11
15.96725400248283
 21
34.19022203579061
 31
0.0
  0
LINE
  5
90
330
2
100
AcDbEntity
  8
GAIKEI
  6
Continuous
 62
     1
100
AcDbLine
 10
15.84461073271399
 20
34.31286529935494
 30
0.0
 11
16.13670388314892
 21
34.60495839776104
 31
0.0
  0
LINE
  5
91
330
2
100
AcDbEntity
  8
GAIKEI
  6
Continuous
 62
     1
100
AcDbLine
 10
-35.24776413085039
 20
4.163073799355004
 30
0.0
 11
-35.24776413085039
 21
34.20763866602164
 31
0.0
  0
LINE
  5
92
330
2
100
AcDbEntity
  8
GAIKEI
  6
Continuous
 62
     1
100
AcDbLine
 10
15.96725400248283
 20
4.163073799355004
 30
0.0
 11
15.96725400248283
 21
34.20763866602164
 31
0.0
  0
LINE
  5
93
330
2
100
AcDbEntity
  8
GAIKEI
  6
Continuous
 62
     1
100
AcDbLine
 10
-34.45775506418375
 20
4.312856232688375
 30
0.0
 11
-34.3827550641837
 21
4.312856232688375
 31
0.0
  0
LINE
  5
94
330
2
100
AcDbEntity
  8
GAIKEI
  6
Continuous
 62
     1
100
AcDbLine
 10
-34.45775506418375
 20
4.237856232688329
 30
0.0
 11
-34.45775506418375
 21
4.312856232688375
 31
0.0
  0
LINE
  5
95
330
2
100
AcDbEntity
  8
GAIKEI
  6
Continuous
 62
     1
100
AcDbLine
 10
-34.3827550641837
 20
4.237856232688329
 30
0.0
 11
-34.45775506418375
 21
4.237856232688329
 31
0.0
  0
LINE
  5
96
330
2
100
AcDbEntity
  8
GAIKEI
  6
Continuous
 62
     1
100
AcDbLine
 10
-34.3827550641837
 20
4.312856232688375
 30
0.0
 11
-34.3827550641837
 21
4.237856232688329
 31
0.0
  0
LINE
  5
97
330
2
100
AcDbEntity
  8
GAIKEI
  6
Continuous
 62
     1
100
AcDbLine
 10
-33.39275506418369
 20
4.374522899354985
 30
0.0
 11
-33.39275506418369
 21
4.176189566021605
 31
0.0
  0
LINE
  5
98
330
2
100
AcDbEntity
  8
GAIKEI
  6
Continuous
 62
     1
100
AcDbLine
 10
-33.37608839751704
 20
4.159522899354954
 30
0.0
 11
-33.17775506418377
 21
4.159522899354954
 31
0.0
  0
LINE
  5
99
330
2
100
AcDbEntity
  8
GAIKEI
  6
Continuous
 62
     1
100
AcDbLine
 10
-33.16108839751712
 20
4.176189566021605
 30
0.0
 11
-33.16108839751712
 21
4.374522899354985
 31
0.0
  0
LINE
  5
9A
330
2
100
AcDbEntity
  8
GAIKEI
  6
Continuous
 62
     1
100
AcDbLine
 10
-33.17775506418377
 20
4.391189566021637
 30
0.0
 11
-33.37608839751704
 21
4.391189566021637
 31
0.0
  0
LINE
  5
9B
330
2
100
AcDbEntity
  8
GAIKEI
  6
Continuous
 62
     1
100
AcDbLine
 10
-35.14253749751708
 20
4.057847132688266
 30
0.0
 11
15.86202736914958
 21
4.057847132688266
 31
0.0
  0
LINE
  5
9C
330
2
100
AcDbEntity
  8
GAIKEI
  6
Continuous
 62
     1
100
AcDbLine
 10
15.86202736914958
 20
34.312865299355
 30
0.0
 11
-35.14253749751708
 21
34.312865299355
 31
0.0
  0
LINE
  5
9D
330
2
100
AcDbEntity
  8
GAIKEI
  6
Continuous
 62
     1
100
AcDbLine
 10
14.94688540248285
 20
33.17651676602168
 30
0.0
 11
14.94688540248285
 21
5.194195666021641
 31
0.0
  0
LINE
  5
9E
330
2
100
AcDbEntity
  8
GAIKEI
  6
Continuous
 62
     1
100
AcDbLine
 10
-34.13141563085043
 20
33.27249666602171
 30
0.0
 11
14.85090550248287
 21
33.27249666602171
 31
0.0
  0
LINE
  5
9F
330
2
100
AcDbEntity
  8
GAIKEI
  6
Continuous
 62
     1
100
AcDbLine
 10
-34.2273955308504
 20
5.194195666021641
 30
0.0
 11
-34.2273955308504
 21
33.17651676602168
 31
0.0
  0
LINE
  5
A0
330
2
100
AcDbEntity
  8
GAIKEI
  6
Continuous
 62
     1
100
AcDbLine
 10
14.85090550248287
 20
5.098215766021667
 30
0.0
 11
-34.13141563085043
 21
5.098215766021667
 31
0.0
  0
LINE
  5
A1
330
2
100
AcDbEntity
  8
GAIKEI
  6
Continuous
 62
     1
100
AcDbLine
 10
-34.1569217308504
 20
33.10202289935501
 30
0.0
 11
-34.1569217308504
 21
5.268689566021691
 31
0.0
  0
LINE
  5
A2
330
2
100
AcDbEntity
  8
GAIKEI
  6
Continuous
 62
     1
100
AcDbLine
 10
14.77641160248288
 20
5.168689566021669
 30
0.0
 11
-34.05692173085038
 21
5.168689566021669
 31
0.0
  0
LINE
  5
A3
330
2
100
AcDbEntity
  8
GAIKEI
  6
Continuous
 62
     1
100
AcDbLine
 10
-34.05692173085038
 20
33.20202289935497
 30
0.0
 11
14.77641160248288
 21
33.20202289935497
 31
0.0
  0
LINE
  5
A4
330
2
100
AcDbEntity
  8
GAIKEI
  6
Continuous
 62
     1
100
AcDbLine
 10
14.8764116024829
 20
33.10202289935501
 30
0.0
 11
14.8764116024829
 21
5.268689566021691
 31
0.0
  0
LINE
  5
A5
330
2
100
AcDbEntity
  8
GAIKEI
  6
Continuous
 62
     1
100
AcDbLine
 10
-35.34558769249981
 20
34.54122326602169
 30
0.0
 11
16.06510516447201
 21
34.54122326602169
 31
0.0
  0
LINE
  5
A6
330
2
100
AcDbEntity
  8
GAIKEI
  6
Continuous
 62
     1
100
AcDbLine
 10
16.19561196914958
 20
34.41072269619122
 30
0.0
 11
16.19561196914958
 21
3.959987436075834
 31
0.0
  0
LINE
  5
A7
330
2
100
AcDbEntity
  8
GAIKEI
  6
Continuous
 62
     1
100
AcDbLine
 10
-35.47612209751708
 20
34.41070842763366
 30
0.0
 11
-35.47612209751708
 21
3.959995271574314
 31
0.0
  0
LINE
  5
A8
330
2
100
AcDbEntity
  8
GAIKEI
  6
Continuous
 62
     1
100
AcDbLine
 10
16.06511084884147
 20
3.829489166021687
 30
0.0
 11
-35.34562059576513
 21
3.829489166021687
 31
0.0
  0
LINE
  5
A9
330
2
100
AcDbEntity
  8
GAIKEI
  6
Continuous
 62
     7
100
AcDbLine
 10
-35.54025506418373
 20
34.47202289935495
 30
0.0
 11
-35.54025506418373
 21
3.898689566021687
 31
0.0
  0
LINE
  5
AA
330
2
100
AcDbEntity
  8
GAIKEI
  6
Continuous
 62
     7
100
AcDbLine
 10
16.25974493581623
 20
34.47202289935495
 30
0.0
 11
16.25974493581623
 21
3.898689566021687
 31
0.0
  0
LINE
  5
AB
330
2
100
AcDbEntity
  8
GAIKEI
  6
Continuous
 62
     7
100
AcDbLine
 10
16.1264116024829
 20
34.60535623268828
 30
0.0
 11
-35.4069217308504
 21
34.60535623268828
 31
0.0
  0
LINE
  5
AC
330
2
100
AcDbEntity
  8
GAIKEI
  6
Continuous
 62
     7
100
AcDbLine
 10
16.1264116024829
 20
3.765356232688418
 30
0.0
 11
-35.4069217308504
 21
3.765356232688418
 31
0.0
  0
ARC
  5
AD
330
2
100
AcDbEntity
  8
GAIKEI
  6
Continuous
 62
     1
100
AcDbCircle
 10
-33.37608839751704
 20
4.176189566021605
 30
0.0
 40
0.0166666666666667
100
AcDbArc
 50
180.0
 51
270.0
  0
ARC
  5
AE
330
2
100
AcDbEntity
  8
GAIKEI
  6
Continuous
 62
     1
100
AcDbCircle
 10
-33.17775506418377
 20
4.176189566021605
 30
0.0
 40
0.0166666666666667
100
AcDbArc
 50
270.0
 51
0.0
  0
ARC
  5
AF
330
2
100
AcDbEntity
  8
GAIKEI
  6
Continuous
 62
     1
100
AcDbCircle
 10
-33.17775506418377
 20
4.374522899354985
 30
0.0
 40
0.0166666666666667
100
AcDbArc
 50
0.0
 51
90.0
  0
ARC
  5
B0
330
2
100
AcDbEntity
  8
GAIKEI
  6
Continuous
 62
     1
100
AcDbCircle
 10
-33.37608839751704
 20
4.374522899354985
 30
0.0
 40
0.0166666666666667
100
AcDbArc
 50
90.0
 51
180.0
  0
ARC
  5
B1
330
2
100
AcDbEntity
  8
GAIKEI
  6
Continuous
 62
     7
100
AcDbCircle
 10
16.1264116024829
 20
34.47202289935495
 30
0.0
 40
0.1333333333333333
100
AcDbArc
 50
0.0
 51
90.0
  0
ARC
  5
B2
330
2
100
AcDbEntity
  8
GAIKEI
  6
Continuous
 62
     7
100
AcDbCircle
 10
16.1264116024829
 20
3.898689566021687
 30
0.0
 40
0.1333333333333333
100
AcDbArc
 50
270.0
 51
0.0
  0
ARC
  5
B3
330
2
100
AcDbEntity
  8
GAIKEI
  6
Continuous
 62
     7
100
AcDbCircle
 10
-35.4069217308504
 20
3.898689566021687
 30
0.0
 40
0.1333333333333333
100
AcDbArc
 50
180.0
 51
270.0
  0
ARC
  5
B4
330
2
100
AcDbEntity
  8
GAIKEI
  6
Continuous
 62
     7
100
AcDbCircle
 10
-35.4069217308504
 20
34.47202289935495
 30
0.0
 40
0.1333333333333333
100
AcDbArc
 50
90.0
 51
180.0
  0
SPLINE
  5
B5
330
2
100
AcDbEntity
  8
GAIKEI
  6
Continuous
 62
     1
100
AcDbSpline
210
0.0
220
0.0
230
1.0
 70
     8
 71
     3
 72
    25
 73
    21
 74
    19
 42
0.0000000001
 43
0.0000000001
 44
0.000001
 12
-0.999999999016644
 22
0.000044347631279
 32
0.0
 13
0.0000708084285261
 23
0.9999999974930833
 33
0.0
 40
0.0
 40
0.0
 40
0.0
 40
0.0
 40
0.0088869517848879
 40
0.0177742600813555
 40
0.0269057304500317
 40
0.0360368514793826
 40
0.0449285707304726
 40
0.0538199683672416
 40
0.0629877062367599
 40
0.0721552067160557
 40
0.0807483311110644
 40
0.0893414341138752
 40
0.0981958517392373
 40
0.1070504338575948
 40
0.1154692112201482
 40
0.1238882302052375
 40
0.1325343899778034
 40
0.1411808491612361
 40
0.1534060190899119
 40
0.1657846095707053
 40
0.1657846095707053
 40
0.1657846095707053
 40
0.1657846095707053
 10
-35.14253750093718
 20
4.057847140711942
 30
0.0
 10
-35.1454998181959
 20
4.057847272083705
 30
0.0
 10
-35.15142720497401
 20
4.058085432136408
 30
0.0
 10
-35.16034066162627
 20
4.059157904419777
 30
0.0
 10
-35.16921673881281
 20
4.060977771976041
 30
0.0
 10
-35.17791027076486
 20
4.063537020377765
 30
0.0
 10
-35.18627946164861
 20
4.066797884101333
 30
0.0
 10
-35.19435485590812
 20
4.070759000569495
 30
0.0
 10
-35.20213007012817
 20
4.075463435784172
 30
0.0
 10
-35.2093746603253
 20
4.08078398651682
 30
0.0
 10
-35.21597636733768
 20
4.086595272258932
 30
0.0
 10
-35.22199093025999
 20
4.092868499580362
 30
0.0
 10
-35.22749301766074
 20
4.09970888578303
 30
0.0
 10
-35.23234983393191
 20
4.106951441404646
 30
0.0
 10
-35.23650471287482
 20
4.114451026988035
 30
0.0
 10
-35.24001239024974
 20
4.122197687463426
 30
0.0
 10
-35.24290320372067
 20
4.130276281965109
 30
0.0
 10
-35.24546445130262
 20
4.139786714033533
 30
0.0
 10
-35.24730694151447
 20
4.150739306538241
 30
0.0
 10
-35.24776443629767
 20
4.158947587083872
 30
0.0
 10
-35.24776414412816
 20
4.163073783900472
 30
0.0
 11
-35.14253750093718
 21
4.057847140711942
 31
0.0
 11
-35.15141787356294
 21
4.058202168746959
 31
0.0
 11
-35.16024123504803
 21
4.059266438569125
 31
0.0
 11
-35.16918648936343
 21
4.061101247987267
 31
0.0
 11
-35.17794496915883
 21
4.063683265344593
 31
0.0
 11
-35.18622982994794
 21
4.066911917896618
 31
0.0
 11
-35.19421113793089
 21
4.070830610428288
 31
0.0
 11
-35.20205496821592
 21
4.075576375384912
 31
0.0
 11
-35.20944219017775
 21
4.081005240356773
 31
0.0
 11
-35.21589313799649
 21
4.086682172324458
 31
0.0
 11
-35.22183911791854
 21
4.092885980846745
 31
0.0
 11
-35.22739056688107
 21
4.099783998530767
 31
0.0
 11
-35.23232189418377
 21
4.107138326673805
 31
0.0
 11
-35.23640411610074
 21
4.114501186622419
 31
0.0
 11
-35.23987720687023
 21
4.122170470836408
 31
0.0
 11
-35.24279303643522
 21
4.13031015030458
 31
0.0
 11
-35.24504242504719
 21
4.138658910173319
 31
0.0
 11
-35.24707561151888
 21
4.150713835928399
 31
0.0
 11
-35.24776414412816
 21
4.163073783900472
 31
0.0
  0
SPLINE
  5
B6
330
2
100
AcDbEntity
  8
GAIKEI
  6
Continuous
 62
     1
100
AcDbSpline
210
0.0
220
0.0
230
1.0
 70
     8
 71
     3
 72
    25
 73
    21
 74
    19
 42
0.0000000001
 43
0.0000000001
 44
0.000001
 12
0.9999999992068005
 22
-0.0000398296276659
 32
0.0
 13
-0.0000708084285262
 23
0.9999999974930833
 33
0.0
 40
0.0
 40
0.0
 40
0.0
 40
0.0
 40
0.0088583611608825
 40
0.0177742877658811
 40
0.026873136379304
 40
0.0360369327979106
 40
0.0448965507370353
 40
0.0538201110565662
 40
0.0629508382776867
 40
0.0721554350148271
 40
0.0807174245754397
 40
0.0893417292247097
 40
0.0981625087944607
 40
0.1070508037149001
 40
0.115441851234368
 40
0.123974001959594
 40
0.132506433395677
 40
0.1411812669853977
 40
0.1534064369273334
 40
0.1657850276971976
 40
0.1657850276971976
 40
0.1657850276971976
 40
0.1657850276971976
 10
15.86202737001872
 20
4.057847140711942
 30
0.0
 10
15.86498015707
 20
4.057847023103533
 30
0.0
 10
15.87090758108139
 20
4.058084005615967
 30
0.0
 10
15.87981028955774
 20
4.059155153188385
 30
0.0
 10
15.88869627874196
 20
4.060973922885011
 30
0.0
 10
15.89737949080823
 20
4.063530679870524
 30
0.0
 10
15.905760039787
 20
4.066792219955488
 30
0.0
 10
15.9138240623991
 20
4.070748739734426
 30
0.0
 10
15.92161062750854
 20
4.075454959211413
 30
0.0
 10
15.92884633602426
 20
4.080770339465061
 30
0.0
 10
15.93545977022144
 20
4.086586888014608
 30
0.0
 10
15.94146589938688
 20
4.092852837318929
 30
0.0
 10
15.94697756004839
 20
4.099698757993365
 30
0.0
 10
15.95182842221882
 20
4.106934349180761
 30
0.0
 10
15.95600556098526
 20
4.114466919351144
 30
0.0
 10
15.9595044759013
 20
4.122207531237421
 30
0.0
 10
15.96239889213109
 20
4.130294272892427
 30
0.0
 10
15.96495225631524
 20
4.139777546002363
 30
0.0
 10
15.96679697288483
 20
4.150739247245098
 30
0.0
 10
15.96725430537927
 20
4.158947586987522
 30
0.0
 10
15.96725401320975
 20
4.163073783900472
 30
0.0
 11
15.86202737001872
 21
4.057847140711942
 31
0.0
 11
15.87087923707418
 21
4.058199513485305
 31
0.0
 11
15.87973110412963
 21
4.059266438569125
 31
0.0
 11
15.88864480225936
 21
4.061092735185297
 31
0.0
 11
15.89743483824043
 21
4.063683265344593
 31
0.0
 11
15.90569054317313
 21
4.066898323842906
 31
0.0
 11
15.91370100701243
 21
4.070830610428288
 31
0.0
 11
15.92151452193133
 21
4.075554983137294
 31
0.0
 11
15.92893205925935
 21
4.081005240356773
 31
0.0
 11
15.93536102513985
 21
4.086660022023863
 31
0.0
 11
15.94132898700008
 21
4.092885980846745
 31
0.0
 11
15.94686115293655
 21
4.099756338213069
 31
0.0
 11
15.95181176326537
 21
4.107138326673805
 31
0.0
 11
15.95588206492152
 21
4.114476088669391
 31
0.0
 11
15.95939857625262
 21
4.122249900532551
 31
0.0
 11
15.96227496153273
 21
4.130282904576745
 31
0.0
 11
15.96453229412879
 21
4.138658910173319
 31
0.0
 11
15.96656548060059
 21
4.150713835928399
 31
0.0
 11
15.96725401320975
 21
4.163073783900472
 31
0.0
  0
SPLINE
  5
B7
330
2
100
AcDbEntity
  8
GAIKEI
  6
Continuous
 62
     1
100
AcDbSpline
210
0.0
220
0.0
230
1.0
 70
     8
 71
     3
 72
    21
 73
    17
 74
    15
 42
0.0000000001
 43
0.0000000001
 44
0.000001
 12
-0.0006952151951139
 22
0.9999997583378871
 32
0.0
 13
-0.9999999848615342
 23
0.0001740026763733
 33
0.0
 40
0.0
 40
0.0
 40
0.0
 40
0.0
 40
0.0119981231014057
 40
0.0240318307150527
 40
0.0360276495918151
 40
0.0480511894298291
 40
0.0601143592198853
 40
0.0721347564098407
 40
0.0837497018583562
 40
0.0954036594275204
 40
0.1070193568651901
 40
0.1183805919115031
 40
0.1297767624855699
 40
0.1411409818337126
 40
0.1534426802633046
 40
0.1657445761842667
 40
0.1657445761842667
 40
0.1657445761842667
 40
0.1657445761842667
 10
15.96725401320975
 20
34.20763865485844
 30
0.0
 10
15.96725123278392
 20
34.21163802825907
 30
0.0
 10
15.96681442855501
 20
34.21965512351727
 30
0.0
 10
15.96486681384347
 20
34.23152787739588
 30
0.0
 10
15.96163399309847
 20
34.24312933833943
 30
0.0
 10
15.95707713881256
 20
34.25428926709054
 30
0.0
 10
15.95127459561708
 20
34.26486348685382
 30
0.0
 10
15.94436494686259
 20
34.27458670077283
 30
0.0
 10
15.93643027221817
 20
34.28330678153782
 30
0.0
 10
15.92766129814556
 20
34.29098064666959
 30
0.0
 10
15.91814953666708
 20
34.29756702379214
 30
0.0
 10
15.90802097273592
 20
34.30297386488101
 30
0.0
 10
15.89744973512859
 20
34.3072281713234
 30
0.0
 10
15.88618497725301
 20
34.31042492227618
 30
0.0
 10
15.87433591813207
 20
34.3124078567366
 30
0.0
 10
15.86612800193201
 20
34.312864584529
 30
0.0
 10
15.86202737002043
 20
34.31286529804993
 30
0.0
 11
15.96725401320975
 21
34.20763865485844
 31
0.0
 11
15.96660096212457
 21
34.21961950268804
 31
0.0
 11
15.9646509944543
 21
34.23149418301546
 31
0.0
 11
15.96141788857699
 21
34.24304612308004
 31
0.0
 11
15.9568763809126
 21
34.25417900673267
 31
0.0
 11
15.95106998087726
 21
34.26475287534322
 31
0.0
 11
15.94409591356469
 21
34.27454334409879
 31
0.0
 11
15.93628596924486
 21
34.28314059037268
 31
0.0
 11
15.92751642421456
 21
34.29081592260479
 31
0.0
 11
15.91796282724738
 21
34.29742304810531
 31
0.0
 11
15.90794598870502
 21
34.3027841460131
 31
0.0
 11
15.89737498663714
 21
34.30704176480868
 31
0.0
 11
15.88644224374707
 21
34.31014357896891
 31
0.0
 11
15.87431088866202
 21
34.31218375428068
 31
0.0
 11
15.86202737002043
 21
34.31286529804993
 31
0.0
  0
SPLINE
  5
B8
330
2
100
AcDbEntity
  8
GAIKEI
  6
Continuous
 62
     1
100
AcDbSpline
210
0.0
220
0.0
230
1.0
 70
     8
 71
     3
 72
    21
 73
    17
 74
    15
 42
0.0000000001
 43
0.0000000001
 44
0.000001
 12
0.0006952151951138
 22
0.9999997583378871
 32
0.0
 13
0.9999999848615342
 23
0.0001740026763733
 33
0.0
 40
0.0
 40
0.0
 40
0.0
 40
0.0
 40
0.0119981231014026
 40
0.0240318307150692
 40
0.0360276495917991
 40
0.0480511894298559
 40
0.0601143592198574
 40
0.0721347564098767
 40
0.0837497018583057
 40
0.0954036594274672
 40
0.1070193568651779
 40
0.1183805919114908
 40
0.1297767624856071
 40
0.1411409818336951
 40
0.1534426802632416
 40
0.1657445761842569
 40
0.1657445761842569
 40
0.1657445761842569
 40
0.1657445761842569
 10
-35.24776414412816
 20
34.20763865485844
 30
0.0
 10
-35.24776136370233
 20
34.21163802825907
 30
0.0
 10
-35.24732455947355
 20
34.21965512351724
 30
0.0
 10
-35.24537694476171
 20
34.23152787739579
 30
0.0
 10
-35.24214412401702
 20
34.24312933833951
 30
0.0
 10
-35.23758726973083
 20
34.25428926709043
 30
0.0
 10
-35.23178472653558
 20
34.26486348685387
 30
0.0
 10
-35.22487507778097
 20
34.27458670077289
 30
0.0
 10
-35.21694040313646
 20
34.28330678153768
 30
0.0
 10
-35.20817142906406
 20
34.29098064666965
 30
0.0
 10
-35.19865966758547
 20
34.29756702379217
 30
0.0
 10
-35.18853110365432
 20
34.30297386488096
 30
0.0
 10
-35.17795986604696
 20
34.30722817132338
 30
0.0
 10
-35.16669510817141
 20
34.3104249222761
 30
0.0
 10
-35.15484604905049
 20
34.3124078567366
 30
0.0
 10
-35.14663813285043
 20
34.312864584529
 30
0.0
 10
-35.14253750093883
 20
34.31286529804993
 30
0.0
 11
-35.24776414412816
 21
34.20763865485844
 31
0.0
 11
-35.24711109304303
 21
34.21961950268804
 31
0.0
 11
-35.24516112537265
 21
34.23149418301546
 31
0.0
 11
-35.24192801949545
 21
34.24304612308004
 31
0.0
 11
-35.23738651183095
 21
34.25417900673267
 31
0.0
 11
-35.23158011179572
 21
34.26475287534322
 31
0.0
 11
-35.22460604448304
 21
34.27454334409879
 31
0.0
 11
-35.21679610016321
 21
34.28314059037257
 31
0.0
 11
-35.20802655513302
 21
34.29081592260479
 31
0.0
 11
-35.19847295816578
 21
34.29742304810531
 31
0.0
 11
-35.18845611962343
 21
34.3027841460131
 31
0.0
 11
-35.17788511755549
 21
34.30704176480868
 31
0.0
 11
-35.16695237466547
 21
34.31014357896891
 31
0.0
 11
-35.15482101958048
 21
34.31218375428068
 31
0.0
 11
-35.14253750093883
 21
34.31286529804993
 31
0.0
  0
SPLINE
  5
B9
330
2
100
AcDbEntity
  8
GAIKEI
  6
Continuous
 62
     1
100
AcDbSpline
210
0.0
220
0.0
230
1.0
 70
     8
 71
     3
 72
    20
 73
    16
 74
    14
 42
0.0000000001
 43
0.0000000001
 44
0.000001
 12
0.9999995888701285
 22
-0.0009067852964629
 32
0.0
 13
-0.0002574072790882
 23
-0.9999999668707458
 33
0.0
 40
0.0
 40
0.0
 40
0.0
 40
0.0
 40
0.0108878157940587
 40
0.0218092092558964
 40
0.032695623838589
 40
0.0437056356280081
 40
0.0547513475557582
 40
0.0657586132049054
 40
0.0764885721204888
 40
0.0872550800355437
 40
0.097986219250514
 40
0.1136776855854095
 40
0.129370642236607
 40
0.1401632936186852
 40
0.1509564925717341
 40
0.1509564925717341
 40
0.1509564925717341
 40
0.1509564925717341
 10
14.8509054896233
 20
33.27249667146009
 30
0.0
 10
14.85453476006255
 20
33.27249338048967
 30
0.0
 10
14.86181048064513
 20
33.27208942838107
 30
0.0
 10
14.87258094968274
 20
33.27029189553787
 30
0.0
 10
14.88312876386264
 20
33.26730345767075
 30
0.0
 10
14.89329925773506
 20
33.2630996908774
 30
0.0
 10
14.90296550781875
 20
33.2577576410225
 30
0.0
 10
14.91188194651289
 20
33.2513951665087
 30
0.0
 10
14.91990056096713
 20
33.24407215583093
 30
0.0
 10
14.92697024393355
 20
33.23595295037379
 30
0.0
 10
14.93401230447513
 20
33.22571949125458
 30
0.0
 10
14.94028043623994
 20
33.21308545140542
 30
0.0
 10
14.94447637965994
 20
33.19960056069169
 30
0.0
 10
14.94649455896017
 20
33.18731598207956
 30
0.0
 10
14.94688631270267
 20
33.18011450732843
 30
0.0
 10
14.94688538662001
 20
33.17651677446327
 30
0.0
 11
14.8509054896233
 21
33.27249667146009
 31
0.0
 11
14.86177706874895
 21
33.27189271409463
 31
0.0
 11
14.8725492384217
 21
33.2700934272001
 31
0.0
 11
14.88302108230459
 21
33.26711768857967
 31
0.0
 11
14.89319884131328
 21
33.26291836973553
 31
0.0
 11
14.90286467908862
 21
33.25757234260266
 31
0.0
 11
14.91181710663972
 21
33.25116807542384
 31
0.0
 11
14.91974586380178
 21
33.24393844709681
 31
0.0
 11
14.92681691229683
 21
33.23581941713047
 31
0.0
 11
14.93289714325908
 21
33.22697697559136
 31
0.0
 11
14.93989383414646
 21
33.21293170144634
 31
0.0
 11
14.94454304299847
 21
33.19794319562362
 31
0.0
 11
14.94630113761945
 21
33.18729469024049
 31
0.0
 11
14.94688538662001
 21
33.17651677446327
 31
0.0
  0
SPLINE
  5
BA
330
2
100
AcDbEntity
  8
GAIKEI
  6
Continuous
 62
     1
100
AcDbSpline
210
0.0
220
0.0
230
1.0
 70
     8
 71
     3
 72
    20
 73
    16
 74
    14
 42
0.0000000001
 43
0.0000000001
 44
0.000001
 12
-0.0002574072790884
 22
0.9999999668707458
 32
0.0
 13
0.9999995888701285
 23
0.000906785296463
 33
0.0
 40
0.0
 40
0.0
 40
0.0
 40
0.0
 40
0.0107931989530458
 40
0.0215858503351228
 40
0.0372788069863246
 40
0.0529702733212169
 40
0.0637014125361892
 40
0.0744679204512044
 40
0.0851978793668272
 40
0.096205145015983
 40
0.107250856943674
 40
0.1182608687330997
 40
0.1291472833157822
 40
0.1400686767775672
 40
0.150956492571743
 40
0.150956492571743
 40
0.150956492571743
 40
0.150956492571743
 10
-34.22739551753835
 20
33.17651677446327
 30
0.0
 10
-34.22739644362102
 20
33.18011450732843
 30
0.0
 10
-34.22700468987861
 20
33.18731598207961
 30
0.0
 10
-34.22498651057836
 20
33.19960056069169
 30
0.0
 10
-34.22079056715832
 20
33.21308545140534
 30
0.0
 10
-34.21452243539356
 20
33.22571949125461
 30
0.0
 10
-34.20748037485193
 20
33.2359529503737
 30
0.0
 10
-34.20041069188561
 20
33.24407215583102
 30
0.0
 10
-34.19239207743131
 20
33.2513951665087
 30
0.0
 10
-34.18347563873716
 20
33.2577576410225
 30
0.0
 10
-34.1738093886535
 20
33.26309969087743
 30
0.0
 10
-34.16363889478112
 20
33.26730345767075
 30
0.0
 10
-34.15309108060121
 20
33.2702918955379
 30
0.0
 10
-34.14232061156361
 20
33.27208942838107
 30
0.0
 10
-34.13504489098099
 20
33.27249338048967
 30
0.0
 10
-34.1314156205417
 20
33.27249667146009
 30
0.0
 11
-34.22739551753835
 21
33.17651677446327
 31
0.0
 11
-34.22681126853786
 21
33.18729469024049
 31
0.0
 11
-34.22505317391688
 21
33.19794319562362
 31
0.0
 11
-34.22040396506486
 21
33.21293170144634
 31
0.0
 11
-34.21340727417748
 21
33.22697697559136
 31
0.0
 11
-34.20732704321523
 21
33.23581941713047
 31
0.0
 11
-34.20025599472024
 21
33.24393844709681
 31
0.0
 11
-34.19232723755812
 21
33.25116807542384
 31
0.0
 11
-34.18337481000703
 21
33.25757234260266
 31
0.0
 11
-34.17370897223174
 21
33.26291836973553
 31
0.0
 11
-34.16353121322305
 21
33.26711768857967
 31
0.0
 11
-34.15305936934016
 21
33.2700934272001
 31
0.0
 11
-34.14228719966747
 21
33.27189271409463
 31
0.0
 11
-34.1314156205417
 21
33.27249667146009
 31
0.0
  0
SPLINE
  5
BB
330
2
100
AcDbEntity
  8
GAIKEI
  6
Continuous
 62
     1
100
AcDbSpline
210
0.0
220
0.0
230
1.0
 70
     8
 71
     3
 72
    20
 73
    16
 74
    14
 42
0.0000000001
 43
0.0000000001
 44
0.000001
 12
-0.9999995888701295
 22
0.0009067852954251
 32
0.0
 13
0.0002574072776907
 23
0.9999999668707461
 33
0.0
 40
0.0
 40
0.0
 40
0.0
 40
0.0
 40
0.0108878157941758
 40
0.0218092092559702
 40
0.0326956238386216
 40
0.0437056356280906
 40
0.0547513475557541
 40
0.0657586132048107
 40
0.0764885721207016
 40
0.0872550800355454
 40
0.0979862192503772
 40
0.1136776855853712
 40
0.1293706422364101
 40
0.1401632936187768
 40
0.150956492571706
 40
0.150956492571706
 40
0.150956492571706
 40
0.150956492571706
 10
-34.1314156205417
 20
5.098215767301837
 30
0.0
 10
-34.13504489098099
 20
5.098219058272263
 30
0.0
 10
-34.14232061156362
 20
5.098623010380805
 30
0.0
 10
-34.15309108060119
 20
5.100420543224117
 30
0.0
 10
-34.16363889478116
 20
5.103408981091035
 30
0.0
 10
-34.17380938865347
 20
5.107612747884616
 30
0.0
 10
-34.18347563873711
 20
5.112954797739462
 30
0.0
 10
-34.19239207743151
 20
5.119317272252999
 30
0.0
 10
-34.2004106918854
 20
5.126640282931163
 30
0.0
 10
-34.20748037485197
 20
5.134759488388141
 30
0.0
 10
-34.21452243539363
 20
5.144992947507205
 30
0.0
 10
-34.22079056715825
 20
5.157626987356479
 30
0.0
 10
-34.22498651057839
 20
5.171111878070092
 30
0.0
 10
-34.22700468987868
 20
5.18339645668226
 30
0.0
 10
-34.227396443621
 20
5.190597931433472
 30
0.0
 10
-34.22739551753835
 20
5.194195664298604
 30
0.0
 11
-34.1314156205417
 21
5.098215767301837
 31
0.0
 11
-34.14228719966747
 21
5.098819724667293
 31
0.0
 11
-34.15305936934016
 21
5.100619011561889
 31
0.0
 11
-34.16353121322305
 21
5.103594750182196
 31
0.0
 11
-34.17370897223174
 21
5.107794069026454
 31
0.0
 11
-34.18337481000703
 21
5.11314009615927
 31
0.0
 11
-34.19232723755812
 21
5.119544363337922
 31
0.0
 11
-34.20025599472024
 21
5.126773991665345
 31
0.0
 11
-34.20732704321523
 21
5.134893021631455
 31
0.0
 11
-34.21340727417748
 21
5.143735463170401
 31
0.0
 11
-34.22040396506486
 21
5.157780737315533
 31
0.0
 11
-34.22505317391688
 21
5.172769243138077
 31
0.0
 11
-34.22681126853792
 21
5.183417748521492
 31
0.0
 11
-34.22739551753835
 21
5.194195664298604
 31
0.0
  0
SPLINE
  5
BC
330
2
100
AcDbEntity
  8
GAIKEI
  6
Continuous
 62
     1
100
AcDbSpline
210
0.0
220
0.0
230
1.0
 70
     8
 71
     3
 72
    20
 73
    16
 74
    14
 42
0.0000000001
 43
0.0000000001
 44
0.000001
 12
0.0002574072769913
 22
-0.9999999668707463
 32
0.0
 13
-0.9999995888701285
 23
-0.0009067852964616
 33
0.0
 40
0.0
 40
0.0
 40
0.0
 40
0.0
 40
0.0107931989530488
 40
0.0215858503354075
 40
0.0372788069864421
 40
0.052970273321414
 40
0.063701412536276
 40
0.0744679204510475
 40
0.085197879367025
 40
0.0962051450160267
 40
0.1072508569436995
 40
0.1182608687332487
 40
0.1291472833158481
 40
0.1400686767777512
 40
0.1509564925718667
 40
0.1509564925718667
 40
0.1509564925718667
 40
0.1509564925718667
 10
14.94688538662001
 20
5.194195664298717
 30
0.0
 10
14.94688631270266
 20
5.190597931433558
 30
0.0
 10
14.94649455896015
 20
5.183396456682288
 30
0.0
 10
14.94447637966006
 20
5.171111878070121
 30
0.0
 10
14.94028043623979
 20
5.157626987356479
 30
0.0
 10
14.93401230447534
 20
5.144992947507148
 30
0.0
 10
14.92697024393354
 20
5.134759488388226
 30
0.0
 10
14.91990056096712
 20
5.126640282931049
 30
0.0
 10
14.91188194651312
 20
5.119317272253113
 30
0.0
 10
14.90296550781875
 20
5.112954797739291
 30
0.0
 10
14.89329925773508
 20
5.107612747884758
 30
0.0
 10
14.8831287638629
 20
5.103408981090581
 30
0.0
 10
14.87258094968274
 20
5.100420543224259
 30
0.0
 10
14.86181048064522
 20
5.098623010380805
 30
0.0
 10
14.85453476006258
 20
5.098219058272263
 30
0.0
 10
14.8509054896233
 20
5.098215767301837
 30
0.0
 11
14.94688538662001
 21
5.194195664298717
 31
0.0
 11
14.94630113761945
 21
5.183417748521492
 31
0.0
 11
14.94454304299847
 21
5.172769243138077
 31
0.0
 11
14.93989383414646
 21
5.157780737315533
 31
0.0
 11
14.93289714325914
 21
5.143735463170401
 31
0.0
 11
14.92681691229683
 21
5.134893021631455
 31
0.0
 11
14.91974586380195
 21
5.126773991665345
 31
0.0
 11
14.91181710663972
 21
5.119544363337922
 31
0.0
 11
14.90286467908868
 21
5.11314009615927
 31
0.0
 11
14.89319884131339
 21
5.107794069026454
 31
0.0
 11
14.8830210823047
 21
5.103594750181969
 31
0.0
 11
14.87254923842181
 21
5.100619011561889
 31
0.0
 11
14.861777068749
 21
5.098819724667293
 31
0.0
 11
14.8509054896233
 21
5.098215767301837
 31
0.0
  0
SPLINE
  5
BD
330
2
100
AcDbEntity
  8
GAIKEI
  6
Continuous
 62
     1
100
AcDbSpline
210
0.0
220
0.0
230
1.0
 70
     8
 71
     3
 72
    21
 73
    17
 74
    15
 42
0.0000000001
 43
0.0000000001
 44
0.000001
 12
-0.0022613087208951
 22
-0.9999974432381659
 32
0.0
 13
-0.9999986717690052
 23
-0.001629865094319
 33
0.0
 40
0.0
 40
0.0
 40
0.0
 40
0.0
 40
0.0112719229160511
 40
0.0225828053279913
 40
0.0338589301231476
 40
0.0451219675135877
 40
0.0564193032418864
 40
0.0676803912996481
 40
0.0790599226121745
 40
0.0904793548289216
 40
0.1018613243555337
 40
0.1128734816581787
 40
0.1239181148251945
 40
0.1349301360727894
 40
0.1459241914363809
 40
0.1569165053672035
 40
0.1569165053672035
 40
0.1569165053672035
 40
0.1569165053672035
 10
14.87641160120745
 20
5.268689552714306
 30
0.0
 10
14.87640310477492
 20
5.26493225468215
 30
0.0
 10
14.87596271293115
 20
5.257398063035992
 30
0.0
 10
14.87400997735093
 20
5.246258809514017
 30
0.0
 10
14.87084362673008
 20
5.235404398606675
 30
0.0
 10
14.86648145142573
 20
5.22497797961401
 30
0.0
 10
14.86100878861518
 20
5.215096264371226
 30
0.0
 10
14.85445784848865
 20
5.205842989375241
 30
0.0
 10
14.84682814178258
 20
5.197399314770478
 30
0.0
 10
14.8382449018943
 20
5.189869037264173
 30
0.0
 10
14.82896143853385
 20
5.183432896501045
 30
0.0
 10
14.81912062775947
 20
5.17815169220259
 30
0.0
 10
14.8088891549541
 20
5.173994945377557
 30
0.0
 10
14.7982755414674
 20
5.17096048270406
 30
0.0
 10
14.78741056540897
 20
5.169111948827719
 30
0.0
 10
14.78007570098425
 20
5.1686955247105
 30
0.0
 10
14.77641160120743
 20
5.168689552714226
 30
0.0
 11
14.87641160120745
 21
5.268689552714306
 31
0.0
 11
14.87574947618259
 21
5.257436495067963
 31
0.0
 11
14.87380556684025
 21
5.246293892096957
 31
0.0
 11
14.87064357071608
 21
5.235470174190254
 31
0.0
 11
14.86630167150872
 21
5.225077668826884
 31
0.0
 11
14.8608270433636
 21
5.21519543672781
 31
0.0
 11
14.85430791099713
 21
5.206013205106785
 31
0.0
 11
14.84668384189666
 21
5.197565260011344
 31
0.0
 11
14.83810215394715
 21
5.190031434768457
 31
0.0
 11
14.82874636637911
 21
5.18354923967729
 31
0.0
 11
14.81904780991874
 21
5.17833332152719
 31
0.0
 11
14.80881485513299
 21
5.174177520456453
 31
0.0
 11
14.79822565456538
 21
5.171155325367294
 31
0.0
 11
14.78738671916068
 21
5.169314931880819
 31
0.0
 11
14.77641160120743
 21
5.168689552714226
 31
0.0
  0
SPLINE
  5
BE
330
2
100
AcDbEntity
  8
GAIKEI
  6
Continuous
 62
     1
100
AcDbSpline
210
0.0
220
0.0
230
1.0
 70
     8
 71
     3
 72
    21
 73
    17
 74
    15
 42
0.0000000001
 43
0.0000000001
 44
0.000001
 12
0.0022613087209003
 22
0.9999974432381659
 32
0.0
 13
0.9999986717690038
 23
0.0016298650950614
 33
0.0
 40
0.0
 40
0.0
 40
0.0
 40
0.0
 40
0.0112719229160477
 40
0.022582805327708
 40
0.0338589301229029
 40
0.045121967513499
 40
0.0564193032416467
 40
0.0676803912995959
 40
0.079059922612123
 40
0.0904793548291106
 40
0.1018613243559269
 40
0.112873481658836
 40
0.1239181148258518
 40
0.1349301360734702
 40
0.1459241914367194
 40
0.1569165053670912
 40
0.1569165053670912
 40
0.1569165053670912
 40
0.1569165053670912
 10
-34.15692173212586
 20
33.10202288604762
 30
0.0
 10
-34.15691323569332
 20
33.10578018407978
 30
0.0
 10
-34.15647284384967
 20
33.11331437572591
 30
0.0
 10
-34.15452010826934
 20
33.12445362924771
 30
0.0
 10
-34.15135375764856
 20
33.13530804015508
 30
0.0
 10
-34.14699158234435
 20
33.14573445914778
 30
0.0
 10
-34.14151891953357
 20
33.15561617439056
 30
0.0
 10
-34.13496797940727
 20
33.16486944938663
 30
0.0
 10
-34.12733827270098
 20
33.17331312399139
 30
0.0
 10
-34.11875503281258
 20
33.18084340149784
 30
0.0
 10
-34.10947156945172
 20
33.1872795422608
 30
0.0
 10
-34.09963075867739
 20
33.19256074655954
 30
0.0
 10
-34.08939928587178
 20
33.19671749338449
 30
0.0
 10
-34.07878567238519
 20
33.19975195605781
 30
0.0
 10
-34.06792069632702
 20
33.20160048993412
 30
0.0
 10
-34.06058583190257
 20
33.20201691405143
 30
0.0
 10
-34.05692173212589
 20
33.2020228860477
 30
0.0
 11
-34.15692173212586
 21
33.10202288604762
 31
0.0
 11
-34.15625960710105
 21
33.11327594369397
 31
0.0
 11
-34.15431569775871
 21
33.12441854666469
 31
0.0
 11
-34.1511537016346
 21
33.13524226457145
 31
0.0
 11
-34.14681180242724
 21
33.14563476993499
 31
0.0
 11
-34.14133717428212
 21
33.15551700203389
 31
0.0
 11
-34.13481804191565
 21
33.16469923365514
 31
0.0
 11
-34.12719397281512
 21
33.17314717875053
 31
0.0
 11
-34.11861228486538
 21
33.18068100399353
 31
0.0
 11
-34.10925649729705
 21
33.18716319908464
 31
0.0
 11
-34.09955794083652
 21
33.19237911723496
 31
0.0
 11
-34.08932498605071
 21
33.19653491830559
 31
0.0
 11
-34.07873578548305
 21
33.19955711339463
 31
0.0
 11
-34.06789685007868
 21
33.20139750688105
 31
0.0
 11
-34.05692173212589
 21
33.2020228860477
 31
0.0
  0
SPLINE
  5
BF
330
2
100
AcDbEntity
  8
GAIKEI
  6
Continuous
 62
     1
100
AcDbSpline
210
0.0
220
0.0
230
1.0
 70
     8
 71
     3
 72
    21
 73
    17
 74
    15
 42
0.0000000001
 43
0.0000000001
 44
0.000001
 12
0.0022613087193831
 22
-0.9999974432381694
 32
0.0
 13
0.9999986717689822
 23
-0.0016298651084615
 33
0.0
 40
0.0
 40
0.0
 40
0.0
 40
0.0
 40
0.0112719229167986
 40
0.0225828053297669
 40
0.0338589301256828
 40
0.0451219675168871
 40
0.0564193032460501
 40
0.0676803913046917
 40
0.0790599226205784
 40
0.090479354840879
 40
0.101861324370916
 40
0.1128734816719741
 40
0.123918114837122
 40
0.1349301360828703
 40
0.1459241914413698
 40
0.1569165053670588
 40
0.1569165053670588
 40
0.1569165053670588
 40
0.1569165053670588
 10
-34.15692173212586
 20
5.268689552714306
 30
0.0
 10
-34.15691323569332
 20
5.264932254681923
 30
0.0
 10
-34.15647284384927
 20
5.257398063035168
 30
0.0
 10
-34.15452010826925
 20
5.246258809512312
 30
0.0
 10
-34.15135375764756
 20
5.235404398604202
 30
0.0
 10
-34.14699158234275
 20
5.224977979610997
 30
0.0
 10
-34.14151891953108
 20
5.215096264367815
 30
0.0
 10
-34.13496797940333
 20
5.205842989370694
 30
0.0
 10
-34.1273382726953
 20
5.19739931476414
 30
0.0
 10
-34.11875503280326
 20
5.189869037256727
 30
0.0
 10
-34.10947156944031
 20
5.183432896494196
 30
0.0
 10
-34.0996307586654
 20
5.178151692196735
 30
0.0
 10
-34.08939928586107
 20
5.173994945373749
 30
0.0
 10
-34.07878567237687
 20
5.170960482702326
 30
0.0
 10
-34.0679206963223
 20
5.16911194882752
 30
0.0
 10
-34.06058583190101
 20
5.168695524710528
 30
0.0
 10
-34.05692173212589
 20
5.168689552714226
 30
0.0
 11
-34.15692173212586
 21
5.268689552714306
 31
0.0
 11
-34.15625960710082
 21
5.257436495067224
 31
0.0
 11
-34.15431569775837
 21
5.246293892095195
 31
0.0
 11
-34.15115370163363
 21
5.235470174187867
 31
0.0
 11
-34.14681180242565
 21
5.225077668823928
 31
0.0
 11
-34.14133717427956
 21
5.2151954367244
 31
0.0
 11
-34.1348180419123
 21
5.206013205102863
 31
0.0
 11
-34.12719397280921
 21
5.197565260005262
 31
0.0
 11
-34.11861228485606
 21
5.190031434761124
 31
0.0
 11
-34.10925649728421
 21
5.183549239669446
 31
0.0
 11
-34.09955794082458
 21
5.178333321521336
 31
0.0
 11
-34.08932498604003
 21
5.174177520452587
 31
0.0
 11
-34.07873578547384
 21
5.171155325365191
 31
0.0
 11
-34.06789685007402
 21
5.169314931880364
 31
0.0
 11
-34.05692173212589
 21
5.168689552714226
 31
0.0
  0
SPLINE
  5
C0
330
2
100
AcDbEntity
  8
GAIKEI
  6
Continuous
 62
     1
100
AcDbSpline
210
0.0
220
0.0
230
1.0
 70
     8
 71
     3
 72
    21
 73
    17
 74
    15
 42
0.0000000001
 43
0.0000000001
 44
0.000001
 12
-0.0022613087208363
 22
0.9999974432381661
 32
0.0
 13
-0.9999986717690793
 23
0.0016298650487871
 33
0.0
 40
0.0
 40
0.0
 40
0.0
 40
0.0
 40
0.0112719229162814
 40
0.0225828053284456
 40
0.0338589301239385
 40
0.0451219675146322
 40
0.056419303243422
 40
0.0676803913013812
 40
0.0790599226155854
 40
0.0904793548341765
 40
0.1018613243625535
 40
0.1128734816634972
 40
0.1239181148284937
 40
0.1349301360741756
 40
0.1459241914370291
 40
0.1569165053671009
 40
0.1569165053671009
 40
0.1569165053671009
 40
0.1569165053671009
 10
14.87641160120745
 20
33.10202288604762
 30
0.0
 10
14.87640310477492
 20
33.10578018407984
 30
0.0
 10
14.87596271293103
 20
33.11331437572614
 30
0.0
 10
14.87400997735093
 20
33.12445362924834
 30
0.0
 10
14.87084362672973
 20
33.13530804015608
 30
0.0
 10
14.86648145142536
 20
33.14573445914894
 30
0.0
 10
14.86100878861445
 20
33.15561617439192
 30
0.0
 10
14.85445784848718
 20
33.16486944938839
 30
0.0
 10
14.84682814178019
 20
33.17331312399392
 30
0.0
 10
14.83824490189023
 20
33.18084340150103
 30
0.0
 10
14.82896143852864
 20
33.18727954226367
 30
0.0
 10
14.81912062775458
 20
33.1925607465613
 30
0.0
 10
14.8088891549506
 20
33.1967174933848
 30
0.0
 10
14.79827554146558
 20
33.19975195605832
 30
0.0
 10
14.78741056540824
 20
33.20160048993438
 30
0.0
 10
14.78007570098401
 20
33.2020169140516
 30
0.0
 10
14.77641160120743
 20
33.2020228860477
 30
0.0
 11
14.87641160120745
 21
33.10202288604762
 31
0.0
 11
14.87574947618253
 21
33.11327594369419
 31
0.0
 11
14.87380556684019
 21
33.12441854666543
 31
0.0
 11
14.8706435707158
 21
33.13524226457241
 31
0.0
 11
14.86630167150832
 21
33.14563476993601
 31
0.0
 11
14.8608270433628
 21
33.15551700203542
 31
0.0
 11
14.854307910996
 21
33.16469923365645
 31
0.0
 11
14.84668384189422
 21
33.17314717875297
 31
0.0
 11
14.83810215394299
 21
33.18068100399671
 31
0.0
 11
14.82874636637297
 21
33.18716319908811
 31
0.0
 11
14.81904780991374
 21
33.19237911723673
 31
0.0
 11
14.80881485512964
 21
33.19653491830616
 31
0.0
 11
14.79822565456391
 21
33.19955711339492
 31
0.0
 11
14.78738671915994
 21
33.20139750688134
 31
0.0
 11
14.77641160120743
 21
33.2020228860477
 31
0.0
  0
SPLINE
  5
C1
330
2
100
AcDbEntity
  8
GAIKEI
  6
Continuous
 62
     1
100
AcDbSpline
210
0.0
220
0.0
230
1.0
 70
     8
 71
     3
 72
    27
 73
    23
 74
    21
 42
0.0000000001
 43
0.0000000001
 44
0.000001
 12
0.0013095761531191
 22
-0.999999142504782
 32
0.0
 13
-0.9999991424899166
 23
0.0013095875044402
 33
0.0
 40
0.0
 40
0.0
 40
0.0
 40
0.0
 40
0.0000019993732827
 40
0.0109353951001348
 40
0.0220639374978434
 40
0.0331931839027913
 40
0.0445225882517722
 40
0.055467606521645
 40
0.0664875789741519
 40
0.0777433697046475
 40
0.0890805291716246
 40
0.1000554815044692
 40
0.111105747017189
 40
0.1223934102554837
 40
0.1337630781271253
 40
0.1447486235466655
 40
0.1558097686202734
 40
0.1671094661959029
 40
0.1784915040736215
 40
0.1938553587863801
 40
0.2094272664820929
 40
0.2094292658562709
 40
0.2094292658562709
 40
0.2094292658562709
 40
0.2094292658562709
 10
16.19563797626995
 20
3.96279651099627
 30
0.0
 10
16.19563797714272
 20
3.962795844539073
 30
0.0
 10
16.19564271681543
 20
3.959150716007059
 30
0.0
 10
16.19534890100957
 20
3.951792132119919
 30
0.0
 10
16.19399116929168
 20
3.940799637419928
 30
0.0
 10
16.19169531765132
 20
3.929828402538475
 30
0.0
 10
16.188497906693
 20
3.919148616971483
 30
0.0
 10
16.18443322796135
 20
3.908808284742491
 30
0.0
 10
16.17954088085889
 20
3.898859924608018
 30
0.0
 10
16.17376694644433
 20
3.889242368402364
 30
0.0
 10
16.16720773769967
 20
3.880160419378796
 30
0.0
 10
16.15995728235721
 20
3.871711687633052
 30
0.0
 10
16.15204570199886
 20
3.863901748915338
 30
0.0
 10
16.14340642969984
 20
3.856696884701534
 30
0.0
 10
16.13420392718834
 20
3.850263998629543
 30
0.0
 10
16.12456090484076
 20
3.844663580829518
 30
0.0
 10
16.11450874242462
 20
3.839889576998075
 30
0.0
 10
16.1039668800629
 20
3.835928959095127
 30
0.0
 10
16.09174441414555
 20
3.832491276785958
 30
0.0
 10
16.0778198445687
 20
3.830049075716772
 30
0.0
 10
16.06749660705445
 20
3.829456426429231
 30
0.0
 10
16.062305309382
 20
3.829463176778972
 30
0.0
 10
16.06230464292451
 20
3.829463177651746
 30
0.0
 11
16.19563797626995
 21
3.96279651099627
 31
0.0
 11
16.19563797887321
 21
3.962794511622973
 31
0.0
 11
16.19520279255602
 21
3.951869190819707
 31
0.0
 11
16.19383925265782
 21
3.940824495010986
 31
0.0
 11
16.19155885291184
 21
3.929931372691385
 31
0.0
 11
16.18830996469791
 21
3.919077781930411
 31
0.0
 11
16.18430578092659
 21
3.908891504839004
 31
0.0
 11
16.17944273709895
 21
3.899002575619192
 31
0.0
 11
16.17364918407207
 21
3.889352294950242
 31
0.0
 11
16.16701139568909
 21
3.880161467470429
 31
0.0
 11
16.15986406544033
 21
3.87183286700457
 31
0.0
 11
16.15199997601314
 21
3.864069825946501
 31
0.0
 11
16.14333122202691
 21
3.856840413853547
 31
0.0
 11
16.13401258450301
 21
3.850326375666668
 31
0.0
 11
16.12451291328352
 21
3.844809241676841
 31
0.0
 11
16.11452128558807
 21
3.840064075482587
 31
0.0
 11
16.10394348429401
 21
3.836089964800976
 31
0.0
 11
16.09298651939446
 21
3.833008424036961
 31
0.0
 11
16.0778536144843
 21
3.83035449643421
 31
0.0
 11
16.06230664229872
 21
3.829463175048317
 31
0.0
 11
16.06230464292451
 21
3.829463177651746
 31
0.0
  0
SPLINE
  5
C2
330
2
100
AcDbEntity
  8
GAIKEI
  6
Continuous
 62
     1
100
AcDbSpline
210
0.0
220
0.0
230
1.0
 70
     8
 71
     3
 72
    27
 73
    23
 74
    21
 42
0.0000000001
 43
0.0000000001
 44
0.000001
 12
-0.0013095942947385
 22
-0.9999991424810239
 32
0.0
 13
0.9999991424899166
 23
0.0013095875044402
 33
0.0
 40
0.0
 40
0.0
 40
0.0
 40
0.0
 40
0.0000019993732827
 40
0.0109729238690364
 40
0.0219456832241255
 40
0.033233906955688
 40
0.0445225173186381
 40
0.0555049365438275
 40
0.0664874447463268
 40
0.0777838735223213
 40
0.0890803225818082
 40
0.1000928987018031
 40
0.111105476885026
 40
0.1224341108353947
 40
0.1337627347350278
 40
0.144786071572055
 40
0.1558093609852247
 40
0.1671503029645647
 40
0.1784910216735563
 40
0.193854876391578
 40
0.2094267841283391
 40
0.2094287835026379
 40
0.2094287835026379
 40
0.2094287835026379
 40
0.2094287835026379
 10
-35.4761481071883
 20
3.96279651099627
 30
0.0
 10
-35.47614810806108
 20
3.962795844539073
 30
0.0
 10
-35.47615286418377
 20
3.959138206509265
 30
0.0
 10
-35.47585760935377
 20
3.951819149061435
 30
0.0
 10
-35.47450581094303
 20
3.940812658856117
 30
0.0
 10
-35.47221133837061
 20
3.929853411019678
 30
0.0
 10
-35.46900035542802
 20
3.919123735690362
 30
0.0
 10
-35.46493683720004
 20
3.908797418440542
 30
0.0
 10
-35.46003931882381
 20
3.898836667328367
 30
0.0
 10
-35.45426813369943
 20
3.889231903968948
 30
0.0
 10
-35.4477023195561
 20
3.880139448570957
 30
0.0
 10
-35.44045765487074
 20
3.871703502798652
 30
0.0
 10
-35.43253700552678
 20
3.863883501124576
 30
0.0
 10
-35.42390457588331
 20
3.856689887108927
 30
0.0
 10
-35.41469233518784
 20
3.850249220718524
 30
0.0
 10
-35.40505907166977
 20
3.84465904324
 30
0.0
 10
-35.39499494831158
 20
3.839878512181712
 30
0.0
 10
-35.38446331919562
 20
3.835926174495511
 30
0.0
 10
-35.37224114871725
 20
3.83248831742128
 30
0.0
 10
-35.35832991036754
 20
3.830049263390634
 30
0.0
 10
-35.34800673797305
 20
3.829456426470557
 30
0.0
 10
-35.34281544030033
 20
3.829463176778972
 30
0.0
 10
-35.34281477384281
 20
3.829463177651746
 30
0.0
 11
-35.4761481071883
 21
3.96279651099627
 31
0.0
 11
-35.47614810979155
 21
3.962794511622973
 31
0.0
 11
-35.47570909156963
 21
3.951831780586871
 31
0.0
 11
-35.47436953737929
 21
3.94094109693384
 31
0.0
 11
-35.47205811056028
 21
3.929892044339169
 31
0.0
 11
-35.46882009561637
 21
3.919077781930411
 31
0.0
 11
-35.46480007429869
 21
3.908857543643534
 31
0.0
 11
-35.45995286801741
 21
3.899002575619192
 31
0.0
 11
-35.45413618394849
 21
3.889318782829207
 31
0.0
 11
-35.44752152660749
 21
3.880161467470429
 31
0.0
 11
-35.44034792718242
 21
3.8718058320365
 31
0.0
 11
-35.43251010693149
 21
3.864069825946501
 31
0.0
 11
-35.42380821703097
 21
3.856816177583368
 31
0.0
 11
-35.41452271542141
 21
3.850326375666668
 31
0.0
 11
-35.404989186764
 21
3.84479229050396
 31
0.0
 11
-35.39503141650653
 21
3.840064075482587
 31
0.0
 11
-35.3844140776821
 21
3.836077931205011
 31
0.0
 11
-35.37349665031281
 21
3.833008424036847
 31
0.0
 11
-35.3583637454027
 21
3.83035449643421
 31
0.0
 11
-35.34281677321712
 21
3.829463175048317
 31
0.0
 11
-35.34281477384281
 21
3.829463177651746
 31
0.0
  0
SPLINE
  5
C3
330
2
100
AcDbEntity
  8
GAIKEI
  6
Continuous
 62
     1
100
AcDbSpline
210
0.0
220
0.0
230
1.0
 70
     8
 71
     3
 72
    23
 73
    19
 74
    17
 42
0.0000000001
 43
0.0000000001
 44
0.000001
 12
-0.9999991423760821
 22
0.0013096744251713
 32
0.0
 13
0.0013095981356163
 23
-0.999999142475994
 33
0.0
 40
0.0
 40
0.0
 40
0.0
 40
0.0
 40
0.0000019993731657
 40
0.0148204746112156
 40
0.029688250213945
 40
0.0445102510882752
 40
0.0593431216829316
 40
0.0742226968562547
 40
0.0890558224885516
 40
0.1039302404552057
 40
0.1188515156655028
 40
0.1337259067150327
 40
0.1486157266925368
 40
0.1635525040727908
 40
0.1784417774407239
 40
0.1939108029029149
 40
0.2093771863656494
 40
0.2093791857400121
 40
0.2093791857400121
 40
0.2093791857400121
 40
0.2093791857400121
 10
-35.34281477384411
 20
34.54124926111001
 30
0.0
 10
-35.34281544030127
 20
34.54124926198284
 30
0.0
 10
-35.34775559405851
 20
34.54125568644236
 30
0.0
 10
-35.35766072190464
 20
34.5407011067083
 30
0.0
 10
-35.3723203015476
 20
34.53824399973829
 30
0.0
 10
-35.38662889167243
 20
34.53418644038058
 30
0.0
 10
-35.40038495125239
 20
34.52852309631945
 30
0.0
 10
-35.41343605521123
 20
34.52137999653513
 30
0.0
 10
-35.42563543570981
 20
34.51283586280494
 30
0.0
 10
-35.43679163233701
 20
34.50294710574155
 30
0.0
 10
-35.44679761384308
 20
34.49188015178263
 30
0.0
 10
-35.4555269218524
 20
34.47977179028044
 30
0.0
 10
-35.46281760370372
 20
34.46674047166499
 30
0.0
 10
-35.46862673421018
 20
34.452981368559
 30
0.0
 10
-35.47293288553422
 20
34.43847627735304
 30
0.0
 10
-35.47555943892475
 20
34.42339515210222
 30
0.0
 10
-35.47615481276053
 20
34.41307271723534
 30
0.0
 10
-35.47614810806114
 20
34.40791659423434
 30
0.0
 10
-35.47614810718835
 20
34.4079159277768
 30
0.0
 11
-35.34281477384411
 21
34.54124926111001
 31
0.0
 11
-35.34281677321729
 21
34.54124926371333
 31
0.0
 11
-35.35761335242887
 21
34.54043259650564
 31
0.0
 11
-35.372276535504
 21
34.53797473258954
 31
0.0
 11
-35.38653350290469
 21
34.53392124954201
 31
0.0
 11
-35.400253433307
 21
34.52828403991759
 31
0.0
 11
-35.41330596741443
 21
34.52114025525214
 31
0.0
 11
-35.42544981735989
 21
34.51262268053966
 31
0.0
 11
-35.43658771020466
 21
34.50276386436224
 31
0.0
 11
-35.44659477190317
 21
34.49169572214771
 31
0.0
 11
-35.45528490916325
 21
34.47962386936126
 31
0.0
 11
-35.46256400723326
 21
34.46663456681136
 31
0.0
 11
-35.46837302624118
 21
34.45287364012393
 31
0.0
 11
-35.47260286079814
 21
34.43859780425737
 31
0.0
 11
-35.47526585480125
 21
34.42335972638222
 31
0.0
 11
-35.47614810979167
 21
34.40791792715117
 31
0.0
 11
-35.47614810718835
 21
34.4079159277768
 31
0.0
  0
SPLINE
  5
C4
330
2
100
AcDbEntity
  8
GAIKEI
  6
Continuous
 62
     1
100
AcDbSpline
210
0.0
220
0.0
230
1.0
 70
     8
 71
     3
 72
    27
 73
    23
 74
    21
 42
0.0000000001
 43
0.0000000001
 44
0.000001
 12
0.9999991422236064
 22
0.0013097908426372
 32
0.0
 13
-0.0013095742401228
 23
-0.999999142507287
 33
0.0
 40
0.0
 40
0.0
 40
0.0
 40
0.0
 40
0.0000019993726438
 40
0.0109729238549381
 40
0.0219456832150271
 40
0.0332339069471735
 40
0.0445225173098644
 40
0.0555049365338527
 40
0.0664874447351414
 40
0.0777838735094214
 40
0.089080322567391
 40
0.1000928986859793
 40
0.1111054768681011
 40
0.1224341108168979
 40
0.1337627347150676
 40
0.1447860715513596
 40
0.1558093609643343
 40
0.1671503029427835
 40
0.1784910216512808
 40
0.193854876374831
 40
0.2094267841183152
 40
0.2094287834926779
 40
0.2094287834926779
 40
0.2094287834926779
 40
0.2094287834926779
 10
16.06230464292622
 20
34.54124926110973
 30
0.0
 10
16.06230530938319
 20
34.54124926198264
 30
0.0
 10
16.06596294743917
 20
34.54125401885051
 30
0.0
 10
16.07328200483953
 20
34.54095876294571
 30
0.0
 10
16.08428849505958
 20
34.53960696496429
 30
0.0
 10
16.09524774289288
 20
34.537312492273
 30
0.0
 10
16.1059774182233
 20
34.53410150936282
 30
0.0
 10
16.1163037354722
 20
34.53003799112756
 30
0.0
 10
16.12626448658338
 20
34.52514047275434
 30
0.0
 10
16.13586924994226
 20
34.51936928763138
 30
0.0
 10
16.14496170533937
 20
34.51280347348967
 30
0.0
 10
16.15339765111159
 20
34.50555880880626
 30
0.0
 10
16.16121765278514
 20
34.49763815946364
 30
0.0
 10
16.16841126680124
 20
34.48900572982237
 30
0.0
 10
16.17485193319196
 20
34.47979348912872
 30
0.0
 10
16.18044211067142
 20
34.47016022561175
 30
0.0
 10
16.18522264173022
 20
34.46009610225576
 30
0.0
 10
16.18917497942172
 20
34.44956447313785
 30
0.0
 10
16.19261283648306
 20
34.4373423026718
 30
0.0
 10
16.19505189059009
 20
34.42343106425142
 30
0.0
 10
16.19564472731588
 20
34.41310789203121
 30
0.0
 10
16.19563797714272
 20
34.40791659423434
 30
0.0
 10
16.19563797626995
 20
34.4079159277768
 30
0.0
 11
16.06230464292622
 21
34.54124926110973
 31
0.0
 11
16.06230664229889
 21
34.54124926371333
 31
0.0
 11
16.07326937333368
 21
34.54081024549225
 31
0.0
 11
16.08416005698541
 21
34.53947069130254
 31
0.0
 11
16.09520910957866
 21
34.53715926448473
 31
0.0
 11
16.10602337198634
 21
34.53392124954201
 31
0.0
 11
16.11624361027174
 21
34.52990122822575
 31
0.0
 11
16.12609857829483
 21
34.52505402194572
 31
0.0
 11
16.13578237108368
 21
34.51923733787891
 31
0.0
 11
16.14493968644154
 21
34.51262268053966
 31
0.0
 11
16.15329532187502
 21
34.50544908111652
 31
0.0
 11
16.16103132796473
 21
34.49761126086708
 31
0.0
 11
16.16828497632792
 21
34.48890937096877
 31
0.0
 11
16.17477477824485
 21
34.47962386936126
 31
0.0
 11
16.1803088634083
 21
34.47009034070521
 31
0.0
 11
16.18503707843115
 21
34.46013257044871
 31
0.0
 11
16.1890232227102
 21
34.44951523162581
 31
0.0
 11
16.19209272987967
 21
34.43859780425737
 31
0.0
 11
16.19474665748544
 21
34.42346489934198
 31
0.0
 11
16.19563797887326
 21
34.40791792715117
 31
0.0
 11
16.19563797626995
 21
34.4079159277768
 31
0.0
  0
LINE
  5
C5
330
2
100
AcDbEntity
  8
GAIKEI
  6
PHANTOM
 62
     1
100
AcDbLine
 10
14.25974493581623
 20
32.63535623268831
 30
0.0
 11
14.25974493581623
 21
5.735356232688388
 31
0.0
  0
LINE
  5
C7
330
2
100
AcDbEntity
  8
GAIKEI
  6
PHANTOM
 62
     1
100
AcDbLine
 10
-33.54025506418373
 20
32.63535623268831
 30
0.0
 11
-33.54025506418373
 21
5.735356232688388
 31
0.0
  0
LINE
  5
C8
330
2
100
AcDbEntity
  8
GAIKEI
  6
PHANTOM
 62
     1
100
AcDbLine
 10
14.25974493581623
 20
32.63535623268831
 30
0.0
 11
-33.54025506418373
 21
32.63535623268831
 31
0.0
  0
LINE
  5
C9
330
2
100
AcDbEntity
  8
GAIKEI
  6
PHANTOM
 62
     1
100
AcDbLine
 10
14.25974493581623
 20
5.735356232688388
 30
0.0
 11
-33.54025506418373
 21
5.735356232688388
 31
0.0
  0
POINT
  5
CA
330
2
100
AcDbEntity
  8
GAIKEI
  6
Continuous
 62
     1
100
AcDbPoint
 10
41.30973912079849
 20
19.18537739935499
 30
0.0
  0
LINE
  5
CB
330
2
100
AcDbEntity
  8
GAIKEI
  6
Continuous
 62
     1
100
AcDbLine
 10
39.44973912079849
 20
8.105350132688442
 30
0.0
 11
39.45640578746515
 21
8.105350132688442
 31
0.0
  0
LINE
  5
CC
330
2
100
AcDbEntity
  8
GAIKEI
  6
Continuous
 62
     1
100
AcDbLine
 10
39.44973912079849
 20
11.41535013268839
 30
0.0
 11
39.45640578746515
 21
11.41535013268839
 31
0.0
  0
LINE
  5
CD
330
2
100
AcDbEntity
  8
GAIKEI
  6
Continuous
 62
     7
100
AcDbLine
 10
16.59368280248282
 20
3.950022866021697
 30
0.0
 11
16.59368280248282
 21
34.42028756602173
 31
0.0
  0
LINE
  5
CE
330
2
100
AcDbEntity
  8
GAIKEI
  6
Continuous
 62
     1
100
AcDbLine
 10
16.59571920248282
 20
3.96399826602169
 30
0.0
 11
16.59571920248282
 21
34.40631216602174
 31
0.0
  0
LINE
  5
CF
330
2
100
AcDbEntity
  8
GAIKEI
  6
CENTER
 62
     1
100
AcDbLine
 10
16.81238586914952
 20
4.181578499354998
 30
0.0
 11
16.81238586914952
 21
34.18873193268837
 31
0.0
  0
LINE
  5
D1
330
2
100
AcDbEntity
  8
GAIKEI
  6
CENTER
 62
     1
100
AcDbLine
 10
19.62183233581618
 20
4.181578499354998
 30
0.0
 11
19.62183233581618
 21
34.18873193268837
 31
0.0
  0
LINE
  5
D2
330
2
100
AcDbEntity
  8
GAIKEI
  6
Continuous
 62
     7
100
AcDbLine
 10
19.90592456914948
 20
34.53801979935503
 30
0.0
 11
19.90592456914948
 21
19.18515523268837
 31
0.0
  0
LINE
  5
D3
330
2
100
AcDbEntity
  8
GAIKEI
  6
Continuous
 62
     1
100
AcDbLine
 10
19.83941253581616
 20
3.96399826602169
 30
0.0
 11
19.83941253581616
 21
34.40631216602174
 31
0.0
  0
LINE
  5
D4
330
2
100
AcDbEntity
  8
GAIKEI
  6
CENTER
 62
     1
100
AcDbLine
 10
19.62183233581618
 20
4.180281099354999
 30
0.0
 11
19.62183233581618
 21
34.18743453268837
 31
0.0
  0
LINE
  5
D5
330
2
100
AcDbEntity
  8
GAIKEI
  6
Continuous
 62
     1
100
AcDbLine
 10
16.25974493581628
 20
34.42028756602173
 30
0.0
 11
16.56063530248286
 21
34.42028756602173
 31
0.0
  0
LINE
  5
D6
330
2
100
AcDbEntity
  8
GAIKEI
  6
Continuous
 62
     1
100
AcDbLine
 10
16.25974493581628
 20
34.37028756602172
 30
0.0
 11
16.59368280248282
 21
34.37028756602172
 31
0.0
  0
LINE
  5
D7
330
2
100
AcDbEntity
  8
GAIKEI
  6
DASHED
 62
     1
100
AcDbLine
 10
16.25974493581628
 20
34.35362089935507
 30
0.0
 11
16.59368280248282
 21
34.35362089935507
 31
0.0
  0
LINE
  5
D9
330
2
100
AcDbEntity
  8
GAIKEI
  6
Continuous
 62
     1
100
AcDbLine
 10
16.25974493581628
 20
34.14361179935503
 30
0.0
 11
16.59368280248282
 21
34.14361179935503
 31
0.0
  0
ARC
  5
DA
330
2
100
AcDbEntity
  8
GAIKEI
  6
Continuous
 62
     7
100
AcDbCircle
 10
16.64003916914953
 20
34.53801979935503
 30
0.0
 40
0.0666666666666667
100
AcDbArc
 50
90.0
 51
180.0
  0
LINE
  5
DB
330
2
100
AcDbEntity
  8
GAIKEI
  6
Continuous
 62
     1
100
AcDbLine
 10
16.56063530248286
 20
34.42028756602173
 30
0.0
 11
16.59368280248282
 21
34.42028756602173
 31
0.0
  0
LINE
  5
DC
330
2
100
AcDbEntity
  8
GAIKEI
  6
Continuous
 62
     7
100
AcDbLine
 10
16.57337250248287
 20
34.42028756602173
 30
0.0
 11
16.57337250248287
 21
34.53801979935503
 31
0.0
  0
LINE
  5
DD
330
2
100
AcDbEntity
  8
GAIKEI
  6
CENTER
 62
     1
100
AcDbLine
 10
16.94571920248285
 20
34.3220652660217
 30
0.0
 11
19.48849900248285
 21
34.3220652660217
 31
0.0
  0
ARC
  5
DE
330
2
100
AcDbEntity
  8
GAIKEI
  6
CENTER
 62
     1
100
AcDbCircle
 10
16.94571920248285
 20
34.18873193268837
 30
0.0
 40
0.1333333333333333
100
AcDbArc
 50
90.0
 51
180.0
  0
ARC
  5
DF
330
2
100
AcDbEntity
  8
GAIKEI
  6
Continuous
 62
     1
100
AcDbCircle
 10
16.72905253581621
 20
34.40631216602174
 30
0.0
 40
0.1333333333333333
100
AcDbArc
 50
90.0
 51
180.0
  0
ARC
  5
E0
330
2
100
AcDbEntity
  8
GAIKEI
  6
Continuous
 62
     1
100
AcDbCircle
 10
19.70607920248278
 20
34.40631216602174
 30
0.0
 40
0.1333333333333333
100
AcDbArc
 50
0.0
 51
90.0
  0
ARC
  5
E1
330
2
100
AcDbEntity
  8
GAIKEI
  6
Continuous
 62
     7
100
AcDbCircle
 10
19.83925790248281
 20
34.53801979935503
 30
0.0
 40
0.0666666666666667
100
AcDbArc
 50
0.0
 51
90.0
  0
LINE
  5
E2
330
2
100
AcDbEntity
  8
GAIKEI
  6
Continuous
 62
     1
100
AcDbLine
 10
16.72905253581621
 20
34.53964549935512
 30
0.0
 11
19.70607920248278
 21
34.53964549935512
 31
0.0
  0
LINE
  5
E3
330
2
100
AcDbEntity
  8
GAIKEI
  6
Continuous
 62
     7
100
AcDbLine
 10
19.83925790248281
 20
34.60468646602169
 30
0.0
 11
16.64003916914953
 21
34.60468646602169
 31
0.0
  0
ARC
  5
E4
330
2
100
AcDbEntity
  8
GAIKEI
  6
CENTER
 62
     1
100
AcDbCircle
 10
19.48849900248285
 20
34.18873193268837
 30
0.0
 40
0.1333333333333333
100
AcDbArc
 50
0.0
 51
90.0
  0
LINE
  5
E5
330
2
100
AcDbEntity
  8
GAIKEI
  6
Continuous
 62
     1
100
AcDbLine
 10
16.25974493581628
 20
4.231575599354982
 30
0.0
 11
16.59368280248282
 21
4.231575599355039
 31
0.0
  0
LINE
  5
E6
330
2
100
AcDbEntity
  8
GAIKEI
  6
DASHED
 62
     1
100
AcDbLine
 10
16.25974493581628
 20
4.01668953268836
 30
0.0
 11
16.59368280248282
 21
4.01668953268836
 31
0.0
  0
LINE
  5
E7
330
2
100
AcDbEntity
  8
GAIKEI
  6
Continuous
 62
     1
100
AcDbLine
 10
16.25974493581628
 20
4.000022866021708
 30
0.0
 11
16.59368280248282
 21
4.000022866021708
 31
0.0
  0
LINE
  5
E8
330
2
100
AcDbEntity
  8
GAIKEI
  6
Continuous
 62
     1
100
AcDbLine
 10
16.25974493581628
 20
3.950022866021697
 30
0.0
 11
16.56063530248286
 21
3.950022866021697
 31
0.0
  0
LINE
  5
E9
330
2
100
AcDbEntity
  8
GAIKEI
  6
Continuous
 62
     7
100
AcDbLine
 10
19.90592456914948
 20
19.18515523268837
 30
0.0
 11
19.90592456914948
 21
3.83216043268834
 31
0.0
  0
ARC
  5
EA
330
2
100
AcDbEntity
  8
GAIKEI
  6
Continuous
 62
     1
100
AcDbCircle
 10
16.72905253581621
 20
3.96399826602169
 30
0.0
 40
0.1333333333333333
100
AcDbArc
 50
180.0
 51
270.0
  0
LINE
  5
EB
330
2
100
AcDbEntity
  8
GAIKEI
  6
Continuous
 62
     1
100
AcDbLine
 10
16.56063530248286
 20
3.950022866021697
 30
0.0
 11
16.59368280248282
 21
3.950022866021697
 31
0.0
  0
LINE
  5
EC
330
2
100
AcDbEntity
  8
GAIKEI
  6
Continuous
 62
     7
100
AcDbLine
 10
16.57337250248287
 20
3.83216043268834
 30
0.0
 11
16.57337250248287
 21
3.950022866021697
 31
0.0
  0
ARC
  5
ED
330
2
100
AcDbEntity
  8
GAIKEI
  6
Continuous
 62
     7
100
AcDbCircle
 10
16.64003916914953
 20
3.83216043268834
 30
0.0
 40
0.0666666666666667
100
AcDbArc
 50
180.0
 51
270.0
  0
ARC
  5
EE
330
2
100
AcDbEntity
  8
GAIKEI
  6
CENTER
 62
     1
100
AcDbCircle
 10
16.94571920248285
 20
4.181578499354998
 30
0.0
 40
0.1333333333333333
100
AcDbArc
 50
180.0
 51
270.0
  0
ARC
  5
EF
330
2
100
AcDbEntity
  8
GAIKEI
  6
Continuous
 62
     1
100
AcDbCircle
 10
19.70607920248278
 20
3.96399826602169
 30
0.0
 40
0.1333333333333333
100
AcDbArc
 50
270.0
 51
0.0
  0
LINE
  5
F0
330
2
100
AcDbEntity
  8
GAIKEI
  6
Continuous
 62
     1
100
AcDbLine
 10
19.83730480248283
 20
3.948436466021689
 30
0.0
 11
19.83821623581616
 21
3.948436466021689
 31
0.0
  0
ARC
  5
F1
330
2
100
AcDbEntity
  8
GAIKEI
  6
Continuous
 62
     7
100
AcDbCircle
 10
19.83925790248281
 20
3.83216043268834
 30
0.0
 40
0.0666666666666667
100
AcDbArc
 50
270.0
 51
0.0
  0
LINE
  5
F2
330
2
100
AcDbEntity
  8
GAIKEI
  6
CENTER
 62
     1
100
AcDbLine
 10
16.94571920248285
 20
4.048245166021672
 30
0.0
 11
19.48849900248285
 21
4.048245166021672
 31
0.0
  0
ARC
  5
F3
330
2
100
AcDbEntity
  8
GAIKEI
  6
CENTER
 62
     1
100
AcDbCircle
 10
19.48849900248285
 20
4.181578499354998
 30
0.0
 40
0.1333333333333333
100
AcDbArc
 50
270.0
 51
0.0
  0
LINE
  5
F4
330
2
100
AcDbEntity
  8
GAIKEI
  6
Continuous
 62
     1
100
AcDbLine
 10
16.72905253581621
 20
3.830664932688364
 30
0.0
 11
19.70607920248278
 21
3.830664932688364
 31
0.0
  0
LINE
  5
F5
330
2
100
AcDbEntity
  8
GAIKEI
  6
Continuous
 62
     7
100
AcDbLine
 10
19.83925790248281
 20
3.765493766021677
 30
0.0
 11
16.64003916914953
 21
3.765493766021677
 31
0.0
  0
LINE
  5
F6
330
2
100
AcDbEntity
  8
GAIKEI
  6
Continuous
 62
     1
100
AcDbLine
 10
-35.54025506418373
 20
34.14361179935503
 30
0.0
 11
-35.87419293085048
 21
34.14361179935503
 31
0.0
  0
LINE
  5
F7
330
2
100
AcDbEntity
  8
GAIKEI
  6
DASHED
 62
     1
100
AcDbLine
 10
-35.54025506418373
 20
34.35362089935507
 30
0.0
 11
-35.87419293085048
 21
34.35362089935507
 31
0.0
  0
LINE
  5
F8
330
2
100
AcDbEntity
  8
GAIKEI
  6
Continuous
 62
     1
100
AcDbLine
 10
-35.54025506418373
 20
34.37028756602172
 30
0.0
 11
-35.87419293085048
 21
34.37028756602172
 31
0.0
  0
LINE
  5
F9
330
2
100
AcDbEntity
  8
GAIKEI
  6
Continuous
 62
     1
100
AcDbLine
 10
-35.54025506418367
 20
34.42028756602173
 30
0.0
 11
-35.84114543085053
 21
34.42028756602173
 31
0.0
  0
LINE
  5
FA
330
2
100
AcDbEntity
  8
GAIKEI
  6
Continuous
 62
     7
100
AcDbLine
 10
-35.87622933085049
 20
3.96399826602169
 30
0.0
 11
-35.87622933085049
 21
34.40631216602174
 31
0.0
  0
LINE
  5
FB
330
2
100
AcDbEntity
  8
GAIKEI
  6
CENTER
 62
     1
100
AcDbLine
 10
-36.09289599751714
 20
4.181578499354998
 30
0.0
 11
-36.09289599751714
 21
34.18873193268837
 31
0.0
  0
LINE
  5
FC
330
2
100
AcDbEntity
  8
GAIKEI
  6
CENTER
 62
     1
100
AcDbLine
 10
-38.90234246418385
 20
4.181578499354998
 30
0.0
 11
-38.90234246418385
 21
34.18873193268837
 31
0.0
  0
LINE
  5
FD
330
2
100
AcDbEntity
  8
GAIKEI
  6
Continuous
 62
     7
100
AcDbLine
 10
-39.18643469751714
 20
34.53801979935503
 30
0.0
 11
-39.18643469751714
 21
19.18515523268837
 31
0.0
  0
LINE
  5
FE
330
2
100
AcDbEntity
  8
GAIKEI
  6
Continuous
 62
     1
100
AcDbLine
 10
-39.11992266418378
 20
3.96399826602169
 30
0.0
 11
-39.11992266418378
 21
34.40631216602174
 31
0.0
  0
LINE
  5
FF
330
2
100
AcDbEntity
  8
GAIKEI
  6
CENTER
 62
     1
100
AcDbLine
 10
-38.90234246418385
 20
4.180281099354999
 30
0.0
 11
-38.90234246418385
 21
34.18743453268837
 31
0.0
  0
ARC
  5
100
330
2
100
AcDbEntity
  8
GAIKEI
  6
CENTER
 62
     1
100
AcDbCircle
 10
-38.76900913085052
 20
34.18873193268837
 30
0.0
 40
0.1333333333333333
100
AcDbArc
 50
90.0
 51
180.0
  0
LINE
  5
101
330
2
100
AcDbEntity
  8
GAIKEI
  6
Continuous
 62
     7
100
AcDbLine
 10
-39.11976803085048
 20
34.60468646602169
 30
0.0
 11
-35.92054929751714
 21
34.60468646602169
 31
0.0
  0
LINE
  5
102
330
2
100
AcDbEntity
  8
GAIKEI
  6
Continuous
 62
     1
100
AcDbLine
 10
-36.00956266418382
 20
34.53964549935512
 30
0.0
 11
-38.98658933085045
 21
34.53964549935512
 31
0.0
  0
ARC
  5
103
330
2
100
AcDbEntity
  8
GAIKEI
  6
Continuous
 62
     1
100
AcDbCircle
 10
-39.11976803085048
 20
34.53801979935503
 30
0.0
 40
0.0666666666666667
100
AcDbArc
 50
90.0
 51
180.0
  0
ARC
  5
104
330
2
100
AcDbEntity
  8
GAIKEI
  6
Continuous
 62
     1
100
AcDbCircle
 10
-38.98658933085045
 20
34.40631216602174
 30
0.0
 40
0.1333333333333333
100
AcDbArc
 50
90.0
 51
180.0
  0
ARC
  5
105
330
2
100
AcDbEntity
  8
GAIKEI
  6
Continuous
 62
     1
100
AcDbCircle
 10
-36.00956266418382
 20
34.40631216602174
 30
0.0
 40
0.1333333333333333
100
AcDbArc
 50
0.0
 51
90.0
  0
ARC
  5
106
330
2
100
AcDbEntity
  8
GAIKEI
  6
CENTER
 62
     1
100
AcDbCircle
 10
-36.22622933085052
 20
34.18873193268837
 30
0.0
 40
0.1333333333333333
100
AcDbArc
 50
0.0
 51
90.0
  0
LINE
  5
107
330
2
100
AcDbEntity
  8
GAIKEI
  6
CENTER
 62
     1
100
AcDbLine
 10
-36.22622933085052
 20
34.3220652660217
 30
0.0
 11
-38.76900913085052
 21
34.3220652660217
 31
0.0
  0
LINE
  5
108
330
2
100
AcDbEntity
  8
GAIKEI
  6
Continuous
 62
     7
100
AcDbLine
 10
-35.85388263085048
 20
34.42028756602173
 30
0.0
 11
-35.85388263085048
 21
34.53801979935503
 31
0.0
  0
LINE
  5
109
330
2
100
AcDbEntity
  8
GAIKEI
  6
Continuous
 62
     1
100
AcDbLine
 10
-35.84114543085053
 20
34.42028756602173
 30
0.0
 11
-35.87419293085048
 21
34.42028756602173
 31
0.0
  0
ARC
  5
10A
330
2
100
AcDbEntity
  8
GAIKEI
  6
Continuous
 62
     7
100
AcDbCircle
 10
-35.92054929751714
 20
34.53801979935503
 30
0.0
 40
0.0666666666666667
100
AcDbArc
 50
0.0
 51
90.0
  0
LINE
  5
10B
330
2
100
AcDbEntity
  8
GAIKEI
  6
Continuous
 62
     1
100
AcDbLine
 10
-35.54025506418373
 20
4.231575599355039
 30
0.0
 11
-35.87419293085048
 21
4.231575599355039
 31
0.0
  0
LINE
  5
10C
330
2
100
AcDbEntity
  8
GAIKEI
  6
DASHED
 62
     1
100
AcDbLine
 10
-35.54025506418373
 20
4.01668953268836
 30
0.0
 11
-35.87419293085048
 21
4.01668953268836
 31
0.0
  0
LINE
  5
10D
330
2
100
AcDbEntity
  8
GAIKEI
  6
Continuous
 62
     1
100
AcDbLine
 10
-35.54025506418373
 20
4.000022866021708
 30
0.0
 11
-35.87419293085048
 21
4.000022866021708
 31
0.0
  0
LINE
  5
10E
330
2
100
AcDbEntity
  8
GAIKEI
  6
Continuous
 62
     1
100
AcDbLine
 10
-35.54025506418367
 20
3.950022866021697
 30
0.0
 11
-35.84114543085053
 21
3.950022866021697
 31
0.0
  0
LINE
  5
10F
330
2
100
AcDbEntity
  8
GAIKEI
  6
Continuous
 62
     7
100
AcDbLine
 10
-39.18643469751714
 20
19.18515523268837
 30
0.0
 11
-39.18643469751714
 21
3.83216043268834
 31
0.0
  0
LINE
  5
110
330
2
100
AcDbEntity
  8
GAIKEI
  6
Continuous
 62
     7
100
AcDbLine
 10
-39.11976803085048
 20
3.765493766021677
 30
0.0
 11
-35.92054929751714
 21
3.765493766021677
 31
0.0
  0
LINE
  5
111
330
2
100
AcDbEntity
  8
GAIKEI
  6
Continuous
 62
     1
100
AcDbLine
 10
-36.00956266418382
 20
3.830664932688364
 30
0.0
 11
-38.98658933085045
 21
3.830664932688364
 31
0.0
  0
ARC
  5
112
330
2
100
AcDbEntity
  8
GAIKEI
  6
CENTER
 62
     1
100
AcDbCircle
 10
-38.76900913085052
 20
4.181578499354998
 30
0.0
 40
0.1333333333333333
100
AcDbArc
 50
180.0
 51
270.0
  0
LINE
  5
113
330
2
100
AcDbEntity
  8
GAIKEI
  6
CENTER
 62
     1
100
AcDbLine
 10
-36.22622933085052
 20
4.048245166021672
 30
0.0
 11
-38.76900913085052
 21
4.048245166021672
 31
0.0
  0
ARC
  5
114
330
2
100
AcDbEntity
  8
GAIKEI
  6
Continuous
 62
     7
100
AcDbCircle
 10
-39.11976803085048
 20
3.83216043268834
 30
0.0
 40
0.0666666666666667
100
AcDbArc
 50
180.0
 51
270.0
  0
LINE
  5
115
330
2
100
AcDbEntity
  8
GAIKEI
  6
Continuous
 62
     1
100
AcDbLine
 10
-39.1178149308505
 20
3.948436466021689
 30
0.0
 11
-39.11872636418383
 21
3.948436466021689
 31
0.0
  0
ARC
  5
116
330
2
100
AcDbEntity
  8
GAIKEI
  6
Continuous
 62
     1
100
AcDbCircle
 10
-38.98658933085045
 20
3.96399826602169
 30
0.0
 40
0.1333333333333333
100
AcDbArc
 50
180.0
 51
270.0
  0
ARC
  5
117
330
2
100
AcDbEntity
  8
GAIKEI
  6
CENTER
 62
     1
100
AcDbCircle
 10
-36.22622933085052
 20
4.181578499354998
 30
0.0
 40
0.1333333333333333
100
AcDbArc
 50
270.0
 51
0.0
  0
ARC
  5
118
330
2
100
AcDbEntity
  8
GAIKEI
  6
Continuous
 62
     7
100
AcDbCircle
 10
-35.92054929751714
 20
3.83216043268834
 30
0.0
 40
0.0666666666666667
100
AcDbArc
 50
270.0
 51
0.0
  0
LINE
  5
119
330
2
100
AcDbEntity
  8
GAIKEI
  6
Continuous
 62
     7
100
AcDbLine
 10
-35.85388263085048
 20
3.83216043268834
 30
0.0
 11
-35.85388263085048
 21
3.950022866021697
 31
0.0
  0
LINE
  5
11A
330
2
100
AcDbEntity
  8
GAIKEI
  6
Continuous
 62
     1
100
AcDbLine
 10
-35.84114543085053
 20
3.950022866021697
 30
0.0
 11
-35.87419293085048
 21
3.950022866021697
 31
0.0
  0
ARC
  5
11B
330
2
100
AcDbEntity
  8
GAIKEI
  6
Continuous
 62
     1
100
AcDbCircle
 10
-36.00956266418382
 20
3.96399826602169
 30
0.0
 40
0.1333333333333333
100
AcDbArc
 50
270.0
 51
0.0
  0
LINE
  5
11C
330
2
100
AcDbEntity
  8
GAIKEI
  6
Continuous
 62
     7
100
AcDbLine
 10
41.37973912079849
 20
28.44535013268836
 30
0.0
 11
41.37973912079849
 21
27.602016799355
 31
0.0
  0
LINE
  5
11D
330
2
100
AcDbEntity
  8
GAIKEI
  6
Continuous
 62
     7
100
AcDbLine
 10
41.37973912079849
 20
8.412016799355001
 30
0.0
 11
41.37973912079849
 21
7.568683466021695
 31
0.0
  0
POINT
  5
11E
330
2
100
AcDbEntity
  8
GAIKEI
  6
Continuous
 62
     1
100
AcDbPoint
 10
41.30973912079849
 20
19.18537736602167
 30
0.0
  0
ARC
  5
11F
330
2
100
AcDbEntity
  8
GAIKEI
  6
Continuous
 62
     1
100
AcDbCircle
 10
41.39307245413187
 20
9.068683466021695
 30
0.0
 40
0.0533333333333334
100
AcDbArc
 50
270.0
 51
0.0
  0
ARC
  5
120
330
2
100
AcDbEntity
  8
GAIKEI
  6
Continuous
 62
     1
100
AcDbCircle
 10
41.39307245413187
 20
9.268683466021684
 30
0.0
 40
0.0533333333333334
100
AcDbArc
 50
0.0
 51
90.0
  0
ARC
  5
121
330
2
100
AcDbEntity
  8
GAIKEI
  6
Continuous
 62
     1
100
AcDbCircle
 10
41.07973912079848
 20
8.18535013268837
 30
0.0
 40
0.0333333333333333
100
AcDbArc
 50
180.0
 51
270.0
  0
ARC
  5
122
330
2
100
AcDbEntity
  8
GAIKEI
  6
Continuous
 62
     1
100
AcDbCircle
 10
41.17973912079849
 20
10.15201679935507
 30
0.0
 40
0.0333333333333333
100
AcDbArc
 50
0.0
 51
90.0
  0
ARC
  5
123
330
2
100
AcDbEntity
  8
GAIKEI
  6
Continuous
 62
     1
100
AcDbCircle
 10
41.07973912079848
 20
9.718683466021673
 30
0.0
 40
0.0333333333333333
100
AcDbArc
 50
205.8419329999516
 51
270.0
  0
ARC
  5
124
330
2
100
AcDbEntity
  8
GAIKEI
  6
Continuous
 62
     1
100
AcDbCircle
 10
41.07973912079848
 20
10.15201679935507
 30
0.0
 40
0.0333333333333333
100
AcDbArc
 50
90.0
 51
180.0
  0
ARC
  5
125
330
2
100
AcDbEntity
  8
GAIKEI
  6
Continuous
 62
     1
100
AcDbCircle
 10
41.17973912079849
 20
9.718683466021673
 30
0.0
 40
0.0333333333333333
100
AcDbArc
 50
270.0
 51
0.0
  0
ARC
  5
126
330
2
100
AcDbEntity
  8
GAIKEI
  6
Continuous
 62
     1
100
AcDbCircle
 10
41.17973912079849
 20
8.18535013268837
 30
0.0
 40
0.0333333333333333
100
AcDbArc
 50
270.0
 51
0.0
  0
LINE
  5
127
330
2
100
AcDbEntity
  8
GAIKEI
  6
Continuous
 62
     1
100
AcDbLine
 10
41.44640578746515
 20
9.068683466021695
 30
0.0
 11
41.44640578746515
 21
9.268683466021684
 31
0.0
  0
LINE
  5
128
330
2
100
AcDbEntity
  8
GAIKEI
  6
Continuous
 62
     1
100
AcDbLine
 10
40.49640252079848
 20
7.568683466021695
 30
0.0
 11
41.32640578746515
 21
7.568683466021695
 31
0.0
  0
LINE
  5
129
330
2
100
AcDbEntity
  8
GAIKEI
  6
Continuous
 62
     1
100
AcDbLine
 10
41.07973912079848
 20
9.68535013268837
 30
0.0
 11
41.17973912079849
 21
9.68535013268837
 31
0.0
  0
LINE
  5
12A
330
2
100
AcDbEntity
  8
GAIKEI
  6
Continuous
 62
     1
100
AcDbLine
 10
41.17973912079849
 20
8.152016799355067
 30
0.0
 11
41.07973912079848
 21
8.152016799355067
 31
0.0
  0
LINE
  5
12B
330
2
100
AcDbEntity
  8
GAIKEI
  6
Continuous
 62
     1
100
AcDbLine
 10
41.2130724541318
 20
9.718683466021673
 30
0.0
 11
41.2130724541318
 21
10.15201679935507
 31
0.0
  0
LINE
  5
12C
330
2
100
AcDbEntity
  8
GAIKEI
  6
Continuous
 62
     1
100
AcDbLine
 10
41.2130724541318
 20
8.385350132688358
 30
0.0
 11
41.2130724541318
 21
8.18535013268837
 31
0.0
  0
LINE
  5
12D
330
2
100
AcDbEntity
  8
GAIKEI
  6
Continuous
 62
     1
100
AcDbLine
 10
41.32640578746515
 20
10.76868346602168
 30
0.0
 11
41.01337845413178
 21
11.00266349935504
 31
0.0
  0
LINE
  5
12E
330
2
100
AcDbEntity
  8
GAIKEI
  6
Continuous
 62
     1
100
AcDbLine
 10
41.04640578746518
 20
8.18535013268837
 30
0.0
 11
41.04640578746518
 21
8.385350132688358
 31
0.0
  0
LINE
  5
12F
330
2
100
AcDbEntity
  8
GAIKEI
  6
Continuous
 62
     1
100
AcDbLine
 10
41.04640578746518
 20
10.15201679935507
 30
0.0
 11
41.04640578746518
 21
9.952016799355021
 31
0.0
  0
LINE
  5
130
330
2
100
AcDbEntity
  8
GAIKEI
  6
Continuous
 62
     1
100
AcDbLine
 10
41.17973912079849
 20
10.18535013268837
 30
0.0
 11
41.07973912079848
 21
10.18535013268837
 31
0.0
  0
LINE
  5
131
330
2
100
AcDbEntity
  8
GAIKEI
  6
Continuous
 62
     7
100
AcDbLine
 10
41.32640578746515
 20
7.568683466021695
 30
0.0
 11
41.37973912079849
 21
7.568683466021695
 31
0.0
  0
LINE
  5
132
330
2
100
AcDbEntity
  8
GAIKEI
  6
Continuous
 62
     7
100
AcDbLine
 10
41.37973912079849
 20
10.76868346602168
 30
0.0
 11
41.37973912079849
 21
9.452016799355021
 31
0.0
  0
LINE
  5
133
330
2
100
AcDbEntity
  8
GAIKEI
  6
Continuous
 62
     7
100
AcDbLine
 10
41.37973912079849
 20
10.76868346602168
 30
0.0
 11
41.32640578746515
 21
10.76868346602168
 31
0.0
  0
POINT
  5
134
330
2
100
AcDbEntity
  8
GAIKEI
  6
Continuous
 62
     1
100
AcDbPoint
 10
40.71973912079852
 20
9.168683466021718
 30
0.0
  0
LINE
  5
135
330
2
100
AcDbEntity
  8
GAIKEI
  6
Continuous
 62
     7
100
AcDbLine
 10
41.39307245413187
 20
29.44535013268836
 30
0.0
 11
41.39307245413187
 21
28.48535013268838
 31
0.0
  0
LINE
  5
136
330
2
100
AcDbEntity
  8
GAIKEI
  6
Continuous
 62
     1
100
AcDbLine
 10
41.16973912079851
 20
29.98535013268838
 30
0.0
 11
41.16973912079851
 21
29.71868346602173
 31
0.0
  0
LINE
  5
137
330
2
100
AcDbEntity
  8
GAIKEI
  6
Continuous
 62
     1
100
AcDbLine
 10
41.16973912079851
 20
29.98535013268838
 30
0.0
 11
40.48847608746513
 21
29.98535013268838
 31
0.0
  0
LINE
  5
138
330
2
100
AcDbEntity
  8
GAIKEI
  6
Continuous
 62
     1
100
AcDbLine
 10
41.32640578746515
 20
28.41868346602172
 30
0.0
 11
40.51494935413183
 21
28.41868346602172
 31
0.0
  0
ARC
  5
139
330
2
100
AcDbEntity
  8
GAIKEI
  6
Continuous
 62
     7
100
AcDbCircle
 10
41.32640578746515
 20
28.48535013268838
 30
0.0
 40
0.0666666666666667
100
AcDbArc
 50
270.0
 51
0.0
  0
LINE
  5
13A
330
2
100
AcDbEntity
  8
GAIKEI
  6
Continuous
 62
     1
100
AcDbLine
 10
41.32640578746515
 20
29.51201679935503
 30
0.0
 11
41.08307245413181
 21
29.51201679935503
 31
0.0
  0
ARC
  5
13B
330
2
100
AcDbEntity
  8
GAIKEI
  6
Continuous
 62
     1
100
AcDbCircle
 10
41.32640578746515
 20
29.44535013268836
 30
0.0
 40
0.0666666666666667
100
AcDbArc
 50
0.0
 51
90.0
  0
LINE
  5
13C
330
2
100
AcDbEntity
  8
GAIKEI
  6
Continuous
 62
     1
100
AcDbLine
 10
41.0497391207985
 20
29.73535013268838
 30
0.0
 11
41.0497391207985
 21
29.54535013268833
 31
0.0
  0
ARC
  5
13D
330
2
100
AcDbEntity
  8
GAIKEI
  6
Continuous
 62
     1
100
AcDbCircle
 10
41.08307245413181
 20
29.54535013268833
 30
0.0
 40
0.0333333333333333
100
AcDbArc
 50
180.0
 51
270.0
  0
LINE
  5
13E
330
2
100
AcDbEntity
  8
GAIKEI
  6
Continuous
 62
     1
100
AcDbLine
 10
40.98640578746517
 20
29.93201679935504
 30
0.0
 11
40.49640252079848
 21
29.93201679935504
 31
0.0
  0
LINE
  5
13F
330
2
100
AcDbEntity
  8
GAIKEI
  6
Continuous
 62
     1
100
AcDbLine
 10
40.98640578746517
 20
28.47201679935506
 30
0.0
 11
40.50437985413185
 21
28.47201679935506
 31
0.0
  0
LINE
  5
140
330
2
100
AcDbEntity
  8
GAIKEI
  6
Continuous
 62
     1
100
AcDbLine
 10
40.98640578746517
 20
29.98535013268838
 30
0.0
 11
40.98640578746517
 21
29.38535013268842
 31
0.0
  0
LINE
  5
141
330
2
100
AcDbEntity
  8
GAIKEI
  6
Continuous
 62
     1
100
AcDbLine
 10
41.16973912079851
 20
29.76868346602169
 30
0.0
 11
41.08307245413181
 21
29.76868346602169
 31
0.0
  0
LINE
  5
142
330
2
100
AcDbEntity
  8
GAIKEI
  6
Continuous
 62
     1
100
AcDbLine
 10
41.11640578746516
 20
29.76868346602169
 30
0.0
 11
41.11640578746516
 21
29.71868346602173
 31
0.0
  0
ARC
  5
143
330
2
100
AcDbEntity
  8
GAIKEI
  6
Continuous
 62
     1
100
AcDbCircle
 10
41.08307245413181
 20
29.73535013268838
 30
0.0
 40
0.0333333333333333
100
AcDbArc
 50
90.0
 51
180.0
  0
LINE
  5
144
330
2
100
AcDbEntity
  8
GAIKEI
  6
Continuous
 62
     1
100
AcDbLine
 10
40.98640578746517
 20
29.01868346602169
 30
0.0
 11
40.98640578746517
 21
28.41868346602172
 31
0.0
  0
LINE
  5
145
330
2
100
AcDbEntity
  8
GAIKEI
  6
Continuous
 62
     1
100
AcDbLine
 10
40.91973912079851
 20
29.3186834660217
 30
0.0
 11
40.48847608746513
 21
29.3186834660217
 31
0.0
  0
LINE
  5
146
330
2
100
AcDbEntity
  8
GAIKEI
  6
Continuous
 62
     1
100
AcDbLine
 10
40.91973912079851
 20
29.08535013268835
 30
0.0
 11
40.48847608746513
 21
29.08535013268835
 31
0.0
  0
ARC
  5
147
330
2
100
AcDbEntity
  8
GAIKEI
  6
Continuous
 62
     1
100
AcDbCircle
 10
40.91973912079851
 20
29.01868346602169
 30
0.0
 40
0.0666666666666667
100
AcDbArc
 50
0.0
 51
90.0
  0
ARC
  5
148
330
2
100
AcDbEntity
  8
GAIKEI
  6
Continuous
 62
     1
100
AcDbCircle
 10
40.91973912079851
 20
29.38535013268842
 30
0.0
 40
0.0666666666666667
100
AcDbArc
 50
270.0
 51
0.0
  0
LINE
  5
149
330
2
100
AcDbEntity
  8
GAIKEI
  6
Continuous
 62
     7
100
AcDbLine
 10
41.39307245413187
 20
9.412016799355001
 30
0.0
 11
41.39307245413187
 21
8.452016799355021
 31
0.0
  0
LINE
  5
14A
330
2
100
AcDbEntity
  8
GAIKEI
  6
Continuous
 62
     1
100
AcDbLine
 10
41.16973912079851
 20
9.952016799355021
 30
0.0
 11
41.16973912079851
 21
9.68535013268837
 31
0.0
  0
LINE
  5
14B
330
2
100
AcDbEntity
  8
GAIKEI
  6
Continuous
 62
     1
100
AcDbLine
 10
41.16973912079851
 20
9.952016799355021
 30
0.0
 11
40.51494892079847
 21
9.952016799355021
 31
0.0
  0
LINE
  5
14C
330
2
100
AcDbEntity
  8
GAIKEI
  6
Continuous
 62
     1
100
AcDbLine
 10
41.32640578746515
 20
8.385350132688358
 30
0.0
 11
40.49640252079848
 21
8.385350132688358
 31
0.0
  0
ARC
  5
14D
330
2
100
AcDbEntity
  8
GAIKEI
  6
Continuous
 62
     1
100
AcDbCircle
 10
41.32640578746515
 20
8.452016799355021
 30
0.0
 40
0.0666666666666667
100
AcDbArc
 50
270.0
 51
0.0
  0
LINE
  5
14E
330
2
100
AcDbEntity
  8
GAIKEI
  6
Continuous
 62
     1
100
AcDbLine
 10
41.32640578746515
 20
9.478683466021664
 30
0.0
 11
41.08307245413181
 21
9.478683466021664
 31
0.0
  0
ARC
  5
14F
330
2
100
AcDbEntity
  8
GAIKEI
  6
Continuous
 62
     1
100
AcDbCircle
 10
41.32640578746515
 20
9.412016799355001
 30
0.0
 40
0.0666666666666667
100
AcDbArc
 50
0.0
 51
90.0
  0
LINE
  5
150
330
2
100
AcDbEntity
  8
GAIKEI
  6
Continuous
 62
     1
100
AcDbLine
 10
41.0497391207985
 20
9.702016799355021
 30
0.0
 11
41.0497391207985
 21
9.512016799355023
 31
0.0
  0
ARC
  5
151
330
2
100
AcDbEntity
  8
GAIKEI
  6
Continuous
 62
     1
100
AcDbCircle
 10
41.08307245413181
 20
9.512016799355023
 30
0.0
 40
0.0333333333333333
100
AcDbArc
 50
180.0
 51
270.0
  0
LINE
  5
152
330
2
100
AcDbEntity
  8
GAIKEI
  6
Continuous
 62
     1
100
AcDbLine
 10
40.98640578746517
 20
9.89868346602168
 30
0.0
 11
40.50437955413184
 21
9.89868346602168
 31
0.0
  0
LINE
  5
153
330
2
100
AcDbEntity
  8
GAIKEI
  6
Continuous
 62
     1
100
AcDbLine
 10
40.98640578746517
 20
8.4386834660217
 30
0.0
 11
40.49640252079848
 21
8.4386834660217
 31
0.0
  0
LINE
  5
154
330
2
100
AcDbEntity
  8
GAIKEI
  6
Continuous
 62
     1
100
AcDbLine
 10
40.98640578746517
 20
9.952016799355021
 30
0.0
 11
40.98640578746517
 21
9.352016799354998
 31
0.0
  0
LINE
  5
155
330
2
100
AcDbEntity
  8
GAIKEI
  6
Continuous
 62
     1
100
AcDbLine
 10
41.16973912079851
 20
9.735350132688381
 30
0.0
 11
41.08307245413181
 21
9.735350132688381
 31
0.0
  0
LINE
  5
156
330
2
100
AcDbEntity
  8
GAIKEI
  6
Continuous
 62
     1
100
AcDbLine
 10
41.11640578746516
 20
9.735350132688381
 30
0.0
 11
41.11640578746516
 21
9.68535013268837
 31
0.0
  0
ARC
  5
157
330
2
100
AcDbEntity
  8
GAIKEI
  6
Continuous
 62
     1
100
AcDbCircle
 10
41.08307245413181
 20
9.702016799355021
 30
0.0
 40
0.0333333333333333
100
AcDbArc
 50
90.0
 51
180.0
  0
LINE
  5
158
330
2
100
AcDbEntity
  8
GAIKEI
  6
Continuous
 62
     1
100
AcDbLine
 10
40.98640578746517
 20
8.985350132688381
 30
0.0
 11
40.98640578746517
 21
8.385350132688358
 31
0.0
  0
LINE
  5
159
330
2
100
AcDbEntity
  8
GAIKEI
  6
Continuous
 62
     1
100
AcDbLine
 10
40.91973912079851
 20
9.285350132688392
 30
0.0
 11
40.49640252079848
 21
9.285350132688392
 31
0.0
  0
LINE
  5
15A
330
2
100
AcDbEntity
  8
GAIKEI
  6
Continuous
 62
     1
100
AcDbLine
 10
40.91973912079851
 20
9.052016799355044
 30
0.0
 11
40.49640252079848
 21
9.052016799355044
 31
0.0
  0
ARC
  5
15B
330
2
100
AcDbEntity
  8
GAIKEI
  6
Continuous
 62
     1
100
AcDbCircle
 10
40.91973912079851
 20
8.985350132688381
 30
0.0
 40
0.0666666666666667
100
AcDbArc
 50
0.0
 51
90.0
  0
ARC
  5
15C
330
2
100
AcDbEntity
  8
GAIKEI
  6
Continuous
 62
     1
100
AcDbCircle
 10
40.91973912079851
 20
9.352016799354998
 30
0.0
 40
0.0666666666666667
100
AcDbArc
 50
270.0
 51
0.0
  0
ARC
  5
15D
330
2
100
AcDbEntity
  8
GAIKEI
  6
Continuous
 62
     1
100
AcDbCircle
 10
41.39307245413187
 20
29.102016799355
 30
0.0
 40
0.0533333333333334
100
AcDbArc
 50
270.0
 51
0.0
  0
ARC
  5
15E
330
2
100
AcDbEntity
  8
GAIKEI
  6
Continuous
 62
     1
100
AcDbCircle
 10
41.39307245413187
 20
29.30201679935505
 30
0.0
 40
0.0533333333333334
100
AcDbArc
 50
0.0
 51
90.0
  0
ARC
  5
15F
330
2
100
AcDbEntity
  8
GAIKEI
  6
Continuous
 62
     1
100
AcDbCircle
 10
41.07973912079848
 20
28.21868346602173
 30
0.0
 40
0.0333333333333333
100
AcDbArc
 50
180.0
 51
270.0
  0
ARC
  5
160
330
2
100
AcDbEntity
  8
GAIKEI
  6
Continuous
 62
     1
100
AcDbCircle
 10
41.17973912079849
 20
30.18535013268837
 30
0.0
 40
0.0333333333333333
100
AcDbArc
 50
0.0
 51
90.0
  0
ARC
  5
161
330
2
100
AcDbEntity
  8
GAIKEI
  6
Continuous
 62
     1
100
AcDbCircle
 10
41.07973912079848
 20
29.75201679935504
 30
0.0
 40
0.0333333333333333
100
AcDbArc
 50
205.8419329999516
 51
270.0
  0
ARC
  5
162
330
2
100
AcDbEntity
  8
GAIKEI
  6
Continuous
 62
     1
100
AcDbCircle
 10
41.07973912079848
 20
30.18535013268837
 30
0.0
 40
0.0333333333333333
100
AcDbArc
 50
90.0
 51
180.0
  0
ARC
  5
163
330
2
100
AcDbEntity
  8
GAIKEI
  6
Continuous
 62
     1
100
AcDbCircle
 10
41.17973912079849
 20
29.75201679935504
 30
0.0
 40
0.0333333333333333
100
AcDbArc
 50
270.0
 51
0.0
  0
ARC
  5
164
330
2
100
AcDbEntity
  8
GAIKEI
  6
Continuous
 62
     1
100
AcDbCircle
 10
41.17973912079849
 20
28.21868346602173
 30
0.0
 40
0.0333333333333333
100
AcDbArc
 50
270.0
 51
0.0
  0
LINE
  5
165
330
2
100
AcDbEntity
  8
GAIKEI
  6
Continuous
 62
     1
100
AcDbLine
 10
41.44640578746515
 20
29.102016799355
 30
0.0
 11
41.44640578746515
 21
29.30201679935505
 31
0.0
  0
LINE
  5
166
330
2
100
AcDbEntity
  8
GAIKEI
  6
Continuous
 62
     1
100
AcDbLine
 10
41.01337845413178
 20
27.602016799355
 30
0.0
 11
41.32640578746515
 21
27.602016799355
 31
0.0
  0
LINE
  5
167
330
2
100
AcDbEntity
  8
GAIKEI
  6
Continuous
 62
     1
100
AcDbLine
 10
41.07973912079848
 20
29.71868346602173
 30
0.0
 11
41.17973912079849
 21
29.71868346602173
 31
0.0
  0
LINE
  5
168
330
2
100
AcDbEntity
  8
GAIKEI
  6
Continuous
 62
     1
100
AcDbLine
 10
41.17973912079849
 20
28.18535013268837
 30
0.0
 11
41.07973912079848
 21
28.18535013268837
 31
0.0
  0
LINE
  5
169
330
2
100
AcDbEntity
  8
GAIKEI
  6
Continuous
 62
     1
100
AcDbLine
 10
41.2130724541318
 20
29.75201679935504
 30
0.0
 11
41.2130724541318
 21
30.18535013268837
 31
0.0
  0
LINE
  5
16A
330
2
100
AcDbEntity
  8
GAIKEI
  6
Continuous
 62
     1
100
AcDbLine
 10
41.2130724541318
 20
28.41868346602172
 30
0.0
 11
41.2130724541318
 21
28.21868346602173
 31
0.0
  0
LINE
  5
16B
330
2
100
AcDbEntity
  8
GAIKEI
  6
Continuous
 62
     7
100
AcDbLine
 10
41.32640578746515
 20
30.80201679935504
 30
0.0
 11
40.48038258746515
 21
31.43439776602173
 31
0.0
  0
LINE
  5
16C
330
2
100
AcDbEntity
  8
GAIKEI
  6
Continuous
 62
     1
100
AcDbLine
 10
41.04640578746518
 20
28.21868346602173
 30
0.0
 11
41.04640578746518
 21
28.41868346602172
 31
0.0
  0
LINE
  5
16D
330
2
100
AcDbEntity
  8
GAIKEI
  6
Continuous
 62
     1
100
AcDbLine
 10
41.04640578746518
 20
30.18535013268837
 30
0.0
 11
41.04640578746518
 21
29.98535013268838
 31
0.0
  0
LINE
  5
16E
330
2
100
AcDbEntity
  8
GAIKEI
  6
Continuous
 62
     1
100
AcDbLine
 10
41.17973912079849
 20
30.21868346602173
 30
0.0
 11
41.07973912079848
 21
30.21868346602173
 31
0.0
  0
LINE
  5
16F
330
2
100
AcDbEntity
  8
GAIKEI
  6
Continuous
 62
     1
100
AcDbLine
 10
41.32640578746515
 20
27.602016799355
 30
0.0
 11
41.37973912079849
 21
27.602016799355
 31
0.0
  0
LINE
  5
170
330
2
100
AcDbEntity
  8
GAIKEI
  6
Continuous
 62
     7
100
AcDbLine
 10
41.37973912079849
 20
30.80201679935504
 30
0.0
 11
41.37973912079849
 21
29.48535013268838
 31
0.0
  0
LINE
  5
171
330
2
100
AcDbEntity
  8
GAIKEI
  6
Continuous
 62
     7
100
AcDbLine
 10
41.37973912079849
 20
30.80201679935504
 30
0.0
 11
41.32640578746515
 21
30.80201679935504
 31
0.0
  0
LINE
  5
172
330
2
100
AcDbEntity
  8
GAIKEI
  6
Continuous
 62
     7
100
AcDbLine
 10
41.30973912079849
 20
7.568683466021695
 30
0.0
 11
41.30973912079849
 21
5.223942532688397
 31
0.0
  0
LINE
  5
173
330
2
100
AcDbEntity
  8
GAIKEI
  6
Continuous
 62
     1
100
AcDbLine
 10
41.30973912079849
 20
23.0437647660217
 30
0.0
 11
41.30973912079849
 21
23.99364429935508
 31
0.0
  0
LINE
  5
174
330
2
100
AcDbEntity
  8
GAIKEI
  6
Continuous
 62
     1
100
AcDbLine
 10
41.30969488746518
 20
12.36870453268835
 30
0.0
 11
41.30969488746518
 21
12.51870453268833
 31
0.0
  0
ELLIPSE
  5
175
330
2
100
AcDbEntity
  8
GAIKEI
  6
Continuous
 62
     1
100
AcDbEllipse
 10
41.3097169874652
 20
12.51870453268839
 30
0.0
 11
-0.0000000000000001
 21
0.15
 31
0.0
210
0.0
220
0.0
230
1.0
 40
0.000147
 41
0.0
 42
1.570796326794896
  0
ELLIPSE
  5
176
330
2
100
AcDbEntity
  8
GAIKEI
  6
Continuous
 62
     1
100
AcDbEllipse
 10
41.30979935413188
 20
12.51870453268839
 30
0.0
 11
-0.0000000000000004
 21
0.475
 31
0.0
210
0.0
220
0.0
230
1.0
 40
0.000147
 41
0.0001474941453431
 42
1.249507737530086
  0
ELLIPSE
  5
177
330
2
100
AcDbEntity
  8
GAIKEI
  6
Continuous
 62
     1
100
AcDbEllipse
 10
41.30979935413188
 20
12.51870453268839
 30
0.0
 11
-0.0000000000000004
 21
0.475
 31
0.0
210
0.0
220
0.0
230
1.0
 40
0.000147
 41
1.892084916059707
 42
3.14144515944445
  0
LINE
  5
178
330
2
100
AcDbEntity
  8
GAIKEI
  6
Continuous
 62
     7
100
AcDbLine
 10
40.06734958746517
 20
4.497293999355008
 30
0.0
 11
39.56328872079848
 21
4.457499699355025
 31
0.0
  0
LINE
  5
179
330
2
100
AcDbEntity
  8
GAIKEI
  6
Continuous
 62
     1
100
AcDbLine
 10
40.16601558746515
 20
33.59411053268838
 30
0.0
 11
40.16839975413183
 21
33.59352693268835
 31
0.0
  0
LINE
  5
17A
330
2
100
AcDbEntity
  8
GAIKEI
  6
Continuous
 62
     7
100
AcDbLine
 10
40.06734958746517
 20
4.497293999355008
 30
0.0
 11
40.36720142079849
 21
4.52096649935504
 31
0.0
  0
LINE
  5
17B
330
2
100
AcDbEntity
  8
GAIKEI
  6
Continuous
 62
     1
100
AcDbLine
 10
40.16601558746515
 20
33.59411053268838
 30
0.0
 11
40.16827445413179
 21
33.59358486602167
 31
0.0
  0
LINE
  5
17C
330
2
100
AcDbEntity
  8
GAIKEI
  6
Continuous
 62
     7
100
AcDbLine
 10
40.62178188746514
 20
32.84943249935509
 30
0.0
 11
40.49640252079848
 21
33.31879485174364
 31
0.0
  0
LINE
  5
17D
330
2
100
AcDbEntity
  8
GAIKEI
  6
Continuous
 62
     7
100
AcDbLine
 10
40.62178188746514
 20
32.84943249935509
 30
0.0
 11
41.1293569874652
 21
30.94930579935505
 31
0.0
  0
LINE
  5
17E
330
2
100
AcDbEntity
  8
GAIKEI
  6
Continuous
 62
     7
100
AcDbLine
 10
40.5146726541318
 20
4.545528532688365
 30
0.0
 11
40.56921198746517
 21
4.559237632688393
 31
0.0
  0
LINE
  5
17F
330
2
100
AcDbEntity
  8
GAIKEI
  6
Continuous
 62
     7
100
AcDbLine
 10
40.91033808746516
 20
4.644983466021756
 30
0.0
 11
40.56921198746517
 21
4.559237632688393
 31
0.0
  0
LINE
  5
180
330
2
100
AcDbEntity
  8
GAIKEI
  6
Continuous
 62
     7
100
AcDbLine
 10
40.91033808746516
 20
4.644983466021756
 30
0.0
 11
40.98331232079845
 21
4.663326366021749
 31
0.0
  0
LINE
  5
181
330
2
100
AcDbEntity
  8
GAIKEI
  6
Continuous
 62
     7
100
AcDbLine
 10
41.30973912079849
 20
5.105745899355042
 30
0.0
 11
41.30973912079849
 21
5.223942532688397
 31
0.0
  0
LINE
  5
182
330
2
100
AcDbEntity
  8
GAIKEI
  6
Continuous
 62
     7
100
AcDbLine
 10
41.30973912079849
 20
27.602016799355
 30
0.0
 11
41.30973912079849
 21
10.79576749935501
 31
0.0
  0
LINE
  5
183
330
2
100
AcDbEntity
  8
GAIKEI
  6
Continuous
 62
     7
100
AcDbLine
 10
41.01132205413182
 20
4.670389699355098
 30
0.0
 11
41.0072502541318
 21
4.669343432688322
 31
0.0
  0
LINE
  5
184
330
2
100
AcDbEntity
  8
GAIKEI
  6
Continuous
 62
     7
100
AcDbLine
 10
41.30973912079849
 20
5.057275866021711
 30
0.0
 11
41.30973912079849
 21
5.105745899355042
 31
0.0
  0
LINE
  5
185
330
2
100
AcDbEntity
  8
GAIKEI
  6
Continuous
 62
     7
100
AcDbLine
 10
40.98331232079845
 20
4.663326366021749
 30
0.0
 11
41.0072502541318
 21
4.669343432688322
 31
0.0
  0
LINE
  5
186
330
2
100
AcDbEntity
  8
GAIKEI
  6
Continuous
 62
     7
100
AcDbLine
 10
40.63737765413185
 20
32.79104916602165
 30
0.0
 11
41.1293569874652
 21
30.94930579935505
 31
0.0
  0
LINE
  5
187
330
2
100
AcDbEntity
  8
GAIKEI
  6
Continuous
 62
     1
100
AcDbLine
 10
41.30973912079849
 20
22.73694423268836
 30
0.0
 11
41.30973912079849
 21
22.1595939660217
 31
0.0
  0
LINE
  5
188
330
2
100
AcDbEntity
  8
GAIKEI
  6
Continuous
 62
     1
100
AcDbLine
 10
41.30973912079849
 20
11.1503773660217
 30
0.0
 11
41.30973912079849
 21
11.46495069935503
 31
0.0
  0
LINE
  5
189
330
2
100
AcDbEntity
  8
GAIKEI
  6
Continuous
 62
     1
100
AcDbLine
 10
41.30973912079849
 20
11.1503773660217
 30
0.0
 11
41.30973912079849
 21
10.79576749935501
 31
0.0
  0
LINE
  5
18A
330
2
100
AcDbEntity
  8
GAIKEI
  6
Continuous
 62
     7
100
AcDbLine
 10
41.30973912079849
 20
5.440357899355035
 30
0.0
 11
41.30973912079855
 21
7.568683466021752
 31
0.0
  0
ARC
  5
18B
330
2
100
AcDbEntity
  8
GAIKEI
  6
Continuous
 62
     7
100
AcDbCircle
 10
39.57640578746515
 20
4.291350032688342
 30
0.0
 40
0.1666666666666666
100
AcDbArc
 50
94.51398799998512
 51
140.1556739999944
  0
ARC
  5
18C
330
2
100
AcDbEntity
  8
GAIKEI
  6
Continuous
 62
     7
100
AcDbCircle
 10
40.90973912079852
 20
5.057275866021711
 30
0.0
 40
0.4
100
AcDbArc
 50
318.7943369999504
 51
0.0
  0
ARC
  5
18D
330
2
100
AcDbEntity
  8
GAIKEI
  6
Continuous
 62
     7
100
AcDbCircle
 10
40.90973912079852
 20
5.057275866021711
 30
0.0
 40
0.4
100
AcDbArc
 50
353.9296800000003
 51
357.8176749999973
  0
POINT
  5
18E
330
2
100
AcDbEntity
  8
GAIKEI
  6
Continuous
 62
     1
100
AcDbPoint
 10
39.48307245413185
 20
19.18537736602167
 30
0.0
  0
POINT
  5
18F
330
2
100
AcDbEntity
  8
GAIKEI
  6
Continuous
 62
     1
100
AcDbPoint
 10
41.30973912079849
 20
19.18537736602167
 30
0.0
  0
SPLINE
  5
190
330
2
100
AcDbEntity
  8
GAIKEI
  6
Continuous
 62
     7
100
AcDbSpline
210
0.0
220
0.0
230
1.0
 70
     8
 71
     3
 72
    10
 73
     6
 74
     4
 42
0.0000000001
 43
0.0000000001
 44
0.000001
 12
-0.9703283063414248
 22
-0.2417911865899621
 32
0.0
 13
-0.9966764252318581
 23
-0.0814622819901609
 33
0.0
 40
0.0
 40
0.0
 40
0.0
 40
0.0
 40
0.0499099843008867
 40
0.0997451805372003
 40
0.1496495504218308
 40
0.1496495504218308
 40
0.1496495504218308
 40
0.1496495504218308
 10
40.5146726417526
 20
4.545528544626847
 30
0.0
 10
40.49852961824053
 20
4.541505946517901
 30
0.0
 10
40.46605198907684
 20
4.534312057267527
 30
0.0
 10
40.41685119784141
 20
4.525956021289175
 30
0.0
 10
40.38378092564665
 20
4.52232161533351
 30
0.0
 10
40.3672014226533
 20
4.520966507382809
 30
0.0
 11
40.5146726417526
 21
4.545528544626847
 31
0.0
 11
40.46594850140126
 21
4.534714367355036
 31
0.0
 11
40.41680476790378
 21
4.52644198111551
 31
0.0
 11
40.3672014226533
 21
4.520966507382809
 31
0.0
  0
SPLINE
  5
191
330
2
100
AcDbEntity
  8
GAIKEI
  6
Continuous
 62
     7
100
AcDbSpline
210
0.0
220
0.0
230
1.0
 70
     8
 71
     3
 72
    34
 73
    30
 74
    28
 42
0.0000000001
 43
0.0000000001
 44
0.000001
 12
0.9672416728081268
 22
0.2538573347046266
 32
0.0
 13
0.6771957331787068
 23
0.7358029212802528
 33
0.0
 40
0.0
 40
0.0
 40
0.0
 40
0.0
 40
0.002801481338664
 40
0.0058553941577067
 40
0.0092816975957807
 40
0.0131659382370802
 40
0.0175604235331026
 40
0.0199567877973609
 40
0.0242518094822545
 40
0.029105065557438
 40
0.0346054075828937
 40
0.0447481159952834
 40
0.0565373590802518
 40
0.0699664874508936
 40
0.0850291814580412
 40
0.1016762282634536
 40
0.1182725120750431
 40
0.1415284365262469
 40
0.1628386545775118
 40
0.1822143440928865
 40
0.1996625196017799
 40
0.2075856658047993
 40
0.2146406101268408
 40
0.220789213325317
 40
0.2260239804247536
 40
0.2303406599011061
 40
0.2337384496611174
 40
0.2362195255715743
 40
0.2377882481260764
 40
0.2377882481260764
 40
0.2377882481260764
 40
0.2377882481260764
 10
41.01121537695405
 20
4.670362439545556
 30
0.0
 10
41.01211861345284
 20
4.670599498407511
 30
0.0
 10
41.01400459411701
 20
4.671102212399603
 30
0.0
 10
41.0169854675508
 20
4.671931040157858
 30
0.0
 10
41.020304626788
 20
4.672889872093122
 30
0.0
 10
41.02404170702903
 20
4.674011406067592
 30
0.0
 10
41.02743928560189
 20
4.675069194756162
 30
0.0
 10
41.03095888770376
 20
4.676195094812811
 30
0.0
 10
41.03461581774439
 20
4.6773934715697
 30
0.0
 10
41.03923871417831
 20
4.678965890702897
 30
0.0
 10
41.04567775984498
 20
4.681250388469464
 30
0.0
 10
41.05423500284828
 20
4.684476383312727
 30
0.0
 10
41.06514787131078
 20
4.688935396743403
 30
0.0
 10
41.07741414311274
 20
4.694402656292339
 30
0.0
 10
41.09093486578333
 20
4.701012135715927
 30
0.0
 10
41.10511602498005
 20
4.708648996470742
 30
0.0
 10
41.1213204136752
 20
4.71825554283987
 30
0.0
 10
41.13833409011152
 20
4.729510474823086
 30
0.0
 10
41.1554427317987
 20
4.742238107731026
 30
0.0
 10
41.17039553250388
 20
4.754575228747398
 30
0.0
 10
41.18145998656781
 20
4.764585527422127
 30
0.0
 10
41.18924551147054
 20
4.772083731454017
 30
0.0
 10
41.19425598526944
 20
4.777032471588938
 30
0.0
 10
41.19858959701926
 20
4.781390811493025
 30
0.0
 10
41.20225858812331
 20
4.785122626845577
 30
0.0
 10
41.20527892722546
 20
4.78820633110314
 30
0.0
 10
41.20765139532349
 20
4.790639601991017
 30
0.0
 10
41.20939215704273
 20
4.792409807709134
 30
0.0
 10
41.21031108664476
 20
4.793398839181321
 30
0.0
 10
41.21066519738491
 20
4.793783596060734
 30
0.0
 11
41.01121537695405
 21
4.670362439545556
 31
0.0
 11
41.01392196401866
 21
4.671086151310305
 31
0.0
 11
41.01686447730497
 21
4.671903409771573
 31
0.0
 11
41.02015632953708
 21
4.672853811266918
 31
0.0
 11
41.02387691484494
 21
4.673969479034326
 31
0.0
 11
41.02807297683756
 21
4.675275217818352
 31
0.0
 11
41.03035549357826
 21
4.676005187795112
 31
0.0
 11
41.03443674056387
 21
4.677343652354124
 31
0.0
 11
41.03903154375155
 21
4.678906752082866
 31
0.0
 11
41.04421555594001
 21
4.680745688425304
 31
0.0
 11
41.05370663799345
 21
4.684323127421521
 31
0.0
 11
41.0646202101089
 21
4.688781726614195
 31
0.0
 11
41.0768861393779
 21
4.694248413239733
 31
0.0
 11
41.09041852054031
 21
4.700863237809585
 31
0.0
 11
41.10507543361348
 21
4.708756043252606
 31
0.0
 11
41.11935154692747
 21
4.717219348351704
 31
0.0
 11
41.13874744056448
 21
4.730050386893367
 31
0.0
 11
41.15584559997688
 21
4.742769579119908
 31
0.0
 11
41.17079075234818
 21
4.755100872397747
 31
0.0
 11
41.18373020482801
 21
4.766806689349948
 31
0.0
 11
41.18944114772188
 21
4.772297936144013
 31
0.0
 11
41.19446225474746
 21
4.777253573379198
 31
0.0
 11
41.19879924091555
 21
4.781611930108226
 31
0.0
 11
41.202471148303
 21
4.78534283358158
 31
0.0
 11
41.20549121610753
 21
4.78842711584906
 31
0.0
 11
41.20786603096656
 21
4.790857171001334
 31
0.0
 11
41.20959430150747
 21
4.792637274800085
 31
0.0
 11
41.21066519738491
 21
4.793783596060734
 31
0.0
  0
POINT
  5
192
330
2
100
AcDbEntity
  8
GAIKEI
  6
Continuous
 62
     1
100
AcDbPoint
 10
41.30973912079849
 20
19.18537736602167
 30
0.0
  0
ARC
  5
193
330
2
100
AcDbEntity
  8
GAIKEI
  6
Continuous
 62
     7
100
AcDbCircle
 10
39.41660435413183
 20
3.800020899355047
 30
0.0
 40
0.0333333333333333
100
AcDbArc
 50
267.0007400000059
 51
0.0007399999702759
  0
LINE
  5
194
330
2
100
AcDbEntity
  8
GAIKEI
  6
Continuous
 62
     1
100
AcDbLine
 10
39.41466125413183
 20
3.897330532688386
 30
0.0
 11
39.44973912079849
 21
3.897330532688386
 31
0.0
  0
LINE
  5
195
330
2
100
AcDbEntity
  8
GAIKEI
  6
Continuous
 62
     7
100
AcDbLine
 10
39.44973912079849
 20
3.897330532688386
 30
0.0
 11
39.44973912079849
 21
3.79746756602168
 31
0.0
  0
ELLIPSE
  5
196
330
2
100
AcDbEntity
  8
GAIKEI
  6
Continuous
 62
     1
100
AcDbEllipse
 10
39.41640578746518
 20
3.897604799355065
 30
0.0
 11
0.0017436393759292
 21
0.1334249149724374
 31
0.0
210
0.0
220
0.0
230
1.0
 40
0.013046
 41
1.573022513278017
 42
3.141079784614632
  0
ARC
  5
197
330
2
100
AcDbEntity
  8
GAIKEI
  6
Continuous
 62
     7
100
AcDbCircle
 10
38.1952928207985
 20
3.878152932688408
 30
0.0
 40
0.05
100
AcDbArc
 50
211.5000000000285
 51
266.9999999999977
  0
ARC
  5
198
330
2
100
AcDbEntity
  8
GAIKEI
  6
Continuous
 62
     7
100
AcDbCircle
 10
38.06640578746516
 20
4.05657939935503
 30
0.0
 40
0.0333333333333333
100
AcDbArc
 50
180.0
 51
211.5000000000285
  0
LINE
  5
199
330
2
100
AcDbEntity
  8
GAIKEI
  6
Continuous
 62
     7
100
AcDbLine
 10
38.15266078746521
 20
3.852027999355073
 30
0.0
 11
38.03798445413185
 21
4.039162799355096
 31
0.0
  0
LINE
  5
19A
330
2
100
AcDbEntity
  8
GAIKEI
  6
Continuous
 62
     7
100
AcDbLine
 10
38.03307245413185
 20
5.1081361326884
 30
0.0
 11
38.03307245413185
 21
4.05657939935503
 31
0.0
  0
LINE
  5
19B
330
2
100
AcDbEntity
  8
GAIKEI
  6
Continuous
 62
     7
100
AcDbLine
 10
39.41466125413183
 20
3.764179899355042
 30
0.0
 11
38.1926760207985
 21
3.828221432688394
 31
0.0
  0
SPLINE
  5
19C
330
2
100
AcDbEntity
  8
GAIKEI
  6
Continuous
 62
     1
100
AcDbSpline
210
0.0
220
0.0
230
1.0
 70
     8
 71
     3
 72
     9
 73
     5
 74
     3
 42
0.0000000001
 43
0.0000000001
 44
0.000001
 12
0.7639946302752923
 22
-0.6452226010537135
 32
0.0
 13
0.9969361086328676
 23
-0.0782201719760005
 33
0.0
 40
0.0
 40
0.0
 40
0.0
 40
0.0
 40
0.0151618204948993
 40
0.0233464562934708
 40
0.0233464562934708
 40
0.0233464562934708
 40
0.0233464562934708
 10
39.48670201142358
 20
4.522838820431957
 30
0.0
 10
39.49056319457134
 20
4.519577904013146
 30
0.0
 10
39.4966962946493
 20
4.515064213307795
 30
0.0
 10
39.50370058291486
 20
4.510820776325999
 30
0.0
 10
39.50642043590273
 20
4.510607375119434
 30
0.0
 11
39.48670201142358
 21
4.522838820431957
 31
0.0
 11
39.49889671841987
 21
4.513830254886897
 31
0.0
 11
39.50642043590273
 21
4.510607375119434
 31
0.0
  0
SPLINE
  5
19D
330
2
100
AcDbEntity
  8
GAIKEI
  6
Continuous
 62
     1
100
AcDbSpline
210
0.0
220
0.0
230
1.0
 70
     8
 71
     3
 72
     9
 73
     5
 74
     3
 42
0.0000000001
 43
0.0000000001
 44
0.000001
 12
0.0001110754684003
 22
0.9999999938311201
 32
0.0
 13
0.9858834223850816
 23
0.1674332029983262
 33
0.0
 40
0.0
 40
0.0
 40
0.0
 40
0.0
 40
0.0248989551978613
 40
0.0541789684587529
 40
0.0541789684587529
 40
0.0541789684587529
 40
0.0541789684587529
 10
39.4497391207986
 20
4.487462843869479
 30
0.0
 10
39.4497400426863
 20
4.495762495550906
 30
0.0
 10
39.45958757907359
 20
4.513529248083017
 30
0.0
 10
39.47707978486319
 20
4.521204671630584
 30
0.0
 10
39.48670201142358
 20
4.522838820431957
 30
0.0
 11
39.4497391207986
 21
4.487462843869479
 31
0.0
 11
39.46040644720057
 21
4.50996206766797
 31
0.0
 11
39.48670201142358
 21
4.522838820431957
 31
0.0
  0
SPLINE
  5
19E
330
2
100
AcDbEntity
  8
GAIKEI
  6
Continuous
 62
     1
100
AcDbSpline
210
0.0
220
0.0
230
1.0
 70
     8
 71
     3
 72
     9
 73
     5
 74
     3
 42
0.0000000001
 43
0.0000000001
 44
0.000001
 12
0.3840332876991324
 22
-0.9233192481146462
 32
0.0
 13
0.7746219652034503
 23
-0.6324245496692429
 33
0.0
 40
0.0
 40
0.0
 40
0.0
 40
0.0
 40
0.0296808103357785
 40
0.0552489518138
 40
0.0552489518138
 40
0.0552489518138
 40
0.0552489518138
 10
39.4497391207986
 20
4.563292921994502
 30
0.0
 10
39.45353859385688
 20
4.554157967500287
 30
0.0
 10
39.46524524338497
 20
4.539055617981944
 30
0.0
 10
39.4801001300908
 20
4.528228793885318
 30
0.0
 10
39.48670201142358
 20
4.522838820431957
 30
0.0
 11
39.4497391207986
 21
4.563292921994502
 31
0.0
 11
39.46702531243096
 21
4.539164354070351
 31
0.0
 11
39.48670201142358
 21
4.522838820431957
 31
0.0
  0
SPLINE
  5
19F
330
2
100
AcDbEntity
  8
GAIKEI
  6
Continuous
 62
     1
100
AcDbSpline
210
0.0
220
0.0
230
1.0
 70
     8
 71
     3
 72
     9
 73
     5
 74
     3
 42
0.0000000001
 43
0.0000000001
 44
0.000001
 12
-0.705516671635724
 22
-0.7086933229853729
 32
0.0
 13
-0.7155185922578874
 23
-0.6985936903045227
 33
0.0
 40
0.0
 40
0.0
 40
0.0
 40
0.0
 40
0.0038107626290675
 40
0.0076249567826961
 40
0.0076249567826961
 40
0.0076249567826961
 40
0.0076249567826961
 10
39.45517531871525
 20
4.568639601681979
 30
0.0
 10
39.4542791331931
 20
4.567739381005083
 30
0.0
 10
39.45247027440853
 20
4.565953759950502
 30
0.0
 10
39.45064882974239
 20
4.564181112650942
 30
0.0
 10
39.4497391207986
 20
4.563292921994502
 30
0.0
 11
39.45517531871525
 21
4.568639601681979
 31
0.0
 11
39.45246792524784
 21
4.565957757497187
 31
0.0
 11
39.4497391207986
 21
4.563292921994502
 31
0.0
  0
ARC
  5
1A0
330
2
100
AcDbEntity
  8
GAIKEI
  6
Continuous
 62
     1
100
AcDbCircle
 10
39.51640578746515
 20
4.44468939935507
 30
0.0
 40
0.0666666666666667
100
AcDbArc
 50
98.61419800001701
 51
180.0
  0
LINE
  5
1A1
330
2
100
AcDbEntity
  8
GAIKEI
  6
Continuous
 62
     1
100
AcDbLine
 10
40.49640252079848
 20
4.817085232688384
 30
0.0
 11
40.48847608746513
 21
4.817085232688384
 31
0.0
  0
ARC
  5
1A2
330
2
100
AcDbEntity
  8
GAIKEI
  6
Continuous
 62
     1
100
AcDbCircle
 10
40.42973585413181
 20
4.817085232688384
 30
0.0
 40
0.0666666666666667
100
AcDbArc
 50
278.5000329999977
 51
0.0000360000244672
  0
SPLINE
  5
1A3
330
2
100
AcDbEntity
  8
GAIKEI
  6
Continuous
 62
     1
100
AcDbSpline
210
0.0
220
0.0
230
1.0
 70
     8
 71
     3
 72
     9
 73
     5
 74
     3
 42
0.0000000001
 43
0.0000000001
 44
0.000001
 12
0.0334917310615873
 22
-0.9994389946117262
 32
0.0
 13
-0.9890197605371527
 23
-0.1477833321692033
 33
0.0
 40
0.0
 40
0.0
 40
0.0
 40
0.0
 40
0.0457737839002646
 40
0.0878094249465364
 40
0.0878094249465364
 40
0.0878094249465364
 40
0.0878094249465364
 10
40.48846796194442
 20
4.817093377723665
 30
0.0
 10
40.48897897636443
 20
4.801844009536722
 30
0.0
 10
40.48102955202054
 20
4.771000344314188
 30
0.0
 10
40.45344903536657
 20
4.753221717279046
 30
0.0
 10
40.43959100881937
 20
4.751150994911142
 30
0.0
 11
40.48846796194442
 21
4.817093377723665
 31
0.0
 11
40.47535761038187
 21
4.773237583452782
 31
0.0
 11
40.43959100881937
 21
4.751150994911142
 31
0.0
  0
SPLINE
  5
1A4
330
2
100
AcDbEntity
  8
GAIKEI
  6
Continuous
 62
     1
100
AcDbSpline
210
0.0
220
0.0
230
1.0
 70
     8
 71
     3
 72
     9
 73
     5
 74
     3
 42
0.0000000001
 43
0.0000000001
 44
0.000001
 12
0.9886963096509148
 22
0.1499320088662279
 32
0.0
 13
-0.1459754487342717
 23
0.989288212992972
 33
0.0
 40
0.0
 40
0.0
 40
0.0
 40
0.0
 40
0.0208676172886264
 40
0.0665153869001892
 40
0.0665153869001892
 40
0.0665153869001892
 40
0.0665153869001892
 10
39.98305617809024
 20
4.582807895952782
 30
0.0
 10
39.98993342349173
 20
4.583850803879556
 30
0.0
 10
39.98495066611598
 20
4.617436600254279
 30
0.0
 10
39.98607485534953
 20
4.633672931227408
 30
0.0
 10
39.98385370413195
 20
4.648725864702782
 30
0.0
 11
39.98305617809024
 21
4.582807895952782
 31
0.0
 11
39.98740743785828
 21
4.603217474037762
 31
0.0
 11
39.98385370413195
 21
4.648725864702782
 31
0.0
  0
LINE
  5
1A5
330
2
100
AcDbEntity
  8
GAIKEI
  6
Continuous
 62
     1
100
AcDbLine
 10
40.03973748746517
 20
4.648725866021663
 30
0.0
 11
39.98385368746517
 21
4.648725866021663
 31
0.0
  0
ARC
  5
1A6
330
2
100
AcDbEntity
  8
GAIKEI
  6
Continuous
 62
     1
100
AcDbCircle
 10
39.97307082079846
 20
4.648725866021663
 30
0.0
 40
0.0666666666666667
100
AcDbArc
 50
278.6141790000027
 51
0.0000360000244672
  0
LINE
  5
1A7
330
2
100
AcDbEntity
  8
GAIKEI
  6
Continuous
 62
     1
100
AcDbLine
 10
40.43959358746514
 20
4.751154066021683
 30
0.0
 11
40.03973758746513
 21
4.691395199354985
 31
0.0
  0
LINE
  5
1A8
330
2
100
AcDbEntity
  8
GAIKEI
  6
Continuous
 62
     1
100
AcDbLine
 10
39.98385565413179
 20
4.648724699355
 30
0.0
 11
39.45517082079851
 21
4.568634732688394
 31
0.0
  0
LINE
  5
1A9
330
2
100
AcDbEntity
  8
GAIKEI
  6
Continuous
 62
     1
100
AcDbLine
 10
39.50641598746512
 20
4.510608466021722
 30
0.0
 11
39.98305788746518
 21
4.582814466021716
 31
0.0
  0
SPLINE
  5
1AA
330
2
100
AcDbEntity
  8
GAIKEI
  6
Continuous
 62
     1
100
AcDbSpline
210
0.0
220
0.0
230
1.0
 70
     8
 71
     3
 72
     9
 73
     5
 74
     3
 42
0.0000000001
 43
0.0000000001
 44
0.000001
 12
0.9892836409501606
 22
0.1460064305035707
 32
0.0
 13
0.9892823772819241
 23
0.1460149923789496
 33
0.0
 40
0.0
 40
0.0
 40
0.0
 40
0.0
 40
0.2405672577750158
 40
0.4535924992565884
 40
0.4535924992565884
 40
0.4535924992565884
 40
0.4535924992565884
 10
40.03973749319442
 20
4.750858026161154
 30
0.0
 10
40.11906724408277
 20
4.762566148362395
 30
0.0
 10
40.26864393773933
 20
4.784645474705456
 30
0.0
 10
40.41822058950645
 20
4.806725084719857
 30
0.0
 10
40.48846796194442
 20
4.817093377723665
 30
0.0
 11
40.03973749319442
 21
4.750858026161154
 31
0.0
 11
40.27772622346605
 21
4.785985932165772
 31
0.0
 11
40.48846796194442
 21
4.817093377723665
 31
0.0
  0
LINE
  5
1AB
330
2
100
AcDbEntity
  8
GAIKEI
  6
Continuous
 62
     1
100
AcDbLine
 10
40.49640252079848
 20
9.795861266021745
 30
0.0
 11
40.48847608746513
 21
9.795861266021745
 31
0.0
  0
LINE
  5
1AC
330
2
100
AcDbEntity
  8
GAIKEI
  6
Continuous
 62
     1
100
AcDbLine
 10
40.49640252079848
 20
4.817085232688384
 30
0.0
 11
40.49640252079848
 21
9.795861266021745
 31
0.0
  0
LINE
  5
1AD
330
2
100
AcDbEntity
  8
GAIKEI
  6
Continuous
 62
     1
100
AcDbLine
 10
40.48847608746513
 20
9.795861266021745
 30
0.0
 11
40.48847608746513
 21
4.817085232688384
 31
0.0
  0
LINE
  5
1AE
330
2
100
AcDbEntity
  8
GAIKEI
  6
Continuous
 62
     1
100
AcDbLine
 10
41.0076133207985
 20
10.58121729935504
 30
0.0
 11
41.01333242079846
 21
10.58296929935505
 31
0.0
  0
SPLINE
  5
1AF
330
2
100
AcDbEntity
  8
GAIKEI
  6
Continuous
 62
     1
100
AcDbSpline
210
0.0
220
0.0
230
1.0
 70
     8
 71
     3
 72
     9
 73
     5
 74
     3
 42
0.0000000001
 43
0.0000000001
 44
0.000001
 12
0.0076890997589245
 22
-0.9999704384355057
 32
0.0
 13
-0.8234380680684974
 23
-0.5674061579288868
 33
0.0
 40
0.0
 40
0.0
 40
0.0
 40
0.0
 40
0.0712786193837389
 40
0.1425701296338004
 40
0.1425701296338004
 40
0.1425701296338004
 40
0.1425701296338004
 10
41.01328892548605
 20
10.5829543803278
 30
0.0
 10
41.01347161495775
 20
10.55919554290238
 30
0.0
 10
41.00146257042513
 20
10.51105450196363
 30
0.0
 10
40.96894909570522
 20
10.47356215107334
 30
0.0
 10
40.9493810478819
 20
10.46007840376535
 30
0.0
 11
41.01328892548605
 21
10.5829543803278
 31
0.0
 11
40.99633937297119
 21
10.51372010450996
 31
0.0
 11
40.9493810478819
 21
10.46007840376535
 31
0.0
  0
SPLINE
  5
1B0
330
2
100
AcDbEntity
  8
GAIKEI
  6
Continuous
 62
     1
100
AcDbSpline
210
0.0
220
0.0
230
1.0
 70
     8
 71
     3
 72
     9
 73
     5
 74
     3
 42
0.0000000001
 43
0.0000000001
 44
0.000001
 12
0.8191192914052331
 22
0.5736232094744675
 32
0.0
 13
-0.0299166618373894
 23
0.9995523964978062
 33
0.0
 40
0.0
 40
0.0
 40
0.0
 40
0.0
 40
0.0702389538922156
 40
0.141380746814272
 40
0.141380746814272
 40
0.141380746814272
 40
0.141380746814272
 10
40.94689895152777
 20
10.45833686730697
 30
0.0
 10
40.96607697890817
 20
10.47176709869421
 30
0.0
 10
40.99827091487921
 20
10.50925649731653
 30
0.0
 10
41.00832616661904
 20
10.55750952733402
 30
0.0
 10
41.00761672496526
 20
10.58121284386948
 30
0.0
 11
40.94689895152777
 21
10.45833686730697
 31
0.0
 11
40.99260207652775
 21
10.51167345584866
 31
0.0
 11
41.00761672496526
 21
10.58121284386948
 31
0.0
  0
SPLINE
  5
1B1
330
2
100
AcDbEntity
  8
GAIKEI
  6
Continuous
 62
     1
100
AcDbSpline
210
0.0
220
0.0
230
1.0
 70
     8
 71
     3
 72
     9
 73
     5
 74
     3
 42
0.0000000001
 43
0.0000000001
 44
0.000001
 12
0.0013446187061332
 22
-0.9999990959998589
 32
0.0
 13
-0.9998562947086131
 23
0.0169525789059634
 33
0.0
 40
0.0
 40
0.0
 40
0.0
 40
0.0
 40
0.050343764537832
 40
0.0834621549045539
 40
0.0834621549045539
 40
0.0834621549045539
 40
0.0834621549045539
 10
40.35643671194441
 20
11.24621121626535
 30
0.0
 10
40.3564592763336
 20
11.22942997658967
 30
0.0
 10
40.35185773349269
 20
11.2005307811275
 30
0.0
 10
40.32601951084565
 20
11.18008982409833
 30
0.0
 10
40.3149816338194
 20
11.18027697147363
 30
0.0
 11
40.35643671194441
 21
11.24621121626535
 31
0.0
 11
40.3431818145238
 21
11.19764469600466
 31
0.0
 11
40.3149816338194
 21
11.18027697147363
 31
0.0
  0
SPLINE
  5
1B2
330
2
100
AcDbEntity
  8
GAIKEI
  6
Continuous
 62
     1
100
AcDbSpline
210
0.0
220
0.0
230
1.0
 70
     8
 71
     3
 72
     9
 73
     5
 74
     3
 42
0.0000000001
 43
0.0000000001
 44
0.000001
 12
0.9998450966442856
 22
-0.0176006453398526
 32
0.0
 13
-0.0047587927126628
 23
-0.9999886768818523
 33
0.0
 40
0.0
 40
0.0
 40
0.0
 40
0.0
 40
0.0109761899890193
 40
0.0232496222443951
 40
0.0232496222443951
 40
0.0232496222443951
 40
0.0232496222443951
 10
40.30113072236105
 20
11.19694363814028
 30
0.0
 10
40.30478888560783
 20
11.19687924213121
 30
0.0
 10
40.31237044638207
 20
11.19234747428066
 30
0.0
 10
40.31500110272605
 20
11.18436806923424
 30
0.0
 10
40.3149816338194
 20
11.18027697147363
 30
0.0
 11
40.30113072236105
 21
11.19694363814028
 31
0.0
 11
40.31084484891988
 21
11.19183145219023
 31
0.0
 11
40.3149816338194
 21
11.18027697147363
 31
0.0
  0
SPLINE
  5
1B3
330
2
100
AcDbEntity
  8
GAIKEI
  6
Continuous
 62
     1
100
AcDbSpline
210
0.0
220
0.0
230
1.0
 70
     8
 71
     3
 72
     9
 73
     5
 74
     3
 42
0.0000000001
 43
0.0000000001
 44
0.000001
 12
-0.9998495293293736
 22
0.0173470083827137
 32
0.0
 13
0.0000595402114687
 23
0.9999999982274816
 33
0.0
 40
0.0
 40
0.0
 40
0.0
 40
0.0
 40
0.036107109229546
 40
0.0876383132932491
 40
0.0876383132932491
 40
0.0876383132932491
 40
0.0876383132932491
 10
40.17810826142357
 20
11.18266141157778
 30
0.0
 10
40.16607436936737
 20
11.18287019501994
 30
0.0
 10
40.13860326934469
 20
11.20250569532723
 30
0.0
 10
40.13174493400983
 20
11.23294853629537
 30
0.0
 10
40.1317459567361
 20
11.25012560428615
 30
0.0
 11
40.17810826142357
 21
11.18266141157778
 31
0.0
 11
40.14693637350592
 21
11.20088515771425
 31
0.0
 11
40.1317459567361
 21
11.25012560428615
 31
0.0
  0
SPLINE
  5
1B4
330
2
100
AcDbEntity
  8
GAIKEI
  6
Continuous
 62
     1
100
AcDbSpline
210
0.0
220
0.0
230
1.0
 70
     8
 71
     3
 72
     9
 73
     5
 74
     3
 42
0.0000000001
 43
0.0000000001
 44
0.000001
 12
0.0055880290013918
 22
0.9999843868440544
 32
0.0
 13
-0.9998510429294874
 23
0.0172595467152583
 33
0.0
 40
0.0
 40
0.0
 40
0.0
 40
0.0
 40
0.0122276146333675
 40
0.0229389262587967
 40
0.0229389262587967
 40
0.0229389262587967
 40
0.0229389262587967
 10
40.17810826142357
 20
11.18266141157778
 30
0.0
 10
40.17813103751197
 20
11.18673721948502
 30
0.0
 10
40.17567939365271
 20
11.19461214526674
 30
0.0
 10
40.16825857043598
 20
11.19925831609583
 30
0.0
 10
40.16468866506937
 20
11.19931994022363
 30
0.0
 11
40.17810826142357
 21
11.18266141157778
 31
0.0
 11
40.17410620353842
 21
11.19421469978238
 31
0.0
 11
40.16468866506937
 21
11.19931994022363
 31
0.0
  0
SPLINE
  5
1B5
330
2
100
AcDbEntity
  8
GAIKEI
  6
Continuous
 62
     1
100
AcDbSpline
210
0.0
220
0.0
230
1.0
 70
     8
 71
     3
 72
     9
 73
     5
 74
     3
 42
0.0000000001
 43
0.0000000001
 44
0.000001
 12
-0.0110930785199862
 22
-0.9999384699114987
 32
0.0
 13
0.9998325409553103
 23
-0.0183000012799965
 33
0.0
 40
0.0
 40
0.0
 40
0.0
 40
0.0
 40
0.0359610576823468
 40
0.0623489760710706
 40
0.0623489760710706
 40
0.0623489760710706
 40
0.0623489760710706
 10
40.13484654267358
 20
11.25012560428615
 30
0.0
 10
40.13471356972807
 20
11.23813932262106
 30
0.0
 10
40.13860668418111
 20
11.21762020256929
 30
0.0
 10
40.15589416523833
 20
11.19948090653704
 30
0.0
 10
40.16468866506937
 20
11.19931994022363
 30
0.0
 11
40.13484654267358
 21
11.25012560428615
 31
0.0
 11
40.14366001923605
 21
11.21526232303614
 31
0.0
 11
40.16468866506937
 21
11.19931994022363
 31
0.0
  0
SPLINE
  5
1B6
330
2
100
AcDbEntity
  8
GAIKEI
  6
Continuous
 62
     1
100
AcDbSpline
210
0.0
220
0.0
230
1.0
 70
     8
 71
     3
 72
     9
 73
     5
 74
     3
 42
0.0000000001
 43
0.0000000001
 44
0.000001
 12
0.9998565873960473
 22
0.016935307518052
 32
0.0
 13
-0.0003914526382914
 23
-0.999999923382413
 33
0.0
 40
0.0
 40
0.0
 40
0.0
 40
0.0
 40
0.0330890537083765
 40
0.083469942351311
 40
0.083469942351311
 40
0.083469942351311
 40
0.083469942351311
 10
40.3149816338194
 20
11.52375841678616
 30
0.0
 10
40.32600973659308
 20
11.52394520788618
 30
0.0
 10
40.35187166406925
 20
11.50353521057837
 30
0.0
 10
40.356443285855
 20
11.47461780025546
 30
0.0
 10
40.35643671194441
 20
11.4578241719945
 30
0.0
 11
40.3149816338194
 21
11.52375841678616
 31
0.0
 11
40.34316887989876
 21
11.5064256454898
 31
0.0
 11
40.35643671194441
 21
11.4578241719945
 31
0.0
  0
SPLINE
  5
1B7
330
2
100
AcDbEntity
  8
GAIKEI
  6
Continuous
 62
     1
100
AcDbSpline
210
0.0
220
0.0
230
1.0
 70
     8
 71
     3
 72
     9
 73
     5
 74
     3
 42
0.0000000001
 43
0.0000000001
 44
0.000001
 12
-0.0002239345428642
 22
0.9999999749266599
 32
0.0
 13
0.9998500127247776
 23
0.017319123946161
 33
0.0
 40
0.0
 40
0.0
 40
0.0
 40
0.0
 40
0.0515033168086963
 40
0.0876296700508116
 40
0.0876296700508116
 40
0.0876296700508116
 40
0.0876296700508116
 10
40.1317459567361
 20
11.45390978397364
 30
0.0
 10
40.13174211227886
 20
11.47107755581274
 30
0.0
 10
40.13861606579976
 20
11.50150250056583
 30
0.0
 10
40.16606794984063
 20
11.52116541775211
 30
0.0
 10
40.17810826142357
 20
11.52137397668195
 30
0.0
 11
40.1317459567361
 21
11.45390978397364
 31
0.0
 11
40.14693000458726
 21
11.5031230091663
 31
0.0
 11
40.17810826142357
 21
11.52137397668195
 31
0.0
  0
SPLINE
  5
1B8
330
2
100
AcDbEntity
  8
GAIKEI
  6
Continuous
 62
     1
100
AcDbSpline
210
0.0
220
0.0
230
1.0
 70
     8
 71
     3
 72
     9
 73
     5
 74
     3
 42
0.0000000001
 43
0.0000000001
 44
0.000001
 12
-0.9999981505302878
 22
0.0019232618136777
 32
0.0
 13
-0.0097690485355151
 23
-0.9999522817068378
 33
0.0
 40
0.0
 40
0.0
 40
0.0
 40
0.0
 40
0.006441348057027
 40
0.061148684220774
 40
0.061148684220774
 40
0.061148684220774
 40
0.061148684220774
 10
40.16468866506937
 20
11.5047073100153
 30
0.0
 10
40.1625415530214
 20
11.50471143948155
 30
0.0
 10
40.14222330043914
 20
11.49905584376671
 30
0.0
 10
40.135024688881
 20
11.47214469251466
 30
0.0
 10
40.13484654267358
 20
11.45390978397364
 30
0.0
 11
40.16468866506937
 21
11.5047073100153
 31
0.0
 11
40.15840611298608
 21
11.50328315636943
 31
0.0
 11
40.13484654267358
 21
11.45390978397364
 31
0.0
  0
SPLINE
  5
1B9
330
2
100
AcDbEntity
  8
GAIKEI
  6
Continuous
 62
     1
100
AcDbSpline
210
0.0
220
0.0
230
1.0
 70
     8
 71
     3
 72
     9
 73
     5
 74
     3
 42
0.0000000001
 43
0.0000000001
 44
0.000001
 12
0.0055881036849446
 22
-0.9999843864267113
 32
0.0
 13
-0.9998507718488228
 23
-0.0172752433648093
 33
0.0
 40
0.0
 40
0.0
 40
0.0
 40
0.0
 40
0.0122313813049732
 40
0.0229446725492568
 40
0.0229446725492568
 40
0.0229446725492568
 40
0.0229446725492568
 10
40.17810826142357
 20
11.52137397668195
 30
0.0
 10
40.17813104483255
 20
11.51729691323882
 30
0.0
 10
40.17567964386389
 20
11.50942115015226
 30
0.0
 10
40.16825922924259
 20
11.50476900158645
 30
0.0
 10
40.16468866506937
 20
11.5047073100153
 30
0.0
 11
40.17810826142357
 21
11.52137397668195
 31
0.0
 11
40.17410620179998
 21
11.50981670538147
 31
0.0
 11
40.16468866506937
 21
11.5047073100153
 31
0.0
  0
SPLINE
  5
1BA
330
2
100
AcDbEntity
  8
GAIKEI
  6
Continuous
 62
     1
100
AcDbSpline
210
0.0
220
0.0
230
1.0
 70
     8
 71
     3
 72
     9
 73
     5
 74
     3
 42
0.0000000001
 43
0.0000000001
 44
0.000001
 12
0.9998448284512669
 22
0.017615874070187
 32
0.0
 13
-0.004758853950167
 23
0.9999886765904307
 33
0.0
 40
0.0
 40
0.0
 40
0.0
 40
0.0
 40
0.0109762284625047
 40
0.0232495804189447
 40
0.0232495804189447
 40
0.0232495804189447
 40
0.0232495804189447
 10
40.30113072236105
 20
11.50709175011946
 30
0.0
 10
40.3047888974491
 20
11.50715620207225
 30
0.0
 10
40.31237038352782
 20
11.51168798120972
 30
0.0
 10
40.31500110284921
 20
11.51966734579275
 30
0.0
 10
40.3149816338194
 20
11.52375841678616
 30
0.0
 11
40.30113072236105
 21
11.50709175011946
 31
0.0
 11
40.31084484717365
 21
11.51220402199959
 31
0.0
 11
40.3149816338194
 21
11.52375841678616
 31
0.0
  0
SPLINE
  5
1BB
330
2
100
AcDbEntity
  8
GAIKEI
  6
Continuous
 62
     1
100
AcDbSpline
210
0.0
220
0.0
230
1.0
 70
     8
 71
     3
 72
     9
 73
     5
 74
     3
 42
0.0000000001
 43
0.0000000001
 44
0.000001
 12
0.005406505711674
 22
0.999985384741192
 32
0.0
 13
-0.9998401253052961
 23
-0.017880822953381
 33
0.0
 40
0.0
 40
0.0
 40
0.0
 40
0.0
 40
0.0396617427391432
 40
0.069767609486714
 40
0.069767609486714
 40
0.069767609486714
 40
0.069767609486714
 10
40.34246373017356
 20
11.4578241719945
 30
0.0
 10
40.34253520731978
 20
11.47104455968534
 30
0.0
 10
40.33502623795195
 20
11.49606160792342
 30
0.0
 10
40.31116440688815
 20
11.50727118934384
 30
0.0
 10
40.30113072236105
 20
11.50709175011946
 30
0.0
 11
40.34246373017356
 21
11.4578241719945
 31
0.0
 11
40.32871394164277
 21
11.49502589990572
 31
0.0
 11
40.30113072236105
 21
11.50709175011946
 31
0.0
  0
SPLINE
  5
1BC
330
2
100
AcDbEntity
  8
GAIKEI
  6
Continuous
 62
     1
100
AcDbSpline
210
0.0
220
0.0
230
1.0
 70
     8
 71
     3
 72
     9
 73
     5
 74
     3
 42
0.0000000001
 43
0.0000000001
 44
0.000001
 12
0.0765775448988753
 22
-0.9970636286703374
 32
0.0
 13
-0.81917641134367
 23
-0.5735416350171155
 33
0.0
 40
0.0
 40
0.0
 40
0.0
 40
0.0
 40
0.0525685269262323
 40
0.1033208077288364
 40
0.1033208077288364
 40
0.1033208077288364
 40
0.1033208077288364
 10
40.82178501923607
 20
10.43295438032783
 30
0.0
 10
40.82312687547973
 20
10.41548299159086
 30
0.0
 10
40.81759330115412
 20
10.37980914029333
 30
0.0
 10
40.79454637111289
 20
10.35166601809442
 30
0.0
 10
40.78068801402776
 20
10.34196316939028
 30
0.0
 11
40.82178501923607
 21
10.43295438032783
 31
0.0
 11
40.81296340465274
 21
10.38113146366112
 31
0.0
 11
40.78068801402776
 21
10.34196316939028
 31
0.0
  0
SPLINE
  5
1BD
330
2
100
AcDbEntity
  8
GAIKEI
  6
Continuous
 62
     1
100
AcDbSpline
210
0.0
220
0.0
230
1.0
 70
     8
 71
     3
 72
     9
 73
     5
 74
     3
 42
0.0000000001
 43
0.0000000001
 44
0.000001
 12
0.9998416208861915
 22
-0.0177969981646708
 32
0.0
 13
-0.0044113714926989
 23
0.9999902698534389
 33
0.0
 40
0.0
 40
0.0
 40
0.0
 40
0.0
 40
0.030138376431043
 40
0.0697525116187896
 40
0.0697525116187896
 40
0.0697525116187896
 40
0.0697525116187896
 10
40.30113072236105
 20
11.19694363814028
 30
0.0
 10
40.31117525674162
 20
11.19676484726361
 30
0.0
 10
40.33501806152388
 20
11.20801969907009
 30
0.0
 10
40.34252198106246
 20
11.23300663301987
 30
0.0
 10
40.34246373017356
 20
11.24621121626535
 30
0.0
 11
40.30113072236105
 21
11.19694363814028
 31
0.0
 11
40.32872975807674
 21
11.20905440778034
 31
0.0
 11
40.34246373017356
 21
11.24621121626535
 31
0.0
  0
LINE
  5
1BE
330
2
100
AcDbEntity
  8
GAIKEI
  6
Continuous
 62
     1
100
AcDbLine
 10
40.31497665413183
 20
11.18028069935508
 30
0.0
 11
40.17810772079849
 21
11.18266229935506
 31
0.0
  0
LINE
  5
1BF
330
2
100
AcDbEntity
  8
GAIKEI
  6
Continuous
 62
     1
100
AcDbLine
 10
40.35644485413183
 20
11.45781603268841
 30
0.0
 11
40.35644485413183
 21
11.24621123268838
 31
0.0
  0
LINE
  5
1C0
330
2
100
AcDbEntity
  8
GAIKEI
  6
Continuous
 62
     1
100
AcDbLine
 10
40.34246372079849
 20
11.24621123268838
 30
0.0
 11
40.35644485413183
 21
11.24621123268838
 31
0.0
  0
LINE
  5
1C1
330
2
100
AcDbEntity
  8
GAIKEI
  6
Continuous
 62
     1
100
AcDbLine
 10
40.35644485413183
 20
11.45781603268841
 30
0.0
 11
40.34246372079849
 21
11.45781603268841
 31
0.0
  0
LINE
  5
1C2
330
2
100
AcDbEntity
  8
GAIKEI
  6
Continuous
 62
     1
100
AcDbLine
 10
40.17810918746516
 20
11.52137003268836
 30
0.0
 11
40.31497812079845
 21
11.52375159935508
 31
0.0
  0
LINE
  5
1C3
330
2
100
AcDbEntity
  8
GAIKEI
  6
Continuous
 62
     1
100
AcDbLine
 10
40.13174595413187
 20
11.25012559935504
 30
0.0
 11
40.13484655413179
 21
11.25012559935504
 31
0.0
  0
LINE
  5
1C4
330
2
100
AcDbEntity
  8
GAIKEI
  6
Continuous
 62
     1
100
AcDbLine
 10
40.13484655413179
 20
11.45390979935501
 30
0.0
 11
40.13484655413179
 21
11.25012559935504
 31
0.0
  0
LINE
  5
1C5
330
2
100
AcDbEntity
  8
GAIKEI
  6
Continuous
 62
     1
100
AcDbLine
 10
40.13484655413179
 20
11.45390979935501
 30
0.0
 11
40.13174595413187
 21
11.45390979935501
 31
0.0
  0
LINE
  5
1C6
330
2
100
AcDbEntity
  8
GAIKEI
  6
Continuous
 62
     1
100
AcDbLine
 10
40.13174595413187
 20
11.45390979935501
 30
0.0
 11
40.13174595413187
 21
11.25012559935504
 31
0.0
  0
LINE
  5
1C7
330
2
100
AcDbEntity
  8
GAIKEI
  6
Continuous
 62
     1
100
AcDbLine
 10
40.34246372079849
 20
11.45781603268841
 30
0.0
 11
40.34246372079849
 21
11.24621123268838
 31
0.0
  0
LINE
  5
1C8
330
2
100
AcDbEntity
  8
GAIKEI
  6
Continuous
 62
     1
100
AcDbLine
 10
40.34245982079852
 20
11.45782156602172
 30
0.0
 11
40.13484982079847
 21
11.45419773268833
 31
0.0
  0
LINE
  5
1C9
330
2
100
AcDbEntity
  8
GAIKEI
  6
Continuous
 62
     1
100
AcDbLine
 10
40.34246098746513
 20
11.24621259935503
 30
0.0
 11
40.13484285413182
 21
11.24983656602171
 31
0.0
  0
LINE
  5
1CA
330
2
100
AcDbEntity
  8
GAIKEI
  6
Continuous
 62
     1
100
AcDbLine
 10
40.16468572079844
 20
11.50470986602175
 30
0.0
 11
40.30113138746514
 21
11.50709153268838
 31
0.0
  0
LINE
  5
1CB
330
2
100
AcDbEntity
  8
GAIKEI
  6
Continuous
 62
     1
100
AcDbLine
 10
40.16468688746516
 20
11.19932429935505
 30
0.0
 11
40.30113258746519
 21
11.19694263268837
 31
0.0
  0
ARC
  5
1CC
330
2
100
AcDbEntity
  8
GAIKEI
  6
Continuous
 62
     1
100
AcDbCircle
 10
41.16306918746516
 20
9.795861266021745
 30
0.0
 40
0.6666666666666666
100
AcDbArc
 50
124.9999869999562
 51
180.0
  0
LINE
  5
1CD
330
2
100
AcDbEntity
  8
GAIKEI
  6
Continuous
 62
     1
100
AcDbLine
 10
40.78068905413187
 20
10.34196966602172
 30
0.0
 11
40.94689268746515
 21
10.45834669935505
 31
0.0
  0
SPLINE
  5
1CE
330
2
100
AcDbEntity
  8
GAIKEI
  6
Continuous
 62
     1
100
AcDbSpline
210
0.0
220
0.0
230
1.0
 70
     8
 71
     3
 72
    12
 73
     8
 74
     6
 42
0.0000000001
 43
0.0000000001
 44
0.000001
 12
0.0185670866237145
 22
0.9998276167891681
 32
0.0
 13
0.8165884949737339
 23
0.5772202611451998
 33
0.0
 40
0.0
 40
0.0
 40
0.0
 40
0.0
 40
0.0933836725491928
 40
0.2650170018481121
 40
0.3739320856402704
 40
0.6233904096818909
 40
0.7444262022845693
 40
0.7444262022845693
 40
0.7444262022845693
 40
0.7444262022845693
 10
40.48846796194442
 20
9.795861281369468
 30
0.0
 10
40.48904591619025
 20
9.826983806293441
 30
0.0
 10
40.49354267272586
 20
9.915375788907397
 30
0.0
 10
40.52445848944064
 20
10.03760449523452
 30
0.0
 10
40.59733746013927
 20
10.19879033273142
 30
0.0
 10
40.6941343271746
 20
10.32964809520925
 30
0.0
 10
40.78883954066294
 20
10.40966627638983
 30
0.0
 10
40.82178501923607
 20
10.43295438032783
 30
0.0
 11
40.48846796194442
 21
9.795861281369468
 31
0.0
 11
40.49437616506941
 21
9.889057895952817
 31
0.0
 11
40.53539992809027
 21
10.05571642459864
 31
0.0
 11
40.58014276663192
 21
10.15501655480693
 31
0.0
 11
40.72908482392358
 21
10.35513048709862
 31
0.0
 11
40.82178501923607
 21
10.43295438032783
 31
0.0
  0
SPLINE
  5
1CF
330
2
100
AcDbEntity
  8
GAIKEI
  6
Continuous
 62
     1
100
AcDbSpline
210
0.0
220
0.0
230
1.0
 70
     8
 71
     3
 72
     9
 73
     5
 74
     3
 42
0.0000000001
 43
0.0000000001
 44
0.000001
 12
-0.8148781874833078
 22
-0.5796322451036682
 32
0.0
 13
-0.8166287725033495
 23
-0.5771632766554648
 33
0.0
 40
0.0
 40
0.0
 40
0.0
 40
0.0
 40
0.1059223730343568
 40
0.237731618058691
 40
0.237731618058691
 40
0.237731618058691
 40
0.237731618058691
 10
41.00761672496526
 20
10.58121284386948
 30
0.0
 10
40.97884544784787
 20
10.56074750290662
 30
0.0
 10
40.91914369865477
 20
10.50842900756041
 30
0.0
 10
40.85766475989234
 20
10.45831286557839
 30
0.0
 10
40.82178501923607
 20
10.43295438032783
 30
0.0
 11
41.00761672496526
 21
10.58121284386948
 31
0.0
 11
40.92529250621526
 21
10.51456245324448
 31
0.0
 11
40.82178501923607
 21
10.43295438032783
 31
0.0
  0
SPLINE
  5
1D0
330
2
100
AcDbEntity
  8
GAIKEI
  6
Continuous
 62
     1
100
AcDbSpline
210
0.0
220
0.0
230
1.0
 70
     8
 71
     3
 72
     9
 73
     5
 74
     3
 42
0.0000000001
 43
0.0000000001
 44
0.000001
 12
-0.9998384225794312
 22
0.0179757818710299
 32
0.0
 13
0.0000595033320872
 23
0.9999999982296769
 33
0.0
 40
0.0
 40
0.0
 40
0.0
 40
0.0
 40
0.036107012966251
 40
0.0876382476875078
 40
0.0876382476875078
 40
0.0876382476875078
 40
0.0876382476875078
 10
40.17810826142357
 20
17.2826614115778
 30
0.0
 10
40.16607453512749
 20
17.28287776217416
 30
0.0
 10
40.13860332250124
 20
17.30250038344403
 30
0.0
 10
40.13174493464265
 20
17.33294852607611
 30
0.0
 10
40.13174595673604
 20
17.35012560428612
 30
0.0
 11
40.17810826142357
 21
17.2826614115778
 31
0.0
 11
40.14693648504606
 21
17.30088515915781
 31
0.0
 11
40.13174595673604
 21
17.35012560428612
 31
0.0
  0
SPLINE
  5
1D1
330
2
100
AcDbEntity
  8
GAIKEI
  6
Continuous
 62
     1
100
AcDbSpline
210
0.0
220
0.0
230
1.0
 70
     8
 71
     3
 72
     9
 73
     5
 74
     3
 42
0.0000000001
 43
0.0000000001
 44
0.000001
 12
-0.0110897398337431
 22
-0.9999385069445121
 32
0.0
 13
0.9998455617100596
 23
-0.0175742063461102
 33
0.0
 40
0.0
 40
0.0
 40
0.0
 40
0.0
 40
0.0359610576813527
 40
0.0623440602533203
 40
0.0623440602533203
 40
0.0623440602533203
 40
0.0623440602533203
 10
40.13484654267353
 20
17.35012560428612
 30
0.0
 10
40.13471360974891
 20
17.33813932217745
 30
0.0
 10
40.13860346718745
 20
17.31762259442732
 30
0.0
 10
40.15589568906065
 20
17.29948263168819
 30
0.0
 10
40.16468866506937
 20
17.29932807824446
 30
0.0
 11
40.13484654267353
 21
17.35012560428612
 31
0.0
 11
40.14366001923605
 21
17.31526232303616
 31
0.0
 11
40.16468866506937
 21
17.29932807824446
 31
0.0
  0
SPLINE
  5
1D2
330
2
100
AcDbEntity
  8
GAIKEI
  6
Continuous
 62
     1
100
AcDbSpline
210
0.0
220
0.0
230
1.0
 70
     8
 71
     3
 72
     9
 73
     5
 74
     3
 42
0.0000000001
 43
0.0000000001
 44
0.000001
 12
0.0013417659339218
 22
-0.9999990998316841
 32
0.0
 13
-0.9998445551282934
 23
0.0176313805558399
 33
0.0
 40
0.0
 40
0.0
 40
0.0
 40
0.0
 40
0.0503491643373757
 40
0.0834646992332152
 40
0.0834646992332152
 40
0.0834646992332152
 40
0.0834646992332152
 10
40.35643671194435
 20
17.34621935428612
 30
0.0
 10
40.35645923087552
 20
17.32943631461458
 30
0.0
 10
40.35186217321359
 20
17.30053804235839
 30
0.0
 10
40.32601842957132
 20
17.28009048529509
 30
0.0
 10
40.3149816338194
 20
17.28028510949445
 30
0.0
 11
40.35643671194435
 21
17.34621935428612
 31
0.0
 11
40.34318192611175
 21
17.29764720644675
 31
0.0
 11
40.3149816338194
 21
17.28028510949445
 31
0.0
  0
SPLINE
  5
1D3
330
2
100
AcDbEntity
  8
GAIKEI
  6
Continuous
 62
     1
100
AcDbSpline
210
0.0
220
0.0
230
1.0
 70
     8
 71
     3
 72
     9
 73
     5
 74
     3
 42
0.0000000001
 43
0.0000000001
 44
0.000001
 12
0.0043988947327431
 22
-0.9999903248157606
 32
0.0
 13
-0.9998522562280827
 23
0.0171891161963848
 33
0.0
 40
0.0
 40
0.0
 40
0.0
 40
0.0
 40
0.0396182045293258
 40
0.0697580163163291
 40
0.0697580163163291
 40
0.0697580163163291
 40
0.0697580163163291
 10
40.34246373017356
 20
17.34621935428612
 30
0.0
 10
40.34252182227731
 20
17.33301341388082
 30
0.0
 10
40.33501841847844
 20
17.30802189059673
 30
0.0
 10
40.3111758419669
 20
17.296770945898
 30
0.0
 10
40.30113072236105
 20
17.2969436381403
 30
0.0
 11
40.34246373017356
 21
17.34621935428612
 31
0.0
 11
40.32872963865014
 21
17.30905824860122
 31
0.0
 11
40.30113072236105
 21
17.2969436381403
 31
0.0
  0
SPLINE
  5
1D4
330
2
100
AcDbEntity
  8
GAIKEI
  6
Continuous
 62
     1
100
AcDbSpline
210
0.0
220
0.0
230
1.0
 70
     8
 71
     3
 72
     9
 73
     5
 74
     3
 42
0.0000000001
 43
0.0000000001
 44
0.000001
 12
0.0047599732256422
 22
0.9999886712632756
 32
0.0
 13
-0.9998496657963436
 23
0.0173391408939522
 33
0.0
 40
0.0
 40
0.0
 40
0.0
 40
0.0
 40
0.012269533147746
 40
0.0232438848330117
 40
0.0232438848330117
 40
0.0232438848330117
 40
0.0232438848330117
 10
40.3149816338194
 20
17.28028510949445
 30
0.0
 10
40.31500110136916
 20
17.28437490754427
 30
0.0
 10
40.31237005447303
 20
17.2923528406277
 30
0.0
 10
40.30478828964933
 20
17.29688020953028
 30
0.0
 10
40.30113072236105
 20
17.2969436381403
 30
0.0
 11
40.3149816338194
 21
17.28028510949445
 31
0.0
 11
40.31084488108439
 21
17.29183546185987
 31
0.0
 11
40.30113072236105
 21
17.2969436381403
 31
0.0
  0
SPLINE
  5
1D5
330
2
100
AcDbEntity
  8
GAIKEI
  6
Continuous
 62
     1
100
AcDbSpline
210
0.0
220
0.0
230
1.0
 70
     8
 71
     3
 72
     9
 73
     5
 74
     3
 42
0.0000000001
 43
0.0000000001
 44
0.000001
 12
0.9998457970413864
 22
-0.0175608125858404
 32
0.0
 13
-0.0055867885042225
 23
-0.9999843937753274
 33
0.0
 40
0.0
 40
0.0
 40
0.0
 40
0.0
 40
0.0107132738973753
 40
0.0229446387025925
 40
0.0229446387025925
 40
0.0229446387025925
 40
0.0229446387025925
 10
40.16468866506937
 20
17.29932807824446
 30
0.0
 10
40.16825920569566
 20
17.29926536697943
 30
0.0
 10
40.17567958879581
 20
17.29461476083341
 30
0.0
 10
40.17813103943966
 20
17.28673846955107
 30
0.0
 10
40.17810826142357
 20
17.2826614115778
 30
0.0
 11
40.16468866506937
 21
17.29932807824446
 31
0.0
 11
40.17410616685981
 21
17.29421865445749
 31
0.0
 11
40.17810826142357
 21
17.2826614115778
 31
0.0
  0
SPLINE
  5
1D6
330
2
100
AcDbEntity
  8
GAIKEI
  6
Continuous
 62
     1
100
AcDbSpline
210
0.0
220
0.0
230
1.0
 70
     8
 71
     3
 72
     9
 73
     5
 74
     3
 42
0.0000000001
 43
0.0000000001
 44
0.000001
 12
0.9998447417305261
 22
0.017620795493331
 32
0.0
 13
-0.0003912359037007
 23
-0.9999999234672309
 33
0.0
 40
0.0
 40
0.0
 40
0.0
 40
0.0
 40
0.0330864410733856
 40
0.0834722939776674
 40
0.0834722939776674
 40
0.0834722939776674
 40
0.0834722939776674
 10
40.3149816338194
 20
17.62375027876533
 30
0.0
 10
40.326008735196
 20
17.62394461523593
 30
0.0
 10
40.35187576306531
 20
17.60352738285627
 30
0.0
 10
40.35644328286259
 20
17.57461131698972
 30
0.0
 10
40.35643671194435
 20
17.55781603397366
 30
0.0
 11
40.3149816338194
 21
17.62375027876533
 31
0.0
 11
40.34316899577169
 21
17.60642268481535
 31
0.0
 11
40.35643671194435
 21
17.55781603397366
 31
0.0
  0
SPLINE
  5
1D7
330
2
100
AcDbEntity
  8
GAIKEI
  6
Continuous
 62
     1
100
AcDbSpline
210
0.0
220
0.0
230
1.0
 70
     8
 71
     3
 72
     9
 73
     5
 74
     3
 42
0.0000000001
 43
0.0000000001
 44
0.000001
 12
-0.4747908858044727
 22
0.8800986392200618
 32
0.0
 13
-0.4918919670767588
 23
0.8706562425695672
 33
0.0
 40
0.0
 40
0.0
 40
0.0
 40
0.0
 40
0.0576948580312876
 40
0.1154312846520702
 40
0.1154312846520702
 40
0.1154312846520702
 40
0.1154312846520702
 10
40.44274856090271
 20
15.01576688032782
 30
0.0
 10
40.43361756331903
 20
15.03269260234225
 30
0.0
 10
40.41518377569023
 20
15.06646737287033
 30
0.0
 10
40.39642098489018
 20
15.100060491595
 30
0.0
 10
40.38695429006935
 20
15.11681668501535
 30
0.0
 11
40.44274856090271
 21
15.01576688032782
 31
0.0
 11
40.41510821421667
 21
15.06640982371004
 31
0.0
 11
40.38695429006935
 21
15.11681668501535
 31
0.0
  0
SPLINE
  5
1D8
330
2
100
AcDbEntity
  8
GAIKEI
  6
Continuous
 62
     1
100
AcDbSpline
210
0.0
220
0.0
230
1.0
 70
     8
 71
     3
 72
     9
 73
     5
 74
     3
 42
0.0000000001
 43
0.0000000001
 44
0.000001
 12
-0.0002234682941219
 22
0.9999999750309603
 32
0.0
 13
0.9998388568741807
 23
0.0179516095248227
 33
0.0
 40
0.0
 40
0.0
 40
0.0
 40
0.0
 40
0.051502918706789
 40
0.0876294010341153
 40
0.0876294010341153
 40
0.0876294010341153
 40
0.0876294010341153
 10
40.13174595673604
 20
17.55390978397366
 30
0.0
 10
40.1317421203129
 20
17.57107742311393
 30
0.0
 10
40.13861644977602
 20
17.60150731618409
 30
0.0
 10
40.16606804115922
 20
17.62115780051388
 30
0.0
 10
40.17810826142357
 20
17.62137397668198
 30
0.0
 11
40.13174595673604
 21
17.55390978397366
 31
0.0
 11
40.14693011812903
 21
17.60312255834412
 31
0.0
 11
40.17810826142357
 21
17.62137397668198
 31
0.0
  0
SPLINE
  5
1D9
330
2
100
AcDbEntity
  8
GAIKEI
  6
Continuous
 62
     1
100
AcDbSpline
210
0.0
220
0.0
230
1.0
 70
     8
 71
     3
 72
     9
 73
     5
 74
     3
 42
0.0000000001
 43
0.0000000001
 44
0.000001
 12
-0.9998592952993302
 22
-0.0167746714879058
 32
0.0
 13
-0.0097462011994862
 23
-0.9999525046531857
 33
0.0
 40
0.0
 40
0.0
 40
0.0
 40
0.0
 40
0.0064412759231355
 40
0.0611486102049887
 40
0.0611486102049887
 40
0.0611486102049887
 40
0.0611486102049887
 10
40.16468866506937
 20
17.60470731001533
 30
0.0
 10
40.16254187520092
 20
17.6046712932528
 30
0.0
 10
40.14222218816129
 20
17.59922601895923
 30
0.0
 10
40.13502427223587
 20
17.572144695953
 30
0.0
 10
40.13484654267353
 20
17.55390978397366
 30
0.0
 11
40.16468866506937
 21
17.60470731001533
 31
0.0
 11
40.15840611298602
 21
17.60328315636946
 31
0.0
 11
40.13484654267353
 21
17.55390978397366
 31
0.0
  0
SPLINE
  5
1DA
330
2
100
AcDbEntity
  8
GAIKEI
  6
Continuous
 62
     1
100
AcDbSpline
210
0.0
220
0.0
230
1.0
 70
     8
 71
     3
 72
     9
 73
     5
 74
     3
 42
0.0000000001
 43
0.0000000001
 44
0.000001
 12
0.0055867169034352
 22
-0.9999843941753496
 32
0.0
 13
-0.9998460771930181
 23
-0.0175448545657448
 33
0.0
 40
0.0
 40
0.0
 40
0.0
 40
0.0
 40
0.0122314469184433
 40
0.0229446807967585
 40
0.0229446807967585
 40
0.0229446807967585
 40
0.0229446807967585
 10
40.17810826142357
 20
17.62137397668198
 30
0.0
 10
40.17813103930065
 20
17.61729689133645
 30
0.0
 10
40.17567965318787
 20
17.60942056046406
 30
0.0
 10
40.16825919335846
 20
17.60476996405876
 30
0.0
 10
40.16468866506937
 20
17.60470731001533
 30
0.0
 11
40.17810826142357
 21
17.62137397668198
 31
0.0
 11
40.17410616886218
 21
17.60981664619589
 31
0.0
 11
40.16468866506937
 21
17.60470731001533
 31
0.0
  0
SPLINE
  5
1DB
330
2
100
AcDbEntity
  8
GAIKEI
  6
Continuous
 62
     1
100
AcDbSpline
210
0.0
220
0.0
230
1.0
 70
     8
 71
     3
 72
     9
 73
     5
 74
     3
 42
0.0000000001
 43
0.0000000001
 44
0.000001
 12
0.9998499341329049
 22
0.0173236605377075
 32
0.0
 13
-0.0047599102162256
 23
0.9999886715631999
 33
0.0
 40
0.0
 40
0.0
 40
0.0
 40
0.0
 40
0.0109743124490399
 40
0.0232439274851184
 40
0.0232439274851184
 40
0.0232439274851184
 40
0.0232439274851184
 10
40.30113072236105
 20
17.60709175011948
 30
0.0
 10
40.30478827755416
 20
17.60715512187397
 30
0.0
 10
40.31237011852701
 20
17.61168247896609
 30
0.0
 10
40.31500110124139
 20
17.61966045341847
 30
0.0
 10
40.3149816338194
 20
17.62375027876533
 30
0.0
 11
40.30113072236105
 21
17.60709175011948
 31
0.0
 11
40.31084488282965
 21
17.612199838778
 31
0.0
 11
40.3149816338194
 21
17.62375027876533
 31
0.0
  0
SPLINE
  5
1DC
330
2
100
AcDbEntity
  8
GAIKEI
  6
Continuous
 62
     1
100
AcDbSpline
210
0.0
220
0.0
230
1.0
 70
     8
 71
     3
 72
     9
 73
     5
 74
     3
 42
0.0000000001
 43
0.0000000001
 44
0.000001
 12
-0.9991384012064315
 22
-0.0415024726330376
 32
0.0
 13
-0.9998819996502039
 23
0.0153618610692135
 33
0.0
 40
0.0
 40
0.0
 40
0.0
 40
0.0
 40
0.2239819251023743
 40
0.5548030540246053
 40
0.5548030540246053
 40
0.5548030540246053
 40
0.5548030540246053
 10
40.99750930309022
 20
15.0169062032445
 30
0.0
 10
40.92291298890825
 20
15.01380760200555
 30
0.0
 10
40.73792296189097
 20
15.01231306523883
 30
0.0
 10
40.55300925820714
 20
15.01407287092073
 30
0.0
 10
40.44274856090271
 20
15.01576688032782
 30
0.0
 11
40.99750930309022
 21
15.0169062032445
 31
0.0
 11
40.7735591316196
 21
15.0131322782878
 31
0.0
 11
40.44274856090271
 21
15.01576688032782
 31
0.0
  0
SPLINE
  5
1DD
330
2
100
AcDbEntity
  8
GAIKEI
  6
Continuous
 62
     1
100
AcDbSpline
210
0.0
220
0.0
230
1.0
 70
     8
 71
     3
 72
     9
 73
     5
 74
     3
 42
0.0000000001
 43
0.0000000001
 44
0.000001
 12
0.0054025223111221
 22
0.9999854062698505
 32
0.0
 13
-0.9998535277753179
 23
-0.0171149932881038
 33
0.0
 40
0.0
 40
0.0
 40
0.0
 40
0.0
 40
0.0396651132248332
 40
0.0697727252565131
 40
0.0697727252565131
 40
0.0697727252565131
 40
0.0697727252565131
 10
40.34246373017356
 20
17.55781603397366
 30
0.0
 10
40.34253516072662
 20
17.57103754542797
 30
0.0
 10
40.33502603490927
 20
17.59605952413753
 30
0.0
 10
40.31116512306197
 20
17.60726351397875
 30
0.0
 10
40.30113072236105
 20
17.60709175011948
 30
0.0
 11
40.34246373017356
 21
17.55781603397366
 31
0.0
 11
40.32871384217748
 21
17.59502132225344
 31
0.0
 11
40.30113072236105
 21
17.60709175011948
 31
0.0
  0
LINE
  5
1DE
330
2
100
AcDbEntity
  8
GAIKEI
  6
Continuous
 62
     1
100
AcDbLine
 10
40.34246372079849
 20
17.55781603268838
 30
0.0
 11
40.34246372079849
 21
17.3462112326884
 31
0.0
  0
LINE
  5
1DF
330
2
100
AcDbEntity
  8
GAIKEI
  6
Continuous
 62
     1
100
AcDbLine
 10
40.34245908746515
 20
17.34621403268835
 30
0.0
 11
40.13484095413184
 21
17.34983803268841
 31
0.0
  0
LINE
  5
1E0
330
2
100
AcDbEntity
  8
GAIKEI
  6
Continuous
 62
     1
100
AcDbLine
 10
40.35644485413183
 20
17.3462112326884
 30
0.0
 11
40.35644485413183
 21
17.55781603268838
 31
0.0
  0
LINE
  5
1E1
330
2
100
AcDbEntity
  8
GAIKEI
  6
Continuous
 62
     1
100
AcDbLine
 10
40.13174595413187
 20
17.35012559935507
 30
0.0
 11
40.13174595413187
 21
17.55390979935504
 31
0.0
  0
LINE
  5
1E2
330
2
100
AcDbEntity
  8
GAIKEI
  6
Continuous
 62
     1
100
AcDbLine
 10
40.34246372079849
 20
17.3462112326884
 30
0.0
 11
40.35644485413183
 21
17.3462112326884
 31
0.0
  0
LINE
  5
1E3
330
2
100
AcDbEntity
  8
GAIKEI
  6
Continuous
 62
     1
100
AcDbLine
 10
40.31497585413183
 20
17.28028449935505
 30
0.0
 11
40.17810692079848
 21
17.28266609935502
 31
0.0
  0
LINE
  5
1E4
330
2
100
AcDbEntity
  8
GAIKEI
  6
Continuous
 62
     1
100
AcDbLine
 10
40.35644485413183
 20
17.55781603268838
 30
0.0
 11
40.34246372079849
 21
17.55781603268838
 31
0.0
  0
LINE
  5
1E5
330
2
100
AcDbEntity
  8
GAIKEI
  6
Continuous
 62
     1
100
AcDbLine
 10
40.1781099541318
 20
17.62137379935507
 30
0.0
 11
40.3149788874652
 21
17.62375539935504
 31
0.0
  0
LINE
  5
1E6
330
2
100
AcDbEntity
  8
GAIKEI
  6
Continuous
 62
     1
100
AcDbLine
 10
40.99750818746514
 20
15.01690623268837
 30
0.0
 11
40.96296708746518
 21
15.01867926602171
 31
0.0
  0
LINE
  5
1E7
330
2
100
AcDbEntity
  8
GAIKEI
  6
Continuous
 62
     1
100
AcDbLine
 10
40.44117792079851
 20
15.01868029935502
 30
0.0
 11
40.96296342079853
 21
15.01868029935502
 31
0.0
  0
LINE
  5
1E8
330
2
100
AcDbEntity
  8
GAIKEI
  6
Continuous
 62
     1
100
AcDbLine
 10
40.13174595413187
 20
17.35012559935507
 30
0.0
 11
40.13484655413179
 21
17.35012559935507
 31
0.0
  0
LINE
  5
1E9
330
2
100
AcDbEntity
  8
GAIKEI
  6
Continuous
 62
     1
100
AcDbLine
 10
40.13484655413179
 20
17.55390979935504
 30
0.0
 11
40.13484655413179
 21
17.35012559935507
 31
0.0
  0
LINE
  5
1EA
330
2
100
AcDbEntity
  8
GAIKEI
  6
Continuous
 62
     1
100
AcDbLine
 10
40.13484655413179
 20
17.55390979935504
 30
0.0
 11
40.13174595413187
 21
17.55390979935504
 31
0.0
  0
LINE
  5
1EB
330
2
100
AcDbEntity
  8
GAIKEI
  6
Continuous
 62
     1
100
AcDbLine
 10
40.13484358746512
 20
17.55419903268836
 30
0.0
 11
40.34246172079849
 21
17.55782303268842
 31
0.0
  0
LINE
  5
1EC
330
2
100
AcDbEntity
  8
GAIKEI
  6
Continuous
 62
     1
100
AcDbLine
 10
40.30113065413184
 20
17.29694409935502
 30
0.0
 11
40.16468498746514
 21
17.29932576602169
 31
0.0
  0
LINE
  5
1ED
330
2
100
AcDbEntity
  8
GAIKEI
  6
Continuous
 62
     1
100
AcDbLine
 10
40.16468762079847
 20
17.60471129935507
 30
0.0
 11
40.30112515413185
 21
17.60709283268835
 31
0.0
  0
SPLINE
  5
1EE
330
2
100
AcDbEntity
  8
GAIKEI
  6
Continuous
 62
     1
100
AcDbSpline
210
0.0
220
0.0
230
1.0
 70
     8
 71
     3
 72
     9
 73
     5
 74
     3
 42
0.0000000001
 43
0.0000000001
 44
0.000001
 12
-0.0096864889682053
 22
-0.9999530848652195
 32
0.0
 13
0.9998177850050909
 23
-0.0190891798544048
 33
0.0
 40
0.0
 40
0.0
 40
0.0
 40
0.0
 40
0.0360539349393884
 40
0.0623424017595962
 40
0.0623424017595962
 40
0.0623424017595962
 40
0.0623424017595962
 10
40.13484654267353
 20
20.81679227095282
 30
0.0
 10
40.13473013065918
 20
20.80477485646475
 30
0.0
 10
40.13862069072348
 20
20.78424319069833
 30
0.0
 10
40.15592743951359
 20
20.76616202000156
 30
0.0
 10
40.16468866506937
 20
20.76599474491116
 30
0.0
 11
40.13484654267353
 21
20.81679227095282
 31
0.0
 11
40.1437169853819
 21
20.78184760949444
 31
0.0
 11
40.16468866506937
 21
20.76599474491116
 31
0.0
  0
SPLINE
  5
1EF
330
2
100
AcDbEntity
  8
GAIKEI
  6
Continuous
 62
     1
100
AcDbSpline
210
0.0
220
0.0
230
1.0
 70
     8
 71
     3
 72
     9
 73
     5
 74
     3
 42
0.0000000001
 43
0.0000000001
 44
0.000001
 12
0.9998532817207747
 22
0.0171293616984674
 32
0.0
 13
0.9991383626590158
 23
-0.0415034006204452
 33
0.0
 40
0.0
 40
0.0
 40
0.0
 40
0.0
 40
0.3663851462139837
 40
0.6106017888583447
 40
0.6106017888583447
 40
0.6106017888583447
 40
0.6106017888583447
 10
40.38695429006935
 20
23.35402371626532
 30
0.0
 10
40.50906475367462
 20
23.35611569749545
 30
0.0
 10
40.71256892931033
 20
23.358388454477
 30
0.0
 10
40.91617389760163
 20
23.35717445873459
 30
0.0
 10
40.99750930309022
 20
23.35379585168198
 30
0.0
 11
40.38695429006935
 21
23.35402371626532
 31
0.0
 11
40.75332204341617
 21
23.35758679078452
 31
0.0
 11
40.99750930309022
 21
23.35379585168198
 31
0.0
  0
SPLINE
  5
1F0
330
2
100
AcDbEntity
  8
GAIKEI
  6
Continuous
 62
     1
100
AcDbSpline
210
0.0
220
0.0
230
1.0
 70
     8
 71
     3
 72
     9
 73
     5
 74
     3
 42
0.0000000001
 43
0.0000000001
 44
0.000001
 12
-0.9998388569090286
 22
0.0179516075839246
 32
0.0
 13
0.0002234681699351
 23
0.9999999750309884
 33
0.0
 40
0.0
 40
0.0
 40
0.0
 40
0.0
 40
0.0361264823177901
 40
0.0876294010400317
 40
0.0876294010400317
 40
0.0876294010400317
 40
0.0876294010400317
 10
40.17810826142357
 20
20.7493280782445
 30
0.0
 10
40.16606804116199
 20
20.74954425438915
 30
0.0
 10
40.13861644976654
 20
20.76919473874227
 30
0.0
 10
40.13174212031503
 20
20.7996246318074
 30
0.0
 10
40.13174595673604
 20
20.81679227095282
 30
0.0
 11
40.17810826142357
 21
20.7493280782445
 31
0.0
 11
40.14693011813096
 21
20.76757949656678
 31
0.0
 11
40.13174595673604
 21
20.81679227095282
 31
0.0
  0
SPLINE
  5
1F1
330
2
100
AcDbEntity
  8
GAIKEI
  6
Continuous
 62
     1
100
AcDbSpline
210
0.0
220
0.0
230
1.0
 70
     8
 71
     3
 72
     9
 73
     5
 74
     3
 42
0.0000000001
 43
0.0000000001
 44
0.000001
 12
0.9998460771930181
 22
-0.0175448545657417
 32
0.0
 13
-0.0055867169034313
 23
-0.9999843941753495
 33
0.0
 40
0.0
 40
0.0
 40
0.0
 40
0.0
 40
0.0107132338783423
 40
0.0229446807967319
 40
0.0229446807967319
 40
0.0229446807967319
 40
0.0229446807967319
 10
40.16468866506937
 20
20.76599474491116
 30
0.0
 10
40.16825919335848
 20
20.76593209086772
 30
0.0
 10
40.17567965318784
 20
20.7612814944624
 30
0.0
 10
40.17813103930065
 20
20.75340516359003
 30
0.0
 10
40.17810826142357
 20
20.7493280782445
 30
0.0
 11
40.16468866506937
 21
20.76599474491116
 31
0.0
 11
40.17410616886218
 21
20.76088540873053
 31
0.0
 11
40.17810826142357
 21
20.7493280782445
 31
0.0
  0
SPLINE
  5
1F2
330
2
100
AcDbEntity
  8
GAIKEI
  6
Continuous
 62
     1
100
AcDbSpline
210
0.0
220
0.0
230
1.0
 70
     8
 71
     3
 72
     9
 73
     5
 74
     3
 42
0.0000000001
 43
0.0000000001
 44
0.000001
 12
0.9998499341329051
 22
-0.0173236605377033
 32
0.0
 13
-0.0047599102162221
 23
-0.9999886715631999
 33
0.0
 40
0.0
 40
0.0
 40
0.0
 40
0.0
 40
0.0109743124490399
 40
0.0232439274851184
 40
0.0232439274851184
 40
0.0232439274851184
 40
0.0232439274851184
 10
40.30113072236105
 20
20.763610304807
 30
0.0
 10
40.30478827755416
 20
20.76354693305251
 30
0.0
 10
40.31237011852701
 20
20.75901957596045
 30
0.0
 10
40.31500110124139
 20
20.75104160150801
 30
0.0
 10
40.3149816338194
 20
20.74695177616115
 30
0.0
 11
40.30113072236105
 21
20.763610304807
 31
0.0
 11
40.31084488282965
 21
20.75850221614849
 31
0.0
 11
40.3149816338194
 21
20.74695177616115
 31
0.0
  0
SPLINE
  5
1F3
330
2
100
AcDbEntity
  8
GAIKEI
  6
Continuous
 62
     1
100
AcDbSpline
210
0.0
220
0.0
230
1.0
 70
     8
 71
     3
 72
     9
 73
     5
 74
     3
 42
0.0000000001
 43
0.0000000001
 44
0.000001
 12
0.0003912360288169
 22
-0.9999999234671818
 32
0.0
 13
-0.9998447417305261
 23
0.0176207954933274
 33
0.0
 40
0.0
 40
0.0
 40
0.0
 40
0.0
 40
0.0503858529038127
 40
0.0834722939788634
 40
0.0834722939788634
 40
0.0834722939788634
 40
0.0834722939788634
 10
40.35643671194435
 20
20.81288602095282
 30
0.0
 10
40.35644328286468
 20
20.79609073793694
 30
0.0
 10
40.35187576306728
 20
20.76717467206865
 30
0.0
 10
40.32600873519655
 20
20.74675743969056
 30
0.0
 10
40.3149816338194
 20
20.74695177616115
 30
0.0
 11
40.35643671194435
 21
20.81288602095282
 31
0.0
 11
40.34316899577368
 21
20.76427937011107
 31
0.0
 11
40.3149816338194
 21
20.74695177616115
 31
0.0
  0
SPLINE
  5
1F4
330
2
100
AcDbEntity
  8
GAIKEI
  6
Continuous
 62
     1
100
AcDbSpline
210
0.0
220
0.0
230
1.0
 70
     8
 71
     3
 72
     9
 73
     5
 74
     3
 42
0.0000000001
 43
0.0000000001
 44
0.000001
 12
0.9998522562280825
 22
0.0171891161963896
 32
0.0
 13
-0.0043988947327387
 23
-0.9999903248157606
 33
0.0
 40
0.0
 40
0.0
 40
0.0
 40
0.0
 40
0.0301398117869805
 40
0.0697580163163595
 40
0.0697580163163595
 40
0.0697580163163595
 40
0.0697580163163595
 10
40.30113072236105
 20
21.07375841678612
 30
0.0
 10
40.31117584196688
 20
21.07393110902842
 30
0.0
 10
40.33501841847846
 20
21.06268016432969
 30
0.0
 10
40.34252182227731
 20
21.03768864104563
 30
0.0
 10
40.34246373017356
 20
21.02448270064031
 30
0.0
 11
40.30113072236105
 21
21.07375841678612
 31
0.0
 11
40.32872963865014
 21
21.06164380632526
 31
0.0
 11
40.34246373017356
 21
21.02448270064031
 31
0.0
  0
SPLINE
  5
1F5
330
2
100
AcDbEntity
  8
GAIKEI
  6
Continuous
 62
     1
100
AcDbSpline
210
0.0
220
0.0
230
1.0
 70
     8
 71
     3
 72
     9
 73
     5
 74
     3
 42
0.0000000001
 43
0.0000000001
 44
0.000001
 12
0.9998445551282934
 22
0.0176313805558451
 32
0.0
 13
-0.0013417649307908
 23
-0.9999990998330302
 33
0.0
 40
0.0
 40
0.0
 40
0.0
 40
0.0
 40
0.033115534882595
 40
0.0834646992241111
 40
0.0834646992241111
 40
0.0834646992241111
 40
0.0834646992241111
 10
40.3149816338194
 20
21.09041694543197
 30
0.0
 10
40.32601842956691
 20
21.09061156963125
 30
0.0
 10
40.35186217319848
 20
21.07016401255629
 30
0.0
 10
40.35645923085868
 20
21.04126574031326
 30
0.0
 10
40.35643671194435
 20
21.02448270064031
 30
0.0
 11
40.3149816338194
 21
21.09041694543197
 31
0.0
 11
40.34318192609624
 21
21.07305484847973
 31
0.0
 11
40.35643671194435
 21
21.02448270064031
 31
0.0
  0
SPLINE
  5
1F6
330
2
100
AcDbEntity
  8
GAIKEI
  6
Continuous
 62
     1
100
AcDbSpline
210
0.0
220
0.0
230
1.0
 70
     8
 71
     3
 72
     9
 73
     5
 74
     3
 42
0.0000000001
 43
0.0000000001
 44
0.000001
 12
0.0047599732256464
 22
-0.9999886712632754
 32
0.0
 13
-0.9998496657963434
 23
-0.0173391408939562
 33
0.0
 40
0.0
 40
0.0
 40
0.0
 40
0.0
 40
0.012269533147746
 40
0.0232438848330117
 40
0.0232438848330117
 40
0.0232438848330117
 40
0.0232438848330117
 10
40.3149816338194
 20
21.09041694543197
 30
0.0
 10
40.31500110136916
 20
21.08632714738215
 30
0.0
 10
40.31237005447303
 20
21.07834921429873
 30
0.0
 10
40.30478828964933
 20
21.07382184539614
 30
0.0
 10
40.30113072236105
 20
21.07375841678612
 30
0.0
 11
40.3149816338194
 21
21.09041694543197
 31
0.0
 11
40.31084488108439
 21
21.07886659306655
 31
0.0
 11
40.30113072236105
 21
21.07375841678612
 31
0.0
  0
SPLINE
  5
1F7
330
2
100
AcDbEntity
  8
GAIKEI
  6
Continuous
 62
     1
100
AcDbSpline
210
0.0
220
0.0
230
1.0
 70
     8
 71
     3
 72
     9
 73
     5
 74
     3
 42
0.0000000001
 43
0.0000000001
 44
0.000001
 12
0.999853527775318
 22
-0.0171149932880998
 32
0.0
 13
-0.0054025223111262
 23
0.9999854062698505
 33
0.0
 40
0.0
 40
0.0
 40
0.0
 40
0.0
 40
0.0301076120316572
 40
0.0697727252565437
 40
0.0697727252565437
 40
0.0697727252565437
 40
0.0697727252565437
 10
40.30113072236105
 20
20.763610304807
 30
0.0
 10
40.31116512306197
 20
20.76343854094773
 30
0.0
 10
40.3350260349093
 20
20.77464253078887
 30
0.0
 10
40.34253516072662
 20
20.79966450949851
 30
0.0
 10
40.34246373017356
 20
20.81288602095282
 30
0.0
 11
40.30113072236105
 21
20.763610304807
 31
0.0
 11
40.32871384217748
 21
20.77568073267298
 31
0.0
 11
40.34246373017356
 21
20.81288602095282
 31
0.0
  0
SPLINE
  5
1F8
330
2
100
AcDbEntity
  8
GAIKEI
  6
Continuous
 62
     1
100
AcDbSpline
210
0.0
220
0.0
230
1.0
 70
     8
 71
     3
 72
     9
 73
     5
 74
     3
 42
0.0000000001
 43
0.0000000001
 44
0.000001
 12
-0.0000595034599272
 22
0.999999998229669
 32
0.0
 13
0.9998384225794312
 23
0.0179757818710345
 33
0.0
 40
0.0
 40
0.0
 40
0.0
 40
0.0
 40
0.0515351232048398
 40
0.0876441901834374
 40
0.0876441901834374
 40
0.0876441901834374
 40
0.0876441901834374
 10
40.13174595673604
 20
21.0205683126195
 30
0.0
 10
40.13174493456332
 20
21.03774668699072
 30
0.0
 10
40.13860345745375
 20
21.06819523274749
 30
0.0
 10
40.16607385056734
 20
21.08782428044475
 30
0.0
 10
40.17810826142357
 20
21.08804064334862
 30
0.0
 11
40.13174595673604
 21
21.0205683126195
 31
0.0
 11
40.14693648504407
 21
21.06981282675826
 31
0.0
 11
40.17810826142357
 21
21.08804064334862
 31
0.0
  0
SPLINE
  5
1F9
330
2
100
AcDbEntity
  8
GAIKEI
  6
Continuous
 62
     1
100
AcDbSpline
210
0.0
220
0.0
230
1.0
 70
     8
 71
     3
 72
     9
 73
     5
 74
     3
 42
0.0000000001
 43
0.0000000001
 44
0.000001
 12
0.9998457970413861
 22
0.0175608125858446
 32
0.0
 13
-0.0055867885042267
 23
0.9999843937753274
 33
0.0
 40
0.0
 40
0.0
 40
0.0
 40
0.0
 40
0.0107132738974024
 40
0.0229446387025659
 40
0.0229446387025659
 40
0.0229446387025659
 40
0.0229446387025659
 10
40.16468866506937
 20
21.07137397668197
 30
0.0
 10
40.16825920569566
 20
21.071436687947
 30
0.0
 10
40.17567958879577
 20
21.07608729409313
 30
0.0
 10
40.17813103943966
 20
21.08396358537539
 30
0.0
 10
40.17810826142357
 20
21.08804064334862
 30
0.0
 11
40.16468866506937
 21
21.07137397668197
 31
0.0
 11
40.17410616685981
 21
21.07648340046899
 31
0.0
 11
40.17810826142357
 21
21.08804064334862
 31
0.0
  0
SPLINE
  5
1FA
330
2
100
AcDbEntity
  8
GAIKEI
  6
Continuous
 62
     1
100
AcDbSpline
210
0.0
220
0.0
230
1.0
 70
     8
 71
     3
 72
     9
 73
     5
 74
     3
 42
0.0000000001
 43
0.0000000001
 44
0.000001
 12
-0.9993892948358727
 22
-0.0349433451097244
 32
0.0
 13
0.0005515548835315
 23
-0.9999998478935939
 33
0.0
 40
0.0
 40
0.0
 40
0.0
 40
0.0
 40
0.0042311797118644
 40
0.0605765203445957
 40
0.0605765203445957
 40
0.0605765203445957
 40
0.0605765203445957
 10
40.16468866506937
 20
21.07137397668197
 30
0.0
 10
40.16327913316652
 20
21.07132469282433
 30
0.0
 10
40.14300934109832
 20
21.06796143553223
 30
0.0
 10
40.13483618349093
 20
21.0393500899736
 30
0.0
 10
40.13484654267353
 20
21.0205683126195
 30
0.0
 11
40.16468866506937
 21
21.07137397668197
 31
0.0
 11
40.16050572236105
 21
21.07073107303614
 31
0.0
 11
40.13484654267353
 21
21.0205683126195
 31
0.0
  0
LINE
  5
1FB
330
2
100
AcDbEntity
  8
GAIKEI
  6
Continuous
 62
     1
100
AcDbLine
 10
40.13174595413187
 20
20.81679226602165
 30
0.0
 11
40.13174595413187
 21
21.02057646602174
 31
0.0
  0
LINE
  5
1FC
330
2
100
AcDbEntity
  8
GAIKEI
  6
Continuous
 62
     1
100
AcDbLine
 10
40.31497758746513
 20
20.74694693268839
 30
0.0
 11
40.17810865413179
 21
20.74932849935505
 31
0.0
  0
LINE
  5
1FD
330
2
100
AcDbEntity
  8
GAIKEI
  6
Continuous
 62
     1
100
AcDbLine
 10
40.35644485413183
 20
21.02448269935508
 30
0.0
 11
40.35644485413183
 21
20.81287789935505
 31
0.0
  0
LINE
  5
1FE
330
2
100
AcDbEntity
  8
GAIKEI
  6
Continuous
 62
     1
100
AcDbLine
 10
40.34246372079849
 20
20.81287789935505
 30
0.0
 11
40.35644485413183
 21
20.81287789935505
 31
0.0
  0
LINE
  5
1FF
330
2
100
AcDbEntity
  8
GAIKEI
  6
Continuous
 62
     1
100
AcDbLine
 10
40.17810825413181
 20
21.08803623268841
 30
0.0
 11
40.31497718746516
 21
21.09041783268839
 31
0.0
  0
LINE
  5
200
330
2
100
AcDbEntity
  8
GAIKEI
  6
Continuous
 62
     1
100
AcDbLine
 10
40.99751082079848
 20
23.35378883268839
 30
0.0
 11
40.96296158746514
 21
23.3520153660217
 31
0.0
  0
LINE
  5
201
330
2
100
AcDbEntity
  8
GAIKEI
  6
Continuous
 62
     1
100
AcDbLine
 10
40.35644485413183
 20
21.02448269935508
 30
0.0
 11
40.34246372079849
 21
21.02448269935508
 31
0.0
  0
LINE
  5
202
330
2
100
AcDbEntity
  8
GAIKEI
  6
Continuous
 62
     1
100
AcDbLine
 10
40.96296342079853
 20
23.35202176602166
 30
0.0
 11
40.38695428746518
 21
23.35202176602166
 31
0.0
  0
LINE
  5
203
330
2
100
AcDbEntity
  8
GAIKEI
  6
Continuous
 62
     1
100
AcDbLine
 10
40.1348445541318
 20
20.816503699355
 30
0.0
 11
40.34246268746517
 21
20.81287969935505
 31
0.0
  0
LINE
  5
204
330
2
100
AcDbEntity
  8
GAIKEI
  6
Continuous
 62
     1
100
AcDbLine
 10
40.34246372079849
 20
21.02448269935508
 30
0.0
 11
40.34246372079849
 21
20.81287789935505
 31
0.0
  0
LINE
  5
205
330
2
100
AcDbEntity
  8
GAIKEI
  6
Continuous
 62
     1
100
AcDbLine
 10
40.34245812079848
 20
21.024488699355
 30
0.0
 11
40.13484812079849
 21
21.02086486602178
 31
0.0
  0
LINE
  5
206
330
2
100
AcDbEntity
  8
GAIKEI
  6
Continuous
 62
     1
100
AcDbLine
 10
40.13484655413179
 20
21.02057646602174
 30
0.0
 11
40.13174595413187
 21
21.02057646602174
 31
0.0
  0
LINE
  5
207
330
2
100
AcDbEntity
  8
GAIKEI
  6
Continuous
 62
     1
100
AcDbLine
 10
40.13484655413179
 20
21.02056829935504
 30
0.0
 11
40.13484655413179
 21
20.81679226602165
 31
0.0
  0
LINE
  5
208
330
2
100
AcDbEntity
  8
GAIKEI
  6
Continuous
 62
     1
100
AcDbLine
 10
40.13174595413187
 20
20.81679226602165
 30
0.0
 11
40.13484655413179
 21
20.81679226602165
 31
0.0
  0
LINE
  5
209
330
2
100
AcDbEntity
  8
GAIKEI
  6
Continuous
 62
     1
100
AcDbLine
 10
40.16468402079846
 20
21.07137696602172
 30
0.0
 11
40.30112968746516
 21
21.0737586326884
 31
0.0
  0
LINE
  5
20A
330
2
100
AcDbEntity
  8
GAIKEI
  6
Continuous
 62
     1
100
AcDbLine
 10
40.16468858746515
 20
20.7659914326884
 30
0.0
 11
40.30112612079853
 21
20.76360989935506
 31
0.0
  0
LINE
  5
20B
330
2
100
AcDbEntity
  8
GAIKEI
  6
Continuous
 62
     1
100
AcDbLine
 10
40.96296342079853
 20
15.01868029935502
 30
0.0
 11
40.96296342079853
 21
23.35202176602166
 31
0.0
  0
LINE
  5
20C
330
2
100
AcDbEntity
  8
GAIKEI
  6
Continuous
 62
     1
100
AcDbLine
 10
40.99750928746516
 20
23.353787699355
 30
0.0
 11
40.99750928746516
 21
15.01691433268837
 31
0.0
  0
LINE
  5
20D
330
2
100
AcDbEntity
  8
GAIKEI
  6
Continuous
 62
     1
100
AcDbLine
 10
40.38695428746518
 20
15.11681669935507
 30
0.0
 11
40.38695428746518
 21
23.3540237326884
 31
0.0
  0
LINE
  5
20E
330
2
100
AcDbEntity
  8
GAIKEI
  6
Continuous
 62
     1
100
AcDbLine
 10
41.01333082079849
 20
27.78773433268839
 30
0.0
 11
41.00761172079848
 21
27.78948633268834
 31
0.0
  0
LINE
  5
20F
330
2
100
AcDbEntity
  8
GAIKEI
  6
Continuous
 62
     1
100
AcDbLine
 10
41.01337845413178
 20
10.58297879935503
 30
0.0
 11
41.01337845413178
 21
27.78772326602171
 31
0.0
  0
LINE
  5
210
330
2
100
AcDbEntity
  8
GAIKEI
  6
Continuous
 62
     1
100
AcDbLine
 10
41.0076085874652
 20
10.58121283268838
 30
0.0
 11
41.0076085874652
 21
27.78948919935505
 31
0.0
  0
LINE
  5
211
330
2
100
AcDbEntity
  8
GAIKEI
  6
Continuous
 62
     1
100
AcDbLine
 10
40.94689102079849
 20
27.91236379935503
 30
0.0
 11
40.94897755413183
 21
27.91090276602171
 31
0.0
  0
SPLINE
  5
212
330
2
100
AcDbEntity
  8
GAIKEI
  6
Continuous
 62
     1
100
AcDbSpline
210
0.0
220
0.0
230
1.0
 70
     8
 71
     3
 72
     9
 73
     5
 74
     3
 42
0.0000000001
 43
0.0000000001
 44
0.000001
 12
0.8223437765747311
 22
-0.5689909604983274
 32
0.0
 13
-0.0098661996175185
 23
-0.9999513278680655
 33
0.0
 40
0.0
 40
0.0
 40
0.0
 40
0.0
 40
0.0712845199561077
 40
0.1425734908303499
 40
0.1425734908303499
 40
0.1425734908303499
 40
0.1425734908303499
 10
40.94938104788184
 20
27.91062365116108
 30
0.0
 10
40.96892117499918
 20
27.89710356866826
 30
0.0
 10
41.00146040113677
 20
27.85967618241034
 30
0.0
 10
41.01352337589178
 20
27.81150950829459
 30
0.0
 10
41.01328892548605
 20
27.78774767459856
 30
0.0
 11
40.94938104788184
 21
27.91062365116108
 31
0.0
 11
40.99634145755044
 21
27.85699327529892
 31
0.0
 11
41.01328892548605
 21
27.78774767459856
 31
0.0
  0
SPLINE
  5
213
330
2
100
AcDbEntity
  8
GAIKEI
  6
Continuous
 62
     1
100
AcDbSpline
210
0.0
220
0.0
230
1.0
 70
     8
 71
     3
 72
     9
 73
     5
 74
     3
 42
0.0000000001
 43
0.0000000001
 44
0.000001
 12
0.8191192914052358
 22
-0.573623209474464
 32
0.0
 13
-0.0299166618373854
 23
-0.9995523964978062
 33
0.0
 40
0.0
 40
0.0
 40
0.0
 40
0.0
 40
0.0702389538922526
 40
0.1413807468143646
 40
0.1413807468143646
 40
0.1413807468143646
 40
0.1413807468143646
 10
40.94689895152765
 20
27.91236518761946
 30
0.0
 10
40.96607697890807
 20
27.89893495623218
 30
0.0
 10
40.99827091487917
 20
27.86144555760996
 30
0.0
 10
41.00832616661898
 20
27.81319252759238
 30
0.0
 10
41.0076167249652
 20
27.78948921105689
 30
0.0
 11
40.94689895152765
 21
27.91236518761946
 31
0.0
 11
40.9926020765277
 21
27.85902859907776
 31
0.0
 11
41.0076167249652
 21
27.78948921105689
 31
0.0
  0
SPLINE
  5
214
330
2
100
AcDbEntity
  8
GAIKEI
  6
Continuous
 62
     1
100
AcDbSpline
210
0.0
220
0.0
230
1.0
 70
     8
 71
     3
 72
     9
 73
     5
 74
     3
 42
0.0000000001
 43
0.0000000001
 44
0.000001
 12
0.0003914527634081
 22
-0.999999923382364
 32
0.0
 13
-0.9998565873960473
 23
0.0169353075180469
 33
0.0
 40
0.0
 40
0.0
 40
0.0
 40
0.0
 40
0.0503808886424953
 40
0.08346994235244
 40
0.08346994235244
 40
0.08346994235244
 40
0.08346994235244
 10
40.35643671194435
 20
26.91287788293192
 30
0.0
 10
40.35644328585705
 20
26.89608425467111
 30
0.0
 10
40.35187166407104
 20
26.86716684434657
 30
0.0
 10
40.32600973659353
 20
26.84675684704024
 30
0.0
 10
40.31498163381934
 20
26.84694363814026
 30
0.0
 11
40.35643671194435
 21
26.91287788293192
 31
0.0
 11
40.34316887990058
 21
26.86427640943657
 31
0.0
 11
40.31498163381934
 21
26.84694363814026
 31
0.0
  0
SPLINE
  5
215
330
2
100
AcDbEntity
  8
GAIKEI
  6
Continuous
 62
     1
100
AcDbSpline
210
0.0
220
0.0
230
1.0
 70
     8
 71
     3
 72
     9
 73
     5
 74
     3
 42
0.0000000001
 43
0.0000000001
 44
0.000001
 12
0.9998562947086131
 22
0.0169525789059683
 32
0.0
 13
-0.0013446187061291
 23
-0.9999990959998589
 33
0.0
 40
0.0
 40
0.0
 40
0.0
 40
0.0
 40
0.033118390366722
 40
0.0834621549044991
 40
0.0834621549044991
 40
0.0834621549044991
 40
0.0834621549044991
 10
40.31498163381934
 20
27.19042508345274
 30
0.0
 10
40.3260195108456
 20
27.19061223082804
 30
0.0
 10
40.35185773349261
 20
27.17017127379881
 30
0.0
 10
40.35645927633353
 20
27.14127207833676
 30
0.0
 10
40.35643671194435
 20
27.12449083866108
 30
0.0
 11
40.31498163381934
 21
27.19042508345274
 31
0.0
 11
40.34318181452374
 21
27.17305735892171
 31
0.0
 11
40.35643671194435
 21
27.12449083866108
 31
0.0
  0
SPLINE
  5
216
330
2
100
AcDbEntity
  8
GAIKEI
  6
Continuous
 62
     1
100
AcDbSpline
210
0.0
220
0.0
230
1.0
 70
     8
 71
     3
 72
     9
 73
     5
 74
     3
 42
0.0000000001
 43
0.0000000001
 44
0.000001
 12
0.0765775448988711
 22
0.9970636286703378
 32
0.0
 13
-0.819176411343672
 23
0.5735416350171131
 33
0.0
 40
0.0
 40
0.0
 40
0.0
 40
0.0
 40
0.0525685269262323
 40
0.1033208077288364
 40
0.1033208077288364
 40
0.1033208077288364
 40
0.1033208077288364
 10
40.82178501923602
 20
27.93774767459854
 30
0.0
 10
40.82312687547967
 20
27.95521906333551
 30
0.0
 10
40.81759330115405
 20
27.99089291463304
 30
0.0
 10
40.79454637111282
 20
28.01903603683195
 30
0.0
 10
40.7806880140277
 20
28.02873888553609
 30
0.0
 11
40.82178501923602
 21
27.93774767459854
 31
0.0
 11
40.81296340465269
 21
27.98957059126525
 31
0.0
 11
40.7806880140277
 21
28.02873888553609
 31
0.0
  0
SPLINE
  5
217
330
2
100
AcDbEntity
  8
GAIKEI
  6
Continuous
 62
     1
100
AcDbSpline
210
0.0
220
0.0
230
1.0
 70
     8
 71
     3
 72
     9
 73
     5
 74
     3
 42
0.0000000001
 43
0.0000000001
 44
0.000001
 12
0.9998450966442854
 22
0.0176006453398568
 32
0.0
 13
-0.0047587927126677
 23
0.9999886768818525
 33
0.0
 40
0.0
 40
0.0
 40
0.0
 40
0.0
 40
0.0109761899889187
 40
0.0232496222443136
 40
0.0232496222443136
 40
0.0232496222443136
 40
0.0232496222443136
 10
40.30113072236105
 20
27.17375841678609
 30
0.0
 10
40.3047888856078
 20
27.17382281279515
 30
0.0
 10
40.31237044638191
 20
27.17835458064573
 30
0.0
 10
40.315001102726
 20
27.1863339856921
 30
0.0
 10
40.31498163381934
 20
27.19042508345274
 30
0.0
 11
40.30113072236105
 21
27.17375841678609
 31
0.0
 11
40.31084484891977
 21
27.17887060273614
 31
0.0
 11
40.31498163381934
 21
27.19042508345274
 31
0.0
  0
SPLINE
  5
218
330
2
100
AcDbEntity
  8
GAIKEI
  6
Continuous
 62
     1
100
AcDbSpline
210
0.0
220
0.0
230
1.0
 70
     8
 71
     3
 72
     9
 73
     5
 74
     3
 42
0.0000000001
 43
0.0000000001
 44
0.000001
 12
0.9998401253052959
 22
-0.0178808229533763
 32
0.0
 13
-0.0054065057116783
 23
0.999985384741192
 33
0.0
 40
0.0
 40
0.0
 40
0.0
 40
0.0
 40
0.0301058667475416
 40
0.0697676094866848
 40
0.0697676094866848
 40
0.0697676094866848
 40
0.0697676094866848
 10
40.30113072236105
 20
26.86361030480691
 30
0.0
 10
40.31116440688815
 20
26.86343086558253
 30
0.0
 10
40.3350262379519
 20
26.87464044700317
 30
0.0
 10
40.34253520731972
 20
26.89965749524109
 30
0.0
 10
40.3424637301735
 20
26.91287788293192
 30
0.0
 11
40.30113072236105
 21
26.86361030480691
 31
0.0
 11
40.32871394164271
 21
26.8756761550207
 31
0.0
 11
40.3424637301735
 21
26.91287788293192
 31
0.0
  0
SPLINE
  5
219
330
2
100
AcDbEntity
  8
GAIKEI
  6
Continuous
 62
     1
100
AcDbSpline
210
0.0
220
0.0
230
1.0
 70
     8
 71
     3
 72
     9
 73
     5
 74
     3
 42
0.0000000001
 43
0.0000000001
 44
0.000001
 12
-0.0000595403393498
 22
0.999999998227474
 32
0.0
 13
0.9998495293293737
 23
0.0173470083827176
 33
0.0
 40
0.0
 40
0.0
 40
0.0
 40
0.0
 40
0.0515312040631166
 40
0.0876383132944006
 40
0.0876383132944006
 40
0.0876383132944006
 40
0.0876383132944006
 10
40.13174595673598
 20
27.12057645064027
 30
0.0
 10
40.13174493400753
 20
27.13775351863086
 30
0.0
 10
40.13860326934272
 20
27.16819635960078
 30
0.0
 10
40.16607436936673
 20
27.18783185990643
 30
0.0
 10
40.17810826142351
 20
27.18804064334859
 30
0.0
 11
40.13174595673598
 21
27.12057645064027
 31
0.0
 11
40.14693637350382
 21
27.16981689721218
 31
0.0
 11
40.17810826142351
 21
27.18804064334859
 31
0.0
  0
SPLINE
  5
21A
330
2
100
AcDbEntity
  8
GAIKEI
  6
Continuous
 62
     1
100
AcDbSpline
210
0.0
220
0.0
230
1.0
 70
     8
 71
     3
 72
     9
 73
     5
 74
     3
 42
0.0000000001
 43
0.0000000001
 44
0.000001
 12
0.9998510429294874
 22
0.0172595467152621
 32
0.0
 13
-0.0055880290013959
 23
0.9999843868440546
 33
0.0
 40
0.0
 40
0.0
 40
0.0
 40
0.0
 40
0.0107113116253793
 40
0.0229389262587468
 40
0.0229389262587468
 40
0.0229389262587468
 40
0.0229389262587468
 10
40.16468866506937
 20
27.17138211470274
 30
0.0
 10
40.16825857043596
 20
27.17144373883054
 30
0.0
 10
40.17567939365264
 20
27.17608990965951
 30
0.0
 10
40.17813103751191
 20
27.18396483544135
 30
0.0
 10
40.17810826142351
 20
27.18804064334859
 30
0.0
 11
40.16468866506937
 21
27.17138211470274
 31
0.0
 11
40.17410620353837
 21
27.17648735514399
 31
0.0
 11
40.17810826142351
 21
27.18804064334859
 31
0.0
  0
SPLINE
  5
21B
330
2
100
AcDbEntity
  8
GAIKEI
  6
Continuous
 62
     1
100
AcDbSpline
210
0.0
220
0.0
230
1.0
 70
     8
 71
     3
 72
     9
 73
     5
 74
     3
 42
0.0000000001
 43
0.0000000001
 44
0.000001
 12
-0.9998549601034422
 22
-0.0170311114300879
 32
0.0
 13
0.0005518132095792
 23
-0.9999998477510793
 33
0.0
 40
0.0
 40
0.0
 40
0.0
 40
0.0
 40
0.0042326234937606
 40
0.0605708120803812
 40
0.0605708120803812
 40
0.0605708120803812
 40
0.0605708120803812
 10
40.16468866506937
 20
27.17138211470274
 30
0.0
 10
40.16327799520455
 20
27.17135808594196
 30
0.0
 10
40.14302417174782
 20
27.167743121701
 30
0.0
 10
40.13483617995464
 20
27.13935584397666
 30
0.0
 10
40.13484654267353
 20
27.12057645064027
 30
0.0
 11
40.16468866506937
 21
27.17138211470274
 31
0.0
 11
40.16050572236105
 21
27.17073107303611
 31
0.0
 11
40.13484654267353
 21
27.12057645064027
 31
0.0
  0
SPLINE
  5
21C
330
2
100
AcDbEntity
  8
GAIKEI
  6
Continuous
 62
     1
100
AcDbSpline
210
0.0
220
0.0
230
1.0
 70
     8
 71
     3
 72
     9
 73
     5
 74
     3
 42
0.0000000001
 43
0.0000000001
 44
0.000001
 12
0.0047588539501625
 22
0.9999886765904307
 32
0.0
 13
-0.999844828451267
 23
0.0176158740701828
 33
0.0
 40
0.0
 40
0.0
 40
0.0
 40
0.0
 40
0.0122733519564591
 40
0.0232495804188367
 40
0.0232495804188367
 40
0.0232495804188367
 40
0.0232495804188367
 10
40.31498163381934
 20
26.84694363814026
 30
0.0
 10
40.31500110284915
 20
26.85103470913367
 30
0.0
 10
40.31237038352768
 20
26.85901407371659
 30
0.0
 10
40.30478889744905
 20
26.86354585285412
 30
0.0
 10
40.30113072236105
 20
26.86361030480691
 30
0.0
 11
40.31498163381934
 21
26.84694363814026
 31
0.0
 11
40.31084484717354
 21
26.85849803292683
 31
0.0
 11
40.30113072236105
 21
26.86361030480691
 31
0.0
  0
SPLINE
  5
21D
330
2
100
AcDbEntity
  8
GAIKEI
  6
Continuous
 62
     1
100
AcDbSpline
210
0.0
220
0.0
230
1.0
 70
     8
 71
     3
 72
     9
 73
     5
 74
     3
 42
0.0000000001
 43
0.0000000001
 44
0.000001
 12
0.0044113714926948
 22
0.9999902698534389
 32
0.0
 13
-0.9998416208861915
 23
-0.0177969981646757
 33
0.0
 40
0.0
 40
0.0
 40
0.0
 40
0.0
 40
0.0396141351876934
 40
0.0697525116186843
 40
0.0697525116186843
 40
0.0697525116186843
 40
0.0697525116186843
 10
40.3424637301735
 20
27.12449083866108
 30
0.0
 10
40.3425219810624
 20
27.13769542190653
 30
0.0
 10
40.33501806152385
 20
27.16268235585622
 30
0.0
 10
40.31117525674159
 20
27.17393720766276
 30
0.0
 10
40.30113072236105
 20
27.17375841678609
 30
0.0
 11
40.3424637301735
 21
27.12449083866108
 31
0.0
 11
40.32872975807669
 21
27.16164764714603
 31
0.0
 11
40.30113072236105
 21
27.17375841678609
 31
0.0
  0
SPLINE
  5
21E
330
2
100
AcDbEntity
  8
GAIKEI
  6
Continuous
 62
     1
100
AcDbSpline
210
0.0
220
0.0
230
1.0
 70
     8
 71
     3
 72
     9
 73
     5
 74
     3
 42
0.0000000001
 43
0.0000000001
 44
0.000001
 12
-0.0096890877650181
 22
-0.9999530596874443
 32
0.0
 13
0.999805131612938
 23
-0.0197407902687739
 33
0.0
 40
0.0
 40
0.0
 40
0.0
 40
0.0
 40
0.0360539349369147
 40
0.0623424014060393
 40
0.0623424014060393
 40
0.0623424014060393
 40
0.0623424014060393
 10
40.13484654267353
 20
26.91679227095273
 30
0.0
 10
40.1347300994269
 20
26.90477485676808
 30
0.0
 10
40.13862062696225
 20
26.88423927561314
 30
0.0
 10
40.15592755051002
 20
26.8661677299454
 30
0.0
 10
40.16468866506937
 20
26.86599474491107
 30
0.0
 11
40.13484654267353
 21
26.91679227095273
 31
0.0
 11
40.14371698538184
 21
26.88184760949446
 31
0.0
 11
40.16468866506937
 21
26.86599474491107
 31
0.0
  0
SPLINE
  5
21F
330
2
100
AcDbEntity
  8
GAIKEI
  6
Continuous
 62
     1
100
AcDbSpline
210
0.0
220
0.0
230
1.0
 70
     8
 71
     3
 72
     9
 73
     5
 74
     3
 42
0.0000000001
 43
0.0000000001
 44
0.000001
 12
-0.9998500127247776
 22
0.0173191239461565
 32
0.0
 13
0.0002239344186409
 23
0.9999999749266878
 33
0.0
 40
0.0
 40
0.0
 40
0.0
 40
0.0
 40
0.0361263532404474
 40
0.0876296700497302
 40
0.0876296700497302
 40
0.0876296700497302
 40
0.0876296700497302
 10
40.17810826142351
 20
26.84932807824441
 30
0.0
 10
40.16606794984113
 20
26.84953663717426
 30
0.0
 10
40.13861606580147
 20
26.86919955436201
 30
0.0
 10
40.13174211228087
 20
26.89962449911343
 30
0.0
 10
40.13174595673598
 20
26.91679227095273
 30
0.0
 11
40.17810826142351
 21
26.84932807824441
 31
0.0
 11
40.14693000458914
 21
26.86757904576007
 31
0.0
 11
40.13174595673598
 21
26.91679227095273
 31
0.0
  0
SPLINE
  5
220
330
2
100
AcDbEntity
  8
GAIKEI
  6
Continuous
 62
     1
100
AcDbSpline
210
0.0
220
0.0
230
1.0
 70
     8
 71
     3
 72
     9
 73
     5
 74
     3
 42
0.0000000001
 43
0.0000000001
 44
0.000001
 12
0.0055881036849406
 22
0.9999843864267113
 32
0.0
 13
-0.999850771848823
 23
0.0172752433648062
 33
0.0
 40
0.0
 40
0.0
 40
0.0
 40
0.0
 40
0.0122313813049732
 40
0.0229446725492069
 40
0.0229446725492069
 40
0.0229446725492069
 40
0.0229446725492069
 10
40.17810826142351
 20
26.84932807824441
 30
0.0
 10
40.17813104483249
 20
26.85340514168755
 30
0.0
 10
40.17567964386386
 20
26.86128090477414
 30
0.0
 10
40.16825922924257
 20
26.86593305333992
 30
0.0
 10
40.16468866506937
 20
26.86599474491107
 30
0.0
 11
40.17810826142351
 21
26.84932807824441
 31
0.0
 11
40.17410620179993
 21
26.8608853495449
 31
0.0
 11
40.16468866506937
 21
26.86599474491107
 31
0.0
  0
LINE
  5
221
330
2
100
AcDbEntity
  8
GAIKEI
  6
Continuous
 62
     1
100
AcDbLine
 10
40.35644485413183
 20
27.12449083268831
 30
0.0
 11
40.35644485413183
 21
26.91288603268839
 31
0.0
  0
LINE
  5
222
330
2
100
AcDbEntity
  8
GAIKEI
  6
Continuous
 62
     1
100
AcDbLine
 10
40.34246372079849
 20
26.91288603268839
 30
0.0
 11
40.35644485413183
 21
26.91288603268839
 31
0.0
  0
LINE
  5
223
330
2
100
AcDbEntity
  8
GAIKEI
  6
Continuous
 62
     1
100
AcDbLine
 10
40.35644485413183
 20
27.12449083268831
 30
0.0
 11
40.34246372079849
 21
27.12449083268831
 31
0.0
  0
LINE
  5
224
330
2
100
AcDbEntity
  8
GAIKEI
  6
Continuous
 62
     1
100
AcDbLine
 10
40.1781090207985
 20
27.18804003268838
 30
0.0
 11
40.31497795413184
 21
27.19042163268836
 31
0.0
  0
LINE
  5
225
330
2
100
AcDbEntity
  8
GAIKEI
  6
Continuous
 62
     1
100
AcDbLine
 10
40.13484265413183
 20
26.91650513268837
 30
0.0
 11
40.34246078746514
 21
26.91288116602169
 31
0.0
  0
LINE
  5
226
330
2
100
AcDbEntity
  8
GAIKEI
  6
Continuous
 62
     1
100
AcDbLine
 10
40.34246372079849
 20
27.12449083268831
 30
0.0
 11
40.34246372079849
 21
26.91288603268839
 31
0.0
  0
LINE
  5
227
330
2
100
AcDbEntity
  8
GAIKEI
  6
Continuous
 62
     1
100
AcDbLine
 10
40.31497682079851
 20
26.84695073268841
 30
0.0
 11
40.17810788746515
 21
26.84933229935507
 31
0.0
  0
LINE
  5
228
330
2
100
AcDbEntity
  8
GAIKEI
  6
Continuous
 62
     1
100
AcDbLine
 10
40.13484655413179
 20
27.12057646602171
 30
0.0
 11
40.13174595413187
 21
27.12057646602171
 31
0.0
  0
LINE
  5
229
330
2
100
AcDbEntity
  8
GAIKEI
  6
Continuous
 62
     1
100
AcDbLine
 10
40.13484655413179
 20
27.12057646602171
 30
0.0
 11
40.13484655413179
 21
26.91679226602167
 31
0.0
  0
LINE
  5
22A
330
2
100
AcDbEntity
  8
GAIKEI
  6
Continuous
 62
     1
100
AcDbLine
 10
40.13174595413187
 20
27.12057646602171
 30
0.0
 11
40.13174595413187
 21
26.91679226602167
 31
0.0
  0
LINE
  5
22B
330
2
100
AcDbEntity
  8
GAIKEI
  6
Continuous
 62
     1
100
AcDbLine
 10
40.13174595413187
 20
26.91679226602167
 30
0.0
 11
40.13484655413179
 21
26.91679226602167
 31
0.0
  0
LINE
  5
22C
330
2
100
AcDbEntity
  8
GAIKEI
  6
Continuous
 62
     1
100
AcDbLine
 10
40.13484188746514
 20
27.1208661660217
 30
0.0
 11
40.34246002079851
 21
27.12449013268838
 31
0.0
  0
LINE
  5
22D
330
2
100
AcDbEntity
  8
GAIKEI
  6
Continuous
 62
     1
100
AcDbLine
 10
40.30113235413182
 20
26.86361119935503
 30
0.0
 11
40.16468668746518
 21
26.86599286602171
 31
0.0
  0
LINE
  5
22E
330
2
100
AcDbEntity
  8
GAIKEI
  6
Continuous
 62
     1
100
AcDbLine
 10
40.30113158746513
 20
27.17376009935498
 30
0.0
 11
40.16468592079848
 21
27.17137843268842
 31
0.0
  0
LINE
  5
22F
330
2
100
AcDbEntity
  8
GAIKEI
  6
Continuous
 62
     1
100
AcDbLine
 10
40.78068772079854
 20
28.02874123268839
 30
0.0
 11
40.94689132079849
 21
27.91236419935507
 31
0.0
  0
SPLINE
  5
230
330
2
100
AcDbEntity
  8
GAIKEI
  6
Continuous
 62
     1
100
AcDbSpline
210
0.0
220
0.0
230
1.0
 70
     8
 71
     3
 72
     9
 73
     5
 74
     3
 42
0.0000000001
 43
0.0000000001
 44
0.000001
 12
-0.8148781874833101
 22
0.5796322451036651
 32
0.0
 13
-0.8166287725033523
 23
0.5771632766554611
 33
0.0
 40
0.0
 40
0.0
 40
0.0
 40
0.0
 40
0.1059223730344009
 40
0.2377316180586905
 40
0.2377316180586905
 40
0.2377316180586905
 40
0.2377316180586905
 10
41.0076167249652
 20
27.78948921105689
 30
0.0
 10
40.9788454478478
 20
27.80995455201978
 30
0.0
 10
40.91914369865466
 20
27.8622730473659
 30
0.0
 10
40.85766475989227
 20
27.91238918934798
 30
0.0
 10
40.82178501923602
 20
27.93774767459854
 30
0.0
 11
41.0076167249652
 21
27.78948921105689
 31
0.0
 11
40.92529250621516
 21
27.85613960168189
 31
0.0
 11
40.82178501923602
 21
27.93774767459854
 31
0.0
  0
LINE
  5
231
330
2
100
AcDbEntity
  8
GAIKEI
  6
Continuous
 62
     1
100
AcDbLine
 10
40.48847608746513
 20
28.57484076602174
 30
0.0
 11
40.49640252079848
 21
28.57484076602174
 31
0.0
  0
ARC
  5
232
330
2
100
AcDbEntity
  8
GAIKEI
  6
Continuous
 62
     1
100
AcDbCircle
 10
41.16306918746516
 20
28.57484076602174
 30
0.0
 40
0.6666666666666666
100
AcDbArc
 50
180.0
 51
235.0000130000438
  0
SPLINE
  5
233
330
2
100
AcDbEntity
  8
GAIKEI
  6
Continuous
 62
     1
100
AcDbSpline
210
0.0
220
0.0
230
1.0
 70
     8
 71
     3
 72
    13
 73
     9
 74
     7
 42
0.0000000001
 43
0.0000000001
 44
0.000001
 12
-0.8165883987689886
 22
0.5772203972451938
 32
0.0
 13
-0.0185670768543934
 23
0.9998276169705871
 33
0.0
 40
0.0
 40
0.0
 40
0.0
 40
0.0
 40
0.0566483134002581
 40
0.1211572259006168
 40
0.3706156113657092
 40
0.6040924948366967
 40
0.6507201502468055
 40
0.7441038311909041
 40
0.7441038311909041
 40
0.7441038311909041
 40
0.7441038311909041
 10
40.82178501923602
 20
27.93774767459854
 30
0.0
 10
40.80636556739185
 20
27.94864719525327
 30
0.0
 10
40.77403628830708
 20
27.97295378601331
 30
0.0
 10
40.68319516143674
 20
28.05684134558044
 30
0.0
 10
40.57202374506047
 20
28.20520161790432
 30
0.0
 10
40.51119210977283
 20
28.37400225681938
 30
0.0
 10
40.491313666579
 20
28.49696458203732
 30
0.0
 10
40.48904591593805
 20
28.54371824582953
 30
0.0
 10
40.48846796194436
 20
28.57484077355696
 30
0.0
 11
40.82178501923602
 21
27.93774767459854
 31
0.0
 11
40.77670852184019
 21
27.97205757043196
 31
0.0
 11
40.72908482392352
 21
28.01557156782775
 31
0.0
 11
40.58014276663186
 21
28.21568550011944
 31
0.0
 11
40.50172479788187
 21
28.43559923709859
 31
0.0
 11
40.49437616506935
 21
28.48164415897361
 31
0.0
 11
40.48846796194436
 21
28.57484077355696
 31
0.0
  0
LINE
  5
234
330
2
100
AcDbEntity
  8
GAIKEI
  6
Continuous
 62
     7
100
AcDbLine
 10
40.49640252079848
 20
33.55361679935498
 30
0.0
 11
40.48847608746513
 21
33.55361679935498
 31
0.0
  0
ARC
  5
235
330
2
100
AcDbEntity
  8
GAIKEI
  6
Continuous
 62
     7
100
AcDbCircle
 10
40.42973585413181
 20
33.55361679935498
 30
0.0
 40
0.0666666666666667
100
AcDbArc
 50
0.0000360000244672
 51
81.50003899997944
  0
LINE
  5
236
330
2
100
AcDbEntity
  8
GAIKEI
  6
Continuous
 62
     1
100
AcDbLine
 10
40.49640252079848
 20
28.57484076602174
 30
0.0
 11
40.49640252079848
 21
33.31879485174364
 31
0.0
  0
LINE
  5
237
330
2
100
AcDbEntity
  8
GAIKEI
  6
Continuous
 62
     1
100
AcDbLine
 10
40.48847608746513
 20
28.57484076602174
 30
0.0
 11
40.48847608746513
 21
33.55361679935498
 31
0.0
  0
SPLINE
  5
238
330
2
100
AcDbEntity
  8
GAIKEI
  6
Continuous
 62
     7
100
AcDbSpline
210
0.0
220
0.0
230
1.0
 70
     8
 71
     3
 72
     9
 73
     5
 74
     3
 42
0.0000000001
 43
0.0000000001
 44
0.000001
 12
0.9890197687900908
 22
-0.1477832769375315
 32
0.0
 13
-0.0334917304967723
 23
-0.9994389946306535
 33
0.0
 40
0.0
 40
0.0
 40
0.0
 40
0.0
 40
0.0420313669237885
 40
0.0878051485536563
 40
0.0878051485536563
 40
0.0878051485536563
 40
0.0878051485536563
 10
40.43959100881937
 20
33.61954292199437
 30
0.0
 10
40.45344762641834
 20
33.61747241094832
 30
0.0
 10
40.48103216720846
 20
33.59970357987041
 30
0.0
 10
40.48897897633041
 20
33.56885804463352
 30
0.0
 10
40.48846796194436
 20
33.55360867720265
 30
0.0
 11
40.43959100881937
 21
33.61954292199437
 31
0.0
 11
40.47535761038187
 21
33.59746447147364
 31
0.0
 11
40.48846796194436
 21
33.55360867720265
 31
0.0
  0
LINE
  5
239
330
2
100
AcDbEntity
  8
GAIKEI
  6
Continuous
 62
     1
100
AcDbLine
 10
40.03973748746517
 20
4.648725866021663
 30
0.0
 11
40.03973748746517
 21
33.72197619935509
 31
0.0
  0
LINE
  5
23A
330
2
100
AcDbEntity
  8
GAIKEI
  6
Continuous
 62
     7
100
AcDbLine
 10
40.43958525413183
 20
33.6195468326884
 30
0.0
 11
40.03973765413184
 21
33.67930709935502
 31
0.0
  0
SPLINE
  5
23B
330
2
100
AcDbEntity
  8
GAIKEI
  6
Continuous
 62
     1
100
AcDbSpline
210
0.0
220
0.0
230
1.0
 70
     8
 71
     3
 72
     9
 73
     5
 74
     3
 42
0.0000000001
 43
0.0000000001
 44
0.000001
 12
-0.9892823772819248
 22
0.1460149923789455
 32
0.0
 13
-0.989283640950161
 23
0.1460064305035665
 33
0.0
 40
0.0
 40
0.0
 40
0.0
 40
0.0
 40
0.2130252414815949
 40
0.4535924992566133
 40
0.4535924992566133
 40
0.4535924992566133
 40
0.4535924992566133
 10
40.48846796194436
 20
33.55360867720265
 30
0.0
 10
40.41822058950637
 20
33.56397697020645
 30
0.0
 10
40.26864393773926
 20
33.58605658022085
 30
0.0
 10
40.11906724408271
 20
33.60813590656409
 30
0.0
 10
40.03973749319436
 20
33.61984402876533
 30
0.0
 11
40.48846796194436
 21
33.55360867720265
 31
0.0
 11
40.277726223466
 21
33.58471612276071
 31
0.0
 11
40.03973749319436
 21
33.61984402876533
 31
0.0
  0
SPLINE
  5
23C
330
2
100
AcDbEntity
  8
GAIKEI
  6
Continuous
 62
     1
100
AcDbSpline
210
0.0
220
0.0
230
1.0
 70
     8
 71
     3
 72
     9
 73
     5
 74
     3
 42
0.0000000001
 43
0.0000000001
 44
0.000001
 12
0.1459754487342677
 22
0.9892882129929727
 32
0.0
 13
-0.988696309650915
 23
0.1499320088662255
 33
0.0
 40
0.0
 40
0.0
 40
0.0
 40
0.0
 40
0.0456477696114495
 40
0.0665153869001752
 40
0.0665153869001752
 40
0.0665153869001752
 40
0.0665153869001752
 10
39.98385370413183
 20
33.72197619022364
 30
0.0
 10
39.98607485534942
 20
33.73702912369899
 30
0.0
 10
39.98495066611575
 20
33.75326545467215
 30
0.0
 10
39.98993342349171
 20
33.78685125104687
 30
0.0
 10
39.98305617809018
 20
33.78789415897364
 30
0.0
 11
39.98385370413183
 21
33.72197619022364
 31
0.0
 11
39.98740743785817
 21
33.76748458088855
 31
0.0
 11
39.98305617809018
 21
33.78789415897364
 31
0.0
  0
ARC
  5
23D
330
2
100
AcDbEntity
  8
GAIKEI
  6
Continuous
 62
     7
100
AcDbCircle
 10
39.97307082079846
 20
33.72197619935509
 30
0.0
 40
0.0666666666666667
100
AcDbArc
 50
0.0000360000244672
 51
81.38583800001008
  0
LINE
  5
23E
330
2
100
AcDbEntity
  8
GAIKEI
  6
Continuous
 62
     1
100
AcDbLine
 10
40.03973748746517
 20
33.72197619935509
 30
0.0
 11
39.98385372079849
 21
33.72197619935509
 31
0.0
  0
LINE
  5
23F
330
2
100
AcDbEntity
  8
GAIKEI
  6
Continuous
 62
     1
100
AcDbLine
 10
39.98385372079849
 20
4.648725866021663
 30
0.0
 11
39.98385372079849
 21
33.72197619935509
 31
0.0
  0
SPLINE
  5
240
330
2
100
AcDbEntity
  8
GAIKEI
  6
Continuous
 62
     1
100
AcDbSpline
210
0.0
220
0.0
230
1.0
 70
     8
 71
     3
 72
     9
 73
     5
 74
     3
 42
0.0000000001
 43
0.0000000001
 44
0.000001
 12
-0.7055166716357269
 22
0.7086933229853701
 32
0.0
 13
-0.7155185922578898
 23
0.6985936903045201
 33
0.0
 40
0.0
 40
0.0
 40
0.0
 40
0.0
 40
0.003810762629218
 40
0.0076249567828563
 40
0.0076249567828563
 40
0.0076249567828563
 40
0.0076249567828563
 10
39.45517531871519
 20
33.80206245324433
 30
0.0
 10
39.45427913319301
 20
33.80296267392126
 30
0.0
 10
39.4524702744084
 20
33.80474829497592
 30
0.0
 10
39.45064882974229
 20
33.80652094227554
 30
0.0
 10
39.44973912079849
 20
33.80740913293198
 30
0.0
 11
39.45517531871519
 21
33.80206245324433
 31
0.0
 11
39.45246792524773
 21
33.8047442974293
 31
0.0
 11
39.44973912079849
 21
33.80740913293198
 31
0.0
  0
SPLINE
  5
241
330
2
100
AcDbEntity
  8
GAIKEI
  6
Continuous
 62
     1
100
AcDbSpline
210
0.0
220
0.0
230
1.0
 70
     8
 71
     3
 72
     9
 73
     5
 74
     3
 42
0.0000000001
 43
0.0000000001
 44
0.000001
 12
-0.9883945555596053
 22
0.1519085334671172
 32
0.0
 13
-0.7513136138752157
 23
-0.659945341377423
 33
0.0
 40
0.0
 40
0.0
 40
0.0
 40
0.0
 40
0.0077923705453555
 40
0.023397037351007
 40
0.023397037351007
 40
0.023397037351007
 40
0.023397037351007
 10
39.50642043590267
 20
33.86009467980694
 30
0.0
 10
39.50385312369537
 20
33.86048925566752
 30
0.0
 10
39.49660427483377
 20
33.85550486244893
 30
0.0
 10
39.49061001096054
 20
33.85129597688175
 30
0.0
 10
39.48670201142352
 20
33.84786323449436
 30
0.0
 11
39.50642043590267
 21
33.86009467980694
 31
0.0
 11
39.49916381502868
 21
33.85725417777456
 31
0.0
 11
39.48670201142352
 21
33.84786323449436
 31
0.0
  0
SPLINE
  5
242
330
2
100
AcDbEntity
  8
GAIKEI
  6
Continuous
 62
     1
100
AcDbSpline
210
0.0
220
0.0
230
1.0
 70
     8
 71
     3
 72
     9
 73
     5
 74
     3
 42
0.0000000001
 43
0.0000000001
 44
0.000001
 12
-0.9858834947905197
 22
0.1674327766586675
 32
0.0
 13
-0.0001110755545419
 23
0.9999999938311106
 33
0.0
 40
0.0
 40
0.0
 40
0.0
 40
0.0
 40
0.0292800099817701
 40
0.0541789719117885
 40
0.0541789719117885
 40
0.0541789719117885
 40
0.0541789719117885
 10
39.48670201142352
 20
33.84786323449436
 30
0.0
 10
39.47707978523407
 20
33.84949737895164
 30
0.0
 10
39.4595875738136
 20
33.85717280003468
 30
0.0
 10
39.44974004268715
 20
33.87493955713154
 30
0.0
 10
39.44973912079849
 20
33.883239211057
 30
0.0
 11
39.48670201142352
 21
33.84786323449436
 31
0.0
 11
39.46040644720148
 21
33.86073997980787
 31
0.0
 11
39.44973912079849
 21
33.883239211057
 31
0.0
  0
SPLINE
  5
243
330
2
100
AcDbEntity
  8
GAIKEI
  6
Continuous
 62
     1
100
AcDbSpline
210
0.0
220
0.0
230
1.0
 70
     8
 71
     3
 72
     9
 73
     5
 74
     3
 42
0.0000000001
 43
0.0000000001
 44
0.000001
 12
-0.7746485067680453
 22
-0.6323920389774351
 32
0.0
 13
-0.3835366401872139
 23
-0.9235256605172939
 33
0.0
 40
0.0
 40
0.0
 40
0.0
 40
0.0
 40
0.0255693258365985
 40
0.0552497692890841
 40
0.0552497692890841
 40
0.0552497692890841
 40
0.0552497692890841
 10
39.48670201142352
 20
33.84786323449436
 30
0.0
 10
39.48009959806406
 20
33.84247328846067
 30
0.0
 10
39.46524270228268
 20
33.83164956927635
 30
0.0
 10
39.45353363331883
 20
33.81654601664661
 30
0.0
 10
39.44973912079849
 20
33.80740913293198
 30
0.0
 11
39.48670201142352
 21
33.84786323449436
 31
0.0
 11
39.46702244445402
 21
33.83153930571115
 31
0.0
 11
39.44973912079849
 21
33.80740913293198
 31
0.0
  0
ARC
  5
244
330
2
100
AcDbEntity
  8
GAIKEI
  6
Continuous
 62
     7
100
AcDbCircle
 10
39.51640578746515
 20
33.92601263268836
 30
0.0
 40
0.0666666666666667
100
AcDbArc
 50
180.0
 51
261.385801999983
  0
LINE
  5
245
330
2
100
AcDbEntity
  8
GAIKEI
  6
Continuous
 62
     1
100
AcDbLine
 10
39.98384728746515
 20
33.72197526602167
 30
0.0
 11
39.45517048746518
 21
33.80206399935497
 31
0.0
  0
LINE
  5
246
330
2
100
AcDbEntity
  8
GAIKEI
  6
Continuous
 62
     7
100
AcDbLine
 10
39.98305875413183
 20
33.78789229935501
 30
0.0
 11
39.50641688746515
 21
33.86009833268838
 31
0.0
  0
LINE
  5
247
330
2
100
AcDbEntity
  8
GAIKEI
  6
Continuous
 62
     1
100
AcDbLine
 10
39.45517532079845
 20
33.80207059935509
 30
0.0
 11
39.45517532079845
 21
4.568631466021713
 31
0.0
  0
LINE
  5
248
330
2
100
AcDbEntity
  8
GAIKEI
  6
Continuous
 62
     7
100
AcDbLine
 10
39.44973912079849
 20
34.57070939935505
 30
0.0
 11
39.44973912079849
 21
34.47084646602178
 31
0.0
  0
LINE
  5
249
330
2
100
AcDbEntity
  8
GAIKEI
  6
Continuous
 62
     7
100
AcDbLine
 10
39.44973912079849
 20
34.47084646602178
 30
0.0
 11
39.44973912079849
 21
3.897330532688386
 31
0.0
  0
LINE
  5
24A
330
2
100
AcDbEntity
  8
GAIKEI
  6
Continuous
 62
     1
100
AcDbLine
 10
39.44973912079849
 20
34.5313186326884
 30
0.0
 11
39.44973912079849
 21
3.839383432688407
 31
0.0
  0
ARC
  5
24B
330
2
100
AcDbEntity
  8
GAIKEI
  6
Continuous
 62
     7
100
AcDbCircle
 10
39.41640578746518
 20
34.57070939935505
 30
0.0
 40
0.0333333333333333
100
AcDbArc
 50
0.0
 51
93.00000000000235
  0
LINE
  5
24C
330
2
100
AcDbEntity
  8
GAIKEI
  6
Continuous
 62
     1
100
AcDbLine
 10
39.41466125413183
 20
34.47084646602178
 30
0.0
 11
39.44973912079849
 21
34.47084646602178
 31
0.0
  0
LINE
  5
24D
330
2
100
AcDbEntity
  8
GAIKEI
  6
Continuous
 62
     1
100
AcDbLine
 10
39.41466125413183
 20
3.897330532688386
 30
0.0
 11
39.41466125413183
 21
34.60399706602175
 31
0.0
  0
ARC
  5
24E
330
2
100
AcDbEntity
  8
GAIKEI
  6
Continuous
 62
     7
100
AcDbCircle
 10
38.1952928207985
 20
34.49002403268838
 30
0.0
 40
0.05
100
AcDbArc
 50
93.00000000000235
 51
148.4999999999715
  0
LINE
  5
24F
330
2
100
AcDbEntity
  8
GAIKEI
  6
PHANTOM
 62
     1
100
AcDbLine
 10
38.16640578746518
 20
3.829598199355018
 30
0.0
 11
38.16640578746513
 21
34.5308350520973
 31
0.0
  0
ARC
  5
250
330
2
100
AcDbEntity
  8
GAIKEI
  6
Continuous
 62
     7
100
AcDbCircle
 10
38.06640578746516
 20
34.31159756602176
 30
0.0
 40
0.0333333333333333
100
AcDbArc
 50
148.4999980000102
 51
180.0
  0
LINE
  5
251
330
2
100
AcDbEntity
  8
GAIKEI
  6
Continuous
 62
     7
100
AcDbLine
 10
38.03798445413185
 20
34.32901419935507
 30
0.0
 11
38.15266078746521
 21
34.51614896602178
 31
0.0
  0
LINE
  5
252
330
2
100
AcDbEntity
  8
GAIKEI
  6
Continuous
 62
     7
100
AcDbLine
 10
38.03307245413185
 20
4.05657939935503
 30
0.0
 11
38.03307245413185
 21
34.31159756602176
 31
0.0
  0
LINE
  5
253
330
2
100
AcDbEntity
  8
GAIKEI
  6
Continuous
 62
     7
100
AcDbLine
 10
38.1926760207985
 20
34.53995553268834
 30
0.0
 11
39.41466125413183
 21
34.60399706602175
 31
0.0
  0
TEXT
  5
254
330
2
100
AcDbEntity
  8
TOUROKU
100
AcDbText
 10
44.19186667000701
 20
4.133586182992729
 30
0.0
 40
1.5
  1
Ｓ＝１／３０
 41
0.7
 72
     2
 11
51.26186667000701
 21
4.133586182992729
 31
0.0
100
AcDbText
  0
TEXT
  5
256
330
2
100
AcDbEntity
  8
TOUROKU
100
AcDbText
 10
14.43401702367974
 20
54.37791076473317
 30
0.0
 40
2.0
  1
ＴＨ６５ＰＦ１１ＫＲ＋ＴＹＳＰ６５Ｐ１１Ｋ
 72
     2
 11
64.03401702367972
 21
54.37791076473317
 31
0.0
100
AcDbText
  0
TEXT
  5
257
330
2
100
AcDbEntity
  8
MOJI1
100
AcDbText
 10
-33.96593300924781
 20
60.3779107647334
 30
0.0
 40
4.0
  1
ハイビジョンプラズマディスプレイスピーカ付
 41
0.95
100
AcDbText
  0
ENDSEC
  0
SECTION
  2
OBJECTS
  0
DICTIONARY
  5
7
330
0
100
AcDbDictionary
281
     1
  3
ACAD_COLOR
350
2C
  3
ACAD_GROUP
350
28
  3
ACAD_LAYOUT
350
B
  3
ACAD_MATERIAL
350
2B
  3
ACAD_MLINESTYLE
350
29
  3
ACAD_PLOTSETTINGS
350
2A
  3
ACAD_PLOTSTYLENAME
350
6
  3
ACDBHEADERROUNDTRIPXREC
350
2A2
  3
AcDbVariableDictionary
350
29D
  0
DICTIONARY
  5
11
330
10
100
AcDbDictionary
280
     1
281
     1
  3
ACAD_LAYERSTATES
360
12
  0
DICTIONARY
  5
2C
102
{ACAD_REACTORS
330
7
102
}
330
7
100
AcDbDictionary
281
     1
  0
DICTIONARY
  5
28
102
{ACAD_REACTORS
330
7
102
}
330
7
100
AcDbDictionary
281
     1
  0
DICTIONARY
  5
B
102
{ACAD_REACTORS
330
7
102
}
330
7
100
AcDbDictionary
281
     1
  3
Model
350
A
  3
レイアウト1
350
F
  0
DICTIONARY
  5
2B
102
{ACAD_REACTORS
330
7
102
}
330
7
100
AcDbDictionary
281
     1
  0
DICTIONARY
  5
29
102
{ACAD_REACTORS
330
7
102
}
330
7
100
AcDbDictionary
281
     1
  3
Standard
350
2E
  0
DICTIONARY
  5
2A
102
{ACAD_REACTORS
330
7
102
}
330
7
100
AcDbDictionary
281
     1
  0
ACDBDICTIONARYWDFLT
  5
6
102
{ACAD_REACTORS
330
7
102
}
330
7
100
AcDbDictionary
281
     1
  3
Normal
350
5
100
AcDbDictionaryWithDefault
340
5
  0
DICTIONARY
  5
2A2
102
{ACAD_REACTORS
330
7
102
}
330
7
100
AcDbDictionary
281
     1
  3
COLORDICT
350
2A4
  3
MATERIALDICT
350
2A3
  0
DICTIONARY
  5
29D
102
{ACAD_REACTORS
330
7
102
}
330
7
100
AcDbDictionary
281
     1
  3
DIMASSOC
350
29F
  3
HIDETEXT
350
29E
  3
PROJECTNAME
350
2A0
  0
DICTIONARY
  5
12
102
{ACAD_REACTORS
330
11
102
}
330
11
100
AcDbDictionary
281
     1
  0
LAYOUT
  5
A
102
{ACAD_XDICTIONARY
360
2A5
102
}
102
{ACAD_REACTORS
330
B
102
}
330
B
100
AcDbPlotSettings
  1

  2
Ａ４－縦3FRIM01.pc3
  4
A4
  6

 40
5.873749732971191
 41
5.873747825622558
 42
5.873748779296875
 43
5.873748779296875
 44
209.9733276367187
 45
296.9259948730469
 46
5.419999999999999
 47
0.0
 48
6.882095232559095
 49
141.0756786076379
140
239.450961859417
141
347.3703312460464
142
1.0
143
1.382383311756232
 70
 11956
 72
     1
 73
     0
 74
     1
  7
tmsacad.ctb
 75
     0
147
0.7233883623273503
148
0.0209135377656367
149
0.0053698729652751
100
AcDbLayout
  1
Model
 70
     1
 71
     0
 10
0.0
 20
0.0
 11
12.0
 21
9.0
 12
0.0
 22
0.0
 32
0.0
 14
0.0
 24
0.0
 34
0.0
 15
0.0
 25
0.0
 35
0.0
146
0.0
 13
0.0
 23
0.0
 33
0.0
 16
1.0
 26
0.0
 36
0.0
 17
0.0
 27
1.0
 37
0.0
 76
     0
330
2
  0
LAYOUT
  5
F
102
{ACAD_XDICTIONARY
360
2A7
102
}
102
{ACAD_REACTORS
330
B
102
}
330
B
100
AcDbPlotSettings
  1

  2
None
  4

  6

 40
0.0
 41
0.0
 42
0.0
 43
0.0
 44
0.0
 45
0.0
 46
0.0
 47
0.0
 48
0.0
 49
0.0
140
0.0
141
0.0
142
1.0
143
1.0
 70
   688
 72
     0
 73
     0
 74
     5
  7
tmsacad.ctb
 75
    16
147
1.0
148
0.0
149
0.0
100
AcDbLayout
  1
レイアウト1
 70
     1
 71
     1
 10
0.0
 20
0.0
 11
12.0
 21
9.0
 12
0.0
 22
0.0
 32
0.0
 14
0.0
 24
0.0
 34
0.0
 15
0.0
 25
0.0
 35
0.0
146
0.0
 13
0.0
 23
0.0
 33
0.0
 16
1.0
 26
0.0
 36
0.0
 17
0.0
 27
1.0
 37
0.0
 76
     0
330
C
  0
MLINESTYLE
  5
2E
102
{ACAD_REACTORS
330
29
102
}
330
29
100
AcDbMlineStyle
  2
STANDARD
 70
     0
  3

 62
   256
 51
90.0
 52
90.0
 71
     2
 49
0.5
 62
   256
  6
BYLAYER
 49
-0.5
 62
   256
  6
BYLAYER
  0
ACDBPLACEHOLDER
  5
5
102
{ACAD_REACTORS
330
6
102
}
330
6
  0
XRECORD
  5
2A4
102
{ACAD_REACTORS
330
2A2
102
}
330
2A2
100
AcDbXrecord
280
     1
340
2C
  0
XRECORD
  5
2A3
102
{ACAD_REACTORS
330
2A2
102
}
330
2A2
100
AcDbXrecord
280
     1
340
2B
  0
DICTIONARYVAR
  5
29F
102
{ACAD_REACTORS
330
29D
102
}
330
29D
100
DictionaryVariables
280
     0
  1
1
  0
DICTIONARYVAR
  5
29E
102
{ACAD_REACTORS
330
29D
102
}
330
29D
100
DictionaryVariables
280
     0
  1
1
  0
DICTIONARYVAR
  5
2A0
102
{ACAD_REACTORS
330
29D
102
}
330
29D
100
DictionaryVariables
280
     0
  1

  0
DICTIONARY
  5
2A5
330
A
100
AcDbDictionary
280
     1
281
     1
  3
ACAD_XREC_ROUNDTRIP
360
2A6
  0
DICTIONARY
  5
2A7
330
F
100
AcDbDictionary
280
     1
281
     1
  3
ACAD_XREC_ROUNDTRIP
360
2A8
  0
XRECORD
  5
2A6
102
{ACAD_REACTORS
330
2A5
102
}
330
2A5
100
AcDbXrecord
280
     1
102
SHADEPLOT
 70
     0
102
SHADEPLOTRESLEVEL
 70
     2
102
SHADEPLOTCUSTOMDPI
 70
   300
  0
XRECORD
  5
2A8
102
{ACAD_REACTORS
330
2A7
102
}
330
2A7
100
AcDbXrecord
280
     1
102
SHADEPLOT
 70
     0
102
SHADEPLOTRESLEVEL
 70
     2
102
SHADEPLOTCUSTOMDPI
 70
   300
  0
ENDSEC
  0
EOF
