  0
SECTION
  2
HEADER
  9
$ACADVER
  1
AC1015
  9
$ACADMAINTVER
 70
    20
  9
$DWGCODEPAGE
  3
ANSI_932
  9
$INSBASE
 10
0.0
 20
372.4992141396417
 30
0.0
  9
$EXTMIN
 10
-60.48919990056948
 20
-53.68605510336237
 30
-0.0015258207003583
  9
$EXTMAX
 10
64.59130906939527
 20
59.44502681226277
 30
0.0000000349246037
  9
$LIMMIN
 10
-1101.784450318844
 20
-1579.160531687244
  9
$LIMMAX
 10
-508.2420711400536
 20
-1161.440814074914
  9
$ORTHOMODE
 70
     1
  9
$REGENMODE
 70
     1
  9
$FILLMODE
 70
     1
  9
$QTEXTMODE
 70
     0
  9
$MIRRTEXT
 70
     1
  9
$LTSCALE
 40
1.0
  9
$ATTMODE
 70
     1
  9
$TEXTSIZE
 40
3.0
  9
$TRACEWID
 40
0.5
  9
$TEXTSTYLE
  7
STANDARD
  9
$CLAYER
  8
GAIKEI
  9
$CELTYPE
  6
BYLAYER
  9
$CECOLOR
 62
   256
  9
$CELTSCALE
 40
1.0
  9
$DISPSILH
 70
     0
  9
$DIMSCALE
 40
1.0
  9
$DIMASZ
 40
2.0
  9
$DIMEXO
 40
2.0
  9
$DIMDLI
 40
8.0
  9
$DIMRND
 40
0.0
  9
$DIMDLE
 40
0.0
  9
$DIMEXE
 40
2.0
  9
$DIMTP
 40
0.0
  9
$DIMTM
 40
0.0
  9
$DIMTXT
 40
2.5
  9
$DIMCEN
 40
0.0
  9
$DIMTSZ
 40
0.0
  9
$DIMTOL
 70
     0
  9
$DIMLIM
 70
     0
  9
$DIMTIH
 70
     0
  9
$DIMTOH
 70
     0
  9
$DIMSE1
 70
     0
  9
$DIMSE2
 70
     0
  9
$DIMTAD
 70
     3
  9
$DIMZIN
 70
     0
  9
$DIMBLK
  1

  9
$DIMASO
 70
     1
  9
$DIMSHO
 70
     1
  9
$DIMPOST
  1

  9
$DIMAPOST
  1

  9
$DIMALT
 70
     0
  9
$DIMALTD
 70
     2
  9
$DIMALTF
 40
25.4
  9
$DIMLFAC
 40
1.0
  9
$DIMTOFL
 70
     1
  9
$DIMTVP
 40
0.0
  9
$DIMTIX
 70
     0
  9
$DIMSOXD
 70
     0
  9
$DIMSAH
 70
     1
  9
$DIMBLK1
  1
OPEN30
  9
$DIMBLK2
  1
OPEN30
  9
$DIMSTYLE
  2
STANDARD
  9
$DIMCLRD
 70
     0
  9
$DIMCLRE
 70
     0
  9
$DIMCLRT
 70
     0
  9
$DIMTFAC
 40
1.0
  9
$DIMGAP
 40
0.5
  9
$DIMJUST
 70
     0
  9
$DIMSD1
 70
     0
  9
$DIMSD2
 70
     0
  9
$DIMTOLJ
 70
     1
  9
$DIMTZIN
 70
     0
  9
$DIMALTZ
 70
     0
  9
$DIMALTTZ
 70
     0
  9
$DIMUPT
 70
     0
  9
$DIMDEC
 70
     4
  9
$DIMTDEC
 70
     4
  9
$DIMALTU
 70
     2
  9
$DIMALTTD
 70
     2
  9
$DIMTXSTY
  7
STANDARD
  9
$DIMAUNIT
 70
     0
  9
$DIMADEC
 70
     0
  9
$DIMALTRND
 40
0.0
  9
$DIMAZIN
 70
     0
  9
$DIMDSEP
 70
    46
  9
$DIMATFIT
 70
     3
  9
$DIMFRAC
 70
     0
  9
$DIMLDRBLK
  1
OPEN30
  9
$DIMLUNIT
 70
     2
  9
$DIMLWD
 70
    -2
  9
$DIMLWE
 70
    -2
  9
$DIMTMOVE
 70
     0
  9
$LUNITS
 70
     2
  9
$LUPREC
 70
     4
  9
$SKETCHINC
 40
0.1
  9
$FILLETRAD
 40
0.0
  9
$AUNITS
 70
     0
  9
$AUPREC
 70
     0
  9
$MENU
  1
ACAD
  9
$ELEVATION
 40
0.0
  9
$PELEVATION
 40
0.0
  9
$THICKNESS
 40
0.0
  9
$LIMCHECK
 70
     0
  9
$CHAMFERA
 40
0.0
  9
$CHAMFERB
 40
0.0
  9
$CHAMFERC
 40
0.0
  9
$CHAMFERD
 40
0.0
  9
$SKPOLY
 70
     0
  9
$TDCREATE
 40
2451815.565532581
  9
$TDUCREATE
 40
2451815.190532581
  9
$TDUPDATE
 40
2456233.444171933
  9
$TDUUPDATE
 40
2456233.069171933
  9
$TDINDWG
 40
0.9619403009
  9
$TDUSRTIMER
 40
0.9619403009
  9
$USRTIMER
 70
     1
  9
$ANGBASE
 50
0.0
  9
$ANGDIR
 70
     0
  9
$PDMODE
 70
     0
  9
$PDSIZE
 40
0.0
  9
$PLINEWID
 40
0.0
  9
$SPLFRAME
 70
     0
  9
$SPLINETYPE
 70
     6
  9
$SPLINESEGS
 70
     8
  9
$HANDSEED
  5
30A
  9
$SURFTAB1
 70
     6
  9
$SURFTAB2
 70
     6
  9
$SURFTYPE
 70
     6
  9
$SURFU
 70
     6
  9
$SURFV
 70
     6
  9
$UCSBASE
  2

  9
$UCSNAME
  2

  9
$UCSORG
 10
0.0
 20
0.0
 30
0.0
  9
$UCSXDIR
 10
1.0
 20
0.0
 30
0.0
  9
$UCSYDIR
 10
0.0
 20
1.0
 30
0.0
  9
$UCSORTHOREF
  2

  9
$UCSORTHOVIEW
 70
     0
  9
$UCSORGTOP
 10
0.0
 20
0.0
 30
0.0
  9
$UCSORGBOTTOM
 10
0.0
 20
0.0
 30
0.0
  9
$UCSORGLEFT
 10
0.0
 20
0.0
 30
0.0
  9
$UCSORGRIGHT
 10
0.0
 20
0.0
 30
0.0
  9
$UCSORGFRONT
 10
0.0
 20
0.0
 30
0.0
  9
$UCSORGBACK
 10
0.0
 20
0.0
 30
0.0
  9
$PUCSBASE
  2

  9
$PUCSNAME
  2

  9
$PUCSORG
 10
0.0
 20
0.0
 30
0.0
  9
$PUCSXDIR
 10
1.0
 20
0.0
 30
0.0
  9
$PUCSYDIR
 10
0.0
 20
1.0
 30
0.0
  9
$PUCSORTHOREF
  2

  9
$PUCSORTHOVIEW
 70
     0
  9
$PUCSORGTOP
 10
0.0
 20
0.0
 30
0.0
  9
$PUCSORGBOTTOM
 10
0.0
 20
0.0
 30
0.0
  9
$PUCSORGLEFT
 10
0.0
 20
0.0
 30
0.0
  9
$PUCSORGRIGHT
 10
0.0
 20
0.0
 30
0.0
  9
$PUCSORGFRONT
 10
0.0
 20
0.0
 30
0.0
  9
$PUCSORGBACK
 10
0.0
 20
0.0
 30
0.0
  9
$USERI1
 70
     0
  9
$USERI2
 70
     0
  9
$USERI3
 70
     0
  9
$USERI4
 70
     0
  9
$USERI5
 70
     0
  9
$USERR1
 40
0.0
  9
$USERR2
 40
0.0
  9
$USERR3
 40
0.0
  9
$USERR4
 40
0.0
  9
$USERR5
 40
0.0
  9
$WORLDVIEW
 70
     1
  9
$SHADEDGE
 70
     3
  9
$SHADEDIF
 70
    70
  9
$TILEMODE
 70
     1
  9
$MAXACTVP
 70
    48
  9
$PINSBASE
 10
0.0
 20
0.0
 30
0.0
  9
$PLIMCHECK
 70
     0
  9
$PEXTMIN
 10
1.000000000000000E+20
 20
1.000000000000000E+20
 30
1.000000000000000E+20
  9
$PEXTMAX
 10
-1.000000000000000E+20
 20
-1.000000000000000E+20
 30
-1.000000000000000E+20
  9
$PLIMMIN
 10
0.0
 20
0.0
  9
$PLIMMAX
 10
12.0
 20
9.0
  9
$UNITMODE
 70
     0
  9
$VISRETAIN
 70
     1
  9
$PLINEGEN
 70
     0
  9
$PSLTSCALE
 70
     1
  9
$TREEDEPTH
 70
  3020
  9
$CMLSTYLE
  2
STANDARD
  9
$CMLJUST
 70
     0
  9
$CMLSCALE
 40
1.0
  9
$PROXYGRAPHICS
 70
     1
  9
$MEASUREMENT
 70
     0
  9
$CELWEIGHT
370
    -1
  9
$ENDCAPS
280
     0
  9
$JOINSTYLE
280
     0
  9
$LWDISPLAY
290
     0
  9
$INSUNITS
 70
     0
  9
$HYPERLINKBASE
  1

  9
$STYLESHEET
  1

  9
$XEDIT
290
     1
  9
$CEPSNTYPE
380
     0
  9
$PSTYLEMODE
290
     1
  9
$FINGERPRINTGUID
  2
{1754B7AB-9B3C-11D4-AD9E-00104B1004F2}
  9
$VERSIONGUID
  2
{1B6523BE-552F-46C2-9BF9-F0ACEFF4DF79}
  9
$EXTNAMES
290
     1
  9
$PSVPSCALE
 40
0.0
  9
$OLESTARTUP
290
     0
  0
ENDSEC
  0
SECTION
  2
CLASSES
  0
CLASS
  1
ACDBDICTIONARYWDFLT
  2
AcDbDictionaryWithDefault
  3
ObjectDBX Classes
 90
        0
280
     0
281
     0
  0
CLASS
  1
ACDBPLACEHOLDER
  2
AcDbPlaceHolder
  3
ObjectDBX Classes
 90
        0
280
     0
281
     0
  0
CLASS
  1
LAYOUT
  2
AcDbLayout
  3
ObjectDBX Classes
 90
        0
280
     0
281
     0
  0
CLASS
  1
DICTIONARYVAR
  2
AcDbDictionaryVar
  3
ObjectDBX Classes
 90
        0
280
     0
281
     0
  0
CLASS
  1
TABLESTYLE
  2
AcDbTableStyle
  3
ObjectDBX Classes
 90
    34815
280
     1
281
     0
  0
CLASS
  1
SORTENTSTABLE
  2
AcDbSortentsTable
  3
ObjectDBX Classes
 90
    32768
280
     0
281
     0
  0
ENDSEC
  0
SECTION
  2
TABLES
  0
TABLE
  2
VPORT
  5
21
330
0
100
AcDbSymbolTable
 70
     4
  0
VPORT
  5
302
330
21
100
AcDbSymbolTableRecord
100
AcDbViewportTableRecord
  2
*Active
 70
     0
 10
0.0
 20
0.0
 11
1.0
 21
1.0
 12
2.051054584412902
 22
2.879485854450194
 13
0.0
 23
0.0
 14
1.0
 24
1.0
 15
0.0
 25
0.0
 16
0.0
 26
0.0
 36
1.0
 17
0.0
 27
0.0
 37
0.0
 40
113.9870547926664
 41
2.21590909090909
 42
50.0
 43
0.0
 44
0.0
 50
0.0
 51
0.0
 71
     0
 72
  1000
 73
     1
 74
     0
 75
     0
 76
     1
 77
     0
 78
     0
281
     0
 65
     1
110
0.0
120
0.0
130
0.0
111
1.0
121
0.0
131
0.0
112
0.0
122
1.0
132
0.0
 79
     0
146
0.0
  0
ENDTAB
  0
TABLE
  2
LTYPE
  5
1C
330
0
100
AcDbSymbolTable
 70
     2
  0
LTYPE
  5
1D
330
1C
100
AcDbSymbolTableRecord
100
AcDbLinetypeTableRecord
  2
BYBLOCK
 70
     0
  3

 72
    65
 73
     0
 40
0.0
  0
LTYPE
  5
1E
330
1C
100
AcDbSymbolTableRecord
100
AcDbLinetypeTableRecord
  2
BYLAYER
 70
     0
  3

 72
    65
 73
     0
 40
0.0
  0
LTYPE
  5
A
330
1C
100
AcDbSymbolTableRecord
100
AcDbLinetypeTableRecord
  2
CONTINUOUS
 70
     0
  3
Solid line
 72
    65
 73
     0
 40
0.0
  0
LTYPE
  5
63
330
1C
100
AcDbSymbolTableRecord
100
AcDbLinetypeTableRecord
  2
PHANTOM
 70
     0
  3
Phantom ______  __  __  ______  __  __  ______
 72
    65
 73
     6
 40
63.5
 49
31.75
 74
     0
 49
-6.349999999999997
 74
     0
 49
6.349999999999997
 74
     0
 49
-6.349999999999997
 74
     0
 49
6.349999999999997
 74
     0
 49
-6.349999999999997
 74
     0
  0
ENDTAB
  0
TABLE
  2
LAYER
  5
14
102
{ACAD_XDICTIONARY
360
15
102
}
330
0
100
AcDbSymbolTable
 70
     7
  0
LAYER
  5
6
330
14
100
AcDbSymbolTableRecord
100
AcDbLayerTableRecord
  2
0
 70
     0
 62
     7
  6
CONTINUOUS
370
    -3
390
7
  0
LAYER
  5
43
330
14
100
AcDbSymbolTableRecord
100
AcDbLayerTableRecord
  2
DEFPOINTS
 70
     0
 62
     7
  6
CONTINUOUS
290
     0
370
    -3
390
7
  0
LAYER
  5
29E
330
14
100
AcDbSymbolTableRecord
100
AcDbLayerTableRecord
  2
WAKU
 70
     0
 62
     4
  6
CONTINUOUS
370
    -3
390
7
  0
LAYER
  5
299
330
14
100
AcDbSymbolTableRecord
100
AcDbLayerTableRecord
  2
MOJI1
 70
     0
 62
     2
  6
CONTINUOUS
370
    -3
390
7
  0
LAYER
  5
34
330
14
100
AcDbSymbolTableRecord
100
AcDbLayerTableRecord
  2
GAIKEI
 70
     0
 62
     7
  6
CONTINUOUS
370
    -3
390
7
  0
LAYER
  5
297
330
14
100
AcDbSymbolTableRecord
100
AcDbLayerTableRecord
  2
TOUROKU
 70
     0
 62
     1
  6
CONTINUOUS
370
    -3
390
7
  0
LAYER
  5
37
330
14
100
AcDbSymbolTableRecord
100
AcDbLayerTableRecord
  2
SUNPO
 70
     0
 62
     3
  6
CONTINUOUS
370
    -3
390
7
  0
ENDTAB
  0
TABLE
  2
STYLE
  5
19
330
0
100
AcDbSymbolTable
 70
     1
  0
STYLE
  5
1A
330
19
100
AcDbSymbolTableRecord
100
AcDbTextStyleTableRecord
  2
STANDARD
 70
     0
 40
0.0
 41
1.0
 50
0.0
 71
     0
 42
3.0
  3
MONOTXT.shx
  4
BIGFONT.shx
  0
ENDTAB
  0
TABLE
  2
VIEW
  5
1F
330
0
100
AcDbSymbolTable
 70
     0
  0
ENDTAB
  0
TABLE
  2
UCS
  5
20
330
0
100
AcDbSymbolTable
 70
     0
  0
ENDTAB
  0
TABLE
  2
APPID
  5
23
330
0
100
AcDbSymbolTable
 70
     1
  0
APPID
  5
24
330
23
100
AcDbSymbolTableRecord
100
AcDbRegAppTableRecord
  2
ACAD
 70
     0
  0
ENDTAB
  0
TABLE
  2
DIMSTYLE
  5
25
330
0
100
AcDbSymbolTable
 70
     1
100
AcDbDimStyleTable
 71
     1
340
26
  0
DIMSTYLE
105
26
102
{ACAD_REACTORS
330
54
330
47
330
36
102
}
330
25
100
AcDbSymbolTableRecord
100
AcDbDimStyleTableRecord
  2
STANDARD
 70
     0
 40
0.0
 41
2.0
 42
2.0
 43
8.0
 44
2.0
 73
     0
 74
     0
 77
     3
140
3.0
141
0.0
173
     1
279
     2
288
     1
340
1A
341
27
343
27
344
27
  0
ENDTAB
  0
TABLE
  2
BLOCK_RECORD
  5
1
330
0
100
AcDbSymbolTable
 70
     7
  0
BLOCK_RECORD
  5
2
102
{ACAD_XDICTIONARY
360
3
102
}
330
1
100
AcDbSymbolTableRecord
100
AcDbBlockTableRecord
  2
*MODEL_SPACE
340
C
  0
BLOCK_RECORD
  5
E
102
{ACAD_XDICTIONARY
360
F
102
}
330
1
100
AcDbSymbolTableRecord
100
AcDbBlockTableRecord
  2
*PAPER_SPACE
340
13
  0
BLOCK_RECORD
  5
27
102
{ACAD_XDICTIONARY
360
28
102
}
330
1
100
AcDbSymbolTableRecord
100
AcDbBlockTableRecord
  2
_OPEN30
340
0
102
{BLKREFS
331
3F
331
40
331
4D
331
4E
331
5A
331
5B
331
2DC
331
2DD
331
2E8
331
2E9
331
2F6
331
2F7
102
}
  0
BLOCK_RECORD
  5
55
330
1
100
AcDbSymbolTableRecord
100
AcDbBlockTableRecord
  2
*D1
340
0
  0
BLOCK_RECORD
  5
48
330
1
100
AcDbSymbolTableRecord
100
AcDbBlockTableRecord
  2
*D2
340
0
  0
BLOCK_RECORD
  5
38
330
1
100
AcDbSymbolTableRecord
100
AcDbBlockTableRecord
  2
*D3
340
0
  0
BLOCK_RECORD
  5
2D8
330
1
100
AcDbSymbolTableRecord
100
AcDbBlockTableRecord
  2
*D4
340
0
  0
BLOCK_RECORD
  5
2E4
330
1
100
AcDbSymbolTableRecord
100
AcDbBlockTableRecord
  2
*D5
340
0
  0
BLOCK_RECORD
  5
2F0
330
1
100
AcDbSymbolTableRecord
100
AcDbBlockTableRecord
  2
*D6
340
0
  0
ENDTAB
  0
ENDSEC
  0
SECTION
  2
BLOCKS
  0
BLOCK
  5
5
330
2
100
AcDbEntity
  8
0
100
AcDbBlockBegin
  2
*MODEL_SPACE
 70
     0
 10
0.0
 20
0.0
 30
0.0
  3
*MODEL_SPACE
  1

  0
ENDBLK
  5
B
330
2
100
AcDbEntity
  8
0
100
AcDbBlockEnd
  0
BLOCK
  5
11
330
E
100
AcDbEntity
 67
     1
  8
0
100
AcDbBlockBegin
  2
*PAPER_SPACE
 70
     0
 10
0.0
 20
0.0
 30
0.0
  3
*PAPER_SPACE
  1

  0
ENDBLK
  5
12
330
E
100
AcDbEntity
 67
     1
  8
0
100
AcDbBlockEnd
  0
BLOCK
  5
29
330
27
100
AcDbEntity
  8
0
100
AcDbBlockBegin
  2
_OPEN30
 70
     0
 10
0.0
 20
0.0
 30
0.0
  3
_OPEN30
  1

  0
LINE
  5
2A
330
27
100
AcDbEntity
  8
0
  6
ByBlock
 62
     0
100
AcDbLine
 10
-1.0
 20
0.26794919
 30
0.0
 11
0.0
 21
0.0
 31
0.0
  0
LINE
  5
2B
330
27
100
AcDbEntity
  8
0
  6
ByBlock
 62
     0
100
AcDbLine
 10
0.0
 20
0.0
 30
0.0
 11
-1.0
 21
-0.26794919
 31
0.0
  0
LINE
  5
2C
330
27
100
AcDbEntity
  8
0
  6
ByBlock
 62
     0
100
AcDbLine
 10
0.0
 20
0.0
 30
0.0
 11
-1.0
 21
0.0
 31
0.0
  0
ENDBLK
  5
2D
330
27
100
AcDbEntity
  8
0
100
AcDbBlockEnd
  0
BLOCK
  5
56
330
55
100
AcDbEntity
  8
0
100
AcDbBlockBegin
  2
*D1
 70
     1
 10
0.0
 20
0.0
 30
0.0
  3
*D1
  1

  0
LINE
  5
57
330
55
100
AcDbEntity
  8
SUNPO
 62
     0
370
    -2
100
AcDbLine
 10
19.74054468602989
 20
345.509050762789
 30
0.0
 11
19.74054468602989
 21
353.5063919980522
 31
0.0
  0
LINE
  5
58
330
55
100
AcDbEntity
  8
SUNPO
 62
     0
370
    -2
100
AcDbLine
 10
71.54053418543118
 20
345.509050762789
 30
0.0
 11
71.54053418543118
 21
353.5063919980522
 31
0.0
  0
LINE
  5
59
330
55
100
AcDbEntity
  8
SUNPO
 62
     0
370
    -2
100
AcDbLine
 10
21.74054468602989
 20
351.5063919980522
 30
0.0
 11
69.54053418543118
 21
351.5063919980522
 31
0.0
  0
INSERT
  5
5A
330
55
100
AcDbEntity
  8
SUNPO
 62
     0
370
    -2
100
AcDbBlockReference
  2
_OPEN30
 10
19.74054468602989
 20
351.5063919980522
 30
0.0
 41
2.0
 42
2.0
 43
2.0
 50
180.0
  0
INSERT
  5
5B
330
55
100
AcDbEntity
  8
SUNPO
 62
     0
370
    -2
100
AcDbBlockReference
  2
_OPEN30
 10
71.54053418543118
 20
351.5063919980522
 30
0.0
 41
2.0
 42
2.0
 43
2.0
  0
MTEXT
  5
5C
330
55
100
AcDbEntity
  8
SUNPO
 62
     0
100
AcDbMText
 10
45.64053943573053
 20
353.2563919980522
 30
0.0
 40
2.5
 41
0.0
 71
     5
 72
     1
  1
\A1;1554
 73
     1
 44
1.0
1001
ACAD
1000
MTEXTBEGIN
1070
    73
1070
     1
1070
    44
1040
1.0
1070
    74
1070
     0
1000
MTEXTEND
  0
POINT
  5
5D
330
55
100
AcDbEntity
  8
DEFPOINTS
 62
     0
100
AcDbPoint
 10
19.74054468602989
 20
343.509050762789
 30
0.0
  0
POINT
  5
5E
330
55
100
AcDbEntity
  8
DEFPOINTS
 62
     0
100
AcDbPoint
 10
71.54053418543118
 20
343.509050762789
 30
0.0
  0
POINT
  5
5F
330
55
100
AcDbEntity
  8
DEFPOINTS
 62
     0
100
AcDbPoint
 10
71.54053418543118
 20
351.5063919980522
 30
0.0
  0
ENDBLK
  5
60
330
55
100
AcDbEntity
  8
0
100
AcDbBlockEnd
  0
BLOCK
  5
49
330
48
100
AcDbEntity
  8
0
100
AcDbBlockBegin
  2
*D2
 70
     1
 10
0.0
 20
0.0
 30
0.0
  3
*D2
  1

  0
LINE
  5
4A
330
48
100
AcDbEntity
  8
SUNPO
 62
     0
370
    -2
100
AcDbLine
 10
73.24717465894607
 20
312.6810454834813
 30
0.0
 11
81.55883196215325
 21
312.6810454834813
 31
0.0
  0
LINE
  5
4B
330
48
100
AcDbEntity
  8
SUNPO
 62
     0
370
    -2
100
AcDbLine
 10
73.24717465894607
 20
343.5143682922625
 30
0.0
 11
81.55883196215325
 21
343.5143682922625
 31
0.0
  0
LINE
  5
4C
330
48
100
AcDbEntity
  8
SUNPO
 62
     0
370
    -2
100
AcDbLine
 10
79.55883196215326
 20
314.6810454834813
 30
0.0
 11
79.55883196215326
 21
341.5143682922626
 31
0.0
  0
INSERT
  5
4D
330
48
100
AcDbEntity
  8
SUNPO
 62
     0
370
    -2
100
AcDbBlockReference
  2
_OPEN30
 10
79.55883196215326
 20
312.6810454834813
 30
0.0
 41
2.0
 42
2.0
 43
2.0
 50
270.0
  0
INSERT
  5
4E
330
48
100
AcDbEntity
  8
SUNPO
 62
     0
370
    -2
100
AcDbBlockReference
  2
_OPEN30
 10
79.55883196215326
 20
343.5143682922625
 30
0.0
 41
2.0
 42
2.0
 43
2.0
 50
90.0
  0
MTEXT
  5
4F
330
48
100
AcDbEntity
  8
SUNPO
 62
     0
100
AcDbMText
 10
77.8088319621532
 20
328.097706887872
 30
0.0
 40
2.5
 41
0.0
 71
     5
 72
     1
  1
\A1;925
 11
0.0000000000000001
 21
1.0
 31
0.0
 73
     1
 44
1.0
1001
ACAD
1000
MTEXTBEGIN
1070
    73
1070
     1
1070
    44
1040
1.0
1070
    74
1070
     0
1000
MTEXTEND
  0
POINT
  5
50
330
48
100
AcDbEntity
  8
DEFPOINTS
 62
     0
100
AcDbPoint
 10
71.24717465894606
 20
312.6810454834813
 30
0.0
  0
POINT
  5
51
330
48
100
AcDbEntity
  8
DEFPOINTS
 62
     0
100
AcDbPoint
 10
71.24717465894606
 20
343.5143682922625
 30
0.0
  0
POINT
  5
52
330
48
100
AcDbEntity
  8
DEFPOINTS
 62
     0
100
AcDbPoint
 10
79.55883196215326
 20
343.5143682922625
 30
0.0
  0
ENDBLK
  5
53
330
48
100
AcDbEntity
  8
0
100
AcDbBlockEnd
  0
BLOCK
  5
39
330
38
100
AcDbEntity
  8
0
100
AcDbBlockBegin
  2
*D3
 70
     1
 10
0.0
 20
0.0
 30
0.0
  3
*D3
  1

  0
LINE
  5
3A
330
38
100
AcDbEntity
  8
SUNPO
 62
     0
370
    -2
100
AcDbLine
 10
96.05741175599858
 20
345.509050762789
 30
0.0
 11
96.05741175599858
 21
353.5063919980522
 31
0.0
  0
LINE
  5
3B
330
38
100
AcDbEntity
  8
SUNPO
 62
     0
370
    -2
100
AcDbLine
 10
99.35740195271094
 20
345.509050762789
 30
0.0
 11
99.35740195271094
 21
353.5063919980522
 31
0.0
  0
LINE
  5
3C
330
38
100
AcDbEntity
  8
SUNPO
 62
     0
370
    -2
100
AcDbLine
 10
94.05741175599857
 20
351.5063919980522
 30
0.0
 11
92.05741175599857
 21
351.5063919980522
 31
0.0
  0
LINE
  5
3D
330
38
100
AcDbEntity
  8
SUNPO
 62
     0
370
    -2
100
AcDbLine
 10
101.3574019527109
 20
351.5063919980522
 30
0.0
 11
108.5240686193776
 21
351.5063919980522
 31
0.0
  0
LINE
  5
3E
330
38
100
AcDbEntity
  8
SUNPO
 62
     0
370
    -2
100
AcDbLine
 10
96.05741175599858
 20
351.5063919980522
 30
0.0
 11
99.35740195271094
 21
351.5063919980522
 31
0.0
  0
INSERT
  5
3F
330
38
100
AcDbEntity
  8
SUNPO
 62
     0
370
    -2
100
AcDbBlockReference
  2
_OPEN30
 10
96.05741175599858
 20
351.5063919980522
 30
0.0
 41
2.0
 42
2.0
 43
2.0
  0
INSERT
  5
40
330
38
100
AcDbEntity
  8
SUNPO
 62
     0
370
    -2
100
AcDbBlockReference
  2
_OPEN30
 10
99.35740195271094
 20
351.5063919980522
 30
0.0
 41
2.0
 42
2.0
 43
2.0
 50
180.0
  0
MTEXT
  5
41
330
38
100
AcDbEntity
  8
SUNPO
 62
     0
100
AcDbMText
 10
105.9407352860442
 20
353.2563919980522
 30
0.0
 40
2.5
 41
0.0
 71
     5
 72
     1
  1
\A1;99
 73
     1
 44
1.0
1001
ACAD
1000
MTEXTBEGIN
1070
    73
1070
     1
1070
    44
1040
1.0
1070
    74
1070
     0
1000
MTEXTEND
  0
POINT
  5
42
330
38
100
AcDbEntity
  8
DEFPOINTS
 62
     0
100
AcDbPoint
 10
96.05741175599858
 20
343.509050762789
 30
0.0
  0
POINT
  5
44
330
38
100
AcDbEntity
  8
DEFPOINTS
 62
     0
100
AcDbPoint
 10
99.35740195271094
 20
343.509050762789
 30
0.0
  0
POINT
  5
45
330
38
100
AcDbEntity
  8
DEFPOINTS
 62
     0
100
AcDbPoint
 10
99.35740195271094
 20
351.5063919980522
 30
0.0
  0
ENDBLK
  5
46
330
38
100
AcDbEntity
  8
0
100
AcDbBlockEnd
  0
BLOCK
  5
2E2
330
2D8
100
AcDbEntity
  8
0
100
AcDbBlockBegin
  2
*D4
 70
     1
 10
0.0
 20
0.0
 30
0.0
  3
*D4
  1

  0
LINE
  5
2D9
330
2D8
100
AcDbEntity
  8
SUNPO
 62
     0
370
    -2
100
AcDbLine
 10
-42.73458429180609
 20
34.35609592388545
 30
0.0
 11
-42.73458429180609
 21
42.35343715914865
 31
0.0
  0
LINE
  5
2DA
330
2D8
100
AcDbEntity
  8
SUNPO
 62
     0
370
    -2
100
AcDbLine
 10
9.06540520759519
 20
34.35609592388545
 30
0.0
 11
9.06540520759519
 21
42.35343715914865
 31
0.0
  0
LINE
  5
2DB
330
2D8
100
AcDbEntity
  8
SUNPO
 62
     0
370
    -2
100
AcDbLine
 10
-40.7345842918061
 20
40.35343715914865
 30
0.0
 11
7.06540520759519
 21
40.35343715914865
 31
0.0
  0
INSERT
  5
2DC
330
2D8
100
AcDbEntity
  8
SUNPO
 62
     0
370
    -2
100
AcDbBlockReference
  2
_OPEN30
 10
-42.73458429180609
 20
40.35343715914865
 30
0.0
 41
2.0
 42
2.0
 43
2.0
 50
180.0
  0
INSERT
  5
2DD
330
2D8
100
AcDbEntity
  8
SUNPO
 62
     0
370
    -2
100
AcDbBlockReference
  2
_OPEN30
 10
9.06540520759519
 20
40.35343715914865
 30
0.0
 41
2.0
 42
2.0
 43
2.0
  0
MTEXT
  5
2DE
330
2D8
100
AcDbEntity
  8
SUNPO
 62
     0
100
AcDbMText
 10
-16.83458954210545
 20
42.10343715914866
 30
0.0
 40
2.5
 41
0.0
 71
     5
 72
     1
  1
\A1;1554
 73
     1
 44
1.0
1001
ACAD
1000
MTEXTBEGIN
1070
    73
1070
     1
1070
    44
1040
1.0
1070
    74
1070
     0
1000
MTEXTEND
  0
POINT
  5
2DF
330
2D8
100
AcDbEntity
  8
DEFPOINTS
 62
     0
100
AcDbPoint
 10
-42.73458429180609
 20
32.35609592388545
 30
0.0
  0
POINT
  5
2E0
330
2D8
100
AcDbEntity
  8
DEFPOINTS
 62
     0
100
AcDbPoint
 10
9.06540520759519
 20
32.35609592388545
 30
0.0
  0
POINT
  5
2E1
330
2D8
100
AcDbEntity
  8
DEFPOINTS
 62
     0
100
AcDbPoint
 10
9.06540520759519
 20
40.35343715914865
 30
0.0
  0
ENDBLK
  5
2E3
330
2D8
100
AcDbEntity
  8
0
100
AcDbBlockEnd
  0
BLOCK
  5
2EE
330
2E4
100
AcDbEntity
  8
0
100
AcDbBlockBegin
  2
*D5
 70
     1
 10
0.0
 20
0.0
 30
0.0
  3
*D5
  1

  0
LINE
  5
2E5
330
2E4
100
AcDbEntity
  8
SUNPO
 62
     0
370
    -2
100
AcDbLine
 10
10.77204568111007
 20
1.528090644577786
 30
0.0
 11
19.08370298431726
 21
1.528090644577784
 31
0.0
  0
LINE
  5
2E6
330
2E4
100
AcDbEntity
  8
SUNPO
 62
     0
370
    -2
100
AcDbLine
 10
10.77204568111007
 20
32.36141345335904
 30
0.0
 11
19.08370298431727
 21
32.36141345335903
 31
0.0
  0
LINE
  5
2E7
330
2E4
100
AcDbEntity
  8
SUNPO
 62
     0
370
    -2
100
AcDbLine
 10
17.08370298431726
 20
3.528090644577785
 30
0.0
 11
17.08370298431727
 21
30.36141345335903
 31
0.0
  0
INSERT
  5
2E8
330
2E4
100
AcDbEntity
  8
SUNPO
 62
     0
370
    -2
100
AcDbBlockReference
  2
_OPEN30
 10
17.08370298431726
 20
1.528090644577785
 30
0.0
 41
2.0
 42
2.0
 43
2.0
 50
270.0
  0
INSERT
  5
2E9
330
2E4
100
AcDbEntity
  8
SUNPO
 62
     0
370
    -2
100
AcDbBlockReference
  2
_OPEN30
 10
17.08370298431727
 20
32.36141345335903
 30
0.0
 41
2.0
 42
2.0
 43
2.0
 50
90.0
  0
MTEXT
  5
2EA
330
2E4
100
AcDbEntity
  8
SUNPO
 62
     0
100
AcDbMText
 10
15.33370298431726
 20
16.94475204896841
 30
0.0
 40
2.5
 41
0.0
 71
     5
 72
     1
  1
\A1;925
 11
0.0000000000000001
 21
1.0
 31
0.0
 73
     1
 44
1.0
1001
ACAD
1000
MTEXTBEGIN
1070
    73
1070
     1
1070
    44
1040
1.0
1070
    74
1070
     0
1000
MTEXTEND
  0
POINT
  5
2EB
330
2E4
100
AcDbEntity
  8
DEFPOINTS
 62
     0
100
AcDbPoint
 10
8.772045681110071
 20
1.528090644577787
 30
0.0
  0
POINT
  5
2EC
330
2E4
100
AcDbEntity
  8
DEFPOINTS
 62
     0
100
AcDbPoint
 10
8.772045681110071
 20
32.36141345335904
 30
0.0
  0
POINT
  5
2ED
330
2E4
100
AcDbEntity
  8
DEFPOINTS
 62
     0
100
AcDbPoint
 10
17.08370298431727
 20
32.36141345335903
 30
0.0
  0
ENDBLK
  5
2EF
330
2E4
100
AcDbEntity
  8
0
100
AcDbBlockEnd
  0
BLOCK
  5
2FC
330
2F0
100
AcDbEntity
  8
0
100
AcDbBlockBegin
  2
*D6
 70
     1
 10
0.0
 20
0.0
 30
0.0
  3
*D6
  1

  0
LINE
  5
2F1
330
2F0
100
AcDbEntity
  8
SUNPO
 62
     0
370
    -2
100
AcDbLine
 10
33.58228277816258
 20
34.35609592388545
 30
0.0
 11
33.58228277816258
 21
42.35343715914865
 31
0.0
  0
LINE
  5
2F2
330
2F0
100
AcDbEntity
  8
SUNPO
 62
     0
370
    -2
100
AcDbLine
 10
36.88227297487494
 20
34.35609592388545
 30
0.0
 11
36.88227297487494
 21
42.35343715914865
 31
0.0
  0
LINE
  5
2F3
330
2F0
100
AcDbEntity
  8
SUNPO
 62
     0
370
    -2
100
AcDbLine
 10
31.58228277816258
 20
40.35343715914865
 30
0.0
 11
29.58228277816258
 21
40.35343715914865
 31
0.0
  0
LINE
  5
2F4
330
2F0
100
AcDbEntity
  8
SUNPO
 62
     0
370
    -2
100
AcDbLine
 10
38.88227297487494
 20
40.35343715914865
 30
0.0
 11
46.0489396415416
 21
40.35343715914865
 31
0.0
  0
LINE
  5
2F5
330
2F0
100
AcDbEntity
  8
SUNPO
 62
     0
370
    -2
100
AcDbLine
 10
33.58228277816258
 20
40.35343715914865
 30
0.0
 11
36.88227297487494
 21
40.35343715914865
 31
0.0
  0
INSERT
  5
2F6
330
2F0
100
AcDbEntity
  8
SUNPO
 62
     0
370
    -2
100
AcDbBlockReference
  2
_OPEN30
 10
33.58228277816258
 20
40.35343715914865
 30
0.0
 41
2.0
 42
2.0
 43
2.0
  0
INSERT
  5
2F7
330
2F0
100
AcDbEntity
  8
SUNPO
 62
     0
370
    -2
100
AcDbBlockReference
  2
_OPEN30
 10
36.88227297487494
 20
40.35343715914865
 30
0.0
 41
2.0
 42
2.0
 43
2.0
 50
180.0
  0
MTEXT
  5
2F8
330
2F0
100
AcDbEntity
  8
SUNPO
 62
     0
100
AcDbMText
 10
43.46560630820827
 20
42.10343715914866
 30
0.0
 40
2.5
 41
0.0
 71
     5
 72
     1
  1
\A1;99
 73
     1
 44
1.0
1001
ACAD
1000
MTEXTBEGIN
1070
    73
1070
     1
1070
    44
1040
1.0
1070
    74
1070
     0
1000
MTEXTEND
  0
POINT
  5
2F9
330
2F0
100
AcDbEntity
  8
DEFPOINTS
 62
     0
100
AcDbPoint
 10
33.58228277816258
 20
32.35609592388545
 30
0.0
  0
POINT
  5
2FA
330
2F0
100
AcDbEntity
  8
DEFPOINTS
 62
     0
100
AcDbPoint
 10
36.88227297487494
 20
32.35609592388545
 30
0.0
  0
POINT
  5
2FB
330
2F0
100
AcDbEntity
  8
DEFPOINTS
 62
     0
100
AcDbPoint
 10
36.88227297487494
 20
40.35343715914865
 30
0.0
  0
ENDBLK
  5
2FD
330
2F0
100
AcDbEntity
  8
0
100
AcDbBlockEnd
  0
ENDSEC
  0
SECTION
  2
ENTITIES
  0
DIMENSION
  5
36
330
2
100
AcDbEntity
  8
SUNPO
100
AcDbDimension
  2
*D6
 10
36.88227297487494
 20
40.35343715914865
 30
0.0
 11
43.46560630820827
 21
42.10343715914866
 31
0.0
 70
    33
  1
99
 71
     5
 42
3.299990196712357
  3
STANDARD
100
AcDbAlignedDimension
 13
33.58228277816258
 23
32.35609592388545
 33
0.0
 14
36.88227297487494
 24
32.35609592388545
 34
0.0
1001
ACAD
1000
DSTYLE
1002
{
1070
   287
1070
     3
1070
   287
1070
     3
1070
   287
1070
     3
1070
   287
1070
     3
1070
   287
1070
     3
1070
   287
1070
     3
1070
   287
1070
     3
1070
   287
1070
     3
1070
   287
1070
     3
1070
   287
1070
     3
1070
   287
1070
     3
1070
   287
1070
     3
1070
   287
1070
     3
1070
   287
1070
     3
1070
   287
1070
     3
1070
   287
1070
     3
1070
   287
1070
     3
1070
   287
1070
     3
1070
   287
1070
     3
1070
   287
1070
     3
1070
   287
1070
     3
1070
   287
1070
     3
1070
   287
1070
     3
1070
   287
1070
     3
1070
   287
1070
     3
1070
   287
1070
     3
1070
   287
1070
     3
1070
   287
1070
     3
1070
   287
1070
     3
1070
   287
1070
     3
1070
   287
1070
     3
1070
   287
1070
     3
1070
   287
1070
     3
1070
   287
1070
     3
1070
    40
1040
1.0
1070
   140
1040
2.5
1070
   147
1040
0.5
1070
   172
1070
     1
1070
   279
1070
     0
1002
}
  0
DIMENSION
  5
47
330
2
100
AcDbEntity
  8
SUNPO
100
AcDbDimension
  2
*D5
 10
17.08370298431727
 20
32.36141345335903
 30
0.0
 11
15.33370298431726
 21
16.94475204896841
 31
0.0
 70
    33
  1
925
 71
     5
 42
30.83332280878125
  3
STANDARD
100
AcDbAlignedDimension
 13
8.772045681110071
 23
1.528090644577787
 33
0.0
 14
8.772045681110071
 24
32.36141345335904
 34
0.0
1001
ACAD
1000
DSTYLE
1002
{
1070
   287
1070
     3
1070
   287
1070
     3
1070
   287
1070
     3
1070
   287
1070
     3
1070
   287
1070
     3
1070
   287
1070
     3
1070
   287
1070
     3
1070
   287
1070
     3
1070
   287
1070
     3
1070
   287
1070
     3
1070
   287
1070
     3
1070
   287
1070
     3
1070
   287
1070
     3
1070
   287
1070
     3
1070
   287
1070
     3
1070
   287
1070
     3
1070
   287
1070
     3
1070
   287
1070
     3
1070
   287
1070
     3
1070
   287
1070
     3
1070
   287
1070
     3
1070
   287
1070
     3
1070
   287
1070
     3
1070
   287
1070
     3
1070
   287
1070
     3
1070
   287
1070
     3
1070
   287
1070
     3
1070
   287
1070
     3
1070
   287
1070
     3
1070
   287
1070
     3
1070
   287
1070
     3
1070
   287
1070
     3
1070
   287
1070
     3
1070
   287
1070
     3
1070
    40
1040
1.0
1070
   140
1040
2.5
1070
   147
1040
0.5
1070
   172
1070
     1
1070
   279
1070
     0
1002
}
  0
DIMENSION
  5
54
330
2
100
AcDbEntity
  8
SUNPO
100
AcDbDimension
  2
*D4
 10
9.06540520759519
 20
40.35343715914865
 30
0.0
 11
-16.83458954210545
 21
42.10343715914866
 31
0.0
 70
    33
  1
1554
 71
     5
 42
51.79998949940129
  3
STANDARD
100
AcDbAlignedDimension
 13
-42.73458429180609
 23
32.35609592388545
 33
0.0
 14
9.06540520759519
 24
32.35609592388545
 34
0.0
1001
ACAD
1000
DSTYLE
1002
{
1070
   287
1070
     3
1070
   287
1070
     3
1070
   287
1070
     3
1070
   287
1070
     3
1070
   287
1070
     3
1070
   287
1070
     3
1070
   287
1070
     3
1070
   287
1070
     3
1070
   287
1070
     3
1070
   287
1070
     3
1070
   287
1070
     3
1070
   287
1070
     3
1070
   287
1070
     3
1070
   287
1070
     3
1070
   287
1070
     3
1070
   287
1070
     3
1070
   287
1070
     3
1070
   287
1070
     3
1070
   287
1070
     3
1070
   287
1070
     3
1070
   287
1070
     3
1070
   287
1070
     3
1070
   287
1070
     3
1070
   287
1070
     3
1070
   287
1070
     3
1070
   287
1070
     3
1070
   287
1070
     3
1070
   287
1070
     3
1070
   287
1070
     3
1070
   287
1070
     3
1070
   287
1070
     3
1070
   287
1070
     3
1070
   287
1070
     3
1070
   287
1070
     3
1070
    40
1040
1.0
1070
   140
1040
2.5
1070
   147
1040
0.5
1070
   172
1070
     1
1070
   279
1070
     0
1002
}
  0
TEXT
  5
61
330
2
100
AcDbEntity
  8
SUNPO
 62
     1
100
AcDbText
 10
39.38587158361179
 20
1.401330018188218
 30
0.0
 40
1.5
  1
Ｓ＝１／３０
 41
0.7
 72
     2
 11
46.45587158361178
 21
1.401330018188218
 31
0.0
100
AcDbText
  0
LINE
  5
62
330
2
100
AcDbEntity
  8
GAIKEI
  6
PHANTOM
 62
     1
370
     9
100
AcDbLine
 10
7.055258894877098
 20
3.524835981877856
 30
0.0
 11
-40.72443797908798
 21
3.524835981877856
 31
0.0
  0
LINE
  5
64
330
2
100
AcDbEntity
  8
GAIKEI
  6
PHANTOM
 62
     1
370
     9
100
AcDbLine
 10
7.055258894877098
 20
30.36466811605902
 30
0.0
 11
-40.72443797908798
 21
30.36466811605902
 31
0.0
  0
LINE
  5
65
330
2
100
AcDbEntity
  8
GAIKEI
  6
PHANTOM
 62
     1
370
     9
100
AcDbLine
 10
-40.72443797908798
 20
30.36466811605902
 30
0.0
 11
-40.72443797908798
 21
3.524835981877856
 31
0.0
  0
LINE
  5
66
330
2
100
AcDbEntity
  8
GAIKEI
  6
PHANTOM
 62
     1
370
     9
100
AcDbLine
 10
7.055258894877098
 20
30.36466811605902
 30
0.0
 11
7.055258894877098
 21
3.524835981877856
 31
0.0
  0
SPLINE
  5
67
330
2
100
AcDbEntity
  8
GAIKEI
  6
Continuous
 62
     7
370
     9
100
AcDbSpline
210
0.0
220
0.0
230
1.0
 70
     8
 71
     3
 72
    21
 73
    17
 74
    15
 42
0.0000000001
 43
0.0000000001
 44
0.000001
 12
0.9999993814607119
 22
-0.001112240169115
 32
0.0
 13
0.000956485333158
 23
-0.9999995425677992
 33
0.0
 40
0.0
 40
0.0
 40
0.0
 40
0.0
 40
0.0175547646505817
 40
0.0351100771804048
 40
0.0501555726862921
 40
0.0652490480683342
 40
0.0802945458188911
 40
0.0953400411750275
 40
0.1104335142683126
 40
0.1254790094150133
 40
0.1405245060079829
 40
0.1556179793674077
 40
0.1706634712896939
 40
0.1838912588946465
 40
0.1971515690390397
 40
0.210378804089995
 40
0.210378804089995
 40
0.210378804089995
 40
0.210378804089995
 10
8.931395453424727
 20
32.36141345335904
 30
0.0
 10
8.93724703802215
 20
32.36140694498755
 30
0.0
 10
8.948963311296878
 20
32.36063623563837
 30
0.0
 10
8.965408929220942
 20
32.35737301998523
 30
0.0
 10
8.980533935298609
 20
32.35236793621044
 30
0.0
 10
8.994246311734144
 20
32.34606371868392
 30
0.0
 10
9.00717716899642
 20
32.33827793370551
 30
0.0
 10
9.019127697646581
 20
32.3290576112525
 30
0.0
 10
9.029980693281558
 20
32.3185706703573
 30
0.0
 10
9.039605399960663
 20
32.30694339789761
 30
0.0
 10
9.047830256692307
 20
32.29428713727714
 30
0.0
 10
9.054600383500982
 20
32.28079916259549
 30
0.0
 10
9.059622673293972
 20
32.26721024653881
 30
0.0
 10
9.063000306930831
 20
32.25376073381972
 30
0.0
 10
9.064961050979491
 20
32.24064783730324
 30
0.0
 10
9.065400990376417
 20
32.23181277551129
 30
0.0
 10
9.06540520759519
 20
32.22740369917784
 30
0.0
 11
8.931395453424727
 21
32.36141345335904
 31
0.0
 11
8.948912757444261
 21
32.36025864257533
 31
0.0
 11
8.966130713058845
 21
32.35683351009413
 31
0.0
 11
8.980416856295988
 21
32.35211400384293
 31
0.0
 11
8.994130798943984
 21
32.34580992558347
 31
0.0
 11
9.007014635590479
 21
32.33803983027434
 31
0.0
 11
9.018933268732538
 21
32.3288575750027
 31
0.0
 11
9.029787454729216
 21
32.31836947355373
 31
0.0
 11
9.03937306896185
 21
32.30677276593354
 31
0.0
 11
9.047580456533495
 21
32.29416299126933
 31
0.0
 11
9.054351158744879
 21
32.28067332050966
 31
0.0
 11
9.059557845273147
 21
32.26655744139327
 31
0.0
 11
9.062787376196098
 21
32.25372993665553
 31
0.0
 11
9.064745998820725
 21
32.24061506517728
 31
0.0
 11
9.06540520759519
 21
32.22740369917784
 31
0.0
  0
SPLINE
  5
68
330
2
100
AcDbEntity
  8
GAIKEI
  6
Continuous
 62
     7
370
     9
100
AcDbSpline
210
0.0
220
0.0
230
1.0
 70
     8
 71
     3
 72
    21
 73
    17
 74
    15
 42
0.0000000001
 43
0.0000000001
 44
0.000001
 12
-0.001111669356475
 22
-0.99999938209543
 32
0.0
 13
-0.9999995421515277
 23
-0.000956920443528
 33
0.0
 40
0.0
 40
0.0
 40
0.0
 40
0.0
 40
0.0175517414223891
 40
0.0351040307374882
 40
0.0501495262391477
 40
0.0652430016191463
 40
0.0802884993678816
 40
0.0953339947212847
 40
0.1104274678120695
 40
0.1254729629564127
 40
0.140518459546534
 40
0.1556119329033148
 40
0.1706574248245253
 40
0.1838872246793486
 40
0.1971495620067651
 40
0.2103788093170165
 40
0.2103788093170165
 40
0.2103788093170165
 40
0.2103788093170165
 10
9.06540520759519
 20
1.66210039877194
 30
0.0
 10
9.065398703684167
 20
1.656249821912922
 30
0.0
 10
9.064628259755295
 20
1.644535570289804
 30
0.0
 10
9.061365994878741
 20
1.628091842512844
 30
0.0
 10
9.05636191246748
 20
1.612967567708039
 30
0.0
 10
9.050058314990394
 20
1.599254906501187
 30
0.0
 10
9.042273114778822
 20
1.586323697094542
 30
0.0
 10
9.033053332746433
 20
1.574372751528926
 30
0.0
 10
9.022566882652455
 20
1.563519281667367
 30
0.0
 10
9.010940045425968
 20
1.553894049221128
 30
0.0
 10
8.998284156826784
 20
1.545668620110518
 30
0.0
 10
8.984796488049198
 20
1.538897883596121
 30
0.0
 10
8.971207169536171
 20
1.533874745432456
 30
0.0
 10
8.957756467452114
 20
1.530496279648843
 30
0.0
 10
8.944641611426803
 20
1.528534938426844
 30
0.0
 10
8.93580520050915
 20
1.52809486435683
 30
0.0
 10
8.931395453424727
 20
1.528090644577787
 30
0.0
 11
9.06540520759519
 21
1.66210039877194
 31
0.0
 11
9.064250796222779
 21
1.644586098204513
 31
0.0
 11
9.060826834957595
 21
1.627370992069586
 31
0.0
 11
9.056107974744065
 21
1.613084635429117
 31
0.0
 11
9.049804516648606
 21
1.599370407721266
 31
0.0
 11
9.042035003967072
 21
1.586486219719404
 31
0.0
 11
9.032853287677511
 21
1.574567171361877
 31
0.0
 11
9.022365677076933
 21
1.563712511096809
 31
0.0
 11
9.010769402940439
 21
1.554126372462121
 31
0.0
 11
8.99815999943641
 21
1.545918414674929
 31
0.0
 11
8.984670634869829
 21
1.539147102456297
 31
0.0
 11
8.970554991221121
 21
1.533939777601005
 31
0.0
 11
8.957725656207472
 21
1.530709274498917
 31
0.0
 11
8.944608824074876
 21
1.528750055869068
 31
0.0
 11
8.931395453424727
 21
1.528090644577787
 31
0.0
  0
SPLINE
  5
69
330
2
100
AcDbEntity
  8
GAIKEI
  6
Continuous
 62
     1
370
     9
100
AcDbSpline
210
0.0
220
0.0
230
1.0
 70
     8
 71
     3
 72
    23
 73
    19
 74
    17
 42
0.0000000001
 43
0.0000000001
 44
0.000001
 12
0.001309689731685
 22
-0.9999991423560356
 32
0.0
 13
-0.9999991424796965
 23
0.001309595308332
 33
0.0
 40
0.0
 40
0.0
 40
0.0
 40
0.0
 40
0.0000020095160901
 40
0.0148956643577953
 40
0.0298388663855491
 40
0.0447360616080721
 40
0.0596441817704597
 40
0.0745992434468074
 40
0.08950761993768
 40
0.1044574982507291
 40
0.1194544715209324
 40
0.1344043227809144
 40
0.1493696812254399
 40
0.1643822352905279
 40
0.1793470443556827
 40
0.1948945466032146
 40
0.2104393965180206
 40
0.2104414060353184
 40
0.2104414060353184
 40
0.2104414060353184
 40
0.2104414060353184
 10
9.000095130499062
 20
1.727410475869419
 30
0.0
 10
9.00009513137634
 20
1.727409806031289
 30
0.0
 10
9.000101588504207
 20
1.722444589180099
 30
0.0
 10
8.999544200942807
 20
1.712489209544969
 30
0.0
 10
8.997074626391594
 20
1.697755258736719
 30
0.0
 10
8.992996482965239
 20
1.683374078851443
 30
0.0
 10
8.987304407656665
 20
1.669548232594763
 30
0.0
 10
8.980125069792805
 20
1.656430918267574
 30
0.0
 10
8.971537590260808
 20
1.644169648335264
 30
0.0
 10
8.961598665923716
 20
1.632956854507085
 30
0.0
 10
8.95047556750768
 20
1.622900111024648
 30
0.0
 10
8.93830577833026
 20
1.614126517791305
 30
0.0
 10
8.925208349731121
 20
1.606798849150095
 30
0.0
 10
8.911379444491444
 20
1.600960247800514
 30
0.0
 10
8.896800766608251
 20
1.596632251230005
 30
0.0
 10
8.881643131588518
 20
1.593992370392697
 30
0.0
 10
8.871268327894242
 20
1.593393982178497
 30
0.0
 10
8.866086046143976
 20
1.593400720796751
 30
0.0
 10
8.866085376305449
 20
1.593400721673958
 30
0.0
 11
9.000095130499062
 21
1.727410475869419
 31
0.0
 11
9.000095133115507
 21
1.727408466353267
 31
0.0
 11
8.999274322829933
 21
1.712536821784624
 31
0.0
 11
8.99680398978927
 21
1.697799250091691
 31
0.0
 11
8.992729942791783
 21
1.683469954868257
 31
0.0
 11
8.987064134724761
 21
1.669680421114605
 31
0.0
 11
8.979884108526022
 21
1.656561669461211
 31
0.0
 11
8.971323322828141
 21
1.644356211866409
 31
0.0
 11
8.96141449133951
 21
1.633161814751701
 31
0.0
 11
8.950290198714142
 21
1.623103985665693
 31
0.0
 11
8.938157103536184
 21
1.614369761980924
 31
0.0
 11
8.925101904229308
 21
1.607053735907754
 31
0.0
 11
8.911271166215158
 21
1.601215246836545
 31
0.0
 11
8.89692290680685
 21
1.596963953664612
 31
0.0
 11
8.881607523748741
 21
1.594287449867465
 31
0.0
 11
8.866087385822766
 21
1.593400719057513
 31
0.0
 11
8.866085376305449
 21
1.593400721673958
 31
0.0
  0
SPLINE
  5
6A
330
2
100
AcDbEntity
  8
GAIKEI
  6
Continuous
 62
     1
370
     9
100
AcDbSpline
210
0.0
220
0.0
230
1.0
 70
     8
 71
     3
 72
    23
 73
    19
 74
    17
 42
0.0000000001
 43
0.0000000001
 44
0.000001
 12
-0.001309689731685
 22
-0.9999991423560356
 32
0.0
 13
0.9999991424796965
 23
0.001309595308332
 33
0.0
 40
0.0
 40
0.0
 40
0.0
 40
0.0
 40
0.0000020095160901
 40
0.0148956643577875
 40
0.0298388663856056
 40
0.0447360616080612
 40
0.0596441817704583
 40
0.0745992434468265
 40
0.0895076199377317
 40
0.1044574982507478
 40
0.1194544715209354
 40
0.1344043227808538
 40
0.1493696812254693
 40
0.1643822352905802
 40
0.1793470443556158
 40
0.1948945466032134
 40
0.2104393965179701
 40
0.2104414060352856
 40
0.2104414060352856
 40
0.2104414060352856
 40
0.2104414060352856
 10
-42.66927421470987
 20
1.727410475869419
 30
0.0
 10
-42.66927421558714
 20
1.727409806031289
 30
0.0
 10
-42.66928067275323
 20
1.722444589174642
 30
0.0
 10
-42.66872328513608
 20
1.712489209547584
 30
0.0
 10
-42.66625371060723
 20
1.697755258735924
 30
0.0
 10
-42.66217556717494
 20
1.683374078851613
 30
0.0
 10
-42.65648349186794
 20
1.669548232594706
 30
0.0
 10
-42.64930415400361
 20
1.656430918267574
 30
0.0
 10
-42.64071667447164
 20
1.644169648335264
 30
0.0
 10
-42.63077775013462
 20
1.632956854507028
 30
0.0
 10
-42.61965465171859
 20
1.622900111024705
 30
0.0
 10
-42.60748486254113
 20
1.614126517791135
 30
0.0
 10
-42.59438743394237
 20
1.606798849150209
 30
0.0
 10
-42.58055852870096
 20
1.600960247800401
 30
0.0
 10
-42.56597985082442
 20
1.596632251230573
 30
0.0
 10
-42.55082221577903
 20
1.593992370390253
 30
0.0
 10
-42.54044741214918
 20
1.593393982183613
 30
0.0
 10
-42.53526513035493
 20
1.593400720796751
 30
0.0
 10
-42.53526446051639
 20
1.593400721673958
 30
0.0
 11
-42.66927421470987
 21
1.727410475869419
 31
0.0
 11
-42.66927421732638
 21
1.727408466353267
 31
0.0
 11
-42.66845340704089
 21
1.712536821784624
 31
0.0
 11
-42.66598307400018
 21
1.697799250091634
 31
0.0
 11
-42.66190902700273
 21
1.683469954868257
 31
0.0
 11
-42.6562432189357
 21
1.669680421114605
 31
0.0
 11
-42.64906319273691
 21
1.656561669461211
 31
0.0
 11
-42.64050240703897
 21
1.644356211866409
 31
0.0
 11
-42.63059357555039
 21
1.633161814751701
 31
0.0
 11
-42.61946928292505
 21
1.623103985665693
 31
0.0
 11
-42.60733618774716
 21
1.614369761980924
 31
0.0
 11
-42.59428098844018
 21
1.607053735907754
 31
0.0
 11
-42.580450250426
 21
1.601215246836545
 31
0.0
 11
-42.56610199101783
 21
1.596963953664612
 31
0.0
 11
-42.55078660795966
 21
1.594287449867351
 31
0.0
 11
-42.53526647003373
 21
1.593400719057513
 31
0.0
 11
-42.53526446051639
 21
1.593400721673958
 31
0.0
  0
SPLINE
  5
6B
330
2
100
AcDbEntity
  8
GAIKEI
  6
Continuous
 62
     1
370
     9
100
AcDbSpline
210
0.0
220
0.0
230
1.0
 70
     8
 71
     3
 72
    23
 73
    19
 74
    17
 42
0.0000000001
 43
0.0000000001
 44
0.000001
 12
0.9999991420925322
 22
0.001309890911301
 32
0.0
 13
-0.001309611402428
 23
-0.9999991424586196
 33
0.0
 40
0.0
 40
0.0
 40
0.0
 40
0.0
 40
0.0000020095159628
 40
0.0148956643500897
 40
0.029838866385963
 40
0.0447360616127763
 40
0.0596441817775552
 40
0.0745992434558749
 40
0.0895076199485958
 40
0.1044574982657208
 40
0.1194544715398956
 40
0.1344043228038656
 40
0.1493696812528328
 40
0.1643822353224455
 40
0.1793470443919912
 40
0.1948945466116712
 40
0.2104393964980568
 40
0.2104414060154541
 40
0.2104414060154541
 40
0.2104414060154541
 40
0.2104414060154541
 10
8.866085376306955
 20
32.29610337626241
 30
0.0
 10
8.866086046145028
 20
32.29610337713984
 30
0.0
 10
8.871051263119994
 20
32.29610983526385
 30
0.0
 10
8.881006642570838
 20
32.29555244625328
 30
0.0
 10
8.895740593453666
 20
32.29308287227639
 30
0.0
 10
8.910121773323069
 20
32.28900472869111
 30
0.0
 10
8.923947619586769
 20
32.28331265342064
 30
0.0
 10
8.937064933913262
 20
32.27613331554255
 30
0.0
 10
8.949326203847064
 20
32.26754583601059
 30
0.0
 10
8.960538997676266
 20
32.25760691166897
 30
0.0
 10
8.970595741160195
 20
32.24648381324903
 30
0.0
 10
8.979369334393794
 20
32.23431402406686
 30
0.0
 10
8.986697003036184
 20
32.22121659546224
 30
0.0
 10
8.992535604379384
 20
32.2073876902191
 30
0.0
 10
8.996863600964871
 20
32.19280901233384
 30
0.0
 10
8.999503481718562
 20
32.17765137735864
 30
0.0
 10
9.000101870128347
 20
32.16727657361349
 30
0.0
 10
9.000095131376298
 20
32.16209429192026
 30
0.0
 10
9.000095130499062
 20
32.16209362208167
 30
0.0
 11
8.866085376306955
 21
32.29610337626241
 31
0.0
 11
8.866087385822922
 21
32.29610337887931
 31
0.0
 11
8.880959030393739
 21
32.29528256859152
 31
0.0
 11
8.89569660208879
 21
32.29281223554807
 31
0.0
 11
8.910025897313914
 21
32.28873818854765
 31
0.0
 11
8.923815431068064
 21
32.2830723804779
 31
0.0
 11
8.936934182721699
 21
32.27589235427661
 31
0.0
 11
8.949139640316531
 21
32.26733156857631
 31
0.0
 11
8.960334037432843
 21
32.25742273708374
 31
0.0
 11
8.970391866519918
 21
32.24629844445428
 31
0.0
 11
8.979126090205085
 21
32.23416534927191
 31
0.0
 11
8.986442116277999
 21
32.22111014995994
 31
0.0
 11
8.992280605348014
 21
32.20727941194059
 31
0.0
 11
8.996531898517645
 21
32.19293115252725
 31
0.0
 11
8.999208402307274
 21
32.17761576949659
 31
0.0
 11
9.000095133115507
 21
32.16209563159907
 31
0.0
 11
9.000095130499062
 21
32.16209362208167
 31
0.0
  0
SPLINE
  5
6C
330
2
100
AcDbEntity
  8
GAIKEI
  6
Continuous
 62
     1
370
     9
100
AcDbSpline
210
0.0
220
0.0
230
1.0
 70
     8
 71
     3
 72
    23
 73
    19
 74
    17
 42
0.0000000001
 43
0.0000000001
 44
0.000001
 12
-0.9999991423623983
 22
0.001309684873453
 32
0.0
 13
0.001309611402427
 23
-0.9999991424586196
 33
0.0
 40
0.0
 40
0.0
 40
0.0
 40
0.0
 40
0.0000020095163921
 40
0.0148956643606656
 40
0.0298388663908852
 40
0.04473606161581
 40
0.0596441817796991
 40
0.0745992434574407
 40
0.0895076199496964
 40
0.1044574982666875
 40
0.1194544715405071
 40
0.1344043228044082
 40
0.1493696812532945
 40
0.1643822353227527
 40
0.1793470443922399
 40
0.1948945466117688
 40
0.2104393964973191
 40
0.2104414060147164
 40
0.2104414060147164
 40
0.2104414060147164
 40
0.2104414060147164
 10
-42.53526446051739
 20
32.29610337626281
 30
0.0
 10
-42.53526513035562
 20
32.29610337714007
 30
0.0
 10
-42.54023034732798
 20
32.29610983457098
 30
0.0
 10
-42.55018572678856
 20
32.29555244656274
 30
0.0
 10
-42.56491967766995
 20
32.29308287218817
 30
0.0
 10
-42.57930085753756
 20
32.28900472871112
 30
0.0
 10
-42.5931267038001
 20
32.28331265341239
 30
0.0
 10
-42.60624401812615
 20
32.27613331554261
 30
0.0
 10
-42.6185052880595
 20
32.26754583600842
 30
0.0
 10
-42.62971808188861
 20
32.25760691166795
 30
0.0
 10
-42.6397748253722
 20
32.2464838132475
 30
0.0
 10
-42.64854841860571
 20
32.23431402406589
 30
0.0
 10
-42.65587608724829
 20
32.22121659546099
 30
0.0
 10
-42.66171468859027
 20
32.2073876902191
 30
0.0
 10
-42.66604268517991
 20
32.19280901232941
 30
0.0
 10
-42.66868256591737
 20
32.17765137737183
 30
0.0
 10
-42.66928095436688
 20
32.16727657358342
 30
0.0
 10
-42.6692742155871
 20
32.16209429192026
 30
0.0
 10
-42.66927421470987
 20
32.16209362208167
 30
0.0
 11
-42.53526446051739
 21
32.29610337626281
 31
0.0
 11
-42.5352664700338
 21
32.29610337887931
 31
0.0
 11
-42.55013811460464
 21
32.29528256859152
 31
0.0
 11
-42.56487568629975
 21
32.29281223554807
 31
0.0
 11
-42.57920498152488
 21
32.28873818854765
 31
0.0
 11
-42.59299451527903
 21
32.2830723804779
 31
0.0
 11
-42.60611326693265
 21
32.27589235427661
 31
0.0
 11
-42.6183187245274
 21
32.26733156857631
 31
0.0
 11
-42.62951312164384
 21
32.25742273708369
 31
0.0
 11
-42.63957095073074
 21
32.24629844445428
 31
0.0
 11
-42.64830517441601
 21
32.23416534927191
 31
0.0
 11
-42.65562120048897
 21
32.22111014995994
 31
0.0
 11
-42.66145968955894
 21
32.20727941194059
 31
0.0
 11
-42.66571098272864
 21
32.19293115252725
 31
0.0
 11
-42.66838748651809
 21
32.17761576949659
 31
0.0
 11
-42.66927421732638
 21
32.16209563159907
 31
0.0
 11
-42.66927421470987
 21
32.16209362208167
 31
0.0
  0
SPLINE
  5
6D
330
2
100
AcDbEntity
  8
GAIKEI
  6
Continuous
 62
     1
370
     9
100
AcDbSpline
210
0.0
220
0.0
230
1.0
 70
     8
 71
     3
 72
    17
 73
    13
 74
    11
 42
0.0000000001
 43
0.0000000001
 44
0.000001
 12
0.1258340515661738
 22
0.9920513048559744
 32
0.0
 13
0.9919842984317696
 23
0.1263611952492929
 33
0.0
 40
0.0
 40
0.0
 40
0.0
 40
0.0
 40
0.0117782210610634
 40
0.0235565061973888
 40
0.0405866515917078
 40
0.057615626831391
 40
0.0746268565036594
 40
0.091637939591022
 40
0.1086023688458256
 40
0.1255676478558737
 40
0.142509114690188
 40
0.1594516929966041
 40
0.1594516929966041
 40
0.1594516929966041
 40
0.1594516929966041
 10
-42.64304917503001
 20
32.16513944049927
 30
0.0
 10
-42.64255514127123
 20
32.16903430702342
 30
0.0
 10
-42.64119487132599
 20
32.17678206652403
 30
0.0
 10
-42.63760170519374
 20
32.18984421202896
 30
0.0
 10
-42.63180208085972
 20
32.20403701949806
 30
0.0
 10
-42.62320722960478
 20
32.21879725643101
 30
0.0
 10
-42.61257587471767
 20
32.23215904402952
 30
0.0
 10
-42.60019032062863
 20
32.24388194809165
 30
0.0
 10
-42.58625427231042
 20
32.2536832560362
 30
0.0
 10
-42.57111169085344
 20
32.26144010918444
 30
0.0
 10
-42.55503385949158
 20
32.26697142786566
 30
0.0
 10
-42.54391253615216
 20
32.26916470843594
 30
0.0
 10
-42.53831027893386
 20
32.26987833658438
 30
0.0
 11
-42.64304917503001
 21
32.16513944049927
 31
0.0
 11
-42.64101437285269
 21
32.17674102678541
 31
0.0
 11
-42.63788448476357
 21
32.18809584391119
 31
0.0
 11
-42.63144702808054
 21
32.20386246958765
 31
0.0
 11
-42.62286461931402
 21
32.21857061489266
 31
0.0
 11
-42.61228167947623
 21
32.23188920020419
 31
0.0
 11
-42.59991856667375
 21
32.24357388133507
 31
0.0
 11
-42.58605081536592
 21
32.25334519746389
 31
0.0
 11
-42.57094801864934
 21
32.26107355142313
 31
0.0
 11
-42.55493291999738
 21
32.26659897119703
 31
0.0
 11
-42.53831027893386
 21
32.26987833658438
 31
0.0
  0
SPLINE
  5
6E
330
2
100
AcDbEntity
  8
GAIKEI
  6
Continuous
 62
     1
370
     9
100
AcDbSpline
210
0.0
220
0.0
230
1.0
 70
     8
 71
     3
 72
    17
 73
    13
 74
    11
 42
0.0000000001
 43
0.0000000001
 44
0.000001
 12
-0.1258340515661738
 22
0.9920513048559744
 32
0.0
 13
-0.9919842984317696
 23
0.1263611952492929
 33
0.0
 40
0.0
 40
0.0
 40
0.0
 40
0.0
 40
0.0117782210610634
 40
0.0235565061973897
 40
0.0405866515916792
 40
0.0576156268313714
 40
0.0746268565037194
 40
0.0916379395909941
 40
0.1086023688457774
 40
0.125567647855797
 40
0.1425091146902255
 40
0.1594516929966696
 40
0.1594516929966696
 40
0.1594516929966696
 40
0.1594516929966696
 10
8.97387009081909
 20
32.16513944049927
 30
0.0
 10
8.973376057060306
 20
32.16903430702342
 30
0.0
 10
8.972015787115068
 20
32.17678206652403
 30
0.0
 10
8.968422620982792
 20
32.1898442120289
 30
0.0
 10
8.962622996648903
 20
32.20403701949823
 30
0.0
 10
8.954028145393934
 20
32.21879725643078
 30
0.0
 10
8.943396790506668
 20
32.23215904402958
 30
0.0
 10
8.931011236417774
 20
32.24388194809171
 30
0.0
 10
8.917075188099559
 20
32.25368325603625
 30
0.0
 10
8.901932606642603
 20
32.26144010918449
 30
0.0
 10
8.885854775280677
 20
32.26697142786572
 30
0.0
 10
8.87473345194121
 20
32.26916470843594
 30
0.0
 10
8.869131194722896
 20
32.26987833658438
 30
0.0
 11
8.97387009081909
 21
32.16513944049927
 31
0.0
 11
8.97183528864177
 21
32.17674102678541
 31
0.0
 11
8.96870540055265
 21
32.18809584391119
 31
0.0
 11
8.96226794386969
 21
32.20386246958765
 31
0.0
 11
8.953685535103147
 21
32.21857061489266
 31
0.0
 11
8.943102595265244
 21
32.23188920020419
 31
0.0
 11
8.930739482462882
 21
32.24357388133507
 31
0.0
 11
8.916871731155069
 21
32.25334519746389
 31
0.0
 11
8.901768934438536
 21
32.26107355142313
 31
0.0
 11
8.885753835786445
 21
32.26659897119703
 31
0.0
 11
8.869131194722896
 21
32.26987833658438
 31
0.0
  0
SPLINE
  5
6F
330
2
100
AcDbEntity
  8
GAIKEI
  6
Continuous
 62
     1
370
     9
100
AcDbSpline
210
0.0
220
0.0
230
1.0
 70
     8
 71
     3
 72
    17
 73
    13
 74
    11
 42
0.0000000001
 43
0.0000000001
 44
0.000001
 12
-0.9920513048689185
 22
0.1258340514641249
 32
0.0
 13
-0.1263611950845091
 23
0.9919842984527601
 33
0.0
 40
0.0
 40
0.0
 40
0.0
 40
0.0
 40
0.0117782210859883
 40
0.0235565062472792
 40
0.0405866516371781
 40
0.05761562687238
 40
0.0746268565390557
 40
0.0916379396208122
 40
0.1086023688721648
 40
0.1255676478787557
 40
0.1425091147129086
 40
0.159451693019246
 40
0.159451693019246
 40
0.159451693019246
 40
0.159451693019246
 10
-42.53831027893314
 20
1.619625761351869
 30
0.0
 10
-42.5422051454656
 20
1.620119795111293
 30
0.0
 10
-42.54995290498262
 20
1.621480065059358
 30
0.0
 10
-42.56301505050189
 20
1.625073231197006
 30
0.0
 10
-42.57720785797487
 20
1.630872855535869
 30
0.0
 10
-42.59196809490215
 20
1.639467706790583
 30
0.0
 10
-42.60532988249539
 20
1.650099061675916
 30
0.0
 10
-42.6170527865529
 20
1.662484615762593
 30
0.0
 10
-42.6268540944935
 20
1.676420664078648
 30
0.0
 10
-42.63461094763859
 20
1.691563245534382
 30
0.0
 10
-42.64014226631672
 20
1.707641076896209
 30
0.0
 10
-42.64233554688515
 20
1.718762400235789
 30
0.0
 10
-42.64304917503269
 20
1.724364657454202
 30
0.0
 11
-42.53831027893314
 21
1.619625761351869
 31
0.0
 11
-42.54991186524387
 21
1.621660563533168
 31
0.0
 11
-42.56126668239331
 21
1.62479045163036
 31
0.0
 11
-42.57703330806442
 21
1.631227908314826
 31
0.0
 11
-42.5917414533643
 21
1.639810317081298
 31
0.0
 11
-42.60506003867013
 21
1.650393256917254
 31
0.0
 11
-42.61674471979586
 21
1.662756369716873
 31
0.0
 11
-42.6265160359211
 21
1.676624121022996
 31
0.0
 11
-42.63424438987681
 21
1.691726917737526
 31
0.0
 11
-42.63976980964801
 21
1.707742016390227
 31
0.0
 11
-42.64304917503269
 21
1.724364657454202
 31
0.0
  0
SPLINE
  5
70
330
2
100
AcDbEntity
  8
GAIKEI
  6
Continuous
 62
     1
370
     9
100
AcDbSpline
210
0.0
220
0.0
230
1.0
 70
     8
 71
     3
 72
    17
 73
    13
 74
    11
 42
0.0000000001
 43
0.0000000001
 44
0.000001
 12
0.9920513048689185
 22
0.1258340514641249
 32
0.0
 13
0.1263611950849488
 23
0.991984298452704
 33
0.0
 40
0.0
 40
0.0
 40
0.0
 40
0.0
 40
0.0117782210859708
 40
0.0235565062473096
 40
0.0405866516372695
 40
0.0576156268723998
 40
0.074626856539184
 40
0.0916379396208136
 40
0.108602368872244
 40
0.1255676478787717
 40
0.1425091147129942
 40
0.1594516930192869
 40
0.1594516930192869
 40
0.1594516930192869
 40
0.1594516930192869
 10
8.869131194722143
 20
1.619625761351869
 30
0.0
 10
8.873026061254606
 20
1.620119795111293
 30
0.0
 10
8.880773820771636
 20
1.621480065059301
 30
0.0
 10
8.89383596629095
 20
1.62507323119695
 30
0.0
 10
8.908028773763916
 20
1.630872855535983
 30
0.0
 10
8.922789010691204
 20
1.639467706790469
 30
0.0
 10
8.936150798284586
 20
1.65009906167603
 30
0.0
 10
8.947873702341823
 20
1.662484615762593
 30
0.0
 10
8.957675010282727
 20
1.676420664078591
 30
0.0
 10
8.965431863427426
 20
1.691563245534553
 30
0.0
 10
8.970963182106103
 20
1.707641076896038
 30
0.0
 10
8.973156462674111
 20
1.718762400235846
 30
0.0
 10
8.973870090821648
 20
1.724364657454202
 30
0.0
 11
8.869131194722143
 21
1.619625761351869
 31
0.0
 11
8.880732781032861
 21
1.621660563533168
 31
0.0
 11
8.892087598182342
 21
1.62479045163036
 31
0.0
 11
8.90785422385349
 21
1.631227908314883
 31
0.0
 11
8.92256236915334
 21
1.639810317081298
 31
0.0
 11
8.935880954459292
 21
1.650393256917254
 31
0.0
 11
8.947565635584851
 21
1.662756369716873
 31
0.0
 11
8.957336951710217
 21
1.676624121022996
 31
0.0
 11
8.965065305665788
 21
1.691726917737526
 31
0.0
 11
8.970590725437205
 21
1.707742016390227
 31
0.0
 11
8.973870090821648
 21
1.724364657454202
 31
0.0
  0
SPLINE
  5
71
330
2
100
AcDbEntity
  8
GAIKEI
  6
Continuous
 62
     1
370
     9
100
AcDbSpline
210
0.0
220
0.0
230
1.0
 70
     8
 71
     3
 72
    23
 73
    19
 74
    17
 42
0.0000000001
 43
0.0000000001
 44
0.000001
 12
0.99520710214402
 22
-0.0977896919010481
 32
0.0
 13
0.097789649252484
 23
-0.9952071063346947
 33
0.0
 40
0.0
 40
0.0
 40
0.0
 40
0.0
 40
0.0000020065457252
 40
0.0142250077331503
 40
0.0284550004934279
 40
0.0414379239453326
 40
0.0544508114991788
 40
0.0674327351101831
 40
0.0806487061955042
 40
0.0939002591224501
 40
0.1071156287154029
 40
0.1208186364032911
 40
0.1345606485411857
 40
0.1482658650380563
 40
0.1621050422475061
 40
0.1759738676484192
 40
0.1898064527035435
 40
0.1898084592489929
 40
0.1898084592489929
 40
0.1898084592489929
 40
0.1898084592489929
 10
8.664792065481208
 20
32.08406576170256
 30
0.0
 10
8.664792731124066
 20
32.08406569629608
 30
0.0
 10
8.669511669656174
 20
32.08360196743285
 30
0.0
 10
8.678915636998468
 20
32.08225595147411
 30
0.0
 10
8.692370550247801
 20
32.07904422487195
 30
0.0
 10
8.705072602149911
 20
32.07468917941549
 30
0.0
 10
8.716934546652026
 20
32.06934136932591
 30
0.0
 10
8.72829755712425
 20
32.06283893302305
 30
0.0
 10
8.738995024312913
 20
32.0551507459187
 30
0.0
 10
8.748909932322092
 20
32.04636063542802
 30
0.0
 10
8.757982445269206
 20
32.03647921646183
 30
0.0
 10
8.766030187546334
 20
32.02554063801739
 30
0.0
 10
8.772975640007658
 20
32.0136847013377
 30
0.0
 10
8.778699497993073
 20
32.00114293741467
 30
0.0
 10
8.783125964674283
 20
31.98804316721413
 30
0.0
 10
8.786301469681802
 20
31.9745464217836
 30
0.0
 10
8.787606449282137
 20
31.96539040074902
 30
0.0
 10
8.788057450532335
 20
31.96080097688548
 30
0.0
 10
8.788057515938788
 20
31.96080031124274
 30
0.0
 11
8.664792065481208
 21
32.08406576170256
 31
0.0
 11
8.664794062409896
 21
32.08406556547027
 31
0.0
 11
8.678872797142318
 21
32.08204238713233
 31
0.0
 11
8.692709436299836
 21
32.07871957319475
 31
0.0
 11
8.704989504663672
 21
32.07450562856042
 31
0.0
 11
8.716849892519491
 21
32.06915141590292
 31
0.0
 11
8.728110555041808
 21
32.06269161669832
 31
0.0
 11
8.738845380389363
 21
32.05498274472347
 31
0.0
 11
8.748760440176511
 21
32.04619089899864
 31
0.0
 11
8.757691855650477
 21
32.03645041079062
 31
0.0
 11
8.765823848729951
 21
32.02542115516877
 31
0.0
 11
8.772775248282457
 21
32.01356694515079
 31
0.0
 11
8.77846522700527
 21
32.0010986484362
 31
0.0
 11
8.782913228468586
 21
31.98799371633157
 31
0.0
 11
8.786101398730735
 21
31.97449628611276
 31
0.0
 11
8.788057319706609
 21
31.96080230817114
 31
0.0
 11
8.788057515938788
 21
31.96080031124274
 31
0.0
  0
SPLINE
  5
72
330
2
100
AcDbEntity
  8
GAIKEI
  6
Continuous
 62
     1
370
     9
100
AcDbSpline
210
0.0
220
0.0
230
1.0
 70
     8
 71
     3
 72
    21
 73
    17
 74
    15
 42
0.0000000001
 43
0.0000000001
 44
0.000001
 12
-0.000695215190719
 22
0.9999997583378902
 32
0.0
 13
-0.9999999848615351
 23
0.00017400267146
 33
0.0
 40
0.0
 40
0.0
 40
0.0
 40
0.0
 40
0.0120589940416663
 40
0.0241537505964876
 40
0.0362104262696467
 40
0.0482949635910325
 40
0.060419331919238
 40
0.0725007106632713
 40
0.0841745807459187
 40
0.095887660863726
 40
0.1075622867461331
 40
0.1189811592847707
 40
0.1304351445694117
 40
0.1418570165210614
 40
0.154221123454184
 40
0.1665854314333308
 40
0.1665854314333308
 40
0.1665854314333308
 40
0.1665854314333308
 10
8.770552539884349
 20
31.96080031124279
 30
0.0
 10
8.770549745352397
 20
31.96481997495193
 30
0.0
 10
8.770110731518087
 20
31.97287774342306
 30
0.0
 10
8.768153233524657
 20
31.98481073041274
 30
0.0
 10
8.764904012772561
 20
31.99647104752671
 30
0.0
 10
8.760324040555445
 20
32.0076875924683
 30
0.0
 10
8.754492060076671
 20
32.01831545705579
 30
0.0
 10
8.747547357448922
 20
32.02808799850652
 30
0.0
 10
8.739572428824061
 20
32.03685231774921
 30
0.0
 10
8.730758968230986
 20
32.04456511373309
 30
0.0
 10
8.721198951959138
 20
32.05118490471574
 30
0.0
 10
8.711019004100705
 20
32.05661917562543
 30
0.0
 10
8.700394136832159
 20
32.06089506508755
 30
0.0
 10
8.689072230945683
 20
32.06410803313378
 30
0.0
 10
8.677163058905165
 20
32.06610103000571
 30
0.0
 10
8.66891350141168
 20
32.06656006850721
 30
0.0
 10
8.664792065481023
 20
32.06656078564811
 30
0.0
 11
8.770552539884349
 21
31.96080031124279
 31
0.0
 11
8.769896175768934
 21
31.97284193978658
 31
0.0
 11
8.767936315607769
 21
31.98477686222418
 31
0.0
 11
8.764686807678984
 21
31.99638740708702
 31
0.0
 11
8.760122260236158
 21
32.00757676959927
 31
0.0
 11
8.754286403425552
 21
32.01820428109812
 31
0.0
 11
8.74727695557911
 21
32.0280444184329
 31
0.0
 11
8.739427390190684
 21
32.03668527988111
 31
0.0
 11
8.730613355887385
 21
32.04439955027374
 31
0.0
 11
8.721011292029075
 21
32.05104019475494
 31
0.0
 11
8.71094363649864
 21
32.05642849035093
 31
0.0
 11
8.700319006084527
 21
32.06070770871225
 31
0.0
 11
8.689330799680632
 21
32.06382525886068
 31
0.0
 11
8.677137900333832
 21
32.06587578430089
 31
0.0
 11
8.664792065481023
 21
32.06656078564811
 31
0.0
  0
SPLINE
  5
73
330
2
100
AcDbEntity
  8
GAIKEI
  6
Continuous
 62
     1
370
     9
100
AcDbSpline
210
0.0
220
0.0
230
1.0
 70
     8
 71
     3
 72
    23
 73
    19
 74
    17
 42
0.0000000001
 43
0.0000000001
 44
0.000001
 12
0.0977896088096781
 22
0.9952071103086284
 32
0.0
 13
0.9952071011999851
 23
0.097789701508504
 33
0.0
 40
0.0
 40
0.0
 40
0.0
 40
0.0
 40
0.0000020065453849
 40
0.0138345915994153
 40
0.027703417000925
 40
0.0415425942105269
 40
0.0552478107075334
 40
0.068989822845443
 40
0.0826928305332869
 40
0.0959082001263502
 40
0.1091597530533204
 40
0.1223757241385132
 40
0.1353576477495149
 40
0.148370535303442
 40
0.1613534587552593
 40
0.1755834515154546
 40
0.1898064527032018
 40
0.1898084592488603
 40
0.1898084592488603
 40
0.1898084592488603
 40
0.1898084592488603
 10
-42.45723660014962
 20
31.96080031124274
 30
0.0
 10
-42.4572365347432
 20
31.96080097688548
 30
0.0
 10
-42.45678553366647
 20
31.96539040063533
 30
0.0
 10
-42.4554805538127
 20
31.97454642183573
 30
0.0
 10
-42.45230504890719
 20
31.98804316719929
 30
0.0
 10
-42.44787858219851
 20
32.00114293741803
 30
0.0
 10
-42.44215472422029
 20
32.01368470133622
 30
0.0
 10
-42.43520927175707
 20
32.02554063801739
 30
0.0
 10
-42.42716152948057
 20
32.03647921646166
 30
0.0
 10
-42.4180890165331
 20
32.04636063542773
 30
0.0
 10
-42.40817410852405
 20
32.05515074591824
 30
0.0
 10
-42.39747664133548
 20
32.06283893302367
 30
0.0
 10
-42.38611363086295
 20
32.0693413693225
 30
0.0
 10
-42.37425168636216
 20
32.07468917942743
 30
0.0
 10
-42.36154963445494
 20
32.07904422482523
 30
0.0
 10
-42.34809472122661
 20
32.08225595166585
 30
0.0
 10
-42.33869075383085
 20
32.08360196702091
 30
0.0
 10
-42.33397181533511
 20
32.08406569629608
 30
0.0
 10
-42.33397114969228
 20
32.08406576170256
 30
0.0
 11
-42.45723660014962
 21
31.96080031124274
 31
0.0
 11
-42.45723640391761
 21
31.96080230817114
 31
0.0
 11
-42.45528048294161
 21
31.97449628611276
 31
0.0
 11
-42.45209231267955
 21
31.98799371633157
 31
0.0
 11
-42.44764431121616
 21
32.0010986484362
 31
0.0
 11
-42.44195433249331
 21
32.01356694515079
 31
0.0
 11
-42.43500293294087
 21
32.02542115516877
 31
0.0
 11
-42.42687093986148
 21
32.03645041079062
 31
0.0
 11
-42.41793952438736
 21
32.04619089899864
 31
0.0
 11
-42.40802446460023
 21
32.05498274472347
 31
0.0
 11
-42.39728963925279
 21
32.06269161669832
 31
0.0
 11
-42.38602897673049
 21
32.06915141590292
 31
0.0
 11
-42.37416858887456
 21
32.07450562856042
 31
0.0
 11
-42.3618885205108
 21
32.07871957319475
 31
0.0
 11
-42.34805188135324
 21
32.08204238713233
 31
0.0
 11
-42.33397314662091
 21
32.08406556547027
 31
0.0
 11
-42.33397114969228
 21
32.08406576170256
 31
0.0
  0
SPLINE
  5
74
330
2
100
AcDbEntity
  8
GAIKEI
  6
Continuous
 62
     1
370
     9
100
AcDbSpline
210
0.0
220
0.0
230
1.0
 70
     8
 71
     3
 72
    21
 73
    17
 74
    15
 42
0.0000000001
 43
0.0000000001
 44
0.000001
 12
-0.9999999848615349
 22
-0.000174002673302
 32
0.0
 13
-0.000695215191974
 23
-0.9999997583378894
 33
0.0
 40
0.0
 40
0.0
 40
0.0
 40
0.0
 40
0.0123643079790297
 40
0.0247284149119526
 40
0.0361502868636023
 40
0.0476042721482979
 40
0.0590231446868084
 40
0.0706977705693211
 40
0.0824108506871257
 40
0.094084720769851
 40
0.1061660995138607
 40
0.1182904678420183
 40
0.1303750051634095
 40
0.1424316808365782
 40
0.1545264373913914
 40
0.1665854314330538
 40
0.1665854314330538
 40
0.1665854314330538
 40
0.1665854314330538
 10
-42.33397114969228
 20
32.06656078564811
 30
0.0
 10
-42.3380925856229
 20
32.06656006850721
 30
0.0
 10
-42.34634214311629
 20
32.06610103000571
 30
0.0
 10
-42.3582513151567
 20
32.06410803313384
 30
0.0
 10
-42.36957322104312
 20
32.0608950650875
 30
0.0
 10
-42.38019808831168
 20
32.05661917562554
 30
0.0
 10
-42.39037803617013
 20
32.0511849047158
 30
0.0
 10
-42.3999380524419
 20
32.04456511373314
 30
0.0
 10
-42.40875151303504
 20
32.03685231774904
 30
0.0
 10
-42.4167264416599
 20
32.02808799850658
 30
0.0
 10
-42.42367114428775
 20
32.01831545705579
 30
0.0
 10
-42.42950312476639
 20
32.00768759246825
 30
0.0
 10
-42.43408309698351
 20
31.99647104752671
 30
0.0
 10
-42.43733231773568
 20
31.98481073041268
 30
0.0
 10
-42.43928981572905
 20
31.972877743423
 30
0.0
 10
-42.43972882956327
 20
31.96481997495193
 30
0.0
 10
-42.43973162409523
 20
31.96080031124279
 30
0.0
 11
-42.33397114969228
 21
32.06656078564811
 31
0.0
 11
-42.34631698454498
 21
32.06587578430089
 31
0.0
 11
-42.35850988389157
 21
32.06382525886068
 31
0.0
 11
-42.36949809029548
 21
32.06070770871225
 31
0.0
 11
-42.38012272070966
 21
32.05642849035098
 31
0.0
 11
-42.39019037623998
 21
32.05104019475505
 31
0.0
 11
-42.39979244009835
 21
32.04439955027374
 31
0.0
 11
-42.40860647440164
 21
32.03668527988111
 31
0.0
 11
-42.41645603979011
 21
32.02804441843284
 31
0.0
 11
-42.4234654876366
 21
32.01820428109812
 31
0.0
 11
-42.42930134444711
 21
32.00757676959927
 31
0.0
 11
-42.43386589188995
 21
31.99638740708702
 31
0.0
 11
-42.43711539981878
 21
31.98477686222418
 31
0.0
 11
-42.43907525997989
 21
31.97284193978658
 31
0.0
 11
-42.43973162409523
 21
31.96080031124279
 31
0.0
  0
SPLINE
  5
75
330
2
100
AcDbEntity
  8
GAIKEI
  6
Continuous
 62
     1
370
     9
100
AcDbSpline
210
0.0
220
0.0
230
1.0
 70
     8
 71
     3
 72
    21
 73
    17
 74
    15
 42
0.0000000001
 43
0.0000000001
 44
0.000001
 12
0.9999997583378712
 22
0.000695215218019
 32
0.0
 13
0.000174002662287
 23
0.9999999848615367
 33
0.0
 40
0.0
 40
0.0
 40
0.0
 40
0.0
 40
0.0120589940420964
 40
0.0241537505970221
 40
0.0362104262705003
 40
0.0482949635924731
 40
0.0604193319212201
 40
0.0725007106657735
 40
0.084174580748849
 40
0.0958876608668501
 40
0.107562286749696
 40
0.1189811592882948
 40
0.1304351445729982
 40
0.1418570165247874
 40
0.1542211234560684
 40
0.1665854314334187
 40
0.1665854314334187
 40
0.1665854314334187
 40
0.1665854314334187
 10
8.664792065479119
 20
1.822943312288714
 30
0.0
 10
8.668811729188419
 20
1.822946106820779
 30
0.0
 10
8.676869497659637
 20
1.823385120655245
 30
0.0
 10
8.688802484649585
 20
1.825342618649074
 30
0.0
 10
8.700462801763961
 20
1.82859183940144
 30
0.0
 10
8.711679346705807
 20
1.833171811618797
 30
0.0
 10
8.72230721129371
 20
1.839003792098139
 30
0.0
 10
8.732079752744738
 20
1.845948494726314
 30
0.0
 10
8.740844071987382
 20
1.853923423351602
 30
0.0
 10
8.748556867971387
 20
1.862736883945217
 30
0.0
 10
8.755176658953715
 20
1.872296900217406
 30
0.0
 10
8.760610929863389
 20
1.882476848076066
 30
0.0
 10
8.764886819325155
 20
1.893101715344869
 30
0.0
 10
8.768099787370744
 20
1.904423621230989
 30
0.0
 10
8.770092784241967
 20
1.916332793270328
 30
0.0
 10
8.770551822743513
 20
1.924582350762648
 30
0.0
 10
8.770552539884349
 20
1.928703786692722
 30
0.0
 11
8.664792065479119
 21
1.822943312288714
 31
0.0
 11
8.676833694023329
 21
1.823599676404455
 31
0.0
 11
8.688768616461004
 21
1.825559536565947
 31
0.0
 11
8.700379161324079
 21
1.82880904449496
 31
0.0
 11
8.711568523836817
 21
1.833373591938197
 31
0.0
 11
8.72219603533604
 21
1.839209448749215
 31
0.0
 11
8.732036172671115
 21
1.846218896596155
 31
0.0
 11
8.740677034119428
 21
1.854068461985093
 31
0.0
 11
8.748391304511955
 21
1.862882496288762
 31
0.0
 11
8.755031948993064
 21
1.872484560147654
 31
0.0
 11
8.760420244588786
 21
1.882552215678174
 31
0.0
 11
8.764699462949778
 21
1.893176846092501
 31
0.0
 11
8.767817013097783
 21
1.904165052496637
 31
0.0
 11
8.769867538537269
 21
1.916357951841689
 31
0.0
 11
8.770552539884349
 21
1.928703786692722
 31
0.0
  0
SPLINE
  5
76
330
2
100
AcDbEntity
  8
GAIKEI
  6
Continuous
 62
     1
370
     9
100
AcDbSpline
210
0.0
220
0.0
230
1.0
 70
     8
 71
     3
 72
    23
 73
    19
 74
    17
 42
0.0000000001
 43
0.0000000001
 44
0.000001
 12
-0.097789674998792
 22
-0.9952071038048465
 32
0.0
 13
-0.9952071049003988
 23
-0.097789663849339
 33
0.0
 40
0.0
 40
0.0
 40
0.0
 40
0.0
 40
0.000002006545226
 40
0.0142250077305042
 40
0.0284550004893757
 40
0.0414379239414032
 40
0.054450811495506
 40
0.0674327351066578
 40
0.0806487061923382
 40
0.0939002591197259
 40
0.10711562871311
 40
0.1208186364015479
 40
0.134560648539928
 40
0.148265865037355
 40
0.162105042247085
 40
0.1759738676484505
 40
0.1898064527045434
 40
0.1898084592500933
 40
0.1898084592500933
 40
0.1898084592500933
 40
0.1898084592500933
 10
8.788057515938788
 20
1.928703786693006
 30
0.0
 10
8.788057450532321
 20
1.928703121050318
 30
0.0
 10
8.787593721583078
 20
1.923984182622064
 30
0.0
 10
8.786247705751421
 20
1.914580215130001
 30
0.0
 10
8.783035979099778
 20
1.901125301941362
 30
0.0
 10
8.778680933656119
 20
1.888423250024857
 30
0.0
 10
8.773333123563674
 20
1.876561305526138
 30
0.0
 10
8.766830687261858
 20
1.86519829505255
 30
0.0
 10
8.759142500157423
 20
1.854500827863716
 30
0.0
 10
8.75035238966663
 20
1.844585919854011
 30
0.0
 10
8.740470970700471
 20
1.835513406905988
 30
0.0
 10
8.729532392256189
 20
1.827465664629016
 30
0.0
 10
8.717676455574078
 20
1.820520212165547
 30
0.0
 10
8.705134691658386
 20
1.814796354185716
 30
0.0
 10
8.692034921428486
 20
1.810369887482579
 30
0.0
 10
8.678538176106229
 20
1.807194382554484
 30
0.0
 10
8.669382154800771
 20
1.805889402757202
 30
0.0
 10
8.664792731121508
 20
1.805438401640856
 30
0.0
 10
8.664792065478707
 20
1.805438336234374
 30
0.0
 11
8.788057515938788
 21
1.928703786693006
 31
0.0
 11
8.788057319706609
 21
1.928701789764829
 31
0.0
 11
8.786034141369214
 21
1.914623055033985
 31
0.0
 11
8.782711327432394
 21
1.900786415877917
 31
0.0
 11
8.778497382798391
 21
1.888506347513953
 31
0.0
 11
8.773143170141253
 21
1.876645959657707
 31
0.0
 11
8.766683370936902
 21
1.865385297135105
 31
0.0
 11
8.758974498962061
 21
1.854650471787067
 31
0.0
 11
8.750182653237217
 21
1.844735411999408
 31
0.0
 11
8.740442165029179
 21
1.835803996524816
 31
0.0
 11
8.729412909406974
 21
1.827672003444831
 31
0.0
 11
8.717558699388661
 21
1.820720603891913
 31
0.0
 11
8.705090402673619
 21
1.815030625168787
 31
0.0
 11
8.69198547056871
 21
1.810582623705045
 31
0.0
 11
8.678488040349293
 21
1.807394453442782
 31
0.0
 11
8.664794062407224
 21
1.805438532466666
 31
0.0
 11
8.664792065478707
 21
1.805438336234374
 31
0.0
  0
SPLINE
  5
77
330
2
100
AcDbEntity
  8
GAIKEI
  6
Continuous
 62
     1
370
     9
100
AcDbSpline
210
0.0
220
0.0
230
1.0
 70
     8
 71
     3
 72
    21
 73
    17
 74
    15
 42
0.0000000001
 43
0.0000000001
 44
0.000001
 12
0.000174002662287
 22
-0.9999999848615367
 32
0.0
 13
0.9999997583378739
 23
-0.00069521521424
 33
0.0
 40
0.0
 40
0.0
 40
0.0
 40
0.0
 40
0.0123643079773377
 40
0.0247284149086505
 40
0.0361502868604504
 40
0.0476042721451538
 40
0.059023144683709
 40
0.0706977705665368
 40
0.0824108506846385
 40
0.0940847207676982
 40
0.1061660995122255
 40
0.1182904678409975
 40
0.1303750051628945
 40
0.142431680836554
 40
0.1545264373917263
 40
0.1665854314340183
 40
0.1665854314340183
 40
0.1665854314340183
 40
0.1665854314340183
 10
-42.43973162409523
 20
1.928703786692722
 30
0.0
 10
-42.4397309069544
 20
1.924582350762648
 30
0.0
 10
-42.43927186845326
 20
1.916332793270385
 30
0.0
 10
-42.43727887158158
 20
1.904423621231046
 30
0.0
 10
-42.43406590353605
 20
1.893101715344869
 30
0.0
 10
-42.42979001407426
 20
1.882476848076237
 30
0.0
 10
-42.42435574316471
 20
1.872296900217406
 30
0.0
 10
-42.41773595218238
 20
1.86273688394516
 30
0.0
 10
-42.41002315619825
 20
1.853923423351659
 30
0.0
 10
-42.40125883695561
 20
1.845948494726314
 30
0.0
 10
-42.39148629550459
 20
1.839003792098026
 30
0.0
 10
-42.38085843091672
 20
1.833171811618797
 30
0.0
 10
-42.36964188597482
 20
1.828591839401553
 30
0.0
 10
-42.35798156886038
 20
1.825342618648846
 30
0.0
 10
-42.34604858187021
 20
1.823385120655359
 30
0.0
 10
-42.33799081339882
 20
1.822946106820779
 30
0.0
 10
-42.33397114968946
 20
1.822943312288714
 30
0.0
 11
-42.43973162409523
 21
1.928703786692722
 31
0.0
 11
-42.43904662274838
 21
1.916357951841689
 31
0.0
 11
-42.4369960973087
 21
1.904165052496637
 31
0.0
 11
-42.43387854716066
 21
1.893176846092501
 31
0.0
 11
-42.42959932879966
 21
1.882552215678174
 31
0.0
 11
-42.42421103320403
 21
1.872484560147654
 31
0.0
 11
-42.41757038872295
 21
1.862882496288762
 31
0.0
 11
-42.40985611833028
 21
1.854068461985093
 31
0.0
 11
-42.40121525688198
 21
1.846218896596155
 31
0.0
 11
-42.39137511954695
 21
1.839209448749215
 31
0.0
 11
-42.3807476080477
 21
1.833373591938197
 31
0.0
 11
-42.36955824553503
 21
1.82880904449496
 31
0.0
 11
-42.3579477006718
 21
1.825559536565833
 31
0.0
 11
-42.34601277823387
 21
1.823599676404398
 31
0.0
 11
-42.33397114968946
 21
1.822943312288714
 31
0.0
  0
SPLINE
  5
78
330
2
100
AcDbEntity
  8
GAIKEI
  6
Continuous
 62
     1
370
     9
100
AcDbSpline
210
0.0
220
0.0
230
1.0
 70
     8
 71
     3
 72
    23
 73
    19
 74
    17
 42
0.0000000001
 43
0.0000000001
 44
0.000001
 12
-0.9952071092433726
 22
0.097789619650808
 32
0.0
 13
-0.0977897006607371
 23
0.9952071012832876
 33
0.0
 40
0.0
 40
0.0
 40
0.0
 40
0.0
 40
0.0000020065451993
 40
0.0138345916000764
 40
0.0277034170019317
 40
0.0415425942119174
 40
0.0552478107094563
 40
0.0689898228479497
 40
0.0826928305363791
 40
0.0959082001297868
 40
0.1091597530571177
 40
0.1223757241428106
 40
0.1353576477539379
 40
0.1483705353079464
 40
0.1613534587599098
 40
0.1755834515184775
 40
0.1898064527046086
 40
0.1898084592501252
 40
0.1898084592501252
 40
0.1898084592501252
 40
0.1898084592501252
 10
-42.33397114968991
 20
1.805438336234487
 30
0.0
 10
-42.3339718153326
 20
1.805438401640913
 30
0.0
 10
-42.33856123905773
 20
1.805889402790455
 30
0.0
 10
-42.34771726029499
 20
1.807194382538
 30
0.0
 10
-42.36121400564433
 20
1.810369887486501
 30
0.0
 10
-42.37431377586725
 20
1.814796354184068
 30
0.0
 10
-42.38685553978497
 20
1.820520212165547
 30
0.0
 10
-42.39871147646669
 20
1.827465664628505
 30
0.0
 10
-42.40965005491112
 20
1.835513406905704
 30
0.0
 10
-42.41953147387728
 20
1.844585919853784
 30
0.0
 10
-42.42832158436802
 20
1.854500827863205
 30
0.0
 10
-42.43600977147274
 20
1.86519829505255
 30
0.0
 10
-42.4425122077735
 20
1.876561305524489
 30
0.0
 10
-42.44786001787017
 20
1.888423250028722
 30
0.0
 10
-42.45221506329691
 20
1.901125301924423
 30
0.0
 10
-42.4554267900174
 20
1.914580215197418
 30
0.0
 10
-42.4567728056746
 20
1.923984182476601
 30
0.0
 10
-42.45723653474328
 20
1.928703121050489
 30
0.0
 10
-42.45723660014978
 20
1.92870378669329
 30
0.0
 11
-42.33397114968991
 21
1.805438336234487
 31
0.0
 11
-42.33397314661809
 21
1.80543853246661
 31
0.0
 11
-42.34766712456026
 21
1.807394453442725
 31
0.0
 11
-42.36116455477954
 21
1.810582623705045
 31
0.0
 11
-42.37426948688454
 21
1.815030625168731
 31
0.0
 11
-42.38673778359959
 21
1.820720603891913
 31
0.0
 11
-42.39859199361797
 21
1.827672003444831
 31
0.0
 11
-42.40962124924013
 21
1.835803996524816
 31
0.0
 11
-42.41936173744818
 21
1.844735411999408
 31
0.0
 11
-42.42815358317298
 21
1.854650471787067
 31
0.0
 11
-42.43586245514783
 21
1.865385297135105
 31
0.0
 11
-42.44232225435223
 21
1.876645959657651
 31
0.0
 11
-42.44767646700927
 21
1.888506347513896
 31
0.0
 11
-42.45189041164326
 21
1.900786415877917
 31
0.0
 11
-42.45521322558011
 21
1.914623055033985
 31
0.0
 11
-42.45723640391761
 21
1.928701789764829
 31
0.0
 11
-42.45723660014978
 21
1.92870378669329
 31
0.0
  0
ELLIPSE
  5
79
330
2
100
AcDbEntity
  8
GAIKEI
  6
Continuous
 62
     1
370
     9
100
AcDbEllipse
 10
8.866085364182083
 20
1.643585510614002
 30
0.0
 11
0.000187363374275
 21
0.0502533085383258
 31
0.0
210
0.0
220
0.0
230
1.0
 40
0.0709619999999702
 41
3.194084984157992
 42
4.215666243972874
  0
ELLIPSE
  5
7A
330
2
100
AcDbEntity
  8
GAIKEI
  6
Continuous
 62
     1
370
     9
100
AcDbEllipse
 10
8.949910341559075
 20
1.727410487990937
 30
0.0
 11
0.0502533085383562
 21
0.0001873633742909
 31
0.0
210
0.0
220
0.0
230
1.0
 40
0.0709620000002367
 41
-1.07407359037346
 42
-0.0524923304145684
  0
ELLIPSE
  5
7B
330
2
100
AcDbEntity
  8
GAIKEI
  6
Continuous
 62
     1
370
     9
100
AcDbEllipse
 10
-42.53526444839306
 20
1.643585510614002
 30
0.0
 11
-0.0001873633743081
 21
0.0502533085383323
 31
0.0
210
0.0
220
0.0
230
0.9999999999999998
 40
0.070961999999685
 41
2.067519063203164
 42
3.089100323177964
  0
ELLIPSE
  5
7C
330
2
100
AcDbEntity
  8
GAIKEI
  6
Continuous
 62
     1
370
     9
100
AcDbEllipse
 10
-42.61908942576993
 20
1.727410487990937
 30
0.0
 11
-0.0502533085383346
 21
0.000187363381456
 31
0.0
210
0.0
220
0.0
230
1.0
 40
0.0709620000004295
 41
0.0524923304336993
 42
1.074073590392033
  0
ELLIPSE
  5
7D
330
2
100
AcDbEntity
  8
GAIKEI
  6
Continuous
 62
     1
370
     9
100
AcDbEllipse
 10
8.866085364182083
 20
32.24591858732282
 30
0.0
 11
-0.0001873633743779
 21
0.0502533085383296
 31
0.0
210
0.0
220
0.0
230
1.0
 40
0.0709620000000204
 41
-1.074073590400425
 42
-0.0524923305770184
  0
ELLIPSE
  5
7E
330
2
100
AcDbEntity
  8
GAIKEI
  6
Continuous
 62
     1
370
     9
100
AcDbEllipse
 10
8.949910341559075
 20
32.16209360994594
 30
0.0
 11
-0.0502533085383589
 21
0.0001873633745189
 31
0.0
210
0.0
220
0.0
230
1.0
 40
0.0709620000005044
 41
3.194084984020158
 42
4.215666244025265
  0
ELLIPSE
  5
7F
330
2
100
AcDbEntity
  8
GAIKEI
  6
Continuous
 62
     1
370
     9
100
AcDbEllipse
 10
-42.53526444839306
 20
32.24591858732282
 30
0.0
 11
0.0001873633743767
 21
0.0502533085383349
 31
0.0
210
0.0
220
0.0
230
1.0
 40
0.070962000000052
 41
0.0524923304201417
 42
1.07407359040048
  0
ELLIPSE
  5
80
330
2
100
AcDbEntity
  8
GAIKEI
  6
Continuous
 62
     1
370
     9
100
AcDbEllipse
 10
-42.61908942576993
 20
32.16209360994594
 30
0.0
 11
0.0502533085383875
 21
0.0001873633670142
 31
0.0
210
0.0
220
0.0
230
1.0
 40
0.0709620000001491
 41
2.067519063164611
 42
3.089100323167285
  0
ELLIPSE
  5
81
330
2
100
AcDbEntity
  8
GAIKEI
  6
Continuous
 62
     1
370
     9
100
AcDbEllipse
 10
7.007852274286591
 20
3.573917724395471
 30
0.0
 11
-0.048088595438261
 21
0.048088595438261
 31
0.0
210
0.0
220
0.0
230
1.0
 40
0.9852569999999099
 41
2.363620831664734
 42
3.919564475514532
  0
ELLIPSE
  5
82
330
2
100
AcDbEntity
  8
GAIKEI
  6
Continuous
 62
     1
370
     9
100
AcDbEllipse
 10
-40.67703135849763
 20
30.31558637354135
 30
0.0
 11
-0.0480885954382728
 21
0.0480885954382728
 31
0.0
210
0.0
220
0.0
230
1.0
 40
0.9852569999990665
 41
-0.7779718219255886
 42
0.7779718219251675
  0
ELLIPSE
  5
83
330
2
100
AcDbEntity
  8
GAIKEI
  6
Continuous
 62
     1
370
     9
100
AcDbEllipse
 10
7.007852274286591
 20
30.31558637354135
 30
0.0
 11
0.048088595438255
 21
0.048088595438255
 31
0.0
210
0.0
220
0.0
230
1.0
 40
0.9852570000001561
 41
5.505213485254409
 42
7.06115712910452
  0
ELLIPSE
  5
84
330
2
100
AcDbEntity
  8
GAIKEI
  6
Continuous
 62
     1
370
     9
100
AcDbEllipse
 10
-40.67703135849763
 20
3.573917724395471
 30
0.0
 11
0.0480885954382681
 21
0.0480885954382681
 31
0.0
210
0.0
220
0.0
230
1.0
 40
0.9852569999992633
 41
2.363620831664164
 42
3.919564475515562
  0
ELLIPSE
  5
85
330
2
100
AcDbEntity
  8
GAIKEI
  6
Continuous
 62
     1
370
     9
100
AcDbEllipse
 10
-41.17610220991697
 20
3.074846872976081
 30
0.0
 11
0.0546359898518508
 21
0.0546359898518508
 31
0.0
210
0.0
220
0.0
230
1.0
 40
0.997265000000446
 41
2.357564018063253
 42
3.925621289116455
  0
ELLIPSE
  5
86
330
2
100
AcDbEntity
  8
GAIKEI
  6
Continuous
 62
     1
370
     9
100
AcDbEllipse
 10
-41.21061213379421
 20
30.84916714883792
 30
0.0
 11
-0.0641379011304366
 21
0.0641379011304366
 31
0.0
210
0.0
220
0.0
230
1.0
 40
0.9972650000003266
 41
-0.7840286355267354
 42
0.7840286355271533
  0
ELLIPSE
  5
87
330
2
100
AcDbEntity
  8
GAIKEI
  6
Continuous
 62
     1
370
     9
100
AcDbEllipse
 10
-41.17610220991697
 20
30.81465722496068
 30
0.0
 11
-0.0546359898518508
 21
0.0546359898518508
 31
0.0
210
0.0
220
0.0
230
1.0
 40
0.9972650000005685
 41
-0.7840286355272146
 42
0.7840286355269686
  0
ELLIPSE
  5
88
330
2
100
AcDbEntity
  8
GAIKEI
  6
Continuous
 62
     1
370
     9
100
AcDbEllipse
 10
7.506923125705981
 20
30.81465722496068
 30
0.0
 11
0.0546359898518602
 21
0.0546359898518602
 31
0.0
210
0.0
220
0.0
230
1.0
 40
0.9972650000001605
 41
5.499156671652412
 42
7.067213942706636
  0
ELLIPSE
  5
89
330
2
100
AcDbEntity
  8
GAIKEI
  6
Continuous
 62
     1
370
     9
100
AcDbEllipse
 10
7.506923125705981
 20
3.074846872976081
 30
0.0
 11
-0.0546359898518543
 21
0.0546359898518543
 31
0.0
210
0.0
220
0.0
230
1.0
 40
0.9972650000003774
 41
2.357564018062574
 42
3.925621289116857
  0
ELLIPSE
  5
8A
330
2
100
AcDbEntity
  8
GAIKEI
  6
Continuous
 62
     1
370
     9
100
AcDbEllipse
 10
7.541433049583332
 20
3.0403369490989
 30
0.0
 11
-0.0641379011304484
 21
0.0641379011304484
 31
0.0
210
0.0
220
0.0
230
1.0
 40
0.9972649999999571
 41
2.357564018062767
 42
3.925621289117131
  0
ELLIPSE
  5
8B
330
2
100
AcDbEntity
  8
GAIKEI
  6
Continuous
 62
     1
370
     9
100
AcDbEllipse
 10
7.541433049583332
 20
30.84916714883792
 30
0.0
 11
0.064137901130439
 21
0.064137901130439
 31
0.0
210
0.0
220
0.0
230
1.0
 40
0.9972650000002529
 41
5.499156671652814
 42
7.067213942706437
  0
ELLIPSE
  5
8C
330
2
100
AcDbEntity
  8
GAIKEI
  6
Continuous
 62
     1
370
     9
100
AcDbEllipse
 10
-41.21061213379421
 20
3.0403369490989
 30
0.0
 11
0.0641379011304508
 21
0.0641379011304508
 31
0.0
210
0.0
220
0.0
230
1.0
 40
0.9972649999996747
 41
2.35756401806273
 42
3.925621289117063
  0
ELLIPSE
  5
8D
330
2
100
AcDbEntity
  8
GAIKEI
  6
Continuous
 62
     1
370
     9
100
AcDbEllipse
 10
7.016404877305873
 20
3.565365121376316
 30
0.0
 11
-0.0549756823565914
 21
0.0429209826104301
 31
0.0
210
0.0
220
0.0
230
1.0
 40
0.9600870000003329
 41
3.014032981953347
 42
3.792004803879415
  0
ELLIPSE
  5
8E
330
2
100
AcDbEntity
  8
GAIKEI
  6
Continuous
 62
     1
370
     9
100
AcDbEllipse
 10
7.016404877305873
 20
3.565365121376316
 30
0.0
 11
-0.0429209826098421
 21
0.0549756823570513
 31
0.0
210
0.0
220
0.0
230
1.0
 40
0.9600869999991987
 41
2.491180503310882
 42
3.269152325237547
  0
ELLIPSE
  5
8F
330
2
100
AcDbEntity
  8
GAIKEI
  6
Continuous
 62
     1
370
     9
100
AcDbEllipse
 10
-40.68558396151679
 20
3.565365121376316
 30
0.0
 11
0.0549756823567254
 21
0.0429209826102518
 31
0.0
210
0.0
220
0.0
230
1.0
 40
0.9600870000001584
 41
2.491180503303318
 42
3.269152325227263
  0
ELLIPSE
  5
90
330
2
100
AcDbEntity
  8
GAIKEI
  6
Continuous
 62
     1
370
     9
100
AcDbEllipse
 10
-40.68558396151679
 20
3.565365121376316
 30
0.0
 11
0.0429209826105196
 21
0.0549756823565207
 31
0.0
210
0.0
220
0.0
230
1.0
 40
0.9600869999997984
 41
3.014032981957602
 42
3.792004803881049
  0
ELLIPSE
  5
91
330
2
100
AcDbEntity
  8
GAIKEI
  6
Continuous
 62
     1
370
     9
100
AcDbEllipse
 10
-40.68558396151679
 20
30.32413897656051
 30
0.0
 11
-0.0429209826106466
 21
0.0549756823563931
 31
0.0
210
0.0
220
0.0
230
1.0
 40
0.9600870000008983
 41
-0.6504121502931558
 42
0.1275596716306826
  0
ELLIPSE
  5
92
330
2
100
AcDbEntity
  8
GAIKEI
  6
Continuous
 62
     1
370
     9
100
AcDbEllipse
 10
-40.68558396151679
 20
30.32413897656051
 30
0.0
 11
-0.0549756823571982
 21
0.0429209826096519
 31
0.0
210
0.0
220
0.0
230
1.0
 40
0.9600869999989003
 41
-0.1275596716503275
 42
0.6504121502760265
  0
ELLIPSE
  5
93
330
2
100
AcDbEntity
  8
GAIKEI
  6
Continuous
 62
     1
370
     9
100
AcDbEllipse
 10
7.016404877305873
 20
30.32413897656051
 30
0.0
 11
0.0429209826100707
 21
0.0549756823568591
 31
0.0
210
0.0
220
0.0
230
1.0
 40
0.9600869999993232
 41
-0.1275596716419847
 42
0.6504121502831693
  0
ELLIPSE
  5
94
330
2
100
AcDbEntity
  8
GAIKEI
  6
Continuous
 62
     1
370
     9
100
AcDbEllipse
 10
7.016404877305873
 20
30.32413897656051
 30
0.0
 11
0.0549756823564871
 21
0.0429209826105699
 31
0.0
210
0.0
220
0.0
230
1.0
 40
0.9600870000004436
 41
-0.6504121502920951
 42
0.1275596716325316
  0
ELLIPSE
  5
95
330
2
100
AcDbEntity
  8
GAIKEI
  6
Continuous
 62
     1
370
     9
100
AcDbEllipse
 10
7.506923125705981
 20
3.074846872976081
 30
0.0
 11
-0.047548489102347
 21
0.047548489102347
 31
0.0
210
0.0
220
0.0
230
1.0
 40
0.9964479999995504
 41
2.357564018061967
 42
3.925621289117018
  0
ELLIPSE
  5
96
330
2
100
AcDbEntity
  8
GAIKEI
  6
Continuous
 62
     1
370
     9
100
AcDbEllipse
 10
7.506923125705981
 20
30.81465722496068
 30
0.0
 11
0.0475484891023387
 21
0.0475484891023387
 31
0.0
210
0.0
220
0.0
230
1.0
 40
0.9964479999994756
 41
5.499156671652323
 42
7.067213942707025
  0
ELLIPSE
  5
97
330
2
100
AcDbEntity
  8
GAIKEI
  6
Continuous
 62
     1
370
     9
100
AcDbEllipse
 10
-41.17610220991697
 20
30.81465722496068
 30
0.0
 11
-0.0475484891023494
 21
0.0475484891023494
 31
0.0
210
0.0
220
0.0
230
1.0
 40
0.9964479999994509
 41
-0.7840286355278405
 42
0.7840286355272759
  0
ELLIPSE
  5
98
330
2
100
AcDbEntity
  8
GAIKEI
  6
Continuous
 62
     1
370
     9
100
AcDbEllipse
 10
-41.17610220991697
 20
3.074846872976081
 30
0.0
 11
0.0475484891023304
 21
0.0475484891023304
 31
0.0
210
0.0
220
0.0
230
1.0
 40
0.9964480000001058
 41
2.357564018062845
 42
3.925621289116881
  0
ELLIPSE
  5
99
330
2
100
AcDbEntity
  8
GAIKEI
  6
Continuous
 62
     1
370
     9
100
AcDbEllipse
 10
7.014550148805469
 20
30.32413897656051
 30
0.0
 11
0.0826977965571806
 21
0.0610037813335162
 31
0.0
210
0.0
220
0.0
230
1.0
 40
0.9775360000001272
 41
-0.6247474058836997
 42
0.1401753627270852
  0
ELLIPSE
  5
9A
330
2
100
AcDbEntity
  8
GAIKEI
  6
Continuous
 62
     1
370
     9
100
AcDbEllipse
 10
7.014550148805469
 20
3.565365121376316
 30
0.0
 11
-0.0826977965579277
 21
0.0610037813324959
 31
0.0
210
0.0
220
0.0
230
1.0
 40
0.9775359999994968
 41
3.001417290849375
 42
3.766340059461589
  0
ELLIPSE
  5
9B
330
2
100
AcDbEntity
  8
GAIKEI
  6
Continuous
 62
     1
370
     9
100
AcDbEllipse
 10
-40.68372923301645
 20
3.565365121376316
 30
0.0
 11
0.0826977965568181
 21
0.0610037813339922
 31
0.0
210
0.0
220
0.0
230
1.0
 40
0.9775360000005422
 41
2.51684524770043
 42
3.281768016312768
  0
ELLIPSE
  5
9C
330
2
100
AcDbEntity
  8
GAIKEI
  6
Continuous
 62
     1
370
     9
100
AcDbEllipse
 10
-40.68372923301645
 20
30.32413897656051
 30
0.0
 11
-0.0826977965579805
 21
0.0610037813324311
 31
0.0
210
0.0
220
0.0
230
1.0
 40
0.9775359999993989
 41
-0.1401753627412281
 42
0.6247474058710259
  0
ELLIPSE
  5
9D
330
2
100
AcDbEntity
  8
GAIKEI
  6
Continuous
 62
     1
370
     9
100
AcDbEllipse
 10
7.016404877305873
 20
3.567219849876607
 30
0.0
 11
-0.0610037813326966
 21
0.082697796557786
 31
0.0
210
0.0
220
0.0
230
1.0
 40
0.9775359999990362
 41
2.516845247715486
 42
3.281768016329299
  0
ELLIPSE
  5
9E
330
2
100
AcDbEntity
  8
GAIKEI
  6
Continuous
 62
     1
370
     9
100
AcDbEllipse
 10
-40.68558396151679
 20
3.567219849876607
 30
0.0
 11
0.0610037813335723
 21
0.082697796557123
 31
0.0
210
0.0
220
0.0
230
1.0
 40
0.9775360000006054
 41
3.0014172908612
 42
3.766340059474039
  0
ELLIPSE
  5
9F
330
2
100
AcDbEntity
  8
GAIKEI
  6
Continuous
 62
     1
370
     9
100
AcDbEllipse
 10
-40.68558396151679
 20
30.32228424806016
 30
0.0
 11
-0.0610037813334751
 21
0.0826977965572243
 31
0.0
210
0.0
220
0.0
230
1.0
 40
0.9775359999993282
 41
-0.6247474058835985
 42
0.1401753627298201
  0
ELLIPSE
  5
A0
330
2
100
AcDbEntity
  8
GAIKEI
  6
Continuous
 62
     1
370
     9
100
AcDbEllipse
 10
7.016404877305873
 20
30.32228424806016
 30
0.0
 11
0.061003781333266
 21
0.0826977965573586
 31
0.0
210
0.0
220
0.0
230
1.0
 40
0.9775360000001583
 41
-0.1401753627309337
 42
0.6247474058806981
  0
ELLIPSE
  5
A1
330
2
100
AcDbEntity
  8
GAIKEI
  6
Continuous
 62
     1
370
     9
100
AcDbEllipse
 10
7.504959916309729
 20
3.075882734873516
 30
0.0
 11
0.0013731664097406
 21
0.0503038050217697
 31
0.0
210
0.0
220
0.0
230
1.0
 40
0.997102000000453
 41
3.968779364607858
 42
4.739758946823243
  0
ELLIPSE
  5
A2
330
2
100
AcDbEntity
  8
GAIKEI
  6
Continuous
 62
     1
370
     9
100
AcDbEllipse
 10
7.505887263808688
 20
3.075882734873516
 30
0.0
 11
0.0118061769241556
 21
0.0660080559086414
 31
0.0
210
0.0
220
0.0
230
1.0
 40
0.9976840000000198
 41
4.105065915344749
 42
4.889094550871194
  0
ELLIPSE
  5
A3
330
2
100
AcDbEntity
  8
GAIKEI
  6
Continuous
 62
     1
370
     9
100
AcDbEllipse
 10
7.505887263808688
 20
3.076810082372446
 30
0.0
 11
0.050303805021893
 21
0.0013731664031756
 31
0.0
210
0.0
220
0.0
230
1.0
 40
0.9971020000013465
 41
4.685019014077012
 42
5.455998596293311
  0
ELLIPSE
  5
A4
330
2
100
AcDbEntity
  8
GAIKEI
  6
Continuous
 62
     1
370
     9
100
AcDbEllipse
 10
7.505887263808688
 20
3.075882734873516
 30
0.0
 11
0.0660080559107056
 21
0.0118061769121414
 31
0.0
210
0.0
220
0.0
230
1.0
 40
0.9976840000012686
 41
4.535683410079962
 42
5.319712045608908
  0
ELLIPSE
  5
A5
330
2
100
AcDbEntity
  8
GAIKEI
  6
Continuous
 62
     1
370
     9
100
AcDbEllipse
 10
-41.17506634801954
 20
3.076810082372446
 30
0.0
 11
-0.0503038050219397
 21
0.0013731664006753
 31
0.0
210
0.0
220
0.0
230
1.0
 40
0.9971020000017819
 41
0.8271867108375104
 42
1.598166293053648
  0
ELLIPSE
  5
A6
330
2
100
AcDbEntity
  8
GAIKEI
  6
Continuous
 62
     1
370
     9
100
AcDbEllipse
 10
-41.17506634801954
 20
3.075882734873516
 30
0.0
 11
-0.0660080559113399
 21
0.0118061769083752
 31
0.0
210
0.0
220
0.0
230
1.0
 40
0.9976840000019103
 41
0.9634732615154941
 42
1.747501897043506
  0
ELLIPSE
  5
A7
330
2
100
AcDbEntity
  8
GAIKEI
  6
Continuous
 62
     1
370
     9
100
AcDbEllipse
 10
-41.17413900052065
 20
3.075882734873516
 30
0.0
 11
-0.0013731664329395
 21
0.0503038050212892
 31
0.0
210
0.0
220
0.0
230
1.0
 40
0.9971019999974933
 41
1.543426359896666
 42
2.314405942109701
  0
ELLIPSE
  5
A8
330
2
100
AcDbEntity
  8
GAIKEI
  6
Continuous
 62
     1
370
     9
100
AcDbEllipse
 10
-41.17506634801954
 20
3.075882734873516
 30
0.0
 11
-0.0118061769239711
 21
0.0660080559086496
 31
0.0
210
0.0
220
0.0
230
1.0
 40
0.9976840000003612
 41
1.394090756311338
 42
2.178119391839048
  0
ELLIPSE
  5
A9
330
2
100
AcDbEntity
  8
GAIKEI
  6
Continuous
 62
     1
370
     9
100
AcDbEllipse
 10
-41.17506634801954
 20
30.81362136306336
 30
0.0
 11
0.0660080559073105
 21
0.0118061769318687
 31
0.0
210
0.0
220
0.0
230
1.0
 40
0.9976839999992982
 41
1.39409075619247
 42
2.178119391719092
  0
ELLIPSE
  5
AA
330
2
100
AcDbEntity
  8
GAIKEI
  6
Continuous
 62
     1
370
     9
100
AcDbEllipse
 10
-41.17506634801954
 20
30.81269401556438
 30
0.0
 11
0.0503038050218856
 21
0.001373166403186
 31
0.0
210
0.0
220
0.0
230
1.0
 40
0.997102000001487
 41
1.543426360486957
 42
2.31440594270331
  0
ELLIPSE
  5
AB
330
2
100
AcDbEntity
  8
GAIKEI
  6
Continuous
 62
     1
370
     9
100
AcDbEllipse
 10
-41.17506634801954
 20
30.81362136306336
 30
0.0
 11
0.0118061769225257
 21
0.0660080559089399
 31
0.0
210
0.0
220
0.0
230
1.0
 40
0.9976839999998999
 41
0.9634732617295975
 42
1.747501897256724
  0
ELLIPSE
  5
AC
330
2
100
AcDbEntity
  8
GAIKEI
  6
Continuous
 62
     1
370
     9
100
AcDbEllipse
 10
-41.17413900052065
 20
30.81362136306336
 30
0.0
 11
0.0013731664245326
 21
0.05030380502145
 31
0.0
210
0.0
220
0.0
230
1.0
 40
0.9971019999988806
 41
0.8271867113127537
 42
1.598166293526562
  0
ELLIPSE
  5
AD
330
2
100
AcDbEntity
  8
GAIKEI
  6
Continuous
 62
     1
370
     9
100
AcDbEllipse
 10
7.505887263808688
 20
30.81362136306336
 30
0.0
 11
-0.0118061769269083
 21
0.0660080559081745
 31
0.0
210
0.0
220
0.0
230
1.0
 40
0.9976839999996386
 41
4.535683409856705
 42
5.319712045383223
  0
ELLIPSE
  5
AE
330
2
100
AcDbEntity
  8
GAIKEI
  6
Continuous
 62
     1
370
     9
100
AcDbEllipse
 10
7.504959916309729
 20
30.81362136306336
 30
0.0
 11
-0.0013731664188133
 21
0.0503038050215838
 31
0.0
210
0.0
220
0.0
230
1.0
 40
0.9971019999991987
 41
4.685019013766368
 42
5.455998595981113
  0
ELLIPSE
  5
AF
330
2
100
AcDbEntity
  8
GAIKEI
  6
Continuous
 62
     1
370
     9
100
AcDbEllipse
 10
7.505887263808688
 20
30.81362136306336
 30
0.0
 11
-0.0660080559078869
 21
0.0118061769285643
 31
0.0
210
0.0
220
0.0
230
1.0
 40
0.9976839999992689
 41
4.105065915410249
 42
4.889094550937055
  0
ELLIPSE
  5
B0
330
2
100
AcDbEntity
  8
GAIKEI
  6
Continuous
 62
     1
370
     9
100
AcDbEllipse
 10
7.505887263808688
 20
30.81269401556438
 30
0.0
 11
-0.050303805021893
 21
0.0013731664031772
 31
0.0
210
0.0
220
0.0
230
1.0
 40
0.9971020000013457
 41
3.968779364476099
 42
4.739758946692398
  0
ELLIPSE
  5
B1
330
2
100
AcDbEntity
  8
GAIKEI
  6
Continuous
 62
     1
370
     9
100
AcDbEllipse
 10
7.541433049583332
 20
30.84916714883792
 30
0.0
 11
0.0712254018799783
 21
0.0712254018799783
 31
0.0
210
0.0
220
0.0
230
1.0
 40
0.9978099999999079
 41
5.499156671652654
 42
7.067213942706659
  0
ELLIPSE
  5
B2
330
2
100
AcDbEntity
  8
GAIKEI
  6
Continuous
 62
     1
370
     9
100
AcDbEllipse
 10
7.541433049583332
 20
3.0403369490989
 30
0.0
 11
-0.0712254018799676
 21
0.0712254018799676
 31
0.0
210
0.0
220
0.0
230
1.0
 40
0.9978100000002074
 41
2.357564018062964
 42
3.925621289116951
  0
ELLIPSE
  5
B3
330
2
100
AcDbEntity
  8
GAIKEI
  6
Continuous
 62
     1
370
     9
100
AcDbEllipse
 10
-41.21061213379421
 20
3.0403369490989
 30
0.0
 11
0.0712254018799854
 21
0.0712254018799854
 31
0.0
210
0.0
220
0.0
230
1.0
 40
0.997809999999708
 41
2.357564018062761
 42
3.925621289116825
  0
ELLIPSE
  5
B4
330
2
100
AcDbEntity
  8
GAIKEI
  6
Continuous
 62
     1
370
     9
100
AcDbEllipse
 10
-41.21061213379421
 20
30.84916714883792
 30
0.0
 11
-0.0712254018799759
 21
0.0712254018799759
 31
0.0
210
0.0
220
0.0
230
1.0
 40
0.9978099999999741
 41
-0.7840286355268988
 42
0.784028635527275
  0
ELLIPSE
  5
B5
330
2
100
AcDbEntity
  8
GAIKEI
  6
Continuous
 62
     1
370
     9
100
AcDbEllipse
 10
7.543540017943414
 20
3.038229980738776
 30
0.0
 11
-0.0713292224384029
 21
0.071329222438403
 31
0.0
210
0.0
220
0.0
230
1.0
 40
0.9963569999999071
 41
2.357564018062839
 42
3.925621289116628
  0
ELLIPSE
  5
B6
330
2
100
AcDbEntity
  8
GAIKEI
  6
Continuous
 62
     1
370
     9
100
AcDbEllipse
 10
7.543540017943414
 20
30.85127411719805
 30
0.0
 11
0.0713292224384089
 21
0.0713292224384089
 31
0.0
210
0.0
220
0.0
230
1.0
 40
0.9963569999997416
 41
5.499156671652102
 42
7.067213942706975
  0
ELLIPSE
  5
B7
330
2
100
AcDbEntity
  8
GAIKEI
  6
Continuous
 62
     1
370
     9
100
AcDbEllipse
 10
-41.21271910215426
 20
30.85127411719805
 30
0.0
 11
-0.0713292224384029
 21
0.0713292224384029
 31
0.0
210
0.0
220
0.0
230
1.0
 40
0.9963569999996717
 41
-0.7840286355271413
 42
0.7840286355269535
  0
ELLIPSE
  5
B8
330
2
100
AcDbEntity
  8
GAIKEI
  6
Continuous
 62
     1
370
     9
100
AcDbEllipse
 10
-41.21271910215426
 20
3.038229980738776
 30
0.0
 11
0.0713292224384077
 21
0.0713292224384077
 31
0.0
210
0.0
220
0.0
230
1.0
 40
0.9963569999997275
 41
2.357564018062491
 42
3.925621289116812
  0
ELLIPSE
  5
B9
330
2
100
AcDbEntity
  8
GAIKEI
  6
Continuous
 62
     1
370
     9
100
AcDbEllipse
 10
-41.21271910215426
 20
30.85127411719805
 30
0.0
 11
-0.0831417236876178
 21
0.0831417236876178
 31
0.0
210
0.0
220
0.0
230
1.0
 40
0.9972649999997813
 41
-0.7840286355271071
 42
0.7840286355270263
  0
ELLIPSE
  5
BA
330
2
100
AcDbEntity
  8
GAIKEI
  6
Continuous
 62
     1
370
     9
100
AcDbEllipse
 10
7.543540017943414
 20
30.85127411719805
 30
0.0
 11
0.0831417236876154
 21
0.0831417236876154
 31
0.0
210
0.0
220
0.0
230
1.0
 40
0.9972650000001205
 41
5.499156671652245
 42
7.067213942706805
  0
ELLIPSE
  5
BB
330
2
100
AcDbEntity
  8
GAIKEI
  6
Continuous
 62
     1
370
     9
100
AcDbEllipse
 10
7.543540017943414
 20
3.038229980738776
 30
0.0
 11
-0.0831417236876035
 21
0.0831417236876035
 31
0.0
210
0.0
220
0.0
230
1.0
 40
0.9972650000001632
 41
2.357564018062877
 42
3.925621289116789
  0
ELLIPSE
  5
BC
330
2
100
AcDbEntity
  8
GAIKEI
  6
Continuous
 62
     1
370
     9
100
AcDbEllipse
 10
-41.21271910215426
 20
3.038229980738776
 30
0.0
 11
0.083141723687613
 21
0.083141723687613
 31
0.0
210
0.0
220
0.0
230
1.0
 40
0.9972650000002177
 41
2.357564018062984
 42
3.92562128911652
  0
ELLIPSE
  5
BD
330
2
100
AcDbEntity
  8
GAIKEI
  6
Continuous
 62
     1
370
     9
100
AcDbEllipse
 10
-41.0343995252897
 20
2.095933995247776
 30
0.0
 11
0.014444776112312
 21
0.0086527626307588
 31
0.0
210
0.0
220
0.0
230
1.0
 40
0.9948400000010991
 41
-0.5374233790495796
 42
1.028811552784755
  0
ELLIPSE
  5
BE
330
2
100
AcDbEntity
  8
GAIKEI
  6
Continuous
 62
     1
370
     9
100
AcDbEllipse
 10
-41.0343995252897
 20
1.985421913393963
 30
0.0
 11
-0.014444776113031
 21
0.008652762629582
 31
0.0
210
0.0
220
0.0
230
1.0
 40
0.9948399999991048
 41
2.112781100720207
 42
3.679016032559289
  0
ELLIPSE
  5
BF
330
2
100
AcDbEntity
  8
GAIKEI
  6
Continuous
 62
     1
370
     9
100
AcDbEllipse
 10
-41.14487060015872
 20
1.985421913393963
 30
0.0
 11
0.0118773890982359
 21
0.0118773890982359
 31
0.0
210
0.0
220
0.0
230
1.0
 40
0.9972649999983378
 41
2.357564018061559
 42
3.925621289117461
  0
ELLIPSE
  5
C0
330
2
100
AcDbEntity
  8
GAIKEI
  6
Continuous
 62
     1
370
     9
100
AcDbEllipse
 10
-41.14487060015872
 20
2.095933995247776
 30
0.0
 11
-0.0118773890982359
 21
0.0118773890982359
 31
0.0
210
0.0
220
0.0
230
1.0
 40
0.9972650000000319
 41
-0.7840286355268223
 42
0.7840286355273851
  0
ARC
  5
C1
330
2
100
AcDbEntity
  8
GAIKEI
  6
Continuous
 62
     7
370
     9
100
AcDbCircle
 10
-42.60057453762499
 20
32.22740369917784
 30
0.0
 40
0.1340097541812133
100
AcDbArc
 50
90.0
 51
180.0
  0
ARC
  5
C2
330
2
100
AcDbEntity
  8
GAIKEI
  6
Continuous
 62
     7
370
     9
100
AcDbCircle
 10
-42.60057453762499
 20
1.662100398758923
 30
0.0
 40
0.1340097541812133
100
AcDbArc
 50
180.0
 51
270.0
  0
ARC
  5
C3
330
2
100
AcDbEntity
  8
GAIKEI
  6
Continuous
 62
     1
370
     9
100
AcDbCircle
 10
12.56163459798925
 20
1.741061458605429
 30
0.0
 40
3.561565611527932
100
AcDbArc
 50
180.0071079999998
 51
180.2196069999979
  0
ARC
  5
C4
330
2
100
AcDbEntity
  8
GAIKEI
  6
Continuous
 62
     1
370
     9
100
AcDbCircle
 10
8.852434192552863
 20
-1.968250945482907
 30
0.0
 40
3.561677844697058
100
AcDbArc
 50
89.78039599996803
 51
89.99288899997477
  0
ARC
  5
C5
330
2
100
AcDbEntity
  8
GAIKEI
  6
Continuous
 62
     1
370
     9
100
AcDbCircle
 10
-46.2308136822001
 20
1.741061458605429
 30
0.0
 40
3.561565611527932
100
AcDbArc
 50
359.780393000002
 51
359.9928920000002
  0
ARC
  5
C6
330
2
100
AcDbEntity
  8
GAIKEI
  6
Continuous
 62
     1
370
     9
100
AcDbCircle
 10
-42.5216132767639
 20
-1.968250811473126
 30
0.0
 40
3.561677677184866
100
AcDbArc
 50
90.00711100002524
 51
90.21960400003198
  0
ARC
  5
C7
330
2
100
AcDbEntity
  8
GAIKEI
  6
Continuous
 62
     1
370
     9
100
AcDbCircle
 10
8.852434393567506
 20
35.85764297776274
 30
0.0
 40
3.561565779040125
100
AcDbArc
 50
270.0071079999754
 51
270.2196069999736
  0
ARC
  5
C8
330
2
100
AcDbEntity
  8
GAIKEI
  6
Continuous
 62
     1
370
     9
100
AcDbCircle
 10
-42.5216134777785
 20
35.85764284375301
 30
0.0
 40
3.561565611527932
100
AcDbArc
 50
269.7803930000264
 51
269.9928920000246
  0
ARC
  5
C9
330
2
100
AcDbEntity
  8
GAIKEI
  6
Continuous
 62
     1
370
     9
100
AcDbCircle
 10
12.56174666364619
 20
32.14844243831675
 30
0.0
 40
3.561677677184866
100
AcDbArc
 50
179.7803960000006
 51
179.9928889999992
  0
ARC
  5
CA
330
2
100
AcDbEntity
  8
GAIKEI
  6
Continuous
 62
     1
370
     9
100
AcDbCircle
 10
-46.23092574785707
 20
32.14844243831675
 30
0.0
 40
3.561677677184866
100
AcDbArc
 50
0.0071110000008017
 51
0.2196039999994102
  0
ARC
  5
CB
330
2
100
AcDbEntity
  8
GAIKEI
  6
Continuous
 62
     1
370
     9
100
AcDbCircle
 10
-40.55943846925238
 20
2.140347708993147
 30
0.0
 40
0.0167512192726517
100
AcDbArc
 50
90.0
 51
180.0
  0
ARC
  5
CC
330
2
100
AcDbEntity
  8
GAIKEI
  6
Continuous
 62
     1
370
     9
100
AcDbCircle
 10
-40.36009895990782
 20
2.140347708993147
 30
0.0
 40
0.0167512192726517
100
AcDbArc
 50
0.0
 51
90.0
  0
ARC
  5
CD
330
2
100
AcDbEntity
  8
GAIKEI
  6
Continuous
 62
     1
370
     9
100
AcDbCircle
 10
-40.36009895990782
 20
1.941008199648592
 30
0.0
 40
0.0167512192726517
100
AcDbArc
 50
270.0
 51
0.0
  0
ARC
  5
CE
330
2
100
AcDbEntity
  8
GAIKEI
  6
Continuous
 62
     1
370
     9
100
AcDbCircle
 10
-40.55943846925238
 20
1.941008199648592
 30
0.0
 40
0.0167512192726517
100
AcDbArc
 50
180.0
 51
270.0
  0
ARC
  5
CF
330
2
100
AcDbEntity
  8
GAIKEI
  6
Continuous
 62
     1
370
     9
100
AcDbCircle
 10
-42.61163044285217
 20
32.85383651640513
 30
0.0
 40
0.5885431338472119
100
AcDbArc
 50
277.1564510000108
 51
278.7543319999868
  0
ARC
  5
D0
330
2
100
AcDbEntity
  8
GAIKEI
  6
Continuous
 62
     1
370
     9
100
AcDbCircle
 10
-43.23277114788209
 20
32.23926510353505
 30
0.0
 40
0.5943623399103386
100
AcDbArc
 50
351.2534910000011
 51
352.8357270000019
  0
ARC
  5
D1
330
2
100
AcDbEntity
  8
GAIKEI
  6
Continuous
 62
     1
370
     9
100
AcDbCircle
 10
9.563592063671109
 20
32.23926510353505
 30
0.0
 40
0.5943623399103386
100
AcDbArc
 50
187.1642729999981
 51
188.7465089999989
  0
ARC
  5
D2
330
2
100
AcDbEntity
  8
GAIKEI
  6
Continuous
 62
     1
370
     9
100
AcDbCircle
 10
8.942451358641335
 20
32.85383651640513
 30
0.0
 40
0.5885431338472119
100
AcDbArc
 50
261.2456680000132
 51
262.8435489999891
  0
ARC
  5
D3
330
2
100
AcDbEntity
  8
GAIKEI
  6
Continuous
 62
     1
370
     9
100
AcDbCircle
 10
-43.22700735485227
 20
1.651044493531685
 30
0.0
 40
0.5885431338472119
100
AcDbArc
 50
7.156450999999169
 51
8.754332000000388
  0
ARC
  5
D4
330
2
100
AcDbEntity
  8
GAIKEI
  6
Continuous
 62
     1
370
     9
100
AcDbCircle
 10
-42.61243594198219
 20
1.029903788501883
 30
0.0
 40
0.5943623399103386
100
AcDbArc
 50
81.25349100001235
 51
82.83572700001181
  0
ARC
  5
D5
330
2
100
AcDbEntity
  8
GAIKEI
  6
Continuous
 62
     1
370
     9
100
AcDbCircle
 10
8.943256857771302
 20
1.029903788501883
 30
0.0
 40
0.5943623399103386
100
AcDbArc
 50
97.16427299998819
 51
98.74650899998764
  0
ARC
  5
D6
330
2
100
AcDbEntity
  8
GAIKEI
  6
Continuous
 62
     1
370
     9
100
AcDbCircle
 10
9.557828270641408
 20
1.651044493531685
 30
0.0
 40
0.5885431338472119
100
AcDbArc
 50
171.2456679999996
 51
172.8435490000008
  0
LINE
  5
D7
330
2
100
AcDbEntity
  8
GAIKEI
  6
Continuous
 62
     7
370
     9
100
AcDbLine
 10
8.931395453414069
 20
1.52809064457773
 30
0.0
 11
-42.60057453762499
 21
1.52809064457773
 31
0.0
  0
LINE
  5
D8
330
2
100
AcDbEntity
  8
GAIKEI
  6
Continuous
 62
     7
370
     9
100
AcDbLine
 10
8.931395453414069
 20
32.36141345335904
 30
0.0
 11
-42.60057453762499
 21
32.36141345335904
 31
0.0
  0
LINE
  5
D9
330
2
100
AcDbEntity
  8
GAIKEI
  6
Continuous
 62
     7
370
     9
100
AcDbLine
 10
9.06540520759519
 20
32.22740369917784
 30
0.0
 11
9.06540520759519
 21
1.662100398758923
 31
0.0
  0
LINE
  5
DA
330
2
100
AcDbEntity
  8
GAIKEI
  6
Continuous
 62
     7
370
     9
100
AcDbLine
 10
-42.73458429180618
 20
32.22740369917784
 30
0.0
 11
-42.73458429180618
 21
1.662100398758923
 31
0.0
  0
LINE
  5
DB
330
2
100
AcDbEntity
  8
GAIKEI
  6
Continuous
 62
     1
370
     9
100
AcDbLine
 10
-42.53526444839306
 20
32.29610336412708
 30
0.0
 11
-42.60057453762499
 21
32.36141345335904
 31
0.0
  0
LINE
  5
DC
330
2
100
AcDbEntity
  8
GAIKEI
  6
Continuous
 62
     1
370
     9
100
AcDbLine
 10
-42.73458429180618
 20
32.22740369917784
 30
0.0
 11
-42.66927420257428
 21
32.16209360994594
 31
0.0
  0
LINE
  5
DD
330
2
100
AcDbEntity
  8
GAIKEI
  6
Continuous
 62
     1
370
     9
100
AcDbLine
 10
-42.66927420257428
 20
1.72741048799088
 30
0.0
 11
-42.73458429180618
 21
1.662100398758923
 31
0.0
  0
LINE
  5
DE
330
2
100
AcDbEntity
  8
GAIKEI
  6
Continuous
 62
     1
370
     9
100
AcDbLine
 10
-42.60057453762499
 20
1.52809064457773
 30
0.0
 11
-42.53526444839306
 21
1.59340073380963
 31
0.0
  0
LINE
  5
DF
330
2
100
AcDbEntity
  8
GAIKEI
  6
Continuous
 62
     1
370
     9
100
AcDbLine
 10
8.866085364182083
 20
32.29610336412708
 30
0.0
 11
8.931395453414069
 21
32.36141345335904
 31
0.0
  0
LINE
  5
E0
330
2
100
AcDbEntity
  8
GAIKEI
  6
Continuous
 62
     1
370
     9
100
AcDbLine
 10
9.06540520759519
 20
32.22740369917784
 30
0.0
 11
9.00009511836339
 21
32.16209360994594
 31
0.0
  0
LINE
  5
E1
330
2
100
AcDbEntity
  8
GAIKEI
  6
Continuous
 62
     1
370
     9
100
AcDbLine
 10
9.00009511836339
 20
1.72741048799088
 30
0.0
 11
9.06540520759519
 21
1.662100398758923
 31
0.0
  0
LINE
  5
E2
330
2
100
AcDbEntity
  8
GAIKEI
  6
Continuous
 62
     1
370
     9
100
AcDbLine
 10
8.931395453414069
 20
1.52809064457773
 30
0.0
 11
8.866085364182083
 21
1.59340073380963
 31
0.0
  0
LINE
  5
E3
330
2
100
AcDbEntity
  8
GAIKEI
  6
Continuous
 62
     1
370
     9
100
AcDbLine
 10
8.852876223727136
 20
1.593426865711705
 30
0.0
 11
-42.52205530793806
 21
1.593426865711705
 31
0.0
  0
LINE
  5
E4
330
2
100
AcDbEntity
  8
GAIKEI
  6
Continuous
 62
     1
370
     9
100
AcDbLine
 10
9.000068986461315
 20
32.14888446949089
 30
0.0
 11
9.000068986461315
 21
1.740619628445926
 31
0.0
  0
LINE
  5
E5
330
2
100
AcDbEntity
  8
GAIKEI
  6
Continuous
 62
     1
370
     9
100
AcDbLine
 10
-42.66924807067216
 20
32.14888446949089
 30
0.0
 11
-42.66924807067216
 21
1.740619628445926
 31
0.0
  0
LINE
  5
E6
330
2
100
AcDbEntity
  8
GAIKEI
  6
Continuous
 62
     1
370
     9
100
AcDbLine
 10
-42.52205530793806
 20
32.29607723222512
 30
0.0
 11
8.852876223727136
 21
32.29607723222512
 31
0.0
  0
LINE
  5
E7
330
2
100
AcDbEntity
  8
GAIKEI
  6
Continuous
 62
     1
370
     9
100
AcDbLine
 10
8.976141678862006
 20
1.740619628445926
 30
0.0
 11
9.000068986461315
 21
1.740619628445926
 31
0.0
  0
LINE
  5
E8
330
2
100
AcDbEntity
  8
GAIKEI
  6
Continuous
 62
     1
370
     9
100
AcDbLine
 10
8.852876223727136
 20
1.617354173311071
 30
0.0
 11
8.852876223727136
 21
1.593426865711705
 31
0.0
  0
LINE
  5
E9
330
2
100
AcDbEntity
  8
GAIKEI
  6
Continuous
 62
     1
370
     9
100
AcDbLine
 10
-42.6453207630729
 20
1.740619628445926
 30
0.0
 11
-42.66924807067216
 21
1.740619628445926
 31
0.0
  0
LINE
  5
EA
330
2
100
AcDbEntity
  8
GAIKEI
  6
Continuous
 62
     1
370
     9
100
AcDbLine
 10
-42.52205530793806
 20
1.617354173311071
 30
0.0
 11
-42.52205530793806
 21
1.593426865711705
 31
0.0
  0
LINE
  5
EB
330
2
100
AcDbEntity
  8
GAIKEI
  6
Continuous
 62
     1
370
     9
100
AcDbLine
 10
8.852876223727136
 20
32.29607723222512
 30
0.0
 11
8.852876223727136
 21
32.27214992462575
 31
0.0
  0
LINE
  5
EC
330
2
100
AcDbEntity
  8
GAIKEI
  6
Continuous
 62
     1
370
     9
100
AcDbLine
 10
-42.52205530793806
 20
32.29607723222512
 30
0.0
 11
-42.52205530793806
 21
32.27214992462575
 31
0.0
  0
LINE
  5
ED
330
2
100
AcDbEntity
  8
GAIKEI
  6
Continuous
 62
     1
370
     9
100
AcDbLine
 10
9.000068986461315
 20
32.14888446949089
 30
0.0
 11
8.976141678862006
 21
32.14888446949089
 31
0.0
  0
LINE
  5
EE
330
2
100
AcDbEntity
  8
GAIKEI
  6
Continuous
 62
     1
370
     9
100
AcDbLine
 10
-42.66924807067216
 20
32.14888446949089
 30
0.0
 11
-42.6453207630729
 21
32.14888446949089
 31
0.0
  0
LINE
  5
EF
330
2
100
AcDbEntity
  8
GAIKEI
  6
Continuous
 62
     1
370
     9
100
AcDbLine
 10
7.075360358004161
 20
3.572915063414711
 30
0.0
 11
7.075360358004161
 21
30.31658903452211
 31
0.0
  0
LINE
  5
F0
330
2
100
AcDbEntity
  8
GAIKEI
  6
Continuous
 62
     1
370
     9
100
AcDbLine
 10
-40.74453944221518
 20
30.31658903452211
 30
0.0
 11
-40.74453944221518
 21
3.572915063414711
 31
0.0
  0
LINE
  5
F1
330
2
100
AcDbEntity
  8
GAIKEI
  6
Continuous
 62
     1
370
     9
100
AcDbLine
 10
7.008854935267379
 20
30.38309445725889
 30
0.0
 11
-40.67803401947841
 21
30.38309445725889
 31
0.0
  0
LINE
  5
F2
330
2
100
AcDbEntity
  8
GAIKEI
  6
Continuous
 62
     1
370
     9
100
AcDbLine
 10
7.008854935267379
 20
3.506409640677929
 30
0.0
 11
-40.67803401947841
 21
3.506409640677929
 31
0.0
  0
LINE
  5
F3
330
2
100
AcDbEntity
  8
GAIKEI
  6
Continuous
 62
     1
370
     9
100
AcDbLine
 10
7.075360358004161
 20
3.572915063414711
 30
0.0
 11
7.085108361533073
 21
3.563167059885756
 31
0.0
  0
LINE
  5
F4
330
2
100
AcDbEntity
  8
GAIKEI
  6
Continuous
 62
     1
370
     9
100
AcDbLine
 10
7.018602938796306
 20
3.496661637148974
 30
0.0
 11
7.008854935267379
 21
3.506409640677929
 31
0.0
  0
LINE
  5
F5
330
2
100
AcDbEntity
  8
GAIKEI
  6
Continuous
 62
     1
370
     9
100
AcDbLine
 10
-40.74453944221518
 20
30.31658903452211
 30
0.0
 11
-40.75428744574404
 21
30.32633703805101
 31
0.0
  0
LINE
  5
F6
330
2
100
AcDbEntity
  8
GAIKEI
  6
Continuous
 62
     1
370
     9
100
AcDbLine
 10
-40.68778202300726
 20
30.39284246078779
 30
0.0
 11
-40.67803401947841
 21
30.38309445725889
 31
0.0
  0
LINE
  5
F7
330
2
100
AcDbEntity
  8
GAIKEI
  6
Continuous
 62
     1
370
     9
100
AcDbLine
 10
7.008854935267379
 20
30.38309445725889
 30
0.0
 11
7.018602938796306
 21
30.39284246078779
 31
0.0
  0
LINE
  5
F8
330
2
100
AcDbEntity
  8
GAIKEI
  6
Continuous
 62
     1
370
     9
100
AcDbLine
 10
7.085108361533073
 20
30.32633703805101
 30
0.0
 11
7.075360358004161
 21
30.31658903452211
 31
0.0
  0
LINE
  5
F9
330
2
100
AcDbEntity
  8
GAIKEI
  6
Continuous
 62
     1
370
     9
100
AcDbLine
 10
-40.67803401947841
 20
3.506409640677929
 30
0.0
 11
-40.68778202300726
 21
3.496661637148974
 31
0.0
  0
LINE
  5
FA
330
2
100
AcDbEntity
  8
GAIKEI
  6
Continuous
 62
     1
370
     9
100
AcDbLine
 10
-40.75428744574404
 20
3.563167059885756
 30
0.0
 11
-40.74453944221518
 21
3.572915063414711
 31
0.0
  0
LINE
  5
FB
330
2
100
AcDbEntity
  8
GAIKEI
  6
Continuous
 62
     1
370
     9
100
AcDbLine
 10
-41.25326355226724
 20
3.074635539593771
 30
0.0
 11
-41.25326355226724
 21
30.81486855834305
 31
0.0
  0
LINE
  5
FC
330
2
100
AcDbEntity
  8
GAIKEI
  6
Continuous
 62
     1
370
     9
100
AcDbLine
 10
-41.24322662370832
 20
3.074635539593771
 30
0.0
 11
-41.25326355226724
 21
3.074635539593771
 31
0.0
  0
LINE
  5
FD
330
2
100
AcDbEntity
  8
GAIKEI
  6
Continuous
 62
     1
370
     9
100
AcDbLine
 10
-41.25326355226724
 20
30.81486855834305
 30
0.0
 11
-41.24322662370832
 21
30.81486855834305
 31
0.0
  0
LINE
  5
FE
330
2
100
AcDbEntity
  8
GAIKEI
  6
Continuous
 62
     1
370
     9
100
AcDbLine
 10
7.584084468056204
 20
30.81486855834305
 30
0.0
 11
7.584084468056204
 21
3.074635539593771
 31
0.0
  0
LINE
  5
FF
330
2
100
AcDbEntity
  8
GAIKEI
  6
Continuous
 62
     1
370
     9
100
AcDbLine
 10
7.584084468056204
 20
30.81486855834305
 30
0.0
 11
7.574047539497399
 21
30.81486855834305
 31
0.0
  0
LINE
  5
100
330
2
100
AcDbEntity
  8
GAIKEI
  6
Continuous
 62
     1
370
     9
100
AcDbLine
 10
7.574047539497399
 20
3.074635539593771
 30
0.0
 11
7.584084468056204
 21
3.074635539593771
 31
0.0
  0
LINE
  5
101
330
2
100
AcDbEntity
  8
GAIKEI
  6
Continuous
 62
     1
370
     9
100
AcDbLine
 10
7.632013793692891
 20
3.040088830038996
 30
0.0
 11
7.632013793692891
 21
30.84941526789777
 31
0.0
  0
LINE
  5
102
330
2
100
AcDbEntity
  8
GAIKEI
  6
Continuous
 62
     1
370
     9
100
AcDbLine
 10
7.632013793692891
 20
3.040088830038996
 30
0.0
 11
7.642050722251696
 21
3.040088830038996
 31
0.0
  0
LINE
  5
103
330
2
100
AcDbEntity
  8
GAIKEI
  6
Continuous
 62
     1
370
     9
100
AcDbLine
 10
7.642050722251696
 20
30.84941526789777
 30
0.0
 11
7.632013793692891
 21
30.84941526789777
 31
0.0
  0
LINE
  5
104
330
2
100
AcDbEntity
  8
GAIKEI
  6
Continuous
 62
     1
370
     9
100
AcDbLine
 10
-41.31122980646269
 20
30.84941526789777
 30
0.0
 11
-41.30119287790377
 21
30.84941526789777
 31
0.0
  0
LINE
  5
105
330
2
100
AcDbEntity
  8
GAIKEI
  6
Continuous
 62
     1
370
     9
100
AcDbLine
 10
-41.30119287790377
 20
30.84941526789777
 30
0.0
 11
-41.30119287790377
 21
3.040088830038996
 31
0.0
  0
LINE
  5
106
330
2
100
AcDbEntity
  8
GAIKEI
  6
Continuous
 62
     1
370
     9
100
AcDbLine
 10
7.541681168643222
 20
2.949756204989341
 30
0.0
 11
7.541681168643222
 21
2.939719276430366
 31
0.0
  0
LINE
  5
107
330
2
100
AcDbEntity
  8
GAIKEI
  6
Continuous
 62
     1
370
     9
100
AcDbLine
 10
-41.21086025285406
 20
2.949756204989341
 30
0.0
 11
7.541681168643222
 21
2.949756204989341
 31
0.0
  0
LINE
  5
108
330
2
100
AcDbEntity
  8
GAIKEI
  6
Continuous
 62
     1
370
     9
100
AcDbLine
 10
-41.21086025285406
 20
2.949756204989341
 30
0.0
 11
-41.21086025285406
 21
2.939719276430366
 31
0.0
  0
LINE
  5
109
330
2
100
AcDbEntity
  8
GAIKEI
  6
Continuous
 62
     1
370
     9
100
AcDbLine
 10
-41.30119287790377
 20
3.040088830038996
 30
0.0
 11
-41.31122980646269
 21
3.040088830038996
 31
0.0
  0
LINE
  5
10A
330
2
100
AcDbEntity
  8
GAIKEI
  6
Continuous
 62
     1
370
     9
100
AcDbLine
 10
7.541681168643222
 20
30.9497848215064
 30
0.0
 11
7.541681168643222
 21
30.93974789294748
 31
0.0
  0
LINE
  5
10B
330
2
100
AcDbEntity
  8
GAIKEI
  6
Continuous
 62
     1
370
     9
100
AcDbLine
 10
-41.21086025285406
 20
30.9497848215064
 30
0.0
 11
-41.21086025285406
 21
30.93974789294748
 31
0.0
  0
LINE
  5
10C
330
2
100
AcDbEntity
  8
GAIKEI
  6
Continuous
 62
     1
370
     9
100
AcDbLine
 10
7.541681168643222
 20
30.93974789294748
 30
0.0
 11
-41.21086025285406
 21
30.93974789294748
 31
0.0
  0
LINE
  5
10D
330
2
100
AcDbEntity
  8
GAIKEI
  6
Continuous
 62
     1
370
     9
100
AcDbLine
 10
7.507134459088419
 20
3.007722459184776
 30
0.0
 11
7.507134459088419
 21
2.997685530625858
 31
0.0
  0
LINE
  5
10E
330
2
100
AcDbEntity
  8
GAIKEI
  6
Continuous
 62
     1
370
     9
100
AcDbLine
 10
-41.17631354329927
 20
3.007722459184776
 30
0.0
 11
-41.17631354329927
 21
2.997685530625858
 31
0.0
  0
LINE
  5
10F
330
2
100
AcDbEntity
  8
GAIKEI
  6
Continuous
 62
     1
370
     9
100
AcDbLine
 10
7.507134459088419
 20
2.997685530625858
 30
0.0
 11
-41.17631354329927
 21
2.997685530625858
 31
0.0
  0
LINE
  5
110
330
2
100
AcDbEntity
  8
GAIKEI
  6
Continuous
 62
     1
370
     9
100
AcDbLine
 10
7.507134459088419
 20
30.89181856731097
 30
0.0
 11
7.507134459088419
 21
30.88178163875199
 31
0.0
  0
LINE
  5
111
330
2
100
AcDbEntity
  8
GAIKEI
  6
Continuous
 62
     1
370
     9
100
AcDbLine
 10
-41.17631354329927
 20
30.89181856731097
 30
0.0
 11
7.507134459088419
 21
30.89181856731097
 31
0.0
  0
LINE
  5
112
330
2
100
AcDbEntity
  8
GAIKEI
  6
Continuous
 62
     1
370
     9
100
AcDbLine
 10
-41.17631354329927
 20
30.89181856731097
 30
0.0
 11
-41.17631354329927
 21
30.88178163875199
 31
0.0
  0
LINE
  5
113
330
2
100
AcDbEntity
  8
GAIKEI
  6
Continuous
 62
     1
370
     9
100
AcDbLine
 10
7.085108361533073
 20
3.563167059885756
 30
0.0
 11
7.085108361533073
 21
30.32633703805101
 31
0.0
  0
LINE
  5
114
330
2
100
AcDbEntity
  8
GAIKEI
  6
Continuous
 62
     1
370
     9
100
AcDbLine
 10
-40.75428744574404
 20
30.32633703805101
 30
0.0
 11
-40.75428744574404
 21
3.563167059885756
 31
0.0
  0
LINE
  5
115
330
2
100
AcDbEntity
  8
GAIKEI
  6
Continuous
 62
     1
370
     9
100
AcDbLine
 10
7.018602938796306
 20
30.39284246078779
 30
0.0
 11
-40.68778202300726
 21
30.39284246078779
 31
0.0
  0
LINE
  5
116
330
2
100
AcDbEntity
  8
GAIKEI
  6
Continuous
 62
     1
370
     9
100
AcDbLine
 10
-40.68778202300726
 20
3.496661637148974
 30
0.0
 11
7.018602938796306
 21
3.496661637148974
 31
0.0
  0
LINE
  5
117
330
2
100
AcDbEntity
  8
GAIKEI
  6
Continuous
 62
     1
370
     9
100
AcDbLine
 10
7.116506377903704
 20
3.563167059885756
 30
0.0
 11
7.085108361533073
 21
3.563167059885756
 31
0.0
  0
LINE
  5
118
330
2
100
AcDbEntity
  8
GAIKEI
  6
Continuous
 62
     1
370
     9
100
AcDbLine
 10
7.088105020651184
 20
3.493664978030892
 30
0.0
 11
7.065691654747411
 21
3.516078343934793
 31
0.0
  0
LINE
  5
119
330
2
100
AcDbEntity
  8
GAIKEI
  6
Continuous
 62
     1
370
     9
100
AcDbLine
 10
7.018602938796306
 20
3.4652636207785
 30
0.0
 11
7.018602938796306
 21
3.496661637148974
 31
0.0
  0
LINE
  5
11A
330
2
100
AcDbEntity
  8
GAIKEI
  6
Continuous
 62
     1
370
     9
100
AcDbLine
 10
-40.78568546211454
 20
3.563167059885756
 30
0.0
 11
-40.75428744574404
 21
3.563167059885756
 31
0.0
  0
LINE
  5
11B
330
2
100
AcDbEntity
  8
GAIKEI
  6
Continuous
 62
     1
370
     9
100
AcDbLine
 10
-40.68778202300726
 20
3.4652636207785
 30
0.0
 11
-40.68778202300726
 21
3.496661637148974
 31
0.0
  0
LINE
  5
11C
330
2
100
AcDbEntity
  8
GAIKEI
  6
Continuous
 62
     1
370
     9
100
AcDbLine
 10
-40.73487073895826
 20
3.516078343934793
 30
0.0
 11
-40.75728410486222
 21
3.493664978030892
 31
0.0
  0
LINE
  5
11D
330
2
100
AcDbEntity
  8
GAIKEI
  6
Continuous
 62
     1
370
     9
100
AcDbLine
 10
-40.68778202300726
 20
30.39284246078779
 30
0.0
 11
-40.68778202300726
 21
30.42424047715832
 31
0.0
  0
LINE
  5
11E
330
2
100
AcDbEntity
  8
GAIKEI
  6
Continuous
 62
     1
370
     9
100
AcDbLine
 10
-40.73487073895826
 20
30.37342575400203
 30
0.0
 11
-40.75728410486222
 21
30.39583911990593
 31
0.0
  0
LINE
  5
11F
330
2
100
AcDbEntity
  8
GAIKEI
  6
Continuous
 62
     1
370
     9
100
AcDbLine
 10
-40.75428744574404
 20
30.32633703805101
 30
0.0
 11
-40.78568546211454
 21
30.32633703805101
 31
0.0
  0
LINE
  5
120
330
2
100
AcDbEntity
  8
GAIKEI
  6
Continuous
 62
     1
370
     9
100
AcDbLine
 10
7.018602938796306
 20
30.39284246078779
 30
0.0
 11
7.018602938796306
 21
30.42424047715832
 31
0.0
  0
LINE
  5
121
330
2
100
AcDbEntity
  8
GAIKEI
  6
Continuous
 62
     1
370
     9
100
AcDbLine
 10
7.085108361533073
 20
30.32633703805101
 30
0.0
 11
7.116506377903704
 21
30.32633703805101
 31
0.0
  0
LINE
  5
122
330
2
100
AcDbEntity
  8
GAIKEI
  6
Continuous
 62
     1
370
     9
100
AcDbLine
 10
7.088105020651184
 20
30.39583911990593
 30
0.0
 11
7.065691654747411
 21
30.37342575400203
 31
0.0
  0
LINE
  5
123
330
2
100
AcDbEntity
  8
GAIKEI
  6
Continuous
 62
     1
370
     9
100
AcDbLine
 10
7.574047539497399
 20
3.074635539593771
 30
0.0
 11
7.574047539497399
 21
30.81486855834305
 31
0.0
  0
LINE
  5
124
330
2
100
AcDbEntity
  8
GAIKEI
  6
Continuous
 62
     1
370
     9
100
AcDbLine
 10
-41.24322662370832
 20
30.81486855834305
 30
0.0
 11
-41.24322662370832
 21
3.074635539593771
 31
0.0
  0
LINE
  5
125
330
2
100
AcDbEntity
  8
GAIKEI
  6
Continuous
 62
     1
370
     9
100
AcDbLine
 10
-41.17631354329927
 20
3.007722459184776
 30
0.0
 11
7.507134459088419
 21
3.007722459184776
 31
0.0
  0
LINE
  5
126
330
2
100
AcDbEntity
  8
GAIKEI
  6
Continuous
 62
     1
370
     9
100
AcDbLine
 10
7.507134459088419
 20
30.88178163875199
 30
0.0
 11
-41.17631354329927
 21
30.88178163875199
 31
0.0
  0
LINE
  5
127
330
2
100
AcDbEntity
  8
GAIKEI
  6
Continuous
 62
     1
370
     9
100
AcDbLine
 10
7.507134459088419
 20
3.007722459184776
 30
0.0
 11
7.505879323730653
 21
3.008977628044931
 31
0.0
  0
LINE
  5
128
330
2
100
AcDbEntity
  8
GAIKEI
  6
Continuous
 62
     1
370
     9
100
AcDbLine
 10
7.57279237063733
 20
3.075890674951438
 30
0.0
 11
7.574047539497399
 21
3.074635539593771
 31
0.0
  0
LINE
  5
129
330
2
100
AcDbEntity
  8
GAIKEI
  6
Continuous
 62
     1
370
     9
100
AcDbLine
 10
7.574047539497399
 20
30.81486855834305
 30
0.0
 11
7.57279237063733
 21
30.81361342298539
 31
0.0
  0
LINE
  5
12A
330
2
100
AcDbEntity
  8
GAIKEI
  6
Continuous
 62
     1
370
     9
100
AcDbLine
 10
7.505879323730653
 20
30.88052646989195
 30
0.0
 11
7.507134459088419
 21
30.88178163875199
 31
0.0
  0
LINE
  5
12B
330
2
100
AcDbEntity
  8
GAIKEI
  6
Continuous
 62
     1
370
     9
100
AcDbLine
 10
-41.17631354329927
 20
30.88178163875199
 30
0.0
 11
-41.17505840794166
 21
30.88052646989195
 31
0.0
  0
LINE
  5
12C
330
2
100
AcDbEntity
  8
GAIKEI
  6
Continuous
 62
     1
370
     9
100
AcDbLine
 10
-41.24197145484822
 20
30.81361342298539
 30
0.0
 11
-41.24322662370832
 21
30.81486855834305
 31
0.0
  0
LINE
  5
12D
330
2
100
AcDbEntity
  8
GAIKEI
  6
Continuous
 62
     1
370
     9
100
AcDbLine
 10
-41.24322662370832
 20
3.074635539593771
 30
0.0
 11
-41.24197145484822
 21
3.075890674951438
 31
0.0
  0
LINE
  5
12E
330
2
100
AcDbEntity
  8
GAIKEI
  6
Continuous
 62
     1
370
     9
100
AcDbLine
 10
-41.17505840794166
 20
3.008977628044931
 30
0.0
 11
-41.17631354329927
 21
3.007722459184776
 31
0.0
  0
LINE
  5
12F
330
2
100
AcDbEntity
  8
GAIKEI
  6
Continuous
 62
     1
370
     9
100
AcDbLine
 10
7.116506377903704
 20
30.32633703805101
 30
0.0
 11
7.116506377903704
 21
3.563167059885756
 31
0.0
  0
LINE
  5
130
330
2
100
AcDbEntity
  8
GAIKEI
  6
Continuous
 62
     1
370
     9
100
AcDbLine
 10
-40.78568546211454
 20
3.563167059885756
 30
0.0
 11
-40.78568546211454
 21
30.32633703805101
 31
0.0
  0
LINE
  5
131
330
2
100
AcDbEntity
  8
GAIKEI
  6
Continuous
 62
     1
370
     9
100
AcDbLine
 10
7.088105020651184
 20
3.493664978030892
 30
0.0
 11
7.540948168790151
 21
3.040821829891967
 31
0.0
  0
LINE
  5
132
330
2
100
AcDbEntity
  8
GAIKEI
  6
Continuous
 62
     1
370
     9
100
AcDbLine
 10
7.018602938796306
 20
3.4652636207785
 30
0.0
 11
-40.68778202300726
 21
3.4652636207785
 31
0.0
  0
LINE
  5
133
330
2
100
AcDbEntity
  8
GAIKEI
  6
Continuous
 62
     1
370
     9
100
AcDbLine
 10
-40.75728410486222
 20
3.493664978030892
 30
0.0
 11
-41.21012725300107
 21
3.040821829891967
 31
0.0
  0
LINE
  5
134
330
2
100
AcDbEntity
  8
GAIKEI
  6
Continuous
 62
     1
370
     9
100
AcDbLine
 10
7.088105020651184
 20
30.39583911990593
 30
0.0
 11
7.540948168790151
 21
30.84868226804491
 31
0.0
  0
LINE
  5
135
330
2
100
AcDbEntity
  8
GAIKEI
  6
Continuous
 62
     1
370
     9
100
AcDbLine
 10
-40.75728410486222
 20
30.39583911990593
 30
0.0
 11
-41.21012725300107
 21
30.84868226804491
 31
0.0
  0
LINE
  5
136
330
2
100
AcDbEntity
  8
GAIKEI
  6
Continuous
 62
     1
370
     9
100
AcDbLine
 10
-40.68778202300726
 20
30.42424047715832
 30
0.0
 11
7.018602938796306
 21
30.42424047715832
 31
0.0
  0
LINE
  5
137
330
2
100
AcDbEntity
  8
GAIKEI
  6
Continuous
 62
     1
370
     9
100
AcDbLine
 10
7.57279237063733
 20
30.81361342298539
 30
0.0
 11
7.57279237063733
 21
3.075890674951438
 31
0.0
  0
LINE
  5
138
330
2
100
AcDbEntity
  8
GAIKEI
  6
Continuous
 62
     1
370
     9
100
AcDbLine
 10
7.555136719533592
 20
3.075890674951438
 30
0.0
 11
7.555136719533592
 21
30.81361342298539
 31
0.0
  0
LINE
  5
139
330
2
100
AcDbEntity
  8
GAIKEI
  6
Continuous
 62
     1
370
     9
100
AcDbLine
 10
-41.17505840794166
 20
30.88052646989195
 30
0.0
 11
7.505879323730653
 21
30.88052646989195
 31
0.0
  0
LINE
  5
13A
330
2
100
AcDbEntity
  8
GAIKEI
  6
Continuous
 62
     1
370
     9
100
AcDbLine
 10
7.505879323730653
 20
30.86287081878828
 30
0.0
 11
-41.17505840794166
 21
30.86287081878828
 31
0.0
  0
LINE
  5
13B
330
2
100
AcDbEntity
  8
GAIKEI
  6
Continuous
 62
     1
370
     9
100
AcDbLine
 10
-41.17505840794166
 20
3.026633279148484
 30
0.0
 11
7.505879323730653
 21
3.026633279148484
 31
0.0
  0
LINE
  5
13C
330
2
100
AcDbEntity
  8
GAIKEI
  6
Continuous
 62
     1
370
     9
100
AcDbLine
 10
7.505879323730653
 20
3.008977628044931
 30
0.0
 11
-41.17505840794166
 21
3.008977628044931
 31
0.0
  0
LINE
  5
13D
330
2
100
AcDbEntity
  8
GAIKEI
  6
Continuous
 62
     1
370
     9
100
AcDbLine
 10
-41.24197145484822
 20
3.075890674951438
 30
0.0
 11
-41.24197145484822
 21
30.81361342298539
 31
0.0
  0
LINE
  5
13E
330
2
100
AcDbEntity
  8
GAIKEI
  6
Continuous
 62
     1
370
     9
100
AcDbLine
 10
-41.22431580374457
 20
30.81361342298539
 30
0.0
 11
-41.22431580374457
 21
3.075890674951438
 31
0.0
  0
LINE
  5
13F
330
2
100
AcDbEntity
  8
GAIKEI
  6
Continuous
 62
     1
370
     9
100
AcDbLine
 10
7.57279237063733
 20
3.075890674951438
 30
0.0
 11
7.555136719533592
 21
3.075890674951438
 31
0.0
  0
LINE
  5
140
330
2
100
AcDbEntity
  8
GAIKEI
  6
Continuous
 62
     1
370
     9
100
AcDbLine
 10
7.553228722156106
 20
3.028541276526084
 30
0.0
 11
7.540948168790151
 21
3.040821829891967
 31
0.0
  0
LINE
  5
141
330
2
100
AcDbEntity
  8
GAIKEI
  6
Continuous
 62
     1
370
     9
100
AcDbLine
 10
7.505879323730653
 20
3.008977628044931
 30
0.0
 11
7.505879323730653
 21
3.026633279148484
 31
0.0
  0
LINE
  5
142
330
2
100
AcDbEntity
  8
GAIKEI
  6
Continuous
 62
     1
370
     9
100
AcDbLine
 10
-41.17505840794166
 20
3.008977628044931
 30
0.0
 11
-41.17505840794166
 21
3.026633279148484
 31
0.0
  0
LINE
  5
143
330
2
100
AcDbEntity
  8
GAIKEI
  6
Continuous
 62
     1
370
     9
100
AcDbLine
 10
-41.21012725300107
 20
3.040821829891967
 30
0.0
 11
-41.22240780636698
 21
3.028541276526084
 31
0.0
  0
LINE
  5
144
330
2
100
AcDbEntity
  8
GAIKEI
  6
Continuous
 62
     1
370
     9
100
AcDbLine
 10
-41.24197145484822
 20
3.075890674951438
 30
0.0
 11
-41.22431580374457
 21
3.075890674951438
 31
0.0
  0
LINE
  5
145
330
2
100
AcDbEntity
  8
GAIKEI
  6
Continuous
 62
     1
370
     9
100
AcDbLine
 10
-41.17505840794166
 20
30.86287081878828
 30
0.0
 11
-41.17505840794166
 21
30.88052646989195
 31
0.0
  0
LINE
  5
146
330
2
100
AcDbEntity
  8
GAIKEI
  6
Continuous
 62
     1
370
     9
100
AcDbLine
 10
-41.21012725300107
 20
30.84868226804491
 30
0.0
 11
-41.22240780636698
 21
30.86096282141074
 31
0.0
  0
LINE
  5
147
330
2
100
AcDbEntity
  8
GAIKEI
  6
Continuous
 62
     1
370
     9
100
AcDbLine
 10
-41.22431580374457
 20
30.81361342298539
 30
0.0
 11
-41.24197145484822
 21
30.81361342298539
 31
0.0
  0
LINE
  5
148
330
2
100
AcDbEntity
  8
GAIKEI
  6
Continuous
 62
     1
370
     9
100
AcDbLine
 10
7.555136719533592
 20
30.81361342298539
 30
0.0
 11
7.57279237063733
 21
30.81361342298539
 31
0.0
  0
LINE
  5
149
330
2
100
AcDbEntity
  8
GAIKEI
  6
Continuous
 62
     1
370
     9
100
AcDbLine
 10
7.553228722156106
 20
30.86096282141074
 30
0.0
 11
7.540948168790151
 21
30.84868226804491
 31
0.0
  0
LINE
  5
14A
330
2
100
AcDbEntity
  8
GAIKEI
  6
Continuous
 62
     1
370
     9
100
AcDbLine
 10
7.505879323730653
 20
30.86287081878828
 30
0.0
 11
7.505879323730653
 21
30.88052646989195
 31
0.0
  0
LINE
  5
14B
330
2
100
AcDbEntity
  8
GAIKEI
  6
Continuous
 62
     1
370
     9
100
AcDbLine
 10
-41.31122980646269
 20
3.040088830038996
 30
0.0
 11
-41.31122980646269
 21
30.84941526789777
 31
0.0
  0
LINE
  5
14C
330
2
100
AcDbEntity
  8
GAIKEI
  6
Continuous
 62
     1
370
     9
100
AcDbLine
 10
7.642050722251696
 20
30.84941526789777
 30
0.0
 11
7.642050722251696
 21
3.040088830038996
 31
0.0
  0
LINE
  5
14D
330
2
100
AcDbEntity
  8
GAIKEI
  6
Continuous
 62
     1
370
     9
100
AcDbLine
 10
-41.21086025285406
 20
30.9497848215064
 30
0.0
 11
7.541681168643222
 21
30.9497848215064
 31
0.0
  0
LINE
  5
14E
330
2
100
AcDbEntity
  8
GAIKEI
  6
Continuous
 62
     1
370
     9
100
AcDbLine
 10
7.541681168643222
 20
2.939719276430366
 30
0.0
 11
-41.21086025285406
 21
2.939719276430366
 31
0.0
  0
LINE
  5
14F
330
2
100
AcDbEntity
  8
GAIKEI
  6
Continuous
 62
     1
370
     9
100
AcDbLine
 10
7.541681168643222
 20
30.9497848215064
 30
0.0
 11
7.543861607850928
 21
30.95196529421668
 31
0.0
  0
LINE
  5
150
330
2
100
AcDbEntity
  8
GAIKEI
  6
Continuous
 62
     1
370
     9
100
AcDbLine
 10
7.64423119496206
 20
30.85159570710562
 30
0.0
 11
7.642050722251696
 21
30.84941526789777
 31
0.0
  0
LINE
  5
151
330
2
100
AcDbEntity
  8
GAIKEI
  6
Continuous
 62
     1
370
     9
100
AcDbLine
 10
7.642050722251696
 20
3.040088830038996
 30
0.0
 11
7.64423119496206
 21
3.037908390831205
 31
0.0
  0
LINE
  5
152
330
2
100
AcDbEntity
  8
GAIKEI
  6
Continuous
 62
     1
370
     9
100
AcDbLine
 10
7.543861607850928
 20
2.937538803720087
 30
0.0
 11
7.541681168643222
 21
2.939719276430366
 31
0.0
  0
LINE
  5
153
330
2
100
AcDbEntity
  8
GAIKEI
  6
Continuous
 62
     1
370
     9
100
AcDbLine
 10
-41.21086025285406
 20
2.939719276430366
 30
0.0
 11
-41.21304069206192
 21
2.937538803720087
 31
0.0
  0
LINE
  5
154
330
2
100
AcDbEntity
  8
GAIKEI
  6
Continuous
 62
     1
370
     9
100
AcDbLine
 10
-41.31341027917289
 20
3.037908390831205
 30
0.0
 11
-41.31122980646269
 21
3.040088830038996
 31
0.0
  0
LINE
  5
155
330
2
100
AcDbEntity
  8
GAIKEI
  6
Continuous
 62
     1
370
     9
100
AcDbLine
 10
-41.31122980646269
 20
30.84941526789777
 30
0.0
 11
-41.31341027917289
 21
30.85159570710562
 31
0.0
  0
LINE
  5
156
330
2
100
AcDbEntity
  8
GAIKEI
  6
Continuous
 62
     1
370
     9
100
AcDbLine
 10
-41.21304069206192
 20
30.95196529421668
 30
0.0
 11
-41.21086025285406
 21
30.9497848215064
 31
0.0
  0
LINE
  5
157
330
2
100
AcDbEntity
  8
GAIKEI
  6
Continuous
 62
     1
370
     9
100
AcDbLine
 10
-42.6453207630729
 20
1.740619628445926
 30
0.0
 11
-42.6453207630729
 21
32.14888446949089
 31
0.0
  0
LINE
  5
158
330
2
100
AcDbEntity
  8
GAIKEI
  6
Continuous
 62
     1
370
     9
100
AcDbLine
 10
8.976141678862006
 20
1.740619628445926
 30
0.0
 11
8.976141678862006
 21
32.14888446949089
 31
0.0
  0
LINE
  5
159
330
2
100
AcDbEntity
  8
GAIKEI
  6
Continuous
 62
     1
370
     9
100
AcDbLine
 10
8.852876223727136
 20
32.27214992462575
 30
0.0
 11
-42.52205530793806
 21
32.27214992462575
 31
0.0
  0
LINE
  5
15A
330
2
100
AcDbEntity
  8
GAIKEI
  6
Continuous
 62
     1
370
     9
100
AcDbLine
 10
-42.52205530793806
 20
1.617354173311071
 30
0.0
 11
8.852876223727136
 21
1.617354173311071
 31
0.0
  0
LINE
  5
15B
330
2
100
AcDbEntity
  8
GAIKEI
  6
Continuous
 62
     1
370
     9
100
AcDbLine
 10
8.788057514761376
 20
31.96080030539025
 30
0.0
 11
8.788057514761376
 21
1.928703792546514
 31
0.0
  0
LINE
  5
15C
330
2
100
AcDbEntity
  8
GAIKEI
  6
Continuous
 62
     1
370
     9
100
AcDbLine
 10
7.660959465064337
 20
3.037908390831205
 30
0.0
 11
7.64423119496206
 21
3.037908390831205
 31
0.0
  0
LINE
  5
15D
330
2
100
AcDbEntity
  8
GAIKEI
  6
Continuous
 62
     1
370
     9
100
AcDbLine
 10
7.64423119496206
 20
30.85159570710562
 30
0.0
 11
7.660959465064337
 21
30.85159570710562
 31
0.0
  0
LINE
  5
15E
330
2
100
AcDbEntity
  8
GAIKEI
  6
Continuous
 62
     1
370
     9
100
AcDbLine
 10
7.64423119496206
 20
3.037908390831205
 30
0.0
 11
7.64423119496206
 21
30.85159570710562
 31
0.0
  0
LINE
  5
15F
330
2
100
AcDbEntity
  8
GAIKEI
  6
Continuous
 62
     1
370
     9
100
AcDbLine
 10
7.543861607850928
 20
2.920810533617839
 30
0.0
 11
7.543861607850928
 21
2.937538803720087
 31
0.0
  0
LINE
  5
160
330
2
100
AcDbEntity
  8
GAIKEI
  6
Continuous
 62
     1
370
     9
100
AcDbLine
 10
-41.21304069206192
 20
2.937538803720087
 30
0.0
 11
7.543861607850928
 21
2.937538803720087
 31
0.0
  0
LINE
  5
161
330
2
100
AcDbEntity
  8
GAIKEI
  6
Continuous
 62
     1
370
     9
100
AcDbLine
 10
7.543861607850928
 20
30.95196529421668
 30
0.0
 11
7.543861607850928
 21
30.96869356431893
 31
0.0
  0
LINE
  5
162
330
2
100
AcDbEntity
  8
GAIKEI
  6
Continuous
 62
     1
370
     9
100
AcDbLine
 10
7.543861607850928
 20
30.95196529421668
 30
0.0
 11
-41.21304069206192
 21
30.95196529421668
 31
0.0
  0
LINE
  5
163
330
2
100
AcDbEntity
  8
GAIKEI
  6
Continuous
 62
     1
370
     9
100
AcDbLine
 10
-41.31341027917289
 20
30.85159570710562
 30
0.0
 11
-41.31341027917289
 21
3.037908390831205
 31
0.0
  0
LINE
  5
164
330
2
100
AcDbEntity
  8
GAIKEI
  6
Continuous
 62
     1
370
     9
100
AcDbLine
 10
-41.21304069206192
 20
30.95196529421668
 30
0.0
 11
-41.21304069206192
 21
30.96869356431893
 31
0.0
  0
LINE
  5
165
330
2
100
AcDbEntity
  8
GAIKEI
  6
Continuous
 62
     1
370
     9
100
AcDbLine
 10
-41.31341027917289
 20
30.85159570710562
 30
0.0
 11
-41.33013854927521
 21
30.85159570710562
 31
0.0
  0
LINE
  5
166
330
2
100
AcDbEntity
  8
GAIKEI
  6
Continuous
 62
     1
370
     9
100
AcDbLine
 10
-41.21304069206192
 20
2.920810533617839
 30
0.0
 11
-41.21304069206192
 21
2.937538803720087
 31
0.0
  0
LINE
  5
167
330
2
100
AcDbEntity
  8
GAIKEI
  6
Continuous
 62
     1
370
     9
100
AcDbLine
 10
-41.33013854927521
 20
3.037908390831205
 30
0.0
 11
-41.31341027917289
 21
3.037908390831205
 31
0.0
  0
LINE
  5
168
330
2
100
AcDbEntity
  8
GAIKEI
  6
Continuous
 62
     1
370
     9
100
AcDbLine
 10
-40.36009895990782
 20
2.157098928265838
 30
0.0
 11
-40.55943846925238
 21
2.157098928265838
 31
0.0
  0
LINE
  5
169
330
2
100
AcDbEntity
  8
GAIKEI
  6
Continuous
 62
     1
370
     9
100
AcDbLine
 10
-40.34334774063518
 20
1.941008199648592
 30
0.0
 11
-40.34334774063518
 21
2.140347708993147
 31
0.0
  0
LINE
  5
16A
330
2
100
AcDbEntity
  8
GAIKEI
  6
Continuous
 62
     1
370
     9
100
AcDbLine
 10
-40.55943846925238
 20
1.924256980375957
 30
0.0
 11
-40.36009895990782
 21
1.924256980375957
 31
0.0
  0
LINE
  5
16B
330
2
100
AcDbEntity
  8
GAIKEI
  6
Continuous
 62
     1
370
     9
100
AcDbLine
 10
-40.57618968852503
 20
2.140347708993147
 30
0.0
 11
-40.57618968852503
 21
1.941008199648592
 31
0.0
  0
LINE
  5
16C
330
2
100
AcDbEntity
  8
GAIKEI
  6
Continuous
 62
     1
370
     9
100
AcDbLine
 10
-41.64659260004748
 20
2.078368197684369
 30
0.0
 11
-41.57121211332044
 21
2.078368197684369
 31
0.0
  0
LINE
  5
16D
330
2
100
AcDbEntity
  8
GAIKEI
  6
Continuous
 62
     1
370
     9
100
AcDbLine
 10
-41.57121211332044
 20
2.078368197684369
 30
0.0
 11
-41.57121211332044
 21
2.002987710957484
 31
0.0
  0
LINE
  5
16E
330
2
100
AcDbEntity
  8
GAIKEI
  6
Continuous
 62
     1
370
     9
100
AcDbLine
 10
-41.57121211332044
 20
2.002987710957484
 30
0.0
 11
-41.64659260004748
 21
2.002987710957484
 31
0.0
  0
LINE
  5
16F
330
2
100
AcDbEntity
  8
GAIKEI
  6
Continuous
 62
     1
370
     9
100
AcDbLine
 10
-41.64659260004748
 20
2.002987710957484
 30
0.0
 11
-41.64659260004748
 21
2.078368197684369
 31
0.0
  0
LINE
  5
170
330
2
100
AcDbEntity
  8
GAIKEI
  6
Continuous
 62
     1
370
     9
100
AcDbLine
 10
-41.33013854927521
 20
3.037908390831205
 30
0.0
 11
-41.33013854927521
 21
30.85159570710562
 31
0.0
  0
LINE
  5
171
330
2
100
AcDbEntity
  8
GAIKEI
  6
Continuous
 62
     1
370
     9
100
AcDbLine
 10
-41.21304069206192
 20
30.96869356431893
 30
0.0
 11
7.543861607850928
 21
30.96869356431893
 31
0.0
  0
LINE
  5
172
330
2
100
AcDbEntity
  8
GAIKEI
  6
Continuous
 62
     1
370
     9
100
AcDbLine
 10
7.660959465064337
 20
30.85159570710562
 30
0.0
 11
7.660959465064337
 21
3.037908390831205
 31
0.0
  0
LINE
  5
173
330
2
100
AcDbEntity
  8
GAIKEI
  6
Continuous
 62
     1
370
     9
100
AcDbLine
 10
7.543861607850928
 20
2.920810533617839
 30
0.0
 11
-41.21304069206192
 21
2.920810533617839
 31
0.0
  0
LINE
  5
174
330
2
100
AcDbEntity
  8
GAIKEI
  6
Continuous
 62
     1
370
     9
100
AcDbLine
 10
8.770552524123786
 20
1.928703792546514
 30
0.0
 11
8.770552524123786
 21
31.96080030539025
 31
0.0
  0
LINE
  5
175
330
2
100
AcDbEntity
  8
GAIKEI
  6
Continuous
 62
     1
370
     9
100
AcDbLine
 10
-41.01758431635938
 20
2.096010514817407
 30
0.0
 11
-41.01758431635938
 21
1.985345393824331
 31
0.0
  0
LINE
  5
176
330
2
100
AcDbEntity
  8
GAIKEI
  6
Continuous
 62
     1
370
     9
100
AcDbLine
 10
-41.03432283820775
 20
1.968647711448454
 30
0.0
 11
-41.14491653200196
 21
1.968647711448454
 31
0.0
  0
LINE
  5
177
330
2
100
AcDbEntity
  8
GAIKEI
  6
Continuous
 62
     1
370
     9
100
AcDbLine
 10
-41.16164480210414
 20
1.985375981550703
 30
0.0
 11
-41.16164480210414
 21
2.095979927091036
 31
0.0
  0
LINE
  5
178
330
2
100
AcDbEntity
  8
GAIKEI
  6
Continuous
 62
     1
370
     9
100
AcDbLine
 10
-41.14491653200196
 20
2.112708197193285
 30
0.0
 11
-41.03432283820775
 21
2.112708197193285
 31
0.0
  0
LINE
  5
179
330
2
100
AcDbEntity
  8
GAIKEI
  6
Continuous
 62
     1
370
     9
100
AcDbLine
 10
-42.33397114383737
 20
1.822943328049177
 30
0.0
 11
8.664792059626535
 21
1.822943328049177
 31
0.0
  0
LINE
  5
17A
330
2
100
AcDbEntity
  8
GAIKEI
  6
Continuous
 62
     1
370
     9
100
AcDbLine
 10
8.664792059626535
 20
1.805438337411658
 30
0.0
 11
-42.33397114383737
 21
1.805438337411658
 31
0.0
  0
LINE
  5
17B
330
2
100
AcDbEntity
  8
GAIKEI
  6
Continuous
 62
     1
370
     9
100
AcDbLine
 10
-42.45723659897222
 20
1.928703792546514
 30
0.0
 11
-42.45723659897222
 21
31.96080030539025
 31
0.0
  0
LINE
  5
17C
330
2
100
AcDbEntity
  8
GAIKEI
  6
Continuous
 62
     1
370
     9
100
AcDbLine
 10
-42.43973160833482
 20
31.96080030539025
 30
0.0
 11
-42.43973160833482
 21
1.928703792546514
 31
0.0
  0
LINE
  5
17D
330
2
100
AcDbEntity
  8
GAIKEI
  6
Continuous
 62
     1
370
     9
100
AcDbLine
 10
-42.33397114383737
 20
32.08406576052516
 30
0.0
 11
8.664792059626535
 21
32.08406576052516
 31
0.0
  0
LINE
  5
17E
330
2
100
AcDbEntity
  8
GAIKEI
  6
Continuous
 62
     1
370
     9
100
AcDbLine
 10
8.664792059626535
 20
32.06656076988764
 30
0.0
 11
-42.33397114383737
 21
32.06656076988764
 31
0.0
  0
LINE
  5
17F
330
2
100
AcDbEntity
  8
GAIKEI
  6
Continuous
 62
     1
370
     9
100
AcDbLine
 10
-42.6453207630729
 20
32.14888446949089
 30
0.0
 11
-42.45723659897222
 21
31.96080030539025
 31
0.0
  0
LINE
  5
180
330
2
100
AcDbEntity
  8
GAIKEI
  6
Continuous
 62
     1
370
     9
100
AcDbLine
 10
-42.33397114383737
 20
32.08406576052516
 30
0.0
 11
-42.52205530793806
 21
32.27214992462575
 31
0.0
  0
LINE
  5
181
330
2
100
AcDbEntity
  8
GAIKEI
  6
Continuous
 62
     1
370
     9
100
AcDbLine
 10
8.664792059626535
 20
32.08406576052516
 30
0.0
 11
8.852876223727136
 21
32.27214992462575
 31
0.0
  0
LINE
  5
182
330
2
100
AcDbEntity
  8
GAIKEI
  6
Continuous
 62
     1
370
     9
100
AcDbLine
 10
8.976141678862006
 20
32.14888446949089
 30
0.0
 11
8.788057514761376
 21
31.96080030539025
 31
0.0
  0
LINE
  5
183
330
2
100
AcDbEntity
  8
GAIKEI
  6
Continuous
 62
     1
370
     9
100
AcDbLine
 10
-42.52205530793806
 20
1.617354173311071
 30
0.0
 11
-42.33397114383737
 21
1.805438337411658
 31
0.0
  0
LINE
  5
184
330
2
100
AcDbEntity
  8
GAIKEI
  6
Continuous
 62
     1
370
     9
100
AcDbLine
 10
-42.45723659897222
 20
1.928703792546514
 30
0.0
 11
-42.6453207630729
 21
1.740619628445926
 31
0.0
  0
LINE
  5
185
330
2
100
AcDbEntity
  8
GAIKEI
  6
Continuous
 62
     1
370
     9
100
AcDbLine
 10
8.788057514761376
 20
1.928703792546514
 30
0.0
 11
8.976141678862006
 21
1.740619628445926
 31
0.0
  0
LINE
  5
186
330
2
100
AcDbEntity
  8
GAIKEI
  6
Continuous
 62
     1
370
     9
100
AcDbLine
 10
8.852876223727136
 20
1.617354173311071
 30
0.0
 11
8.664792059626535
 21
1.805438337411658
 31
0.0
  0
LINE
  5
187
330
2
100
AcDbEntity
  8
GAIKEI
  6
Continuous
 62
     1
370
     9
100
AcDbLine
 10
8.770552524123786
 20
31.96080030539025
 30
0.0
 11
8.788057514761376
 21
31.96080030539025
 31
0.0
  0
LINE
  5
188
330
2
100
AcDbEntity
  8
GAIKEI
  6
Continuous
 62
     1
370
     9
100
AcDbLine
 10
8.664792059626535
 20
32.06656076988764
 30
0.0
 11
8.664792059626535
 21
32.08406576052516
 31
0.0
  0
LINE
  5
189
330
2
100
AcDbEntity
  8
GAIKEI
  6
Continuous
 62
     1
370
     9
100
AcDbLine
 10
-42.33397114383737
 20
32.06656076988764
 30
0.0
 11
-42.33397114383737
 21
32.08406576052516
 31
0.0
  0
LINE
  5
18A
330
2
100
AcDbEntity
  8
GAIKEI
  6
Continuous
 62
     1
370
     9
100
AcDbLine
 10
-42.43973160833482
 20
31.96080030539025
 30
0.0
 11
-42.45723659897222
 21
31.96080030539025
 31
0.0
  0
LINE
  5
18B
330
2
100
AcDbEntity
  8
GAIKEI
  6
Continuous
 62
     1
370
     9
100
AcDbLine
 10
8.788057514761376
 20
1.928703792546514
 30
0.0
 11
8.770552524123786
 21
1.928703792546514
 31
0.0
  0
LINE
  5
18C
330
2
100
AcDbEntity
  8
GAIKEI
  6
Continuous
 62
     1
370
     9
100
AcDbLine
 10
8.664792059626535
 20
1.805438337411658
 30
0.0
 11
8.664792059626535
 21
1.822943328049177
 31
0.0
  0
LINE
  5
18D
330
2
100
AcDbEntity
  8
GAIKEI
  6
Continuous
 62
     1
370
     9
100
AcDbLine
 10
-42.33397114383737
 20
1.805438337411658
 30
0.0
 11
-42.33397114383737
 21
1.822943328049177
 31
0.0
  0
LINE
  5
18E
330
2
100
AcDbEntity
  8
GAIKEI
  6
Continuous
 62
     1
370
     9
100
AcDbLine
 10
-42.45723659897222
 20
1.928703792546514
 30
0.0
 11
-42.43973160833482
 21
1.928703792546514
 31
0.0
  0
ARC
  5
18F
330
2
100
AcDbEntity
  8
GAIKEI
  6
Continuous
 62
     1
370
     9
100
AcDbCircle
 10
35.15756743856275
 20
31.92420663034289
 30
0.0
 40
0.0335024385453033
100
AcDbArc
 50
270.0
 51
0.0
  0
ARC
  5
190
330
2
100
AcDbEntity
  8
GAIKEI
  6
Continuous
 62
     1
370
     9
100
AcDbCircle
 10
35.15756743856275
 20
32.00796272670613
 30
0.0
 40
0.0335024385453033
100
AcDbArc
 50
0.0
 51
90.0
  0
LINE
  5
191
330
2
100
AcDbEntity
  8
GAIKEI
  6
Continuous
 62
     1
370
     9
100
AcDbLine
 10
35.19106987710773
 20
32.00796272670613
 30
0.0
 11
35.19106987710773
 21
31.92420663034289
 31
0.0
  0
LINE
  5
192
330
2
100
AcDbEntity
  8
GAIKEI
  6
Continuous
 62
     1
370
     9
100
AcDbLine
 10
35.1233949512462
 20
31.89070419179757
 30
0.0
 11
35.15756743856275
 21
31.89070419179757
 31
0.0
  0
LINE
  5
193
330
2
100
AcDbEntity
  8
GAIKEI
  6
Continuous
 62
     1
370
     9
100
AcDbLine
 10
35.15756743856275
 20
32.0414651652514
 30
0.0
 11
35.1233949512462
 21
32.0414651652514
 31
0.0
  0
LINE
  5
194
330
2
100
AcDbEntity
  8
GAIKEI
  6
Continuous
 62
     1
370
     9
100
AcDbLine
 10
35.15756743856275
 20
31.89070419179757
 30
0.0
 11
35.15756743856275
 21
32.0414651652514
 31
0.0
  0
LINE
  5
195
330
2
100
AcDbEntity
  8
GAIKEI
  6
Continuous
 62
     1
370
     9
100
AcDbLine
 10
35.11334421968293
 20
32.05821638452403
 30
0.0
 11
35.11334421968293
 21
31.87395297252488
 31
0.0
  0
LINE
  5
196
330
2
100
AcDbEntity
  8
GAIKEI
  6
Continuous
 62
     1
370
     9
100
AcDbLine
 10
35.1233949512462
 20
32.05821638452403
 30
0.0
 11
35.1233949512462
 21
31.87395297252488
 31
0.0
  0
LINE
  5
197
330
2
100
AcDbEntity
  8
GAIKEI
  6
Continuous
 62
     1
370
     9
100
AcDbLine
 10
35.11334421968293
 20
31.87395297252488
 30
0.0
 11
35.1233949512462
 21
31.87395297252488
 31
0.0
  0
LINE
  5
198
330
2
100
AcDbEntity
  8
GAIKEI
  6
Continuous
 62
     1
370
     9
100
AcDbLine
 10
35.1233949512462
 20
32.05821638452403
 30
0.0
 11
35.11334421968293
 21
32.05821638452403
 31
0.0
  0
LINE
  5
199
330
2
100
AcDbEntity
  8
GAIKEI
  6
Continuous
 62
     1
370
     9
100
AcDbLine
 10
35.11334421968293
 20
32.01801345826971
 30
0.0
 11
35.00613641633798
 21
32.01801345826971
 31
0.0
  0
LINE
  5
19A
330
2
100
AcDbEntity
  8
GAIKEI
  6
Continuous
 62
     1
370
     9
100
AcDbLine
 10
35.00613641633798
 20
31.91415589877926
 30
0.0
 11
35.11334421968293
 21
31.91415589877926
 31
0.0
  0
SPLINE
  5
19B
330
2
100
AcDbEntity
  8
GAIKEI
  6
Continuous
 62
     1
370
     9
100
AcDbSpline
210
0.0
220
0.0
230
1.0
 70
     8
 71
     3
 72
    11
 73
     7
 74
     5
 42
0.0000000001
 43
0.0000000001
 44
0.000001
 12
-0.021953740270398
 22
-0.9997589876005818
 32
0.0
 13
-0.4592006003446639
 23
-0.8883326002365896
 33
0.0
 40
0.0
 40
0.0
 40
0.0
 40
0.0
 40
0.0100281982644802
 40
0.0149272837078049
 40
0.0196211140891469
 40
0.022852781257604
 40
0.022852781257604
 40
0.022852781257604
 40
0.022852781257604
 10
35.01125021522658
 20
1.713950918273781
 30
0.0
 10
35.0111768297399
 20
1.710608991159006
 30
0.0
 10
35.01065165471364
 20
1.705630722702096
 30
0.0
 10
35.0091775056914
 20
1.699254491329725
 30
0.0
 10
35.00783486986406
 20
1.695184793039345
 30
0.0
 10
35.00671679562538
 20
1.692786391279184
 30
0.0
 10
35.00622213445742
 20
1.691829459512916
 30
0.0
 11
35.01125021522658
 21
1.713950918273781
 31
0.0
 11
35.01020118566649
 21
1.703978115578593
 31
0.0
 11
35.00908732247007
 21
1.699207484671148
 31
0.0
 11
35.00758059173531
 21
1.694762706684514
 31
0.0
 11
35.00622213445742
 21
1.691829459512916
 31
0.0
  0
SPLINE
  5
19C
330
2
100
AcDbEntity
  8
GAIKEI
  6
Continuous
 62
     1
370
     9
100
AcDbSpline
210
0.0
220
0.0
230
1.0
 70
     8
 71
     3
 72
     9
 73
     5
 74
     3
 42
0.0000000001
 43
0.0000000001
 44
0.000001
 12
0.053836701824326
 22
0.9985497531603915
 32
0.0
 13
0.3994679157007278
 23
0.9167471757936953
 33
0.0
 40
0.0
 40
0.0
 40
0.0
 40
0.0
 40
0.0184950785809427
 40
0.0361278885697576
 40
0.0361278885697576
 40
0.0361278885697576
 40
0.0361278885697576
 10
35.03002512886981
 20
1.754466885449971
 30
0.0
 10
35.03035703354674
 20
1.760622970833878
 30
0.0
 10
35.03208481285599
 20
1.772619701784094
 30
0.0
 10
35.03596196205646
 20
1.784093829701987
 30
0.0
 10
35.03830987600786
 20
1.789482105954846
 30
0.0
 11
35.03002512886981
 21
1.754466885449971
 31
0.0
 11
35.03268838585353
 21
1.772769339430681
 31
0.0
 11
35.03830987600786
 21
1.789482105954846
 31
0.0
  0
SPLINE
  5
19D
330
2
100
AcDbEntity
  8
GAIKEI
  6
Continuous
 62
     1
370
     9
100
AcDbSpline
210
0.0
220
0.0
230
1.0
 70
     8
 71
     3
 72
     9
 73
     5
 74
     3
 42
0.0000000001
 43
0.0000000001
 44
0.000001
 12
0.149373043831663
 22
0.9887809129308999
 32
0.0
 13
-0.7538905945543518
 23
0.6569999782667319
 33
0.0
 40
0.0
 40
0.0
 40
0.0
 40
0.0
 40
0.0013142379739753
 40
0.0028296377112186
 40
0.0028296377112186
 40
0.0028296377112186
 40
0.0028296377112186
 10
36.6813563141145
 20
2.340287021816209
 30
0.0
 10
36.68142175135667
 20
2.340720186290809
 30
0.0
 10
36.68138219080386
 20
2.341707333934152
 30
0.0
 10
36.68078438113933
 20
2.342513215481517
 30
0.0
 10
36.68040356593638
 20
2.342845088013007
 30
0.0
 11
36.6813563141145
 21
2.340287021816209
 31
0.0
 11
36.68126552909665
 21
2.341598365704783
 31
0.0
 11
36.68040356593638
 21
2.342845088013007
 31
0.0
  0
SPLINE
  5
19E
330
2
100
AcDbEntity
  8
GAIKEI
  6
Continuous
 62
     1
370
     9
100
AcDbSpline
210
0.0
220
0.0
230
1.0
 70
     8
 71
     3
 72
    14
 73
    10
 74
     8
 42
0.0000000001
 43
0.0000000001
 44
0.000001
 12
-0.992578662389401
 22
-0.12160427200254
 32
0.0
 13
-0.9986648458486547
 23
-0.051657774497967
 33
0.0
 40
0.0
 40
0.0
 40
0.0
 40
0.0
 40
0.0029774967904772
 40
0.0084296879021713
 40
0.0161483435205206
 40
0.0260341965488368
 40
0.0378600713191983
 40
0.051260111141353
 40
0.0657269246113522
 40
0.0657269246113522
 40
0.0657269246113522
 40
0.0657269246113522
 10
36.68049438778214
 20
2.342826066855877
 30
0.0
 10
36.67950925452162
 20
2.342705374746003
 30
0.0
 10
36.67671757530098
 20
2.342383431833013
 30
0.0
 10
36.6713520162763
 20
2.341944127534873
 30
0.0
 10
36.66368679623762
 20
2.341387495492142
 30
0.0
 10
36.65389529207054
 20
2.340779392323725
 30
0.0
 10
36.64220992337197
 20
2.340120855950544
 30
0.0
 10
36.6289971140429
 20
2.339428472824522
 30
0.0
 10
36.61972084214179
 20
2.338943422120451
 30
0.0
 10
36.61490500946047
 20
2.33869431432447
 30
0.0
 11
36.68049438778214
 21
2.342826066855877
 31
0.0
 11
36.67753582996688
 21
2.342490489059173
 31
0.0
 11
36.67210455180732
 21
2.342013689690929
 31
0.0
 11
36.66440632370575
 21
2.341452584401508
 31
0.0
 11
36.65454015756889
 21
2.340829055591314
 31
0.0
 11
36.6427333036504
 21
2.340158647105795
 31
0.0
 11
36.62935210848808
 21
2.339448317834467
 31
0.0
 11
36.61490500946047
 21
2.33869431432447
 31
0.0
  0
SPLINE
  5
19F
330
2
100
AcDbEntity
  8
GAIKEI
  6
Continuous
 62
     1
370
     9
100
AcDbSpline
210
0.0
220
0.0
230
1.0
 70
     8
 71
     3
 72
     9
 73
     5
 74
     3
 42
0.0000000001
 43
0.0000000001
 44
0.000001
 12
-0.9604506225031016
 22
-0.2784503577541328
 32
0.0
 13
-0.9919637934807383
 23
-0.1265220629902289
 33
0.0
 40
0.0
 40
0.0
 40
0.0
 40
0.0
 40
0.0010532297578888
 40
0.0012741041120682
 40
0.0012741041120682
 40
0.0012741041120682
 40
0.0012741041120682
 10
36.68174135816502
 20
2.343084914262021
 30
0.0
 10
36.68140416643948
 20
2.342987156861056
 30
0.0
 10
36.68098792777004
 20
2.342894830987859
 30
0.0
 10
36.68056742090289
 20
2.34283538201555
 30
0.0
 10
36.68049438778214
 20
2.342826066855877
 30
0.0
 11
36.68174135816502
 21
2.343084914262021
 31
0.0
 11
36.68071304144529
 21
2.342856953363195
 31
0.0
 11
36.68049438778214
 21
2.342826066855877
 31
0.0
  0
SPLINE
  5
1A0
330
2
100
AcDbEntity
  8
GAIKEI
  6
Continuous
 62
     1
370
     9
100
AcDbSpline
210
0.0
220
0.0
230
1.0
 70
     8
 71
     3
 72
    15
 73
    11
 74
     9
 42
0.0000000001
 43
0.0000000001
 44
0.000001
 12
-0.9603061482578402
 22
-0.2789482059777249
 32
0.0
 13
-0.049502892896102
 23
-0.9987739802352269
 33
0.0
 40
0.0
 40
0.0
 40
0.0
 40
0.0
 40
0.0180994993861406
 40
0.0358528441875565
 40
0.053703791503427
 40
0.0720896149514064
 40
0.0905141036972349
 40
0.1084086458870214
 40
0.1262156131580772
 40
0.1443831842284619
 40
0.1443831842284619
 40
0.1443831842284619
 40
0.1443831842284619
 10
35.09745620477197
 20
1.860844761060661
 30
0.0
 10
35.091662517925
 20
1.8591618200997
 30
0.0
 10
35.08042621302333
 20
1.85492699568158
 30
0.0
 10
35.06479187651848
 20
1.846062865605574
 30
0.0
 10
35.05070345293749
 20
1.834739868274994
 30
0.0
 10
35.03838152397157
 20
1.82123180007693
 30
0.0
 10
35.02804465190009
 20
1.806131938256896
 30
0.0
 10
35.02024294543494
 20
1.789776372514438
 30
0.0
 10
35.01520547455445
 20
1.772466414480845
 30
0.0
 10
35.01367334953359
 20
1.760515317873057
 30
0.0
 10
35.01337356709196
 20
1.754466885449971
 30
0.0
 11
35.09745620477197
 21
1.860844761060661
 31
0.0
 11
35.08052053493365
 21
1.854457871563852
 31
0.0
 11
35.06508666661792
 21
1.845684209933722
 31
0.0
 11
35.05115459982488
 21
1.834523776170271
 31
0.0
 11
35.03872433455415
 21
1.820976570273558
 31
0.0
 11
35.0283626258685
 21
1.805741853053064
 31
0.0
 11
35.02068359506252
 21
1.789578666508873
 31
0.0
 11
35.01568724213729
 21
1.77248701064127
 31
0.0
 11
35.01337356709196
 21
1.754466885449971
 31
0.0
  0
SPLINE
  5
1A1
330
2
100
AcDbEntity
  8
GAIKEI
  6
Continuous
 62
     1
370
     9
100
AcDbSpline
210
0.0
220
0.0
230
1.0
 70
     8
 71
     3
 72
    11
 73
     7
 74
     5
 42
0.0000000001
 43
0.0000000001
 44
0.000001
 12
-0.038807811108376
 22
-0.9992466931628928
 32
0.0
 13
-0.9586356706008036
 23
-0.2846359974629839
 33
0.0
 40
0.0
 40
0.0
 40
0.0
 40
0.0
 40
0.0154951387340994
 40
0.0311771945560238
 40
0.0469400851530908
 40
0.0625533763328031
 40
0.0625533763328031
 40
0.0625533763328031
 40
0.0625533763328031
 10
35.13352987864144
 20
1.907311525050886
 30
0.0
 10
35.13332943450242
 20
1.902150369670835
 30
0.0
 10
35.13141512359402
 20
1.891718745477305
 30
0.0
 10
35.12354568281131
 20
1.87792084149521
 30
0.0
 10
35.11214018045301
 20
1.866801431496298
 30
0.0
 10
35.10244535739209
 20
1.862326129296889
 30
0.0
 10
35.09745620477197
 20
1.860844761060661
 30
0.0
 11
35.13352987864144
 21
1.907311525050886
 31
0.0
 11
35.13060919642082
 21
1.892093723441803
 31
0.0
 11
35.12297564433693
 21
1.878394922598545
 31
0.0
 11
35.11157714480767
 21
1.867507104878654
 31
0.0
 11
35.09745620477197
 21
1.860844761060661
 31
0.0
  0
SPLINE
  5
1A2
330
2
100
AcDbEntity
  8
GAIKEI
  6
Continuous
 62
     1
370
     9
100
AcDbSpline
210
0.0
220
0.0
230
1.0
 70
     8
 71
     3
 72
    19
 73
    15
 74
    13
 42
0.0000000001
 43
0.0000000001
 44
0.000001
 12
-0.9961913354828237
 22
-0.08719416900773
 32
0.0
 13
-0.034860704078969
 23
-0.9993921809335507
 33
0.0
 40
0.0
 40
0.0
 40
0.0
 40
0.0
 40
0.0221194707173409
 40
0.0442189722024924
 40
0.066624893483036
 40
0.0890096798383763
 40
0.1110994535233633
 40
0.1332212372338554
 40
0.1553403193272218
 40
0.177451825547875
 40
0.1998837486484823
 40
0.2223410611985062
 40
0.2445028970094833
 40
0.266699037361744
 40
0.266699037361744
 40
0.266699037361744
 40
0.266699037361744
 10
35.30650268386869
 20
2.224223943504227
 30
0.0
 10
35.299157608844
 20
2.22358104721485
 30
0.0
 10
35.28453539976536
 20
2.221408115137819
 30
0.0
 10
35.26308230599852
 20
2.215462929586351
 30
0.0
 10
35.24242565684268
 20
2.206932577445286
 30
0.0
 10
35.22288597451832
 20
2.196093768766672
 30
0.0
 10
35.20487618664863
 20
2.183019464922324
 30
0.0
 10
35.18867061979007
 20
2.167898799383976
 30
0.0
 10
35.17438789573305
 20
2.150940169144973
 30
0.0
 10
35.16224175952574
 20
2.132265262060343
 30
0.0
 10
35.15239731543238
 20
2.112161639289638
 30
0.0
 10
35.14491809494096
 20
2.091044060962929
 30
0.0
 10
35.14008042094413
 20
2.069248787878166
 30
0.0
 10
35.13866905905577
 20
2.05448662612946
 30
0.0
 10
35.1384111346956
 20
2.047092409757794
 30
0.0
 11
35.30650268386869
 21
2.224223943504227
 31
0.0
 11
35.28462413825726
 21
2.220964234623579
 31
0.0
 11
35.26332494609139
 21
2.215070758609613
 31
0.0
 11
35.24260510737089
 21
2.206543515462215
 31
0.0
 11
35.22304385938425
 21
2.19566068040558
 31
0.0
 11
35.20517238232751
 21
2.182677272699265
 31
0.0
 11
35.18899067620059
 21
2.167593292343269
 31
0.0
 11
35.17475113395699
 21
2.150667277121669
 31
0.0
 11
35.16268656175342
 21
2.132137159595288
 31
0.0
 11
35.15279695958974
 21
2.112002939764124
 31
0.0
 11
35.1453268049532
 21
2.090824459264126
 31
0.0
 11
35.14053152998819
 21
2.069187615928683
 31
0.0
 11
35.1384111346956
 21
2.047092409757794
 31
0.0
  0
ELLIPSE
  5
1A3
330
2
100
AcDbEntity
  8
GAIKEI
  6
Continuous
 62
     1
370
     9
100
AcDbEllipse
 10
35.01117350797331
 20
1.7148276086196
 30
0.0
 11
-0.0167282623088257
 21
0.0008766910788679
 31
0.0
210
0.0
220
0.0
230
1.0
 40
0.0520259999997978
 41
1.578107972033701
 42
3.14159265360657
  0
ELLIPSE
  5
1A4
330
2
100
AcDbEntity
  8
GAIKEI
  6
Continuous
 62
     1
370
     9
100
AcDbEllipse
 10
35.01329685902581
 20
1.755343581659758
 30
0.0
 11
-0.0167282623088064
 21
0.0008766910788938
 31
0.0
210
0.0
220
0.0
230
1.0
 40
0.0520259999999042
 41
1.578107972032592
 42
3.141592653614577
  0
ELLIPSE
  5
1A5
330
2
100
AcDbEntity
  8
GAIKEI
  6
Continuous
 62
     1
370
     9
100
AcDbEllipse
 10
35.09737950365762
 20
1.861721462597074
 30
0.0
 11
-0.0047164569259827
 21
0.0160735304518382
 31
0.0
210
0.0
220
0.0
230
1.0
 40
0.0103560000000028
 41
1.622326980977735
 42
3.141592653606156
  0
ELLIPSE
  5
1A6
330
2
100
AcDbEntity
  8
GAIKEI
  6
Continuous
 62
     1
370
     9
100
AcDbEllipse
 10
35.13345318735604
 20
1.908188205776468
 30
0.0
 11
-0.0167410148824855
 21
0.0005846091217624
 31
0.0
210
0.0
220
0.0
230
1.0
 40
0.0521449999999304
 41
1.577198882654097
 42
3.141592653588103
  0
ELLIPSE
  5
1A7
330
2
100
AcDbEntity
  8
GAIKEI
  6
Continuous
 62
     1
370
     9
100
AcDbEllipse
 10
35.13833442564763
 20
2.047969090021524
 30
0.0
 11
-0.0167410148824772
 21
0.0005846091217618
 31
0.0
210
0.0
220
0.0
230
1.0
 40
0.052144999999988
 41
1.57719888265318
 42
3.141592653587371
  0
ARC
  5
1A8
330
2
100
AcDbEntity
  8
GAIKEI
  6
Continuous
 62
     1
370
     9
100
AcDbCircle
 10
34.99444523787069
 20
1.715704300431468
 30
0.0
 40
0.0335024385453033
100
AcDbArc
 50
290.8010950000153
 51
316.5550889999757
  0
ARC
  5
1A9
330
2
100
AcDbEntity
  8
GAIKEI
  6
Continuous
 62
     1
370
     9
100
AcDbCircle
 10
34.99444523787069
 20
1.715704300431468
 30
0.0
 40
0.0335024385453033
100
AcDbArc
 50
316.5550889999757
 51
357.0000000000011
  0
ARC
  5
1AA
330
2
100
AcDbEntity
  8
GAIKEI
  6
Continuous
 62
     1
370
     9
100
AcDbCircle
 10
35.13039471623914
 20
1.749206738976738
 30
0.0
 40
0.10050731563591
100
AcDbArc
 50
106.3532740000593
 51
156.3767560000085
  0
ARC
  5
1AB
330
2
100
AcDbEntity
  8
GAIKEI
  6
Continuous
 62
     1
370
     9
100
AcDbCircle
 10
35.08323011726486
 20
1.909942058434296
 30
0.0
 40
0.0670048770906067
100
AcDbArc
 50
286.3532740000593
 51
357.9999999999979
  0
ARC
  5
1AC
330
2
100
AcDbEntity
  8
GAIKEI
  6
Continuous
 62
     1
370
     9
100
AcDbCircle
 10
36.66501311165989
 20
2.343961593457095
 30
0.0
 40
0.0167512192726517
100
AcDbArc
 50
274.9999999999475
 51
347.353803000001
  0
ARC
  5
1AD
330
2
100
AcDbEntity
  8
GAIKEI
  6
Continuous
 62
     1
370
     9
100
AcDbCircle
 10
35.32248560447759
 20
2.04153839745004
 30
0.0
 40
0.1675121927265167
100
AcDbArc
 50
136.6445770000003
 51
177.9999999999979
  0
ARC
  5
1AE
330
2
100
AcDbEntity
  8
GAIKEI
  6
Continuous
 62
     1
370
     9
100
AcDbCircle
 10
35.32248560447759
 20
2.04153839745004
 30
0.0
 40
0.1675121927265167
100
AcDbArc
 50
94.99999999994754
 51
136.6445770000003
  0
LINE
  5
1AF
330
2
100
AcDbEntity
  8
GAIKEI
  6
Continuous
 62
     1
370
     9
100
AcDbLine
 10
36.57548313803289
 20
2.319313547897365
 30
0.0
 11
35.3078859453107
 21
2.208413172780808
 31
0.0
  0
LINE
  5
1B0
330
2
100
AcDbEntity
  8
GAIKEI
  6
Continuous
 62
     1
370
     9
100
AcDbLine
 10
35.1609242153928
 20
2.085388700686337
 30
0.0
 11
35.21011021749926
 21
2.165708183908577
 31
0.0
  0
LINE
  5
1B1
330
2
100
AcDbEntity
  8
GAIKEI
  6
Continuous
 62
     1
370
     9
100
AcDbLine
 10
35.02790177807553
 20
1.713950916807732
 30
0.0
 11
35.03002512912805
 21
1.75446688984789
 31
0.0
  0
LINE
  5
1B2
330
2
100
AcDbEntity
  8
GAIKEI
  6
Continuous
 62
     1
370
     9
100
AcDbLine
 10
35.15019418838527
 20
1.907603621726309
 30
0.0
 11
35.15507546017886
 21
2.047384505971308
 31
0.0
  0
LINE
  5
1B3
330
2
100
AcDbEntity
  8
GAIKEI
  6
Continuous
 62
     1
370
     9
100
AcDbLine
 10
36.6162882706201
 20
2.322883534246273
 30
0.0
 11
36.6664730474244
 21
2.327274129324962
 31
0.0
  0
LINE
  5
1B4
330
2
100
AcDbEntity
  8
GAIKEI
  6
Continuous
 62
     1
370
     9
100
AcDbLine
 10
36.61490502193736
 20
2.338694306566594
 30
0.0
 11
36.6162882706201
 21
2.322883534246273
 31
0.0
  0
LINE
  5
1B5
330
2
100
AcDbEntity
  8
GAIKEI
  6
Continuous
 62
     1
370
     9
100
AcDbLine
 10
35.30650269662812
 20
2.224223945101073
 30
0.0
 11
35.3078859453107
 21
2.208413172780808
 31
0.0
  0
LINE
  5
1B6
330
2
100
AcDbEntity
  8
GAIKEI
  6
Continuous
 62
     1
370
     9
100
AcDbLine
 10
35.3078859453107
 20
2.208413172780808
 30
0.0
 11
36.6162882706201
 21
2.322883534246273
 31
0.0
  0
LINE
  5
1B7
330
2
100
AcDbEntity
  8
GAIKEI
  6
Continuous
 62
     1
370
     9
100
AcDbLine
 10
36.68174134825972
 20
2.343084901645227
 30
0.0
 11
36.68305243268971
 21
2.368102010068014
 31
0.0
  0
LINE
  5
1B8
330
2
100
AcDbEntity
  8
GAIKEI
  6
Continuous
 62
     1
370
     9
100
AcDbLine
 10
35.01125022855757
 20
1.713950916807732
 30
0.0
 11
35.00613641633798
 21
1.713950916807732
 31
0.0
  0
LINE
  5
1B9
330
2
100
AcDbEntity
  8
GAIKEI
  6
Continuous
 62
     1
370
     9
100
AcDbLine
 10
35.01337357961016
 20
1.75446688984789
 30
0.0
 11
35.01125022855757
 21
1.713950916807732
 31
0.0
  0
LINE
  5
1BA
330
2
100
AcDbEntity
  8
GAIKEI
  6
Continuous
 62
     1
370
     9
100
AcDbLine
 10
35.13841114623182
 20
2.047092398209599
 30
0.0
 11
35.13352987443821
 21
1.907311513964657
 31
0.0
  0
LINE
  5
1BB
330
2
100
AcDbEntity
  8
GAIKEI
  6
Continuous
 62
     1
370
     9
100
AcDbLine
 10
36.61490502193736
 20
2.338694306566594
 30
0.0
 11
35.30650269662812
 21
2.224223945101073
 31
0.0
  0
LINE
  5
1BC
330
2
100
AcDbEntity
  8
GAIKEI
  6
Continuous
 62
     1
370
     9
100
AcDbLine
 10
36.61582138063652
 20
2.356179999799451
 30
0.0
 11
36.61490502193736
 21
2.338694306566594
 31
0.0
  0
SPLINE
  5
1BD
330
2
100
AcDbEntity
  8
GAIKEI
  6
Continuous
 62
     1
370
     9
100
AcDbSpline
210
0.0
220
0.0
230
1.0
 70
     8
 71
     3
 72
    11
 73
     7
 74
     5
 42
0.0000000001
 43
0.0000000001
 44
0.000001
 12
-0.021953740270398
 22
-0.9997589876005818
 32
0.0
 13
-0.4592006003446639
 23
-0.8883326002365896
 33
0.0
 40
0.0
 40
0.0
 40
0.0
 40
0.0
 40
0.0100281982644802
 40
0.0149272837078049
 40
0.0196211140891469
 40
0.022852781257604
 40
0.022852781257604
 40
0.022852781257604
 40
0.022852781257604
 10
35.01125021522658
 20
1.713950918273781
 30
0.0
 10
35.0111768297399
 20
1.710608991159006
 30
0.0
 10
35.01065165471364
 20
1.705630722702096
 30
0.0
 10
35.0091775056914
 20
1.699254491329725
 30
0.0
 10
35.00783486986406
 20
1.695184793039345
 30
0.0
 10
35.00671679562538
 20
1.692786391279184
 30
0.0
 10
35.00622213445742
 20
1.691829459512916
 30
0.0
 11
35.01125021522658
 21
1.713950918273781
 31
0.0
 11
35.01020118566649
 21
1.703978115578593
 31
0.0
 11
35.00908732247007
 21
1.699207484671148
 31
0.0
 11
35.00758059173531
 21
1.694762706684514
 31
0.0
 11
35.00622213445742
 21
1.691829459512916
 31
0.0
  0
SPLINE
  5
1BE
330
2
100
AcDbEntity
  8
GAIKEI
  6
Continuous
 62
     1
370
     9
100
AcDbSpline
210
0.0
220
0.0
230
1.0
 70
     8
 71
     3
 72
    15
 73
    11
 74
     9
 42
0.0000000001
 43
0.0000000001
 44
0.000001
 12
-0.9603061482578402
 22
-0.2789482059777249
 32
0.0
 13
-0.049502892896102
 23
-0.9987739802352269
 33
0.0
 40
0.0
 40
0.0
 40
0.0
 40
0.0
 40
0.0180994993861406
 40
0.0358528441875565
 40
0.053703791503427
 40
0.0720896149514064
 40
0.0905141036972349
 40
0.1084086458870214
 40
0.1262156131580772
 40
0.1443831842284619
 40
0.1443831842284619
 40
0.1443831842284619
 40
0.1443831842284619
 10
35.09745620477197
 20
1.860844761060661
 30
0.0
 10
35.091662517925
 20
1.8591618200997
 30
0.0
 10
35.08042621302333
 20
1.85492699568158
 30
0.0
 10
35.06479187651848
 20
1.846062865605574
 30
0.0
 10
35.05070345293749
 20
1.834739868274994
 30
0.0
 10
35.03838152397157
 20
1.82123180007693
 30
0.0
 10
35.02804465190009
 20
1.806131938256896
 30
0.0
 10
35.02024294543494
 20
1.789776372514438
 30
0.0
 10
35.01520547455445
 20
1.772466414480845
 30
0.0
 10
35.01367334953359
 20
1.760515317873057
 30
0.0
 10
35.01337356709196
 20
1.754466885449971
 30
0.0
 11
35.09745620477197
 21
1.860844761060661
 31
0.0
 11
35.08052053493365
 21
1.854457871563852
 31
0.0
 11
35.06508666661792
 21
1.845684209933722
 31
0.0
 11
35.05115459982488
 21
1.834523776170271
 31
0.0
 11
35.03872433455415
 21
1.820976570273558
 31
0.0
 11
35.0283626258685
 21
1.805741853053064
 31
0.0
 11
35.02068359506252
 21
1.789578666508873
 31
0.0
 11
35.01568724213729
 21
1.77248701064127
 31
0.0
 11
35.01337356709196
 21
1.754466885449971
 31
0.0
  0
SPLINE
  5
1BF
330
2
100
AcDbEntity
  8
GAIKEI
  6
Continuous
 62
     1
370
     9
100
AcDbSpline
210
0.0
220
0.0
230
1.0
 70
     8
 71
     3
 72
    11
 73
     7
 74
     5
 42
0.0000000001
 43
0.0000000001
 44
0.000001
 12
-0.038807811108376
 22
-0.9992466931628928
 32
0.0
 13
-0.9586356706008036
 23
-0.2846359974629839
 33
0.0
 40
0.0
 40
0.0
 40
0.0
 40
0.0
 40
0.0154951387340994
 40
0.0311771945560238
 40
0.0469400851530908
 40
0.0625533763328031
 40
0.0625533763328031
 40
0.0625533763328031
 40
0.0625533763328031
 10
35.13352987864144
 20
1.907311525050886
 30
0.0
 10
35.13332943450242
 20
1.902150369670835
 30
0.0
 10
35.13141512359402
 20
1.891718745477305
 30
0.0
 10
35.12354568281131
 20
1.87792084149521
 30
0.0
 10
35.11214018045301
 20
1.866801431496298
 30
0.0
 10
35.10244535739209
 20
1.862326129296889
 30
0.0
 10
35.09745620477197
 20
1.860844761060661
 30
0.0
 11
35.13352987864144
 21
1.907311525050886
 31
0.0
 11
35.13060919642082
 21
1.892093723441803
 31
0.0
 11
35.12297564433693
 21
1.878394922598545
 31
0.0
 11
35.11157714480767
 21
1.867507104878654
 31
0.0
 11
35.09745620477197
 21
1.860844761060661
 31
0.0
  0
ELLIPSE
  5
1C0
330
2
100
AcDbEntity
  8
GAIKEI
  6
Continuous
 62
     1
370
     9
100
AcDbEllipse
 10
35.01117350797331
 20
1.7148276086196
 30
0.0
 11
-0.0167282623088174
 21
0.000876691078867
 31
0.0
210
0.0
220
0.0
230
1.0
 40
0.0520259999998751
 41
1.578107972032714
 42
3.141592653605598
  0
ELLIPSE
  5
1C1
330
2
100
AcDbEntity
  8
GAIKEI
  6
Continuous
 62
     1
370
     9
100
AcDbEllipse
 10
35.01329685902581
 20
1.755343581659758
 30
0.0
 11
-0.0167282623088206
 21
0.0008766910788944
 31
0.0
210
0.0
220
0.0
230
1.0
 40
0.0520259999998235
 41
1.578107972033291
 42
3.141592653615294
  0
ELLIPSE
  5
1C2
330
2
100
AcDbEntity
  8
GAIKEI
  6
Continuous
 62
     1
370
     9
100
AcDbEllipse
 10
35.09737950365762
 20
1.861721462597074
 30
0.0
 11
-0.0047164569259843
 21
0.016073530451842
 31
0.0
210
0.0
220
0.0
230
1.0
 40
0.0103559999999339
 41
1.622326980977742
 42
3.14159265360324
  0
ELLIPSE
  5
1C3
330
2
100
AcDbEntity
  8
GAIKEI
  6
Continuous
 62
     1
370
     9
100
AcDbEllipse
 10
35.13345318735604
 20
1.908188205776468
 30
0.0
 11
-0.0167410148824595
 21
0.000584609121761
 31
0.0
210
0.0
220
0.0
230
1.0
 40
0.0521450000000825
 41
1.577198882652056
 42
3.141592653586467
  0
ELLIPSE
  5
1C4
330
2
100
AcDbEntity
  8
GAIKEI
  6
Continuous
 62
     1
370
     9
100
AcDbEllipse
 10
35.13833442564763
 20
2.047969090021524
 30
0.0
 11
-0.0167410148824737
 21
0.0005846091217615
 31
0.0
210
0.0
220
0.0
230
1.0
 40
0.0521450000000114
 41
1.577198882652828
 42
3.141592653587081
  0
LINE
  5
1C5
330
2
100
AcDbEntity
  8
GAIKEI
  6
Continuous
 62
     1
370
     9
100
AcDbLine
 10
35.01125022855757
 20
1.713950916807732
 30
0.0
 11
35.00613641633798
 21
1.713950916807732
 31
0.0
  0
LINE
  5
1C6
330
2
100
AcDbEntity
  8
GAIKEI
  6
Continuous
 62
     1
370
     9
100
AcDbLine
 10
35.01337357961016
 20
1.75446688984789
 30
0.0
 11
35.01125022855757
 21
1.713950916807732
 31
0.0
  0
LINE
  5
1C7
330
2
100
AcDbEntity
  8
GAIKEI
  6
Continuous
 62
     1
370
     9
100
AcDbLine
 10
35.13841114623182
 20
2.047092398209599
 30
0.0
 11
35.13352987443821
 21
1.907311513964657
 31
0.0
  0
LINE
  5
1C8
330
2
100
AcDbEntity
  8
GAIKEI
  6
Continuous
 62
     1
370
     9
100
AcDbLine
 10
35.13848461707956
 20
2.048927594788267
 30
0.0
 11
35.13841114623182
 21
2.047092398209599
 31
0.0
  0
ELLIPSE
  5
1C9
330
2
100
AcDbEntity
  8
GAIKEI
  6
Continuous
 62
     1
370
     9
100
AcDbEllipse
 10
36.41993932294979
 20
4.172637190448426
 30
0.0
 11
0.018734325883509
 21
0.0277747803262768
 31
0.0
210
0.0
220
0.0
230
1.0
 40
0.0144689999997971
 41
-1.561036910042548
 42
0.0000000000197924
  0
ELLIPSE
  5
1CA
330
2
100
AcDbEntity
  8
GAIKEI
  6
Continuous
 62
     1
370
     9
100
AcDbEllipse
 10
36.41993932294979
 20
2.771913401327594
 30
0.0
 11
-0.0005846981741318
 21
0.0334973359616318
 31
0.0
210
0.0
220
0.0
230
1.0
 40
0.0174500000000159
 41
3.141592653591767
 42
4.712084393889817
  0
ARC
  5
1CB
330
2
100
AcDbEntity
  8
GAIKEI
  6
Continuous
 62
     1
370
     9
100
AcDbCircle
 10
36.41993932294979
 20
2.771913401327594
 30
0.0
 40
0.0335024385453033
100
AcDbArc
 50
270.9999999999757
 51
0.0
  0
ARC
  5
1CC
330
2
100
AcDbEntity
  8
GAIKEI
  6
Continuous
 62
     1
370
     9
100
AcDbCircle
 10
36.41993932294979
 20
4.172637190448483
 30
0.0
 40
0.0335024385453033
100
AcDbArc
 50
0.0
 51
56.00000000004151
  0
LINE
  5
1CD
330
2
100
AcDbEntity
  8
GAIKEI
  6
Continuous
 62
     1
370
     9
100
AcDbLine
 10
36.42052400750734
 20
2.771913401327594
 30
0.0
 11
36.45344176149506
 21
2.771913401327594
 31
0.0
  0
LINE
  5
1CE
330
2
100
AcDbEntity
  8
GAIKEI
  6
Continuous
 62
     1
370
     9
100
AcDbLine
 10
36.45344176149506
 20
4.172637190448483
 30
0.0
 11
36.45344176149506
 21
2.771913401327594
 31
0.0
  0
LINE
  5
1CF
330
2
100
AcDbEntity
  8
GAIKEI
  6
Continuous
 62
     1
370
     9
100
AcDbLine
 10
36.45344176149506
 20
4.172637190448483
 30
0.0
 11
36.42052400750734
 21
4.172637190448483
 31
0.0
  0
LINE
  5
1D0
330
2
100
AcDbEntity
  8
GAIKEI
  6
Continuous
 62
     1
370
     9
100
AcDbLine
 10
36.43867365206722
 20
4.200411951592684
 30
0.0
 11
36.372435109756
 21
4.24509043510983
 31
0.0
  0
LINE
  5
1D1
330
2
100
AcDbEntity
  8
GAIKEI
  6
Continuous
 62
     1
370
     9
100
AcDbLine
 10
36.3696856651318
 20
4.245138410601839
 30
0.0
 11
36.372435109756
 21
4.24509043510983
 31
0.0
  0
LINE
  5
1D2
330
2
100
AcDbEntity
  8
GAIKEI
  6
Continuous
 62
     1
370
     9
100
AcDbLine
 10
36.42052400750734
 20
4.172637190448483
 30
0.0
 11
36.3696856651318
 21
4.206928075382393
 31
0.0
  0
LINE
  5
1D3
330
2
100
AcDbEntity
  8
GAIKEI
  6
Continuous
 62
     1
370
     9
100
AcDbLine
 10
36.42052400750734
 20
2.771913401327594
 30
0.0
 11
36.42052400750734
 21
4.172637190448483
 31
0.0
  0
LINE
  5
1D4
330
2
100
AcDbEntity
  8
GAIKEI
  6
Continuous
 62
     1
370
     9
100
AcDbLine
 10
36.3696856651318
 20
2.771026022237833
 30
0.0
 11
36.42052400750734
 21
2.771913401327594
 31
0.0
  0
LINE
  5
1D5
330
2
100
AcDbEntity
  8
GAIKEI
  6
Continuous
 62
     1
370
     9
100
AcDbLine
 10
36.42052400750734
 20
2.738416055152981
 30
0.0
 11
36.3696856651318
 21
2.73752867606322
 31
0.0
  0
LINE
  5
1D6
330
2
100
AcDbEntity
  8
GAIKEI
  6
Continuous
 62
     1
370
     9
100
AcDbLine
 10
36.33618322658653
 20
2.494843041679985
 30
0.0
 11
36.33618322658653
 21
2.492123313718821
 31
0.0
  0
LINE
  5
1D7
330
2
100
AcDbEntity
  8
GAIKEI
  6
Continuous
 62
     1
370
     9
100
AcDbLine
 10
36.33618322658653
 20
2.492123313718821
 30
0.0
 11
36.33409964292851
 21
2.492123313718821
 31
0.0
  0
SPLINE
  5
1D8
330
2
100
AcDbEntity
  8
GAIKEI
  6
Continuous
 62
     1
370
     9
100
AcDbSpline
210
0.0
220
0.0
230
1.0
 70
     8
 71
     3
 72
    23
 73
    19
 74
    17
 42
0.0000000001
 43
0.0000000001
 44
0.000001
 12
0.465126804941428
 22
-0.8852440653994689
 32
0.0
 13
-0.9962714886089356
 23
-0.086273524240843
 33
0.0
 40
0.0
 40
0.0
 40
0.0
 40
0.0
 40
0.0028347418422243
 40
0.0074009115175503
 40
0.0126269244317918
 40
0.0186842220330022
 40
0.0258875047297398
 40
0.0316527450477931
 40
0.0383132525653925
 40
0.0457910958201176
 40
0.0544712476403417
 40
0.0640567073177269
 40
0.0717835616169176
 40
0.0797517618698672
 40
0.089321028201756
 40
0.0989073712663409
 40
0.1089886759096287
 40
0.1188959068342704
 40
0.1188959068342704
 40
0.1188959068342704
 40
0.1188959068342704
 10
36.73017502011906
 20
2.463319224996666
 30
0.0
 10
36.73061452492436
 20
2.462482745532383
 30
0.0
 10
36.73165376467883
 20
2.460240540519407
 30
0.0
 10
36.73291080595209
 20
2.456203742549064
 30
0.0
 10
36.73357365331251
 20
2.450928541332302
 30
0.0
 10
36.73305083796696
 20
2.444742811203013
 30
0.0
 10
36.73122993446941
 20
2.438622943814436
 30
0.0
 10
36.72837835355661
 20
2.432713392391121
 30
0.0
 10
36.72465312713347
 20
2.42719544271847
 30
0.0
 10
36.71957281310772
 20
2.421505076528887
 30
0.0
 10
36.71304233321476
 20
2.41590305766897
 30
0.0
 10
36.70583893520742
 20
2.411053418705989
 30
0.0
 10
36.69840544941197
 20
2.407065349529318
 30
0.0
 10
36.6906992927253
 20
2.403650226386616
 30
0.0
 10
36.68215884215718
 20
2.400651911489603
 30
0.0
 10
36.67273849437031
 20
2.398121757387343
 30
0.0
 10
36.66304716212993
 20
2.396270863999461
 30
0.0
 10
36.65642726043565
 20
2.395465538740552
 30
0.0
 10
36.65313716320189
 20
2.39518062816478
 30
0.0
 11
36.73017502011906
 21
2.463319224996666
 31
0.0
 11
36.73136623610587
 21
2.460745930323696
 31
0.0
 11
36.73272207796021
 21
2.456385735139122
 31
0.0
 11
36.73336897717596
 21
2.451199948662065
 31
0.0
 11
36.73289632601445
 21
2.445161149698719
 31
0.0
 11
36.73089351673715
 21
2.438241917055279
 31
0.0
 11
36.72839582716408
 21
2.433045814856654
 31
0.0
 11
36.72469419313934
 21
2.427508644380964
 31
0.0
 11
36.719732442542
 21
2.421914073021525
 31
0.0
 11
36.71317452073039
 21
2.416227348386769
 31
0.0
 11
36.70523338521223
 21
2.410858959394317
 31
0.0
 11
36.69843387221083
 21
2.407188667544801
 31
0.0
 11
36.69115120631263
 21
2.403955226444281
 31
0.0
 11
36.68212832335085
 21
2.400767960708435
 31
0.0
 11
36.67287153029545
 21
2.39827597946487
 31
0.0
 11
36.66297148323358
 21
2.396372808600517
 31
0.0
 11
36.65313716320189
 21
2.39518062816478
 31
0.0
  0
SPLINE
  5
1D9
330
2
100
AcDbEntity
  8
GAIKEI
  6
Continuous
 62
     1
370
     9
100
AcDbSpline
210
0.0
220
0.0
230
1.0
 70
     8
 71
     3
 72
    21
 73
    17
 74
    15
 42
0.0000000001
 43
0.0000000001
 44
0.000001
 12
0.2597071042088229
 22
-0.965687433916103
 32
0.0
 13
-0.9962733101411988
 23
-0.086252486922398
 33
0.0
 40
0.0
 40
0.0
 40
0.0
 40
0.0
 40
0.0043646007959261
 40
0.009115856401331
 40
0.0144258302762231
 40
0.0188222541879858
 40
0.0237805050122419
 40
0.0293174221863166
 40
0.03554528079788
 40
0.0423704221291212
 40
0.0476353286386848
 40
0.0530538298150489
 40
0.0595202606983894
 40
0.06599876268004
 40
0.0728230002293724
 40
0.0795290245286455
 40
0.0795290245286455
 40
0.0795290245286455
 40
0.0795290245286455
 10
36.23482101455555
 20
2.399515145847942
 30
0.0
 10
36.23519885383347
 20
2.398110199133725
 30
0.0
 10
36.23573660765507
 20
2.395101481443703
 30
0.0
 10
36.23569905522745
 20
2.390263194234364
 30
0.0
 10
36.23466354820043
 20
2.385519068518192
 30
0.0
 10
36.23279157100717
 20
2.380984458695422
 30
0.0
 10
36.23019663896066
 20
2.376729208353538
 30
0.0
 10
36.2266045930206
 20
2.372440253023796
 30
0.0
 10
36.22197010916128
 20
2.368298528748596
 30
0.0
 10
36.21693188332469
 20
2.364820959443534
 30
0.0
 10
36.21180360621362
 20
2.36202177624267
 30
0.0
 10
36.20658492200852
 20
2.359675133857933
 30
0.0
 10
36.20081089153692
 20
2.357621858258426
 30
0.0
 10
36.19444574766101
 20
2.355893140188754
 30
0.0
 10
36.18789093735335
 20
2.354630487681674
 30
0.0
 10
36.18341010466121
 20
2.354082801131994
 30
0.0
 10
36.18118309365236
 20
2.353889997374267
 30
0.0
 11
36.23482101455555
 21
2.399515145847942
 31
0.0
 11
36.23558503633086
 21
2.395216945550714
 31
0.0
 11
36.23554547400676
 21
2.390465867843204
 31
0.0
 11
36.23443504436598
 21
2.385273304831684
 31
0.0
 11
36.23276658975771
 21
2.381205772656016
 31
0.0
 11
36.23020200727406
 21
2.376962278973905
 31
0.0
 11
36.22666250681539
 21
2.3727044018039
 31
0.0
 11
36.2220418613555
 21
2.368528751887765
 31
0.0
 11
36.2164332301078
 21
2.364639531682541
 31
0.0
 11
36.21181826868654
 21
2.36210546214005
 31
0.0
 11
36.20687799549849
 21
2.359879705677997
 31
0.0
 11
36.20078951124444
 21
2.357701338826871
 31
0.0
 11
36.19453848530914
 21
2.355999620300735
 31
0.0
 11
36.18783904514064
 21
2.354700402166372
 31
0.0
 11
36.18118309365236
 21
2.353889997374267
 31
0.0
  0
SPLINE
  5
1DA
330
2
100
AcDbEntity
  8
GAIKEI
  6
Continuous
 62
     1
370
     9
100
AcDbSpline
210
0.0
220
0.0
230
1.0
 70
     8
 71
     3
 72
    12
 73
     8
 74
     6
 42
0.0000000001
 43
0.0000000001
 44
0.000001
 12
0.9388112805116824
 22
0.3444319665536509
 32
0.0
 13
0.9961818372603069
 23
0.087302618017329
 33
0.0
 40
0.0
 40
0.0
 40
0.0
 40
0.0
 40
0.0053345044823485
 40
0.0113874282464962
 40
0.0173841655583146
 40
0.023530147659972
 40
0.0246527186302235
 40
0.0246527186302235
 40
0.0246527186302235
 40
0.0246527186302235
 10
36.1611940305836
 20
2.420214812524022
 30
0.0
 10
36.1628633949116
 20
2.420827270480515
 30
0.0
 10
36.16646144864669
 20
2.42204233157588
 30
0.0
 10
36.17204852670108
 20
2.423593100543143
 30
0.0
 10
36.17798842361742
 20
2.424840179989303
 30
0.0
 10
36.18237257589843
 20
2.425448844148604
 30
0.0
 10
36.18478469002852
 20
2.425676909744083
 30
0.0
 10
36.18515745163239
 20
2.425709577538952
 30
0.0
 11
36.1611940305836
 21
2.420214812524022
 31
0.0
 11
36.1662478832182
 21
2.421920959233148
 31
0.0
 11
36.17208119276704
 21
2.423534628416177
 31
0.0
 11
36.17795070803439
 21
2.424762763392209
 31
0.0
 11
36.18403974954892
 21
2.425604106907712
 31
0.0
 11
36.18515745163239
 21
2.425709577538952
 31
0.0
  0
SPLINE
  5
1DB
330
2
100
AcDbEntity
  8
GAIKEI
  6
Continuous
 62
     1
370
     9
100
AcDbSpline
210
0.0
220
0.0
230
1.0
 70
     8
 71
     3
 72
    34
 73
    30
 74
    28
 42
0.0000000001
 43
0.0000000001
 44
0.000001
 12
0.9803850775349289
 22
0.197091602425957
 32
0.0
 13
0.6445223388815097
 23
0.7645854789902228
 33
0.0
 40
0.0
 40
0.0
 40
0.0
 40
0.0
 40
0.0031620763657365
 40
0.0142619508713695
 40
0.0253512984634287
 40
0.0364981199425308
 40
0.0477058966844519
 40
0.0589863403792083
 40
0.0703609031956253
 40
0.0809933246994287
 40
0.0911954659677798
 40
0.1024257199383098
 40
0.113457155787393
 40
0.1242457267271075
 40
0.1346943592664253
 40
0.1446539304348764
 40
0.1539064697008587
 40
0.1621698616322562
 40
0.1684802387406486
 40
0.1740265373513303
 40
0.1833780765230128
 40
0.1917502730621951
 40
0.1990756940818168
 40
0.2053401671572638
 40
0.2105789432036249
 40
0.214859080110669
 40
0.2182613599286861
 40
0.2208668221906905
 40
0.2219952439328961
 40
0.2219952439328961
 40
0.2219952439328961
 40
0.2219952439328961
 10
35.98941013343965
 20
2.302817887606238
 30
0.0
 10
35.99044348426732
 20
2.303025627172189
 30
0.0
 10
35.9950975650719
 20
2.303995543697112
 30
0.0
 10
36.0033182435871
 20
2.305967633189595
 30
0.0
 10
36.01399449898238
 20
2.309062669542868
 30
0.0
 10
36.02455233445454
 20
2.312653746348871
 30
0.0
 10
36.0349961081144
 20
2.316742063625042
 30
0.0
 10
36.04531521266063
 20
2.32132583256822
 30
0.0
 10
36.05524637803103
 20
2.326283030845957
 30
0.0
 10
36.06463855456232
 20
2.331490706331351
 30
0.0
 10
36.07378093525314
 20
2.337032275143087
 30
0.0
 10
36.08280594116258
 20
2.34300879631877
 30
0.0
 10
36.0917371138662
 20
2.34946387457137
 30
0.0
 10
36.1002016691863
 20
2.356105029379932
 30
0.0
 10
36.10813896756912
 20
2.362826949730447
 30
0.0
 10
36.11545902690486
 20
2.369475526536291
 30
0.0
 10
36.1220450553845
 20
2.375841502733749
 30
0.0
 10
36.12760922369449
 20
2.381509736543989
 30
0.0
 10
36.13221294574373
 20
2.386387115919262
 30
0.0
 10
36.13699781642987
 20
2.391591297088268
 30
0.0
 10
36.14215797903091
 20
2.397383257470323
 30
0.0
 10
36.14760424282159
 20
2.403712650852526
 30
0.0
 10
36.15230489551547
 20
2.409325025069108
 30
0.0
 10
36.15629018911582
 20
2.414173638793101
 30
0.0
 10
36.15961011106349
 20
2.418255015402337
 30
0.0
 10
36.16232364506458
 20
2.421599800388889
 30
0.0
 10
36.16449185224886
 20
2.424256655456474
 30
0.0
 10
36.1660046041379
 20
2.426092445758911
 30
0.0
 10
36.16680653711564
 20
2.427044297234488
 30
0.0
 10
36.16704896812247
 20
2.427331888860578
 30
0.0
 11
35.98941013343965
 21
2.302817887606238
 31
0.0
 11
35.99250667327995
 21
2.303462100594629
 31
0.0
 11
36.00330028678114
 21
2.306051577912512
 31
0.0
 11
36.01395168296135
 21
2.309137241400947
 31
0.0
 11
36.02450515871772
 21
2.312725513939255
 31
0.0
 11
36.03494219851284
 21
2.316809921554863
 31
0.0
 11
36.04525153787977
 21
2.321388772242698
 31
0.0
 11
36.05542901337287
 21
2.326468107376058
 31
0.0
 11
36.06472975495807
 21
2.331620250672244
 31
0.0
 11
36.07345409954429
 21
2.336908866089061
 31
0.0
 11
36.08281806084335
 21
2.343108444261076
 31
0.0
 11
36.09175947773578
 21
2.349569371754625
 31
0.0
 11
36.10024848226137
 21
2.35622745105752
 31
0.0
 11
36.10822343381288
 21
2.36297830554713
 31
0.0
 11
36.11559779852276
 21
2.369672465606015
 31
0.0
 11
36.1222528519031
 21
2.376100507922899
 31
0.0
 11
36.12804407899867
 21
2.381995023476974
 31
0.0
 11
36.13237790593367
 21
2.38658182840345
 31
0.0
 11
36.13613219498493
 21
2.390664316056472
 31
0.0
 11
36.14235465797468
 21
2.397645151448955
 31
0.0
 11
36.14781756546082
 21
2.403989448763866
 31
0.0
 11
36.15252345277929
 21
2.409603378923975
 31
0.0
 11
36.15650363576266
 21
2.414440897118026
 31
0.0
 11
36.15981161951324
 21
2.41850314578653
 31
0.0
 11
36.16251060978481
 21
2.421825028215948
 31
0.0
 11
36.16466297544504
 21
2.424459937294557
 31
0.0
 11
36.16632360198945
 21
2.426467610836937
 31
0.0
 11
36.16704896812247
 21
2.427331888860578
 31
0.0
  0
SPLINE
  5
1DC
330
2
100
AcDbEntity
  8
GAIKEI
  6
Continuous
 62
     1
370
     9
100
AcDbSpline
210
0.0
220
0.0
230
1.0
 70
     8
 71
     3
 72
    11
 73
     7
 74
     5
 42
0.0000000001
 43
0.0000000001
 44
0.000001
 12
-0.8228105591229899
 22
-0.5683157430475712
 32
0.0
 13
-0.4444480600522888
 23
-0.8958046226246867
 33
0.0
 40
0.0
 40
0.0
 40
0.0
 40
0.0
 40
0.0124665682536677
 40
0.0249290214734081
 40
0.0377704155378011
 40
0.0509189551382853
 40
0.0509189551382853
 40
0.0509189551382853
 40
0.0509189551382853
 10
36.22353760552736
 20
2.574293786259204
 30
0.0
 10
36.22011839752898
 20
2.571932137259068
 30
0.0
 10
36.21358197570419
 20
2.566754510169971
 30
0.0
 10
36.20482698475246
 20
2.557655631000216
 30
0.0
 10
36.19720705348497
 20
2.547310819501831
 30
0.0
 10
36.19288457844077
 20
2.539776850272403
 30
0.0
 10
36.19093663080145
 20
2.53585067608742
 30
0.0
 11
36.22353760552736
 21
2.574293786259204
 31
0.0
 11
36.21376952422989
 21
2.566546999749959
 31
0.0
 11
36.20512026581656
 21
2.557574501480758
 31
0.0
 11
36.19746914604724
 21
2.547260656760727
 31
0.0
 11
36.19093663080145
 21
2.53585067608742
 31
0.0
  0
SPLINE
  5
1DD
330
2
100
AcDbEntity
  8
GAIKEI
  6
Continuous
 62
     1
370
     9
100
AcDbSpline
210
0.0
220
0.0
230
1.0
 70
     8
 71
     3
 72
    29
 73
    25
 74
    23
 42
0.0000000001
 43
0.0000000001
 44
0.000001
 12
-0.1367741224196
 22
-0.9906022609687243
 32
0.0
 13
-0.9961697386960503
 23
-0.087440560989982
 33
0.0
 40
0.0
 40
0.0
 40
0.0
 40
0.0
 40
0.0257818733538506
 40
0.0521149170962878
 40
0.0657472837564566
 40
0.0794271755154785
 40
0.0932886919045148
 40
0.1071814506152382
 40
0.1241446928356014
 40
0.1412083192779083
 40
0.1585239810847183
 40
0.1759345616971902
 40
0.1921816734197779
 40
0.208500192431286
 40
0.2250398588515624
 40
0.2416465082834515
 40
0.254481665665343
 40
0.2673398552185077
 40
0.2802991274107409
 40
0.2932747359189693
 40
0.317333165130772
 40
0.3294395657770935
 40
0.341540309683523
 40
0.3546006978221245
 40
0.3546006978221245
 40
0.3546006978221245
 40
0.3546006978221245
 10
36.19093663080145
 20
2.53585067608742
 30
0.0
 10
36.18976119976735
 20
2.527337482075324
 30
0.0
 10
36.18671560942576
 20
2.510216187236721
 30
0.0
 10
36.1812549382969
 20
2.488965681461081
 30
0.0
 10
36.17567989379711
 20
2.471969338538372
 30
0.0
 10
36.17081363076035
 20
2.459131110214229
 30
0.0
 10
36.16530919408103
 20
2.446458105297494
 30
0.0
 10
36.15871041095495
 20
2.433086021438157
 30
0.0
 10
36.15085341037878
 20
2.419166811020204
 30
0.0
 10
36.14152082766654
 20
2.404807645725668
 30
0.0
 10
36.13119436543106
 20
2.390958073289823
 30
0.0
 10
36.12015142105525
 20
2.378027966423985
 30
0.0
 10
36.10852337094232
 20
2.366083586126705
 30
0.0
 10
36.09637148423249
 20
2.355100404073652
 30
0.0
 10
36.08343434538567
 20
2.344858994356627
 30
0.0
 10
36.0707994204619
 20
2.336161283463297
 30
0.0
 10
36.05872137150661
 20
2.328873947306817
 30
0.0
 10
36.0473479891362
 20
2.322807257446243
 30
0.0
 10
36.03562260876304
 20
2.317339164536576
 30
0.0
 10
36.02015312448532
 20
2.311125309708359
 30
0.0
 10
36.00448822680488
 20
2.306221027171716
 30
0.0
 10
35.98879998087347
 20
2.302628307991199
 30
0.0
 10
35.97655554486936
 20
2.300498139094088
 30
0.0
 10
35.96821973345143
 20
2.299523432613966
 30
0.0
 10
35.96388294563833
 20
2.299142763392126
 30
0.0
 11
36.19093663080145
 21
2.53585067608742
 31
0.0
 11
36.18643485776357
 21
2.510465027164855
 31
0.0
 11
36.17983898830257
 21
2.484971390165014
 31
0.0
 11
36.17558877190288
 21
2.472018497543331
 31
0.0
 11
36.1707364851021
 21
2.459228067013953
 31
0.0
 11
36.16521244633481
 21
2.446514806316145
 31
0.0
 11
36.15906194347306
 21
2.434057662952284
 31
0.0
 11
36.1507202581672
 21
2.419287138197091
 31
0.0
 11
36.1414183965412
 21
2.404981781521087
 31
0.0
 11
36.13106533925363
 21
2.39110205342888
 31
0.0
 11
36.11975597817401
 21
2.377864714087706
 31
0.0
 11
36.10842104876953
 21
2.366224765140657
 31
0.0
 11
36.09631311048378
 21
2.355284368785078
 31
0.0
 11
36.08334356168649
 21
2.345020269340125
 31
0.0
 11
36.06966335454847
 21
2.335605754623884
 31
0.0
 11
36.05867305137149
 21
2.32897592108128
 31
0.0
 11
36.04732741412416
 21
2.322925323107256
 31
0.0
 11
36.03558203850115
 21
2.317449096187033
 31
0.0
 11
36.02354096115286
 21
2.312613908894718
 31
0.0
 11
36.00057891452633
 21
2.305433855738499
 31
0.0
 11
35.98877780959482
 21
2.302732181595672
 31
0.0
 11
35.97685582377898
 21
2.300659851414934
 31
0.0
 11
35.96388294563833
 21
2.299142763392126
 31
0.0
  0
ELLIPSE
  5
1DE
330
2
100
AcDbEntity
  8
GAIKEI
  6
Continuous
 62
     1
370
     9
100
AcDbEllipse
 10
36.70471005058484
 20
2.624206778191023
 30
0.0
 11
0.1675121927265165
 21
0.0000000000002766
 31
0.0
210
0.0
220
0.0
230
1.0
 40
0.971747000000062
 41
-1.418186033387587
 42
-0.0000000000016993
  0
ELLIPSE
  5
1DF
330
2
100
AcDbEntity
  8
GAIKEI
  6
Continuous
 62
     1
370
     9
100
AcDbEllipse
 10
36.61296251704815
 20
2.524081926393591
 30
0.0
 11
-0.0145996495763536
 21
0.1668747582598762
 31
0.0
210
0.0
220
0.0
230
1.0
 40
0.2788250000001458
 41
3.141592653590082
 42
3.805681872582113
  0
ELLIPSE
  5
1E0
330
2
100
AcDbEntity
  8
GAIKEI
  6
Continuous
 62
     1
370
     9
100
AcDbEllipse
 10
36.70471005058484
 20
2.134860411588704
 30
0.0
 11
0.0154499279619968
 21
0.3375993348990198
 31
0.0
210
0.0
220
0.0
230
1.0
 40
0.1370070000001187
 41
-0.2270428897107108
 42
0.0183279207395244
  0
ELLIPSE
  5
1E1
330
2
100
AcDbEntity
  8
GAIKEI
  6
Continuous
 62
     1
370
     9
100
AcDbEllipse
 10
36.69573310567908
 20
2.638531214825206
 30
0.0
 11
-0.0145996495763401
 21
0.1668747582598775
 31
0.0
210
0.0
220
0.0
230
1.0
 40
0.8651980000000211
 41
3.141592653589987
 42
4.636838040159509
  0
ELLIPSE
  5
1E2
330
2
100
AcDbEntity
  8
GAIKEI
  6
Continuous
 62
     1
370
     9
100
AcDbEllipse
 10
36.20217347240528
 20
2.549541200000192
 30
0.0
 11
-0.1675121927265165
 21
0.0000000000000128
 31
0.0
210
0.0
220
0.0
230
1.0
 40
0.9131230000000069
 41
1.766948264977615
 42
3.141592653589876
  0
ELLIPSE
  5
1E3
330
2
100
AcDbEntity
  8
GAIKEI
  6
Continuous
 62
     1
370
     9
100
AcDbEllipse
 10
36.14100843888004
 20
2.482791309969343
 30
0.0
 11
-0.0145996495763747
 21
0.1668747582598744
 31
0.0
210
0.0
220
0.0
230
1.0
 40
0.2788249999999984
 41
3.141592653589627
 42
3.805681872581898
  0
ELLIPSE
  5
1E4
330
2
100
AcDbEntity
  8
GAIKEI
  6
Continuous
 62
     1
370
     9
100
AcDbEllipse
 10
36.20217347240528
 20
2.090894156412559
 30
0.0
 11
0.01544992796203
 21
0.3375993348990232
 31
0.0
210
0.0
220
0.0
230
1.0
 40
0.1370069999998186
 41
-0.4111313475468017
 42
0.018327920740318
  0
ELLIPSE
  5
1E5
330
2
100
AcDbEntity
  8
GAIKEI
  6
Continuous
 62
     1
370
     9
100
AcDbEllipse
 10
36.18649731288317
 20
2.593978867989108
 30
0.0
 11
-0.0145996495763522
 21
0.1668747582598764
 31
0.0
210
0.0
220
0.0
230
1.0
 40
0.7648360000000194
 41
3.141592653589927
 42
4.645574106263621
  0
ELLIPSE
  5
1E6
330
2
100
AcDbEntity
  8
GAIKEI
  6
Continuous
 62
     1
370
     9
100
AcDbEllipse
 10
36.1705577906916
 20
2.592584328984685
 30
0.0
 11
-0.0145996495763456
 21
0.1668747582598767
 31
0.0
210
0.0
220
0.0
230
1.0
 40
0.7648360000000185
 41
3.141592653589942
 42
4.645574106263651
  0
ELLIPSE
  5
1E7
330
2
100
AcDbEntity
  8
GAIKEI
  6
Continuous
 62
     1
370
     9
100
AcDbEllipse
 10
36.3074860763043
 20
2.088881128890079
 30
0.0
 11
0.0253428182807655
 21
0.5043380100777587
 31
0.0
210
0.0
220
0.0
230
1.0
 40
0.6979530000002946
 41
0.0962609737546623
 42
0.3120454453760733
  0
ELLIPSE
  5
1E8
330
2
100
AcDbEntity
  8
GAIKEI
  6
Continuous
 62
     1
370
     9
100
AcDbEllipse
 10
36.13516859531474
 20
4.017848788349681
 30
0.0
 11
0.1536790015526313
 21
0.7886648052768398
 31
0.0
210
0.0
220
0.0
230
1.0
 40
0.1568440000000001
 41
-1.103663681969955
 42
-0.1052961031523893
  0
ELLIPSE
  5
1E9
330
2
100
AcDbEntity
  8
GAIKEI
  6
Continuous
 62
     1
370
     9
100
AcDbEllipse
 10
36.09521583176904
 20
2.574293773168164
 30
0.0
 11
-0.062558807905629
 21
0.1553921821246796
 31
0.0
210
0.0
220
0.0
230
1.0
 40
0.7416150000000097
 41
3.17601924367798
 42
4.422249784462254
  0
ELLIPSE
  5
1EA
330
2
100
AcDbEntity
  8
GAIKEI
  6
Continuous
 62
     1
370
     9
100
AcDbEllipse
 10
36.03932843738765
 20
2.535850663005817
 30
0.0
 11
-0.1268796904010402
 21
0.1093703747629223
 31
0.0
210
0.0
220
0.0
230
1.0
 40
0.8116480025038208
 41
3.14137265342075
 42
3.149827653396541
  0
ELLIPSE
  5
1EB
330
2
100
AcDbEntity
  8
GAIKEI
  6
Continuous
 62
     1
370
     9
100
AcDbEllipse
 10
36.03932843738765
 20
2.535850663005817
 30
0.0
 11
-0.1268796904065844
 21
0.1093703747564991
 31
0.0
210
0.0
220
0.0
230
1.0
 40
0.8116480000000217
 41
3.149827653359536
 42
3.957067363725483
  0
ELLIPSE
  5
1EC
330
2
100
AcDbEntity
  8
GAIKEI
  6
Continuous
 62
     1
370
     9
100
AcDbEllipse
 10
36.40318810367715
 20
3.749829279987238
 30
0.0
 11
-0.1763930384196033
 21
1.118450067246428
 31
0.0
210
0.0
220
0.0
230
1.0
 40
0.0789830000000005
 41
-0.1081374000018831
 42
0.8902301788158371
  0
ELLIPSE
  5
1ED
330
2
100
AcDbEntity
  8
GAIKEI
  6
Continuous
 62
     1
370
     9
100
AcDbEllipse
 10
36.58651800372871
 20
5.994868727395214
 30
0.0
 11
-0.1796504981499542
 21
0.150744666738429
 31
0.0
210
0.0
220
0.0
230
1.0
 40
0.6626180000000074
 41
3.141592653589759
 42
4.043973823987151
  0
ELLIPSE
  5
1EE
330
2
100
AcDbEntity
  8
GAIKEI
  6
Continuous
 62
     1
370
     9
100
AcDbEllipse
 10
36.14578216784591
 20
5.469620209579488
 30
0.0
 11
-0.1796504981499644
 21
0.1507446667384168
 31
0.0
210
0.0
220
0.0
230
0.9999999999999998
 40
0.6626179999999699
 41
3.141592653589656
 42
4.043973823987012
  0
ELLIPSE
  5
1EF
330
2
100
AcDbEntity
  8
GAIKEI
  6
Continuous
 62
     1
370
     9
100
AcDbEllipse
 10
36.3696856651318
 20
27.7282084558093
 30
0.0
 11
0.4711171880342996
 21
0.1749045669702864
 31
0.0
210
0.0
220
0.0
230
1.0
 40
0.4320279999999894
 41
-0.7098863396953341
 42
0.0000000000000095
  0
ELLIPSE
  5
1F0
330
2
100
AcDbEntity
  8
GAIKEI
  6
Continuous
 62
     1
370
     9
100
AcDbEllipse
 10
35.93415396404288
 20
2.800998007311704
 30
0.0
 11
-0.0165763201582229
 21
0.5029005161902516
 31
0.0
210
0.0
220
0.0
230
1.0
 40
0.3760890000000085
 41
3.16203792590372
 42
4.66226521807605
  0
ELLIPSE
  5
1F1
330
2
100
AcDbEntity
  8
GAIKEI
  6
Continuous
 62
     1
370
     9
100
AcDbEllipse
 10
35.69229255665279
 20
29.55281223342467
 30
0.0
 11
0.4711171880342991
 21
0.1749045669702878
 31
0.0
210
0.0
220
0.0
230
1.0
 40
0.4320279999999947
 41
-0.709886339695332
 42
0.000000000000004
  0
ELLIPSE
  5
1F2
330
2
100
AcDbEntity
  8
GAIKEI
  6
Continuous
 62
     1
370
     9
100
AcDbEllipse
 10
35.69229255665279
 20
2.779837867126502
 30
0.0
 11
-0.0437989487291038
 21
0.5006242747796439
 31
0.0
210
0.0
220
0.0
230
1.0
 40
0.8079489999999857
 41
3.141592653589789
 42
4.641819945761958
  0
ELLIPSE
  5
1F3
330
2
100
AcDbEntity
  8
GAIKEI
  6
Continuous
 62
     1
370
     9
100
AcDbEllipse
 10
35.69229255665279
 20
29.55281223342467
 30
0.0
 11
0.4711171880342982
 21
0.1749045669703012
 31
0.0
210
0.0
220
0.0
230
1.0
 40
0.1058100000000084
 41
-1.293150744867591
 42
0.0000000000001232
  0
ELLIPSE
  5
1F4
330
2
100
AcDbEntity
  8
GAIKEI
  6
Continuous
 62
     1
370
     9
100
AcDbEllipse
 10
35.3769545056109
 20
30.4021964086345
 30
0.0
 11
0.4711171880342954
 21
0.1749045669702973
 31
0.0
210
0.0
220
0.0
230
1.0
 40
0.1058100000000079
 41
-1.293150744867588
 42
-0.000000000000179
  0
ELLIPSE
  5
1F5
330
2
100
AcDbEntity
  8
GAIKEI
  6
Continuous
 62
     1
370
     9
100
AcDbEllipse
 10
35.34836278750269
 20
30.49187349146922
 30
0.0
 11
0.4854130595185616
 21
0.1300660372935342
 31
0.0
210
0.0
220
0.0
230
1.0
 40
0.078881999999995
 41
-1.284491524356494
 42
-0.0000000000001978
  0
ELLIPSE
  5
1F6
330
2
100
AcDbEntity
  8
GAIKEI
  6
Continuous
 62
     1
370
     9
100
AcDbEllipse
 10
35.23114288090582
 20
30.92934404568166
 30
0.0
 11
0.4599577509689352
 21
0.2244427402777519
 31
0.0
210
0.0
220
0.0
230
1.0
 40
0.1303079999999661
 41
-1.309840722699882
 42
-0.0253491983431091
  0
ELLIPSE
  5
1F7
330
2
100
AcDbEntity
  8
GAIKEI
  6
Continuous
 62
     1
370
     9
100
AcDbEllipse
 10
35.69229255665279
 20
2.779837867126502
 30
0.0
 11
-0.043798948729104
 21
0.5006242747796437
 31
0.0
210
0.0
220
0.0
230
1.0
 40
0.2913539999999944
 41
3.14159265358978
 42
4.686904348821918
  0
ELLIPSE
  5
1F8
330
2
100
AcDbEntity
  8
GAIKEI
  6
Continuous
 62
     1
370
     9
100
AcDbEllipse
 10
35.23114288090582
 20
30.92934404568166
 30
0.0
 11
0.2135549416241566
 21
0.4657002590483179
 31
0.0
210
0.0
220
0.0
230
1.0
 40
0.2625639999999922
 41
-1.450970020742011
 42
-0.1664784963855268
  0
ELLIPSE
  5
1F9
330
2
100
AcDbEntity
  8
GAIKEI
  6
Continuous
 62
     1
370
     9
100
AcDbEllipse
 10
35.41599968809645
 20
30.8866664953066
 30
0.0
 11
0.0230924453231347
 21
0.5101286778527874
 31
0.0
210
0.0
220
0.0
230
1.0
 40
0.184330000000061
 41
-0.2543329143524091
 42
-0.0338449430253671
  0
ELLIPSE
  5
1FA
330
2
100
AcDbEntity
  8
GAIKEI
  6
Continuous
 62
     1
370
     9
100
AcDbEllipse
 10
35.13009543895563
 20
30.9526726647041
 30
0.0
 11
-0.0389242981282293
 21
0.5245543708703188
 31
0.0
210
0.0
220
0.0
230
1.0
 40
0.0868660000000003
 41
-0.0269557603682478
 42
1.478023735314957
  0
ELLIPSE
  5
1FB
330
2
100
AcDbEntity
  8
GAIKEI
  6
Continuous
 62
     1
370
     9
100
AcDbEllipse
 10
35.13009543895563
 20
2.730651999029817
 30
0.0
 11
0.0151471347811261
 21
0.5057492964739659
 31
0.0
210
0.0
220
0.0
230
1.0
 40
0.0958019999999988
 41
1.607560890406874
 42
3.152872585637803
  0
ARC
  5
1FC
330
2
100
AcDbEntity
  8
GAIKEI
  6
Continuous
 62
     1
370
     9
100
AcDbCircle
 10
36.60420273494894
 20
2.62420677819108
 30
0.0
 40
0.2680195083624267
100
AcDbArc
 50
355.2860180000007
 51
0.0
  0
ARC
  5
1FD
330
2
100
AcDbEntity
  8
GAIKEI
  6
Continuous
 62
     1
370
     9
100
AcDbCircle
 10
36.60420273494894
 20
2.62420677819108
 30
0.0
 40
0.2680195083624267
100
AcDbArc
 50
274.9999999999475
 51
358.5140450000027
  0
ARC
  5
1FE
330
2
100
AcDbEntity
  8
GAIKEI
  6
Continuous
 62
     1
370
     9
100
AcDbCircle
 10
36.70471005058484
 20
2.639316612492052
 30
0.0
 40
0.1675121927265167
100
AcDbArc
 50
274.9999999999475
 51
0.0
  0
ARC
  5
1FF
330
2
100
AcDbEntity
  8
GAIKEI
  6
Continuous
 62
     1
370
     9
100
AcDbCircle
 10
36.13516625014408
 20
2.54954334415629
 30
0.0
 40
0.2345194149878215
100
AcDbArc
 50
275.0005220000193
 51
359.999477999997
  0
ARC
  5
200
330
2
100
AcDbEntity
  8
GAIKEI
  6
Continuous
 62
     1
370
     9
100
AcDbCircle
 10
36.20217347240528
 20
2.595350357315851
 30
0.0
 40
0.1675121927265167
100
AcDbArc
 50
274.9999999999475
 51
0.0
  0
ARC
  5
201
330
2
100
AcDbEntity
  8
GAIKEI
  6
Continuous
 62
     1
370
     9
100
AcDbCircle
 10
36.13516859531474
 20
4.633783616458856
 30
0.0
 40
0.2345170698171234
100
AcDbArc
 50
0.0
 51
44.99999999996201
  0
ARC
  5
202
330
2
100
AcDbEntity
  8
GAIKEI
  6
Continuous
 62
     1
370
     9
100
AcDbCircle
 10
36.40318810367715
 20
5.029078553830458
 30
0.0
 40
0.2345170698171234
100
AcDbArc
 50
192.8705639999946
 51
224.999999999962
  0
ARC
  5
203
330
2
100
AcDbEntity
  8
GAIKEI
  6
Continuous
 62
     1
370
     9
100
AcDbCircle
 10
36.63770517349429
 20
6.055871240591159
 30
0.0
 40
0.2345170698171234
100
AcDbArc
 50
319.9999999999999
 51
0.0
  0
ARC
  5
204
330
2
100
AcDbEntity
  8
GAIKEI
  6
Continuous
 62
     7
370
     9
100
AcDbCircle
 10
36.3696856651318
 20
27.72820845580924
 30
0.0
 40
0.5025365781795501
100
AcDbArc
 50
0.0
 51
20.36769100000481
  0
ARC
  5
205
330
2
100
AcDbEntity
  8
GAIKEI
  6
Continuous
 62
     7
370
     9
100
AcDbCircle
 10
35.36109196433848
 20
31.06394802165323
 30
0.0
 40
0.3421774840161637
100
AcDbArc
 50
14.94547679211466
 51
76.27790704068157
  0
ARC
  5
206
330
2
100
AcDbEntity
  8
GAIKEI
  6
Continuous
 62
     1
370
     9
100
AcDbCircle
 10
35.93415396404288
 20
2.531954697929734
 30
0.0
 40
0.2345170698171234
100
AcDbArc
 50
274.9999999999475
 51
0.0
  0
ARC
  5
207
330
2
100
AcDbEntity
  8
GAIKEI
  6
Continuous
 62
     1
370
     9
100
AcDbCircle
 10
36.83871980476607
 20
4.888176510479524
 30
0.0
 40
0.6700487709060667
100
AcDbArc
 50
139.9999999999999
 51
180.0
  0
ARC
  5
208
330
2
100
AcDbEntity
  8
GAIKEI
  6
Continuous
 62
     1
370
     9
100
AcDbCircle
 10
37.02844810103834
 20
4.888176510479524
 30
0.0
 40
0.9045658407231902
100
AcDbArc
 50
139.9999999999999
 51
180.0
  0
ARC
  5
209
330
2
100
AcDbEntity
  8
GAIKEI
  6
Continuous
 62
     7
370
     9
100
AcDbCircle
 10
36.31918888011738
 20
30.75200555422731
 30
0.0
 40
0.5025365781795501
100
AcDbArc
 50
194.9999999999897
 51
200.3676910000048
  0
ARC
  5
20A
330
2
100
AcDbEntity
  8
GAIKEI
  6
Continuous
 62
     1
370
     9
100
AcDbCircle
 10
36.46611637054313
 20
30.75200555422731
 30
0.0
 40
1.0050731563591
100
AcDbArc
 50
194.9999999999897
 51
200.3676910000048
  0
ARC
  5
20B
330
2
100
AcDbEntity
  8
GAIKEI
  6
Continuous
 62
     7
370
     9
100
AcDbCircle
 10
35.13009543895565
 20
31.64034649898741
 30
0.0
 40
0.1675121927265167
100
AcDbArc
 50
222.2685839999633
 51
256.9999999999492
  0
ARC
  5
20C
330
2
100
AcDbEntity
  8
GAIKEI
  6
Continuous
 62
     1
370
     9
100
AcDbCircle
 10
35.13009543895565
 20
2.058043742326219
 30
0.0
 40
0.1675121927265167
100
AcDbArc
 50
94.99999999994754
 51
137.7314160000367
  0
LINE
  5
20D
330
2
100
AcDbEntity
  8
GAIKEI
  6
Continuous
 62
     1
370
     9
100
AcDbLine
 10
36.87222224331136
 20
6.870913607160446
 30
0.0
 11
36.87222224331136
 21
7.124039003423604
 31
0.0
  0
LINE
  5
20E
330
2
100
AcDbEntity
  8
GAIKEI
  6
Continuous
 62
     1
370
     9
100
AcDbLine
 10
36.87222224331136
 20
7.124039003423604
 30
0.0
 11
36.87222224331136
 21
10.02253946086267
 31
0.0
  0
LINE
  5
20F
330
2
100
AcDbEntity
  8
GAIKEI
  6
Continuous
 62
     1
370
     9
100
AcDbLine
 10
36.87222224331136
 20
11.31993682374224
 30
0.0
 11
36.87222224331136
 21
27.72820845580918
 31
0.0
  0
LINE
  5
210
330
2
100
AcDbEntity
  8
GAIKEI
  6
Continuous
 62
     1
370
     9
100
AcDbLine
 10
36.87222224331136
 20
6.055871240591159
 30
0.0
 11
36.87222224331136
 21
7.856941833294285
 31
0.0
  0
LINE
  5
211
330
2
100
AcDbEntity
  8
GAIKEI
  6
Continuous
 62
     1
370
     9
100
AcDbLine
 10
36.87222224331136
 20
2.639316612492052
 30
0.0
 11
36.87222224331136
 21
6.055871240591159
 31
0.0
  0
LINE
  5
212
330
2
100
AcDbEntity
  8
GAIKEI
  6
Continuous
 62
     1
370
     9
100
AcDbLine
 10
36.87222224331136
 20
7.856941833294285
 30
0.0
 11
36.87222224331136
 21
8.325975972928517
 31
0.0
  0
LINE
  5
213
330
2
100
AcDbEntity
  8
GAIKEI
  6
Continuous
 62
     1
370
     9
100
AcDbLine
 10
36.87222224331136
 20
11.31993682374224
 30
0.0
 11
36.87222224331136
 21
26.07516550660887
 31
0.0
  0
LINE
  5
214
330
2
100
AcDbEntity
  8
GAIKEI
  6
Continuous
 62
     1
370
     9
100
AcDbLine
 10
36.87222224331136
 20
11.31993682374224
 30
0.0
 11
36.87222224331136
 21
26.07516550660887
 31
0.0
  0
LINE
  5
215
330
2
100
AcDbEntity
  8
GAIKEI
  6
Continuous
 62
     1
370
     9
100
AcDbLine
 10
36.87222224331136
 20
26.67316664687695
 30
0.0
 11
36.87222224331136
 21
26.68024457305865
 31
0.0
  0
LINE
  5
216
330
2
100
AcDbEntity
  8
GAIKEI
  6
Continuous
 62
     1
370
     9
100
AcDbLine
 10
36.87222224331136
 20
2.62420677819108
 30
0.0
 11
36.87222224331136
 21
2.639316612492052
 31
0.0
  0
LINE
  5
217
330
2
100
AcDbEntity
  8
GAIKEI
  6
Continuous
 62
     1
370
     9
100
AcDbLine
 10
36.15560809804684
 20
2.315916534638631
 30
0.0
 11
36.62756217621497
 21
2.357207184565197
 31
0.0
  0
LINE
  5
218
330
2
100
AcDbEntity
  8
GAIKEI
  6
Continuous
 62
     1
370
     9
100
AcDbLine
 10
36.87222224331136
 20
6.055871240591159
 30
0.0
 11
36.87222224331136
 21
9.757492221843165
 31
0.0
  0
LINE
  5
219
330
2
100
AcDbEntity
  8
GAIKEI
  6
Continuous
 62
     1
370
     9
100
AcDbLine
 10
36.87222224331136
 20
2.639316612492052
 30
0.0
 11
36.87222224331136
 21
6.055871240591159
 31
0.0
  0
LINE
  5
21A
330
2
100
AcDbEntity
  8
GAIKEI
  6
Continuous
 62
     1
370
     9
100
AcDbLine
 10
36.71930970975173
 20
2.472441837161284
 30
0.0
 11
36.7103327648459
 21
2.471656472996926
 31
0.0
  0
LINE
  5
21B
330
2
100
AcDbEntity
  8
GAIKEI
  6
Continuous
 62
     1
370
     9
100
AcDbLine
 10
36.87222224331136
 20
2.639316612492052
 30
0.0
 11
36.84080291938996
 21
2.638531214825206
 31
0.0
  0
LINE
  5
21C
330
2
100
AcDbEntity
  8
GAIKEI
  6
Continuous
 62
     1
370
     9
100
AcDbLine
 10
36.65313716724431
 20
2.395180624041756
 30
0.0
 11
36.27580915213288
 21
2.362168694699164
 31
0.0
  0
LINE
  5
21D
330
2
100
AcDbEntity
  8
GAIKEI
  6
Continuous
 62
     1
370
     9
100
AcDbLine
 10
36.87222224331136
 20
10.20977514220476
 30
0.0
 11
36.87222224331136
 21
9.757492221843165
 31
0.0
  0
LINE
  5
21E
330
2
100
AcDbEntity
  8
GAIKEI
  6
Continuous
 62
     1
370
     9
100
AcDbLine
 10
36.34222653046109
 20
2.439451349379396
 30
0.0
 11
36.7103327648459
 21
2.471656472996926
 31
0.0
  0
LINE
  5
21F
330
2
100
AcDbEntity
  8
GAIKEI
  6
Continuous
 62
     1
370
     9
100
AcDbLine
 10
36.84080291938996
 20
5.938612705682601
 30
0.0
 11
36.84080291938996
 21
2.638531214825206
 31
0.0
  0
LINE
  5
220
330
2
100
AcDbEntity
  8
GAIKEI
  6
Continuous
 62
     1
370
     9
100
AcDbLine
 10
36.84080291938996
 20
2.638531214825206
 30
0.0
 11
36.3696856651318
 21
2.59731380122929
 31
0.0
  0
LINE
  5
221
330
2
100
AcDbEntity
  8
GAIKEI
  6
Continuous
 62
     1
370
     9
100
AcDbLine
 10
35.96466473533339
 20
2.299211146701907
 30
0.0
 11
35.99890010672677
 21
2.30220636521517
 31
0.0
  0
LINE
  5
222
330
2
100
AcDbEntity
  8
GAIKEI
  6
Continuous
 62
     1
370
     9
100
AcDbLine
 10
35.96388295592998
 20
2.299142768224839
 30
0.0
 11
35.96466473533339
 21
2.299211146701907
 31
0.0
  0
LINE
  5
223
330
2
100
AcDbEntity
  8
GAIKEI
  6
Continuous
 62
     1
370
     9
100
AcDbLine
 10
35.99934692874966
 20
2.302245931595052
 30
0.0
 11
35.99890010672677
 21
2.30220636521517
 31
0.0
  0
LINE
  5
224
330
2
100
AcDbEntity
  8
GAIKEI
  6
Continuous
 62
     1
370
     9
100
AcDbLine
 10
36.25844054992264
 20
4.842168884717921
 30
0.0
 11
36.25844054992264
 21
5.223200895932507
 31
0.0
  0
LINE
  5
225
330
2
100
AcDbEntity
  8
GAIKEI
  6
Continuous
 62
     1
370
     9
100
AcDbLine
 10
36.3696856651318
 20
2.549541200000192
 30
0.0
 11
36.3696856651318
 21
2.595350357315851
 31
0.0
  0
LINE
  5
226
330
2
100
AcDbEntity
  8
GAIKEI
  6
Continuous
 62
     1
370
     9
100
AcDbLine
 10
35.96684296338033
 20
2.299401742074735
 30
0.0
 11
36.15560809804684
 21
2.315916534638631
 31
0.0
  0
LINE
  5
227
330
2
100
AcDbEntity
  8
GAIKEI
  6
Continuous
 62
     1
370
     9
100
AcDbLine
 10
35.96388295592998
 20
2.299142768224839
 30
0.0
 11
35.96684296338033
 21
2.299401742074735
 31
0.0
  0
LINE
  5
228
330
2
100
AcDbEntity
  8
GAIKEI
  6
Continuous
 62
     1
370
     9
100
AcDbLine
 10
36.18118308907627
 20
2.353890007617508
 30
0.0
 11
36.08624387872656
 21
2.345583882038738
 31
0.0
  0
LINE
  5
229
330
2
100
AcDbEntity
  8
GAIKEI
  6
Continuous
 62
     1
370
     9
100
AcDbLine
 10
36.3696856651318
 20
2.595350357315851
 30
0.0
 11
36.3696856651318
 21
4.351485435793222
 31
0.0
  0
LINE
  5
22A
330
2
100
AcDbEntity
  8
GAIKEI
  6
Continuous
 62
     1
370
     9
100
AcDbLine
 10
36.3696856651318
 20
2.595350357315851
 30
0.0
 11
36.31481909005301
 21
2.593978867989108
 31
0.0
  0
LINE
  5
22B
330
2
100
AcDbEntity
  8
GAIKEI
  6
Continuous
 62
     1
370
     9
100
AcDbLine
 10
36.21677313157217
 20
2.428475581985082
 30
0.0
 11
36.20109697204998
 21
2.427104092658339
 31
0.0
  0
LINE
  5
22C
330
2
100
AcDbEntity
  8
GAIKEI
  6
Continuous
 62
     1
370
     9
100
AcDbLine
 10
36.3696856651318
 20
4.633783616458856
 30
0.0
 11
36.3696856651318
 21
4.351485435793222
 31
0.0
  0
LINE
  5
22D
330
2
100
AcDbEntity
  8
GAIKEI
  6
Continuous
 62
     1
370
     9
100
AcDbLine
 10
36.3696856651318
 20
4.351485435793222
 30
0.0
 11
36.31481909005301
 21
4.351485435793222
 31
0.0
  0
LINE
  5
22E
330
2
100
AcDbEntity
  8
GAIKEI
  6
Continuous
 62
     1
370
     9
100
AcDbLine
 10
36.18515744985841
 20
2.425709587156347
 30
0.0
 11
36.20109697204998
 21
2.427104092658339
 31
0.0
  0
LINE
  5
22F
330
2
100
AcDbEntity
  8
GAIKEI
  6
Continuous
 62
     1
370
     9
100
AcDbLine
 10
36.31481909005301
 20
4.351485435793222
 30
0.0
 11
36.31481909005301
 21
2.593978867989108
 31
0.0
  0
LINE
  5
230
330
2
100
AcDbEntity
  8
GAIKEI
  6
Continuous
 62
     1
370
     9
100
AcDbLine
 10
36.31481909005301
 20
2.593978867989108
 30
0.0
 11
36.29887960136353
 21
2.592584328984685
 31
0.0
  0
LINE
  5
231
330
2
100
AcDbEntity
  8
GAIKEI
  6
Continuous
 62
     1
370
     9
100
AcDbLine
 10
36.30099718999706
 20
4.799612244643583
 30
0.0
 11
36.23735950899483
 21
4.863249925645732
 31
0.0
  0
LINE
  5
232
330
2
100
AcDbEntity
  8
GAIKEI
  6
Continuous
 62
     1
370
     9
100
AcDbLine
 10
36.22353760893889
 20
4.442766916907487
 30
0.0
 11
36.31481909005301
 21
4.351485435793222
 31
0.0
  0
LINE
  5
233
330
2
100
AcDbEntity
  8
GAIKEI
  6
Continuous
 62
     1
370
     9
100
AcDbLine
 10
36.22353760893889
 20
2.574293773168221
 30
0.0
 11
36.22353760893889
 21
4.442766916907487
 31
0.0
  0
LINE
  5
234
330
2
100
AcDbEntity
  8
GAIKEI
  6
Continuous
 62
     1
370
     9
100
AcDbLine
 10
35.96388295592998
 20
2.299142768224839
 30
0.0
 11
35.95459346677505
 21
2.298330032568173
 31
0.0
  0
LINE
  5
235
330
2
100
AcDbEntity
  8
GAIKEI
  6
Continuous
 62
     1
370
     9
100
AcDbLine
 10
36.19093662050751
 20
2.53585066300576
 30
0.0
 11
36.16867103386001
 21
2.531954697929734
 31
0.0
  0
LINE
  5
236
330
2
100
AcDbEntity
  8
GAIKEI
  6
Continuous
 62
     1
370
     9
100
AcDbLine
 10
36.22353760893889
 20
4.442766916907487
 30
0.0
 11
36.16867103386001
 21
4.442766916907487
 31
0.0
  0
LINE
  5
237
330
2
100
AcDbEntity
  8
GAIKEI
  6
Continuous
 62
     1
370
     9
100
AcDbLine
 10
36.81735566823256
 20
5.90512654932246
 30
0.0
 11
36.76616849846698
 21
5.84412406962889
 31
0.0
  0
LINE
  5
238
330
2
100
AcDbEntity
  8
GAIKEI
  6
Continuous
 62
     1
370
     9
100
AcDbLine
 10
36.87222224331136
 20
6.055871240591159
 30
0.0
 11
36.77624630000091
 21
5.994868727395271
 31
0.0
  0
LINE
  5
239
330
2
100
AcDbEntity
  8
GAIKEI
  6
Continuous
 62
     1
370
     9
100
AcDbLine
 10
36.87222224331136
 20
27.72820845580924
 30
0.0
 11
36.77624630000091
 21
27.72820845580924
 31
0.0
  0
LINE
  5
23A
330
2
100
AcDbEntity
  8
GAIKEI
  6
Continuous
 62
     1
370
     9
100
AcDbLine
 10
36.32543266258418
 20
5.318875551813164
 30
0.0
 11
36.76616849846698
 21
5.84412406962889
 31
0.0
  0
LINE
  5
23B
330
2
100
AcDbEntity
  8
GAIKEI
  6
Continuous
 62
     1
370
     9
100
AcDbLine
 10
36.16867103386001
 20
2.782027620012229
 30
0.0
 11
36.16867103386001
 21
4.888176510479524
 31
0.0
  0
LINE
  5
23C
330
2
100
AcDbEntity
  8
GAIKEI
  6
Continuous
 62
     1
370
     9
100
AcDbLine
 10
36.12388226031514
 20
2.782027620012229
 30
0.0
 11
36.16867103386001
 21
2.782027620012229
 31
0.0
  0
LINE
  5
23D
330
2
100
AcDbEntity
  8
GAIKEI
  6
Continuous
 62
     1
370
     9
100
AcDbLine
 10
36.16867103386001
 20
2.782027620012229
 30
0.0
 11
36.16867103386001
 21
2.531954697929734
 31
0.0
  0
LINE
  5
23E
330
2
100
AcDbEntity
  8
GAIKEI
  6
Continuous
 62
     1
370
     9
100
AcDbLine
 10
36.12388226031514
 20
4.888176510479524
 30
0.0
 11
36.16867103386001
 21
4.888176510479524
 31
0.0
  0
LINE
  5
23F
330
2
100
AcDbEntity
  8
GAIKEI
  6
Continuous
 62
     7
370
     9
100
AcDbLine
 10
36.84080285238513
 20
27.90311302860568
 30
0.0
 11
36.16340974390566
 21
29.72771677271862
 31
0.0
  0
LINE
  5
240
330
2
100
AcDbEntity
  8
GAIKEI
  6
Continuous
 62
     1
370
     9
100
AcDbLine
 10
35.73609150065086
 20
2.279213608139116
 30
0.0
 11
35.95459346677505
 21
2.298330032568173
 31
0.0
  0
LINE
  5
241
330
2
100
AcDbEntity
  8
GAIKEI
  6
Continuous
 62
     1
370
     9
100
AcDbLine
 10
36.77624630000091
 20
27.72820845580924
 30
0.0
 11
36.77624630000091
 21
5.994868727395271
 31
0.0
  0
LINE
  5
242
330
2
100
AcDbEntity
  8
GAIKEI
  6
Continuous
 62
     1
370
     9
100
AcDbLine
 10
36.09885319152183
 20
29.55281223342467
 30
0.0
 11
36.77624630000091
 21
27.72820845580924
 31
0.0
  0
LINE
  5
243
330
2
100
AcDbEntity
  8
GAIKEI
  6
Continuous
 62
     1
370
     9
100
AcDbLine
 10
36.12388226031514
 20
2.782027620012229
 30
0.0
 11
36.09885319152183
 21
2.779837867126445
 31
0.0
  0
LINE
  5
244
330
2
100
AcDbEntity
  8
GAIKEI
  6
Continuous
 62
     1
370
     9
100
AcDbLine
 10
36.12388226031514
 20
4.888176510479524
 30
0.0
 11
36.12388226031514
 21
2.782027620012229
 31
0.0
  0
LINE
  5
245
330
2
100
AcDbEntity
  8
GAIKEI
  6
Continuous
 62
     1
370
     9
100
AcDbLine
 10
36.77624630000091
 20
5.994868727395271
 30
0.0
 11
36.3355104641181
 21
5.469620209579488
 31
0.0
  0
LINE
  5
246
330
2
100
AcDbEntity
  8
GAIKEI
  6
Continuous
 62
     1
370
     9
100
AcDbLine
 10
35.83922004707854
 20
29.55281223342467
 30
0.0
 11
36.09885319152183
 21
29.55281223342467
 31
0.0
  0
LINE
  5
247
330
2
100
AcDbEntity
  8
GAIKEI
  6
Continuous
 62
     1
370
     9
100
AcDbLine
 10
35.83922004707854
 20
2.779837867126445
 30
0.0
 11
36.09885319152183
 21
2.779837867126445
 31
0.0
  0
LINE
  5
248
330
2
100
AcDbEntity
  8
GAIKEI
  6
Continuous
 62
     1
370
     9
100
AcDbLine
 10
36.09885319152183
 20
2.779837867126445
 30
0.0
 11
36.09885319152183
 21
29.55281223342467
 31
0.0
  0
LINE
  5
249
330
2
100
AcDbEntity
  8
GAIKEI
  6
Continuous
 62
     7
370
     9
100
AcDbLine
 10
36.16340974390566
 20
29.72771677271862
 30
0.0
 11
35.84807169286414
 21
30.57710098143093
 31
0.0
  0
LINE
  5
24A
330
2
100
AcDbEntity
  8
GAIKEI
  6
Continuous
 62
     7
370
     9
100
AcDbLine
 10
35.83377583380965
 20
30.62193950609702
 30
0.0
 11
35.69169416959797
 21
31.15219549939235
 31
0.0
  0
LINE
  5
24B
330
2
100
AcDbEntity
  8
GAIKEI
  6
Continuous
 62
     1
370
     9
100
AcDbLine
 10
35.83922004707854
 20
29.55281223342467
 30
0.0
 11
35.83922004707854
 21
2.779837867126445
 31
0.0
  0
LINE
  5
24C
330
2
100
AcDbEntity
  8
GAIKEI
  6
Continuous
 62
     1
370
     9
100
AcDbLine
 10
35.52388199603672
 20
30.40219640863455
 30
0.0
 11
35.83922004707854
 21
29.55281223342467
 31
0.0
  0
LINE
  5
24D
330
2
100
AcDbEntity
  8
GAIKEI
  6
Continuous
 62
     1
370
     9
100
AcDbLine
 10
35.37807037133149
 20
30.9293440456816
 30
0.0
 11
35.49529024442597
 21
30.49187349146922
 31
0.0
  0
LINE
  5
24E
330
2
100
AcDbEntity
  8
GAIKEI
  6
Continuous
 62
     1
370
     9
100
AcDbLine
 10
35.11549577978882
 20
2.224918517656988
 30
0.0
 11
35.73609150065086
 21
2.279213608139116
 31
0.0
  0
LINE
  5
24F
330
2
100
AcDbEntity
  8
GAIKEI
  6
Continuous
 62
     1
370
     9
100
AcDbLine
 10
35.83922004707854
 20
2.779837867126445
 30
0.0
 11
35.08111959764621
 21
2.71351268750908
 31
0.0
  0
LINE
  5
250
330
2
100
AcDbEntity
  8
GAIKEI
  6
Continuous
 62
     1
370
     9
100
AcDbLine
 10
35.08111959764621
 20
30.99790052120858
 30
0.0
 11
35.37807037133149
 21
30.9293440456816
 31
0.0
  0
LINE
  5
251
330
2
100
AcDbEntity
  8
GAIKEI
  6
Continuous
 62
     7
370
     9
100
AcDbLine
 10
35.44226080906731
 20
31.39635899334479
 30
0.0
 11
35.09241340368959
 21
31.4771276102581
 31
0.0
  0
LINE
  5
252
330
2
100
AcDbEntity
  8
GAIKEI
  6
Continuous
 62
     1
370
     9
100
AcDbLine
 10
35.08111959764621
 20
2.71351268750908
 30
0.0
 11
35.00613641633798
 21
2.71351268750908
 31
0.0
  0
LINE
  5
253
330
2
100
AcDbEntity
  8
GAIKEI
  6
Continuous
 62
     1
370
     9
100
AcDbLine
 10
35.08111959764621
 20
2.71351268750908
 30
0.0
 11
35.08111959764621
 21
30.99790052120858
 31
0.0
  0
LINE
  5
254
330
2
100
AcDbEntity
  8
GAIKEI
  6
Continuous
 62
     1
370
     9
100
AcDbLine
 10
35.00613641633798
 20
30.99790052120858
 30
0.0
 11
35.08111959764621
 21
30.99790052120858
 31
0.0
  0
SPLINE
  5
255
330
2
100
AcDbEntity
  8
GAIKEI
  6
Continuous
 62
     1
370
     9
100
AcDbSpline
210
0.0
220
0.0
230
1.0
 70
     8
 71
     3
 72
    12
 73
     8
 74
     6
 42
0.0000000001
 43
0.0000000001
 44
0.000001
 12
0.004603161304973
 22
0.9999894053968775
 32
0.0
 13
0.5225006256474149
 23
0.8526389014102395
 33
0.0
 40
0.0
 40
0.0
 40
0.0
 40
0.0
 40
0.0005281866242132
 40
0.0010948820304857
 40
0.0017170205127126
 40
0.0024118751043803
 40
0.0024122346383152
 40
0.0024122346383152
 40
0.0024122346383152
 40
0.0024122346383152
 10
33.70175568425198
 20
32.27075623078673
 30
0.0
 10
33.70175649469472
 20
32.2709322911295
 30
0.0
 10
33.70178505491983
 20
32.27129774368854
 30
0.0
 10
33.70191719163492
 20
32.27185675749411
 30
0.0
 10
33.70214688483645
 20
32.27244302712274
 30
0.0
 10
33.70235667206777
 20
32.2728301193161
 30
0.0
 10
33.70247774957957
 20
32.27302771162135
 30
0.0
 10
33.70247781219847
 20
32.27302781380558
 30
0.0
 11
33.70175568425198
 21
32.27075623078673
 31
0.0
 11
33.70179630530376
 21
32.27128350477
 31
0.0
 11
33.70192463569909
 21
32.27183573181628
 31
0.0
 11
33.70214875698169
 21
32.27241625736946
 31
0.0
 11
33.70247762435131
 21
32.27302750724851
 31
0.0
 11
33.70247781219847
 21
32.27302781380558
 31
0.0
  0
SPLINE
  5
256
330
2
100
AcDbEntity
  8
GAIKEI
  6
Continuous
 62
     1
370
     9
100
AcDbSpline
210
0.0
220
0.0
230
1.0
 70
     8
 71
     3
 72
    12
 73
     8
 74
     6
 42
0.0000000001
 43
0.0000000001
 44
0.000001
 12
-0.00080151082828
 22
0.9999996787901446
 32
0.0
 13
0.094562418223241
 23
0.9955189345561302
 33
0.0
 40
0.0
 40
0.0
 40
0.0
 40
0.0
 40
0.0040686736082761
 40
0.0081360183581156
 40
0.0122063989035883
 40
0.0162747788484132
 40
0.0162767654805576
 40
0.0162767654805576
 40
0.0162767654805576
 40
0.0162767654805576
 10
33.70175568425198
 20
1.723486763248047
 30
0.0
 10
33.70175459722333
 20
1.724842987348495
 30
0.0
 10
33.70178057618745
 20
1.727555107353055
 30
0.0
 10
33.7019079375502
 20
1.731622239291709
 30
0.0
 10
33.70212990632285
 20
1.735685281838073
 30
0.0
 10
33.70234945753721
 20
1.738390365470365
 30
0.0
 10
33.70247774957853
 20
1.739741075346216
 30
0.0
 10
33.70247781219878
 20
1.739741734589529
 30
0.0
 11
33.70175568425198
 21
1.723486763248047
 31
0.0
 11
33.70179630530376
 21
1.727555117877443
 31
0.0
 11
33.70192463569909
 21
1.731620330299676
 31
0.0
 11
33.70214875698199
 21
1.735684433828168
 31
0.0
 11
33.70247762435131
 21
1.739739756858284
 31
0.0
 11
33.70247781219878
 21
1.739741734589529
 31
0.0
  0
SPLINE
  5
257
330
2
100
AcDbEntity
  8
GAIKEI
  6
Continuous
 62
     1
370
     9
100
AcDbSpline
210
0.0
220
0.0
230
1.0
 70
     8
 71
     3
 72
    12
 73
     8
 74
     6
 42
0.0000000001
 43
0.0000000001
 44
0.000001
 12
-0.094562439162553
 22
0.9955189325671453
 32
0.0
 13
0.000804721137863
 23
0.9999996762118929
 33
0.0
 40
0.0
 40
0.0
 40
0.0
 40
0.0
 40
0.0000019866331185
 40
0.0040578071472262
 40
0.0081213606632973
 40
0.012196369983427
 40
0.0162767658272031
 40
0.0162767658272031
 40
0.0162767658272031
 40
0.0162767658272031
 10
33.70247781219878
 20
32.14976236334809
 30
0.0
 10
33.70247774957849
 20
32.14976302259174
 30
0.0
 10
33.70234985337707
 20
32.15110956473802
 30
0.0
 10
33.70213070691479
 20
32.15380819443976
 30
0.0
 10
33.70190855210192
 20
32.15786731241212
 30
0.0
 10
33.70178071879148
 20
32.16193862003371
 30
0.0
 10
33.70175458972506
 20
32.16465720319394
 30
0.0
 10
33.70175568425198
 20
32.16601733470145
 30
0.0
 11
33.70247781219878
 21
32.14976236334809
 31
0.0
 11
33.70247762435131
 21
32.1497643410803
 31
0.0
 11
33.70214960596491
 21
32.15380713062212
 31
0.0
 11
33.70192546962336
 21
32.15786439688213
 31
0.0
 11
33.70179654564522
 21
32.16193725920561
 31
0.0
 11
33.70175568425198
 21
32.16601733470145
 31
0.0
  0
SPLINE
  5
258
330
2
100
AcDbEntity
  8
GAIKEI
  6
Continuous
 62
     1
370
     9
100
AcDbSpline
210
0.0
220
0.0
230
1.0
 70
     8
 71
     3
 72
    17
 73
    13
 74
    11
 42
0.0000000001
 43
0.0000000001
 44
0.000001
 12
-0.000252527401557
 22
0.9999999681149553
 32
0.0
 13
0.008415620967247
 23
0.9999645880348642
 33
0.0
 40
0.0
 40
0.0
 40
0.0
 40
0.0
 40
0.0116015969566037
 40
0.0229564900635562
 40
0.0387232788386406
 40
0.0534315501148159
 40
0.0667501669254742
 40
0.0784348478267347
 40
0.0882062615460325
 40
0.0959349061383043
 40
0.1014607652742876
 40
0.1047402776001613
 40
0.1047402776001613
 40
0.1047402776001613
 40
0.1047402776001613
 10
33.70175568425198
 20
32.16601733470145
 30
0.0
 10
33.70175470767826
 20
32.16988453356368
 30
0.0
 10
33.70174643185487
 20
32.17753670308395
 30
0.0
 10
33.70169483756101
 20
32.19044436836919
 30
0.0
 10
33.70162890405793
 20
32.2043875265669
 30
0.0
 10
33.70156340121061
 20
32.21898527808844
 30
0.0
 10
33.70153201232651
 20
32.23222243821056
 30
0.0
 10
33.70153480927162
 20
32.24381404099256
 30
0.0
 10
33.70157954572892
 20
32.25354219657402
 30
0.0
 10
33.7016392712265
 20
32.26121731679894
 30
0.0
 10
33.70172168665694
 20
32.26672807103574
 30
0.0
 10
33.70174648454108
 20
32.26966309872279
 30
0.0
 10
33.70175568425198
 20
32.27075623078673
 30
0.0
 11
33.70175568425198
 21
32.16601733470145
 31
0.0
 11
33.7017396446289
 21
32.17761892098429
 31
0.0
 11
33.70169855670353
 21
32.188973738107
 31
0.0
 11
33.70162689235421
 21
32.20474036378414
 31
0.0
 11
33.70156576668403
 21
32.21944850909
 31
0.0
 11
33.70153589907646
 21
32.23276709440268
 31
0.0
 11
33.70154320549266
 21
32.24445177553457
 31
0.0
 11
33.70158746569116
 21
32.25422309166424
 31
0.0
 11
33.70165475898203
 21
32.26195144562428
 31
0.0
 11
33.70172436435864
 21
32.26747686539875
 31
0.0
 11
33.70175568425198
 21
32.27075623078673
 31
0.0
  0
SPLINE
  5
259
330
2
100
AcDbEntity
  8
GAIKEI
  6
Continuous
 62
     1
370
     9
100
AcDbSpline
210
0.0
220
0.0
230
1.0
 70
     8
 71
     3
 72
    17
 73
    13
 74
    11
 42
0.0000000001
 43
0.0000000001
 44
0.000001
 12
-0.005816348342908
 22
0.9999830849029168
 32
0.0
 13
0.000630242598989
 23
0.9999998013971136
 33
0.0
 40
0.0
 40
0.0
 40
0.0
 40
0.0
 40
0.0020348639180269
 40
0.00516502370742
 40
0.0116028781722137
 40
0.0201855028387872
 40
0.0307684830108629
 40
0.0431315963919576
 40
0.0569994172665406
 40
0.0721023635644033
 40
0.088117615652915
 40
0.1047402816828931
 40
0.1047402816828931
 40
0.1047402816828931
 40
0.1047402816828931
 10
33.70175568425198
 20
1.618747867149522
 30
0.0
 10
33.70175173909286
 20
1.619426143648865
 30
0.0
 10
33.70174076313259
 20
1.621147796227035
 30
0.0
 10
33.70168070344869
 20
1.625014985306734
 30
0.0
 10
33.70161744448818
 20
1.631064880004316
 30
0.0
 10
33.7015557957784
 20
1.639599167657081
 30
0.0
 10
33.7015303662954
 20
1.65010874294586
 30
0.0
 10
33.70153911728733
 20
1.662380059249244
 30
0.0
 10
33.70158757342148
 20
1.676157945812633
 30
0.0
 10
33.70165617005478
 20
1.691153124956088
 30
0.0
 10
33.70173535046023
 20
1.70706656138293
 30
0.0
 10
33.7017521921479
 20
1.71794587567183
 30
0.0
 10
33.70175568425198
 20
1.723486763248047
 30
0.0
 11
33.70175568425198
 21
1.618747867149522
 31
0.0
 11
33.7017396446289
 21
1.620782669324398
 31
0.0
 11
33.70169855670353
 21
1.623912557409994
 31
0.0
 11
33.70162689235357
 21
1.630350014090936
 31
0.0
 11
33.70156576668333
 21
1.638932422855873
 31
0.0
 11
33.70153589907544
 21
1.649515362694273
 31
0.0
 11
33.70154320549129
 21
1.661878475498156
 31
0.0
 11
33.70158746568953
 21
1.675746226808939
 31
0.0
 11
33.70165475898069
 21
1.690849023529153
 31
0.0
 11
33.70172436435762
 21
1.706864122182764
 31
0.0
 11
33.70175568425198
 21
1.723486763248047
 31
0.0
  0
SPLINE
  5
25A
330
2
100
AcDbEntity
  8
GAIKEI
  6
Continuous
 62
     1
370
     9
100
AcDbSpline
210
0.0
220
0.0
230
1.0
 70
     8
 71
     3
 72
    26
 73
    22
 74
    20
 42
0.0000000001
 43
0.0000000001
 44
0.000001
 12
0.024980336889834
 22
-0.9996879426945543
 32
0.0
 13
-0.3963799776610599
 23
-0.9180865500100836
 33
0.0
 40
0.0
 40
0.0
 40
0.0
 40
0.0
 40
0.0000020101463064
 40
0.0109855236997051
 40
0.0219704081586189
 40
0.0330366731380831
 40
0.0439456468936822
 40
0.054183735972951
 40
0.0641228889266764
 40
0.0738221479186448
 40
0.0830596088968463
 40
0.0914304639488775
 40
0.0992328896886596
 40
0.1064989815315519
 40
0.1130460798650573
 40
0.1185912471593745
 40
0.1233606269667404
 40
0.1273553403276113
 40
0.1304538679974213
 40
0.1331284797327958
 40
0.1340784336486851
 40
0.1340784336486851
 40
0.1340784336486851
 40
0.1340784336486851
 10
33.74319468890511
 20
1.726532581664059
 30
0.0
 10
33.74319470564315
 20
1.726531911824395
 30
0.0
 10
33.74328620919688
 20
1.722871213926339
 30
0.0
 10
33.7434432007031
 20
1.715549362574961
 30
0.0
 10
33.743612844962
 20
1.704539070044745
 30
0.0
 10
33.74373335183201
 20
1.693552995034337
 30
0.0
 10
33.74381406844231
 20
1.682815506857537
 30
0.0
 10
33.74386614085445
 20
1.672453558471715
 30
0.0
 10
33.74389839121162
 20
1.662494773488788
 30
0.0
 10
33.7439173230112
 20
1.65286949864992
 30
0.0
 10
33.74392721563619
 20
1.64376698073903
 30
0.0
 10
33.74393133745221
 20
1.635296725909256
 30
0.0
 10
33.7439310689148
 20
1.62748362866904
 30
0.0
 10
33.74392696294476
 20
1.620278333343662
 30
0.0
 10
33.74391515577335
 20
1.613825841499817
 30
0.0
 10
33.74389930598039
 20
1.608204466877054
 30
0.0
 10
33.74385530187044
 20
1.603437335051921
 30
0.0
 10
33.74383424431582
 20
1.599476278829001
 30
0.0
 10
33.74366431868384
 20
1.596240596129632
 30
0.0
 10
33.74374765672215
 20
1.593955458198308
 30
0.0
 10
33.74332025335588
 20
1.592813538159532
 30
0.0
 10
33.74319473911855
 20
1.592522824855109
 30
0.0
 11
33.74319468890511
 21
1.726532581664059
 31
0.0
 11
33.74319473911786
 21
1.72653057214768
 31
0.0
 11
33.74343117215261
 21
1.715549825483719
 31
0.0
 11
33.74360335319626
 21
1.704566291668697
 31
0.0
 11
33.74372653655333
 21
1.69350071337385
 31
0.0
 11
33.7438100962976
 21
1.682592060649824
 31
0.0
 11
33.74386256852711
 21
1.672354106982197
 31
0.0
 11
33.74389553960259
 21
1.662415009678056
 31
0.0
 11
33.74391519002835
 21
1.652715771626276
 31
0.0
 11
33.74392558195955
 21
1.643478317641665
 31
0.0
 11
33.74392969939952
 21
1.635107464883276
 31
0.0
 11
33.74392936411247
 21
1.6273050407043
 31
0.0
 11
33.74392424408987
 21
1.620038952673326
 31
0.0
 11
33.74391239817037
 21
1.613491867752259
 31
0.0
 11
33.74389123569971
 21
1.607946744478965
 31
0.0
 11
33.74385531952775
 21
1.603177505314647
 31
0.0
 11
33.74379653772202
 21
1.599183233348185
 31
0.0
 11
33.74370552100196
 21
1.596086059446008
 31
0.0
 11
33.74351091743859
 21
1.593418668053686
 31
0.0
 11
33.74319473911855
 21
1.592522824855109
 31
0.0
  0
SPLINE
  5
25B
330
2
100
AcDbEntity
  8
GAIKEI
  6
Continuous
 62
     1
370
     9
100
AcDbSpline
210
0.0
220
0.0
230
1.0
 70
     8
 71
     3
 72
    26
 73
    22
 74
    20
 42
0.0000000001
 43
0.0000000001
 44
0.000001
 12
0.5564616378799752
 22
-0.8308733029577588
 32
0.0
 13
-0.024980490882618
 23
-0.9996879388465501
 33
0.0
 40
0.0
 40
0.0
 40
0.0
 40
0.0
 40
0.000497170528222
 40
0.0018584752447704
 40
0.0041740094109029
 40
0.0074404632244876
 40
0.0114653109904048
 40
0.0163531422339711
 40
0.022176123668616
 40
0.0288475973246807
 40
0.0360311902113132
 40
0.0439351769459738
 40
0.0526479116851494
 40
0.062013832738311
 40
0.0715617217177209
 40
0.0816041036695438
 40
0.0922357312488901
 40
0.1032486596256398
 40
0.1184595824419766
 40
0.1340889353226975
 40
0.1340909454726561
 40
0.1340909454726561
 40
0.1340909454726561
 40
0.1340909454726561
 10
33.74319468889772
 20
32.29698127046475
 30
0.0
 10
33.7432869076732
 20
32.29684357522513
 30
0.0
 10
33.74360116282239
 20
32.29629713637826
 30
0.0
 10
33.74358447424517
 20
32.29485619605504
 30
0.0
 10
33.74377705575293
 20
32.29257539762893
 30
0.0
 10
33.74381145606539
 20
32.28935988600097
 30
0.0
 10
33.74387423336808
 20
32.28530566644804
 30
0.0
 10
33.74389937986871
 20
32.2803919918963
 30
0.0
 10
33.74391896605262
 20
32.27459856478493
 30
0.0
 10
33.74392759798947
 20
32.26803900965825
 30
0.0
 10
33.74393146651652
 20
32.26078605689111
 30
0.0
 10
33.74393093087331
 20
32.25285259862119
 30
0.0
 10
33.74392598872385
 20
32.24419172486745
 30
0.0
 10
33.74391472026126
 20
32.23498288077292
 30
0.0
 10
33.74389391213451
 20
32.22533083777671
 30
0.0
 10
33.74385871013894
 20
32.21525692891379
 30
0.0
 10
33.74380152741365
 20
32.20469476162862
 30
0.0
 10
33.74370169410021
 20
32.19240998922891
 30
0.0
 10
33.74352870442728
 20
32.17845992358895
 30
0.0
 10
33.74332492586662
 20
32.16818101279142
 30
0.0
 10
33.74319470564397
 20
32.16297218612499
 30
0.0
 10
33.74319468890579
 20
32.16297151628408
 30
0.0
 11
33.74319468889772
 21
32.29698127046475
 31
0.0
 11
33.74343117215327
 21
32.296543878997
 31
0.0
 11
33.74360335319725
 21
32.29519367769507
 31
0.0
 11
33.74372653655435
 21
32.29288145307919
 31
0.0
 11
33.74381009629862
 21
32.28961608274853
 31
0.0
 11
33.74386256852813
 21
32.28559158512809
 31
0.0
 11
33.74389553960391
 21
32.28070387032039
 31
0.0
 11
33.74391519002938
 21
32.27488092569479
 31
0.0
 11
33.74392558196048
 21
32.26820946277547
 31
0.0
 11
33.74392969940085
 21
32.26102587300454
 31
0.0
 11
33.74392936411343
 21
32.2531218878238
 31
0.0
 11
33.74392424409121
 21
32.24440915589525
 31
0.0
 11
33.74391239817102
 21
32.23504324346834
 31
0.0
 11
33.74389123570073
 21
32.22549537893258
 31
0.0
 11
33.74385531952841
 21
32.21545306214876
 31
0.0
 11
33.74379653772268
 21
32.20482159801588
 31
0.0
 11
33.74370552100264
 21
32.1938090467213
 31
0.0
 11
33.7435109174392
 21
32.17859937021342
 31
0.0
 11
33.74319473911889
 21
32.16297352580137
 31
0.0
 11
33.74319468890579
 21
32.16297151628408
 31
0.0
  0
ELLIPSE
  5
25C
330
2
100
AcDbEntity
  8
GAIKEI
  6
Continuous
 62
     1
370
     9
100
AcDbEllipse
 10
33.74582476440931
 20
32.24679648522249
 30
0.0
 11
-0.0026300732277044
 21
0.0501847869269212
 31
0.0
210
0.0
220
0.0
230
1.0
 40
0.9974719999995912
 41
-0.0000000001565699
 42
1.021581260158276
  0
ELLIPSE
  5
25D
330
2
100
AcDbEntity
  8
GAIKEI
  6
Continuous
 62
     1
370
     9
100
AcDbEllipse
 10
33.74582476440931
 20
32.24453817451229
 30
0.0
 11
-0.0501269680503233
 21
0.0035661180807681
 31
0.0
210
0.0
220
0.0
230
1.0
 40
0.003719
 41
0.4969873090836746
 42
1.518568569093281
  0
ELLIPSE
  5
25E
330
2
100
AcDbEntity
  8
GAIKEI
  6
Continuous
 62
     7
370
     9
100
AcDbEllipse
 10
33.74582476440931
 20
1.642707612714389
 30
0.0
 11
0.0026300732413128
 21
0.0501847869262052
 31
0.0
210
0.0
220
0.0
230
1.0
 40
0.9974719999999821
 41
2.12001139371882
 42
3.14159265368706
  0
ELLIPSE
  5
25F
330
2
100
AcDbEntity
  8
GAIKEI
  6
Continuous
 62
     1
370
     9
100
AcDbEllipse
 10
33.74582476440931
 20
1.644965923424592
 30
0.0
 11
0.0501269680505189
 21
0.0035661180780185
 31
0.0
210
0.0
220
0.0
230
1.0
 40
0.003719
 41
1.62302408449422
 42
2.644605344464515
  0
ARC
  5
260
330
2
100
AcDbEntity
  8
GAIKEI
  6
Continuous
 62
     1
370
     9
100
AcDbCircle
 10
33.83522618917962
 20
1.590405180272
 30
0.0
 40
0.0194314143562759
100
AcDbArc
 50
270.0
 51
349.007498999996
  0
ARC
  5
261
330
2
100
AcDbEntity
  8
GAIKEI
  6
Continuous
 62
     1
370
     9
100
AcDbCircle
 10
33.83388609163781
 20
1.590405180272
 30
0.0
 40
0.0194314143562759
100
AcDbArc
 50
184.9000580000004
 51
270.0
  0
ARC
  5
262
330
2
100
AcDbEntity
  8
GAIKEI
  6
Continuous
 62
     7
370
     9
100
AcDbCircle
 10
33.61578521670789
 20
32.06743866778726
 30
0.0
 40
0.0335024385453033
100
AcDbArc
 50
148.4999999999707
 51
180.0
  0
ARC
  5
263
330
2
100
AcDbEntity
  8
GAIKEI
  6
Continuous
 62
     7
370
     9
100
AcDbCircle
 10
33.61578521670789
 20
1.822065430149507
 30
0.0
 40
0.0335024385453033
100
AcDbArc
 50
180.0
 51
211.5000000000292
  0
ARC
  5
264
330
2
100
AcDbEntity
  8
GAIKEI
  6
Continuous
 62
     1
370
     9
100
AcDbCircle
 10
33.74532611411401
 20
32.24677035332041
 30
0.0
 40
0.050253657817955
100
AcDbArc
 50
93.00000000000558
 51
148.4999999999707
  0
ARC
  5
265
330
2
100
AcDbEntity
  8
GAIKEI
  6
Continuous
 62
     7
370
     9
100
AcDbCircle
 10
34.97263397779271
 20
1.561593083123057
 30
0.0
 40
0.0335024385453033
100
AcDbArc
 50
270.0
 51
0.0
  0
ARC
  5
266
330
2
100
AcDbEntity
  8
GAIKEI
  6
Continuous
 62
     7
370
     9
100
AcDbCircle
 10
34.97263397779271
 20
32.32791101481371
 30
0.0
 40
0.0335024385453033
100
AcDbArc
 50
0.0
 51
90.0
  0
ARC
  5
267
330
2
100
AcDbEntity
  8
GAIKEI
  6
Continuous
 62
     1
370
     9
100
AcDbCircle
 10
33.92981952035383
 20
32.14931219512386
 30
0.0
 40
0.1871240512167976
100
AcDbArc
 50
175.8139089999955
 51
179.8621620000021
  0
ARC
  5
268
330
2
100
AcDbEntity
  8
GAIKEI
  6
Continuous
 62
     1
370
     9
100
AcDbCircle
 10
33.92981352341734
 20
1.740191668295949
 30
0.0
 40
0.1871180207778595
100
AcDbArc
 50
180.1377730000035
 51
184.1861559999995
  0
LINE
  5
269
330
2
100
AcDbEntity
  8
GAIKEI
  6
Continuous
 62
     1
370
     9
100
AcDbLine
 10
33.90676662640051
 20
1.582735467015822
 30
0.0
 11
33.90854456731169
 21
1.572652171081983
 31
0.0
  0
LINE
  5
26A
330
2
100
AcDbEntity
  8
GAIKEI
  6
Continuous
 62
     1
370
     9
100
AcDbLine
 10
33.90854456731169
 20
1.572652171081983
 30
0.0
 11
33.98639234112527
 21
1.571293312174532
 31
0.0
  0
LINE
  5
26B
330
2
100
AcDbEntity
  8
GAIKEI
  6
Continuous
 62
     1
370
     9
100
AcDbLine
 10
33.98639234112527
 20
1.571293312174532
 30
0.0
 11
33.98787458951387
 21
1.579699710551949
 31
0.0
  0
LINE
  5
26C
330
2
100
AcDbEntity
  8
GAIKEI
  6
Continuous
 62
     1
370
     9
100
AcDbLine
 10
33.90676662640051
 20
1.582735467015822
 30
0.0
 11
33.90655040166218
 21
1.583961723271443
 31
0.0
  0
LINE
  5
26D
330
2
100
AcDbEntity
  8
GAIKEI
  6
Continuous
 62
     1
370
     9
100
AcDbLine
 10
33.94152567441075
 20
1.582128737853793
 30
0.0
 11
33.90676662640051
 21
1.582735467015822
 31
0.0
  0
LINE
  5
26E
330
2
100
AcDbEntity
  8
GAIKEI
  6
Continuous
 62
     1
370
     9
100
AcDbLine
 10
33.83522618917962
 20
1.570973765915766
 30
0.0
 11
33.83388609163781
 21
1.570973765915766
 31
0.0
  0
LINE
  5
26F
330
2
100
AcDbEntity
  8
GAIKEI
  6
Continuous
 62
     7
370
     9
100
AcDbLine
 10
33.58228277816259
 20
32.06743866778726
 30
0.0
 11
33.58228277816259
 21
1.822065430149507
 31
0.0
  0
LINE
  5
270
330
2
100
AcDbEntity
  8
GAIKEI
  6
Continuous
 62
     1
370
     9
100
AcDbLine
 10
33.58721969750666
 20
31.96167820328992
 30
0.0
 11
33.58228277816259
 21
31.96167820328992
 31
0.0
  0
LINE
  5
271
330
2
100
AcDbEntity
  8
GAIKEI
  6
Continuous
 62
     1
370
     9
100
AcDbLine
 10
33.58228277816259
 20
1.9278258946469
 30
0.0
 11
33.58721969750666
 21
1.9278258946469
 31
0.0
  0
LINE
  5
272
330
2
100
AcDbEntity
  8
GAIKEI
  6
Continuous
 62
     1
370
     9
100
AcDbLine
 10
33.74319468897373
 20
1.592522835910074
 30
0.0
 11
33.74269603867845
 21
1.592548967812092
 31
0.0
  0
LINE
  5
273
330
2
100
AcDbEntity
  8
GAIKEI
  6
Continuous
 62
     1
370
     9
100
AcDbLine
 10
33.74269603867845
 20
32.29695513012468
 30
0.0
 11
33.74319468897373
 21
32.29698126202675
 31
0.0
  0
LINE
  5
274
330
2
100
AcDbEntity
  8
GAIKEI
  6
Continuous
 62
     1
370
     9
100
AcDbLine
 10
33.58721969750666
 20
1.9278258946469
 30
0.0
 11
33.70247780180966
 21
1.739741730546256
 31
0.0
  0
LINE
  5
275
330
2
100
AcDbEntity
  8
GAIKEI
  6
Continuous
 62
     7
370
     9
100
AcDbLine
 10
33.70247780180966
 20
1.616476275411343
 30
0.0
 11
33.58721969750666
 21
1.804560439512044
 31
0.0
  0
LINE
  5
276
330
2
100
AcDbEntity
  8
GAIKEI
  6
Continuous
 62
     7
370
     9
100
AcDbLine
 10
33.58721969750666
 20
32.08494365842483
 30
0.0
 11
33.70247780180966
 21
32.27302782252542
 31
0.0
  0
LINE
  5
277
330
2
100
AcDbEntity
  8
GAIKEI
  6
Continuous
 62
     1
370
     9
100
AcDbLine
 10
33.70247780180966
 20
32.14976236739057
 30
0.0
 11
33.58721969750666
 21
31.96167820328992
 31
0.0
  0
LINE
  5
278
330
2
100
AcDbEntity
  8
GAIKEI
  6
Continuous
 62
     1
370
     9
100
AcDbLine
 10
33.70247780180966
 20
1.739741730546256
 30
0.0
 11
33.70247780180966
 21
32.14976236739057
 31
0.0
  0
LINE
  5
279
330
2
100
AcDbEntity
  8
GAIKEI
  6
Continuous
 62
     1
370
     9
100
AcDbLine
 10
33.70247780180966
 20
1.739741730546256
 30
0.0
 11
33.74269603867845
 21
1.739741730546256
 31
0.0
  0
LINE
  5
27A
330
2
100
AcDbEntity
  8
GAIKEI
  6
Continuous
 62
     1
370
     9
100
AcDbLine
 10
33.74269603867845
 20
32.14976236739057
 30
0.0
 11
33.70247780180966
 21
32.14976236739057
 31
0.0
  0
LINE
  5
27B
330
2
100
AcDbEntity
  8
GAIKEI
  6
Continuous
 62
     7
370
     9
100
AcDbLine
 10
35.00613641633798
 20
32.32791101481371
 30
0.0
 11
35.00613641633798
 21
1.561593083123057
 31
0.0
  0
LINE
  5
27C
330
2
100
AcDbEntity
  8
GAIKEI
  6
Continuous
 62
     1
370
     9
100
AcDbLine
 10
35.00613641633798
 20
32.22740369917784
 30
0.0
 11
34.97263397779271
 21
32.22740369917784
 31
0.0
  0
LINE
  5
27D
330
2
100
AcDbEntity
  8
GAIKEI
  6
Continuous
 62
     1
370
     9
100
AcDbLine
 10
34.97263397779271
 20
1.662100398758923
 30
0.0
 11
35.00613641633798
 21
1.662100398758923
 31
0.0
  0
LINE
  5
27E
330
2
100
AcDbEntity
  8
GAIKEI
  6
Continuous
 62
     1
370
     9
100
AcDbLine
 10
33.74269603867845
 20
32.14976236739057
 30
0.0
 11
33.74269603867845
 21
1.739741730546256
 31
0.0
  0
LINE
  5
27F
330
2
100
AcDbEntity
  8
GAIKEI
  6
Continuous
 62
     1
370
     9
100
AcDbLine
 10
34.97263397779271
 20
32.22740369917784
 30
0.0
 11
34.97263397779271
 21
1.662100398758923
 31
0.0
  0
LINE
  5
280
330
2
100
AcDbEntity
  8
GAIKEI
  6
Continuous
 62
     1
370
     9
100
AcDbLine
 10
33.74319468897373
 20
1.726532590091267
 30
0.0
 11
34.97263397779271
 21
1.662100398758923
 31
0.0
  0
LINE
  5
281
330
2
100
AcDbEntity
  8
GAIKEI
  6
Continuous
 62
     7
370
     9
100
AcDbLine
 10
34.97263397779271
 20
1.52809064457773
 30
0.0
 11
33.74319468897373
 21
1.592522835910074
 31
0.0
  0
LINE
  5
282
330
2
100
AcDbEntity
  8
GAIKEI
  6
Continuous
 62
     1
370
     9
100
AcDbLine
 10
34.97263397779271
 20
1.662100398758923
 30
0.0
 11
34.97263397779271
 21
1.52809064457773
 31
0.0
  0
LINE
  5
283
330
2
100
AcDbEntity
  8
GAIKEI
  6
Continuous
 62
     7
370
     9
100
AcDbLine
 10
33.74319468897373
 20
32.29698126202675
 30
0.0
 11
34.97263397779271
 21
32.36141345335904
 31
0.0
  0
LINE
  5
284
330
2
100
AcDbEntity
  8
GAIKEI
  6
Continuous
 62
     1
370
     9
100
AcDbLine
 10
34.97263397779271
 20
32.22740369917784
 30
0.0
 11
33.74319468897373
 21
32.16297150784561
 31
0.0
  0
LINE
  5
285
330
2
100
AcDbEntity
  8
GAIKEI
  6
Continuous
 62
     1
370
     9
100
AcDbLine
 10
34.97263397779271
 20
32.36141345335904
 30
0.0
 11
34.97263397779271
 21
32.22740369917784
 31
0.0
  0
LINE
  5
286
330
2
100
AcDbEntity
  8
GAIKEI
  6
Continuous
 62
     1
370
     9
100
AcDbLine
 10
33.51527790107197
 20
2.11872449810238
 30
0.0
 11
33.51527790107197
 21
2.118994226235088
 31
0.0
  0
LINE
  5
287
330
2
100
AcDbEntity
  8
GAIKEI
  6
Continuous
 62
     1
370
     9
100
AcDbLine
 10
33.51527790107197
 20
2.119036037278419
 30
0.0
 11
33.51527790107197
 21
2.118994226235088
 31
0.0
  0
LINE
  5
288
330
2
100
AcDbEntity
  8
GAIKEI
  6
Continuous
 62
     1
370
     9
100
AcDbLine
 10
33.58228277816259
 20
2.11872449810238
 30
0.0
 11
33.51527790107197
 21
2.11872449810238
 31
0.0
  0
LINE
  5
289
330
2
100
AcDbEntity
  8
GAIKEI
  6
Continuous
 62
     1
370
     9
100
AcDbLine
 10
33.51527790107197
 20
2.565085862451098
 30
0.0
 11
33.51527790107197
 21
2.459667859880539
 31
0.0
  0
LINE
  5
28A
330
2
100
AcDbEntity
  8
GAIKEI
  6
Continuous
 62
     1
370
     9
100
AcDbLine
 10
33.51527790107197
 20
2.565085862451098
 30
0.0
 11
33.58228277816259
 21
2.565085862451098
 31
0.0
  0
LINE
  5
28B
330
2
100
AcDbEntity
  8
GAIKEI
  6
Continuous
 62
     1
370
     9
100
AcDbLine
 10
33.51527790107197
 20
2.119004511483751
 30
0.0
 11
33.51527790107197
 21
2.17126757856073
 31
0.0
  0
LINE
  5
28C
330
2
100
AcDbEntity
  8
GAIKEI
  6
Continuous
 62
     1
370
     9
100
AcDbLine
 10
33.58228277816259
 20
2.119004511483751
 30
0.0
 11
33.51527790107197
 21
2.119004511483751
 31
0.0
  0
LINE
  5
28D
330
2
100
AcDbEntity
  8
GAIKEI
  6
Continuous
 62
     1
370
     9
100
AcDbLine
 10
33.51527790107197
 20
2.171268315614383
 30
0.0
 11
33.51527790107197
 21
2.17126757856073
 31
0.0
  0
LINE
  5
28E
330
2
100
AcDbEntity
  8
GAIKEI
  6
Continuous
 62
     1
370
     9
100
AcDbLine
 10
33.51527790107197
 20
2.17126757856073
 30
0.0
 11
33.58228277816259
 21
2.17126757856073
 31
0.0
  0
LINE
  5
28F
330
2
100
AcDbEntity
  8
GAIKEI
  6
Continuous
 62
     1
370
     9
100
AcDbLine
 10
33.58228277816259
 20
2.459667859880539
 30
0.0
 11
33.51527790107197
 21
2.459667859880539
 31
0.0
  0
LINE
  5
290
330
2
100
AcDbEntity
  8
GAIKEI
  6
Continuous
 62
     1
370
     9
100
AcDbLine
 10
33.51527790107197
 20
2.337896412490181
 30
0.0
 11
33.51527790107197
 21
2.459667893383027
 31
0.0
  0
LINE
  5
291
330
2
100
AcDbEntity
  8
GAIKEI
  6
Continuous
 62
     1
370
     9
100
AcDbLine
 10
33.51527790107197
 20
2.337896412490181
 30
0.0
 11
33.51527790107197
 21
2.266417217726939
 31
0.0
  0
LINE
  5
292
330
2
100
AcDbEntity
  8
GAIKEI
  6
Continuous
 62
     1
370
     9
100
AcDbLine
 10
33.51527790107197
 20
2.337896412490181
 30
0.0
 11
33.58228277816259
 21
2.337896412490181
 31
0.0
  0
LINE
  5
293
330
2
100
AcDbEntity
  8
GAIKEI
  6
Continuous
 62
     1
370
     9
100
AcDbLine
 10
33.51527790107197
 20
2.266417217726939
 30
0.0
 11
33.58228277816259
 21
2.266417217726939
 31
0.0
  0
LINE
  5
294
330
2
100
AcDbEntity
  8
GAIKEI
  6
Continuous
 62
     1
370
     9
100
AcDbLine
 10
33.51527790107197
 20
2.171268315614383
 30
0.0
 11
33.51527790107197
 21
2.266417217726939
 31
0.0
  0
LINE
  5
295
330
2
100
AcDbEntity
  8
GAIKEI
  6
Continuous
 62
     1
370
     9
100
AcDbLine
 10
33.51527790107197
 20
2.171268315614383
 30
0.0
 11
33.58228277816259
 21
2.171268315614383
 31
0.0
  0
TEXT
  5
296
330
2
100
AcDbEntity
  8
TOUROKU
100
AcDbText
 10
43.99148772175815
 20
49.34625930073838
 30
0.0
 40
2.0
  1
ＴＨ６５ＰＦ５０Ｊ
 72
     2
 11
64.52482105509147
 21
49.34625930073838
 31
0.0
100
AcDbText
  0
TEXT
  5
298
330
2
100
AcDbEntity
  8
MOJI1
100
AcDbText
 10
-33.47512897783577
 20
55.34625930073838
 30
0.0
 40
4.0
  1
インターラクティブプラズマディスプレイ
100
AcDbText
  0
TEXT
  5
29A
330
2
100
AcDbEntity
  8
MOJI1
100
AcDbText
 10
-18.97512897783611
 20
-47.65374069926145
 30
0.0
 40
3.0
  1
ＤＶＩ－Ｄ入力、ＰＣ入力、ＬＡＮ、ＲＳ２３２Ｃ、音声入力
 41
0.8
100
AcDbText
  0
TEXT
  5
29B
330
2
100
AcDbEntity
  8
MOJI1
100
AcDbText
 10
-18.97512897783611
 20
-37.65374069926145
 30
0.0
 40
3.0
  1
６１４４階調
100
AcDbText
  0
TEXT
  5
29C
330
2
100
AcDbEntity
  8
MOJI1
100
AcDbText
 10
-57.97512897783611
 20
-37.65374069926145
 30
0.0
 40
3.0
  1
階調数
100
AcDbText
  0
LINE
  5
29D
330
2
100
AcDbEntity
  8
WAKU
 62
     1
100
AcDbLine
 10
-60.47512897783611
 20
-38.65374069926145
 30
0.0
 11
64.52487102216366
 21
-38.65374069926145
 31
0.0
  0
TEXT
  5
29F
330
2
100
AcDbEntity
  8
MOJI1
100
AcDbText
 10
-18.97512897783611
 20
-17.65374069926145
 30
0.0
 40
3.0
  1
５３５Ｗ
100
AcDbText
  0
TEXT
  5
2A0
330
2
100
AcDbEntity
  8
MOJI1
100
AcDbText
 10
-18.97512897783611
 20
-22.65374069926145
 30
0.0
 40
3.0
  1
６５Ｖ型（１６４５ｍｍ）１６：９
100
AcDbText
  0
TEXT
  5
2A1
330
2
100
AcDbEntity
  8
MOJI1
100
AcDbText
 10
-18.97512897783611
 20
-32.65374069926145
 30
0.0
 40
3.0
  1
５００００００：１
100
AcDbText
  0
LINE
  5
2A2
330
2
100
AcDbEntity
  8
WAKU
 62
     1
100
AcDbLine
 10
-60.47512897783611
 20
-18.65374069926145
 30
0.0
 11
64.52487102216366
 21
-18.65374069926145
 31
0.0
  0
LINE
  5
2A3
330
2
100
AcDbEntity
  8
WAKU
 62
     1
100
AcDbLine
 10
-60.47512897783611
 20
-28.65374069926145
 30
0.0
 11
64.52487102216366
 21
-28.65374069926145
 31
0.0
  0
LINE
  5
2A4
330
2
100
AcDbEntity
  8
WAKU
 62
     4
100
AcDbLine
 10
-60.47512897783611
 20
-8.653740699261447
 30
0.0
 11
64.52487102216366
 21
-8.653740699261447
 31
0.0
  0
LINE
  5
2A5
330
2
100
AcDbEntity
  8
WAKU
 62
     1
100
AcDbLine
 10
-60.47512897783611
 20
-13.65374069926145
 30
0.0
 11
64.52487102216366
 21
-13.65374069926145
 31
0.0
  0
LINE
  5
2A6
330
2
100
AcDbEntity
  8
WAKU
 62
     1
100
AcDbLine
 10
-60.47512897783611
 20
-23.65374069926145
 30
0.0
 11
64.52487102216366
 21
-23.65374069926145
 31
0.0
  0
LINE
  5
2A7
330
2
100
AcDbEntity
  8
WAKU
 62
     1
100
AcDbLine
 10
-60.47512897783611
 20
-33.65374069926145
 30
0.0
 11
64.52487102216366
 21
-33.65374069926145
 31
0.0
  0
LINE
  5
2A8
330
2
100
AcDbEntity
  8
WAKU
 62
     4
100
AcDbLine
 10
64.52487102216366
 20
-53.65374069926144
 30
0.0
 11
-60.47512897783611
 21
-53.65374069926144
 31
0.0
  0
TEXT
  5
2A9
330
2
100
AcDbEntity
  8
MOJI1
100
AcDbText
 10
-18.97512897783611
 20
-27.65374069926145
 30
0.0
 40
3.0
  1
１９２０×１０８０画素
100
AcDbText
  0
TEXT
  5
2AA
330
2
100
AcDbEntity
  8
MOJI1
100
AcDbText
 10
-18.97512897783611
 20
-12.65374069926145
 30
0.0
 40
3.0
  1
ＡＣ１００Ｖ　５０Ｈｚ／６０Ｈｚ
100
AcDbText
  0
TEXT
  5
2AB
330
2
100
AcDbEntity
  8
MOJI1
100
AcDbText
 10
-18.97512897783611
 20
-42.65374069926145
 30
0.0
 40
3.0
  1
ビデオ入力、ＲＧＢ／コンポーネントビデオ入力、ＨＤＭＩ入力
 41
0.7800000000000001
100
AcDbText
  0
LINE
  5
2AC
330
2
100
AcDbEntity
  8
WAKU
 62
     4
100
AcDbLine
 10
-20.47512897783633
 20
-8.653740699261447
 30
0.0
 11
-20.47512897783633
 21
-53.65374069926144
 31
0.0
  0
LINE
  5
2AD
330
2
100
AcDbEntity
  8
WAKU
 62
     4
100
AcDbLine
 10
-60.47512897783633
 20
-8.653740699261447
 30
0.0
 11
-60.47512897783611
 21
-53.65374069926144
 31
0.0
  0
TEXT
  5
2AE
330
2
100
AcDbEntity
  8
MOJI1
100
AcDbText
 10
-57.97512897783611
 20
-22.65374069926145
 30
0.0
 40
3.0
  1
画面サイズ
100
AcDbText
  0
TEXT
  5
2AF
330
2
100
AcDbEntity
  8
MOJI1
100
AcDbText
 10
-57.97512897783611
 20
-32.65374069926145
 30
0.0
 40
3.0
  1
コントラスト
100
AcDbText
  0
TEXT
  5
2B0
330
2
100
AcDbEntity
  8
MOJI1
100
AcDbText
 10
-57.97512897783611
 20
-17.65374069926145
 30
0.0
 40
3.0
  1
消費電力
100
AcDbText
  0
TEXT
  5
2B1
330
2
100
AcDbEntity
  8
MOJI1
100
AcDbText
 10
-57.97512897783611
 20
-12.65374069926145
 30
0.0
 40
3.0
  1
電  源
100
AcDbText
  0
TEXT
  5
2B2
330
2
100
AcDbEntity
  8
MOJI1
100
AcDbText
 10
-57.97512897783611
 20
-27.65374069926145
 30
0.0
 40
3.0
  1
画素数
100
AcDbText
  0
LINE
  5
2B3
330
2
100
AcDbEntity
  8
WAKU
 62
     4
100
AcDbLine
 10
64.52487102216366
 20
-8.653740699261447
 30
0.0
 11
64.52487102216366
 21
-53.65374069926144
 31
0.0
  0
LINE
  5
2B4
330
2
100
AcDbEntity
  8
WAKU
 62
     1
100
AcDbLine
 10
-60.47512897783611
 20
-43.65374069926144
 30
0.0
 11
64.52487102216366
 21
-43.65374069926144
 31
0.0
  0
TEXT
  5
2B5
330
2
100
AcDbEntity
  8
MOJI1
100
AcDbText
 10
-57.97512897783611
 20
-42.65374069926145
 30
0.0
 40
3.0
  1
入出力端子
100
AcDbText
  0
LINE
  5
2B6
330
2
100
AcDbEntity
  8
WAKU
 62
     1
100
AcDbLine
 10
-60.47512897783611
 20
-48.65374069926144
 30
0.0
 11
64.52487102216366
 21
-48.65374069926144
 31
0.0
  0
TEXT
  5
2B7
330
2
100
AcDbEntity
  8
MOJI1
100
AcDbText
 10
-18.97512897783611
 20
-52.65374069926145
 30
0.0
 40
3.0
  1
約６０．０ ｋｇ
100
AcDbText
  0
TEXT
  5
2B8
330
2
100
AcDbEntity
  8
MOJI1
100
AcDbText
 10
-57.97512897783611
 20
-52.65374069926145
 30
0.0
 40
3.0
  1
質　量
100
AcDbText
  0
ENDSEC
  0
SECTION
  2
OBJECTS
  0
DICTIONARY
  5
9
330
0
100
AcDbDictionary
281
     1
  3
ACAD_COLOR
350
33
  3
ACAD_GROUP
350
2F
  3
ACAD_LAYOUT
350
D
  3
ACAD_MATERIAL
350
32
  3
ACAD_MLINESTYLE
350
30
  3
ACAD_PLOTSETTINGS
350
31
  3
ACAD_PLOTSTYLENAME
350
8
  3
ACDBHEADERROUNDTRIPXREC
350
303
  3
AcDbVariableDictionary
350
2FE
  0
DICTIONARY
  5
15
330
14
100
AcDbDictionary
280
     1
281
     1
  3
ACAD_LAYERFILTERS
360
16
  3
ACAD_LAYERSTATES
360
18
  0
DICTIONARY
  5
3
330
2
100
AcDbDictionary
280
     1
281
     1
  3
ACAD_LAYOUTSELFREF
360
4
  0
DICTIONARY
  5
F
330
E
100
AcDbDictionary
280
     1
281
     1
  3
ACAD_LAYOUTSELFREF
360
10
  0
DICTIONARY
  5
28
330
27
100
AcDbDictionary
280
     1
281
     1
  0
DICTIONARY
  5
33
102
{ACAD_REACTORS
330
9
102
}
330
9
100
AcDbDictionary
281
     1
  0
DICTIONARY
  5
2F
102
{ACAD_REACTORS
330
9
102
}
330
9
100
AcDbDictionary
281
     1
  0
DICTIONARY
  5
D
102
{ACAD_REACTORS
330
9
102
}
330
9
100
AcDbDictionary
281
     1
  3
Model
350
C
  3
ﾚｲｱｳﾄ1
350
13
  0
DICTIONARY
  5
32
102
{ACAD_REACTORS
330
9
102
}
330
9
100
AcDbDictionary
281
     1
  0
DICTIONARY
  5
30
102
{ACAD_REACTORS
330
9
102
}
330
9
100
AcDbDictionary
281
     1
  3
STANDARD
350
35
  0
DICTIONARY
  5
31
102
{ACAD_REACTORS
330
9
102
}
330
9
100
AcDbDictionary
281
     1
  0
ACDBDICTIONARYWDFLT
  5
8
102
{ACAD_REACTORS
330
9
102
}
330
9
100
AcDbDictionary
281
     1
  3
Normal
350
7
100
AcDbDictionaryWithDefault
340
7
  0
DICTIONARY
  5
303
102
{ACAD_REACTORS
330
9
102
}
330
9
100
AcDbDictionary
281
     1
  3
COLORDICT
350
305
  3
MATERIALDICT
350
304
  0
DICTIONARY
  5
2FE
102
{ACAD_REACTORS
330
9
102
}
330
9
100
AcDbDictionary
281
     1
  3
DIMASSOC
350
300
  3
HIDETEXT
350
2FF
  3
PROJECTNAME
350
301
  0
DICTIONARY
  5
16
102
{ACAD_REACTORS
330
15
102
}
330
15
100
AcDbDictionary
280
     1
281
     1
  3
ロック画層
360
17
  0
DICTIONARY
  5
18
102
{ACAD_REACTORS
330
15
102
}
330
15
100
AcDbDictionary
281
     1
  0
XRECORD
  5
4
102
{ACAD_REACTORS
330
3
102
}
330
3
100
AcDbXrecord
280
     1
340
2
  0
XRECORD
  5
10
102
{ACAD_REACTORS
330
F
102
}
330
F
100
AcDbXrecord
280
     1
340
E
  0
LAYOUT
  5
C
102
{ACAD_XDICTIONARY
360
306
102
}
102
{ACAD_REACTORS
330
D
102
}
330
D
100
AcDbPlotSettings
  1

  2
\\MARS\NX800A(RPDL)
  4
A4
  6

 40
5.831416606903076
 41
4.942422866821289
 42
7.609405517578125
 43
5.789093017578125
 44
209.9733276367187
 45
296.9683227539062
 46
4.23
 47
0.0
 48
0.0
 49
0.0
140
0.0
141
0.0
142
1.0
143
1.377557041813
 70
 11956
 72
     1
 73
     0
 74
     1
  7
tmsacad.ctb
 75
     0
147
0.7259227528494222
148
0.5228791232484547
149
0.0333900090324306
100
AcDbLayout
  1
Model
 70
     1
 71
     0
 10
0.0
 20
0.0
 11
12.0
 21
9.0
 12
0.0
 22
0.0
 32
0.0
 14
0.0
 24
0.0
 34
0.0
 15
0.0
 25
0.0
 35
0.0
146
0.0
 13
0.0
 23
0.0
 33
0.0
 16
1.0
 26
0.0
 36
0.0
 17
0.0
 27
1.0
 37
0.0
 76
     0
330
2
  0
LAYOUT
  5
13
102
{ACAD_XDICTIONARY
360
308
102
}
102
{ACAD_REACTORS
330
D
102
}
330
D
100
AcDbPlotSettings
  1

  2
C:\Program Files\ACAD2000\plotters\DWF ePlot.pc3
  4

  6

 40
0.0
 41
0.0
 42
0.0
 43
0.0
 44
0.0
 45
0.0
 46
0.0
 47
0.0
 48
0.0
 49
0.0
140
0.0
141
0.0
142
1.0
143
1.0
 70
   688
 72
     0
 73
     0
 74
     5
  7
SSC.ctb
 75
    16
147
1.0
148
0.0
149
0.0
100
AcDbLayout
  1
ﾚｲｱｳﾄ1
 70
     1
 71
     1
 10
0.0
 20
0.0
 11
12.0
 21
9.0
 12
0.0
 22
0.0
 32
0.0
 14
1.000000000000000E+20
 24
1.000000000000000E+20
 34
1.000000000000000E+20
 15
-1.000000000000000E+20
 25
-1.000000000000000E+20
 35
-1.000000000000000E+20
146
0.0
 13
0.0
 23
0.0
 33
0.0
 16
1.0
 26
0.0
 36
0.0
 17
0.0
 27
1.0
 37
0.0
 76
     0
330
E
  0
MLINESTYLE
  5
35
102
{ACAD_REACTORS
330
30
102
}
330
30
100
AcDbMlineStyle
  2
STANDARD
 70
     0
  3

 62
   256
 51
90.0
 52
90.0
 71
     2
 49
0.5
 62
   256
  6
BYLAYER
 49
-0.5
 62
   256
  6
BYLAYER
  0
ACDBPLACEHOLDER
  5
7
102
{ACAD_REACTORS
330
8
102
}
330
8
  0
XRECORD
  5
305
102
{ACAD_REACTORS
330
303
102
}
330
303
100
AcDbXrecord
280
     1
340
33
  0
XRECORD
  5
304
102
{ACAD_REACTORS
330
303
102
}
330
303
100
AcDbXrecord
280
     1
340
32
  0
DICTIONARYVAR
  5
300
102
{ACAD_REACTORS
330
2FE
102
}
330
2FE
100
DictionaryVariables
280
     0
  1
1
  0
DICTIONARYVAR
  5
2FF
102
{ACAD_REACTORS
330
2FE
102
}
330
2FE
100
DictionaryVariables
280
     0
  1
1
  0
DICTIONARYVAR
  5
301
102
{ACAD_REACTORS
330
2FE
102
}
330
2FE
100
DictionaryVariables
280
     0
  1

  0
XRECORD
  5
17
102
{ACAD_REACTORS
330
16
102
}
330
16
100
AcDbXrecord
280
     1
  1
ロック画層
  1
*
  1
*
  1
*
 70
   256
  1
*
  1
*
  0
DICTIONARY
  5
306
330
C
100
AcDbDictionary
280
     1
281
     1
  3
ACAD_XREC_ROUNDTRIP
360
307
  0
DICTIONARY
  5
308
330
13
100
AcDbDictionary
280
     1
281
     1
  3
ACAD_XREC_ROUNDTRIP
360
309
  0
XRECORD
  5
307
102
{ACAD_REACTORS
330
306
102
}
330
306
100
AcDbXrecord
280
     1
102
SHADEPLOT
 70
     0
102
SHADEPLOTRESLEVEL
 70
     2
102
SHADEPLOTCUSTOMDPI
 70
   300
  0
XRECORD
  5
309
102
{ACAD_REACTORS
330
308
102
}
330
308
100
AcDbXrecord
280
     1
102
SHADEPLOT
 70
     0
102
SHADEPLOTRESLEVEL
 70
     2
102
SHADEPLOTCUSTOMDPI
 70
   300
  0
ENDSEC
  0
EOF
