  0
SECTION
  2
HEADER
  9
$ACADVER
  1
AC1015
  9
$ACADMAINTVER
 70
    20
  9
$DWGCODEPAGE
  3
ANSI_932
  9
$INSBASE
 10
0.0
 20
246.4992141396417
 30
0.0
  9
$EXTMIN
 10
-61.58197317562553
 20
-63.32448609411949
 30
-0.0015258207003583
  9
$EXTMAX
 10
63.4985357943392
 20
49.80659582150565
 30
0.0000000349246037
  9
$LIMMIN
 10
-1101.784450318844
 20
-1579.160531687244
  9
$LIMMAX
 10
-508.2420711400536
 20
-1161.440814074914
  9
$ORTHOMODE
 70
     0
  9
$REGENMODE
 70
     1
  9
$FILLMODE
 70
     1
  9
$QTEXTMODE
 70
     0
  9
$MIRRTEXT
 70
     1
  9
$LTSCALE
 40
1.0
  9
$ATTMODE
 70
     1
  9
$TEXTSIZE
 40
3.0
  9
$TRACEWID
 40
0.5
  9
$TEXTSTYLE
  7
STANDARD
  9
$CLAYER
  8
MOJI1
  9
$CELTYPE
  6
BYLAYER
  9
$CECOLOR
 62
   256
  9
$CELTSCALE
 40
1.0
  9
$DISPSILH
 70
     0
  9
$DIMSCALE
 40
1.0
  9
$DIMASZ
 40
2.0
  9
$DIMEXO
 40
2.0
  9
$DIMDLI
 40
8.0
  9
$DIMRND
 40
0.0
  9
$DIMDLE
 40
0.0
  9
$DIMEXE
 40
2.0
  9
$DIMTP
 40
0.0
  9
$DIMTM
 40
0.0
  9
$DIMTXT
 40
2.5
  9
$DIMCEN
 40
0.0
  9
$DIMTSZ
 40
0.0
  9
$DIMTOL
 70
     0
  9
$DIMLIM
 70
     0
  9
$DIMTIH
 70
     0
  9
$DIMTOH
 70
     0
  9
$DIMSE1
 70
     0
  9
$DIMSE2
 70
     0
  9
$DIMTAD
 70
     3
  9
$DIMZIN
 70
     0
  9
$DIMBLK
  1

  9
$DIMASO
 70
     1
  9
$DIMSHO
 70
     1
  9
$DIMPOST
  1

  9
$DIMAPOST
  1

  9
$DIMALT
 70
     0
  9
$DIMALTD
 70
     2
  9
$DIMALTF
 40
25.4
  9
$DIMLFAC
 40
1.0
  9
$DIMTOFL
 70
     1
  9
$DIMTVP
 40
0.0
  9
$DIMTIX
 70
     0
  9
$DIMSOXD
 70
     0
  9
$DIMSAH
 70
     1
  9
$DIMBLK1
  1
OPEN30
  9
$DIMBLK2
  1
OPEN30
  9
$DIMSTYLE
  2
STANDARD
  9
$DIMCLRD
 70
     0
  9
$DIMCLRE
 70
     0
  9
$DIMCLRT
 70
     0
  9
$DIMTFAC
 40
1.0
  9
$DIMGAP
 40
0.5
  9
$DIMJUST
 70
     0
  9
$DIMSD1
 70
     0
  9
$DIMSD2
 70
     0
  9
$DIMTOLJ
 70
     1
  9
$DIMTZIN
 70
     0
  9
$DIMALTZ
 70
     0
  9
$DIMALTTZ
 70
     0
  9
$DIMUPT
 70
     0
  9
$DIMDEC
 70
     4
  9
$DIMTDEC
 70
     4
  9
$DIMALTU
 70
     2
  9
$DIMALTTD
 70
     2
  9
$DIMTXSTY
  7
STANDARD
  9
$DIMAUNIT
 70
     0
  9
$DIMADEC
 70
     0
  9
$DIMALTRND
 40
0.0
  9
$DIMAZIN
 70
     0
  9
$DIMDSEP
 70
    46
  9
$DIMATFIT
 70
     3
  9
$DIMFRAC
 70
     0
  9
$DIMLDRBLK
  1
OPEN30
  9
$DIMLUNIT
 70
     2
  9
$DIMLWD
 70
    -2
  9
$DIMLWE
 70
    -2
  9
$DIMTMOVE
 70
     0
  9
$LUNITS
 70
     2
  9
$LUPREC
 70
     4
  9
$SKETCHINC
 40
0.1
  9
$FILLETRAD
 40
0.0
  9
$AUNITS
 70
     0
  9
$AUPREC
 70
     0
  9
$MENU
  1
ACAD
  9
$ELEVATION
 40
0.0
  9
$PELEVATION
 40
0.0
  9
$THICKNESS
 40
0.0
  9
$LIMCHECK
 70
     0
  9
$CHAMFERA
 40
0.0
  9
$CHAMFERB
 40
0.0
  9
$CHAMFERC
 40
0.0
  9
$CHAMFERD
 40
0.0
  9
$SKPOLY
 70
     0
  9
$TDCREATE
 40
2451815.565532581
  9
$TDUCREATE
 40
2451815.190532581
  9
$TDUPDATE
 40
2454151.694375718
  9
$TDUUPDATE
 40
2454151.319375718
  9
$TDINDWG
 40
0.5334330903
  9
$TDUSRTIMER
 40
0.5334330903
  9
$USRTIMER
 70
     1
  9
$ANGBASE
 50
0.0
  9
$ANGDIR
 70
     0
  9
$PDMODE
 70
     0
  9
$PDSIZE
 40
0.0
  9
$PLINEWID
 40
0.0
  9
$SPLFRAME
 70
     0
  9
$SPLINETYPE
 70
     6
  9
$SPLINESEGS
 70
     8
  9
$HANDSEED
  5
129
  9
$SURFTAB1
 70
     6
  9
$SURFTAB2
 70
     6
  9
$SURFTYPE
 70
     6
  9
$SURFU
 70
     6
  9
$SURFV
 70
     6
  9
$UCSBASE
  2

  9
$UCSNAME
  2

  9
$UCSORG
 10
0.0
 20
0.0
 30
0.0
  9
$UCSXDIR
 10
1.0
 20
0.0
 30
0.0
  9
$UCSYDIR
 10
0.0
 20
1.0
 30
0.0
  9
$UCSORTHOREF
  2

  9
$UCSORTHOVIEW
 70
     0
  9
$UCSORGTOP
 10
0.0
 20
0.0
 30
0.0
  9
$UCSORGBOTTOM
 10
0.0
 20
0.0
 30
0.0
  9
$UCSORGLEFT
 10
0.0
 20
0.0
 30
0.0
  9
$UCSORGRIGHT
 10
0.0
 20
0.0
 30
0.0
  9
$UCSORGFRONT
 10
0.0
 20
0.0
 30
0.0
  9
$UCSORGBACK
 10
0.0
 20
0.0
 30
0.0
  9
$PUCSBASE
  2

  9
$PUCSNAME
  2

  9
$PUCSORG
 10
0.0
 20
0.0
 30
0.0
  9
$PUCSXDIR
 10
1.0
 20
0.0
 30
0.0
  9
$PUCSYDIR
 10
0.0
 20
1.0
 30
0.0
  9
$PUCSORTHOREF
  2

  9
$PUCSORTHOVIEW
 70
     0
  9
$PUCSORGTOP
 10
0.0
 20
0.0
 30
0.0
  9
$PUCSORGBOTTOM
 10
0.0
 20
0.0
 30
0.0
  9
$PUCSORGLEFT
 10
0.0
 20
0.0
 30
0.0
  9
$PUCSORGRIGHT
 10
0.0
 20
0.0
 30
0.0
  9
$PUCSORGFRONT
 10
0.0
 20
0.0
 30
0.0
  9
$PUCSORGBACK
 10
0.0
 20
0.0
 30
0.0
  9
$USERI1
 70
     0
  9
$USERI2
 70
     0
  9
$USERI3
 70
     0
  9
$USERI4
 70
     0
  9
$USERI5
 70
     0
  9
$USERR1
 40
0.0
  9
$USERR2
 40
0.0
  9
$USERR3
 40
0.0
  9
$USERR4
 40
0.0
  9
$USERR5
 40
0.0
  9
$WORLDVIEW
 70
     1
  9
$SHADEDGE
 70
     3
  9
$SHADEDIF
 70
    70
  9
$TILEMODE
 70
     1
  9
$MAXACTVP
 70
    48
  9
$PINSBASE
 10
0.0
 20
0.0
 30
0.0
  9
$PLIMCHECK
 70
     0
  9
$PEXTMIN
 10
1.000000000000000E+20
 20
1.000000000000000E+20
 30
1.000000000000000E+20
  9
$PEXTMAX
 10
-1.000000000000000E+20
 20
-1.000000000000000E+20
 30
-1.000000000000000E+20
  9
$PLIMMIN
 10
0.0
 20
0.0
  9
$PLIMMAX
 10
12.0
 20
9.0
  9
$UNITMODE
 70
     0
  9
$VISRETAIN
 70
     1
  9
$PLINEGEN
 70
     0
  9
$PSLTSCALE
 70
     1
  9
$TREEDEPTH
 70
  3020
  9
$CMLSTYLE
  2
STANDARD
  9
$CMLJUST
 70
     0
  9
$CMLSCALE
 40
1.0
  9
$PROXYGRAPHICS
 70
     1
  9
$MEASUREMENT
 70
     0
  9
$CELWEIGHT
370
    -1
  9
$ENDCAPS
280
     0
  9
$JOINSTYLE
280
     0
  9
$LWDISPLAY
290
     0
  9
$INSUNITS
 70
     0
  9
$HYPERLINKBASE
  1

  9
$STYLESHEET
  1

  9
$XEDIT
290
     1
  9
$CEPSNTYPE
380
     0
  9
$PSTYLEMODE
290
     1
  9
$FINGERPRINTGUID
  2
{1754B7AB-9B3C-11D4-AD9E-00104B1004F2}
  9
$VERSIONGUID
  2
{74E927FD-1417-444F-85AF-9EC7AB5E4988}
  9
$EXTNAMES
290
     1
  9
$PSVPSCALE
 40
0.0
  9
$OLESTARTUP
290
     0
  0
ENDSEC
  0
SECTION
  2
CLASSES
  0
CLASS
  1
ACDBDICTIONARYWDFLT
  2
AcDbDictionaryWithDefault
  3
ObjectDBX Classes
 90
        0
280
     0
281
     0
  0
CLASS
  1
ACDBPLACEHOLDER
  2
AcDbPlaceHolder
  3
ObjectDBX Classes
 90
        0
280
     0
281
     0
  0
CLASS
  1
LAYOUT
  2
AcDbLayout
  3
ObjectDBX Classes
 90
        0
280
     0
281
     0
  0
CLASS
  1
DICTIONARYVAR
  2
AcDbDictionaryVar
  3
ObjectDBX Classes
 90
        0
280
     0
281
     0
  0
ENDSEC
  0
SECTION
  2
TABLES
  0
TABLE
  2
VPORT
  5
21
330
0
100
AcDbSymbolTable
 70
     3
  0
VPORT
  5
121
330
21
100
AcDbSymbolTableRecord
100
AcDbViewportTableRecord
  2
*Active
 70
     0
 10
0.0
 20
0.0
 11
1.0
 21
1.0
 12
0.9582813093568383
 22
-6.75894513630692
 13
0.0
 23
0.0
 14
1.0
 24
1.0
 15
0.0
 25
0.0
 16
0.0
 26
0.0
 36
1.0
 17
0.0
 27
0.0
 37
0.0
 40
113.9990953318575
 41
1.396927016645326
 42
50.0
 43
0.0
 44
0.0
 50
0.0
 51
0.0
 71
     0
 72
   100
 73
     1
 74
     0
 75
     0
 76
     1
 77
     0
 78
     0
281
     0
 65
     1
110
0.0
120
0.0
130
0.0
111
1.0
121
0.0
131
0.0
112
0.0
122
1.0
132
0.0
 79
     0
146
0.0
  0
ENDTAB
  0
TABLE
  2
LTYPE
  5
1C
330
0
100
AcDbSymbolTable
 70
     1
  0
LTYPE
  5
1D
330
1C
100
AcDbSymbolTableRecord
100
AcDbLinetypeTableRecord
  2
BYBLOCK
 70
     0
  3

 72
    65
 73
     0
 40
0.0
  0
LTYPE
  5
1E
330
1C
100
AcDbSymbolTableRecord
100
AcDbLinetypeTableRecord
  2
BYLAYER
 70
     0
  3

 72
    65
 73
     0
 40
0.0
  0
LTYPE
  5
A
330
1C
100
AcDbSymbolTableRecord
100
AcDbLinetypeTableRecord
  2
CONTINUOUS
 70
     0
  3
Solid line
 72
    65
 73
     0
 40
0.0
  0
ENDTAB
  0
TABLE
  2
LAYER
  5
14
102
{ACAD_XDICTIONARY
360
15
102
}
330
0
100
AcDbSymbolTable
 70
     7
  0
LAYER
  5
6
330
14
100
AcDbSymbolTableRecord
100
AcDbLayerTableRecord
  2
0
 70
     0
 62
     7
  6
CONTINUOUS
370
    -3
390
7
  0
LAYER
  5
43
330
14
100
AcDbSymbolTableRecord
100
AcDbLayerTableRecord
  2
DEFPOINTS
 70
     0
 62
     7
  6
CONTINUOUS
290
     0
370
    -3
390
7
  0
LAYER
  5
D1
330
14
100
AcDbSymbolTableRecord
100
AcDbLayerTableRecord
  2
WAKU
 70
     0
 62
     4
  6
CONTINUOUS
370
    -3
390
7
  0
LAYER
  5
2C
330
14
100
AcDbSymbolTableRecord
100
AcDbLayerTableRecord
  2
MOJI1
 70
     0
 62
     2
  6
CONTINUOUS
370
    -3
390
7
  0
LAYER
  5
48
330
14
100
AcDbSymbolTableRecord
100
AcDbLayerTableRecord
  2
GAIKEI
 70
     0
 62
     7
  6
CONTINUOUS
370
    -3
390
7
  0
LAYER
  5
39
330
14
100
AcDbSymbolTableRecord
100
AcDbLayerTableRecord
  2
SUNPO
 70
     0
 62
     3
  6
CONTINUOUS
370
    -3
390
7
  0
LAYER
  5
37
330
14
100
AcDbSymbolTableRecord
100
AcDbLayerTableRecord
  2
TOUROKU
 70
     0
 62
     1
  6
CONTINUOUS
370
    -3
390
7
  0
ENDTAB
  0
TABLE
  2
STYLE
  5
19
330
0
100
AcDbSymbolTable
 70
     1
  0
STYLE
  5
1A
330
19
100
AcDbSymbolTableRecord
100
AcDbTextStyleTableRecord
  2
STANDARD
 70
     0
 40
0.0
 41
1.0
 50
0.0
 71
     0
 42
3.0
  3
MONOTXT.shx
  4
BIGFONT.shx
  0
ENDTAB
  0
TABLE
  2
VIEW
  5
1F
330
0
100
AcDbSymbolTable
 70
     0
  0
ENDTAB
  0
TABLE
  2
UCS
  5
20
330
0
100
AcDbSymbolTable
 70
     0
  0
ENDTAB
  0
TABLE
  2
APPID
  5
23
330
0
100
AcDbSymbolTable
 70
     1
  0
APPID
  5
24
330
23
100
AcDbSymbolTableRecord
100
AcDbRegAppTableRecord
  2
ACAD
 70
     0
  0
ENDTAB
  0
TABLE
  2
DIMSTYLE
  5
25
330
0
100
AcDbSymbolTable
 70
     1
100
AcDbDimStyleTable
 71
     0
  0
DIMSTYLE
105
34
102
{ACAD_REACTORS
330
AB
330
9B
330
38
102
}
330
25
100
AcDbSymbolTableRecord
100
AcDbDimStyleTableRecord
  2
STANDARD
 70
     0
 40
0.0
 41
2.0
 42
2.0
 43
8.0
 44
2.0
 73
     0
 74
     0
 77
     3
140
3.0
141
0.0
173
     1
279
     2
288
     1
340
1A
341
2D
343
2D
344
2D
  0
ENDTAB
  0
TABLE
  2
BLOCK_RECORD
  5
1
330
0
100
AcDbSymbolTable
 70
     7
  0
BLOCK_RECORD
  5
2
102
{ACAD_XDICTIONARY
360
3
102
}
330
1
100
AcDbSymbolTableRecord
100
AcDbBlockTableRecord
  2
*MODEL_SPACE
340
C
  0
BLOCK_RECORD
  5
E
102
{ACAD_XDICTIONARY
360
F
102
}
330
1
100
AcDbSymbolTableRecord
100
AcDbBlockTableRecord
  2
*PAPER_SPACE
340
13
  0
BLOCK_RECORD
  5
2D
330
1
100
AcDbSymbolTableRecord
100
AcDbBlockTableRecord
  2
_OPEN30
340
0
102
{BLKREFS
331
B3
331
B4
331
A1
331
A2
331
3F
331
40
331
FD
331
FE
331
109
331
10A
331
115
331
116
102
}
  0
BLOCK_RECORD
  5
AC
330
1
100
AcDbSymbolTableRecord
100
AcDbBlockTableRecord
  2
*D1
340
0
  0
BLOCK_RECORD
  5
9C
330
1
100
AcDbSymbolTableRecord
100
AcDbBlockTableRecord
  2
*D2
340
0
  0
BLOCK_RECORD
  5
3A
330
1
100
AcDbSymbolTableRecord
100
AcDbBlockTableRecord
  2
*D3
340
0
  0
BLOCK_RECORD
  5
F7
330
1
100
AcDbSymbolTableRecord
100
AcDbBlockTableRecord
  2
*D4
340
0
  0
BLOCK_RECORD
  5
105
330
1
100
AcDbSymbolTableRecord
100
AcDbBlockTableRecord
  2
*D5
340
0
  0
BLOCK_RECORD
  5
111
330
1
100
AcDbSymbolTableRecord
100
AcDbBlockTableRecord
  2
*D6
340
0
  0
ENDTAB
  0
ENDSEC
  0
SECTION
  2
BLOCKS
  0
BLOCK
  5
5
330
2
100
AcDbEntity
  8
0
100
AcDbBlockBegin
  2
*MODEL_SPACE
 70
     0
 10
0.0
 20
0.0
 30
0.0
  3
*MODEL_SPACE
  1

  0
ENDBLK
  5
B
330
2
100
AcDbEntity
  8
0
100
AcDbBlockEnd
  0
BLOCK
  5
11
330
E
100
AcDbEntity
 67
     1
  8
0
100
AcDbBlockBegin
  2
*PAPER_SPACE
 70
     0
 10
0.0
 20
0.0
 30
0.0
  3
*PAPER_SPACE
  1

  0
ENDBLK
  5
12
330
E
100
AcDbEntity
 67
     1
  8
0
100
AcDbBlockEnd
  0
BLOCK
  5
2E
330
2D
100
AcDbEntity
  8
0
100
AcDbBlockBegin
  2
_OPEN30
 70
     0
 10
0.0
 20
0.0
 30
0.0
  3
_OPEN30
  1

  0
LINE
  5
2F
330
2D
100
AcDbEntity
  8
0
  6
ByBlock
 62
     0
100
AcDbLine
 10
-1.0
 20
0.26794919
 30
0.0
 11
0.0
 21
0.0
 31
0.0
  0
LINE
  5
30
330
2D
100
AcDbEntity
  8
0
  6
ByBlock
 62
     0
100
AcDbLine
 10
0.0
 20
0.0
 30
0.0
 11
-1.0
 21
-0.26794919
 31
0.0
  0
LINE
  5
31
330
2D
100
AcDbEntity
  8
0
  6
ByBlock
 62
     0
100
AcDbLine
 10
0.0
 20
0.0
 30
0.0
 11
-1.0
 21
0.0
 31
0.0
  0
ENDBLK
  5
32
330
2D
100
AcDbEntity
  8
0
100
AcDbBlockEnd
  0
BLOCK
  5
AD
330
AC
100
AcDbEntity
  8
0
100
AcDbBlockBegin
  2
*D1
 70
     1
 10
0.0
 20
0.0
 30
0.0
  3
*D1
  1

  0
LINE
  5
AE
330
AC
100
AcDbEntity
  8
SUNPO
 62
     0
370
    -2
100
AcDbLine
 10
106.4204172446284
 20
223.8154295154209
 30
0.0
 11
106.4204172446284
 21
231.8154295154209
 31
0.0
  0
LINE
  5
AF
330
AC
100
AcDbEntity
  8
SUNPO
 62
     0
370
    -2
100
AcDbLine
 10
111.3704172446285
 20
223.8154295154209
 30
0.0
 11
111.3704172446285
 21
231.8154295154209
 31
0.0
  0
LINE
  5
B0
330
AC
100
AcDbEntity
  8
SUNPO
 62
     0
370
    -2
100
AcDbLine
 10
104.4204172446284
 20
229.8154295154209
 30
0.0
 11
102.4204172446284
 21
229.8154295154209
 31
0.0
  0
LINE
  5
B1
330
AC
100
AcDbEntity
  8
SUNPO
 62
     0
370
    -2
100
AcDbLine
 10
113.3704172446285
 20
229.8154295154209
 30
0.0
 11
120.5370839112951
 21
229.8154295154209
 31
0.0
  0
LINE
  5
B2
330
AC
100
AcDbEntity
  8
SUNPO
 62
     0
370
    -2
100
AcDbLine
 10
106.4204172446284
 20
229.8154295154209
 30
0.0
 11
111.3704172446285
 21
229.8154295154209
 31
0.0
  0
INSERT
  5
B3
330
AC
100
AcDbEntity
  8
SUNPO
 62
     0
370
    -2
100
AcDbBlockReference
  2
_OPEN30
 10
106.4204172446284
 20
229.8154295154209
 30
0.0
 41
2.0
 42
2.0
 43
2.0
  0
INSERT
  5
B4
330
AC
100
AcDbEntity
  8
SUNPO
 62
     0
370
    -2
100
AcDbBlockReference
  2
_OPEN30
 10
111.3704172446285
 20
229.8154295154209
 30
0.0
 41
2.0
 42
2.0
 43
2.0
 50
180.0
  0
MTEXT
  5
B5
330
AC
100
AcDbEntity
  8
SUNPO
 62
     0
100
AcDbMText
 10
117.9537505779618
 20
231.5654295154209
 30
0.0
 40
2.5
 41
0.0
 71
     5
 72
     1
  1
\A1;99
 73
     1
 44
1.0
1001
ACAD
1000
MTEXTBEGIN
1070
    73
1070
     1
1070
    44
1040
1.0
1070
    74
1070
     0
1000
MTEXTEND
  0
POINT
  5
B6
330
AC
100
AcDbEntity
  8
DEFPOINTS
 62
     0
100
AcDbPoint
 10
106.4204172446284
 20
221.8154295154209
 30
0.0
  0
POINT
  5
B7
330
AC
100
AcDbEntity
  8
DEFPOINTS
 62
     0
100
AcDbPoint
 10
111.3704172446285
 20
221.8154295154209
 30
0.0
  0
POINT
  5
B8
330
AC
100
AcDbEntity
  8
DEFPOINTS
 62
     0
100
AcDbPoint
 10
111.3704172446285
 20
229.8154295154209
 30
0.0
  0
ENDBLK
  5
B9
330
AC
100
AcDbEntity
  8
0
100
AcDbBlockEnd
  0
BLOCK
  5
9D
330
9C
100
AcDbEntity
  8
0
100
AcDbBlockBegin
  2
*D2
 70
     1
 10
0.0
 20
0.0
 30
0.0
  3
*D2
  1

  0
LINE
  5
9E
330
9C
100
AcDbEntity
  8
SUNPO
 62
     0
370
    -2
100
AcDbLine
 10
11.28041724462844
 20
223.8154295154209
 30
0.0
 11
11.28041724462844
 21
231.8154295154209
 31
0.0
  0
LINE
  5
9F
330
9C
100
AcDbEntity
  8
SUNPO
 62
     0
370
    -2
100
AcDbLine
 10
88.98041724462848
 20
223.8154295154209
 30
0.0
 11
88.98041724462848
 21
231.8154295154209
 31
0.0
  0
LINE
  5
A0
330
9C
100
AcDbEntity
  8
SUNPO
 62
     0
370
    -2
100
AcDbLine
 10
13.28041724462844
 20
229.8154295154209
 30
0.0
 11
86.98041724462848
 21
229.8154295154209
 31
0.0
  0
INSERT
  5
A1
330
9C
100
AcDbEntity
  8
SUNPO
 62
     0
370
    -2
100
AcDbBlockReference
  2
_OPEN30
 10
11.28041724462844
 20
229.8154295154209
 30
0.0
 41
2.0
 42
2.0
 43
2.0
 50
180.0
  0
INSERT
  5
A2
330
9C
100
AcDbEntity
  8
SUNPO
 62
     0
370
    -2
100
AcDbBlockReference
  2
_OPEN30
 10
88.98041724462848
 20
229.8154295154209
 30
0.0
 41
2.0
 42
2.0
 43
2.0
  0
MTEXT
  5
A3
330
9C
100
AcDbEntity
  8
SUNPO
 62
     0
100
AcDbMText
 10
50.13041724462846
 20
231.5654295154209
 30
0.0
 40
2.5
 41
0.0
 71
     5
 72
     1
  1
\A1;1554
 73
     1
 44
1.0
1001
ACAD
1000
MTEXTBEGIN
1070
    73
1070
     1
1070
    44
1040
1.0
1070
    74
1070
     0
1000
MTEXTEND
  0
POINT
  5
A4
330
9C
100
AcDbEntity
  8
DEFPOINTS
 62
     0
100
AcDbPoint
 10
11.28041724462844
 20
221.8154295154209
 30
0.0
  0
POINT
  5
A5
330
9C
100
AcDbEntity
  8
DEFPOINTS
 62
     0
100
AcDbPoint
 10
88.98041724462848
 20
221.8154295154209
 30
0.0
  0
POINT
  5
A6
330
9C
100
AcDbEntity
  8
DEFPOINTS
 62
     0
100
AcDbPoint
 10
88.98041724462848
 20
229.8154295154209
 30
0.0
  0
ENDBLK
  5
A7
330
9C
100
AcDbEntity
  8
0
100
AcDbBlockEnd
  0
BLOCK
  5
3B
330
3A
100
AcDbEntity
  8
0
100
AcDbBlockBegin
  2
*D3
 70
     1
 10
0.0
 20
0.0
 30
0.0
  3
*D3
  1

  0
LINE
  5
3C
330
3A
100
AcDbEntity
  8
SUNPO
 62
     0
370
    -2
100
AcDbLine
 10
90.98041724462849
 20
175.5654302154208
 30
0.0
 11
98.98041724462849
 21
175.5654302154208
 31
0.0
  0
LINE
  5
3D
330
3A
100
AcDbEntity
  8
SUNPO
 62
     0
370
    -2
100
AcDbLine
 10
90.98041724462849
 20
221.8154295154209
 30
0.0
 11
98.98041724462849
 21
221.8154295154209
 31
0.0
  0
LINE
  5
3E
330
3A
100
AcDbEntity
  8
SUNPO
 62
     0
370
    -2
100
AcDbLine
 10
96.98041724462848
 20
177.5654302154208
 30
0.0
 11
96.98041724462848
 21
219.8154295154209
 31
0.0
  0
INSERT
  5
3F
330
3A
100
AcDbEntity
  8
SUNPO
 62
     0
370
    -2
100
AcDbBlockReference
  2
_OPEN30
 10
96.98041724462848
 20
175.5654302154208
 30
0.0
 41
2.0
 42
2.0
 43
2.0
 50
270.0
  0
INSERT
  5
40
330
3A
100
AcDbEntity
  8
SUNPO
 62
     0
370
    -2
100
AcDbBlockReference
  2
_OPEN30
 10
96.98041724462848
 20
221.8154295154209
 30
0.0
 41
2.0
 42
2.0
 43
2.0
 50
90.0
  0
MTEXT
  5
41
330
3A
100
AcDbEntity
  8
SUNPO
 62
     0
100
AcDbMText
 10
95.23041724462846
 20
198.6904298654209
 30
0.0
 40
2.5
 41
0.0
 71
     5
 72
     1
  1
\A1;925
 11
0.0000000000000001
 21
1.0
 31
0.0
 73
     1
 44
1.0
1001
ACAD
1000
MTEXTBEGIN
1070
    73
1070
     1
1070
    44
1040
1.0
1070
    74
1070
     0
1000
MTEXTEND
  0
POINT
  5
42
330
3A
100
AcDbEntity
  8
DEFPOINTS
 62
     0
100
AcDbPoint
 10
88.98041724462848
 20
175.5654302154208
 30
0.0
  0
POINT
  5
44
330
3A
100
AcDbEntity
  8
DEFPOINTS
 62
     0
100
AcDbPoint
 10
88.98041724462848
 20
221.8154295154209
 30
0.0
  0
POINT
  5
45
330
3A
100
AcDbEntity
  8
DEFPOINTS
 62
     0
100
AcDbPoint
 10
96.98041724462848
 20
221.8154295154209
 30
0.0
  0
ENDBLK
  5
46
330
3A
100
AcDbEntity
  8
0
100
AcDbBlockEnd
  0
BLOCK
  5
103
330
F7
100
AcDbEntity
  8
0
100
AcDbBlockBegin
  2
*D4
 70
     1
 10
0.0
 20
0.0
 30
0.0
  3
*D4
  1

  0
LINE
  5
F8
330
F7
100
AcDbEntity
  8
SUNPO
 62
     0
370
    -2
100
AcDbLine
 10
42.85500464253845
 20
29.03961216732296
 30
0.0
 11
42.85500464253845
 21
37.03961216732296
 31
0.0
  0
LINE
  5
F9
330
F7
100
AcDbEntity
  8
SUNPO
 62
     0
370
    -2
100
AcDbLine
 10
47.80500464253853
 20
29.03961216732296
 30
0.0
 11
47.80500464253853
 21
37.03961216732296
 31
0.0
  0
LINE
  5
FA
330
F7
100
AcDbEntity
  8
SUNPO
 62
     0
370
    -2
100
AcDbLine
 10
40.85500464253846
 20
35.03961216732296
 30
0.0
 11
38.85500464253846
 21
35.03961216732296
 31
0.0
  0
LINE
  5
FB
330
F7
100
AcDbEntity
  8
SUNPO
 62
     0
370
    -2
100
AcDbLine
 10
49.80500464253854
 20
35.03961216732296
 30
0.0
 11
56.9716713092052
 21
35.03961216732296
 31
0.0
  0
LINE
  5
FC
330
F7
100
AcDbEntity
  8
SUNPO
 62
     0
370
    -2
100
AcDbLine
 10
42.85500464253845
 20
35.03961216732296
 30
0.0
 11
47.80500464253853
 21
35.03961216732296
 31
0.0
  0
INSERT
  5
FD
330
F7
100
AcDbEntity
  8
SUNPO
 62
     0
370
    -2
100
AcDbBlockReference
  2
_OPEN30
 10
42.85500464253845
 20
35.03961216732296
 30
0.0
 41
2.0
 42
2.0
 43
2.0
  0
INSERT
  5
FE
330
F7
100
AcDbEntity
  8
SUNPO
 62
     0
370
    -2
100
AcDbBlockReference
  2
_OPEN30
 10
47.80500464253853
 20
35.03961216732296
 30
0.0
 41
2.0
 42
2.0
 43
2.0
 50
180.0
  0
MTEXT
  5
FF
330
F7
100
AcDbEntity
  8
SUNPO
 62
     0
100
AcDbMText
 10
54.38833797587187
 20
36.78961216732296
 30
0.0
 40
2.5
 41
0.0
 71
     5
 72
     1
  1
\A1;99
 73
     1
 44
1.0
1001
ACAD
1000
MTEXTBEGIN
1070
    73
1070
     1
1070
    44
1040
1.0
1070
    74
1070
     0
1000
MTEXTEND
  0
POINT
  5
100
330
F7
100
AcDbEntity
  8
DEFPOINTS
 62
     0
100
AcDbPoint
 10
42.85500464253845
 20
27.03961216732296
 30
0.0
  0
POINT
  5
101
330
F7
100
AcDbEntity
  8
DEFPOINTS
 62
     0
100
AcDbPoint
 10
47.80500464253853
 20
27.03961216732296
 30
0.0
  0
POINT
  5
102
330
F7
100
AcDbEntity
  8
DEFPOINTS
 62
     0
100
AcDbPoint
 10
47.80500464253853
 20
35.03961216732296
 30
0.0
  0
ENDBLK
  5
104
330
F7
100
AcDbEntity
  8
0
100
AcDbBlockEnd
  0
BLOCK
  5
10F
330
105
100
AcDbEntity
  8
0
100
AcDbBlockBegin
  2
*D5
 70
     1
 10
0.0
 20
0.0
 30
0.0
  3
*D5
  1

  0
LINE
  5
106
330
105
100
AcDbEntity
  8
SUNPO
 62
     0
370
    -2
100
AcDbLine
 10
-52.28499535746152
 20
29.03961216732296
 30
0.0
 11
-52.28499535746152
 21
37.03961216732296
 31
0.0
  0
LINE
  5
107
330
105
100
AcDbEntity
  8
SUNPO
 62
     0
370
    -2
100
AcDbLine
 10
25.41500464253852
 20
29.03961216732296
 30
0.0
 11
25.41500464253852
 21
37.03961216732296
 31
0.0
  0
LINE
  5
108
330
105
100
AcDbEntity
  8
SUNPO
 62
     0
370
    -2
100
AcDbLine
 10
-50.28499535746153
 20
35.03961216732296
 30
0.0
 11
23.41500464253852
 21
35.03961216732296
 31
0.0
  0
INSERT
  5
109
330
105
100
AcDbEntity
  8
SUNPO
 62
     0
370
    -2
100
AcDbBlockReference
  2
_OPEN30
 10
-52.28499535746152
 20
35.03961216732296
 30
0.0
 41
2.0
 42
2.0
 43
2.0
 50
180.0
  0
INSERT
  5
10A
330
105
100
AcDbEntity
  8
SUNPO
 62
     0
370
    -2
100
AcDbBlockReference
  2
_OPEN30
 10
25.41500464253852
 20
35.03961216732296
 30
0.0
 41
2.0
 42
2.0
 43
2.0
  0
MTEXT
  5
10B
330
105
100
AcDbEntity
  8
SUNPO
 62
     0
100
AcDbMText
 10
-13.4349953574615
 20
36.78961216732296
 30
0.0
 40
2.5
 41
0.0
 71
     5
 72
     1
  1
\A1;1554
 73
     1
 44
1.0
1001
ACAD
1000
MTEXTBEGIN
1070
    73
1070
     1
1070
    44
1040
1.0
1070
    74
1070
     0
1000
MTEXTEND
  0
POINT
  5
10C
330
105
100
AcDbEntity
  8
DEFPOINTS
 62
     0
100
AcDbPoint
 10
-52.28499535746152
 20
27.03961216732296
 30
0.0
  0
POINT
  5
10D
330
105
100
AcDbEntity
  8
DEFPOINTS
 62
     0
100
AcDbPoint
 10
25.41500464253852
 20
27.03961216732296
 30
0.0
  0
POINT
  5
10E
330
105
100
AcDbEntity
  8
DEFPOINTS
 62
     0
100
AcDbPoint
 10
25.41500464253852
 20
35.03961216732296
 30
0.0
  0
ENDBLK
  5
110
330
105
100
AcDbEntity
  8
0
100
AcDbBlockEnd
  0
BLOCK
  5
11B
330
111
100
AcDbEntity
  8
0
100
AcDbBlockBegin
  2
*D6
 70
     1
 10
0.0
 20
0.0
 30
0.0
  3
*D6
  1

  0
LINE
  5
112
330
111
100
AcDbEntity
  8
SUNPO
 62
     0
370
    -2
100
AcDbLine
 10
27.41500464253852
 20
-19.21038713267705
 30
0.0
 11
35.41500464253851
 21
-19.21038713267705
 31
0.0
  0
LINE
  5
113
330
111
100
AcDbEntity
  8
SUNPO
 62
     0
370
    -2
100
AcDbLine
 10
27.41500464253852
 20
27.03961216732296
 30
0.0
 11
35.41500464253852
 21
27.03961216732296
 31
0.0
  0
LINE
  5
114
330
111
100
AcDbEntity
  8
SUNPO
 62
     0
370
    -2
100
AcDbLine
 10
33.41500464253851
 20
-17.21038713267705
 30
0.0
 11
33.41500464253852
 21
25.03961216732296
 31
0.0
  0
INSERT
  5
115
330
111
100
AcDbEntity
  8
SUNPO
 62
     0
370
    -2
100
AcDbBlockReference
  2
_OPEN30
 10
33.41500464253851
 20
-19.21038713267705
 30
0.0
 41
2.0
 42
2.0
 43
2.0
 50
270.0
  0
INSERT
  5
116
330
111
100
AcDbEntity
  8
SUNPO
 62
     0
370
    -2
100
AcDbBlockReference
  2
_OPEN30
 10
33.41500464253852
 20
27.03961216732296
 30
0.0
 41
2.0
 42
2.0
 43
2.0
 50
90.0
  0
MTEXT
  5
117
330
111
100
AcDbEntity
  8
SUNPO
 62
     0
100
AcDbMText
 10
31.66500464253851
 20
3.914612517322956
 30
0.0
 40
2.5
 41
0.0
 71
     5
 72
     1
  1
\A1;925
 11
0.0000000000000001
 21
1.0
 31
0.0
 73
     1
 44
1.0
1001
ACAD
1000
MTEXTBEGIN
1070
    73
1070
     1
1070
    44
1040
1.0
1070
    74
1070
     0
1000
MTEXTEND
  0
POINT
  5
118
330
111
100
AcDbEntity
  8
DEFPOINTS
 62
     0
100
AcDbPoint
 10
25.41500464253852
 20
-19.21038713267705
 30
0.0
  0
POINT
  5
119
330
111
100
AcDbEntity
  8
DEFPOINTS
 62
     0
100
AcDbPoint
 10
25.41500464253852
 20
27.03961216732296
 30
0.0
  0
POINT
  5
11A
330
111
100
AcDbEntity
  8
DEFPOINTS
 62
     0
100
AcDbPoint
 10
33.41500464253852
 20
27.03961216732296
 30
0.0
  0
ENDBLK
  5
11C
330
111
100
AcDbEntity
  8
0
100
AcDbBlockEnd
  0
ENDSEC
  0
SECTION
  2
ENTITIES
  0
TEXT
  5
35
330
2
100
AcDbEntity
  8
MOJI1
100
AcDbText
 10
-34.56541260209031
 20
45.72339679154396
 30
0.0
 40
4.0
  1
フルハイビジョンプラズマディスプレイ
100
AcDbText
  0
TEXT
  5
36
330
2
100
AcDbEntity
  8
TOUROKU
100
AcDbText
 10
42.63453743083717
 20
39.72339679154391
 30
0.0
 40
2.0
  1
ＴＨ６５ＰＦ９ＲＫ
 72
     2
 11
63.43453743083717
 21
39.72339679154391
 31
0.0
100
AcDbText
  0
DIMENSION
  5
38
330
2
100
AcDbEntity
  8
SUNPO
100
AcDbDimension
  2
*D6
 10
33.41500464253852
 20
27.03961216732296
 30
0.0
 11
31.66500464253851
 21
3.914612517322956
 31
0.0
 70
    33
  1
925
 71
     5
 42
46.24999930000001
  3
STANDARD
100
AcDbAlignedDimension
 13
25.41500464253852
 23
-19.21038713267705
 33
0.0
 14
25.41500464253852
 24
27.03961216732296
 34
0.0
1001
ACAD
1000
DSTYLE
1002
{
1070
   287
1070
     3
1070
   287
1070
     3
1070
   287
1070
     3
1070
   287
1070
     3
1070
    40
1040
1.0
1070
   140
1040
2.5
1070
   147
1040
0.5
1070
   172
1070
     1
1070
   279
1070
     0
1070
   288
1070
     0
1002
}
  0
LINE
  5
47
330
2
100
AcDbEntity
  8
GAIKEI
  6
Continuous
 62
     1
100
AcDbLine
 10
47.3150046425385
 20
-17.75537998267703
 30
0.0
 11
47.3150046425385
 21
25.58254722673684
 31
0.0
  0
LINE
  5
49
330
2
100
AcDbEntity
  8
GAIKEI
  6
Continuous
100
AcDbLine
 10
47.80500464253852
 20
-17.75537998267703
 30
0.0
 11
47.80500464253852
 21
25.50960501732294
 31
0.0
  0
LINE
  5
4A
330
2
100
AcDbEntity
  8
GAIKEI
  6
Continuous
 62
     1
100
AcDbLine
 10
23.36500464253845
 20
-17.10537998267705
 30
0.0
 11
23.36500464253845
 21
24.93460501732295
 31
0.0
  0
LINE
  5
4B
330
2
100
AcDbEntity
  8
GAIKEI
  6
Continuous
100
AcDbLine
 10
25.41500464253852
 20
-19.21038713267705
 30
0.0
 11
25.41500464253852
 21
27.03961216732296
 31
0.0
  0
LINE
  5
4C
330
2
100
AcDbEntity
  8
GAIKEI
  6
Continuous
100
AcDbLine
 10
42.85500464253845
 20
-19.05537998267704
 30
0.0
 11
42.85500464253845
 21
26.88460501732294
 31
0.0
  0
LINE
  5
4D
330
2
100
AcDbEntity
  8
GAIKEI
  6
Continuous
100
AcDbLine
 10
44.98000464253846
 20
-19.21102507559652
 30
0.0
 11
44.98000464253846
 21
27.01525011732298
 31
0.0
  0
LINE
  5
4E
330
2
100
AcDbEntity
  8
GAIKEI
  6
Continuous
 62
     1
100
AcDbLine
 10
42.95769364253851
 20
-19.15806898267703
 30
0.0
 11
42.95769364253851
 21
26.987294017323
 31
0.0
  0
LINE
  5
4F
330
2
100
AcDbEntity
  8
GAIKEI
  6
Continuous
 62
     1
100
AcDbLine
 10
22.42250464253846
 20
-16.24037998267704
 30
0.0
 11
22.42250464253846
 21
24.06960501732295
 31
0.0
  0
LINE
  5
50
330
2
100
AcDbEntity
  8
GAIKEI
  6
Continuous
100
AcDbLine
 10
-52.28499535746152
 20
-19.21038713267705
 30
0.0
 11
-52.28499535746152
 21
27.03961216732296
 31
0.0
  0
LINE
  5
51
330
2
100
AcDbEntity
  8
GAIKEI
  6
Continuous
 62
     1
100
AcDbLine
 10
-50.23499535746146
 20
-17.10537998267705
 30
0.0
 11
-50.23499535746146
 21
24.93460501732295
 31
0.0
  0
LINE
  5
52
330
2
100
AcDbEntity
  8
GAIKEI
  6
Continuous
 62
     1
100
AcDbLine
 10
-49.29249535746158
 20
-16.24037998267704
 30
0.0
 11
-49.29249535746158
 21
24.06960501732295
 31
0.0
  0
LINE
  5
53
330
2
100
AcDbEntity
  8
GAIKEI
  6
Continuous
100
AcDbLine
 10
-52.28499535746152
 20
-19.21038713267705
 30
0.0
 11
25.41500464253852
 21
-19.21038713267705
 31
0.0
  0
LINE
  5
54
330
2
100
AcDbEntity
  8
GAIKEI
  6
Continuous
 62
     1
100
AcDbLine
 10
-52.28499535746152
 20
-17.10537998267705
 30
0.0
 11
25.41500464253852
 21
-17.10537998267705
 31
0.0
  0
LINE
  5
55
330
2
100
AcDbEntity
  8
GAIKEI
  6
Continuous
 62
     1
100
AcDbLine
 10
-49.29249535746158
 20
-16.24037998267704
 30
0.0
 11
22.42250464253846
 21
-16.24037998267704
 31
0.0
  0
LINE
  5
56
330
2
100
AcDbEntity
  8
GAIKEI
  6
Continuous
 62
     1
100
AcDbLine
 10
-37.85249535746152
 20
-18.25537998267703
 30
0.0
 11
-38.17249535746146
 21
-18.25537998267703
 31
0.0
  0
LINE
  5
57
330
2
100
AcDbEntity
  8
GAIKEI
  6
Continuous
 62
     1
100
AcDbLine
 10
-37.85249535746152
 20
-18.60537998267705
 30
0.0
 11
-38.17249535746146
 21
-18.60537998267705
 31
0.0
  0
LINE
  5
58
330
2
100
AcDbEntity
  8
GAIKEI
  6
Continuous
 62
     1
100
AcDbLine
 10
-44.18749535746155
 20
-17.95787998267701
 30
0.0
 11
-44.18749535746155
 21
-18.93287998267703
 31
0.0
  0
LINE
  5
59
330
2
100
AcDbEntity
  8
GAIKEI
  6
Continuous
 62
     1
100
AcDbLine
 10
-43.16249535746147
 20
-17.95787998267701
 30
0.0
 11
-43.16249535746147
 21
-18.93287998267703
 31
0.0
  0
LINE
  5
5A
330
2
100
AcDbEntity
  8
GAIKEI
  6
Continuous
 62
     1
100
AcDbLine
 10
-43.18749535746156
 20
-18.95787998267701
 30
0.0
 11
-44.16249535746146
 21
-18.95787998267701
 31
0.0
  0
LINE
  5
5B
330
2
100
AcDbEntity
  8
GAIKEI
  6
Continuous
 62
     1
100
AcDbLine
 10
-43.18749535746156
 20
-17.93287998267703
 30
0.0
 11
-44.16249535746146
 21
-17.93287998267703
 31
0.0
  0
ARC
  5
5C
330
2
100
AcDbEntity
  8
GAIKEI
  6
Continuous
 62
     1
100
AcDbCircle
 10
-44.16249535746146
 20
-17.95787998267701
 30
0.0
 40
0.025
100
AcDbArc
 50
90.0
 51
180.0
  0
ARC
  5
5D
330
2
100
AcDbEntity
  8
GAIKEI
  6
Continuous
 62
     1
100
AcDbCircle
 10
-44.16249535746146
 20
-18.93287998267703
 30
0.0
 40
0.025
100
AcDbArc
 50
180.0
 51
270.0
  0
ARC
  5
5E
330
2
100
AcDbEntity
  8
GAIKEI
  6
Continuous
 62
     1
100
AcDbCircle
 10
-43.18749535746156
 20
-18.93287998267703
 30
0.0
 40
0.025
100
AcDbArc
 50
270.0
 51
0.0
  0
ARC
  5
5F
330
2
100
AcDbEntity
  8
GAIKEI
  6
Continuous
 62
     1
100
AcDbCircle
 10
-43.18749535746156
 20
-17.95787998267701
 30
0.0
 40
0.025
100
AcDbArc
 50
0.0
 51
90.0
  0
LINE
  5
60
330
2
100
AcDbEntity
  8
GAIKEI
  6
Continuous
 62
     1
100
AcDbLine
 10
-38.18749535746156
 20
-18.59037998267706
 30
0.0
 11
-38.18749535746156
 21
-18.27037998267701
 31
0.0
  0
ARC
  5
61
330
2
100
AcDbEntity
  8
GAIKEI
  6
Continuous
 62
     1
100
AcDbCircle
 10
-38.17249535746146
 20
-18.27037998267701
 30
0.0
 40
0.015
100
AcDbArc
 50
90.0
 51
180.0
  0
ARC
  5
62
330
2
100
AcDbEntity
  8
GAIKEI
  6
Continuous
 62
     1
100
AcDbCircle
 10
-38.17249535746146
 20
-18.59037998267706
 30
0.0
 40
0.015
100
AcDbArc
 50
180.0
 51
270.0
  0
LINE
  5
63
330
2
100
AcDbEntity
  8
GAIKEI
  6
Continuous
 62
     1
100
AcDbLine
 10
-39.36249535746151
 20
-18.31787998267703
 30
0.0
 11
-39.53749535746147
 21
-18.31787998267703
 31
0.0
  0
LINE
  5
64
330
2
100
AcDbEntity
  8
GAIKEI
  6
Continuous
 62
     1
100
AcDbLine
 10
-39.33749535746154
 20
-18.51787998267701
 30
0.0
 11
-39.33749535746154
 21
-18.34287998267706
 31
0.0
  0
LINE
  5
65
330
2
100
AcDbEntity
  8
GAIKEI
  6
Continuous
 62
     1
100
AcDbLine
 10
-39.56249535746156
 20
-18.51787998267701
 30
0.0
 11
-39.56249535746156
 21
-18.34287998267706
 31
0.0
  0
LINE
  5
66
330
2
100
AcDbEntity
  8
GAIKEI
  6
Continuous
 62
     1
100
AcDbLine
 10
-39.36249535746151
 20
-18.54287998267705
 30
0.0
 11
-39.53749535746147
 21
-18.54287998267705
 31
0.0
  0
ARC
  5
67
330
2
100
AcDbEntity
  8
GAIKEI
  6
Continuous
 62
     1
100
AcDbCircle
 10
-39.36249535746151
 20
-18.34287998267706
 30
0.0
 40
0.025
100
AcDbArc
 50
0.0
 51
90.0
  0
ARC
  5
68
330
2
100
AcDbEntity
  8
GAIKEI
  6
Continuous
 62
     1
100
AcDbCircle
 10
-39.53749535746147
 20
-18.34287998267706
 30
0.0
 40
0.025
100
AcDbArc
 50
90.0
 51
180.0
  0
ARC
  5
69
330
2
100
AcDbEntity
  8
GAIKEI
  6
Continuous
 62
     1
100
AcDbCircle
 10
-39.53749535746147
 20
-18.51787998267701
 30
0.0
 40
0.025
100
AcDbArc
 50
180.0
 51
270.0
  0
ARC
  5
6A
330
2
100
AcDbEntity
  8
GAIKEI
  6
Continuous
 62
     1
100
AcDbCircle
 10
-39.36249535746151
 20
-18.51787998267701
 30
0.0
 40
0.025
100
AcDbArc
 50
270.0
 51
0.0
  0
LINE
  5
6B
330
2
100
AcDbEntity
  8
GAIKEI
  6
Continuous
 62
     1
100
AcDbLine
 10
-40.75999535746155
 20
-18.20287998267702
 30
0.0
 11
-40.75999535746155
 21
-18.65787998267706
 31
0.0
  0
LINE
  5
6C
330
2
100
AcDbEntity
  8
GAIKEI
  6
Continuous
 62
     1
100
AcDbLine
 10
-39.88999535746155
 20
-18.20287998267702
 30
0.0
 11
-39.88999535746155
 21
-18.65787998267706
 31
0.0
  0
LINE
  5
6D
330
2
100
AcDbEntity
  8
GAIKEI
  6
Continuous
 62
     1
100
AcDbLine
 10
-39.91499535746152
 20
-18.17787998267704
 30
0.0
 11
-40.73499535746146
 21
-18.17787998267704
 31
0.0
  0
LINE
  5
6E
330
2
100
AcDbEntity
  8
GAIKEI
  6
Continuous
 62
     1
100
AcDbLine
 10
-39.91499535746152
 20
-18.68287998267703
 30
0.0
 11
-40.73499535746146
 21
-18.68287998267703
 31
0.0
  0
ARC
  5
6F
330
2
100
AcDbEntity
  8
GAIKEI
  6
Continuous
 62
     1
100
AcDbCircle
 10
-40.73499535746146
 20
-18.20287998267702
 30
0.0
 40
0.025
100
AcDbArc
 50
90.0
 51
180.0
  0
ARC
  5
70
330
2
100
AcDbEntity
  8
GAIKEI
  6
Continuous
 62
     1
100
AcDbCircle
 10
-40.73499535746146
 20
-18.65787998267706
 30
0.0
 40
0.025
100
AcDbArc
 50
180.0
 51
270.0
  0
ARC
  5
71
330
2
100
AcDbEntity
  8
GAIKEI
  6
Continuous
 62
     1
100
AcDbCircle
 10
-39.91499535746152
 20
-18.65787998267706
 30
0.0
 40
0.025
100
AcDbArc
 50
270.0
 51
0.0
  0
ARC
  5
72
330
2
100
AcDbEntity
  8
GAIKEI
  6
Continuous
 62
     1
100
AcDbCircle
 10
-39.91499535746152
 20
-18.20287998267702
 30
0.0
 40
0.025
100
AcDbArc
 50
0.0
 51
90.0
  0
LINE
  5
73
330
2
100
AcDbEntity
  8
GAIKEI
  6
Continuous
 62
     1
100
AcDbLine
 10
-37.83749535746153
 20
-18.59037998267706
 30
0.0
 11
-37.83749535746153
 21
-18.27037998267701
 31
0.0
  0
ARC
  5
74
330
2
100
AcDbEntity
  8
GAIKEI
  6
Continuous
 62
     1
100
AcDbCircle
 10
-37.85249535746152
 20
-18.27037998267701
 30
0.0
 40
0.015
100
AcDbArc
 50
0.0
 51
90.0
  0
ARC
  5
75
330
2
100
AcDbEntity
  8
GAIKEI
  6
Continuous
 62
     1
100
AcDbCircle
 10
-37.85249535746152
 20
-18.59037998267706
 30
0.0
 40
0.015
100
AcDbArc
 50
270.0
 51
0.0
  0
LINE
  5
76
330
2
100
AcDbEntity
  8
GAIKEI
  6
Continuous
 62
     1
100
AcDbLine
 10
-37.18749535746156
 20
-18.59037998267706
 30
0.0
 11
-37.18749535746156
 21
-18.27037998267701
 31
0.0
  0
LINE
  5
77
330
2
100
AcDbEntity
  8
GAIKEI
  6
Continuous
 62
     1
100
AcDbLine
 10
-37.53749535746147
 20
-18.59037998267706
 30
0.0
 11
-37.53749535746147
 21
-18.27037998267701
 31
0.0
  0
LINE
  5
78
330
2
100
AcDbEntity
  8
GAIKEI
  6
Continuous
 62
     1
100
AcDbLine
 10
-37.20249535746154
 20
-18.25537998267703
 30
0.0
 11
-37.52249535746148
 21
-18.25537998267703
 31
0.0
  0
LINE
  5
79
330
2
100
AcDbEntity
  8
GAIKEI
  6
Continuous
 62
     1
100
AcDbLine
 10
-37.20249535746154
 20
-18.60537998267705
 30
0.0
 11
-37.52249535746148
 21
-18.60537998267705
 31
0.0
  0
ARC
  5
7A
330
2
100
AcDbEntity
  8
GAIKEI
  6
Continuous
 62
     1
100
AcDbCircle
 10
-37.20249535746154
 20
-18.27037998267701
 30
0.0
 40
0.015
100
AcDbArc
 50
0.0
 51
90.0
  0
ARC
  5
7B
330
2
100
AcDbEntity
  8
GAIKEI
  6
Continuous
 62
     1
100
AcDbCircle
 10
-37.52249535746148
 20
-18.27037998267701
 30
0.0
 40
0.015
100
AcDbArc
 50
90.0
 51
180.0
  0
ARC
  5
7C
330
2
100
AcDbEntity
  8
GAIKEI
  6
Continuous
 62
     1
100
AcDbCircle
 10
-37.52249535746148
 20
-18.59037998267706
 30
0.0
 40
0.015
100
AcDbArc
 50
180.0
 51
270.0
  0
ARC
  5
7D
330
2
100
AcDbEntity
  8
GAIKEI
  6
Continuous
 62
     1
100
AcDbCircle
 10
-37.20249535746154
 20
-18.59037998267706
 30
0.0
 40
0.015
100
AcDbArc
 50
270.0
 51
0.0
  0
LINE
  5
7E
330
2
100
AcDbEntity
  8
GAIKEI
  6
Continuous
 62
     1
100
AcDbLine
 10
-36.53749535746147
 20
-18.59037998267706
 30
0.0
 11
-36.53749535746147
 21
-18.27037998267701
 31
0.0
  0
LINE
  5
7F
330
2
100
AcDbEntity
  8
GAIKEI
  6
Continuous
 62
     1
100
AcDbLine
 10
-36.88749535746149
 20
-18.59037998267706
 30
0.0
 11
-36.88749535746149
 21
-18.27037998267701
 31
0.0
  0
LINE
  5
80
330
2
100
AcDbEntity
  8
GAIKEI
  6
Continuous
 62
     1
100
AcDbLine
 10
-36.55249535746157
 20
-18.25537998267703
 30
0.0
 11
-36.8724953574615
 21
-18.25537998267703
 31
0.0
  0
LINE
  5
81
330
2
100
AcDbEntity
  8
GAIKEI
  6
Continuous
 62
     1
100
AcDbLine
 10
-36.55249535746157
 20
-18.60537998267705
 30
0.0
 11
-36.8724953574615
 21
-18.60537998267705
 31
0.0
  0
ARC
  5
82
330
2
100
AcDbEntity
  8
GAIKEI
  6
Continuous
 62
     1
100
AcDbCircle
 10
-36.55249535746157
 20
-18.27037998267701
 30
0.0
 40
0.015
100
AcDbArc
 50
0.0
 51
90.0
  0
ARC
  5
83
330
2
100
AcDbEntity
  8
GAIKEI
  6
Continuous
 62
     1
100
AcDbCircle
 10
-36.8724953574615
 20
-18.27037998267701
 30
0.0
 40
0.015
100
AcDbArc
 50
90.0
 51
180.0
  0
ARC
  5
84
330
2
100
AcDbEntity
  8
GAIKEI
  6
Continuous
 62
     1
100
AcDbCircle
 10
-36.8724953574615
 20
-18.59037998267706
 30
0.0
 40
0.015
100
AcDbArc
 50
180.0
 51
270.0
  0
ARC
  5
85
330
2
100
AcDbEntity
  8
GAIKEI
  6
Continuous
 62
     1
100
AcDbCircle
 10
-36.55249535746157
 20
-18.59037998267706
 30
0.0
 40
0.015
100
AcDbArc
 50
270.0
 51
0.0
  0
LINE
  5
86
330
2
100
AcDbEntity
  8
GAIKEI
  6
Continuous
 62
     1
100
AcDbLine
 10
-35.23749535746151
 20
-18.59037998267706
 30
0.0
 11
-35.23749535746151
 21
-18.27037998267701
 31
0.0
  0
LINE
  5
87
330
2
100
AcDbEntity
  8
GAIKEI
  6
Continuous
 62
     1
100
AcDbLine
 10
-35.58749535746154
 20
-18.59037998267706
 30
0.0
 11
-35.58749535746154
 21
-18.27037998267701
 31
0.0
  0
LINE
  5
88
330
2
100
AcDbEntity
  8
GAIKEI
  6
Continuous
 62
     1
100
AcDbLine
 10
-35.2524953574615
 20
-18.25537998267703
 30
0.0
 11
-35.57249535746155
 21
-18.25537998267703
 31
0.0
  0
LINE
  5
89
330
2
100
AcDbEntity
  8
GAIKEI
  6
Continuous
 62
     1
100
AcDbLine
 10
-35.2524953574615
 20
-18.60537998267705
 30
0.0
 11
-35.57249535746155
 21
-18.60537998267705
 31
0.0
  0
ARC
  5
8A
330
2
100
AcDbEntity
  8
GAIKEI
  6
Continuous
 62
     1
100
AcDbCircle
 10
-35.2524953574615
 20
-18.27037998267701
 30
0.0
 40
0.015
100
AcDbArc
 50
0.0
 51
90.0
  0
ARC
  5
8B
330
2
100
AcDbEntity
  8
GAIKEI
  6
Continuous
 62
     1
100
AcDbCircle
 10
-35.57249535746155
 20
-18.27037998267701
 30
0.0
 40
0.015
100
AcDbArc
 50
90.0
 51
180.0
  0
ARC
  5
8C
330
2
100
AcDbEntity
  8
GAIKEI
  6
Continuous
 62
     1
100
AcDbCircle
 10
-35.57249535746155
 20
-18.59037998267706
 30
0.0
 40
0.015
100
AcDbArc
 50
180.0
 51
270.0
  0
ARC
  5
8D
330
2
100
AcDbEntity
  8
GAIKEI
  6
Continuous
 62
     1
100
AcDbCircle
 10
-35.2524953574615
 20
-18.59037998267706
 30
0.0
 40
0.015
100
AcDbArc
 50
270.0
 51
0.0
  0
LINE
  5
8E
330
2
100
AcDbEntity
  8
GAIKEI
  6
Continuous
 62
     1
100
AcDbLine
 10
-35.88749535746149
 20
-18.59037998267706
 30
0.0
 11
-35.88749535746149
 21
-18.27037998267701
 31
0.0
  0
LINE
  5
8F
330
2
100
AcDbEntity
  8
GAIKEI
  6
Continuous
 62
     1
100
AcDbLine
 10
-36.23749535746151
 20
-18.59037998267706
 30
0.0
 11
-36.23749535746151
 21
-18.27037998267701
 31
0.0
  0
LINE
  5
90
330
2
100
AcDbEntity
  8
GAIKEI
  6
Continuous
 62
     1
100
AcDbLine
 10
-35.90249535746148
 20
-18.25537998267703
 30
0.0
 11
-36.22249535746153
 21
-18.25537998267703
 31
0.0
  0
LINE
  5
91
330
2
100
AcDbEntity
  8
GAIKEI
  6
Continuous
 62
     1
100
AcDbLine
 10
-35.90249535746148
 20
-18.60537998267705
 30
0.0
 11
-36.22249535746153
 21
-18.60537998267705
 31
0.0
  0
ARC
  5
92
330
2
100
AcDbEntity
  8
GAIKEI
  6
Continuous
 62
     1
100
AcDbCircle
 10
-35.90249535746148
 20
-18.27037998267701
 30
0.0
 40
0.015
100
AcDbArc
 50
0.0
 51
90.0
  0
ARC
  5
93
330
2
100
AcDbEntity
  8
GAIKEI
  6
Continuous
 62
     1
100
AcDbCircle
 10
-36.22249535746153
 20
-18.27037998267701
 30
0.0
 40
0.015
100
AcDbArc
 50
90.0
 51
180.0
  0
ARC
  5
94
330
2
100
AcDbEntity
  8
GAIKEI
  6
Continuous
 62
     1
100
AcDbCircle
 10
-36.22249535746153
 20
-18.59037998267706
 30
0.0
 40
0.015
100
AcDbArc
 50
180.0
 51
270.0
  0
ARC
  5
95
330
2
100
AcDbEntity
  8
GAIKEI
  6
Continuous
 62
     1
100
AcDbCircle
 10
-35.90249535746148
 20
-18.59037998267706
 30
0.0
 40
0.015
100
AcDbArc
 50
270.0
 51
0.0
  0
LINE
  5
96
330
2
100
AcDbEntity
  8
GAIKEI
  6
Continuous
100
AcDbLine
 10
47.80500464253852
 20
-17.75537998267703
 30
0.0
 11
44.98000464253846
 21
-17.75537998267703
 31
0.0
  0
LINE
  5
97
330
2
100
AcDbEntity
  8
GAIKEI
  6
Continuous
100
AcDbLine
 10
42.95769364253851
 20
-19.15806898267703
 30
0.0
 11
44.98000464253846
 21
-19.21102507559652
 31
0.0
  0
LINE
  5
98
330
2
100
AcDbEntity
  8
GAIKEI
  6
Continuous
100
AcDbLine
 10
42.85500464253845
 20
-19.05537998267704
 30
0.0
 11
42.95769364253851
 21
-19.15806898267703
 31
0.0
  0
LINE
  5
99
330
2
100
AcDbEntity
  8
GAIKEI
  6
Continuous
 62
     1
100
AcDbLine
 10
42.85500464253845
 20
-19.05534568267706
 30
0.0
 11
44.98000464253846
 21
-19.1109907755166
 31
0.0
  0
LINE
  5
9A
330
2
100
AcDbEntity
  8
GAIKEI
  6
Continuous
100
AcDbLine
 10
47.80500464253852
 20
-5.585387482677049
 30
0.0
 11
47.80500464253852
 21
-6.585387482677049
 31
0.0
  0
DIMENSION
  5
9B
330
2
100
AcDbEntity
  8
SUNPO
100
AcDbDimension
  2
*D5
 10
25.41500464253852
 20
35.03961216732296
 30
0.0
 11
-13.4349953574615
 21
36.78961216732296
 31
0.0
 70
    33
  1
1554
 71
     5
 42
77.70000000000004
  3
STANDARD
100
AcDbAlignedDimension
 13
-52.28499535746152
 23
27.03961216732296
 33
0.0
 14
25.41500464253852
 24
27.03961216732296
 34
0.0
1001
ACAD
1000
DSTYLE
1002
{
1070
   287
1070
     3
1070
   287
1070
     3
1070
   287
1070
     3
1070
   287
1070
     3
1070
    40
1040
1.0
1070
   140
1040
2.5
1070
   147
1040
0.5
1070
   172
1070
     1
1070
   279
1070
     0
1070
   288
1070
     0
1002
}
  0
LINE
  5
A8
330
2
100
AcDbEntity
  8
GAIKEI
  6
Continuous
 62
     1
100
AcDbLine
 10
-52.28499535746152
 20
24.93460501732295
 30
0.0
 11
25.41500464253852
 21
24.93460501732295
 31
0.0
  0
LINE
  5
A9
330
2
100
AcDbEntity
  8
GAIKEI
  6
Continuous
100
AcDbLine
 10
-52.28499535746152
 20
27.03961216732296
 30
0.0
 11
25.41500464253852
 21
27.03961216732296
 31
0.0
  0
LINE
  5
AA
330
2
100
AcDbEntity
  8
GAIKEI
  6
Continuous
 62
     1
100
AcDbLine
 10
-49.29249535746158
 20
24.06960501732295
 30
0.0
 11
22.42250464253846
 21
24.06960501732295
 31
0.0
  0
DIMENSION
  5
AB
330
2
100
AcDbEntity
  8
SUNPO
100
AcDbDimension
  2
*D4
 10
47.80500464253853
 20
35.03961216732296
 30
0.0
 11
54.38833797587187
 21
36.78961216732296
 31
0.0
 70
    33
  1
99
 71
     5
 42
4.950000000000073
  3
STANDARD
100
AcDbAlignedDimension
 13
42.85500464253845
 23
27.03961216732296
 33
0.0
 14
47.80500464253853
 24
27.03961216732296
 34
0.0
1001
ACAD
1000
DSTYLE
1002
{
1070
   287
1070
     3
1070
   287
1070
     3
1070
   287
1070
     3
1070
   287
1070
     3
1070
    40
1040
1.0
1070
   140
1040
2.5
1070
   147
1040
0.5
1070
   172
1070
     1
1070
   279
1070
     0
1070
   288
1070
     0
1002
}
  0
LINE
  5
BA
330
2
100
AcDbEntity
  8
GAIKEI
  6
Continuous
100
AcDbLine
 10
44.98000464253846
 20
25.92865056732296
 30
0.0
 11
47.80500464253852
 21
25.50960501732294
 31
0.0
  0
LINE
  5
BB
330
2
100
AcDbEntity
  8
GAIKEI
  6
Continuous
100
AcDbLine
 10
44.98000464253846
 20
27.01525011732298
 30
0.0
 11
44.95564259253853
 21
27.03961216732296
 31
0.0
  0
LINE
  5
BC
330
2
100
AcDbEntity
  8
GAIKEI
  6
Continuous
100
AcDbLine
 10
42.85500464253845
 20
26.88460501732294
 30
0.0
 11
42.95769364253851
 21
26.987294017323
 31
0.0
  0
LINE
  5
BD
330
2
100
AcDbEntity
  8
GAIKEI
  6
Continuous
100
AcDbLine
 10
42.95769364253851
 20
26.987294017323
 30
0.0
 11
44.95564259253853
 21
27.03961216732296
 31
0.0
  0
LINE
  5
BE
330
2
100
AcDbEntity
  8
GAIKEI
  6
Continuous
 62
     1
100
AcDbLine
 10
42.85500464253845
 20
26.88457071732296
 30
0.0
 11
44.95564259253853
 21
26.93957786732295
 31
0.0
  0
LINE
  5
BF
330
2
100
AcDbEntity
  8
GAIKEI
  6
Continuous
100
AcDbLine
 10
44.95564259253853
 20
26.93957786732295
 30
0.0
 11
44.98000464253846
 21
26.96458646732293
 31
0.0
  0
LINE
  5
C0
330
2
100
AcDbEntity
  8
GAIKEI
  6
Continuous
100
AcDbLine
 10
47.80500464253852
 20
14.41461251732295
 30
0.0
 11
47.80500464253852
 21
13.41461251732295
 31
0.0
  0
LWPOLYLINE
  5
C1
330
2
100
AcDbEntity
  8
GAIKEI
100
AcDbPolyline
 90
       36
 70
     0
 43
0.0
 10
50.10933099318641
 20
23.09883789750643
 10
50.10933099318641
 20
23.12626388871729
 10
50.10607245957728
 20
23.14988825738408
 10
50.10607245957728
 20
23.17663538742636
 10
50.10281392596802
 20
23.20025975609315
 10
50.09928384789136
 20
23.22361258029252
 10
50.0957537698148
 20
23.2480515823616
 10
50.09276678067296
 20
23.27534180133875
 10
50.08950824706381
 20
23.29869462553808
 10
50.08217654644297
 20
23.32231899420486
 10
50.07593102369198
 20
23.34567181840424
 10
50.07240094561542
 20
23.36956773153844
 10
50.06208225585284
 20
23.39346364467269
 10
50.05502209969963
 20
23.41749533004065
 10
50.04850503248123
 20
23.44410668784917
 10
50.03845788718606
 20
23.46447252290676
 10
50.02786765295617
 20
23.48863998050843
 10
50.01836359659593
 20
23.51226434917521
 10
50.00804490683346
 20
23.53276595646651
 10
49.99772621707099
 20
23.55584723619842
 10
49.98767907177581
 20
23.5792000603978
 10
49.9741018484042
 20
23.6001089843902
 10
49.96079616949988
 20
23.62047481944779
 10
49.94694740166075
 20
23.64437073258205
 10
49.9197929549173
 20
23.68442354152859
 10
49.90648727601298
 20
23.70492514881988
 10
49.88937997456471
 20
23.72189667803451
 10
49.87607429566039
 20
23.7422625130921
 10
49.85869544974459
 20
23.76303566485081
 10
49.84158814829619
 20
23.77946410513061
 10
49.82502393578274
 20
23.79982994018821
 10
49.80791663433435
 20
23.81680146940283
 10
49.78782234374422
 20
23.83418031531864
 10
49.77071504229583
 20
23.85128761676697
 10
49.75062075170571
 20
23.86758028481307
 10
49.73704352833398
 20
23.87735588564067
  0
LINE
  5
C2
330
2
100
AcDbEntity
  8
GAIKEI
100
AcDbLine
 10
49.30664554745046
 20
23.32897183365702
 30
0.0
 11
49.30664554745046
 21
18.32698697128251
 31
0.0
  0
LWPOLYLINE
  5
C3
330
2
100
AcDbEntity
  8
GAIKEI
100
AcDbPolyline
 90
       36
 70
     0
 43
0.0
 10
49.73704352833398
 20
17.77805983036398
 10
49.75062075170571
 20
17.78837852012645
 10
49.77071504229583
 20
17.80535004934114
 10
49.78782234374422
 20
17.8186557282454
 10
49.82502393578274
 20
17.85585732028392
 10
49.84158814829619
 20
17.8729646217323
 10
49.85869544974459
 20
17.89034346764811
 10
49.87607429566039
 20
17.91070930270564
 10
49.88937997456471
 20
17.93012473212718
 10
49.90648727601298
 20
17.95103365611964
 10
49.9197929549173
 20
17.97126371894353
 10
49.93337017828903
 20
17.99108646506624
 10
49.94694740166075
 20
18.01131652789007
 10
49.96079616949988
 20
18.03168236294766
 10
49.9741018484042
 20
18.05245551470637
 10
49.98767907177581
 20
18.07607988337315
 10
49.99772621707099
 20
18.09617417396333
 10
50.00804490683346
 20
18.120341631565
 10
50.01836359659593
 20
18.14396600023178
 10
50.02786765295617
 20
18.16433183528932
 10
50.03845788718606
 20
18.18768465948869
 10
50.04850503248123
 20
18.21185211709036
 10
50.05502209969963
 20
18.23574803022455
 10
50.06208225585284
 20
18.25882930995646
 10
50.07240094561542
 20
18.28191058968844
 10
50.07593102369198
 20
18.30662113622492
 10
50.08217654644297
 20
18.32970241595683
 10
50.08950824706381
 20
18.35386987355855
 10
50.09276678067296
 20
18.38061700360083
 10
50.0957537698148
 20
18.40478446120244
 10
50.09928384789136
 20
18.42813728540182
 10
50.10281392596802
 20
18.45515595991151
 10
50.10607245957728
 20
18.47932341751317
 10
50.10607245957728
 20
18.50294778617996
 10
50.10933099318641
 20
18.53023800515711
 10
50.10933099318641
 20
18.5538623738239
  0
LINE
  5
C4
330
2
100
AcDbEntity
  8
GAIKEI
100
AcDbLine
 10
47.80962089848482
 20
16.5785121454727
 30
0.0
 11
48.25739772528415
 21
16.5785121454727
 31
0.0
  0
LINE
  5
C5
330
2
100
AcDbEntity
  8
GAIKEI
100
AcDbLine
 10
47.80962089848482
 20
18.32698697128251
 30
0.0
 11
49.30664554745046
 21
18.32698697128251
 31
0.0
  0
LINE
  5
C6
330
2
100
AcDbEntity
  8
GAIKEI
100
AcDbLine
 10
48.25739772528415
 20
16.5785121454727
 30
0.0
 11
49.73704352833387
 21
17.77805983036393
 31
0.0
  0
LINE
  5
C7
330
2
100
AcDbEntity
  8
GAIKEI
100
AcDbLine
 10
50.10933099318641
 20
23.09883789750637
 30
0.0
 11
50.10933099318641
 21
18.5538623738239
 31
0.0
  0
LINE
  5
C8
330
2
100
AcDbEntity
  8
GAIKEI
100
AcDbLine
 10
47.80962089848482
 20
25.07636048159708
 30
0.0
 11
48.25739772528415
 21
25.07636048159708
 31
0.0
  0
LINE
  5
C9
330
2
100
AcDbEntity
  8
GAIKEI
100
AcDbLine
 10
48.25739772528415
 20
25.07636048159708
 30
0.0
 11
49.73704352833387
 21
23.87735588564067
 31
0.0
  0
LINE
  5
CA
330
2
100
AcDbEntity
  8
GAIKEI
100
AcDbLine
 10
47.80962089848482
 20
23.32897183365702
 30
0.0
 11
49.30664554745046
 21
23.32897183365702
 31
0.0
  0
TEXT
  5
CB
330
2
100
AcDbEntity
  8
MOJI1
100
AcDbText
 10
-20.06541260209008
 20
-62.27660320845609
 30
0.0
 40
3.0
  1
コンポーネントビデオ
100
AcDbText
  0
TEXT
  5
CC
330
2
100
AcDbEntity
  8
MOJI1
100
AcDbText
 10
-20.06541260209008
 20
-57.27660320845609
 30
0.0
 40
3.0
  1
ＰＣ／外部スピーカ／シリアル／ＤＶＩ
100
AcDbText
  0
TEXT
  5
CD
330
2
100
AcDbEntity
  8
MOJI1
100
AcDbText
 10
-20.06541260209008
 20
-47.27660320845609
 30
0.0
 40
3.0
  1
２０７３６００画素（水平１９２０×垂直１０８０）
 41
0.95
100
AcDbText
  0
TEXT
  5
CE
330
2
100
AcDbEntity
  8
MOJI1
100
AcDbText
 10
-20.06541260209008
 20
-37.2766032084561
 30
0.0
 40
3.0
  1
７５５Ｗ
100
AcDbText
  0
TEXT
  5
CF
330
2
100
AcDbEntity
  8
MOJI1
100
AcDbText
 10
-20.06541260209008
 20
-32.2766032084561
 30
0.0
 40
3.0
  1
ＡＣ１００Ｖ　５０Ｈｚ／６０Ｈｚ
100
AcDbText
  0
LINE
  5
D0
330
2
100
AcDbEntity
  8
WAKU
 62
     4
100
AcDbLine
 10
63.43458739790969
 20
-63.27660320845609
 30
0.0
 11
-61.56541260209007
 21
-63.27660320845609
 31
0.0
  0
LINE
  5
D2
330
2
100
AcDbEntity
  8
WAKU
 62
     1
100
AcDbLine
 10
-61.56541260209007
 20
-58.27660320845609
 30
0.0
 11
63.43458739790969
 21
-58.27660320845609
 31
0.0
  0
LINE
  5
D3
330
2
100
AcDbEntity
  8
WAKU
 62
     1
100
AcDbLine
 10
-61.56541260209007
 20
-53.27660320845609
 30
0.0
 11
63.43458739790969
 21
-53.27660320845609
 31
0.0
  0
LINE
  5
D4
330
2
100
AcDbEntity
  8
WAKU
 62
     1
100
AcDbLine
 10
-61.56541260209007
 20
-43.27660320845609
 30
0.0
 11
63.43458739790969
 21
-43.27660320845609
 31
0.0
  0
LINE
  5
D5
330
2
100
AcDbEntity
  8
WAKU
 62
     1
100
AcDbLine
 10
-61.56541260209007
 20
-33.27660320845609
 30
0.0
 11
63.43458739790969
 21
-33.27660320845609
 31
0.0
  0
LINE
  5
D6
330
2
100
AcDbEntity
  8
WAKU
 62
     4
100
AcDbLine
 10
-61.56541260209007
 20
-28.27660320845609
 30
0.0
 11
63.43458739790969
 21
-28.27660320845609
 31
0.0
  0
LINE
  5
D7
330
2
100
AcDbEntity
  8
WAKU
 62
     1
100
AcDbLine
 10
-61.56541260209007
 20
-48.27660320845609
 30
0.0
 11
63.43458739790969
 21
-48.27660320845609
 31
0.0
  0
LINE
  5
D8
330
2
100
AcDbEntity
  8
WAKU
 62
     1
100
AcDbLine
 10
-61.56541260209007
 20
-38.27660320845609
 30
0.0
 11
63.43458739790969
 21
-38.27660320845609
 31
0.0
  0
TEXT
  5
D9
330
2
100
AcDbEntity
  8
MOJI1
100
AcDbText
 10
-20.06541260209008
 20
-52.27660320845609
 30
0.0
 40
3.0
  1
２０Ｗ（１０Ｗ＋１０Ｗ）
100
AcDbText
  0
TEXT
  5
DA
330
2
100
AcDbEntity
  8
MOJI1
100
AcDbText
 10
-20.06541260209008
 20
-42.27660320845609
 30
0.0
 40
3.0
  1
６５型（１６：９）
100
AcDbText
  0
LINE
  5
DB
330
2
100
AcDbEntity
  8
WAKU
 62
     4
100
AcDbLine
 10
-21.56541260209031
 20
-28.27660320845609
 30
0.0
 11
-21.56541260209031
 21
-63.27660320845609
 31
0.0
  0
LINE
  5
DC
330
2
100
AcDbEntity
  8
WAKU
 62
     4
100
AcDbLine
 10
-61.56541260209031
 20
-28.27660320845609
 30
0.0
 11
-61.56541260209007
 21
-63.27660320845609
 31
0.0
  0
TEXT
  5
DD
330
2
100
AcDbEntity
  8
MOJI1
100
AcDbText
 10
-59.06541260209007
 20
-47.27660320845609
 30
0.0
 40
3.0
  1
画素数
100
AcDbText
  0
TEXT
  5
DE
330
2
100
AcDbEntity
  8
MOJI1
100
AcDbText
 10
-59.06541260209007
 20
-32.2766032084561
 30
0.0
 40
3.0
  1
電  源
100
AcDbText
  0
TEXT
  5
DF
330
2
100
AcDbEntity
  8
MOJI1
100
AcDbText
 10
-59.06541260209007
 20
-37.2766032084561
 30
0.0
 40
3.0
  1
消費電力
100
AcDbText
  0
TEXT
  5
E0
330
2
100
AcDbEntity
  8
MOJI1
100
AcDbText
 10
-59.06541260209007
 20
-57.27660320845609
 30
0.0
 40
3.0
  1
接続端子
100
AcDbText
  0
TEXT
  5
E1
330
2
100
AcDbEntity
  8
MOJI1
100
AcDbText
 10
-59.06541260209007
 20
-52.27660320845609
 30
0.0
 40
3.0
  1
音声最大出力
100
AcDbText
  0
TEXT
  5
E2
330
2
100
AcDbEntity
  8
MOJI1
100
AcDbText
 10
-59.06541260209007
 20
-42.27660320845609
 30
0.0
 40
3.0
  1
パネルサイズ
100
AcDbText
  0
LINE
  5
E3
330
2
100
AcDbEntity
  8
WAKU
 62
     4
100
AcDbLine
 10
63.43458739790969
 20
-28.27660320845609
 30
0.0
 11
63.43458739790969
 21
-63.27660320845609
 31
0.0
  0
ENDSEC
  0
SECTION
  2
OBJECTS
  0
DICTIONARY
  5
9
330
0
100
AcDbDictionary
281
     1
  3
ACAD_COLOR
350
2B
  3
ACAD_GROUP
350
27
  3
ACAD_LAYOUT
350
D
  3
ACAD_MATERIAL
350
2A
  3
ACAD_MLINESTYLE
350
28
  3
ACAD_PLOTSETTINGS
350
29
  3
ACAD_PLOTSTYLENAME
350
8
  3
ACDBHEADERROUNDTRIPXREC
350
122
  3
AcDbVariableDictionary
350
11D
  0
DICTIONARY
  5
15
330
14
100
AcDbDictionary
280
     1
281
     1
  3
ACAD_LAYERFILTERS
360
16
  3
ACAD_LAYERSTATES
360
18
  0
DICTIONARY
  5
3
330
2
100
AcDbDictionary
280
     1
281
     1
  3
ACAD_LAYOUTSELFREF
360
4
  0
DICTIONARY
  5
F
330
E
100
AcDbDictionary
280
     1
281
     1
  3
ACAD_LAYOUTSELFREF
360
10
  0
DICTIONARY
  5
2B
102
{ACAD_REACTORS
330
9
102
}
330
9
100
AcDbDictionary
281
     1
  0
DICTIONARY
  5
27
102
{ACAD_REACTORS
330
9
102
}
330
9
100
AcDbDictionary
281
     1
  0
DICTIONARY
  5
D
102
{ACAD_REACTORS
330
9
102
}
330
9
100
AcDbDictionary
281
     1
  3
Model
350
C
  3
ﾚｲｱｳﾄ1
350
13
  0
DICTIONARY
  5
2A
102
{ACAD_REACTORS
330
9
102
}
330
9
100
AcDbDictionary
281
     1
  0
DICTIONARY
  5
28
102
{ACAD_REACTORS
330
9
102
}
330
9
100
AcDbDictionary
281
     1
  3
STANDARD
350
33
  0
DICTIONARY
  5
29
102
{ACAD_REACTORS
330
9
102
}
330
9
100
AcDbDictionary
281
     1
  0
ACDBDICTIONARYWDFLT
  5
8
102
{ACAD_REACTORS
330
9
102
}
330
9
100
AcDbDictionary
281
     1
  3
Normal
350
7
100
AcDbDictionaryWithDefault
340
7
  0
DICTIONARY
  5
122
102
{ACAD_REACTORS
330
9
102
}
330
9
100
AcDbDictionary
281
     1
  3
COLORDICT
350
124
  3
MATERIALDICT
350
123
  0
DICTIONARY
  5
11D
102
{ACAD_REACTORS
330
9
102
}
330
9
100
AcDbDictionary
281
     1
  3
DIMASSOC
350
11F
  3
HIDETEXT
350
11E
  3
PROJECTNAME
350
120
  0
DICTIONARY
  5
16
102
{ACAD_REACTORS
330
15
102
}
330
15
100
AcDbDictionary
280
     1
281
     1
  3
ロック画層
360
17
  0
DICTIONARY
  5
18
102
{ACAD_REACTORS
330
15
102
}
330
15
100
AcDbDictionary
281
     1
  0
XRECORD
  5
4
102
{ACAD_REACTORS
330
3
102
}
330
3
100
AcDbXrecord
280
     1
340
2
  0
XRECORD
  5
10
102
{ACAD_REACTORS
330
F
102
}
330
F
100
AcDbXrecord
280
     1
340
E
  0
LAYOUT
  5
C
102
{ACAD_XDICTIONARY
360
125
102
}
102
{ACAD_REACTORS
330
D
102
}
330
D
100
AcDbPlotSettings
  1

  2
8FPAM09-A4.pc3
  4
A4
  6

 40
4.349750041961669
 41
4.222751140594482
 42
4.3497314453125
 43
4.180419921875
 44
297.0106506347656
 45
210.0156707763672
 46
0.0
 47
6.07
 48
0.0
 49
0.0
140
0.0
141
0.0
142
1.0
143
1.367645693696456
 70
 11956
 72
     1
 73
     1
 74
     1
  7
tmsacad.ctb
 75
     0
147
0.7311835255351932
148
0.6008072166987404
149
0.0333900090327006
100
AcDbLayout
  1
Model
 70
     1
 71
     0
 10
0.0
 20
0.0
 11
12.0
 21
9.0
 12
0.0
 22
0.0
 32
0.0
 14
0.0
 24
0.0
 34
0.0
 15
0.0
 25
0.0
 35
0.0
146
0.0
 13
0.0
 23
0.0
 33
0.0
 16
1.0
 26
0.0
 36
0.0
 17
0.0
 27
1.0
 37
0.0
 76
     0
330
2
  0
LAYOUT
  5
13
102
{ACAD_XDICTIONARY
360
127
102
}
102
{ACAD_REACTORS
330
D
102
}
330
D
100
AcDbPlotSettings
  1

  2
C:\Program Files\ACAD2000\plotters\DWF ePlot.pc3
  4

  6

 40
0.0
 41
0.0
 42
0.0
 43
0.0
 44
0.0
 45
0.0
 46
0.0
 47
0.0
 48
0.0
 49
0.0
140
0.0
141
0.0
142
1.0
143
1.0
 70
   688
 72
     0
 73
     0
 74
     5
  7
tmsacad.ctb
 75
    16
147
1.0
148
0.0
149
0.0
100
AcDbLayout
  1
ﾚｲｱｳﾄ1
 70
     1
 71
     1
 10
0.0
 20
0.0
 11
12.0
 21
9.0
 12
0.0
 22
0.0
 32
0.0
 14
1.000000000000000E+20
 24
1.000000000000000E+20
 34
1.000000000000000E+20
 15
-1.000000000000000E+20
 25
-1.000000000000000E+20
 35
-1.000000000000000E+20
146
0.0
 13
0.0
 23
0.0
 33
0.0
 16
1.0
 26
0.0
 36
0.0
 17
0.0
 27
1.0
 37
0.0
 76
     0
330
E
  0
MLINESTYLE
  5
33
102
{ACAD_REACTORS
330
28
102
}
330
28
100
AcDbMlineStyle
  2
STANDARD
 70
     0
  3

 62
   256
 51
90.0
 52
90.0
 71
     2
 49
0.5
 62
   256
  6
BYLAYER
 49
-0.5
 62
   256
  6
BYLAYER
  0
ACDBPLACEHOLDER
  5
7
102
{ACAD_REACTORS
330
8
102
}
330
8
  0
XRECORD
  5
124
102
{ACAD_REACTORS
330
122
102
}
330
122
100
AcDbXrecord
280
     1
340
2B
  0
XRECORD
  5
123
102
{ACAD_REACTORS
330
122
102
}
330
122
100
AcDbXrecord
280
     1
340
2A
  0
DICTIONARYVAR
  5
11F
102
{ACAD_REACTORS
330
11D
102
}
330
11D
100
DictionaryVariables
280
     0
  1
1
  0
DICTIONARYVAR
  5
11E
102
{ACAD_REACTORS
330
11D
102
}
330
11D
100
DictionaryVariables
280
     0
  1
1
  0
DICTIONARYVAR
  5
120
102
{ACAD_REACTORS
330
11D
102
}
330
11D
100
DictionaryVariables
280
     0
  1

  0
XRECORD
  5
17
102
{ACAD_REACTORS
330
16
102
}
330
16
100
AcDbXrecord
280
     1
  1
ロック画層
  1
*
  1
*
  1
*
 70
   256
  1
*
  1
*
  0
DICTIONARY
  5
125
330
C
100
AcDbDictionary
280
     1
281
     1
  3
ACAD_XREC_ROUNDTRIP
360
126
  0
DICTIONARY
  5
127
330
13
100
AcDbDictionary
280
     1
281
     1
  3
ACAD_XREC_ROUNDTRIP
360
128
  0
XRECORD
  5
126
102
{ACAD_REACTORS
330
125
102
}
330
125
100
AcDbXrecord
280
     1
102
SHADEPLOT
 70
     0
102
SHADEPLOTRESLEVEL
 70
     2
102
SHADEPLOTCUSTOMDPI
 70
   300
  0
XRECORD
  5
128
102
{ACAD_REACTORS
330
127
102
}
330
127
100
AcDbXrecord
280
     1
102
SHADEPLOT
 70
     0
102
SHADEPLOTRESLEVEL
 70
     2
102
SHADEPLOTCUSTOMDPI
 70
   300
  0
ENDSEC
  0
EOF
