  0
SECTION
  2
HEADER
  9
$ACADVER
  1
AC1015
  9
$ACADMAINTVER
 70
    20
  9
$DWGCODEPAGE
  3
ANSI_932
  9
$INSBASE
 10
0.0
 20
372.4992141396417
 30
0.0
  9
$EXTMIN
 10
-57.91856985207869
 20
-63.03684275673368
 30
-0.0000000349181948
  9
$EXTMAX
 10
68.01722972786729
 20
50.08259465536593
 30
0.0000000814935747
  9
$LIMMIN
 10
-1101.784450318844
 20
-1579.160531687243
  9
$LIMMAX
 10
-508.2420711400536
 20
-1161.440814074914
  9
$ORTHOMODE
 70
     1
  9
$REGENMODE
 70
     1
  9
$FILLMODE
 70
     1
  9
$QTEXTMODE
 70
     0
  9
$MIRRTEXT
 70
     1
  9
$LTSCALE
 40
1.0
  9
$ATTMODE
 70
     1
  9
$TEXTSIZE
 40
3.0
  9
$TRACEWID
 40
0.5
  9
$TEXTSTYLE
  7
STANDARD
  9
$CLAYER
  8
0
  9
$CELTYPE
  6
BYLAYER
  9
$CECOLOR
 62
   256
  9
$CELTSCALE
 40
1.0
  9
$DISPSILH
 70
     0
  9
$DIMSCALE
 40
1.0
  9
$DIMASZ
 40
2.0
  9
$DIMEXO
 40
2.0
  9
$DIMDLI
 40
8.0
  9
$DIMRND
 40
0.0
  9
$DIMDLE
 40
0.0
  9
$DIMEXE
 40
2.0
  9
$DIMTP
 40
0.0
  9
$DIMTM
 40
0.0
  9
$DIMTXT
 40
2.5
  9
$DIMCEN
 40
0.0
  9
$DIMTSZ
 40
0.0
  9
$DIMTOL
 70
     0
  9
$DIMLIM
 70
     0
  9
$DIMTIH
 70
     0
  9
$DIMTOH
 70
     0
  9
$DIMSE1
 70
     0
  9
$DIMSE2
 70
     0
  9
$DIMTAD
 70
     3
  9
$DIMZIN
 70
     0
  9
$DIMBLK
  1

  9
$DIMASO
 70
     1
  9
$DIMSHO
 70
     1
  9
$DIMPOST
  1

  9
$DIMAPOST
  1

  9
$DIMALT
 70
     0
  9
$DIMALTD
 70
     2
  9
$DIMALTF
 40
25.4
  9
$DIMLFAC
 40
1.0
  9
$DIMTOFL
 70
     1
  9
$DIMTVP
 40
0.0
  9
$DIMTIX
 70
     0
  9
$DIMSOXD
 70
     0
  9
$DIMSAH
 70
     1
  9
$DIMBLK1
  1
OPEN30
  9
$DIMBLK2
  1
OPEN30
  9
$DIMSTYLE
  2
STANDARD
  9
$DIMCLRD
 70
     0
  9
$DIMCLRE
 70
     0
  9
$DIMCLRT
 70
     0
  9
$DIMTFAC
 40
1.0
  9
$DIMGAP
 40
0.5
  9
$DIMJUST
 70
     0
  9
$DIMSD1
 70
     0
  9
$DIMSD2
 70
     0
  9
$DIMTOLJ
 70
     1
  9
$DIMTZIN
 70
     0
  9
$DIMALTZ
 70
     0
  9
$DIMALTTZ
 70
     0
  9
$DIMUPT
 70
     0
  9
$DIMDEC
 70
     4
  9
$DIMTDEC
 70
     4
  9
$DIMALTU
 70
     2
  9
$DIMALTTD
 70
     2
  9
$DIMTXSTY
  7
STANDARD
  9
$DIMAUNIT
 70
     0
  9
$DIMADEC
 70
     0
  9
$DIMALTRND
 40
0.0
  9
$DIMAZIN
 70
     0
  9
$DIMDSEP
 70
    46
  9
$DIMATFIT
 70
     3
  9
$DIMFRAC
 70
     0
  9
$DIMLDRBLK
  1
OPEN30
  9
$DIMLUNIT
 70
     2
  9
$DIMLWD
 70
    -2
  9
$DIMLWE
 70
    -2
  9
$DIMTMOVE
 70
     0
  9
$LUNITS
 70
     2
  9
$LUPREC
 70
     4
  9
$SKETCHINC
 40
0.1
  9
$FILLETRAD
 40
0.0
  9
$AUNITS
 70
     0
  9
$AUPREC
 70
     0
  9
$MENU
  1
ACAD
  9
$ELEVATION
 40
0.0
  9
$PELEVATION
 40
0.0
  9
$THICKNESS
 40
0.0
  9
$LIMCHECK
 70
     0
  9
$CHAMFERA
 40
0.0
  9
$CHAMFERB
 40
0.0
  9
$CHAMFERC
 40
0.0
  9
$CHAMFERD
 40
0.0
  9
$SKPOLY
 70
     0
  9
$TDCREATE
 40
2451815.565532581
  9
$TDUCREATE
 40
2451815.190532581
  9
$TDUPDATE
 40
2453732.412443033
  9
$TDUUPDATE
 40
2453732.037443033
  9
$TDINDWG
 40
0.7359546296
  9
$TDUSRTIMER
 40
0.7359544444
  9
$USRTIMER
 70
     1
  9
$ANGBASE
 50
0.0
  9
$ANGDIR
 70
     0
  9
$PDMODE
 70
     0
  9
$PDSIZE
 40
0.0
  9
$PLINEWID
 40
0.0
  9
$SPLFRAME
 70
     0
  9
$SPLINETYPE
 70
     6
  9
$SPLINESEGS
 70
     8
  9
$HANDSEED
  5
5D2
  9
$SURFTAB1
 70
     6
  9
$SURFTAB2
 70
     6
  9
$SURFTYPE
 70
     6
  9
$SURFU
 70
     6
  9
$SURFV
 70
     6
  9
$UCSBASE
  2

  9
$UCSNAME
  2

  9
$UCSORG
 10
0.0
 20
0.0
 30
0.0
  9
$UCSXDIR
 10
1.0
 20
0.0
 30
0.0
  9
$UCSYDIR
 10
0.0
 20
1.0
 30
0.0
  9
$UCSORTHOREF
  2

  9
$UCSORTHOVIEW
 70
     0
  9
$UCSORGTOP
 10
0.0
 20
0.0
 30
0.0
  9
$UCSORGBOTTOM
 10
0.0
 20
0.0
 30
0.0
  9
$UCSORGLEFT
 10
0.0
 20
0.0
 30
0.0
  9
$UCSORGRIGHT
 10
0.0
 20
0.0
 30
0.0
  9
$UCSORGFRONT
 10
0.0
 20
0.0
 30
0.0
  9
$UCSORGBACK
 10
0.0
 20
0.0
 30
0.0
  9
$PUCSBASE
  2

  9
$PUCSNAME
  2

  9
$PUCSORG
 10
0.0
 20
0.0
 30
0.0
  9
$PUCSXDIR
 10
1.0
 20
0.0
 30
0.0
  9
$PUCSYDIR
 10
0.0
 20
1.0
 30
0.0
  9
$PUCSORTHOREF
  2

  9
$PUCSORTHOVIEW
 70
     0
  9
$PUCSORGTOP
 10
0.0
 20
0.0
 30
0.0
  9
$PUCSORGBOTTOM
 10
0.0
 20
0.0
 30
0.0
  9
$PUCSORGLEFT
 10
0.0
 20
0.0
 30
0.0
  9
$PUCSORGRIGHT
 10
0.0
 20
0.0
 30
0.0
  9
$PUCSORGFRONT
 10
0.0
 20
0.0
 30
0.0
  9
$PUCSORGBACK
 10
0.0
 20
0.0
 30
0.0
  9
$USERI1
 70
     0
  9
$USERI2
 70
     0
  9
$USERI3
 70
     0
  9
$USERI4
 70
     0
  9
$USERI5
 70
     0
  9
$USERR1
 40
0.0
  9
$USERR2
 40
0.0
  9
$USERR3
 40
0.0
  9
$USERR4
 40
0.0
  9
$USERR5
 40
0.0
  9
$WORLDVIEW
 70
     1
  9
$SHADEDGE
 70
     3
  9
$SHADEDIF
 70
    70
  9
$TILEMODE
 70
     1
  9
$MAXACTVP
 70
    48
  9
$PINSBASE
 10
0.0
 20
0.0
 30
0.0
  9
$PLIMCHECK
 70
     0
  9
$PEXTMIN
 10
1.000000000000000E+20
 20
1.000000000000000E+20
 30
1.000000000000000E+20
  9
$PEXTMAX
 10
-1.000000000000000E+20
 20
-1.000000000000000E+20
 30
-1.000000000000000E+20
  9
$PLIMMIN
 10
0.0
 20
0.0
  9
$PLIMMAX
 10
12.0
 20
9.0
  9
$UNITMODE
 70
     0
  9
$VISRETAIN
 70
     1
  9
$PLINEGEN
 70
     0
  9
$PSLTSCALE
 70
     1
  9
$TREEDEPTH
 70
  3020
  9
$CMLSTYLE
  2
STANDARD
  9
$CMLJUST
 70
     0
  9
$CMLSCALE
 40
1.0
  9
$PROXYGRAPHICS
 70
     1
  9
$MEASUREMENT
 70
     0
  9
$CELWEIGHT
370
    -1
  9
$ENDCAPS
280
     0
  9
$JOINSTYLE
280
     0
  9
$LWDISPLAY
290
     0
  9
$INSUNITS
 70
     0
  9
$HYPERLINKBASE
  1

  9
$STYLESHEET
  1

  9
$XEDIT
290
     1
  9
$CEPSNTYPE
380
     0
  9
$PSTYLEMODE
290
     1
  9
$FINGERPRINTGUID
  2
{1754B7AB-9B3C-11D4-AD9E-00104B1004F2}
  9
$VERSIONGUID
  2
{444B8114-4CBD-4563-9109-4C74192F70B3}
  9
$EXTNAMES
290
     1
  9
$PSVPSCALE
 40
0.0
  9
$OLESTARTUP
290
     0
  0
ENDSEC
  0
SECTION
  2
CLASSES
  0
CLASS
  1
ACDBDICTIONARYWDFLT
  2
AcDbDictionaryWithDefault
  3
ObjectDBX Classes
 90
        0
280
     0
281
     0
  0
CLASS
  1
ACDBPLACEHOLDER
  2
AcDbPlaceHolder
  3
ObjectDBX Classes
 90
        0
280
     0
281
     0
  0
CLASS
  1
LAYOUT
  2
AcDbLayout
  3
ObjectDBX Classes
 90
        0
280
     0
281
     0
  0
CLASS
  1
DICTIONARYVAR
  2
AcDbDictionaryVar
  3
ObjectDBX Classes
 90
        0
280
     0
281
     0
  0
ENDSEC
  0
SECTION
  2
TABLES
  0
TABLE
  2
VPORT
  5
1F
330
0
100
AcDbSymbolTable
 70
     2
  0
VPORT
  5
5CA
330
1F
100
AcDbSymbolTableRecord
100
AcDbViewportTableRecord
  2
*Active
 70
     0
 10
0.0
 20
0.0
 11
1.0
 21
1.0
 12
5.049329937894306
 22
-6.477124050683869
 13
0.0
 23
0.0
 14
1.0
 24
1.0
 15
0.0
 25
0.0
 16
0.0
 26
0.0
 36
1.0
 17
0.0
 27
0.0
 37
0.0
 40
114.0890325899176
 41
1.589413447782546
 42
50.0
 43
0.0
 44
0.0
 50
0.0
 51
0.0
 71
     0
 72
 10000
 73
     1
 74
     0
 75
     0
 76
     1
 77
     0
 78
     0
281
     0
 65
     1
110
0.0
120
0.0
130
0.0
111
1.0
121
0.0
131
0.0
112
0.0
122
1.0
132
0.0
 79
     0
146
0.0
  0
ENDTAB
  0
TABLE
  2
LTYPE
  5
1A
330
0
100
AcDbSymbolTable
 70
     5
  0
LTYPE
  5
1B
330
1A
100
AcDbSymbolTableRecord
100
AcDbLinetypeTableRecord
  2
BYBLOCK
 70
     0
  3

 72
    65
 73
     0
 40
0.0
  0
LTYPE
  5
1C
330
1A
100
AcDbSymbolTableRecord
100
AcDbLinetypeTableRecord
  2
BYLAYER
 70
     0
  3

 72
    65
 73
     0
 40
0.0
  0
LTYPE
  5
A
330
1A
100
AcDbSymbolTableRecord
100
AcDbLinetypeTableRecord
  2
CONTINUOUS
 70
     0
  3
Solid line
 72
    65
 73
     0
 40
0.0
  0
LTYPE
  5
2B0
330
1A
100
AcDbSymbolTableRecord
100
AcDbLinetypeTableRecord
  2
DASHED
 70
     0
  3
DASHED
 72
    65
 73
     2
 40
0.75
 49
0.5
 74
     0
 49
-0.25
 74
     0
  0
LTYPE
  5
D8
330
1A
100
AcDbSymbolTableRecord
100
AcDbLinetypeTableRecord
  2
CENTER
 70
     0
  3
Center ____ _ ____ _ ____ _ ____ _ ____ _ ____
 72
    65
 73
     4
 40
50.8
 49
31.75
 74
     0
 49
-6.349999999999998
 74
     0
 49
6.349999999999998
 74
     0
 49
-6.349999999999998
 74
     0
  0
LTYPE
  5
11F
330
1A
100
AcDbSymbolTableRecord
100
AcDbLinetypeTableRecord
  2
HIDDEN2
 70
     0
  3
Hidden (.5x) _ _ _ _ _ _ _ _ _ _ _ _ _ _ _ _ _
 72
    65
 73
     2
 40
1.399999999999999
 49
0.7
 74
     0
 49
-0.7
 74
     0
  0
LTYPE
  5
E5
330
1A
100
AcDbSymbolTableRecord
100
AcDbLinetypeTableRecord
  2
DOT
 70
     0
  3
Dot . . . . . . . . . . . . . . . . . . . . . . .
 72
    65
 73
     2
 40
6.349999999999998
 49
0.0
 74
     0
 49
-6.349999999999998
 74
     0
  0
ENDTAB
  0
TABLE
  2
LAYER
  5
14
102
{ACAD_XDICTIONARY
360
15
102
}
330
0
100
AcDbSymbolTable
 70
     8
  0
LAYER
  5
6
330
14
100
AcDbSymbolTableRecord
100
AcDbLayerTableRecord
  2
0
 70
     0
 62
     7
  6
CONTINUOUS
370
    -3
390
7
  0
LAYER
  5
3D
330
14
100
AcDbSymbolTableRecord
100
AcDbLayerTableRecord
  2
DEFPOINTS
 70
     0
 62
     7
  6
CONTINUOUS
290
     0
370
    -3
390
7
  0
LAYER
  5
D4
330
14
100
AcDbSymbolTableRecord
100
AcDbLayerTableRecord
  2
WAKU
 70
     0
 62
     4
  6
CONTINUOUS
370
    -3
390
7
  0
LAYER
  5
486
330
14
100
AcDbSymbolTableRecord
100
AcDbLayerTableRecord
  2
MOJI1
 70
     0
 62
     2
  6
CONTINUOUS
370
    -3
390
7
  0
LAYER
  5
7A
330
14
100
AcDbSymbolTableRecord
100
AcDbLayerTableRecord
  2
GAIKEI
 70
     0
 62
     7
  6
CONTINUOUS
370
    -3
390
7
  0
LAYER
  5
D6
330
14
100
AcDbSymbolTableRecord
100
AcDbLayerTableRecord
  2
TOUROKU
 70
     0
 62
     1
  6
CONTINUOUS
370
    -3
390
7
  0
LAYER
  5
31
330
14
100
AcDbSymbolTableRecord
100
AcDbLayerTableRecord
  2
SUNPO
 70
     0
 62
     3
  6
CONTINUOUS
370
    -3
390
7
  0
LAYER
  5
11E
330
14
100
AcDbSymbolTableRecord
100
AcDbLayerTableRecord
  2
S1
 70
     0
 62
     1
  6
CONTINUOUS
370
    -3
390
7
  0
ENDTAB
  0
TABLE
  2
STYLE
  5
17
330
0
100
AcDbSymbolTable
 70
     2
  0
STYLE
  5
18
330
17
100
AcDbSymbolTableRecord
100
AcDbTextStyleTableRecord
  2
STANDARD
 70
     0
 40
0.0
 41
1.0
 50
0.0
 71
     0
 42
3.0
  3
MONOTXT.shx
  4
BIGFONT.shx
  0
STYLE
  5
27C
330
17
100
AcDbSymbolTableRecord
100
AcDbTextStyleTableRecord
  2
MX_NOTE_STANDARD
 70
     0
 40
0.0
 41
1.0
 50
0.0
 71
     0
 42
2.2
  3
txt.shx
  4
extfont.shx
  0
ENDTAB
  0
TABLE
  2
VIEW
  5
1D
330
0
100
AcDbSymbolTable
 70
     0
  0
ENDTAB
  0
TABLE
  2
UCS
  5
1E
330
0
100
AcDbSymbolTable
 70
     0
  0
ENDTAB
  0
TABLE
  2
APPID
  5
21
330
0
100
AcDbSymbolTable
 70
     1
  0
APPID
  5
22
330
21
100
AcDbSymbolTableRecord
100
AcDbRegAppTableRecord
  2
ACAD
 70
     0
  0
ENDTAB
  0
TABLE
  2
DIMSTYLE
  5
23
330
0
100
AcDbSymbolTable
 70
     1
100
AcDbDimStyleTable
 71
     1
340
24
  0
DIMSTYLE
105
24
102
{ACAD_REACTORS
330
C3
330
6C
330
5D
330
4E
330
41
330
33
102
}
330
23
100
AcDbSymbolTableRecord
100
AcDbDimStyleTableRecord
  2
STANDARD
 70
     0
 40
0.0
 41
2.0
 42
2.0
 43
8.0
 44
2.0
 73
     0
 74
     0
 77
     3
140
3.0
141
0.0
173
     1
279
     2
288
     1
340
18
341
25
343
25
344
25
  0
ENDTAB
  0
TABLE
  2
BLOCK_RECORD
  5
1
330
0
100
AcDbSymbolTable
 70
    13
  0
BLOCK_RECORD
  5
2
102
{ACAD_XDICTIONARY
360
3
102
}
330
1
100
AcDbSymbolTableRecord
100
AcDbBlockTableRecord
  2
*MODEL_SPACE
340
C
  0
BLOCK_RECORD
  5
E
102
{ACAD_XDICTIONARY
360
F
102
}
330
1
100
AcDbSymbolTableRecord
100
AcDbBlockTableRecord
  2
*PAPER_SPACE
340
13
  0
BLOCK_RECORD
  5
25
330
1
100
AcDbSymbolTableRecord
100
AcDbBlockTableRecord
  2
_OPEN30
340
0
102
{BLKREFS
331
39
331
3A
331
47
331
48
331
72
331
73
331
56
331
57
331
65
331
66
331
C9
331
CA
331
593
331
594
331
59C
331
59D
331
5A7
331
5A8
331
5B2
331
5B3
331
5BB
331
5BC
331
5C4
331
5C5
102
}
  0
BLOCK_RECORD
  5
535
330
1
100
AcDbSymbolTableRecord
100
AcDbBlockTableRecord
  2
*D7
340
0
  0
BLOCK_RECORD
  5
541
330
1
100
AcDbSymbolTableRecord
100
AcDbBlockTableRecord
  2
*D8
340
0
  0
BLOCK_RECORD
  5
54D
330
1
100
AcDbSymbolTableRecord
100
AcDbBlockTableRecord
  2
*D9
340
0
  0
BLOCK_RECORD
  5
55B
330
1
100
AcDbSymbolTableRecord
100
AcDbBlockTableRecord
  2
*D10
340
0
  0
BLOCK_RECORD
  5
569
330
1
100
AcDbSymbolTableRecord
100
AcDbBlockTableRecord
  2
*D11
340
0
  0
BLOCK_RECORD
  5
575
330
1
100
AcDbSymbolTableRecord
100
AcDbBlockTableRecord
  2
*D12
340
0
  0
ENDTAB
  0
ENDSEC
  0
SECTION
  2
BLOCKS
  0
BLOCK
  5
5
330
2
100
AcDbEntity
  8
0
100
AcDbBlockBegin
  2
*MODEL_SPACE
 70
     0
 10
0.0
 20
0.0
 30
0.0
  3
*MODEL_SPACE
  1

  0
ENDBLK
  5
B
330
2
100
AcDbEntity
  8
0
100
AcDbBlockEnd
  0
BLOCK
  5
11
330
E
100
AcDbEntity
 67
     1
  8
0
100
AcDbBlockBegin
  2
*PAPER_SPACE
 70
     0
 10
0.0
 20
0.0
 30
0.0
  3
*PAPER_SPACE
  1

  0
ENDBLK
  5
12
330
E
100
AcDbEntity
 67
     1
  8
0
100
AcDbBlockEnd
  0
BLOCK
  5
26
330
25
100
AcDbEntity
  8
0
100
AcDbBlockBegin
  2
_OPEN30
 70
     0
 10
0.0
 20
0.0
 30
0.0
  3
_OPEN30
  1

  0
LINE
  5
27
330
25
100
AcDbEntity
  8
0
  6
ByBlock
 62
     0
100
AcDbLine
 10
-1.0
 20
0.26794919
 30
0.0
 11
0.0
 21
0.0
 31
0.0
  0
LINE
  5
28
330
25
100
AcDbEntity
  8
0
  6
ByBlock
 62
     0
100
AcDbLine
 10
0.0
 20
0.0
 30
0.0
 11
-1.0
 21
-0.26794919
 31
0.0
  0
LINE
  5
29
330
25
100
AcDbEntity
  8
0
  6
ByBlock
 62
     0
100
AcDbLine
 10
0.0
 20
0.0
 30
0.0
 11
-1.0
 21
0.0
 31
0.0
  0
ENDBLK
  5
2A
330
25
100
AcDbEntity
  8
0
100
AcDbBlockEnd
  0
BLOCK
  5
53F
330
535
100
AcDbEntity
  8
0
100
AcDbBlockBegin
  2
*D7
 70
     1
 10
0.0
 20
0.0
 30
0.0
  3
*D7
  1

  0
LINE
  5
5C1
330
535
100
AcDbEntity
  8
SUNPO
 62
     0
370
    -2
100
AcDbLine
 10
22.33750476597231
 20
-17.15723597291605
 30
0.0
 11
29.97329859131001
 21
-17.15723597291605
 31
0.0
  0
LINE
  5
5C2
330
535
100
AcDbEntity
  8
SUNPO
 62
     0
370
    -2
100
AcDbLine
 10
22.33750476597231
 20
13.04276382708394
 30
0.0
 11
29.97329859131002
 21
13.04276382708394
 31
0.0
  0
LINE
  5
5C3
330
535
100
AcDbEntity
  8
SUNPO
 62
     0
370
    -2
100
AcDbLine
 10
27.97329859131001
 20
-15.15723597291605
 30
0.0
 11
27.97329859131002
 21
11.04276382708394
 31
0.0
  0
INSERT
  5
5C4
330
535
100
AcDbEntity
  8
SUNPO
 62
     0
370
    -2
100
AcDbBlockReference
  2
_OPEN30
 10
27.97329859131001
 20
-17.15723597291605
 30
0.0
 41
2.0
 42
2.0
 43
2.0
 50
270.0
  0
INSERT
  5
5C5
330
535
100
AcDbEntity
  8
SUNPO
 62
     0
370
    -2
100
AcDbBlockReference
  2
_OPEN30
 10
27.97329859131002
 20
13.04276382708394
 30
0.0
 41
2.0
 42
2.0
 43
2.0
 50
90.0
  0
MTEXT
  5
5C6
330
535
100
AcDbEntity
  8
SUNPO
 62
     0
100
AcDbMText
 10
26.22329859131002
 20
-2.057236072916051
 30
0.0
 40
2.5
 41
0.0
 71
     5
 72
     1
  1
\A1;604
 11
0.0000000000000001
 21
1.0
 31
0.0
 73
     1
 44
1.0
1001
ACAD
1000
MTEXTBEGIN
1070
    73
1070
     1
1070
    44
1040
1.0
1070
    74
1070
     0
1000
MTEXTEND
  0
POINT
  5
5C7
330
535
100
AcDbEntity
  8
DEFPOINTS
 62
     0
100
AcDbPoint
 10
20.33750476597231
 20
-17.15723597291605
 30
0.0
  0
POINT
  5
5C8
330
535
100
AcDbEntity
  8
DEFPOINTS
 62
     0
100
AcDbPoint
 10
20.33750476597231
 20
13.04276382708394
 30
0.0
  0
POINT
  5
5C9
330
535
100
AcDbEntity
  8
DEFPOINTS
 62
     0
100
AcDbPoint
 10
27.97329859131002
 20
13.04276382708394
 30
0.0
  0
ENDBLK
  5
540
330
535
100
AcDbEntity
  8
0
100
AcDbBlockEnd
  0
BLOCK
  5
54B
330
541
100
AcDbEntity
  8
0
100
AcDbBlockBegin
  2
*D8
 70
     1
 10
0.0
 20
0.0
 30
0.0
  3
*D8
  1

  0
LINE
  5
5B8
330
541
100
AcDbEntity
  8
SUNPO
 62
     0
370
    -2
100
AcDbLine
 10
-51.34186568954106
 20
-19.70008923685588
 30
0.0
 11
-51.34186568954106
 21
-26.54602965978461
 31
0.0
  0
LINE
  5
5B9
330
541
100
AcDbEntity
  8
SUNPO
 62
     0
370
    -2
100
AcDbLine
 10
14.65813431045893
 20
-19.70008923685588
 30
0.0
 11
14.65813431045893
 21
-26.54602965978461
 31
0.0
  0
LINE
  5
5BA
330
541
100
AcDbEntity
  8
SUNPO
 62
     0
370
    -2
100
AcDbLine
 10
-49.34186568954107
 20
-24.54602965978461
 30
0.0
 11
12.65813431045893
 21
-24.54602965978461
 31
0.0
  0
INSERT
  5
5BB
330
541
100
AcDbEntity
  8
SUNPO
 62
     0
370
    -2
100
AcDbBlockReference
  2
_OPEN30
 10
-51.34186568954106
 20
-24.54602965978461
 30
0.0
 41
2.0
 42
2.0
 43
2.0
 50
180.0
  0
INSERT
  5
5BC
330
541
100
AcDbEntity
  8
SUNPO
 62
     0
370
    -2
100
AcDbBlockReference
  2
_OPEN30
 10
14.65813431045893
 20
-24.54602965978461
 30
0.0
 41
2.0
 42
2.0
 43
2.0
  0
MTEXT
  5
5BD
330
541
100
AcDbEntity
  8
SUNPO
 62
     0
100
AcDbMText
 10
-18.34186568954106
 20
-22.79602965978461
 30
0.0
 40
2.5
 41
0.0
 71
     5
 72
     1
  1
\A1;1320
 73
     1
 44
1.0
1001
ACAD
1000
MTEXTBEGIN
1070
    73
1070
     1
1070
    44
1040
1.0
1070
    74
1070
     0
1000
MTEXTEND
  0
POINT
  5
5BE
330
541
100
AcDbEntity
  8
DEFPOINTS
 62
     0
100
AcDbPoint
 10
-51.34186568954106
 20
-17.70008923685588
 30
0.0
  0
POINT
  5
5BF
330
541
100
AcDbEntity
  8
DEFPOINTS
 62
     0
100
AcDbPoint
 10
14.65813431045893
 20
-17.70008923685588
 30
0.0
  0
POINT
  5
5C0
330
541
100
AcDbEntity
  8
DEFPOINTS
 62
     0
100
AcDbPoint
 10
14.65813431045893
 20
-24.54602965978461
 30
0.0
  0
ENDBLK
  5
54C
330
541
100
AcDbEntity
  8
0
100
AcDbBlockEnd
  0
BLOCK
  5
559
330
54D
100
AcDbEntity
  8
0
100
AcDbBlockBegin
  2
*D9
 70
     1
 10
0.0
 20
0.0
 30
0.0
  3
*D9
  1

  0
LINE
  5
5AD
330
54D
100
AcDbEntity
  8
SUNPO
 62
     0
370
    -2
100
AcDbLine
 10
52.99446102857576
 20
30.39777112708395
 30
0.0
 11
52.99446102857576
 21
38.39777112708396
 31
0.0
  0
LINE
  5
5AE
330
54D
100
AcDbEntity
  8
SUNPO
 62
     0
370
    -2
100
AcDbLine
 10
57.94446102857579
 20
30.39777112708395
 30
0.0
 11
57.94446102857579
 21
38.39777112708396
 31
0.0
  0
LINE
  5
5AF
330
54D
100
AcDbEntity
  8
SUNPO
 62
     0
370
    -2
100
AcDbLine
 10
50.99446102857576
 20
36.39777112708396
 30
0.0
 11
48.99446102857575
 21
36.39777112708396
 31
0.0
  0
LINE
  5
5B0
330
54D
100
AcDbEntity
  8
SUNPO
 62
     0
370
    -2
100
AcDbLine
 10
59.9444610285758
 20
36.39777112708396
 30
0.0
 11
67.11112769524246
 21
36.39777112708396
 31
0.0
  0
LINE
  5
5B1
330
54D
100
AcDbEntity
  8
SUNPO
 62
     0
370
    -2
100
AcDbLine
 10
52.99446102857576
 20
36.39777112708396
 30
0.0
 11
57.94446102857579
 21
36.39777112708396
 31
0.0
  0
INSERT
  5
5B2
330
54D
100
AcDbEntity
  8
SUNPO
 62
     0
370
    -2
100
AcDbBlockReference
  2
_OPEN30
 10
52.99446102857576
 20
36.39777112708396
 30
0.0
 41
2.0
 42
2.0
 43
2.0
  0
INSERT
  5
5B3
330
54D
100
AcDbEntity
  8
SUNPO
 62
     0
370
    -2
100
AcDbBlockReference
  2
_OPEN30
 10
57.94446102857579
 20
36.39777112708396
 30
0.0
 41
2.0
 42
2.0
 43
2.0
 50
180.0
  0
MTEXT
  5
5B4
330
54D
100
AcDbEntity
  8
SUNPO
 62
     0
100
AcDbMText
 10
64.52779436190913
 20
38.14777112708396
 30
0.0
 40
2.5
 41
0.0
 71
     5
 72
     1
  1
\A1;99
 73
     1
 44
1.0
1001
ACAD
1000
MTEXTBEGIN
1070
    73
1070
     1
1070
    44
1040
1.0
1070
    74
1070
     0
1000
MTEXTEND
  0
POINT
  5
5B5
330
54D
100
AcDbEntity
  8
DEFPOINTS
 62
     0
100
AcDbPoint
 10
52.99446102857576
 20
28.39777112708395
 30
0.0
  0
POINT
  5
5B6
330
54D
100
AcDbEntity
  8
DEFPOINTS
 62
     0
100
AcDbPoint
 10
57.94446102857579
 20
28.39777112708395
 30
0.0
  0
POINT
  5
5B7
330
54D
100
AcDbEntity
  8
DEFPOINTS
 62
     0
100
AcDbPoint
 10
57.94446102857579
 20
36.39777112708396
 30
0.0
  0
ENDBLK
  5
55A
330
54D
100
AcDbEntity
  8
0
100
AcDbBlockEnd
  0
BLOCK
  5
567
330
55B
100
AcDbEntity
  8
0
100
AcDbBlockBegin
  2
*D10
 70
     1
 10
0.0
 20
0.0
 30
0.0
  3
*D10
  1

  0
LINE
  5
5A2
330
55B
100
AcDbEntity
  8
SUNPO
 62
     0
370
    -2
100
AcDbLine
 10
52.99446102857576
 20
30.39777112708402
 30
0.0
 11
52.99446102857576
 21
38.397771127084
 31
0.0
  0
LINE
  5
5A3
330
55B
100
AcDbEntity
  8
SUNPO
 62
     0
370
    -2
100
AcDbLine
 10
48.0444610285757
 20
30.39777112708402
 30
0.0
 11
48.0444610285757
 21
38.397771127084
 31
0.0
  0
LINE
  5
5A4
330
55B
100
AcDbEntity
  8
SUNPO
 62
     0
370
    -2
100
AcDbLine
 10
54.99446102857575
 20
36.39777112708401
 30
0.0
 11
56.99446102857575
 21
36.39777112708401
 31
0.0
  0
LINE
  5
5A5
330
55B
100
AcDbEntity
  8
SUNPO
 62
     0
370
    -2
100
AcDbLine
 10
46.0444610285757
 20
36.39777112708401
 30
0.0
 11
38.87779436190904
 21
36.39777112708401
 31
0.0
  0
LINE
  5
5A6
330
55B
100
AcDbEntity
  8
SUNPO
 62
     0
370
    -2
100
AcDbLine
 10
52.99446102857576
 20
36.39777112708401
 30
0.0
 11
48.0444610285757
 21
36.39777112708401
 31
0.0
  0
INSERT
  5
5A7
330
55B
100
AcDbEntity
  8
SUNPO
 62
     0
370
    -2
100
AcDbBlockReference
  2
_OPEN30
 10
52.99446102857576
 20
36.39777112708401
 30
0.0
 41
2.0
 42
2.0
 43
2.0
 50
180.0
  0
INSERT
  5
5A8
330
55B
100
AcDbEntity
  8
SUNPO
 62
     0
370
    -2
100
AcDbBlockReference
  2
_OPEN30
 10
48.0444610285757
 20
36.39777112708401
 30
0.0
 41
2.0
 42
2.0
 43
2.0
  0
MTEXT
  5
5A9
330
55B
100
AcDbEntity
  8
SUNPO
 62
     0
100
AcDbMText
 10
41.46112769524236
 20
38.14777112708401
 30
0.0
 40
2.5
 41
0.0
 71
     5
 72
     1
  1
\A1;99
 73
     1
 44
1.0
1001
ACAD
1000
MTEXTBEGIN
1070
    73
1070
     1
1070
    44
1040
1.0
1070
    74
1070
     0
1000
MTEXTEND
  0
POINT
  5
5AA
330
55B
100
AcDbEntity
  8
DEFPOINTS
 62
     0
100
AcDbPoint
 10
52.99446102857576
 20
28.39777112708402
 30
0.0
  0
POINT
  5
5AB
330
55B
100
AcDbEntity
  8
DEFPOINTS
 62
     0
100
AcDbPoint
 10
48.0444610285757
 20
28.39777112708402
 30
0.0
  0
POINT
  5
5AC
330
55B
100
AcDbEntity
  8
DEFPOINTS
 62
     0
100
AcDbPoint
 10
48.0444610285757
 20
36.39777112708401
 30
0.0
  0
ENDBLK
  5
568
330
55B
100
AcDbEntity
  8
0
100
AcDbBlockEnd
  0
BLOCK
  5
573
330
569
100
AcDbEntity
  8
0
100
AcDbBlockBegin
  2
*D11
 70
     1
 10
0.0
 20
0.0
 30
0.0
  3
*D11
  1

  0
LINE
  5
599
330
569
100
AcDbEntity
  8
SUNPO
 62
     0
370
    -2
100
AcDbLine
 10
22.50813431045901
 20
-17.85222817291605
 30
0.0
 11
35.13953161960545
 21
-17.85222817291605
 31
0.0
  0
LINE
  5
59A
330
569
100
AcDbEntity
  8
SUNPO
 62
     0
370
    -2
100
AcDbLine
 10
22.50813431045901
 20
28.39777112708395
 30
0.0
 11
35.13953161960547
 21
28.39777112708395
 31
0.0
  0
LINE
  5
59B
330
569
100
AcDbEntity
  8
SUNPO
 62
     0
370
    -2
100
AcDbLine
 10
33.13953161960546
 20
-15.85222817291605
 30
0.0
 11
33.13953161960546
 21
26.39777112708395
 31
0.0
  0
INSERT
  5
59C
330
569
100
AcDbEntity
  8
SUNPO
 62
     0
370
    -2
100
AcDbBlockReference
  2
_OPEN30
 10
33.13953161960545
 20
-17.85222817291605
 30
0.0
 41
2.0
 42
2.0
 43
2.0
 50
270.0
  0
INSERT
  5
59D
330
569
100
AcDbEntity
  8
SUNPO
 62
     0
370
    -2
100
AcDbBlockReference
  2
_OPEN30
 10
33.13953161960546
 20
28.39777112708395
 30
0.0
 41
2.0
 42
2.0
 43
2.0
 50
90.0
  0
MTEXT
  5
59E
330
569
100
AcDbEntity
  8
SUNPO
 62
     0
100
AcDbMText
 10
31.38953161960546
 20
5.272771477083951
 30
0.0
 40
2.5
 41
0.0
 71
     5
 72
     1
  1
\A1;925
 11
0.0000000000000001
 21
1.0
 31
0.0
 73
     1
 44
1.0
1001
ACAD
1000
MTEXTBEGIN
1070
    73
1070
     1
1070
    44
1040
1.0
1070
    74
1070
     0
1000
MTEXTEND
  0
POINT
  5
59F
330
569
100
AcDbEntity
  8
DEFPOINTS
 62
     0
100
AcDbPoint
 10
20.50813431045901
 20
-17.85222817291605
 30
0.0
  0
POINT
  5
5A0
330
569
100
AcDbEntity
  8
DEFPOINTS
 62
     0
100
AcDbPoint
 10
20.50813431045901
 20
28.39777112708395
 30
0.0
  0
POINT
  5
5A1
330
569
100
AcDbEntity
  8
DEFPOINTS
 62
     0
100
AcDbPoint
 10
33.13953161960546
 20
28.39777112708395
 30
0.0
  0
ENDBLK
  5
574
330
569
100
AcDbEntity
  8
0
100
AcDbBlockEnd
  0
BLOCK
  5
57F
330
575
100
AcDbEntity
  8
0
100
AcDbBlockBegin
  2
*D12
 70
     1
 10
0.0
 20
0.0
 30
0.0
  3
*D12
  1

  0
LINE
  5
590
330
575
100
AcDbEntity
  8
SUNPO
 62
     0
370
    -2
100
AcDbLine
 10
-57.19186568954103
 20
30.39777112708395
 30
0.0
 11
-57.19186568954103
 21
40.63276367008745
 31
0.0
  0
LINE
  5
591
330
575
100
AcDbEntity
  8
SUNPO
 62
     0
370
    -2
100
AcDbLine
 10
20.50813431045901
 20
30.39777112708395
 30
0.0
 11
20.50813431045901
 21
40.63276367008745
 31
0.0
  0
LINE
  5
592
330
575
100
AcDbEntity
  8
SUNPO
 62
     0
370
    -2
100
AcDbLine
 10
-55.19186568954103
 20
38.63276367008745
 30
0.0
 11
18.50813431045901
 21
38.63276367008745
 31
0.0
  0
INSERT
  5
593
330
575
100
AcDbEntity
  8
SUNPO
 62
     0
370
    -2
100
AcDbBlockReference
  2
_OPEN30
 10
-57.19186568954103
 20
38.63276367008745
 30
0.0
 41
2.0
 42
2.0
 43
2.0
 50
180.0
  0
INSERT
  5
594
330
575
100
AcDbEntity
  8
SUNPO
 62
     0
370
    -2
100
AcDbBlockReference
  2
_OPEN30
 10
20.50813431045901
 20
38.63276367008745
 30
0.0
 41
2.0
 42
2.0
 43
2.0
  0
MTEXT
  5
595
330
575
100
AcDbEntity
  8
SUNPO
 62
     0
100
AcDbMText
 10
-18.34186568954101
 20
40.38276367008744
 30
0.0
 40
2.5
 41
0.0
 71
     5
 72
     1
  1
\A1;1554
 73
     1
 44
1.0
1001
ACAD
1000
MTEXTBEGIN
1070
    73
1070
     1
1070
    44
1040
1.0
1070
    74
1070
     0
1000
MTEXTEND
  0
POINT
  5
596
330
575
100
AcDbEntity
  8
DEFPOINTS
 62
     0
100
AcDbPoint
 10
-57.19186568954103
 20
28.39777112708395
 30
0.0
  0
POINT
  5
597
330
575
100
AcDbEntity
  8
DEFPOINTS
 62
     0
100
AcDbPoint
 10
20.50813431045901
 20
28.39777112708395
 30
0.0
  0
POINT
  5
598
330
575
100
AcDbEntity
  8
DEFPOINTS
 62
     0
100
AcDbPoint
 10
20.50813431045901
 20
38.63276367008745
 30
0.0
  0
ENDBLK
  5
580
330
575
100
AcDbEntity
  8
0
100
AcDbBlockEnd
  0
ENDSEC
  0
SECTION
  2
ENTITIES
  0
DIMENSION
  5
33
330
2
100
AcDbEntity
  8
SUNPO
100
AcDbDimension
  2
*D7
 10
27.97329859131002
 20
13.04276382708394
 30
0.0
 11
26.22329859131002
 21
-2.057236072916051
 31
0.0
 70
    32
  1
604
 71
     5
 42
30.19999979999999
  3
STANDARD
100
AcDbAlignedDimension
 13
20.33750476597231
 23
-17.15723597291605
 33
0.0
 14
20.33750476597231
 24
13.04276382708394
 34
0.0
 50
90.0
100
AcDbRotatedDimension
1001
ACAD
1000
DSTYLE
1002
{
1070
    40
1040
1.0
1070
   140
1040
2.5
1070
   147
1040
0.5
1070
   172
1070
     1
1070
   279
1070
     0
1070
   288
1070
     0
1002
}
  0
DIMENSION
  5
41
330
2
100
AcDbEntity
  8
SUNPO
100
AcDbDimension
  2
*D8
 10
14.65813431045893
 20
-24.54602965978461
 30
0.0
 11
-18.34186568954106
 21
-22.79602965978461
 31
0.0
 70
    32
  1
1320
 71
     5
 42
66.0
  3
STANDARD
100
AcDbAlignedDimension
 13
-51.34186568954106
 23
-17.70008923685588
 33
0.0
 14
14.65813431045893
 24
-17.70008923685588
 34
0.0
100
AcDbRotatedDimension
1001
ACAD
1000
DSTYLE
1002
{
1070
    40
1040
1.0
1070
   140
1040
2.5
1070
   147
1040
0.5
1070
   172
1070
     1
1070
   279
1070
     0
1070
   288
1070
     0
1002
}
  0
DIMENSION
  5
4E
330
2
100
AcDbEntity
  8
SUNPO
100
AcDbDimension
  2
*D9
 10
57.94446102857579
 20
36.39777112708396
 30
0.0
 11
64.52779436190913
 21
38.14777112708396
 31
0.0
 70
    33
  1
99
 71
     5
 42
4.950000000000038
  3
STANDARD
100
AcDbAlignedDimension
 13
52.99446102857576
 23
28.39777112708395
 33
0.0
 14
57.94446102857579
 24
28.39777112708395
 34
0.0
1001
ACAD
1000
DSTYLE
1002
{
1070
    40
1040
1.0
1070
   140
1040
2.5
1070
   147
1040
0.5
1070
   172
1070
     1
1070
   279
1070
     0
1070
   288
1070
     0
1002
}
  0
DIMENSION
  5
5D
330
2
100
AcDbEntity
  8
SUNPO
100
AcDbDimension
  2
*D10
 10
48.0444610285757
 20
36.39777112708401
 30
0.0
 11
41.46112769524236
 21
38.14777112708401
 31
0.0
 70
    33
  1
99
 71
     5
 42
4.950000000000052
  3
STANDARD
100
AcDbAlignedDimension
 13
52.99446102857576
 23
28.39777112708402
 33
0.0
 14
48.0444610285757
 24
28.39777112708402
 34
0.0
1001
ACAD
1000
DSTYLE
1002
{
1070
    40
1040
1.0
1070
   140
1040
2.5
1070
   147
1040
0.5
1070
   172
1070
     1
1070
   279
1070
     0
1070
   288
1070
     0
1002
}
  0
DIMENSION
  5
6C
330
2
100
AcDbEntity
  8
SUNPO
100
AcDbDimension
  2
*D11
 10
33.13953161960546
 20
28.39777112708395
 30
0.0
 11
31.38953161960546
 21
5.272771477083951
 31
0.0
 70
    33
  1
925
 71
     5
 42
46.2499993
  3
STANDARD
100
AcDbAlignedDimension
 13
20.50813431045901
 23
-17.85222817291605
 33
0.0
 14
20.50813431045901
 24
28.39777112708395
 34
0.0
1001
ACAD
1000
DSTYLE
1002
{
1070
    40
1040
1.0
1070
   140
1040
2.5
1070
   147
1040
0.5
1070
   172
1070
     1
1070
   279
1070
     0
1070
   288
1070
     0
1002
}
  0
LINE
  5
79
330
2
100
AcDbEntity
  8
GAIKEI
  6
Continuous
 62
     1
100
AcDbLine
 10
18.45813431045894
 20
-15.74722102291605
 30
0.0
 11
18.45813431045894
 21
26.29276397708395
 31
0.0
  0
LINE
  5
7B
330
2
100
AcDbEntity
  8
GAIKEI
  6
Continuous
100
AcDbLine
 10
20.50813431045901
 20
-17.85222817291605
 30
0.0
 11
20.50813431045901
 21
28.39777112708395
 31
0.0
  0
LINE
  5
7C
330
2
100
AcDbEntity
  8
GAIKEI
  6
Continuous
 62
     1
100
AcDbLine
 10
17.51563431045894
 20
-14.88222102291604
 30
0.0
 11
17.51563431045894
 21
25.42776397708394
 31
0.0
  0
LINE
  5
7D
330
2
100
AcDbEntity
  8
GAIKEI
  6
Continuous
100
AcDbLine
 10
-57.19186568954103
 20
-17.85222817291605
 30
0.0
 11
-57.19186568954103
 21
28.39777112708395
 31
0.0
  0
LINE
  5
7E
330
2
100
AcDbEntity
  8
GAIKEI
  6
Continuous
 62
     1
100
AcDbLine
 10
-55.14186568954095
 20
-15.74722102291605
 30
0.0
 11
-55.14186568954095
 21
26.29276397708395
 31
0.0
  0
LINE
  5
7F
330
2
100
AcDbEntity
  8
GAIKEI
  6
Continuous
 62
     1
100
AcDbLine
 10
-54.19936568954108
 20
-14.88222102291604
 30
0.0
 11
-54.19936568954108
 21
25.42776397708394
 31
0.0
  0
LINE
  5
80
330
2
100
AcDbEntity
  8
GAIKEI
  6
Continuous
100
AcDbLine
 10
-57.19186568954103
 20
-17.85222817291605
 30
0.0
 11
20.50813431045901
 21
-17.85222817291605
 31
0.0
  0
LINE
  5
81
330
2
100
AcDbEntity
  8
GAIKEI
  6
Continuous
 62
     1
100
AcDbLine
 10
-57.19186568954103
 20
-15.74722102291605
 30
0.0
 11
20.50813431045901
 21
-15.74722102291605
 31
0.0
  0
LINE
  5
82
330
2
100
AcDbEntity
  8
GAIKEI
  6
Continuous
 62
     1
100
AcDbLine
 10
-54.19936568954108
 20
-14.88222102291604
 30
0.0
 11
17.51563431045894
 21
-14.88222102291604
 31
0.0
  0
LINE
  5
83
330
2
100
AcDbEntity
  8
GAIKEI
  6
Continuous
 62
     1
100
AcDbLine
 10
-42.75936568954103
 20
-16.89722102291602
 30
0.0
 11
-43.07936568954096
 21
-16.89722102291602
 31
0.0
  0
LINE
  5
84
330
2
100
AcDbEntity
  8
GAIKEI
  6
Continuous
 62
     1
100
AcDbLine
 10
-42.75936568954103
 20
-17.24722102291605
 30
0.0
 11
-43.07936568954096
 21
-17.24722102291605
 31
0.0
  0
LINE
  5
85
330
2
100
AcDbEntity
  8
GAIKEI
  6
Continuous
 62
     1
100
AcDbLine
 10
-49.09436568954106
 20
-16.59972102291601
 30
0.0
 11
-49.09436568954106
 21
-17.57472102291603
 31
0.0
  0
LINE
  5
86
330
2
100
AcDbEntity
  8
GAIKEI
  6
Continuous
 62
     1
100
AcDbLine
 10
-48.06936568954096
 20
-16.59972102291601
 30
0.0
 11
-48.06936568954096
 21
-17.57472102291603
 31
0.0
  0
LINE
  5
87
330
2
100
AcDbEntity
  8
GAIKEI
  6
Continuous
 62
     1
100
AcDbLine
 10
-48.09436568954106
 20
-17.59972102291601
 30
0.0
 11
-49.06936568954098
 21
-17.59972102291601
 31
0.0
  0
LINE
  5
88
330
2
100
AcDbEntity
  8
GAIKEI
  6
Continuous
 62
     1
100
AcDbLine
 10
-48.09436568954106
 20
-16.57472102291603
 30
0.0
 11
-49.06936568954098
 21
-16.57472102291603
 31
0.0
  0
ARC
  5
89
330
2
100
AcDbEntity
  8
GAIKEI
  6
Continuous
 62
     1
100
AcDbCircle
 10
-49.06936568954098
 20
-16.59972102291601
 30
0.0
 40
0.025
100
AcDbArc
 50
90.0
 51
180.0
  0
ARC
  5
8A
330
2
100
AcDbEntity
  8
GAIKEI
  6
Continuous
 62
     1
100
AcDbCircle
 10
-49.06936568954098
 20
-17.57472102291603
 30
0.0
 40
0.025
100
AcDbArc
 50
180.0
 51
270.0
  0
ARC
  5
8B
330
2
100
AcDbEntity
  8
GAIKEI
  6
Continuous
 62
     1
100
AcDbCircle
 10
-48.09436568954106
 20
-17.57472102291603
 30
0.0
 40
0.025
100
AcDbArc
 50
270.0
 51
0.0
  0
ARC
  5
8C
330
2
100
AcDbEntity
  8
GAIKEI
  6
Continuous
 62
     1
100
AcDbCircle
 10
-48.09436568954106
 20
-16.59972102291601
 30
0.0
 40
0.025
100
AcDbArc
 50
0.0
 51
90.0
  0
LINE
  5
8D
330
2
100
AcDbEntity
  8
GAIKEI
  6
Continuous
 62
     1
100
AcDbLine
 10
-43.09436568954106
 20
-17.23222102291606
 30
0.0
 11
-43.09436568954106
 21
-16.91222102291601
 31
0.0
  0
ARC
  5
8E
330
2
100
AcDbEntity
  8
GAIKEI
  6
Continuous
 62
     1
100
AcDbCircle
 10
-43.07936568954096
 20
-16.91222102291601
 30
0.0
 40
0.015
100
AcDbArc
 50
90.0
 51
180.0
  0
ARC
  5
8F
330
2
100
AcDbEntity
  8
GAIKEI
  6
Continuous
 62
     1
100
AcDbCircle
 10
-43.07936568954096
 20
-17.23222102291606
 30
0.0
 40
0.015
100
AcDbArc
 50
180.0
 51
270.0
  0
LINE
  5
90
330
2
100
AcDbEntity
  8
GAIKEI
  6
Continuous
 62
     1
100
AcDbLine
 10
-44.26936568954102
 20
-16.95972102291603
 30
0.0
 11
-44.44436568954096
 21
-16.95972102291603
 31
0.0
  0
LINE
  5
91
330
2
100
AcDbEntity
  8
GAIKEI
  6
Continuous
 62
     1
100
AcDbLine
 10
-44.24436568954103
 20
-17.15972102291601
 30
0.0
 11
-44.24436568954103
 21
-16.98472102291606
 31
0.0
  0
LINE
  5
92
330
2
100
AcDbEntity
  8
GAIKEI
  6
Continuous
 62
     1
100
AcDbLine
 10
-44.46936568954106
 20
-17.15972102291601
 30
0.0
 11
-44.46936568954106
 21
-16.98472102291606
 31
0.0
  0
LINE
  5
93
330
2
100
AcDbEntity
  8
GAIKEI
  6
Continuous
 62
     1
100
AcDbLine
 10
-44.26936568954102
 20
-17.18472102291605
 30
0.0
 11
-44.44436568954096
 21
-17.18472102291605
 31
0.0
  0
ARC
  5
94
330
2
100
AcDbEntity
  8
GAIKEI
  6
Continuous
 62
     1
100
AcDbCircle
 10
-44.26936568954102
 20
-16.98472102291606
 30
0.0
 40
0.025
100
AcDbArc
 50
0.0
 51
90.0
  0
ARC
  5
95
330
2
100
AcDbEntity
  8
GAIKEI
  6
Continuous
 62
     1
100
AcDbCircle
 10
-44.44436568954096
 20
-16.98472102291606
 30
0.0
 40
0.025
100
AcDbArc
 50
90.0
 51
180.0
  0
ARC
  5
96
330
2
100
AcDbEntity
  8
GAIKEI
  6
Continuous
 62
     1
100
AcDbCircle
 10
-44.44436568954096
 20
-17.15972102291601
 30
0.0
 40
0.025
100
AcDbArc
 50
180.0
 51
270.0
  0
ARC
  5
97
330
2
100
AcDbEntity
  8
GAIKEI
  6
Continuous
 62
     1
100
AcDbCircle
 10
-44.26936568954102
 20
-17.15972102291601
 30
0.0
 40
0.025
100
AcDbArc
 50
270.0
 51
0.0
  0
LINE
  5
98
330
2
100
AcDbEntity
  8
GAIKEI
  6
Continuous
 62
     1
100
AcDbLine
 10
-45.66686568954104
 20
-16.84472102291602
 30
0.0
 11
-45.66686568954104
 21
-17.29972102291606
 31
0.0
  0
LINE
  5
99
330
2
100
AcDbEntity
  8
GAIKEI
  6
Continuous
 62
     1
100
AcDbLine
 10
-44.79686568954104
 20
-16.84472102291602
 30
0.0
 11
-44.79686568954104
 21
-17.29972102291606
 31
0.0
  0
LINE
  5
9A
330
2
100
AcDbEntity
  8
GAIKEI
  6
Continuous
 62
     1
100
AcDbLine
 10
-44.82186568954102
 20
-16.81972102291604
 30
0.0
 11
-45.64186568954095
 21
-16.81972102291604
 31
0.0
  0
LINE
  5
9B
330
2
100
AcDbEntity
  8
GAIKEI
  6
Continuous
 62
     1
100
AcDbLine
 10
-44.82186568954102
 20
-17.32472102291603
 30
0.0
 11
-45.64186568954095
 21
-17.32472102291603
 31
0.0
  0
ARC
  5
9C
330
2
100
AcDbEntity
  8
GAIKEI
  6
Continuous
 62
     1
100
AcDbCircle
 10
-45.64186568954095
 20
-16.84472102291602
 30
0.0
 40
0.025
100
AcDbArc
 50
90.0
 51
180.0
  0
ARC
  5
9D
330
2
100
AcDbEntity
  8
GAIKEI
  6
Continuous
 62
     1
100
AcDbCircle
 10
-45.64186568954095
 20
-17.29972102291606
 30
0.0
 40
0.025
100
AcDbArc
 50
180.0
 51
270.0
  0
ARC
  5
9E
330
2
100
AcDbEntity
  8
GAIKEI
  6
Continuous
 62
     1
100
AcDbCircle
 10
-44.82186568954102
 20
-17.29972102291606
 30
0.0
 40
0.025
100
AcDbArc
 50
270.0
 51
0.0
  0
ARC
  5
9F
330
2
100
AcDbEntity
  8
GAIKEI
  6
Continuous
 62
     1
100
AcDbCircle
 10
-44.82186568954102
 20
-16.84472102291602
 30
0.0
 40
0.025
100
AcDbArc
 50
0.0
 51
90.0
  0
LINE
  5
A0
330
2
100
AcDbEntity
  8
GAIKEI
  6
Continuous
 62
     1
100
AcDbLine
 10
-42.74436568954103
 20
-17.23222102291606
 30
0.0
 11
-42.74436568954103
 21
-16.91222102291601
 31
0.0
  0
ARC
  5
A1
330
2
100
AcDbEntity
  8
GAIKEI
  6
Continuous
 62
     1
100
AcDbCircle
 10
-42.75936568954103
 20
-16.91222102291601
 30
0.0
 40
0.015
100
AcDbArc
 50
0.0
 51
90.0
  0
ARC
  5
A2
330
2
100
AcDbEntity
  8
GAIKEI
  6
Continuous
 62
     1
100
AcDbCircle
 10
-42.75936568954103
 20
-17.23222102291606
 30
0.0
 40
0.015
100
AcDbArc
 50
270.0
 51
0.0
  0
LINE
  5
A3
330
2
100
AcDbEntity
  8
GAIKEI
  6
Continuous
 62
     1
100
AcDbLine
 10
-42.09436568954106
 20
-17.23222102291606
 30
0.0
 11
-42.09436568954106
 21
-16.91222102291601
 31
0.0
  0
LINE
  5
A4
330
2
100
AcDbEntity
  8
GAIKEI
  6
Continuous
 62
     1
100
AcDbLine
 10
-42.44436568954096
 20
-17.23222102291606
 30
0.0
 11
-42.44436568954096
 21
-16.91222102291601
 31
0.0
  0
LINE
  5
A5
330
2
100
AcDbEntity
  8
GAIKEI
  6
Continuous
 62
     1
100
AcDbLine
 10
-42.10936568954105
 20
-16.89722102291602
 30
0.0
 11
-42.42936568954099
 21
-16.89722102291602
 31
0.0
  0
LINE
  5
A6
330
2
100
AcDbEntity
  8
GAIKEI
  6
Continuous
 62
     1
100
AcDbLine
 10
-42.10936568954105
 20
-17.24722102291605
 30
0.0
 11
-42.42936568954099
 21
-17.24722102291605
 31
0.0
  0
ARC
  5
A7
330
2
100
AcDbEntity
  8
GAIKEI
  6
Continuous
 62
     1
100
AcDbCircle
 10
-42.10936568954105
 20
-16.91222102291601
 30
0.0
 40
0.015
100
AcDbArc
 50
0.0
 51
90.0
  0
ARC
  5
A8
330
2
100
AcDbEntity
  8
GAIKEI
  6
Continuous
 62
     1
100
AcDbCircle
 10
-42.42936568954099
 20
-16.91222102291601
 30
0.0
 40
0.015
100
AcDbArc
 50
90.0
 51
180.0
  0
ARC
  5
A9
330
2
100
AcDbEntity
  8
GAIKEI
  6
Continuous
 62
     1
100
AcDbCircle
 10
-42.42936568954099
 20
-17.23222102291606
 30
0.0
 40
0.015
100
AcDbArc
 50
180.0
 51
270.0
  0
ARC
  5
AA
330
2
100
AcDbEntity
  8
GAIKEI
  6
Continuous
 62
     1
100
AcDbCircle
 10
-42.10936568954105
 20
-17.23222102291606
 30
0.0
 40
0.015
100
AcDbArc
 50
270.0
 51
0.0
  0
LINE
  5
AB
330
2
100
AcDbEntity
  8
GAIKEI
  6
Continuous
 62
     1
100
AcDbLine
 10
-41.44436568954096
 20
-17.23222102291606
 30
0.0
 11
-41.44436568954096
 21
-16.91222102291601
 31
0.0
  0
LINE
  5
AC
330
2
100
AcDbEntity
  8
GAIKEI
  6
Continuous
 62
     1
100
AcDbLine
 10
-41.79436568954098
 20
-17.23222102291606
 30
0.0
 11
-41.79436568954098
 21
-16.91222102291601
 31
0.0
  0
LINE
  5
AD
330
2
100
AcDbEntity
  8
GAIKEI
  6
Continuous
 62
     1
100
AcDbLine
 10
-41.45936568954106
 20
-16.89722102291602
 30
0.0
 11
-41.77936568954101
 21
-16.89722102291602
 31
0.0
  0
LINE
  5
AE
330
2
100
AcDbEntity
  8
GAIKEI
  6
Continuous
 62
     1
100
AcDbLine
 10
-41.45936568954106
 20
-17.24722102291605
 30
0.0
 11
-41.77936568954101
 21
-17.24722102291605
 31
0.0
  0
ARC
  5
AF
330
2
100
AcDbEntity
  8
GAIKEI
  6
Continuous
 62
     1
100
AcDbCircle
 10
-41.45936568954106
 20
-16.91222102291601
 30
0.0
 40
0.015
100
AcDbArc
 50
0.0
 51
90.0
  0
ARC
  5
B0
330
2
100
AcDbEntity
  8
GAIKEI
  6
Continuous
 62
     1
100
AcDbCircle
 10
-41.77936568954101
 20
-16.91222102291601
 30
0.0
 40
0.015
100
AcDbArc
 50
90.0
 51
180.0
  0
ARC
  5
B1
330
2
100
AcDbEntity
  8
GAIKEI
  6
Continuous
 62
     1
100
AcDbCircle
 10
-41.77936568954101
 20
-17.23222102291606
 30
0.0
 40
0.015
100
AcDbArc
 50
180.0
 51
270.0
  0
ARC
  5
B2
330
2
100
AcDbEntity
  8
GAIKEI
  6
Continuous
 62
     1
100
AcDbCircle
 10
-41.45936568954106
 20
-17.23222102291606
 30
0.0
 40
0.015
100
AcDbArc
 50
270.0
 51
0.0
  0
LINE
  5
B3
330
2
100
AcDbEntity
  8
GAIKEI
  6
Continuous
 62
     1
100
AcDbLine
 10
-40.14436568954102
 20
-17.23222102291606
 30
0.0
 11
-40.14436568954102
 21
-16.91222102291601
 31
0.0
  0
LINE
  5
B4
330
2
100
AcDbEntity
  8
GAIKEI
  6
Continuous
 62
     1
100
AcDbLine
 10
-40.49436568954104
 20
-17.23222102291606
 30
0.0
 11
-40.49436568954104
 21
-16.91222102291601
 31
0.0
  0
LINE
  5
B5
330
2
100
AcDbEntity
  8
GAIKEI
  6
Continuous
 62
     1
100
AcDbLine
 10
-40.15936568954099
 20
-16.89722102291602
 30
0.0
 11
-40.47936568954106
 21
-16.89722102291602
 31
0.0
  0
LINE
  5
B6
330
2
100
AcDbEntity
  8
GAIKEI
  6
Continuous
 62
     1
100
AcDbLine
 10
-40.15936568954099
 20
-17.24722102291605
 30
0.0
 11
-40.47936568954106
 21
-17.24722102291605
 31
0.0
  0
ARC
  5
B7
330
2
100
AcDbEntity
  8
GAIKEI
  6
Continuous
 62
     1
100
AcDbCircle
 10
-40.15936568954099
 20
-16.91222102291601
 30
0.0
 40
0.015
100
AcDbArc
 50
0.0
 51
90.0
  0
ARC
  5
B8
330
2
100
AcDbEntity
  8
GAIKEI
  6
Continuous
 62
     1
100
AcDbCircle
 10
-40.47936568954106
 20
-16.91222102291601
 30
0.0
 40
0.015
100
AcDbArc
 50
90.0
 51
180.0
  0
ARC
  5
B9
330
2
100
AcDbEntity
  8
GAIKEI
  6
Continuous
 62
     1
100
AcDbCircle
 10
-40.47936568954106
 20
-17.23222102291606
 30
0.0
 40
0.015
100
AcDbArc
 50
180.0
 51
270.0
  0
ARC
  5
BA
330
2
100
AcDbEntity
  8
GAIKEI
  6
Continuous
 62
     1
100
AcDbCircle
 10
-40.15936568954099
 20
-17.23222102291606
 30
0.0
 40
0.015
100
AcDbArc
 50
270.0
 51
0.0
  0
LINE
  5
BB
330
2
100
AcDbEntity
  8
GAIKEI
  6
Continuous
 62
     1
100
AcDbLine
 10
-40.794365689541
 20
-17.23222102291606
 30
0.0
 11
-40.794365689541
 21
-16.91222102291601
 31
0.0
  0
LINE
  5
BC
330
2
100
AcDbEntity
  8
GAIKEI
  6
Continuous
 62
     1
100
AcDbLine
 10
-41.14436568954102
 20
-17.23222102291606
 30
0.0
 11
-41.14436568954102
 21
-16.91222102291601
 31
0.0
  0
LINE
  5
BD
330
2
100
AcDbEntity
  8
GAIKEI
  6
Continuous
 62
     1
100
AcDbLine
 10
-40.80936568954097
 20
-16.89722102291602
 30
0.0
 11
-41.12936568954103
 21
-16.89722102291602
 31
0.0
  0
LINE
  5
BE
330
2
100
AcDbEntity
  8
GAIKEI
  6
Continuous
 62
     1
100
AcDbLine
 10
-40.80936568954097
 20
-17.24722102291605
 30
0.0
 11
-41.12936568954103
 21
-17.24722102291605
 31
0.0
  0
ARC
  5
BF
330
2
100
AcDbEntity
  8
GAIKEI
  6
Continuous
 62
     1
100
AcDbCircle
 10
-40.80936568954097
 20
-16.91222102291601
 30
0.0
 40
0.015
100
AcDbArc
 50
0.0
 51
90.0
  0
ARC
  5
C0
330
2
100
AcDbEntity
  8
GAIKEI
  6
Continuous
 62
     1
100
AcDbCircle
 10
-41.12936568954103
 20
-16.91222102291601
 30
0.0
 40
0.015
100
AcDbArc
 50
90.0
 51
180.0
  0
ARC
  5
C1
330
2
100
AcDbEntity
  8
GAIKEI
  6
Continuous
 62
     1
100
AcDbCircle
 10
-41.12936568954103
 20
-17.23222102291606
 30
0.0
 40
0.015
100
AcDbArc
 50
180.0
 51
270.0
  0
ARC
  5
C2
330
2
100
AcDbEntity
  8
GAIKEI
  6
Continuous
 62
     1
100
AcDbCircle
 10
-40.80936568954097
 20
-17.23222102291606
 30
0.0
 40
0.015
100
AcDbArc
 50
270.0
 51
0.0
  0
DIMENSION
  5
C3
330
2
100
AcDbEntity
  8
SUNPO
100
AcDbDimension
  2
*D12
 10
20.50813431045901
 20
38.63276367008745
 30
0.0
 11
-18.34186568954101
 21
40.38276367008744
 31
0.0
 70
    33
  1
1554
 71
     5
 42
77.70000000000004
  3
STANDARD
100
AcDbAlignedDimension
 13
-57.19186568954103
 23
28.39777112708395
 33
0.0
 14
20.50813431045901
 24
28.39777112708395
 34
0.0
1001
ACAD
1000
DSTYLE
1002
{
1070
    40
1040
1.0
1070
   140
1040
2.5
1070
   147
1040
0.5
1070
   172
1070
     1
1070
   279
1070
     0
1070
   288
1070
     0
1002
}
  0
LINE
  5
D0
330
2
100
AcDbEntity
  8
GAIKEI
  6
Continuous
 62
     1
100
AcDbLine
 10
-57.19186568954103
 20
26.29276397708395
 30
0.0
 11
20.50813431045901
 21
26.29276397708395
 31
0.0
  0
LINE
  5
D1
330
2
100
AcDbEntity
  8
GAIKEI
  6
Continuous
100
AcDbLine
 10
-57.19186568954103
 20
28.39777112708395
 30
0.0
 11
20.50813431045901
 21
28.39777112708395
 31
0.0
  0
LINE
  5
D2
330
2
100
AcDbEntity
  8
GAIKEI
  6
Continuous
 62
     1
100
AcDbLine
 10
-54.19936568954108
 20
25.42776397708394
 30
0.0
 11
17.51563431045894
 21
25.42776397708394
 31
0.0
  0
LINE
  5
D3
330
2
100
AcDbEntity
  8
WAKU
 62
     4
100
AcDbLine
 10
-57.90182544256595
 20
-27.94869034583405
 30
0.0
 11
67.09817455743382
 21
-27.94869034583405
 31
0.0
  0
TEXT
  5
D5
330
2
100
AcDbEntity
  8
TOUROKU
100
AcDbText
 10
23.18640191321195
 20
40.05130965416593
 30
0.0
 40
2.0
  1
ＴＨ６５ＰＨＤ８Ｋ＋ＴＹＷＫ６５ＰＲ８
 72
     2
 11
67.98640191321192
 21
40.05130965416593
 31
0.0
100
AcDbText
  0
LINE
  5
D7
330
2
100
AcDbEntity
  8
GAIKEI
  6
CENTER
 62
     1
100
AcDbLine
 10
53.82384537857603
 20
15.26776392708393
 30
0.0
 11
52.79916027857564
 21
15.26776392708393
 31
0.0
  0
LINE
  5
D9
330
2
100
AcDbEntity
  8
GAIKEI
  6
Continuous
 62
     1
100
AcDbLine
 10
53.61946102857597
 20
15.81776392708405
 30
0.0
 11
53.61946102857597
 21
14.7177639270838
 31
0.0
  0
LINE
  5
DA
330
2
100
AcDbEntity
  8
GAIKEI
  6
Continuous
 62
     1
100
AcDbLine
 10
53.33196102857584
 20
15.06776392708388
 30
0.0
 11
52.98446102857575
 21
15.06776392708388
 31
0.0
  0
LINE
  5
DB
330
2
100
AcDbEntity
  8
GAIKEI
  6
Continuous
 62
     1
100
AcDbLine
 10
53.61946102857597
 20
14.84276392708386
 30
0.0
 11
53.55696102857587
 21
14.84276392708386
 31
0.0
  0
LINE
  5
DC
330
2
100
AcDbEntity
  8
GAIKEI
  6
Continuous
 62
     1
100
AcDbLine
 10
53.15946102857584
 20
14.94276392708388
 30
0.0
 11
53.15946102857584
 21
14.76776392708382
 31
0.0
  0
LINE
  5
DD
330
2
100
AcDbEntity
  8
GAIKEI
  6
Continuous
 62
     1
100
AcDbLine
 10
53.56946102857591
 20
14.66776392708379
 30
0.0
 11
53.36816617857585
 21
14.66776392708379
 31
0.0
  0
LINE
  5
DE
330
2
100
AcDbEntity
  8
GAIKEI
  6
Continuous
 62
     1
100
AcDbLine
 10
53.26946102857585
 20
14.94276392708388
 30
0.0
 11
53.15946102857584
 21
14.94276392708388
 31
0.0
  0
LINE
  5
DF
330
2
100
AcDbEntity
  8
GAIKEI
  6
Continuous
 62
     1
100
AcDbLine
 10
53.26946102857585
 20
14.94276392708388
 30
0.0
 11
53.26946102857585
 21
14.84276392708386
 31
0.0
  0
LINE
  5
E0
330
2
100
AcDbEntity
  8
GAIKEI
  6
Continuous
 62
     1
100
AcDbLine
 10
53.26966887857577
 20
14.84219292708383
 30
0.0
 11
53.32118157857586
 21
14.70066292708384
 31
0.0
  0
ARC
  5
E1
330
2
100
AcDbEntity
  8
GAIKEI
  6
Continuous
 62
     1
100
AcDbCircle
 10
53.56946102857591
 20
14.7177639270838
 30
0.0
 40
0.0500000000000114
100
AcDbArc
 50
270.0
 51
0.0
  0
ARC
  5
E2
330
2
100
AcDbEntity
  8
GAIKEI
  6
Continuous
 62
     1
100
AcDbCircle
 10
53.36816617857585
 20
14.7177639270838
 30
0.0
 40
0.0500000000000114
100
AcDbArc
 50
199.9999999999803
 51
270.0
  0
ARC
  5
E3
330
2
100
AcDbEntity
  8
GAIKEI
  6
Continuous
 62
     1
100
AcDbCircle
 10
53.10946102857577
 20
14.76776392708382
 30
0.0
 40
0.0500000000000114
100
AcDbArc
 50
270.0
 51
0.0
  0
LINE
  5
E4
330
2
100
AcDbEntity
  8
GAIKEI
  6
DOT
 62
     1
100
AcDbLine
 10
53.3301843285759
 20
15.46776392708397
 30
0.0
 11
52.98446102857575
 21
15.46776392708397
 31
0.0
  0
LINE
  5
E6
330
2
100
AcDbEntity
  8
GAIKEI
  6
DOT
 62
     1
100
AcDbLine
 10
53.61946102857597
 20
15.692763927084
 30
0.0
 11
53.55696102857587
 21
15.692763927084
 31
0.0
  0
LINE
  5
E7
330
2
100
AcDbEntity
  8
GAIKEI
  6
Continuous
 62
     1
100
AcDbLine
 10
53.15946102857584
 20
15.26776392708393
 30
0.0
 11
53.15946102857584
 21
15.76776392708404
 31
0.0
  0
LINE
  5
E8
330
2
100
AcDbEntity
  8
GAIKEI
  6
Continuous
 62
     1
100
AcDbLine
 10
53.56946102857591
 20
15.86776392708407
 30
0.0
 11
53.36816617857585
 21
15.86776392708407
 31
0.0
  0
LINE
  5
E9
330
2
100
AcDbEntity
  8
GAIKEI
  6
Continuous
 62
     1
100
AcDbLine
 10
53.26946102857585
 20
15.59276392708397
 30
0.0
 11
53.15946102857584
 21
15.59276392708397
 31
0.0
  0
LINE
  5
EA
330
2
100
AcDbEntity
  8
GAIKEI
  6
Continuous
 62
     1
100
AcDbLine
 10
53.26946102857585
 20
15.26776392708393
 30
0.0
 11
53.26946102857585
 21
15.692763927084
 31
0.0
  0
LINE
  5
EB
330
2
100
AcDbEntity
  8
GAIKEI
  6
Continuous
 62
     1
100
AcDbLine
 10
53.26966887857577
 20
15.69333492708403
 30
0.0
 11
53.32118157857586
 21
15.83486492708402
 31
0.0
  0
ARC
  5
EC
330
2
100
AcDbEntity
  8
GAIKEI
  6
Continuous
 62
     1
100
AcDbCircle
 10
53.56946102857591
 20
15.81776392708405
 30
0.0
 40
0.0500000000000114
100
AcDbArc
 50
0.0
 51
90.0
  0
ARC
  5
ED
330
2
100
AcDbEntity
  8
GAIKEI
  6
Continuous
 62
     1
100
AcDbCircle
 10
53.36816617857585
 20
15.81776392708405
 30
0.0
 40
0.0500000000000114
100
AcDbArc
 50
90.0
 51
160.0000000000196
  0
LINE
  5
EE
330
2
100
AcDbEntity
  8
GAIKEI
  6
DOT
 62
     1
100
AcDbLine
 10
53.55696102857587
 20
15.692763927084
 30
0.0
 11
53.55696102857587
 21
15.26776392708393
 31
0.0
  0
LINE
  5
EF
330
2
100
AcDbEntity
  8
GAIKEI
  6
Continuous
 62
     1
100
AcDbLine
 10
53.33315582857586
 20
15.8534608770841
 30
0.0
 11
53.33315582857586
 21
15.26776392708393
 31
0.0
  0
LINE
  5
F0
330
2
100
AcDbEntity
  8
GAIKEI
  6
Continuous
 62
     1
100
AcDbLine
 10
53.55696102857587
 20
14.84276392708386
 30
0.0
 11
53.55696102857587
 21
15.26776392708393
 31
0.0
  0
LINE
  5
F1
330
2
100
AcDbEntity
  8
GAIKEI
  6
Continuous
 62
     1
100
AcDbLine
 10
53.55696102857587
 20
14.84276392708386
 30
0.0
 11
53.33196102857584
 21
15.06776392708388
 31
0.0
  0
LINE
  5
F2
330
2
100
AcDbEntity
  8
GAIKEI
  6
Continuous
 62
     1
100
AcDbLine
 10
53.33196102857584
 20
15.06776392708388
 30
0.0
 11
53.33196102857584
 21
15.26776392708393
 31
0.0
  0
LINE
  5
F3
330
2
100
AcDbEntity
  8
GAIKEI
  6
DOT
 62
     1
100
AcDbLine
 10
53.55696102857587
 20
15.692763927084
 30
0.0
 11
53.33196102857584
 21
15.46776392708397
 31
0.0
  0
LINE
  5
F4
330
2
100
AcDbEntity
  8
GAIKEI
  6
DOT
 62
     1
100
AcDbLine
 10
53.33196102857584
 20
15.46776392708397
 30
0.0
 11
53.33196102857584
 21
15.26776392708393
 31
0.0
  0
LINE
  5
F5
330
2
100
AcDbEntity
  8
GAIKEI
  6
Continuous
 62
     1
100
AcDbLine
 10
53.10946102857577
 20
14.7177639270838
 30
0.0
 11
53.03446102857571
 21
14.7177639270838
 31
0.0
  0
ARC
  5
F6
330
2
100
AcDbEntity
  8
GAIKEI
  6
Continuous
 62
     1
100
AcDbCircle
 10
53.10946102857577
 20
15.76776392708404
 30
0.0
 40
0.0500000000000114
100
AcDbArc
 50
0.0
 51
90.0
  0
LINE
  5
F7
330
2
100
AcDbEntity
  8
GAIKEI
  6
Continuous
 62
     1
100
AcDbLine
 10
53.10946102857577
 20
15.81776392708405
 30
0.0
 11
53.03446102857571
 21
15.81776392708405
 31
0.0
  0
LINE
  5
F8
330
2
100
AcDbEntity
  8
GAIKEI
  6
Continuous
 62
     1
100
AcDbLine
 10
52.98446102857575
 20
14.76776392708382
 30
0.0
 11
52.98446102857575
 21
15.76776392708404
 31
0.0
  0
ARC
  5
F9
330
2
100
AcDbEntity
  8
GAIKEI
  6
Continuous
 62
     1
100
AcDbCircle
 10
53.03446102857571
 20
14.76776392708382
 30
0.0
 40
0.0500000000000114
100
AcDbArc
 50
180.0
 51
270.0
  0
ARC
  5
FA
330
2
100
AcDbEntity
  8
GAIKEI
  6
Continuous
 62
     1
100
AcDbCircle
 10
53.03446102857571
 20
15.76776392708404
 30
0.0
 40
0.0500000000000114
100
AcDbArc
 50
90.0
 51
180.0
  0
LINE
  5
FB
330
2
100
AcDbEntity
  8
GAIKEI
  6
CENTER
 62
     1
100
AcDbLine
 10
53.82384537857603
 20
-4.732236022916082
 30
0.0
 11
52.79916027857564
 21
-4.732236022916082
 31
0.0
  0
LINE
  5
FC
330
2
100
AcDbEntity
  8
GAIKEI
  6
Continuous
 62
     1
100
AcDbLine
 10
53.61946102857597
 20
-4.182236022915958
 30
0.0
 11
53.61946102857597
 21
-5.282236022916207
 31
0.0
  0
LINE
  5
FD
330
2
100
AcDbEntity
  8
GAIKEI
  6
Continuous
 62
     1
100
AcDbLine
 10
53.33196102857584
 20
-4.932236022916129
 30
0.0
 11
52.98446102857575
 21
-4.932236022916129
 31
0.0
  0
LINE
  5
FE
330
2
100
AcDbEntity
  8
GAIKEI
  6
Continuous
 62
     1
100
AcDbLine
 10
53.61946102857597
 20
-5.157236022916207
 30
0.0
 11
53.55696102857587
 21
-5.157236022916207
 31
0.0
  0
LINE
  5
FF
330
2
100
AcDbEntity
  8
GAIKEI
  6
Continuous
 62
     1
100
AcDbLine
 10
53.15946102857584
 20
-5.057236022916185
 30
0.0
 11
53.15946102857584
 21
-5.232236022916197
 31
0.0
  0
LINE
  5
100
330
2
100
AcDbEntity
  8
GAIKEI
  6
Continuous
 62
     1
100
AcDbLine
 10
53.56946102857591
 20
-5.33223602291622
 30
0.0
 11
53.36816617857585
 21
-5.33223602291622
 31
0.0
  0
LINE
  5
101
330
2
100
AcDbEntity
  8
GAIKEI
  6
Continuous
 62
     1
100
AcDbLine
 10
53.26946102857585
 20
-5.057236022916185
 30
0.0
 11
53.15946102857584
 21
-5.057236022916185
 31
0.0
  0
LINE
  5
102
330
2
100
AcDbEntity
  8
GAIKEI
  6
Continuous
 62
     1
100
AcDbLine
 10
53.26946102857585
 20
-5.057236022916185
 30
0.0
 11
53.26946102857585
 21
-5.157236022916207
 31
0.0
  0
LINE
  5
103
330
2
100
AcDbEntity
  8
GAIKEI
  6
Continuous
 62
     1
100
AcDbLine
 10
53.26966887857577
 20
-5.157807022916188
 30
0.0
 11
53.32118157857586
 21
-5.299337022916233
 31
0.0
  0
ARC
  5
104
330
2
100
AcDbEntity
  8
GAIKEI
  6
Continuous
 62
     1
100
AcDbCircle
 10
53.56946102857591
 20
-5.282236022916207
 30
0.0
 40
0.0500000000000114
100
AcDbArc
 50
270.0
 51
0.0
  0
ARC
  5
105
330
2
100
AcDbEntity
  8
GAIKEI
  6
Continuous
 62
     1
100
AcDbCircle
 10
53.36816617857585
 20
-5.282236022916207
 30
0.0
 40
0.0500000000000114
100
AcDbArc
 50
199.9999999999803
 51
270.0
  0
ARC
  5
106
330
2
100
AcDbEntity
  8
GAIKEI
  6
Continuous
 62
     1
100
AcDbCircle
 10
53.10946102857577
 20
-5.232236022916197
 30
0.0
 40
0.0500000000000114
100
AcDbArc
 50
270.0
 51
0.0
  0
LINE
  5
107
330
2
100
AcDbEntity
  8
GAIKEI
  6
DOT
 62
     1
100
AcDbLine
 10
53.3301843285759
 20
-4.532236022916038
 30
0.0
 11
52.98446102857575
 21
-4.532236022916038
 31
0.0
  0
LINE
  5
108
330
2
100
AcDbEntity
  8
GAIKEI
  6
DOT
 62
     1
100
AcDbLine
 10
53.61946102857597
 20
-4.307236022915958
 30
0.0
 11
53.55696102857587
 21
-4.307236022915958
 31
0.0
  0
LINE
  5
109
330
2
100
AcDbEntity
  8
GAIKEI
  6
Continuous
 62
     1
100
AcDbLine
 10
53.15946102857584
 20
-4.732236022916082
 30
0.0
 11
53.15946102857584
 21
-4.232236022915969
 31
0.0
  0
LINE
  5
10A
330
2
100
AcDbEntity
  8
GAIKEI
  6
Continuous
 62
     1
100
AcDbLine
 10
53.56946102857591
 20
-4.132236022915947
 30
0.0
 11
53.36816617857585
 21
-4.132236022915947
 31
0.0
  0
LINE
  5
10B
330
2
100
AcDbEntity
  8
GAIKEI
  6
Continuous
 62
     1
100
AcDbLine
 10
53.26946102857585
 20
-4.407236022915981
 30
0.0
 11
53.15946102857584
 21
-4.407236022915981
 31
0.0
  0
LINE
  5
10C
330
2
100
AcDbEntity
  8
GAIKEI
  6
Continuous
 62
     1
100
AcDbLine
 10
53.26946102857585
 20
-4.732236022916082
 30
0.0
 11
53.26946102857585
 21
-4.307236022915958
 31
0.0
  0
LINE
  5
10D
330
2
100
AcDbEntity
  8
GAIKEI
  6
Continuous
 62
     1
100
AcDbLine
 10
53.26966887857577
 20
-4.306665022915978
 30
0.0
 11
53.32118157857586
 21
-4.165135022915933
 31
0.0
  0
ARC
  5
10E
330
2
100
AcDbEntity
  8
GAIKEI
  6
Continuous
 62
     1
100
AcDbCircle
 10
53.56946102857591
 20
-4.182236022915958
 30
0.0
 40
0.0500000000000114
100
AcDbArc
 50
0.0
 51
90.0
  0
ARC
  5
10F
330
2
100
AcDbEntity
  8
GAIKEI
  6
Continuous
 62
     1
100
AcDbCircle
 10
53.36816617857585
 20
-4.182236022915958
 30
0.0
 40
0.0500000000000114
100
AcDbArc
 50
90.0
 51
160.0000000000196
  0
LINE
  5
110
330
2
100
AcDbEntity
  8
GAIKEI
  6
DOT
 62
     1
100
AcDbLine
 10
53.55696102857587
 20
-4.307236022915958
 30
0.0
 11
53.55696102857587
 21
-4.732236022916082
 31
0.0
  0
LINE
  5
111
330
2
100
AcDbEntity
  8
GAIKEI
  6
Continuous
 62
     1
100
AcDbLine
 10
53.33315582857586
 20
-4.146539072915969
 30
0.0
 11
53.33315582857586
 21
-4.732236022916082
 31
0.0
  0
LINE
  5
112
330
2
100
AcDbEntity
  8
GAIKEI
  6
Continuous
 62
     1
100
AcDbLine
 10
53.55696102857587
 20
-5.157236022916207
 30
0.0
 11
53.55696102857587
 21
-4.732236022916082
 31
0.0
  0
LINE
  5
113
330
2
100
AcDbEntity
  8
GAIKEI
  6
Continuous
 62
     1
100
AcDbLine
 10
53.55696102857587
 20
-5.157236022916207
 30
0.0
 11
53.33196102857584
 21
-4.932236022916129
 31
0.0
  0
LINE
  5
114
330
2
100
AcDbEntity
  8
GAIKEI
  6
Continuous
 62
     1
100
AcDbLine
 10
53.33196102857584
 20
-4.932236022916129
 30
0.0
 11
53.33196102857584
 21
-4.732236022916082
 31
0.0
  0
LINE
  5
115
330
2
100
AcDbEntity
  8
GAIKEI
  6
DOT
 62
     1
100
AcDbLine
 10
53.55696102857587
 20
-4.307236022915958
 30
0.0
 11
53.33196102857584
 21
-4.532236022916038
 31
0.0
  0
LINE
  5
116
330
2
100
AcDbEntity
  8
GAIKEI
  6
DOT
 62
     1
100
AcDbLine
 10
53.33196102857584
 20
-4.532236022916038
 30
0.0
 11
53.33196102857584
 21
-4.732236022916082
 31
0.0
  0
LINE
  5
117
330
2
100
AcDbEntity
  8
GAIKEI
  6
Continuous
 62
     1
100
AcDbLine
 10
53.10946102857577
 20
-5.282236022916207
 30
0.0
 11
53.03446102857571
 21
-5.282236022916207
 31
0.0
  0
ARC
  5
118
330
2
100
AcDbEntity
  8
GAIKEI
  6
Continuous
 62
     1
100
AcDbCircle
 10
53.10946102857577
 20
-4.232236022915969
 30
0.0
 40
0.0500000000000114
100
AcDbArc
 50
0.0
 51
90.0
  0
LINE
  5
119
330
2
100
AcDbEntity
  8
GAIKEI
  6
Continuous
 62
     1
100
AcDbLine
 10
53.10946102857577
 20
-4.182236022915958
 30
0.0
 11
53.03446102857571
 21
-4.182236022915958
 31
0.0
  0
LINE
  5
11A
330
2
100
AcDbEntity
  8
GAIKEI
  6
Continuous
 62
     1
100
AcDbLine
 10
52.98446102857575
 20
-5.232236022916197
 30
0.0
 11
52.98446102857575
 21
-4.232236022915969
 31
0.0
  0
ARC
  5
11B
330
2
100
AcDbEntity
  8
GAIKEI
  6
Continuous
 62
     1
100
AcDbCircle
 10
53.03446102857571
 20
-5.232236022916197
 30
0.0
 40
0.0500000000000114
100
AcDbArc
 50
180.0
 51
270.0
  0
ARC
  5
11C
330
2
100
AcDbEntity
  8
GAIKEI
  6
Continuous
 62
     1
100
AcDbCircle
 10
53.03446102857571
 20
-4.232236022915969
 30
0.0
 40
0.0500000000000114
100
AcDbArc
 50
90.0
 51
180.0
  0
LINE
  5
11D
330
2
100
AcDbEntity
  8
S1
  6
HIDDEN2
100
AcDbLine
 10
44.54217258428649
 20
12.72344727008879
 30
0.0
 11
43.57442538871612
 21
12.38663141590683
 31
0.0
  0
LINE
  5
120
330
2
100
AcDbEntity
  8
S1
  6
HIDDEN2
100
AcDbLine
 10
44.16835910604709
 20
13.175704327537
 30
0.0
 11
44.52993110470321
 21
12.13682719823418
 31
0.0
  0
LINE
  5
121
330
2
100
AcDbEntity
  8
S1
  6
HIDDEN2
100
AcDbLine
 10
44.14336076451752
 20
12.37287723972724
 30
0.0
 11
43.81517003503325
 21
12.25865335833361
 31
0.0
  0
LINE
  5
122
330
2
100
AcDbEntity
  8
S1
  6
HIDDEN2
100
AcDbLine
 10
44.48884337758328
 20
12.25488141747314
 30
0.0
 11
44.42981626796369
 21
12.23433755391312
 31
0.0
  0
LINE
  5
123
330
2
100
AcDbEntity
  8
S1
  6
HIDDEN2
100
AcDbLine
 10
44.02153366908783
 20
12.19812195706265
 30
0.0
 11
44.07905648705592
 21
12.03284605012811
 31
0.0
  0
LINE
  5
124
330
2
100
AcDbEntity
  8
S1
  6
HIDDEN2
100
AcDbLine
 10
44.4991445078557
 20
12.07317041969059
 30
0.0
 11
44.30903485702708
 21
12.00700443675088
 31
0.0
  0
LINE
  5
125
330
2
100
AcDbEntity
  8
S1
  6
HIDDEN2
100
AcDbLine
 10
44.12542138201809
 20
12.23427915692826
 30
0.0
 11
44.02153366908783
 21
12.19812195706265
 31
0.0
  0
LINE
  5
126
330
2
100
AcDbEntity
  8
S1
  6
HIDDEN2
100
AcDbLine
 10
44.12542138201809
 20
12.23427915692826
 30
0.0
 11
44.15829156371422
 21
12.1398357815371
 31
0.0
  0
LINE
  5
127
330
2
100
AcDbEntity
  8
S1
  6
HIDDEN2
100
AcDbLine
 10
44.15867555300735
 20
12.13936483053623
 30
0.0
 11
44.2538470537969
 21
12.02263143943167
 31
0.0
  0
ARC
  5
128
330
2
100
AcDbEntity
  8
S1
  6
HIDDEN2
100
AcDbCircle
 10
44.48270941700763
 20
12.12039210738618
 30
0.0
 40
0.0500000000000135
100
AcDbArc
 50
289.1899999999953
 51
19.18999999999532
  0
ARC
  5
129
330
2
100
AcDbEntity
  8
S1
  6
HIDDEN2
100
AcDbCircle
 10
44.29259976617903
 20
12.05422612444647
 30
0.0
 40
0.0500000000000135
100
AcDbArc
 50
219.1899999999942
 51
289.1899999999953
  0
ARC
  5
12A
330
2
100
AcDbEntity
  8
S1
  6
HIDDEN2
100
AcDbCircle
 10
44.03183479936035
 20
12.0164109592801
 30
0.0
 40
0.0500000000000135
100
AcDbArc
 50
289.1899999999953
 51
19.18999999999532
  0
LINE
  5
12B
330
2
100
AcDbEntity
  8
S1
  6
HIDDEN2
100
AcDbLine
 10
44.01020206228293
 20
12.7500667367737
 30
0.0
 11
43.6836893082492
 21
12.63642685989827
 31
0.0
  0
LINE
  5
12C
330
2
100
AcDbEntity
  8
S1
  6
HIDDEN2
100
AcDbLine
 10
44.20944683316713
 20
13.05765010829804
 30
0.0
 11
44.15041972354766
 21
13.03710624473802
 31
0.0
  0
LINE
  5
12D
330
2
100
AcDbEntity
  8
S1
  6
HIDDEN2
100
AcDbLine
 10
43.91470557857576
 20
12.50506292708394
 30
0.0
 11
43.75035467009581
 21
12.97727980403976
 31
0.0
  0
LINE
  5
12E
330
2
100
AcDbEntity
  8
S1
  6
HIDDEN2
100
AcDbLine
 10
44.10470232750355
 20
13.20649092438458
 30
0.0
 11
43.91459267667493
 21
13.14032494144487
 31
0.0
  0
LINE
  5
12F
330
2
100
AcDbEntity
  8
S1
  6
HIDDEN2
100
AcDbLine
 10
43.91176520099405
 20
12.84816109697084
 30
0.0
 11
43.80787748806381
 21
12.81200389710522
 31
0.0
  0
LINE
  5
130
330
2
100
AcDbEntity
  8
S1
  6
HIDDEN2
100
AcDbLine
 10
44.01859329150613
 20
12.54122012694955
 30
0.0
 11
43.87889501929804
 21
12.942604472362
 31
0.0
  0
LINE
  5
131
330
2
100
AcDbEntity
  8
S1
  6
HIDDEN2
100
AcDbLine
 10
43.87890363111624
 20
12.94321206470817
 30
0.0
 11
43.88103279559709
 21
13.0938100919858
 31
0.0
  0
ARC
  5
132
330
2
100
AcDbEntity
  8
S1
  6
HIDDEN2
100
AcDbCircle
 10
44.12113741835151
 20
13.15926923668899
 30
0.0
 40
0.0500000000000135
100
AcDbArc
 50
19.18999999999532
 51
109.1899999999953
  0
ARC
  5
133
330
2
100
AcDbEntity
  8
S1
  6
HIDDEN2
100
AcDbCircle
 10
43.931027767523
 20
13.09310325374929
 30
0.0
 40
0.0500000000000135
100
AcDbArc
 50
109.1899999999953
 51
179.1899999999819
  0
LINE
  5
134
330
2
100
AcDbEntity
  8
S1
  6
HIDDEN2
100
AcDbLine
 10
44.15041972354766
 20
13.03710624473802
 30
0.0
 11
44.29011799575561
 21
12.63572189932557
 31
0.0
  0
LINE
  5
135
330
2
100
AcDbEntity
  8
S1
  6
HIDDEN2
100
AcDbLine
 10
43.88622915892177
 20
13.11530869258354
 30
0.0
 11
44.07874881057478
 21
12.56215672344046
 31
0.0
  0
LINE
  5
136
330
2
100
AcDbEntity
  8
S1
  6
HIDDEN2
100
AcDbLine
 10
44.42981626796369
 20
12.23433755391312
 30
0.0
 11
44.29011799575561
 21
12.63572189932557
 31
0.0
  0
LINE
  5
137
330
2
100
AcDbEntity
  8
S1
  6
HIDDEN2
100
AcDbLine
 10
44.42981626796369
 20
12.23433755391312
 30
0.0
 11
44.14336076451752
 21
12.37287723972724
 31
0.0
  0
LINE
  5
138
330
2
100
AcDbEntity
  8
S1
  6
HIDDEN2
100
AcDbLine
 10
44.14336076451752
 20
12.37287723972724
 30
0.0
 11
44.0776204011255
 21
12.56176399050957
 31
0.0
  0
LINE
  5
139
330
2
100
AcDbEntity
  8
S1
  6
HIDDEN2
100
AcDbLine
 10
44.15041972354766
 20
13.03710624473802
 30
0.0
 11
44.01188003773348
 21
12.7506507412919
 31
0.0
  0
LINE
  5
13A
330
2
100
AcDbEntity
  8
S1
  6
HIDDEN2
100
AcDbLine
 10
44.01188003773348
 20
12.7506507412919
 30
0.0
 11
44.0776204011255
 21
12.56176399050957
 31
0.0
  0
LINE
  5
13B
330
2
100
AcDbEntity
  8
S1
  6
HIDDEN2
100
AcDbLine
 10
44.0482698902083
 20
11.96918927158452
 30
0.0
 11
43.97743735866493
 21
11.94453663531248
 31
0.0
  0
ARC
  5
13C
330
2
100
AcDbEntity
  8
S1
  6
HIDDEN2
100
AcDbCircle
 10
43.70313298240023
 20
12.96084471319176
 30
0.0
 40
0.0500000000000135
100
AcDbArc
 50
19.18999999999532
 51
109.1899999999953
  0
LINE
  5
13D
330
2
100
AcDbEntity
  8
S1
  6
HIDDEN2
100
AcDbLine
 10
43.68669789155217
 20
13.00806640088734
 30
0.0
 11
43.61586536000879
 21
12.9834137646153
 31
0.0
  0
LINE
  5
13E
330
2
100
AcDbEntity
  8
S1
  6
HIDDEN2
100
AcDbLine
 10
43.91378058012139
 20
11.97532323216012
 30
0.0
 11
43.58507876316127
 21
12.91975698607177
 31
0.0
  0
ARC
  5
13F
330
2
100
AcDbEntity
  8
S1
  6
HIDDEN2
100
AcDbCircle
 10
43.96100226781697
 20
11.99175832300807
 30
0.0
 40
0.0500000000000135
100
AcDbArc
 50
199.1899999999953
 51
289.1899999999953
  0
ARC
  5
140
330
2
100
AcDbEntity
  8
S1
  6
HIDDEN2
100
AcDbCircle
 10
43.63230045085686
 20
12.93619207691972
 30
0.0
 40
0.0500000000000135
100
AcDbArc
 50
109.1899999999953
 51
199.1899999999953
  0
LINE
  5
141
330
2
100
AcDbEntity
  8
S1
  6
HIDDEN2
100
AcDbLine
 10
51.11620890705318
 20
-6.165227760916991
 30
0.0
 11
50.14846171148292
 21
-6.502043615098955
 31
0.0
  0
LINE
  5
142
330
2
100
AcDbEntity
  8
S1
  6
HIDDEN2
100
AcDbLine
 10
50.7423954288139
 20
-5.712970703468839
 30
0.0
 11
51.10396742747004
 21
-6.751847832771659
 31
0.0
  0
LINE
  5
143
330
2
100
AcDbEntity
  8
S1
  6
HIDDEN2
100
AcDbLine
 10
50.71739708728443
 20
-6.515797791278599
 30
0.0
 11
50.38920635780016
 21
-6.630021672672227
 31
0.0
  0
LINE
  5
144
330
2
100
AcDbEntity
  8
S1
  6
HIDDEN2
100
AcDbLine
 10
51.06287970034998
 20
-6.633793613532701
 30
0.0
 11
51.0038525907306
 21
-6.654337477092667
 31
0.0
  0
LINE
  5
145
330
2
100
AcDbEntity
  8
S1
  6
HIDDEN2
100
AcDbLine
 10
50.59556999185463
 20
-6.690553073943193
 30
0.0
 11
50.65309280982262
 21
-6.855828980877731
 31
0.0
  0
LINE
  5
146
330
2
100
AcDbEntity
  8
S1
  6
HIDDEN2
100
AcDbLine
 10
51.07318083062239
 20
-6.815504611315192
 30
0.0
 11
50.8830711797939
 21
-6.881670594254956
 31
0.0
  0
LINE
  5
147
330
2
100
AcDbEntity
  8
S1
  6
HIDDEN2
100
AcDbLine
 10
50.69945770478501
 20
-6.654395874077522
 30
0.0
 11
50.59556999185463
 21
-6.690553073943193
 31
0.0
  0
LINE
  5
148
330
2
100
AcDbEntity
  8
S1
  6
HIDDEN2
100
AcDbLine
 10
50.69945770478501
 20
-6.654395874077522
 30
0.0
 11
50.73232788648089
 21
-6.748839249468687
 31
0.0
  0
LINE
  5
149
330
2
100
AcDbEntity
  8
S1
  6
HIDDEN2
100
AcDbLine
 10
50.73271187577427
 20
-6.74931020046955
 30
0.0
 11
50.82788337656371
 21
-6.86604359157411
 31
0.0
  0
ARC
  5
14A
330
2
100
AcDbEntity
  8
S1
  6
HIDDEN2
100
AcDbCircle
 10
51.05674573977443
 20
-6.768282923619607
 30
0.0
 40
0.0500000000000135
100
AcDbArc
 50
289.1899999999953
 51
19.18999999999532
  0
ARC
  5
14B
330
2
100
AcDbEntity
  8
S1
  6
HIDDEN2
100
AcDbCircle
 10
50.86663608894594
 20
-6.834448906559371
 30
0.0
 40
0.0500000000000135
100
AcDbArc
 50
219.1899999999942
 51
289.1899999999953
  0
ARC
  5
14C
330
2
100
AcDbEntity
  8
S1
  6
HIDDEN2
100
AcDbCircle
 10
50.60587112212703
 20
-6.872264071725679
 30
0.0
 40
0.0500000000000135
100
AcDbArc
 50
289.1899999999953
 51
19.18999999999532
  0
LINE
  5
14D
330
2
100
AcDbEntity
  8
S1
  6
HIDDEN2
100
AcDbLine
 10
50.58423838504984
 20
-6.138608294232084
 30
0.0
 11
50.25772563101611
 21
-6.252248171107567
 31
0.0
  0
LINE
  5
14E
330
2
100
AcDbEntity
  8
S1
  6
HIDDEN2
100
AcDbLine
 10
50.78348315593394
 20
-5.831024922707797
 30
0.0
 11
50.72445604631446
 21
-5.851568786267762
 31
0.0
  0
LINE
  5
14F
330
2
100
AcDbEntity
  8
S1
  6
HIDDEN2
100
AcDbLine
 10
50.48874190134267
 20
-6.383612103921906
 30
0.0
 11
50.3243909928625
 21
-5.911395226966076
 31
0.0
  0
LINE
  5
150
330
2
100
AcDbEntity
  8
S1
  6
HIDDEN2
100
AcDbLine
 10
50.67873865027024
 20
-5.682184106621207
 30
0.0
 11
50.48862899944174
 21
-5.748350089560972
 31
0.0
  0
LINE
  5
151
330
2
100
AcDbEntity
  8
S1
  6
HIDDEN2
100
AcDbLine
 10
50.48580152376087
 20
-6.040513934034946
 30
0.0
 11
50.38191381083061
 21
-6.076671133900616
 31
0.0
  0
LINE
  5
152
330
2
100
AcDbEntity
  8
S1
  6
HIDDEN2
100
AcDbLine
 10
50.59262961427283
 20
-6.347454904056235
 30
0.0
 11
50.45293134206485
 21
-5.946070558643782
 31
0.0
  0
LINE
  5
153
330
2
100
AcDbEntity
  8
S1
  6
HIDDEN2
100
AcDbLine
 10
50.45293995388317
 20
-5.945462966297668
 30
0.0
 11
50.45506911836389
 21
-5.794864939020043
 31
0.0
  0
ARC
  5
154
330
2
100
AcDbEntity
  8
S1
  6
HIDDEN2
100
AcDbCircle
 10
50.69517374111832
 20
-5.729405794316789
 30
0.0
 40
0.0500000000000135
100
AcDbArc
 50
19.18999999999532
 51
109.1899999999953
  0
ARC
  5
155
330
2
100
AcDbEntity
  8
S1
  6
HIDDEN2
100
AcDbCircle
 10
50.50506409028969
 20
-5.795571777256553
 30
0.0
 40
0.0500000000000135
100
AcDbArc
 50
109.1899999999953
 51
179.1899999999819
  0
LINE
  5
156
330
2
100
AcDbEntity
  8
S1
  6
HIDDEN2
100
AcDbLine
 10
50.72445604631446
 20
-5.851568786267762
 30
0.0
 11
50.86415431852254
 21
-6.252953131680214
 31
0.0
  0
LINE
  5
157
330
2
100
AcDbEntity
  8
S1
  6
HIDDEN2
100
AcDbLine
 10
50.46026548168857
 20
-5.773366338422249
 30
0.0
 11
50.65278513334158
 21
-6.326518307565379
 31
0.0
  0
LINE
  5
158
330
2
100
AcDbEntity
  8
S1
  6
HIDDEN2
100
AcDbLine
 10
51.0038525907306
 20
-6.654337477092667
 30
0.0
 11
50.86415431852254
 21
-6.252953131680214
 31
0.0
  0
LINE
  5
159
330
2
100
AcDbEntity
  8
S1
  6
HIDDEN2
100
AcDbLine
 10
51.0038525907306
 20
-6.654337477092667
 30
0.0
 11
50.71739708728443
 21
-6.515797791278599
 31
0.0
  0
LINE
  5
15A
330
2
100
AcDbEntity
  8
S1
  6
HIDDEN2
100
AcDbLine
 10
50.71739708728443
 20
-6.515797791278599
 30
0.0
 11
50.6516567238924
 21
-6.326911040496269
 31
0.0
  0
LINE
  5
15B
330
2
100
AcDbEntity
  8
S1
  6
HIDDEN2
100
AcDbLine
 10
50.72445604631446
 20
-5.851568786267762
 30
0.0
 11
50.58591636050039
 21
-6.138024289713937
 31
0.0
  0
LINE
  5
15C
330
2
100
AcDbEntity
  8
S1
  6
HIDDEN2
100
AcDbLine
 10
50.58591636050039
 20
-6.138024289713937
 30
0.0
 11
50.6516567238924
 21
-6.326911040496269
 31
0.0
  0
LINE
  5
15D
330
2
100
AcDbEntity
  8
S1
  6
HIDDEN2
100
AcDbLine
 10
50.6223062129751
 20
-6.919485759421262
 30
0.0
 11
50.55147368143172
 21
-6.9441383956933
 31
0.0
  0
ARC
  5
15E
330
2
100
AcDbEntity
  8
S1
  6
HIDDEN2
100
AcDbCircle
 10
50.27716930516692
 20
-5.927830317814026
 30
0.0
 40
0.0500000000000135
100
AcDbArc
 50
19.18999999999532
 51
109.1899999999953
  0
LINE
  5
15F
330
2
100
AcDbEntity
  8
S1
  6
HIDDEN2
100
AcDbLine
 10
50.26073421431897
 20
-5.880608630118445
 30
0.0
 11
50.18990168277561
 21
-5.905261266390482
 31
0.0
  0
LINE
  5
160
330
2
100
AcDbEntity
  8
S1
  6
HIDDEN2
100
AcDbLine
 10
50.4878169028881
 20
-6.913351798845724
 30
0.0
 11
50.15911508592797
 21
-5.968918044934071
 31
0.0
  0
ARC
  5
161
330
2
100
AcDbEntity
  8
S1
  6
HIDDEN2
100
AcDbCircle
 10
50.53503859058366
 20
-6.896916707997718
 30
0.0
 40
0.0500000000000135
100
AcDbArc
 50
199.1899999999953
 51
289.1899999999953
  0
ARC
  5
162
330
2
100
AcDbEntity
  8
S1
  6
HIDDEN2
100
AcDbCircle
 10
50.20633677362354
 20
-5.952482954086065
 30
0.0
 40
0.0500000000000135
100
AcDbArc
 50
109.1899999999953
 51
199.1899999999953
  0
LINE
  5
163
330
2
100
AcDbEntity
  8
S1
  6
HIDDEN2
100
AcDbLine
 10
10.2756344104589
 20
17.16776382708388
 30
0.0
 11
10.2756344104589
 21
-13.95723617291611
 31
0.0
  0
LINE
  5
164
330
2
100
AcDbEntity
  8
S1
  6
HIDDEN2
100
AcDbLine
 10
6.800634510458905
 20
17.16776382708388
 30
0.0
 11
6.800634510458905
 21
-13.95723617291611
 31
0.0
  0
LINE
  5
165
330
2
100
AcDbEntity
  8
S1
  6
HIDDEN2
100
AcDbLine
 10
6.900634410458906
 20
17.16776382708388
 30
0.0
 11
6.900634410458906
 21
16.96776402708388
 31
0.0
  0
LINE
  5
166
330
2
100
AcDbEntity
  8
S1
  6
HIDDEN2
100
AcDbLine
 10
6.925634310458917
 20
17.16776382708388
 30
0.0
 11
10.15063431045894
 21
17.16776382708388
 31
0.0
  0
LINE
  5
167
330
2
100
AcDbEntity
  8
S1
  6
HIDDEN2
100
AcDbLine
 10
6.475634310458928
 20
2.592763927083864
 30
0.0
 11
6.475634310458928
 21
1.992763927083899
 31
0.0
  0
LINE
  5
168
330
2
100
AcDbEntity
  8
S1
  6
HIDDEN2
100
AcDbLine
 10
6.475634310458928
 20
2.592763927083864
 30
0.0
 11
6.800634510458905
 21
2.592763927083864
 31
0.0
  0
LINE
  5
169
330
2
100
AcDbEntity
  8
S1
  6
HIDDEN2
100
AcDbLine
 10
6.475634310458928
 20
1.992763927083899
 30
0.0
 11
6.800634510458905
 21
1.992763927083899
 31
0.0
  0
ARC
  5
16A
330
2
100
AcDbEntity
  8
S1
  6
HIDDEN2
100
AcDbCircle
 10
6.900634410458906
 20
2.292763927083909
 30
0.0
 40
0.4250001000000001
100
AcDbArc
 50
135.0991279999997
 51
225.0594529999979
  0
LINE
  5
16B
330
2
100
AcDbEntity
  8
S1
  6
HIDDEN2
100
AcDbLine
 10
6.475634310458928
 20
-13.15723607291613
 30
0.0
 11
6.475634310458928
 21
-13.7572360729161
 31
0.0
  0
LINE
  5
16C
330
2
100
AcDbEntity
  8
S1
  6
HIDDEN2
100
AcDbLine
 10
6.475634310458928
 20
-13.15723607291613
 30
0.0
 11
6.800634510458905
 21
-13.15723607291613
 31
0.0
  0
LINE
  5
16D
330
2
100
AcDbEntity
  8
S1
  6
HIDDEN2
100
AcDbLine
 10
6.475634310458928
 20
-13.7572360729161
 30
0.0
 11
6.800634510458905
 21
-13.7572360729161
 31
0.0
  0
ARC
  5
16E
330
2
100
AcDbEntity
  8
S1
  6
HIDDEN2
100
AcDbCircle
 10
6.900634410458906
 20
-13.45723607291609
 30
0.0
 40
0.4250001000000001
100
AcDbArc
 50
135.0991279999997
 51
225.0594529999979
  0
LINE
  5
16F
330
2
100
AcDbEntity
  8
S1
  6
HIDDEN2
100
AcDbLine
 10
8.575634310458951
 20
-5.05723607291611
 30
0.0
 11
8.500634310458963
 21
-5.05723607291611
 31
0.0
  0
ARC
  5
170
330
2
100
AcDbEntity
  8
S1
  6
HIDDEN2
100
AcDbCircle
 10
8.575634310458951
 20
-4.732236172916088
 30
0.0
 40
0.3249999000000001
100
AcDbArc
 50
270.0
 51
0.0
  0
ARC
  5
171
330
2
100
AcDbEntity
  8
S1
  6
HIDDEN2
100
AcDbCircle
 10
8.500634310458963
 20
-4.732236172916088
 30
0.0
 40
0.3249999000000001
100
AcDbArc
 50
180.0
 51
270.0
  0
LINE
  5
172
330
2
100
AcDbEntity
  8
S1
  6
HIDDEN2
100
AcDbLine
 10
8.17563441045894
 20
-4.732236172916088
 30
0.0
 11
8.17563441045894
 21
-4.489148872916074
 31
0.0
  0
LINE
  5
173
330
2
100
AcDbEntity
  8
S1
  6
HIDDEN2
100
AcDbLine
 10
8.900634510458926
 20
-4.732236172916088
 30
0.0
 11
8.900634510458926
 21
-4.489148872916074
 31
0.0
  0
ARC
  5
174
330
2
100
AcDbEntity
  8
S1
  6
HIDDEN2
100
AcDbCircle
 10
8.538134310458929
 20
-3.457236172916111
 30
0.0
 40
0.9500001000000001
100
AcDbArc
 50
186.0339229999991
 51
239.3084119999995
  0
ARC
  5
175
330
2
100
AcDbEntity
  8
S1
  6
HIDDEN2
100
AcDbCircle
 10
7.925634510458905
 20
-4.489148872916074
 30
0.0
 40
0.2499999
100
AcDbArc
 50
0.0
 51
59.30841199999953
  0
ARC
  5
176
330
2
100
AcDbEntity
  8
S1
  6
HIDDEN2
100
AcDbCircle
 10
9.150634410458906
 20
-4.489148872916074
 30
0.0
 40
0.2499999
100
AcDbArc
 50
120.6915880000004
 51
180.0
  0
ARC
  5
177
330
2
100
AcDbEntity
  8
S1
  6
HIDDEN2
100
AcDbCircle
 10
7.588134510458926
 20
-3.457236172916111
 30
0.0
 40
0.0999999
100
AcDbArc
 50
86.98303900000192
 51
273.016960999998
  0
ARC
  5
178
330
2
100
AcDbEntity
  8
S1
  6
HIDDEN2
100
AcDbCircle
 10
9.488134410458938
 20
-3.457236172916111
 30
0.0
 40
0.0999999
100
AcDbArc
 50
266.9830390000019
 51
93.01696099999807
  0
ARC
  5
179
330
2
100
AcDbEntity
  8
S1
  6
HIDDEN2
100
AcDbCircle
 10
8.538134310458929
 20
-3.457236172916111
 30
0.0
 40
0.9500001000000001
100
AcDbArc
 50
6.033922999999131
 51
173.9660770000008
  0
ARC
  5
17A
330
2
100
AcDbEntity
  8
S1
  6
HIDDEN2
100
AcDbCircle
 10
8.538134310458929
 20
-3.457236172916111
 30
0.0
 40
0.9500001000000001
100
AcDbArc
 50
300.6915880000004
 51
353.9660770000009
  0
LINE
  5
17B
330
2
100
AcDbEntity
  8
S1
  6
HIDDEN2
100
AcDbLine
 10
6.900634410458906
 20
17.16776382708388
 30
0.0
 11
6.800634510458905
 21
17.16776382708388
 31
0.0
  0
LINE
  5
17C
330
2
100
AcDbEntity
  8
S1
  6
HIDDEN2
100
AcDbLine
 10
10.15063431045894
 20
-14.08223597291612
 30
0.0
 11
6.925634310458917
 21
-14.08223597291612
 31
0.0
  0
LINE
  5
17D
330
2
100
AcDbEntity
  8
S1
  6
HIDDEN2
100
AcDbLine
 10
6.925634310458917
 20
-13.95723617291611
 30
0.0
 11
6.800634510458905
 21
-13.95723617291611
 31
0.0
  0
LINE
  5
17E
330
2
100
AcDbEntity
  8
S1
  6
HIDDEN2
100
AcDbLine
 10
10.15063431045894
 20
-13.95723617291611
 30
0.0
 11
10.2756344104589
 21
-13.95723617291611
 31
0.0
  0
LINE
  5
17F
330
2
100
AcDbEntity
  8
S1
  6
HIDDEN2
100
AcDbLine
 10
6.925634310458917
 20
-14.08223597291612
 30
0.0
 11
6.925634310458917
 21
-13.95723617291611
 31
0.0
  0
LINE
  5
180
330
2
100
AcDbEntity
  8
S1
  6
HIDDEN2
100
AcDbLine
 10
10.15063431045894
 20
-14.08223597291612
 30
0.0
 11
10.15063431045894
 21
-13.95723617291611
 31
0.0
  0
LINE
  5
181
330
2
100
AcDbEntity
  8
S1
  6
HIDDEN2
100
AcDbLine
 10
8.538134310458929
 20
12.7677640270839
 30
0.0
 11
9.788134410458953
 21
11.76776382708391
 31
0.0
  0
LINE
  5
182
330
2
100
AcDbEntity
  8
S1
  6
HIDDEN2
100
AcDbLine
 10
9.788134410458953
 20
11.76776382708391
 30
0.0
 11
9.288134310458927
 21
11.76776382708391
 31
0.0
  0
LINE
  5
183
330
2
100
AcDbEntity
  8
S1
  6
HIDDEN2
100
AcDbLine
 10
9.288134310458927
 20
11.76776382708391
 30
0.0
 11
9.288134310458927
 21
10.76776392708393
 31
0.0
  0
LINE
  5
184
330
2
100
AcDbEntity
  8
S1
  6
HIDDEN2
100
AcDbLine
 10
9.288134310458927
 20
10.76776392708393
 30
0.0
 11
7.788134310458928
 21
10.76776392708393
 31
0.0
  0
LINE
  5
185
330
2
100
AcDbEntity
  8
S1
  6
HIDDEN2
100
AcDbLine
 10
7.788134310458928
 20
10.76776392708393
 30
0.0
 11
7.788134310458928
 21
11.76776382708391
 31
0.0
  0
LINE
  5
186
330
2
100
AcDbEntity
  8
S1
  6
HIDDEN2
100
AcDbLine
 10
7.788134310458928
 20
11.76776382708391
 30
0.0
 11
7.288134510458917
 21
11.76776382708391
 31
0.0
  0
LINE
  5
187
330
2
100
AcDbEntity
  8
S1
  6
HIDDEN2
100
AcDbLine
 10
7.288134510458917
 20
11.76776382708391
 30
0.0
 11
8.538134310458929
 21
12.7677640270839
 31
0.0
  0
LINE
  5
188
330
2
100
AcDbEntity
  8
S1
  6
HIDDEN2
100
AcDbLine
 10
8.575634310458951
 20
14.94276402708391
 30
0.0
 11
8.500634310458963
 21
14.94276402708391
 31
0.0
  0
ARC
  5
189
330
2
100
AcDbEntity
  8
S1
  6
HIDDEN2
100
AcDbCircle
 10
8.500634310458963
 20
15.26776392708393
 30
0.0
 40
0.3249999000000001
100
AcDbArc
 50
180.0
 51
270.0
  0
LINE
  5
18A
330
2
100
AcDbEntity
  8
S1
  6
HIDDEN2
100
AcDbLine
 10
8.17563441045894
 20
15.26776392708393
 30
0.0
 11
8.17563441045894
 21
16.17447852708392
 31
0.0
  0
POINT
  5
18B
330
2
100
AcDbEntity
  8
S1
  6
HIDDEN2
100
AcDbPoint
 10
8.17563441045894
 20
16.41776382708388
 30
0.0
  0
LINE
  5
18C
330
2
100
AcDbEntity
  8
S1
  6
HIDDEN2
100
AcDbLine
 10
7.53813441045895
 20
17.06776392708388
 30
0.0
 11
9.538134510458917
 21
17.06776392708388
 31
0.0
  0
LINE
  5
18D
330
2
100
AcDbEntity
  8
S1
  6
HIDDEN2
100
AcDbLine
 10
7.53813441045895
 20
16.99074942708387
 30
0.0
 11
7.53813441045895
 21
17.16776382708388
 31
0.0
  0
POINT
  5
18E
330
2
100
AcDbEntity
  8
S1
  6
HIDDEN2
100
AcDbPoint
 10
7.53813441045895
 20
16.91776392708391
 30
0.0
  0
LINE
  5
18F
330
2
100
AcDbEntity
  8
S1
  6
HIDDEN2
100
AcDbLine
 10
7.595563410458907
 20
16.87272162708393
 30
0.0
 11
7.984204410458914
 21
16.56790512708391
 31
0.0
  0
ARC
  5
190
330
2
100
AcDbEntity
  8
S1
  6
HIDDEN2
100
AcDbCircle
 10
7.688134410458927
 20
16.99074942708387
 30
0.0
 40
0.15
100
AcDbArc
 50
180.0
 51
231.8924229999999
  0
ARC
  5
191
330
2
100
AcDbEntity
  8
S1
  6
HIDDEN2
100
AcDbCircle
 10
7.675634310458917
 20
16.17447852708392
 30
0.0
 40
0.5000001000000001
100
AcDbArc
 50
0.0
 51
51.89242299999995
  0
LINE
  5
192
330
2
100
AcDbEntity
  8
S1
  6
HIDDEN2
100
AcDbLine
 10
6.800634510458905
 20
16.96776402708388
 30
0.0
 11
6.925634310458917
 21
16.96776402708388
 31
0.0
  0
ARC
  5
193
330
2
100
AcDbEntity
  8
S1
  6
HIDDEN2
100
AcDbCircle
 10
6.925634310458917
 20
17.06776392708388
 30
0.0
 40
0.0999999
100
AcDbArc
 50
270.0
 51
0.0
  0
LINE
  5
194
330
2
100
AcDbEntity
  8
S1
  6
HIDDEN2
100
AcDbLine
 10
7.025634510458926
 20
17.06776392708388
 30
0.0
 11
7.025634510458926
 21
17.16776382708388
 31
0.0
  0
LINE
  5
195
330
2
100
AcDbEntity
  8
S1
  6
HIDDEN2
100
AcDbLine
 10
6.925634310458917
 20
17.06776392708388
 30
0.0
 11
7.025634510458926
 21
17.06776392708388
 31
0.0
  0
LINE
  5
196
330
2
100
AcDbEntity
  8
S1
  6
HIDDEN2
100
AcDbLine
 10
6.925634310458917
 20
17.16776382708388
 30
0.0
 11
6.925634310458917
 21
17.06776392708388
 31
0.0
  0
LINE
  5
197
330
2
100
AcDbEntity
  8
S1
  6
HIDDEN2
100
AcDbLine
 10
10.1756345104589
 20
17.16776382708388
 30
0.0
 11
10.1756345104589
 21
16.96776402708388
 31
0.0
  0
LINE
  5
198
330
2
100
AcDbEntity
  8
S1
  6
HIDDEN2
100
AcDbLine
 10
10.1756345104589
 20
17.16776382708388
 30
0.0
 11
10.2756344104589
 21
17.16776382708388
 31
0.0
  0
LINE
  5
199
330
2
100
AcDbEntity
  8
S1
  6
HIDDEN2
100
AcDbLine
 10
8.900634510458926
 20
15.26776392708393
 30
0.0
 11
8.900634510458926
 21
16.17447852708392
 31
0.0
  0
POINT
  5
19A
330
2
100
AcDbEntity
  8
S1
  6
HIDDEN2
100
AcDbPoint
 10
8.900634510458926
 20
16.41776382708388
 30
0.0
  0
LINE
  5
19B
330
2
100
AcDbEntity
  8
S1
  6
HIDDEN2
100
AcDbLine
 10
9.538134510458917
 20
16.99074942708387
 30
0.0
 11
9.538134510458917
 21
17.16776382708388
 31
0.0
  0
POINT
  5
19C
330
2
100
AcDbEntity
  8
S1
  6
HIDDEN2
100
AcDbPoint
 10
9.538134510458917
 20
16.91776392708391
 30
0.0
  0
LINE
  5
19D
330
2
100
AcDbEntity
  8
S1
  6
HIDDEN2
100
AcDbLine
 10
9.480705510458903
 20
16.87272162708393
 30
0.0
 11
9.092064510458953
 21
16.56790512708391
 31
0.0
  0
ARC
  5
19E
330
2
100
AcDbEntity
  8
S1
  6
HIDDEN2
100
AcDbCircle
 10
9.388134510458938
 20
16.99074942708387
 30
0.0
 40
0.15
100
AcDbArc
 50
308.107577
 51
0.0
  0
ARC
  5
19F
330
2
100
AcDbEntity
  8
S1
  6
HIDDEN2
100
AcDbCircle
 10
9.400634310458938
 20
16.17447852708392
 30
0.0
 40
0.5000001000000001
100
AcDbArc
 50
128.107577
 51
180.0
  0
LINE
  5
1A0
330
2
100
AcDbEntity
  8
S1
  6
HIDDEN2
100
AcDbLine
 10
10.2756344104589
 20
16.96776402708388
 30
0.0
 11
10.15063431045894
 21
16.96776402708388
 31
0.0
  0
ARC
  5
1A1
330
2
100
AcDbEntity
  8
S1
  6
HIDDEN2
100
AcDbCircle
 10
10.15063431045894
 20
17.06776392708388
 30
0.0
 40
0.0999999
100
AcDbArc
 50
180.0
 51
270.0
  0
LINE
  5
1A2
330
2
100
AcDbEntity
  8
S1
  6
HIDDEN2
100
AcDbLine
 10
10.05063441045894
 20
17.06776392708388
 30
0.0
 11
10.05063441045894
 21
17.16776382708388
 31
0.0
  0
LINE
  5
1A3
330
2
100
AcDbEntity
  8
S1
  6
HIDDEN2
100
AcDbLine
 10
10.15063431045894
 20
17.06776392708388
 30
0.0
 11
10.05063441045894
 21
17.06776392708388
 31
0.0
  0
LINE
  5
1A4
330
2
100
AcDbEntity
  8
S1
  6
HIDDEN2
100
AcDbLine
 10
10.15063431045894
 20
17.16776382708388
 30
0.0
 11
10.15063431045894
 21
17.06776392708388
 31
0.0
  0
LINE
  5
1A5
330
2
100
AcDbEntity
  8
S1
  6
HIDDEN2
100
AcDbLine
 10
10.1756345104589
 20
17.16776382708388
 30
0.0
 11
10.2756344104589
 21
17.16776382708388
 31
0.0
  0
ARC
  5
1A6
330
2
100
AcDbEntity
  8
S1
  6
HIDDEN2
100
AcDbCircle
 10
8.575634310458951
 20
15.26776392708393
 30
0.0
 40
0.3249999000000001
100
AcDbArc
 50
270.0
 51
0.0
  0
POINT
  5
1A7
330
2
100
AcDbEntity
  8
S1
  6
HIDDEN2
100
AcDbPoint
 10
8.538134310458929
 20
15.26776392708393
 30
0.0
  0
POINT
  5
1A8
330
2
100
AcDbEntity
  8
S1
  6
HIDDEN2
100
AcDbPoint
 10
10.27563441045896
 20
2.292763927083909
 30
0.0
  0
POINT
  5
1A9
330
2
100
AcDbEntity
  8
S1
  6
HIDDEN2
100
AcDbPoint
 10
6.475634310458928
 20
2.292763927083909
 30
0.0
  0
POINT
  5
1AA
330
2
100
AcDbEntity
  8
S1
  6
HIDDEN2
100
AcDbPoint
 10
10.27563441045896
 20
-13.45723607291609
 30
0.0
  0
POINT
  5
1AB
330
2
100
AcDbEntity
  8
S1
  6
HIDDEN2
100
AcDbPoint
 10
6.475634310458928
 20
-13.45723607291609
 30
0.0
  0
POINT
  5
1AC
330
2
100
AcDbEntity
  8
S1
  6
HIDDEN2
100
AcDbPoint
 10
6.800634510458962
 20
-13.45723607291609
 30
0.0
  0
POINT
  5
1AD
330
2
100
AcDbEntity
  8
S1
  6
HIDDEN2
100
AcDbPoint
 10
8.500634310458963
 20
-4.732236172916088
 30
0.0
  0
POINT
  5
1AE
330
2
100
AcDbEntity
  8
S1
  6
HIDDEN2
100
AcDbPoint
 10
8.17563441045894
 20
-4.732236172916088
 30
0.0
  0
POINT
  5
1AF
330
2
100
AcDbEntity
  8
S1
  6
HIDDEN2
100
AcDbPoint
 10
8.500634310458963
 20
-5.05723607291611
 30
0.0
  0
POINT
  5
1B0
330
2
100
AcDbEntity
  8
S1
  6
HIDDEN2
100
AcDbPoint
 10
8.575634310458951
 20
-4.732236172916088
 30
0.0
  0
POINT
  5
1B1
330
2
100
AcDbEntity
  8
S1
  6
HIDDEN2
100
AcDbPoint
 10
8.575634310458951
 20
-5.05723607291611
 30
0.0
  0
POINT
  5
1B2
330
2
100
AcDbEntity
  8
S1
  6
HIDDEN2
100
AcDbPoint
 10
8.900634210458918
 20
-4.732236172916088
 30
0.0
  0
POINT
  5
1B3
330
2
100
AcDbEntity
  8
S1
  6
HIDDEN2
100
AcDbPoint
 10
8.538134310458929
 20
-4.732236172916088
 30
0.0
  0
LINE
  5
1B4
330
2
100
AcDbEntity
  8
S1
  6
HIDDEN2
100
AcDbLine
 10
-46.95936548954108
 20
17.16776382708388
 30
0.0
 11
-46.95936548954108
 21
-13.95723617291611
 31
0.0
  0
LINE
  5
1B5
330
2
100
AcDbEntity
  8
S1
  6
HIDDEN2
100
AcDbLine
 10
-43.48436558954108
 20
17.16776382708388
 30
0.0
 11
-43.48436558954108
 21
-13.95723617291611
 31
0.0
  0
LINE
  5
1B6
330
2
100
AcDbEntity
  8
S1
  6
HIDDEN2
100
AcDbLine
 10
-43.58436548954109
 20
17.16776382708388
 30
0.0
 11
-43.58436548954109
 21
16.96776402708388
 31
0.0
  0
LINE
  5
1B7
330
2
100
AcDbEntity
  8
S1
  6
HIDDEN2
100
AcDbLine
 10
-43.60936568954103
 20
17.16776382708388
 30
0.0
 11
-46.83436568954107
 21
17.16776382708388
 31
0.0
  0
LINE
  5
1B8
330
2
100
AcDbEntity
  8
S1
  6
HIDDEN2
100
AcDbLine
 10
-43.15936568954106
 20
2.592763927083864
 30
0.0
 11
-43.15936568954106
 21
1.992763927083899
 31
0.0
  0
LINE
  5
1B9
330
2
100
AcDbEntity
  8
S1
  6
HIDDEN2
100
AcDbLine
 10
-43.15936568954106
 20
2.592763927083864
 30
0.0
 11
-43.48436558954108
 21
2.592763927083864
 31
0.0
  0
LINE
  5
1BA
330
2
100
AcDbEntity
  8
S1
  6
HIDDEN2
100
AcDbLine
 10
-43.15936568954106
 20
1.992763927083899
 30
0.0
 11
-43.48436558954108
 21
1.992763927083899
 31
0.0
  0
ARC
  5
1BB
330
2
100
AcDbEntity
  8
S1
  6
HIDDEN2
100
AcDbCircle
 10
-43.58436548954109
 20
2.292763927083909
 30
0.0
 40
0.4250001000000001
100
AcDbArc
 50
314.9405470000019
 51
44.90087200000024
  0
LINE
  5
1BC
330
2
100
AcDbEntity
  8
S1
  6
HIDDEN2
100
AcDbLine
 10
-43.15936568954106
 20
-13.15723607291613
 30
0.0
 11
-43.15936568954106
 21
-13.7572360729161
 31
0.0
  0
LINE
  5
1BD
330
2
100
AcDbEntity
  8
S1
  6
HIDDEN2
100
AcDbLine
 10
-43.15936568954106
 20
-13.15723607291613
 30
0.0
 11
-43.48436558954108
 21
-13.15723607291613
 31
0.0
  0
LINE
  5
1BE
330
2
100
AcDbEntity
  8
S1
  6
HIDDEN2
100
AcDbLine
 10
-43.15936568954106
 20
-13.7572360729161
 30
0.0
 11
-43.48436558954108
 21
-13.7572360729161
 31
0.0
  0
ARC
  5
1BF
330
2
100
AcDbEntity
  8
S1
  6
HIDDEN2
100
AcDbCircle
 10
-43.58436548954109
 20
-13.45723607291609
 30
0.0
 40
0.4250001000000001
100
AcDbArc
 50
314.9405470000019
 51
44.90087200000024
  0
LINE
  5
1C0
330
2
100
AcDbEntity
  8
S1
  6
HIDDEN2
100
AcDbLine
 10
-45.25936568954108
 20
-5.05723607291611
 30
0.0
 11
-45.18436568954109
 21
-5.05723607291611
 31
0.0
  0
ARC
  5
1C1
330
2
100
AcDbEntity
  8
S1
  6
HIDDEN2
100
AcDbCircle
 10
-45.25936568954108
 20
-4.732236172916088
 30
0.0
 40
0.3249999000000001
100
AcDbArc
 50
180.0
 51
270.0
  0
ARC
  5
1C2
330
2
100
AcDbEntity
  8
S1
  6
HIDDEN2
100
AcDbCircle
 10
-45.18436568954109
 20
-4.732236172916088
 30
0.0
 40
0.3249999000000001
100
AcDbArc
 50
270.0
 51
0.0
  0
LINE
  5
1C3
330
2
100
AcDbEntity
  8
S1
  6
HIDDEN2
100
AcDbLine
 10
-44.85936548954112
 20
-4.732236172916088
 30
0.0
 11
-44.85936548954112
 21
-4.489148872916074
 31
0.0
  0
LINE
  5
1C4
330
2
100
AcDbEntity
  8
S1
  6
HIDDEN2
100
AcDbLine
 10
-45.5843655895411
 20
-4.732236172916088
 30
0.0
 11
-45.5843655895411
 21
-4.489148872916074
 31
0.0
  0
ARC
  5
1C5
330
2
100
AcDbEntity
  8
S1
  6
HIDDEN2
100
AcDbCircle
 10
-45.22186568954106
 20
-3.457236172916111
 30
0.0
 40
0.9500001000000001
100
AcDbArc
 50
300.6915880000004
 51
353.9660770000009
  0
ARC
  5
1C6
330
2
100
AcDbEntity
  8
S1
  6
HIDDEN2
100
AcDbCircle
 10
-44.60936558954109
 20
-4.489148872916074
 30
0.0
 40
0.2499999
100
AcDbArc
 50
120.6915880000004
 51
180.0
  0
ARC
  5
1C7
330
2
100
AcDbEntity
  8
S1
  6
HIDDEN2
100
AcDbCircle
 10
-45.83436548954108
 20
-4.489148872916074
 30
0.0
 40
0.2499999
100
AcDbArc
 50
0.0
 51
59.30841199999953
  0
ARC
  5
1C8
330
2
100
AcDbEntity
  8
S1
  6
HIDDEN2
100
AcDbCircle
 10
-44.27186558954111
 20
-3.457236172916111
 30
0.0
 40
0.0999999
100
AcDbArc
 50
266.9830390000019
 51
93.01696099999807
  0
ARC
  5
1C9
330
2
100
AcDbEntity
  8
S1
  6
HIDDEN2
100
AcDbCircle
 10
-46.17186548954111
 20
-3.457236172916111
 30
0.0
 40
0.0999999
100
AcDbArc
 50
86.98303900000192
 51
273.016960999998
  0
ARC
  5
1CA
330
2
100
AcDbEntity
  8
S1
  6
HIDDEN2
100
AcDbCircle
 10
-45.22186568954106
 20
-3.457236172916111
 30
0.0
 40
0.9500001000000001
100
AcDbArc
 50
6.033922999999131
 51
173.9660770000008
  0
ARC
  5
1CB
330
2
100
AcDbEntity
  8
S1
  6
HIDDEN2
100
AcDbCircle
 10
-45.22186568954106
 20
-3.457236172916111
 30
0.0
 40
0.9500001000000001
100
AcDbArc
 50
186.0339229999991
 51
239.3084119999995
  0
LINE
  5
1CC
330
2
100
AcDbEntity
  8
S1
  6
HIDDEN2
100
AcDbLine
 10
-43.58436548954109
 20
17.16776382708388
 30
0.0
 11
-43.48436558954108
 21
17.16776382708388
 31
0.0
  0
LINE
  5
1CD
330
2
100
AcDbEntity
  8
S1
  6
HIDDEN2
100
AcDbLine
 10
-46.83436568954107
 20
-14.08223597291612
 30
0.0
 11
-43.60936568954103
 21
-14.08223597291612
 31
0.0
  0
LINE
  5
1CE
330
2
100
AcDbEntity
  8
S1
  6
HIDDEN2
100
AcDbLine
 10
-43.60936568954103
 20
-13.95723617291611
 30
0.0
 11
-43.48436558954108
 21
-13.95723617291611
 31
0.0
  0
LINE
  5
1CF
330
2
100
AcDbEntity
  8
S1
  6
HIDDEN2
100
AcDbLine
 10
-46.83436568954107
 20
-13.95723617291611
 30
0.0
 11
-46.95936548954108
 21
-13.95723617291611
 31
0.0
  0
LINE
  5
1D0
330
2
100
AcDbEntity
  8
S1
  6
HIDDEN2
100
AcDbLine
 10
-43.60936568954103
 20
-14.08223597291612
 30
0.0
 11
-43.60936568954103
 21
-13.95723617291611
 31
0.0
  0
LINE
  5
1D1
330
2
100
AcDbEntity
  8
S1
  6
HIDDEN2
100
AcDbLine
 10
-46.83436568954107
 20
-14.08223597291612
 30
0.0
 11
-46.83436568954107
 21
-13.95723617291611
 31
0.0
  0
LINE
  5
1D2
330
2
100
AcDbEntity
  8
S1
  6
HIDDEN2
100
AcDbLine
 10
-45.22186568954106
 20
12.7677640270839
 30
0.0
 11
-46.47186548954107
 21
11.76776382708391
 31
0.0
  0
LINE
  5
1D3
330
2
100
AcDbEntity
  8
S1
  6
HIDDEN2
100
AcDbLine
 10
-46.47186548954107
 20
11.76776382708391
 30
0.0
 11
-45.97186568954112
 21
11.76776382708391
 31
0.0
  0
LINE
  5
1D4
330
2
100
AcDbEntity
  8
S1
  6
HIDDEN2
100
AcDbLine
 10
-45.97186568954112
 20
11.76776382708391
 30
0.0
 11
-45.97186568954112
 21
10.76776392708393
 31
0.0
  0
LINE
  5
1D5
330
2
100
AcDbEntity
  8
S1
  6
HIDDEN2
100
AcDbLine
 10
-45.97186568954112
 20
10.76776392708393
 30
0.0
 11
-44.47186568954106
 21
10.76776392708393
 31
0.0
  0
LINE
  5
1D6
330
2
100
AcDbEntity
  8
S1
  6
HIDDEN2
100
AcDbLine
 10
-44.47186568954106
 20
10.76776392708393
 30
0.0
 11
-44.47186568954106
 21
11.76776382708391
 31
0.0
  0
LINE
  5
1D7
330
2
100
AcDbEntity
  8
S1
  6
HIDDEN2
100
AcDbLine
 10
-44.47186568954106
 20
11.76776382708391
 30
0.0
 11
-43.9718655895411
 21
11.76776382708391
 31
0.0
  0
LINE
  5
1D8
330
2
100
AcDbEntity
  8
S1
  6
HIDDEN2
100
AcDbLine
 10
-43.9718655895411
 20
11.76776382708391
 30
0.0
 11
-45.22186568954106
 21
12.7677640270839
 31
0.0
  0
LINE
  5
1D9
330
2
100
AcDbEntity
  8
S1
  6
HIDDEN2
100
AcDbLine
 10
-45.25936568954108
 20
14.94276402708391
 30
0.0
 11
-45.18436568954109
 21
14.94276402708391
 31
0.0
  0
ARC
  5
1DA
330
2
100
AcDbEntity
  8
S1
  6
HIDDEN2
100
AcDbCircle
 10
-45.18436568954109
 20
15.26776392708393
 30
0.0
 40
0.3249999000000001
100
AcDbArc
 50
270.0
 51
0.0
  0
LINE
  5
1DB
330
2
100
AcDbEntity
  8
S1
  6
HIDDEN2
100
AcDbLine
 10
-44.85936548954112
 20
15.26776392708393
 30
0.0
 11
-44.85936548954112
 21
16.17447852708392
 31
0.0
  0
POINT
  5
1DC
330
2
100
AcDbEntity
  8
S1
  6
HIDDEN2
100
AcDbPoint
 10
-44.85936548954112
 20
16.41776382708388
 30
0.0
  0
LINE
  5
1DD
330
2
100
AcDbEntity
  8
S1
  6
HIDDEN2
100
AcDbLine
 10
-44.22186548954107
 20
17.06776392708388
 30
0.0
 11
-46.22186558954108
 21
17.06776392708388
 31
0.0
  0
LINE
  5
1DE
330
2
100
AcDbEntity
  8
S1
  6
HIDDEN2
100
AcDbLine
 10
-44.22186548954107
 20
16.99074942708387
 30
0.0
 11
-44.22186548954107
 21
17.16776382708388
 31
0.0
  0
POINT
  5
1DF
330
2
100
AcDbEntity
  8
S1
  6
HIDDEN2
100
AcDbPoint
 10
-44.22186548954107
 20
16.91776392708391
 30
0.0
  0
LINE
  5
1E0
330
2
100
AcDbEntity
  8
S1
  6
HIDDEN2
100
AcDbLine
 10
-44.27929448954109
 20
16.87272162708393
 30
0.0
 11
-44.66793548954109
 21
16.56790512708391
 31
0.0
  0
ARC
  5
1E1
330
2
100
AcDbEntity
  8
S1
  6
HIDDEN2
100
AcDbCircle
 10
-44.37186548954104
 20
16.99074942708387
 30
0.0
 40
0.15
100
AcDbArc
 50
308.107577
 51
0.0
  0
ARC
  5
1E2
330
2
100
AcDbEntity
  8
S1
  6
HIDDEN2
100
AcDbCircle
 10
-44.35936568954104
 20
16.17447852708392
 30
0.0
 40
0.5000001000000001
100
AcDbArc
 50
128.107577
 51
180.0
  0
LINE
  5
1E3
330
2
100
AcDbEntity
  8
S1
  6
HIDDEN2
100
AcDbLine
 10
-43.48436558954108
 20
16.96776402708388
 30
0.0
 11
-43.60936568954103
 21
16.96776402708388
 31
0.0
  0
ARC
  5
1E4
330
2
100
AcDbEntity
  8
S1
  6
HIDDEN2
100
AcDbCircle
 10
-43.60936568954103
 20
17.06776392708388
 30
0.0
 40
0.0999999
100
AcDbArc
 50
180.0
 51
270.0
  0
LINE
  5
1E5
330
2
100
AcDbEntity
  8
S1
  6
HIDDEN2
100
AcDbLine
 10
-43.7093655895411
 20
17.06776392708388
 30
0.0
 11
-43.7093655895411
 21
17.16776382708388
 31
0.0
  0
LINE
  5
1E6
330
2
100
AcDbEntity
  8
S1
  6
HIDDEN2
100
AcDbLine
 10
-43.60936568954103
 20
17.06776392708388
 30
0.0
 11
-43.7093655895411
 21
17.06776392708388
 31
0.0
  0
LINE
  5
1E7
330
2
100
AcDbEntity
  8
S1
  6
HIDDEN2
100
AcDbLine
 10
-43.60936568954103
 20
17.16776382708388
 30
0.0
 11
-43.60936568954103
 21
17.06776392708388
 31
0.0
  0
LINE
  5
1E8
330
2
100
AcDbEntity
  8
S1
  6
HIDDEN2
100
AcDbLine
 10
-46.85936558954108
 20
17.16776382708388
 30
0.0
 11
-46.85936558954108
 21
16.96776402708388
 31
0.0
  0
LINE
  5
1E9
330
2
100
AcDbEntity
  8
S1
  6
HIDDEN2
100
AcDbLine
 10
-46.85936558954108
 20
17.16776382708388
 30
0.0
 11
-46.95936548954108
 21
17.16776382708388
 31
0.0
  0
LINE
  5
1EA
330
2
100
AcDbEntity
  8
S1
  6
HIDDEN2
100
AcDbLine
 10
-45.5843655895411
 20
15.26776392708393
 30
0.0
 11
-45.5843655895411
 21
16.17447852708392
 31
0.0
  0
POINT
  5
1EB
330
2
100
AcDbEntity
  8
S1
  6
HIDDEN2
100
AcDbPoint
 10
-45.5843655895411
 20
16.41776382708388
 30
0.0
  0
LINE
  5
1EC
330
2
100
AcDbEntity
  8
S1
  6
HIDDEN2
100
AcDbLine
 10
-46.22186558954108
 20
16.99074942708387
 30
0.0
 11
-46.22186558954108
 21
17.16776382708388
 31
0.0
  0
POINT
  5
1ED
330
2
100
AcDbEntity
  8
S1
  6
HIDDEN2
100
AcDbPoint
 10
-46.22186558954108
 20
16.91776392708391
 30
0.0
  0
LINE
  5
1EE
330
2
100
AcDbEntity
  8
S1
  6
HIDDEN2
100
AcDbLine
 10
-46.16443658954108
 20
16.87272162708393
 30
0.0
 11
-45.77579558954107
 21
16.56790512708391
 31
0.0
  0
ARC
  5
1EF
330
2
100
AcDbEntity
  8
S1
  6
HIDDEN2
100
AcDbCircle
 10
-46.07186558954106
 20
16.99074942708387
 30
0.0
 40
0.15
100
AcDbArc
 50
180.0
 51
231.8924229999999
  0
ARC
  5
1F0
330
2
100
AcDbEntity
  8
S1
  6
HIDDEN2
100
AcDbCircle
 10
-46.08436568954107
 20
16.17447852708392
 30
0.0
 40
0.5000001000000001
100
AcDbArc
 50
0.0
 51
51.89242299999995
  0
LINE
  5
1F1
330
2
100
AcDbEntity
  8
S1
  6
HIDDEN2
100
AcDbLine
 10
-46.95936548954108
 20
16.96776402708388
 30
0.0
 11
-46.83436568954107
 21
16.96776402708388
 31
0.0
  0
ARC
  5
1F2
330
2
100
AcDbEntity
  8
S1
  6
HIDDEN2
100
AcDbCircle
 10
-46.83436568954107
 20
17.06776392708388
 30
0.0
 40
0.0999999
100
AcDbArc
 50
270.0
 51
0.0
  0
LINE
  5
1F3
330
2
100
AcDbEntity
  8
S1
  6
HIDDEN2
100
AcDbLine
 10
-46.73436548954112
 20
17.06776392708388
 30
0.0
 11
-46.73436548954112
 21
17.16776382708388
 31
0.0
  0
LINE
  5
1F4
330
2
100
AcDbEntity
  8
S1
  6
HIDDEN2
100
AcDbLine
 10
-46.83436568954107
 20
17.06776392708388
 30
0.0
 11
-46.73436548954112
 21
17.06776392708388
 31
0.0
  0
LINE
  5
1F5
330
2
100
AcDbEntity
  8
S1
  6
HIDDEN2
100
AcDbLine
 10
-46.83436568954107
 20
17.16776382708388
 30
0.0
 11
-46.83436568954107
 21
17.06776392708388
 31
0.0
  0
LINE
  5
1F6
330
2
100
AcDbEntity
  8
S1
  6
HIDDEN2
100
AcDbLine
 10
-46.85936558954108
 20
17.16776382708388
 30
0.0
 11
-46.95936548954108
 21
17.16776382708388
 31
0.0
  0
ARC
  5
1F7
330
2
100
AcDbEntity
  8
S1
  6
HIDDEN2
100
AcDbCircle
 10
-45.25936568954108
 20
15.26776392708393
 30
0.0
 40
0.3249999000000001
100
AcDbArc
 50
180.0
 51
270.0
  0
POINT
  5
1F8
330
2
100
AcDbEntity
  8
S1
  6
HIDDEN2
100
AcDbPoint
 10
-45.22186568954106
 20
15.26776392708393
 30
0.0
  0
POINT
  5
1F9
330
2
100
AcDbEntity
  8
S1
  6
HIDDEN2
100
AcDbPoint
 10
-46.95936548954108
 20
2.292763927083909
 30
0.0
  0
POINT
  5
1FA
330
2
100
AcDbEntity
  8
S1
  6
HIDDEN2
100
AcDbPoint
 10
-43.15936568954106
 20
2.292763927083909
 30
0.0
  0
POINT
  5
1FB
330
2
100
AcDbEntity
  8
S1
  6
HIDDEN2
100
AcDbPoint
 10
-46.95936548954108
 20
-13.45723607291609
 30
0.0
  0
POINT
  5
1FC
330
2
100
AcDbEntity
  8
S1
  6
HIDDEN2
100
AcDbPoint
 10
-43.15936568954106
 20
-13.45723607291609
 30
0.0
  0
POINT
  5
1FD
330
2
100
AcDbEntity
  8
S1
  6
HIDDEN2
100
AcDbPoint
 10
-43.48436558954108
 20
-13.45723607291609
 30
0.0
  0
LINE
  5
1FE
330
2
100
AcDbEntity
  8
S1
  6
HIDDEN2
100
AcDbLine
 10
8.538134310458929
 20
16.06952377708393
 30
0.0
 11
8.538134310458929
 21
14.4389266270839
 31
0.0
  0
CIRCLE
  5
1FF
330
2
100
AcDbEntity
  8
S1
  6
HIDDEN2
100
AcDbCircle
 10
8.538134310458929
 20
15.26776392708393
 30
0.0
 40
0.6000000000000001
  0
LINE
  5
200
330
2
100
AcDbEntity
  8
S1
  6
HIDDEN2
100
AcDbLine
 10
7.749840760458938
 20
15.26776392708393
 30
0.0
 11
9.332679810458898
 21
15.26776392708393
 31
0.0
  0
CIRCLE
  5
201
330
2
100
AcDbEntity
  8
S1
  6
HIDDEN2
100
AcDbCircle
 10
8.538134310458929
 20
15.26776392708393
 30
0.0
 40
0.2
  0
CIRCLE
  5
202
330
2
100
AcDbEntity
  8
S1
  6
HIDDEN2
100
AcDbCircle
 10
8.538134310458929
 20
15.26776392708393
 30
0.0
 40
0.425
  0
CIRCLE
  5
203
330
2
100
AcDbEntity
  8
S1
  6
HIDDEN2
100
AcDbCircle
 10
8.538134310458929
 20
15.26776392708393
 30
0.0
 40
0.325
  0
CIRCLE
  5
204
330
2
100
AcDbEntity
  8
S1
  6
HIDDEN2
100
AcDbCircle
 10
8.538134310458929
 20
15.26776392708393
 30
0.0
 40
0.5
  0
LINE
  5
205
330
2
100
AcDbEntity
  8
S1
  6
HIDDEN2
100
AcDbLine
 10
8.538134310458929
 20
-3.930476322916091
 30
0.0
 11
8.538134310458929
 21
-5.561073472916063
 31
0.0
  0
CIRCLE
  5
206
330
2
100
AcDbEntity
  8
S1
  6
HIDDEN2
100
AcDbCircle
 10
8.538134310458929
 20
-4.732236172916088
 30
0.0
 40
0.6000000000000001
  0
LINE
  5
207
330
2
100
AcDbEntity
  8
S1
  6
HIDDEN2
100
AcDbLine
 10
7.749840760458938
 20
-4.732236172916088
 30
0.0
 11
9.332679810458898
 21
-4.732236172916088
 31
0.0
  0
CIRCLE
  5
208
330
2
100
AcDbEntity
  8
S1
  6
HIDDEN2
100
AcDbCircle
 10
8.538134310458929
 20
-4.732236172916088
 30
0.0
 40
0.2
  0
CIRCLE
  5
209
330
2
100
AcDbEntity
  8
S1
  6
HIDDEN2
100
AcDbCircle
 10
8.538134310458929
 20
-4.732236172916088
 30
0.0
 40
0.425
  0
CIRCLE
  5
20A
330
2
100
AcDbEntity
  8
S1
  6
HIDDEN2
100
AcDbCircle
 10
8.538134310458929
 20
-4.732236172916088
 30
0.0
 40
0.325
  0
CIRCLE
  5
20B
330
2
100
AcDbEntity
  8
S1
  6
HIDDEN2
100
AcDbCircle
 10
8.538134310458929
 20
-4.732236172916088
 30
0.0
 40
0.5
  0
LINE
  5
20C
330
2
100
AcDbEntity
  8
S1
  6
Continuous
100
AcDbLine
 10
56.63347462857576
 20
2.736473227083876
 30
0.0
 11
54.61213192857576
 21
2.3948977270839
 31
0.0
  0
LINE
  5
20D
330
2
100
AcDbEntity
  8
S1
  6
HIDDEN2
100
AcDbLine
 10
54.59546962857576
 20
2.493499927083917
 30
0.0
 11
51.79851862857582
 21
2.020858627083895
 31
0.0
  0
LINE
  5
20E
330
2
100
AcDbEntity
  8
S1
  6
Continuous
100
AcDbLine
 10
54.59546962857576
 20
2.493499927083917
 30
0.0
 11
54.61213192857576
 21
2.3948977270839
 31
0.0
  0
LINE
  5
20F
330
2
100
AcDbEntity
  8
S1
  6
HIDDEN2
100
AcDbLine
 10
56.78343472857579
 20
1.849054627083886
 30
0.0
 11
52.13185192857577
 21
1.063009327083932
 31
0.0
  0
LINE
  5
210
330
2
100
AcDbEntity
  8
S1
  6
HIDDEN2
100
AcDbLine
 10
55.77448222857571
 20
2.591317027083903
 30
0.0
 11
52.81470082857584
 21
1.178400127083874
 31
0.0
  0
LINE
  5
211
330
2
100
AcDbEntity
  8
S1
  6
HIDDEN2
100
AcDbLine
 10
55.05584122857579
 20
2.469877627083859
 30
0.0
 11
52.12855792857578
 21
1.07247462708392
 31
0.0
  0
CIRCLE
  5
212
330
2
100
AcDbEntity
  8
S1
  6
HIDDEN2
100
AcDbCircle
 10
50.62753252857579
 20
-5.567534872916097
 30
0.0
 40
0.1025001
  0
CIRCLE
  5
213
330
2
100
AcDbEntity
  8
S1
  6
HIDDEN2
100
AcDbCircle
 10
50.62753252857579
 20
-5.567534872916097
 30
0.0
 40
0.1250001
  0
LINE
  5
214
330
2
100
AcDbEntity
  8
S1
  6
HIDDEN2
100
AcDbLine
 10
53.52822502857577
 20
-15.11984387291613
 30
0.0
 11
43.32306082857575
 21
14.2051816270839
 31
0.0
  0
LINE
  5
215
330
2
100
AcDbEntity
  8
S1
  6
HIDDEN2
100
AcDbLine
 10
54.1749812285758
 20
-15.00065387291613
 30
0.0
 11
53.65553632857576
 21
-15.18142157291606
 31
0.0
  0
ARC
  5
216
330
2
100
AcDbEntity
  8
S1
  6
HIDDEN2
100
AcDbCircle
 10
53.62266952857578
 20
-15.08697707291611
 30
0.0
 40
0.0999999
100
AcDbArc
 50
199.187992999999
 51
289.1879930000025
  0
LINE
  5
217
330
2
100
AcDbEntity
  8
S1
  6
HIDDEN2
100
AcDbLine
 10
54.14211442857584
 20
-14.90620907291611
 30
0.0
 11
53.62266952857578
 21
-15.08697707291611
 31
0.0
  0
LINE
  5
218
330
2
100
AcDbEntity
  8
S1
  6
HIDDEN2
100
AcDbLine
 10
53.62266952857578
 20
-15.08697707291611
 30
0.0
 11
53.61445282857573
 21
-15.06336587291611
 31
0.0
  0
LINE
  5
219
330
2
100
AcDbEntity
  8
S1
  6
HIDDEN2
100
AcDbLine
 10
53.52000832857573
 20
-15.09623267291613
 30
0.0
 11
57.06167812857586
 21
-13.86372497291608
 31
0.0
  0
LINE
  5
21A
330
2
100
AcDbEntity
  8
S1
  6
HIDDEN2
100
AcDbLine
 10
54.14211442857584
 20
-14.90620907291611
 30
0.0
 11
54.1749812285758
 21
-15.00065387291613
 31
0.0
  0
LINE
  5
21B
330
2
100
AcDbEntity
  8
S1
  6
HIDDEN2
100
AcDbLine
 10
55.95787132857584
 20
-11.26796507291612
 30
0.0
 11
54.53030272857574
 21
-10.5774823729161
 31
0.0
  0
LINE
  5
21C
330
2
100
AcDbEntity
  8
S1
  6
HIDDEN2
100
AcDbLine
 10
56.72140972857585
 20
-12.12530327291608
 30
0.0
 11
57.21562222857585
 21
-13.54544657291609
 31
0.0
  0
LINE
  5
21D
330
2
100
AcDbEntity
  8
S1
  6
HIDDEN2
100
AcDbLine
 10
49.77145672857579
 20
7.845718027083876
 30
0.0
 11
52.10836852857585
 21
1.130490127083929
 31
0.0
  0
ARC
  5
21E
330
2
100
AcDbEntity
  8
S1
  6
HIDDEN2
100
AcDbCircle
 10
55.30474192857571
 20
-12.61830647291611
 30
0.0
 40
1.5
100
AcDbArc
 50
19.18799299999905
 51
64.18799300000054
  0
LINE
  5
21F
330
2
100
AcDbEntity
  8
S1
  6
HIDDEN2
100
AcDbLine
 10
52.06415092857572
 20
0.3664018270839051
 30
0.0
 11
51.28348972857577
 21
-1.247610172916096
 31
0.0
  0
ARC
  5
220
330
2
100
AcDbEntity
  8
S1
  6
HIDDEN2
100
AcDbCircle
 10
51.16392322857575
 20
0.8018215270839164
 30
0.0
 40
0.9999999000000002
100
AcDbArc
 50
334.1879929999993
 51
19.18799299999905
  0
POINT
  5
221
330
2
100
AcDbEntity
  8
S1
  6
HIDDEN2
100
AcDbPoint
 10
52.24450762857578
 20
0.739288327083898
 30
0.0
  0
LINE
  5
222
330
2
100
AcDbEntity
  8
S1
  6
HIDDEN2
100
AcDbLine
 10
51.21716302857578
 20
-2.393742772916084
 30
0.0
 11
53.76676462857574
 21
-9.720144172916091
 31
0.0
  0
ARC
  5
223
330
2
100
AcDbEntity
  8
S1
  6
HIDDEN2
100
AcDbCircle
 10
55.18343242857577
 20
-9.227140972916116
 30
0.0
 40
1.5
100
AcDbArc
 50
199.187992999999
 51
244.1879930000005
  0
ARC
  5
224
330
2
100
AcDbEntity
  8
S1
  6
HIDDEN2
100
AcDbCircle
 10
52.63383112857582
 20
-1.900739872916119
 30
0.0
 40
1.5
100
AcDbArc
 50
154.1879929999993
 51
199.187992999999
  0
POINT
  5
225
330
2
100
AcDbEntity
  8
S1
  6
Continuous
100
AcDbPoint
 10
56.51720122857579
 20
-11.53850027291611
 30
0.0
  0
LINE
  5
226
330
2
100
AcDbEntity
  8
S1
  6
HIDDEN2
100
AcDbLine
 10
45.34341892857571
 20
14.4847411270839
 30
0.0
 11
45.68012302857584
 21
13.51720542708392
 31
0.0
  0
ARC
  5
227
330
2
100
AcDbEntity
  8
S1
  6
Continuous
100
AcDbCircle
 10
56.97951082857581
 20
-13.62761357291611
 30
0.0
 40
0.2499999
100
AcDbArc
 50
289.1879930000025
 51
19.18799299999905
  0
POINT
  5
228
330
2
100
AcDbEntity
  8
S1
  6
HIDDEN2
100
AcDbPoint
 10
45.75425482857588
 20
13.30418442708389
 30
0.0
  0
POINT
  5
229
330
2
100
AcDbEntity
  8
S1
  6
HIDDEN2
100
AcDbPoint
 10
49.69732492857577
 20
8.058739027083902
 30
0.0
  0
LINE
  5
22A
330
2
100
AcDbEntity
  8
S1
  6
HIDDEN2
100
AcDbLine
 10
45.88775482857579
 20
13.12238442708388
 30
0.0
 11
49.56382492857585
 21
8.240539027083912
 31
0.0
  0
ARC
  5
22B
330
2
100
AcDbEntity
  8
S1
  6
HIDDEN2
100
AcDbCircle
 10
47.09679112857577
 20
14.01020862708389
 30
0.0
 40
1.5
100
AcDbArc
 50
199.187992999999
 51
216.2907220000024
  0
ARC
  5
22C
330
2
100
AcDbEntity
  8
S1
  6
HIDDEN2
100
AcDbCircle
 10
48.35478862857575
 20
7.352714827083899
 30
0.0
 40
1.5
100
AcDbArc
 50
19.18799299999905
 51
36.29072200000247
  0
ARC
  5
22D
330
2
100
AcDbEntity
  8
S1
  6
HIDDEN2
100
AcDbCircle
 10
44.87119612857577
 20
14.3204068270839
 30
0.0
 40
0.5000001000000001
100
AcDbArc
 50
19.18799299999905
 51
109.1879930000025
  0
LINE
  5
22E
330
2
100
AcDbEntity
  8
S1
  6
HIDDEN2
100
AcDbLine
 10
43.38463852857579
 20
14.33249322708388
 30
0.0
 11
44.70686182857583
 21
14.79262932708388
 31
0.0
  0
LINE
  5
22F
330
2
100
AcDbEntity
  8
S1
  6
HIDDEN2
100
AcDbLine
 10
43.41750532857576
 20
14.23804872708387
 30
0.0
 11
43.45037212857585
 21
14.14360392708391
 31
0.0
  0
ARC
  5
230
330
2
100
AcDbEntity
  8
S1
  6
HIDDEN2
100
AcDbCircle
 10
43.41750532857576
 20
14.23804872708387
 30
0.0
 40
0.0999999
100
AcDbArc
 50
109.1879930000025
 51
199.187992999999
  0
LINE
  5
231
330
2
100
AcDbEntity
  8
S1
  6
HIDDEN2
100
AcDbLine
 10
43.35592762857584
 20
14.11073712708389
 30
0.0
 11
43.45037212857585
 21
14.14360392708391
 31
0.0
  0
LINE
  5
232
330
2
100
AcDbEntity
  8
S1
  6
HIDDEN2
100
AcDbLine
 10
43.41750532857576
 20
14.23804872708387
 30
0.0
 11
43.51194982857577
 21
14.2709155270839
 31
0.0
  0
ARC
  5
233
330
2
100
AcDbEntity
  8
S1
  6
HIDDEN2
100
AcDbCircle
 10
43.41750532857576
 20
14.23804872708387
 30
0.0
 40
0.0999999
100
AcDbArc
 50
289.1879930000025
 51
19.18799299999905
  0
ARC
  5
234
330
2
100
AcDbEntity
  8
S1
  6
HIDDEN2
100
AcDbCircle
 10
43.60639432857579
 20
14.30378232708392
 30
0.0
 40
0.0999999
100
AcDbArc
 50
109.1879930000025
 51
199.187992999999
  0
POINT
  5
235
330
2
100
AcDbEntity
  8
S1
  6
HIDDEN2
100
AcDbPoint
 10
43.29019402857579
 20
14.29962612708391
 30
0.0
  0
POINT
  5
236
330
2
100
AcDbEntity
  8
S1
  6
HIDDEN2
100
AcDbPoint
 10
43.91466472857575
 20
12.5051803270839
 30
0.0
  0
POINT
  5
237
330
2
100
AcDbEntity
  8
S1
  6
HIDDEN2
100
AcDbPoint
 10
51.53192212857572
 20
1.417776727083889
 30
0.0
  0
POINT
  5
238
330
2
100
AcDbEntity
  8
S1
  6
HIDDEN2
100
AcDbPoint
 10
50.62753252857579
 20
-5.567534872916097
 30
0.0
  0
POINT
  5
239
330
2
100
AcDbEntity
  8
S1
  6
HIDDEN2
100
AcDbPoint
 10
47.59031798619695
 20
7.610371474106044
 30
0.0
  0
POINT
  5
23A
330
2
100
AcDbEntity
  8
S1
  6
HIDDEN2
100
AcDbPoint
 10
47.59031798619695
 20
7.610371474106044
 30
0.0
  0
LINE
  5
23B
330
2
100
AcDbEntity
  8
S1
  6
HIDDEN2
100
AcDbLine
 10
40.05153421440513
 20
23.07241988784062
 30
0.0
 11
40.62676239408529
 21
21.41966081849568
 31
0.0
  0
LINE
  5
23C
330
2
100
AcDbEntity
  8
S1
  6
HIDDEN2
100
AcDbLine
 10
40.05153421440513
 20
23.07241988784062
 30
0.0
 11
40.47652940366528
 21
23.22033570547262
 31
0.0
  0
LINE
  5
23D
330
2
100
AcDbEntity
  8
S1
  6
HIDDEN2
100
AcDbLine
 10
42.84549965856593
 20
15.0447329795939
 30
0.0
 11
43.27049484782604
 21
15.19264879722595
 31
0.0
  0
LINE
  5
23E
330
2
100
AcDbEntity
  8
S1
  6
HIDDEN2
100
AcDbLine
 10
42.87344226560082
 20
21.96167088937124
 30
0.0
 11
44.36798687536259
 21
17.66751033607965
 31
0.0
  0
LINE
  5
23F
330
2
100
AcDbEntity
  8
S1
  6
HIDDEN2
100
AcDbLine
 10
40.28984303170125
 20
22.38770541625484
 30
0.0
 11
40.71483822096126
 21
22.53562123388689
 31
0.0
  0
LINE
  5
240
330
2
100
AcDbEntity
  8
S1
  6
HIDDEN2
100
AcDbLine
 10
40.14192721406914
 20
22.81270060551491
 30
0.0
 11
40.56692240332927
 21
22.96061642314703
 31
0.0
  0
LINE
  5
241
330
2
100
AcDbEntity
  8
S1
  6
HIDDEN2
100
AcDbLine
 10
42.60719084126992
 20
15.72944745117968
 30
0.0
 11
43.03218603052993
 21
15.87736326881167
 31
0.0
  0
LINE
  5
242
330
2
100
AcDbEntity
  8
S1
  6
HIDDEN2
100
AcDbLine
 10
42.75510665890192
 20
15.30445226191955
 30
0.0
 11
43.18010184816205
 21
15.45236807955154
 31
0.0
  0
LINE
  5
243
330
2
100
AcDbEntity
  8
S1
  6
HIDDEN2
100
AcDbLine
 10
42.94179303086592
 20
16.13708255113732
 30
0.0
 11
44.10659467643052
 21
16.54248146419979
 31
0.0
  0
LINE
  5
244
330
2
100
AcDbEntity
  8
S1
  6
HIDDEN2
100
AcDbLine
 10
40.80523122062539
 20
22.27590195156125
 30
0.0
 11
41.97003286618985
 21
22.68130086462372
 31
0.0
  0
LINE
  5
245
330
2
100
AcDbEntity
  8
S1
  6
HIDDEN2
100
AcDbLine
 10
42.04341302495243
 20
21.91271354393581
 30
0.0
 11
43.6869221097528
 21
17.19054477437896
 31
0.0
  0
LINE
  5
246
330
2
100
AcDbEntity
  8
S1
  6
HIDDEN2
100
AcDbLine
 10
40.47652940366528
 20
23.22033570547262
 30
0.0
 11
40.80523122062539
 21
22.27590195156125
 31
0.0
  0
LINE
  5
247
330
2
100
AcDbEntity
  8
S1
  6
HIDDEN2
100
AcDbLine
 10
43.27049484782604
 20
15.19264879722595
 30
0.0
 11
42.94179303086592
 21
16.13708255113732
 31
0.0
  0
LINE
  5
248
330
2
100
AcDbEntity
  8
S1
  6
HIDDEN2
100
AcDbLine
 10
42.27027147888577
 20
16.69749204893878
 30
0.0
 11
42.84549965856593
 21
15.0447329795939
 31
0.0
  0
LINE
  5
249
330
2
100
AcDbEntity
  8
S1
  6
HIDDEN2
100
AcDbLine
 10
40.12144174749403
 20
22.5673328291889
 30
0.0
 11
40.73532368753638
 21
22.78098901021293
 31
0.0
  0
LINE
  5
24A
330
2
100
AcDbEntity
  8
S1
  6
HIDDEN2
100
AcDbLine
 10
42.58670537469481
 20
15.48407967485354
 30
0.0
 11
43.20058731473715
 21
15.69773585587762
 31
0.0
  0
LINE
  5
24B
330
2
100
AcDbEntity
  8
S1
  6
HIDDEN2
100
AcDbLine
 10
40.47652940366528
 20
23.22033570547262
 30
0.0
 11
42.2684937216245
 21
22.57358041932423
 31
0.0
  0
LINE
  5
24C
330
2
100
AcDbEntity
  8
S1
  6
HIDDEN2
100
AcDbLine
 10
43.27049484782604
 20
15.19264879722595
 30
0.0
 11
44.27368035123446
 21
16.81223126278649
 31
0.0
  0
LINE
  5
24D
330
2
100
AcDbEntity
  8
S1
  6
HIDDEN2
100
AcDbLine
 10
42.27027147888577
 20
16.69749204893878
 30
0.0
 11
43.6869221097528
 21
17.19054477437896
 31
0.0
  0
LINE
  5
24E
330
2
100
AcDbEntity
  8
S1
  6
HIDDEN2
100
AcDbLine
 10
40.62676239408529
 20
21.41966081849568
 30
0.0
 11
42.04341302495243
 21
21.91271354393581
 31
0.0
  0
ARC
  5
24F
330
2
100
AcDbEntity
  8
S1
  6
HIDDEN2
100
AcDbCircle
 10
41.9290085116894
 20
21.63296907241118
 30
0.0
 40
0.9999999999999998
100
AcDbArc
 50
19.18999999999532
 51
70.15448699999381
  0
ARC
  5
250
330
2
100
AcDbEntity
  8
S1
  6
HIDDEN2
100
AcDbCircle
 10
43.42355312145115
 20
17.33880851911953
 30
0.0
 40
0.9999999999999998
100
AcDbArc
 50
328.2255129999964
 51
19.18999999999532
  0
LINE
  5
251
330
2
100
AcDbEntity
  8
S1
  6
HIDDEN2
100
AcDbLine
 10
36.78486454487551
 20
23.82018286358391
 30
0.0
 11
36.79965251495036
 21
23.85180967966181
 31
0.0
  0
LINE
  5
252
330
2
100
AcDbEntity
  8
S1
  6
HIDDEN2
100
AcDbLine
 10
51.92485238554866
 20
-19.68038455882123
 30
0.0
 11
51.9560811001428
 21
-19.69599567469947
 31
0.0
  0
LINE
  5
253
330
2
100
AcDbEntity
  8
S1
  6
HIDDEN2
100
AcDbLine
 10
50.05360634378029
 20
-20.38217875154646
 30
0.0
 11
34.88224973270041
 21
23.2085181561921
 31
0.0
  0
LINE
  5
254
330
2
100
AcDbEntity
  8
S1
  6
HIDDEN2
100
AcDbLine
 10
34.81903211029907
 20
23.07774874347706
 30
0.0
 11
36.78486454487551
 21
23.82018286358391
 31
0.0
  0
LINE
  5
255
330
2
100
AcDbEntity
  8
S1
  6
HIDDEN2
100
AcDbLine
 10
49.92285805067069
 20
-20.31891746059511
 30
0.0
 11
51.92485238554866
 21
-19.68038455882123
 31
0.0
  0
LINE
  5
256
330
2
100
AcDbEntity
  8
S1
  6
HIDDEN2
100
AcDbLine
 10
34.88224973270041
 20
23.2085181561921
 30
0.0
 11
36.75198308870711
 21
23.91465863305279
 31
0.0
  0
LINE
  5
257
330
2
100
AcDbEntity
  8
S1
  6
HIDDEN2
100
AcDbLine
 10
36.78299928114153
 20
23.89965814081818
 30
0.0
 11
36.75198308870711
 21
23.91465863305279
 31
0.0
  0
LINE
  5
258
330
2
100
AcDbEntity
  8
S1
  6
HIDDEN2
100
AcDbLine
 10
51.97273433395174
 20
-19.74384413585578
 30
0.0
 11
51.95773384171707
 21
-19.77486032829017
 31
0.0
  0
LINE
  5
259
330
2
100
AcDbEntity
  8
S1
  6
HIDDEN2
100
AcDbLine
 10
49.9228693251431
 20
-20.31894985467283
 30
0.0
 11
50.05360634378029
 21
-20.38217875154646
 31
0.0
  0
LINE
  5
25A
330
2
100
AcDbEntity
  8
S1
  6
HIDDEN2
100
AcDbLine
 10
50.05360634378029
 20
-20.38217875154646
 30
0.0
 11
51.95773384171707
 21
-19.77486032829017
 31
0.0
  0
LINE
  5
25B
330
2
100
AcDbEntity
  8
S1
  6
HIDDEN2
100
AcDbLine
 10
51.97273433395174
 20
-19.74384413585578
 30
0.0
 11
36.78299928114153
 21
23.89965814081818
 31
0.0
  0
LINE
  5
25C
330
2
100
AcDbEntity
  8
S1
  6
HIDDEN2
100
AcDbLine
 10
51.48604359930857
 20
-18.34547292585227
 30
0.0
 11
54.1446246165691
 21
-17.42017731110968
 31
0.0
  0
LINE
  5
25D
330
2
100
AcDbEntity
  8
S1
  6
HIDDEN2
100
AcDbLine
 10
51.47500247027267
 20
-18.58755368400875
 30
0.0
 11
51.47503935041072
 21
-18.58754084820282
 31
0.0
  0
LINE
  5
25E
330
2
100
AcDbEntity
  8
S1
  6
HIDDEN2
100
AcDbLine
 10
51.48733143567517
 20
-18.44032249626991
 30
0.0
 11
51.48729455553712
 21
-18.44033533207584
 31
0.0
  0
LINE
  5
25F
330
2
100
AcDbEntity
  8
S1
  6
HIDDEN2
100
AcDbLine
 10
54.16105970741718
 20
-17.46739899880521
 30
0.0
 11
39.93648857846904
 21
23.40297170170959
 31
0.0
  0
LINE
  5
260
330
2
100
AcDbEntity
  8
S1
  6
HIDDEN2
100
AcDbLine
 10
54.16105970741718
 20
-17.46739899880521
 30
0.0
 11
51.50247869015665
 21
-18.39269461354786
 31
0.0
  0
LINE
  5
261
330
2
100
AcDbEntity
  8
S1
  6
HIDDEN2
100
AcDbLine
 10
53.69828716800054
 20
-17.62846288911566
 30
0.0
 11
53.6818520771526
 21
-17.58124120142008
 31
0.0
  0
LINE
  5
262
330
2
100
AcDbEntity
  8
S1
  6
HIDDEN2
100
AcDbLine
 10
54.09740292887352
 20
-17.43661240195763
 30
0.0
 11
54.06946327443201
 21
-17.35633553287516
 31
0.0
  0
LINE
  5
263
330
2
100
AcDbEntity
  8
S1
  6
HIDDEN2
100
AcDbLine
 10
39.97587813339214
 20
23.28979671057345
 30
0.0
 11
39.85157336023372
 21
23.26625736257585
 31
0.0
  0
LINE
  5
264
330
2
100
AcDbEntity
  8
S1
  6
HIDDEN2
100
AcDbLine
 10
37.22756553279179
 20
22.83909882559339
 30
0.0
 11
37.24496741264715
 21
22.74720437549183
 31
0.0
  0
LINE
  5
265
330
2
100
AcDbEntity
  8
S1
  6
HIDDEN2
100
AcDbLine
 10
39.36826677994088
 20
23.24447986785395
 30
0.0
 11
39.38566865979612
 21
23.15258541775239
 31
0.0
  0
LINE
  5
266
330
2
100
AcDbEntity
  8
S1
  6
HIDDEN2
100
AcDbLine
 10
39.58098792147609
 20
23.28476249812945
 30
0.0
 11
39.59838983211819
 21
23.19286811168467
 31
0.0
  0
LINE
  5
267
330
2
100
AcDbEntity
  8
S1
  6
HIDDEN2
100
AcDbLine
 10
39.46635599449347
 20
23.26305486369142
 30
0.0
 11
39.4497398053794
 21
23.31079688716369
 31
0.0
  0
LINE
  5
268
330
2
100
AcDbEntity
  8
S1
  6
HIDDEN2
100
AcDbLine
 10
39.83882301034407
 20
23.3335883284177
 30
0.0
 11
39.85157336023372
 21
23.26625736257585
 31
0.0
  0
LINE
  5
269
330
2
100
AcDbEntity
  8
S1
  6
HIDDEN2
100
AcDbLine
 10
39.92620988520275
 20
23.2803911345992
 30
0.0
 11
39.90343653582886
 21
23.34582405504136
 31
0.0
  0
LINE
  5
26A
330
2
100
AcDbEntity
  8
S1
  6
HIDDEN2
100
AcDbLine
 10
37.24496741264715
 20
22.74720437549183
 30
0.0
 11
37.18786418523211
 21
22.73639082233017
 31
0.0
  0
LINE
  5
26B
330
2
100
AcDbEntity
  8
S1
  6
HIDDEN2
100
AcDbLine
 10
39.59838983211819
 20
23.19286811168467
 30
0.0
 11
39.38566865979612
 21
23.15258541775239
 31
0.0
  0
LINE
  5
26C
330
2
100
AcDbEntity
  8
S1
  6
HIDDEN2
100
AcDbLine
 10
51.55215396208235
 20
-18.32246379866512
 30
0.0
 11
51.52421430764082
 21
-18.24218692958265
 31
0.0
  0
LINE
  5
26D
330
2
100
AcDbEntity
  8
S1
  6
HIDDEN2
100
AcDbLine
 10
53.58740870176142
 20
-17.61411138311609
 30
0.0
 11
53.55946904731979
 21
-17.53383451403363
 31
0.0
  0
LINE
  5
26E
330
2
100
AcDbEntity
  8
S1
  6
HIDDEN2
100
AcDbLine
 10
51.52421430764082
 20
-18.24218692958265
 30
0.0
 11
51.45810394486705
 21
-18.2651960567698
 31
0.0
  0
LINE
  5
26F
330
2
100
AcDbEntity
  8
S1
  6
HIDDEN2
100
AcDbLine
 10
53.55946904731979
 20
-17.53383451403363
 30
0.0
 11
53.73149161121876
 21
-17.47396358176598
 31
0.0
  0
LINE
  5
270
330
2
100
AcDbEntity
  8
S1
  6
HIDDEN2
100
AcDbLine
 10
54.01881480330371
 20
-17.37396328539586
 30
0.0
 11
54.11668496212758
 21
-17.33990044202721
 31
0.0
  0
LINE
  5
271
330
2
100
AcDbEntity
  8
S1
  6
HIDDEN2
100
AcDbLine
 10
53.75943126566028
 20
-17.55424045084845
 30
0.0
 11
53.73149161121876
 21
-17.47396358176598
 31
0.0
  0
LINE
  5
272
330
2
100
AcDbEntity
  8
S1
  6
HIDDEN2
100
AcDbLine
 10
54.04675445774535
 20
-17.45424015447832
 30
0.0
 11
54.01881480330371
 21
-17.37396328539586
 31
0.0
  0
LINE
  5
273
330
2
100
AcDbEntity
  8
S1
  6
HIDDEN2
100
AcDbLine
 10
53.65391242271096
 20
-17.50096433233761
 30
0.0
 11
39.49743744664203
 21
23.17375090790233
 31
0.0
  0
LINE
  5
274
330
2
100
AcDbEntity
  8
S1
  6
HIDDEN2
100
AcDbLine
 10
37.14016652753446
 20
22.87343684881329
 30
0.0
 11
39.93648857846904
 21
23.40297170170959
 31
0.0
  0
LINE
  5
275
330
2
100
AcDbEntity
  8
S1
  6
HIDDEN2
100
AcDbLine
 10
37.15678273308367
 20
22.82569477811932
 30
0.0
 11
39.90343653582886
 21
23.34582405504136
 31
0.0
  0
LINE
  5
276
330
2
100
AcDbEntity
  8
S1
  6
HIDDEN2
100
AcDbLine
 10
43.8726928365662
 20
12.09337749862084
 30
0.0
 11
44.20139465352632
 21
11.14894374470946
 31
0.0
  0
LINE
  5
277
330
2
100
AcDbEntity
  8
S1
  6
HIDDEN2
100
AcDbLine
 10
50.44672917576814
 20
-6.795297579606652
 30
0.0
 11
50.77543099272816
 21
-7.739731333518079
 31
0.0
  0
POINT
  5
278
330
2
100
AcDbEntity
  8
S1
  6
Continuous
100
AcDbPoint
 10
42.4679280382403
 20
1.413169702322818
 30
0.0
  0
POINT
  5
279
330
2
100
AcDbEntity
  8
S1
  6
Continuous
100
AcDbPoint
 10
42.37094508048493
 20
1.379415641441028
 30
0.0
  0
LINE
  5
27A
330
2
100
AcDbEntity
  8
S1
  6
HIDDEN2
100
AcDbLine
 10
49.9228693251431
 20
-20.31894985467283
 30
0.0
 11
34.78526677494494
 21
23.17476409531025
 31
0.0
  0
TEXT
  5
27B
330
2
100
AcDbEntity
  8
GAIKEI
 62
     1
100
AcDbText
 10
57.22214787356334
 20
2.647610277083912
 30
0.0
 40
0.5780936500000001
  1
0
 41
0.737
  7
MX_NOTE_STANDARD
100
AcDbText
  0
TEXT
  5
27D
330
2
100
AcDbEntity
  8
GAIKEI
 62
     1
100
AcDbText
 10
57.19500551945078
 20
1.986434577083969
 30
0.0
 40
0.5780936500000001
  1
20
 41
0.6700000000000001
  7
MX_NOTE_STANDARD
100
AcDbText
  0
TEXT
  5
27E
330
2
100
AcDbEntity
  8
GAIKEI
 62
     1
100
AcDbText
 10
57.0569906485424
 20
4.855074777083927
 30
0.0
 40
0.5780936500000001
  1
15
 41
0.737
  7
MX_NOTE_STANDARD
100
AcDbText
  0
TEXT
  5
27F
330
2
100
AcDbEntity
  8
GAIKEI
 62
     1
100
AcDbText
 10
57.06484308728828
 20
6.305074977083903
 30
0.0
 40
0.5780936500000001
  1
10
 41
0.8190000000000001
  7
MX_NOTE_STANDARD
100
AcDbText
  0
TEXT
  5
280
330
2
100
AcDbEntity
  8
GAIKEI
 62
     1
100
AcDbText
 10
57.22271082820906
 20
7.055074977083903
 30
0.0
 40
0.5780936500000001
  1
5
 41
0.614
  7
MX_NOTE_STANDARD
100
AcDbText
  0
CIRCLE
  5
281
330
2
100
AcDbEntity
  8
GAIKEI
  6
Continuous
 62
     1
100
AcDbCircle
 10
53.55878564665158
 20
-4.007125808242959
 30
0.0
 40
0.1025001000000008
  0
CIRCLE
  5
282
330
2
100
AcDbEntity
  8
GAIKEI
  6
Continuous
 62
     1
100
AcDbCircle
 10
53.55878564665158
 20
-4.007125808242959
 30
0.0
 40
0.125000100000001
  0
LINE
  5
283
330
2
100
AcDbEntity
  8
GAIKEI
  6
Continuous
100
AcDbLine
 10
53.15843622890485
 20
-13.98211175082701
 30
0.0
 11
53.1595238584681
 21
17.06788818060118
 31
0.0
  0
LINE
  5
284
330
2
100
AcDbEntity
  8
GAIKEI
  6
Continuous
100
AcDbLine
 10
53.8084325842998
 20
-14.08213462976846
 30
0.0
 11
53.25843261600493
 21
-14.08211526482477
 31
0.0
  0
ARC
  5
285
330
2
100
AcDbEntity
  8
GAIKEI
  6
Continuous
100
AcDbCircle
 10
53.25843617945372
 20
-13.9821153142758
 30
0.0
 40
0.0999999000000008
100
AcDbArc
 50
179.9979930000023
 51
269.9979930000024
  0
LINE
  5
286
330
2
100
AcDbEntity
  8
GAIKEI
  6
Continuous
100
AcDbLine
 10
53.80843624635918
 20
-13.98213439588943
 30
0.0
 11
53.25843617945372
 21
-13.9821153142758
 31
0.0
  0
LINE
  5
287
330
2
100
AcDbEntity
  8
GAIKEI
  6
Continuous
100
AcDbLine
 10
53.25843617945372
 20
-13.9821153142758
 30
0.0
 11
53.25843709496861
 21
-13.95711525580606
 31
0.0
  0
LINE
  5
288
330
2
100
AcDbEntity
  8
GAIKEI
  6
Continuous
100
AcDbLine
 10
53.15843714441975
 20
-13.95711169235721
 30
0.0
 11
56.90843716915559
 21
-13.95724311685427
 31
0.0
  0
LINE
  5
289
330
2
100
AcDbEntity
  8
GAIKEI
  6
Continuous
100
AcDbLine
 10
53.80843624635918
 20
-13.98213439588943
 30
0.0
 11
53.8084325842998
 21
-14.08213462976846
 31
0.0
  0
LINE
  5
28A
330
2
100
AcDbEntity
  8
GAIKEI
  6
Continuous
100
AcDbLine
 10
56.71919576496077
 20
-11.1428965495117
 30
0.0
 11
55.59791471116636
 21
-10.02153698848462
 31
0.0
  0
LINE
  5
28B
330
2
100
AcDbEntity
  8
GAIKEI
  6
Continuous
100
AcDbLine
 10
57.15849857823901
 20
-12.20357214350815
 30
0.0
 11
57.15844586179025
 21
-13.70725195813361
 31
0.0
  0
LINE
  5
28C
330
2
100
AcDbEntity
  8
GAIKEI
  6
Continuous
 62
     7
100
AcDbLine
 10
57.15923936480033
 20
8.942196651182314
 30
0.0
 11
57.15899013660294
 21
1.831961602479394
 31
0.0
  0
ARC
  5
28D
330
2
100
AcDbEntity
  8
GAIKEI
  6
Continuous
100
AcDbCircle
 10
55.65849864223253
 20
-12.20351972648558
 30
0.0
 40
1.500000000000011
100
AcDbArc
 50
359.9979930000023
 51
44.99799300000093
  0
LINE
  5
28E
330
2
100
AcDbEntity
  8
GAIKEI
  6
Continuous
100
AcDbLine
 10
56.86607233011807
 20
1.124865226452242
 30
0.0
 11
55.59826086547365
 21
-0.1428574306955284
 31
0.0
  0
ARC
  5
28F
330
2
100
AcDbEntity
  8
GAIKEI
  6
Continuous
100
AcDbCircle
 10
56.1589901505622
 20
1.831996768917974
 30
0.0
 40
0.9999999000000078
100
AcDbArc
 50
314.9979930000009
 51
359.9979930000023
  0
POINT
  5
290
330
2
100
AcDbEntity
  8
GAIKEI
  6
Continuous
100
AcDbPoint
 10
57.15897575541191
 20
1.41774824843918
 30
0.0
  0
LINE
  5
291
330
2
100
AcDbEntity
  8
GAIKEI
  6
Continuous
100
AcDbLine
 10
55.15888382311085
 20
-1.203502037790769
 30
0.0
 11
55.15861218121824
 21
-8.960861493098775
 31
0.0
  0
ARC
  5
292
330
2
100
AcDbEntity
  8
GAIKEI
  6
Continuous
100
AcDbCircle
 10
56.65861211722482
 20
-8.96091391012129
 30
0.0
 40
1.500000000000011
100
AcDbArc
 50
179.9979930000023
 51
224.9979930000009
  0
ARC
  5
293
330
2
100
AcDbEntity
  8
GAIKEI
  6
Continuous
100
AcDbCircle
 10
56.65888394383694
 20
-1.203554836753994
 30
0.0
 40
1.500000000000011
100
AcDbArc
 50
134.9979930000009
 51
179.9979930000023
  0
POINT
  5
294
330
2
100
AcDbEntity
  8
GAIKEI
  6
Continuous
100
AcDbPoint
 10
57.15852039030107
 20
-11.58225187842299
 30
0.0
  0
LINE
  5
295
330
2
100
AcDbEntity
  8
GAIKEI
  6
Continuous
100
AcDbLine
 10
55.15950995869491
 20
16.66781823024769
 30
0.0
 11
55.15947393325142
 21
15.6433696076055
 31
0.0
  0
ARC
  5
296
330
2
100
AcDbEntity
  8
GAIKEI
  6
Continuous
100
AcDbCircle
 10
56.90844584375281
 20
-13.70724300020629
 30
0.0
 40
0.249999900000002
100
AcDbArc
 50
269.9979930000024
 51
359.9979930000023
  0
POINT
  5
297
330
2
100
AcDbEntity
  8
GAIKEI
  6
Continuous
100
AcDbPoint
 10
55.15946611765901
 20
15.41781812755903
 30
0.0
  0
POINT
  5
298
330
2
100
AcDbEntity
  8
GAIKEI
  6
Continuous
100
AcDbPoint
 10
57.15924718039275
 20
9.167748131228789
 30
0.0
  0
LINE
  5
299
330
2
100
AcDbEntity
  8
GAIKEI
  6
Continuous
100
AcDbLine
 10
55.22579003348289
 20
15.20223837853376
 30
0.0
 11
57.09292326456886
 21
9.383327880254055
 31
0.0
  0
ARC
  5
29A
330
2
100
AcDbEntity
  8
GAIKEI
  6
Continuous
100
AcDbCircle
 10
56.65947415258813
 20
15.64331709197245
 30
0.0
 40
1.500000000000011
100
AcDbArc
 50
179.9979930000023
 51
197.1007220000019
  0
ARC
  5
29B
330
2
100
AcDbEntity
  8
GAIKEI
  6
Continuous
100
AcDbCircle
 10
55.65923914546363
 20
8.942249166815372
 30
0.0
 40
1.500000000000011
100
AcDbArc
 50
359.9979930000023
 51
17.1007220000019
  0
ARC
  5
29C
330
2
100
AcDbEntity
  8
GAIKEI
  6
Continuous
100
AcDbCircle
 10
54.65950982400944
 20
16.66783586277228
 30
0.0
 40
0.500000100000004
100
AcDbArc
 50
359.9979930000023
 51
89.99799300000235
  0
LINE
  5
29D
330
2
100
AcDbEntity
  8
GAIKEI
  6
Continuous
100
AcDbLine
 10
53.25952747107645
 20
17.16788485103143
 30
0.0
 11
54.6595273579236
 21
17.16783571412759
 31
0.0
  0
LINE
  5
29E
330
2
100
AcDbEntity
  8
GAIKEI
  6
Continuous
100
AcDbLine
 10
53.25952390762768
 20
17.06788490048245
 30
0.0
 11
53.2595202455683
 21
16.96788466660336
 31
0.0
  0
ARC
  5
29F
330
2
100
AcDbEntity
  8
GAIKEI
  6
Continuous
100
AcDbCircle
 10
53.25952390762768
 20
17.06788490048245
 30
0.0
 40
0.0999999000000008
100
AcDbArc
 50
89.99799300000235
 51
179.9979930000023
  0
LINE
  5
2A0
330
2
100
AcDbEntity
  8
GAIKEI
  6
Continuous
100
AcDbLine
 10
53.15952029501932
 20
16.96788823005226
 30
0.0
 11
53.2595202455683
 21
16.96788466660336
 31
0.0
  0
LINE
  5
2A1
330
2
100
AcDbEntity
  8
GAIKEI
  6
Continuous
100
AcDbLine
 10
53.25952390762768
 20
17.06788490048245
 30
0.0
 11
53.35952385817666
 21
17.06788133703367
 31
0.0
  0
ARC
  5
2A2
330
2
100
AcDbEntity
  8
GAIKEI
  6
Continuous
100
AcDbCircle
 10
53.25952390762768
 20
17.06788490048245
 30
0.0
 40
0.0999999000000008
100
AcDbArc
 50
269.9979930000024
 51
359.9979930000023
  0
ARC
  5
2A3
330
2
100
AcDbEntity
  8
GAIKEI
  6
Continuous
100
AcDbCircle
 10
53.45952380872552
 20
17.06787777358482
 30
0.0
 40
0.0999999000000008
100
AcDbArc
 50
89.99799300000235
 51
179.9979930000023
  0
POINT
  5
2A4
330
2
100
AcDbEntity
  8
GAIKEI
  6
Continuous
100
AcDbPoint
 10
53.15952742191701
 20
17.1678881311501
 30
0.0
  0
POINT
  5
2A5
330
2
100
AcDbEntity
  8
GAIKEI
  6
Continuous
 62
     1
100
AcDbPoint
 10
53.15946103442922
 20
15.26788829433724
 30
0.0
  0
POINT
  5
2A6
330
2
100
AcDbEntity
  8
GAIKEI
  6
Continuous
 62
     1
100
AcDbPoint
 10
56.70900632653058
 20
2.292763743625925
 30
0.0
  0
POINT
  5
2A7
330
2
100
AcDbEntity
  8
GAIKEI
  6
Continuous
 62
     1
100
AcDbPoint
 10
53.55878564665171
 20
-4.007125808242959
 30
0.0
  0
POINT
  5
2A8
330
2
100
AcDbEntity
  8
GAIKEI
  6
Continuous
 62
     1
100
AcDbPoint
 10
56.7084545186416
 20
-13.45723603999078
 30
0.0
  0
POINT
  5
2A9
330
2
100
AcDbEntity
  8
GAIKEI
  6
Continuous
100
AcDbPoint
 10
55.02193947857574
 20
9.436871627083975
 30
0.0
  0
POINT
  5
2AA
330
2
100
AcDbEntity
  8
GAIKEI
  6
Continuous
100
AcDbPoint
 10
55.02193947857574
 20
9.436871627083975
 30
0.0
  0
LINE
  5
2AB
330
2
100
AcDbEntity
  8
GAIKEI
  6
Continuous
100
AcDbLine
 10
52.98446102857575
 20
26.51776397708397
 30
0.0
 11
52.98446102857575
 21
24.76776397708397
 31
0.0
  0
LINE
  5
2AC
330
2
100
AcDbEntity
  8
GAIKEI
  6
Continuous
100
AcDbLine
 10
52.98446102857575
 20
26.51776397708397
 30
0.0
 11
53.43446102857581
 21
26.51776397708397
 31
0.0
  0
LINE
  5
2AD
330
2
100
AcDbEntity
  8
GAIKEI
  6
Continuous
100
AcDbLine
 10
52.98446102857575
 20
18.01776397708397
 30
0.0
 11
53.43446102857581
 21
18.01776397708397
 31
0.0
  0
LINE
  5
2AE
330
2
100
AcDbEntity
  8
GAIKEI
  6
Continuous
100
AcDbLine
 10
55.28446102857571
 20
24.54116882708393
 30
0.0
 11
55.28446102857571
 21
19.99435912708395
 31
0.0
  0
LINE
  5
2AF
330
2
100
AcDbEntity
  8
GAIKEI
  6
DASHED
100
AcDbLine
 10
52.98446102857575
 20
25.79276397708395
 30
0.0
 11
53.43446102857581
 21
25.79276397708395
 31
0.0
  0
LINE
  5
2B1
330
2
100
AcDbEntity
  8
GAIKEI
  6
DASHED
100
AcDbLine
 10
52.98446102857575
 20
26.24276397708394
 30
0.0
 11
53.43446102857581
 21
26.24276397708394
 31
0.0
  0
LINE
  5
2B2
330
2
100
AcDbEntity
  8
GAIKEI
  6
DASHED
100
AcDbLine
 10
52.98446102857575
 20
18.74276397708394
 30
0.0
 11
53.43446102857581
 21
18.74276397708394
 31
0.0
  0
LINE
  5
2B3
330
2
100
AcDbEntity
  8
GAIKEI
  6
DASHED
100
AcDbLine
 10
52.98446102857575
 20
18.29276397708395
 30
0.0
 11
53.43446102857581
 21
18.29276397708395
 31
0.0
  0
LINE
  5
2B4
330
2
100
AcDbEntity
  8
GAIKEI
  6
DASHED
100
AcDbLine
 10
53.43446102857581
 20
19.01776397708397
 30
0.0
 11
54.66779437857575
 21
19.01776397708397
 31
0.0
  0
LINE
  5
2B5
330
2
100
AcDbEntity
  8
GAIKEI
  6
DASHED
100
AcDbLine
 10
53.43446102857581
 20
25.51776397708397
 30
0.0
 11
54.66779437857575
 21
25.51776397708397
 31
0.0
  0
LINE
  5
2B6
330
2
100
AcDbEntity
  8
GAIKEI
  6
Continuous
100
AcDbLine
 10
54.48446102857577
 20
24.76776397708397
 30
0.0
 11
54.48446102857577
 21
19.76776397708397
 31
0.0
  0
LINE
  5
2B7
330
2
100
AcDbEntity
  8
GAIKEI
  6
DASHED
100
AcDbLine
 10
53.43446102857581
 20
26.51776397708397
 30
0.0
 11
53.43446102857581
 21
25.51776397708397
 31
0.0
  0
LINE
  5
2B8
330
2
100
AcDbEntity
  8
GAIKEI
  6
DASHED
100
AcDbLine
 10
53.43446102857581
 20
18.01776397708397
 30
0.0
 11
53.43446102857581
 21
19.01776397708397
 31
0.0
  0
LINE
  5
2B9
330
2
100
AcDbEntity
  8
GAIKEI
  6
Continuous
100
AcDbLine
 10
52.98446102857575
 20
19.76776397708397
 30
0.0
 11
52.98446102857575
 21
18.01776397708397
 31
0.0
  0
LINE
  5
2BA
330
2
100
AcDbEntity
  8
GAIKEI
  6
CENTER
100
AcDbLine
 10
52.88446102857585
 20
26.01776397708397
 30
0.0
 11
53.53446102857571
 21
26.01776397708397
 31
0.0
  0
LINE
  5
2BB
330
2
100
AcDbEntity
  8
GAIKEI
  6
CENTER
100
AcDbLine
 10
52.88446102857585
 20
18.51776397708397
 30
0.0
 11
53.53446102857571
 21
18.51776397708397
 31
0.0
  0
LINE
  5
2BC
330
2
100
AcDbEntity
  8
GAIKEI
  6
Continuous
100
AcDbLine
 10
53.43446102857581
 20
26.51776397708397
 30
0.0
 11
54.91426297857572
 21
25.31792452708396
 31
0.0
  0
LINE
  5
2BD
330
2
100
AcDbEntity
  8
GAIKEI
  6
Continuous
100
AcDbLine
 10
53.43446102857581
 20
18.01776397708397
 30
0.0
 11
54.91426297857572
 21
19.21760342708393
 31
0.0
  0
LINE
  5
2BE
330
2
100
AcDbEntity
  8
GAIKEI
  6
Continuous
100
AcDbLine
 10
52.98446102857575
 20
19.76776397708397
 30
0.0
 11
54.48446102857577
 21
19.76776397708397
 31
0.0
  0
LINE
  5
2BF
330
2
100
AcDbEntity
  8
GAIKEI
  6
Continuous
100
AcDbLine
 10
52.98446102857575
 20
24.76776397708397
 30
0.0
 11
54.48446102857577
 21
24.76776397708397
 31
0.0
  0
ARC
  5
2C0
330
2
100
AcDbEntity
  8
GAIKEI
  6
Continuous
100
AcDbCircle
 10
54.28446102857571
 20
24.54116882708393
 30
0.0
 40
1.0
100
AcDbArc
 50
0.0
 51
50.96448699997335
  0
ARC
  5
2C1
330
2
100
AcDbEntity
  8
GAIKEI
  6
Continuous
100
AcDbCircle
 10
54.28446102857571
 20
19.99435912708395
 30
0.0
 40
1.0
100
AcDbArc
 50
309.0355130000267
 51
0.0
  0
LINE
  5
2C2
330
2
100
AcDbEntity
  8
GAIKEI
  6
Continuous
 62
     1
100
AcDbLine
 10
50.14509897857578
 20
28.29773682708389
 30
0.0
 11
50.1694610285757
 21
28.32274542708393
 31
0.0
  0
LINE
  5
2C3
330
2
100
AcDbEntity
  8
GAIKEI
  6
Continuous
100
AcDbLine
 10
50.14509897857578
 20
-17.76220887291606
 30
0.0
 11
50.1694610285757
 21
-17.78721747291603
 31
0.0
  0
LINE
  5
2C4
330
2
100
AcDbEntity
  8
GAIKEI
  6
Continuous
 62
     1
100
AcDbLine
 10
48.14715002857575
 20
-17.8099250229161
 30
0.0
 11
48.14715002857575
 21
28.34545297708393
 31
0.0
  0
LINE
  5
2C5
330
2
100
AcDbEntity
  8
GAIKEI
  6
Continuous
 62
     1
100
AcDbLine
 10
50.14509897857578
 20
-17.76220887291606
 30
0.0
 11
50.14509897857578
 21
28.29773682708389
 31
0.0
  0
LINE
  5
2C6
330
2
100
AcDbEntity
  8
GAIKEI
  6
Continuous
 62
     1
100
AcDbLine
 10
48.0444610285757
 20
28.24272967708395
 30
0.0
 11
50.14509897857578
 21
28.29773682708389
 31
0.0
  0
LINE
  5
2C7
330
2
100
AcDbEntity
  8
GAIKEI
  6
Continuous
 62
     1
100
AcDbLine
 10
48.0444610285757
 20
-17.70720172291606
 30
0.0
 11
50.14509897857578
 21
-17.76220887291606
 31
0.0
  0
LINE
  5
2C8
330
2
100
AcDbEntity
  8
GAIKEI
  6
Continuous
100
AcDbLine
 10
48.14715002857575
 20
28.34545297708393
 30
0.0
 11
50.14509897857578
 21
28.39777112708395
 31
0.0
  0
LINE
  5
2C9
330
2
100
AcDbEntity
  8
GAIKEI
  6
Continuous
100
AcDbLine
 10
48.0444610285757
 20
28.24276397708393
 30
0.0
 11
48.14715002857575
 21
28.34545297708393
 31
0.0
  0
LINE
  5
2CA
330
2
100
AcDbEntity
  8
GAIKEI
  6
Continuous
100
AcDbLine
 10
50.1694610285757
 20
28.37340907708392
 30
0.0
 11
50.14509897857578
 21
28.39777112708395
 31
0.0
  0
LINE
  5
2CB
330
2
100
AcDbEntity
  8
GAIKEI
  6
Continuous
100
AcDbLine
 10
50.1694610285757
 20
-17.83788112291608
 30
0.0
 11
50.14509897857578
 21
-17.86224317291606
 31
0.0
  0
LINE
  5
2CC
330
2
100
AcDbEntity
  8
GAIKEI
  6
Continuous
100
AcDbLine
 10
48.0444610285757
 20
-17.70723602291605
 30
0.0
 11
48.14715002857575
 21
-17.8099250229161
 31
0.0
  0
LINE
  5
2CD
330
2
100
AcDbEntity
  8
GAIKEI
  6
Continuous
100
AcDbLine
 10
48.14715002857575
 20
-17.8099250229161
 30
0.0
 11
50.14509897857578
 21
-17.86224317291606
 31
0.0
  0
LINE
  5
2CE
330
2
100
AcDbEntity
  8
GAIKEI
  6
Continuous
100
AcDbLine
 10
50.1694610285757
 20
-17.83788112291608
 30
0.0
 11
50.1694610285757
 21
28.37340907708392
 31
0.0
  0
LINE
  5
2CF
330
2
100
AcDbEntity
  8
GAIKEI
  6
Continuous
 62
     1
100
AcDbLine
 10
50.1694610285757
 20
-16.35723602291608
 30
0.0
 11
52.98446102857575
 21
-16.35723602291608
 31
0.0
  0
LINE
  5
2D0
330
2
100
AcDbEntity
  8
GAIKEI
  6
Continuous
 62
     1
100
AcDbLine
 10
50.07946102857579
 20
-16.58223602291605
 30
0.0
 11
50.07950007857573
 21
-16.58223602291605
 31
0.0
  0
LINE
  5
2D1
330
2
100
AcDbEntity
  8
GAIKEI
  6
DASHED
 62
     1
100
AcDbLine
 10
50.13950007857579
 20
-16.44723847291607
 30
0.0
 11
50.13946102857572
 21
-16.44723847291607
 31
0.0
  0
LINE
  5
2D2
330
2
100
AcDbEntity
  8
GAIKEI
  6
Continuous
100
AcDbLine
 10
52.98446102857575
 20
-16.40723602291609
 30
0.0
 11
52.98446102857575
 21
26.86776397708394
 31
0.0
  0
LINE
  5
2D3
330
2
100
AcDbEntity
  8
GAIKEI
  6
Continuous
100
AcDbLine
 10
52.98446102857575
 20
-16.40723602291609
 30
0.0
 11
50.1694610285757
 21
-16.40723602291609
 31
0.0
  0
LINE
  5
2D4
330
2
100
AcDbEntity
  8
GAIKEI
  6
Continuous
100
AcDbLine
 10
52.49446102857575
 20
-16.40723602291609
 30
0.0
 11
52.49446102857575
 21
-16.35723602291608
 31
0.0
  0
LINE
  5
2D5
330
2
100
AcDbEntity
  8
GAIKEI
  6
Continuous
 62
     1
100
AcDbLine
 10
52.93446102857581
 20
-16.35723602291608
 30
0.0
 11
52.93446102857581
 21
-16.2722360229161
 31
0.0
  0
LINE
  5
2D6
330
2
100
AcDbEntity
  8
GAIKEI
  6
Continuous
100
AcDbLine
 10
52.98446102857575
 20
26.74793027708392
 30
0.0
 11
52.85932597857584
 21
26.76655812708395
 31
0.0
  0
LINE
  5
2D7
330
2
100
AcDbEntity
  8
GAIKEI
  6
Continuous
 62
     1
100
AcDbLine
 10
50.24071662857579
 20
27.22565132708393
 30
0.0
 11
50.2269456785758
 21
27.1331430770839
 31
0.0
  0
LINE
  5
2D8
330
2
100
AcDbEntity
  8
GAIKEI
  6
Continuous
100
AcDbLine
 10
52.39571662857578
 20
26.90485447708397
 30
0.0
 11
52.38194567857579
 21
26.81234622708393
 31
0.0
  0
LINE
  5
2D9
330
2
100
AcDbEntity
  8
GAIKEI
  6
Continuous
100
AcDbLine
 10
52.60985862857579
 20
26.87297692708392
 30
0.0
 11
52.59608772857575
 21
26.78046872708392
 31
0.0
  0
LINE
  5
2DA
330
2
100
AcDbEntity
  8
GAIKEI
  6
Continuous
100
AcDbLine
 10
52.49446102857575
 20
26.89015522708393
 30
0.0
 11
52.49446102857575
 21
26.94070617708394
 31
0.0
  0
LINE
  5
2DB
330
2
100
AcDbEntity
  8
GAIKEI
  6
Continuous
100
AcDbLine
 10
52.86941592857579
 20
26.83433882708391
 30
0.0
 11
52.85932597857584
 21
26.76655812708395
 31
0.0
  0
LINE
  5
2DC
330
2
100
AcDbEntity
  8
GAIKEI
  6
Continuous
100
AcDbLine
 10
52.93446102857581
 20
26.75537337708397
 30
0.0
 11
52.93446102857581
 21
26.82465607708394
 31
0.0
  0
LINE
  5
2DD
330
2
100
AcDbEntity
  8
GAIKEI
  6
Continuous
 62
     1
100
AcDbLine
 10
50.2269456785758
 20
27.1331430770839
 30
0.0
 11
50.1694610285757
 21
27.14170032708392
 31
0.0
  0
LINE
  5
2DE
330
2
100
AcDbEntity
  8
GAIKEI
  6
Continuous
100
AcDbLine
 10
52.59608772857575
 20
26.78046872708392
 30
0.0
 11
52.38194567857579
 21
26.81234622708393
 31
0.0
  0
LINE
  5
2DF
330
2
100
AcDbEntity
  8
GAIKEI
  6
Continuous
 62
     1
100
AcDbLine
 10
50.23946102857575
 20
-16.35723602291608
 30
0.0
 11
50.23946102857575
 21
-16.2722360229161
 31
0.0
  0
LINE
  5
2E0
330
2
100
AcDbEntity
  8
GAIKEI
  6
Continuous
 62
     1
100
AcDbLine
 10
52.39446102857584
 20
-16.35723602291608
 30
0.0
 11
52.39446102857584
 21
-16.2722360229161
 31
0.0
  0
LINE
  5
2E1
330
2
100
AcDbEntity
  8
GAIKEI
  6
Continuous
 62
     1
100
AcDbLine
 10
50.23946102857575
 20
-16.2722360229161
 30
0.0
 11
50.1694610285757
 21
-16.2722360229161
 31
0.0
  0
LINE
  5
2E2
330
2
100
AcDbEntity
  8
GAIKEI
  6
Continuous
 62
     1
100
AcDbLine
 10
52.39446102857584
 20
-16.2722360229161
 30
0.0
 11
52.57660462857575
 21
-16.2722360229161
 31
0.0
  0
LINE
  5
2E3
330
2
100
AcDbEntity
  8
GAIKEI
  6
Continuous
 62
     1
100
AcDbLine
 10
52.88083262857583
 20
-16.2722360229161
 30
0.0
 11
52.98446102857575
 21
-16.2722360229161
 31
0.0
  0
LINE
  5
2E4
330
2
100
AcDbEntity
  8
GAIKEI
  6
Continuous
 62
     1
100
AcDbLine
 10
52.57660462857575
 20
-16.35723602291608
 30
0.0
 11
52.57660462857575
 21
-16.2722360229161
 31
0.0
  0
LINE
  5
2E5
330
2
100
AcDbEntity
  8
GAIKEI
  6
Continuous
 62
     1
100
AcDbLine
 10
52.88083262857583
 20
-16.35723602291608
 30
0.0
 11
52.88083262857583
 21
-16.2722360229161
 31
0.0
  0
LINE
  5
2E6
330
2
100
AcDbEntity
  8
GAIKEI
  6
Continuous
 62
     1
100
AcDbLine
 10
52.49446102857575
 20
-16.2722360229161
 30
0.0
 11
52.49446102857575
 21
26.79559702708394
 31
0.0
  0
LINE
  5
2E7
330
2
100
AcDbEntity
  8
GAIKEI
  6
Continuous
100
AcDbLine
 10
50.1694610285757
 20
27.28680952708396
 30
0.0
 11
52.98446102857575
 21
26.86776397708394
 31
0.0
  0
LINE
  5
2E8
330
2
100
AcDbEntity
  8
GAIKEI
  6
Continuous
 62
     1
100
AcDbLine
 10
50.1694610285757
 20
27.23625852708392
 30
0.0
 11
52.93446102857581
 21
26.82465607708394
 31
0.0
  0
LINE
  5
2E9
330
2
100
AcDbEntity
  8
GAIKEI
  6
Continuous
 62
     1
100
AcDbLine
 10
52.98446102857575
 20
14.89276397708397
 30
0.0
 11
52.98446102857575
 21
13.89276397708397
 31
0.0
  0
LINE
  5
2EA
330
2
100
AcDbEntity
  8
GAIKEI
  6
Continuous
100
AcDbLine
 10
52.98446102857575
 20
-5.107236022916082
 30
0.0
 11
52.98446102857575
 21
-6.107236022916081
 31
0.0
  0
POINT
  5
2EB
330
2
100
AcDbEntity
  8
GAIKEI
  6
Continuous
100
AcDbPoint
 10
48.14715002857575
 20
5.267763977083972
 30
0.0
  0
POINT
  5
2EC
330
2
100
AcDbEntity
  8
GAIKEI
  6
Continuous
100
AcDbPoint
 10
48.0444610285757
 20
5.267763977083972
 30
0.0
  0
LINE
  5
2ED
330
2
100
AcDbEntity
  8
GAIKEI
  6
Continuous
100
AcDbLine
 10
48.0444610285757
 20
-17.70723602291605
 30
0.0
 11
48.04446102857582
 21
28.24276397708399
 31
0.0
  0
LINE
  5
2EE
330
2
100
AcDbEntity
  8
GAIKEI
  6
Continuous
100
AcDbLine
 10
57.93345472857573
 20
12.94276392708388
 30
0.0
 11
57.93345472857573
 21
11.34276402708394
 31
0.0
  0
LINE
  5
2EF
330
2
100
AcDbEntity
  8
GAIKEI
  6
Continuous
100
AcDbLine
 10
57.83345452857577
 20
13.04276382708394
 30
0.0
 11
57.83345452857577
 21
11.34276402708394
 31
0.0
  0
LINE
  5
2F0
330
2
100
AcDbEntity
  8
GAIKEI
  6
Continuous
100
AcDbLine
 10
57.7334546285757
 20
11.24276382708393
 30
0.0
 11
57.7334546285757
 21
10.44276402708391
 31
0.0
  0
ARC
  5
2F1
330
2
100
AcDbEntity
  8
GAIKEI
  6
Continuous
100
AcDbCircle
 10
57.83345452857577
 20
11.24276382708393
 30
0.0
 40
0.0999999
100
AcDbArc
 50
90.0
 51
180.0
  0
ARC
  5
2F2
330
2
100
AcDbEntity
  8
GAIKEI
  6
Continuous
100
AcDbCircle
 10
57.83345452857577
 20
11.34276402708394
 30
0.0
 40
0.0999999
100
AcDbArc
 50
270.0
 51
0.0
  0
LINE
  5
2F3
330
2
100
AcDbEntity
  8
GAIKEI
  6
Continuous
100
AcDbLine
 10
57.83345452857577
 20
12.94276392708388
 30
0.0
 11
57.18345472857571
 21
12.94276392708388
 31
0.0
  0
LINE
  5
2F4
330
2
100
AcDbEntity
  8
GAIKEI
  6
Continuous
100
AcDbLine
 10
57.83345452857577
 20
13.04276382708394
 30
0.0
 11
57.18345472857571
 21
13.04276382708394
 31
0.0
  0
LINE
  5
2F5
330
2
100
AcDbEntity
  8
GAIKEI
  6
Continuous
100
AcDbLine
 10
57.7334546285757
 20
10.44276402708391
 30
0.0
 11
56.93345452857579
 21
10.44276402708391
 31
0.0
  0
ARC
  5
2F6
330
2
100
AcDbEntity
  8
GAIKEI
  6
Continuous
100
AcDbCircle
 10
57.83345452857577
 20
12.94276392708388
 30
0.0
 40
0.0999999
100
AcDbArc
 50
0.0
 51
90.0
  0
ARC
  5
2F7
330
2
100
AcDbEntity
  8
GAIKEI
  6
Continuous
100
AcDbCircle
 10
57.7334546285757
 20
10.44276402708391
 30
0.0
 40
0.0999999
100
AcDbArc
 50
270.0
 51
0.0
  0
LINE
  5
2F8
330
2
100
AcDbEntity
  8
GAIKEI
  6
Continuous
100
AcDbLine
 10
57.18345472857571
 20
13.04276382708394
 30
0.0
 11
57.18345472857571
 21
12.94276392708388
 31
0.0
  0
LINE
  5
2F9
330
2
100
AcDbEntity
  8
GAIKEI
  6
Continuous
100
AcDbLine
 10
56.93345452857579
 20
10.44276402708391
 30
0.0
 11
56.93345452857579
 21
10.3427638270839
 31
0.0
  0
LINE
  5
2FA
330
2
100
AcDbEntity
  8
GAIKEI
  6
Continuous
100
AcDbLine
 10
57.93345472857573
 20
-17.05723607291605
 30
0.0
 11
57.93345472857573
 21
-15.45723617291605
 31
0.0
  0
LINE
  5
2FB
330
2
100
AcDbEntity
  8
GAIKEI
  6
Continuous
100
AcDbLine
 10
57.83345452857577
 20
-17.15723597291605
 30
0.0
 11
57.83345452857577
 21
-15.45723617291605
 31
0.0
  0
LINE
  5
2FC
330
2
100
AcDbEntity
  8
GAIKEI
  6
Continuous
100
AcDbLine
 10
57.83345452857577
 20
-15.3572359729161
 30
0.0
 11
57.83345452857577
 21
11.24276382708393
 31
0.0
  0
LINE
  5
2FD
330
2
100
AcDbEntity
  8
GAIKEI
  6
Continuous
100
AcDbLine
 10
57.7334546285757
 20
-15.3572359729161
 30
0.0
 11
57.7334546285757
 21
-14.55723617291607
 31
0.0
  0
ARC
  5
2FE
330
2
100
AcDbEntity
  8
GAIKEI
  6
Continuous
100
AcDbCircle
 10
57.83345452857577
 20
-15.3572359729161
 30
0.0
 40
0.0999999
100
AcDbArc
 50
180.0
 51
270.0
  0
ARC
  5
2FF
330
2
100
AcDbEntity
  8
GAIKEI
  6
Continuous
100
AcDbCircle
 10
57.83345452857577
 20
-15.45723617291605
 30
0.0
 40
0.0999999
100
AcDbArc
 50
0.0
 51
90.0
  0
LINE
  5
300
330
2
100
AcDbEntity
  8
GAIKEI
  6
Continuous
100
AcDbLine
 10
57.83345452857577
 20
-17.05723607291605
 30
0.0
 11
57.18345472857571
 21
-17.05723607291605
 31
0.0
  0
LINE
  5
301
330
2
100
AcDbEntity
  8
GAIKEI
  6
Continuous
100
AcDbLine
 10
57.83345452857577
 20
-17.15723597291605
 30
0.0
 11
57.18345472857571
 21
-17.15723597291605
 31
0.0
  0
LINE
  5
302
330
2
100
AcDbEntity
  8
GAIKEI
  6
Continuous
100
AcDbLine
 10
57.7334546285757
 20
-14.55723617291607
 30
0.0
 11
56.93345452857579
 21
-14.55723617291607
 31
0.0
  0
ARC
  5
303
330
2
100
AcDbEntity
  8
GAIKEI
  6
Continuous
100
AcDbCircle
 10
57.83345452857577
 20
-17.05723607291605
 30
0.0
 40
0.0999999
100
AcDbArc
 50
270.0
 51
0.0
  0
ARC
  5
304
330
2
100
AcDbEntity
  8
GAIKEI
  6
Continuous
100
AcDbCircle
 10
57.7334546285757
 20
-14.55723617291607
 30
0.0
 40
0.0999999
100
AcDbArc
 50
0.0
 51
90.0
  0
LINE
  5
305
330
2
100
AcDbEntity
  8
GAIKEI
  6
Continuous
100
AcDbLine
 10
57.18345472857571
 20
-17.15723597291605
 30
0.0
 11
57.18345472857571
 21
-17.05723607291605
 31
0.0
  0
LINE
  5
306
330
2
100
AcDbEntity
  8
GAIKEI
  6
Continuous
100
AcDbLine
 10
56.93345452857579
 20
-14.55723617291607
 30
0.0
 11
56.93345452857579
 21
-14.45723597291606
 31
0.0
  0
LINE
  5
307
330
2
100
AcDbEntity
  8
GAIKEI
  6
Continuous
100
AcDbLine
 10
57.7334546285757
 20
11.21776392708392
 30
0.0
 11
57.58345462857572
 21
11.21776392708392
 31
0.0
  0
LINE
  5
308
330
2
100
AcDbEntity
  8
GAIKEI
  6
Continuous
100
AcDbLine
 10
57.7334546285757
 20
11.11776402708392
 30
0.0
 11
57.58345462857572
 21
11.11776402708392
 31
0.0
  0
LINE
  5
309
330
2
100
AcDbEntity
  8
GAIKEI
  6
Continuous
100
AcDbLine
 10
57.58345462857572
 20
11.11776402708392
 30
0.0
 11
57.58345462857572
 21
11.21776392708392
 31
0.0
  0
ARC
  5
30A
330
2
100
AcDbEntity
  8
GAIKEI
  6
Continuous
100
AcDbCircle
 10
57.83345452857577
 20
11.11776402708392
 30
0.0
 40
0.0999999
100
AcDbArc
 50
0.0
 51
90.0
  0
LINE
  5
30B
330
2
100
AcDbEntity
  8
GAIKEI
  6
Continuous
100
AcDbLine
 10
57.7334546285757
 20
-15.33223607291609
 30
0.0
 11
57.58345462857572
 21
-15.33223607291609
 31
0.0
  0
LINE
  5
30C
330
2
100
AcDbEntity
  8
GAIKEI
  6
Continuous
100
AcDbLine
 10
57.7334546285757
 20
-15.23223617291608
 30
0.0
 11
57.58345462857572
 21
-15.23223617291608
 31
0.0
  0
LINE
  5
30D
330
2
100
AcDbEntity
  8
GAIKEI
  6
Continuous
100
AcDbLine
 10
57.58345462857572
 20
-15.23223617291608
 30
0.0
 11
57.58345462857572
 21
-15.33223607291609
 31
0.0
  0
ARC
  5
30E
330
2
100
AcDbEntity
  8
GAIKEI
  6
Continuous
100
AcDbCircle
 10
57.83345452857577
 20
-15.23223617291608
 30
0.0
 40
0.0999999
100
AcDbArc
 50
270.0
 51
0.0
  0
LINE
  5
30F
330
2
100
AcDbEntity
  8
GAIKEI
  6
Continuous
100
AcDbLine
 10
57.93345472857573
 20
-15.23223617291608
 30
0.0
 11
57.93345472857573
 21
11.11776402708392
 31
0.0
  0
LINE
  5
310
330
2
100
AcDbEntity
  8
GAIKEI
  6
Continuous
100
AcDbLine
 10
57.83345452857577
 20
-14.45723597291606
 30
0.0
 11
56.28345472857574
 21
-14.45723597291606
 31
0.0
  0
ARC
  5
311
330
2
100
AcDbEntity
  8
GAIKEI
  6
Continuous
100
AcDbCircle
 10
56.28345472857574
 20
-14.35723607291606
 30
0.0
 40
0.0999999
100
AcDbArc
 50
180.0
 51
270.0
  0
LINE
  5
312
330
2
100
AcDbEntity
  8
GAIKEI
  6
Continuous
100
AcDbLine
 10
57.83345452857577
 20
-14.35723607291606
 30
0.0
 11
56.28345472857574
 21
-14.35723607291606
 31
0.0
  0
LINE
  5
313
330
2
100
AcDbEntity
  8
GAIKEI
  6
Continuous
100
AcDbLine
 10
56.28345472857574
 20
-14.35723607291606
 30
0.0
 11
56.28345472857574
 21
-14.33223617291605
 31
0.0
  0
LINE
  5
314
330
2
100
AcDbEntity
  8
GAIKEI
  6
Continuous
100
AcDbLine
 10
57.83345452857577
 20
10.3427638270839
 30
0.0
 11
56.28345472857574
 21
10.3427638270839
 31
0.0
  0
ARC
  5
315
330
2
100
AcDbEntity
  8
GAIKEI
  6
Continuous
100
AcDbCircle
 10
56.28345472857574
 20
10.24276392708389
 30
0.0
 40
0.0999999
100
AcDbArc
 50
90.0
 51
180.0
  0
LINE
  5
316
330
2
100
AcDbEntity
  8
GAIKEI
  6
Continuous
100
AcDbLine
 10
57.83345452857577
 20
10.24276392708389
 30
0.0
 11
56.28345472857574
 21
10.24276392708389
 31
0.0
  0
LINE
  5
317
330
2
100
AcDbEntity
  8
GAIKEI
  6
Continuous
100
AcDbLine
 10
56.28345472857574
 20
10.24276392708389
 30
0.0
 11
56.28345472857574
 21
10.21776402708394
 31
0.0
  0
LINE
  5
318
330
2
100
AcDbEntity
  8
GAIKEI
  6
Continuous
100
AcDbLine
 10
57.83345452857577
 20
10.21776402708394
 30
0.0
 11
56.18345452857579
 21
10.21776402708394
 31
0.0
  0
LINE
  5
319
330
2
100
AcDbEntity
  8
GAIKEI
  6
Continuous
100
AcDbLine
 10
56.18345452857579
 20
-14.33223617291605
 30
0.0
 11
57.83345452857577
 21
-14.33223617291605
 31
0.0
  0
LINE
  5
31A
330
2
100
AcDbEntity
  8
GAIKEI
  6
Continuous
100
AcDbLine
 10
56.18345452857579
 20
-14.35723607291606
 30
0.0
 11
56.18345452857579
 21
-13.95721772291608
 31
0.0
  0
CIRCLE
  5
31B
330
2
100
AcDbEntity
  8
GAIKEI
  6
Continuous
 62
     1
100
AcDbCircle
 10
56.70845452857577
 20
5.142763927083933
 30
0.0
 40
0.2124999
  0
LINE
  5
31C
330
2
100
AcDbEntity
  8
GAIKEI
  6
Continuous
100
AcDbLine
 10
56.18345452857579
 20
10.24276392708389
 30
0.0
 11
56.18345452857579
 21
2.660426827083937
 31
0.0
  0
LINE
  5
31D
330
2
100
AcDbEntity
  8
GAIKEI
  6
Continuous
100
AcDbLine
 10
56.18345452857579
 20
-10.60711782291605
 30
0.0
 11
56.18345452857579
 21
0.4422952270839461
 31
0.0
  0
ARC
  5
31E
330
2
100
AcDbEntity
  8
GAIKEI
  6
Continuous
100
AcDbCircle
 10
57.33345472857571
 20
10.29276402708393
 30
0.0
 40
0.2850000000000001
100
AcDbArc
 50
67.84008199999944
 51
82.6879780000034
  0
LINE
  5
31F
330
2
100
AcDbEntity
  8
GAIKEI
  6
Continuous
100
AcDbLine
 10
57.44095462857568
 20
10.55671212708392
 30
0.0
 11
57.44095462857568
 21
10.58245122708393
 31
0.0
  0
LINE
  5
320
330
2
100
AcDbEntity
  8
GAIKEI
  6
Continuous
100
AcDbLine
 10
57.22595452857571
 20
10.55671212708392
 30
0.0
 11
57.22595452857571
 21
10.58245122708393
 31
0.0
  0
LINE
  5
321
330
2
100
AcDbEntity
  8
GAIKEI
  6
Continuous
100
AcDbLine
 10
57.30845452857579
 20
10.56552762708389
 30
0.0
 11
57.30845452857579
 21
10.55658192708392
 31
0.0
  0
LINE
  5
322
330
2
100
AcDbEntity
  8
GAIKEI
  6
Continuous
100
AcDbLine
 10
57.35845462857572
 20
10.56552762708389
 30
0.0
 11
57.35845462857572
 21
10.55658192708392
 31
0.0
  0
ARC
  5
323
330
2
100
AcDbEntity
  8
GAIKEI
  6
Continuous
100
AcDbCircle
 10
57.33345472857571
 20
10.29276402708393
 30
0.0
 40
0.2649999
100
AcDbArc
 50
84.58668800000028
 51
95.41331199999971
  0
ARC
  5
324
330
2
100
AcDbEntity
  8
GAIKEI
  6
Continuous
100
AcDbCircle
 10
57.33345472857571
 20
10.29276402708393
 30
0.0
 40
0.2850000000000001
100
AcDbArc
 50
97.31202199999659
 51
112.1599180000005
  0
ARC
  5
325
330
2
100
AcDbEntity
  8
GAIKEI
  6
Continuous
100
AcDbCircle
 10
57.29845462857578
 20
10.56552762708389
 30
0.0
 40
0.0099999
100
AcDbArc
 50
0.0
 51
97.31202199999659
  0
ARC
  5
326
330
2
100
AcDbEntity
  8
GAIKEI
  6
Continuous
100
AcDbCircle
 10
57.36845452857575
 20
10.56552762708389
 30
0.0
 40
0.0099999
100
AcDbArc
 50
82.6879780000034
 51
180.0
  0
LINE
  5
327
330
2
100
AcDbEntity
  8
GAIKEI
  6
Continuous
100
AcDbLine
 10
57.03845452857571
 20
10.46015022708388
 30
0.0
 11
57.03845452857571
 21
10.44276402708391
 31
0.0
  0
LINE
  5
328
330
2
100
AcDbEntity
  8
GAIKEI
  6
Continuous
100
AcDbLine
 10
57.62845462857569
 20
10.46015022708388
 30
0.0
 11
57.62845462857569
 21
10.44276402708391
 31
0.0
  0
LINE
  5
329
330
2
100
AcDbEntity
  8
GAIKEI
  6
Continuous
100
AcDbLine
 10
57.03845452857571
 20
10.46015022708388
 30
0.0
 11
57.62845462857569
 21
10.46015022708388
 31
0.0
  0
ARC
  5
32A
330
2
100
AcDbEntity
  8
GAIKEI
  6
Continuous
100
AcDbCircle
 10
57.33345472857571
 20
10.21276392708392
 30
0.0
 40
0.3849999
100
AcDbArc
 50
39.98312100000408
 51
140.0168789999959
  0
LINE
  5
32B
330
2
100
AcDbEntity
  8
GAIKEI
  6
Continuous
 62
     1
100
AcDbLine
 10
56.85244882857579
 20
2.317763827083921
 30
0.0
 11
56.85244882857579
 21
2.267764027083898
 31
0.0
  0
LINE
  5
32C
330
2
100
AcDbEntity
  8
GAIKEI
  6
Continuous
 62
     1
100
AcDbLine
 10
56.56446052857575
 20
2.317763827083921
 30
0.0
 11
56.56446052857575
 21
2.267764027083898
 31
0.0
  0
LINE
  5
32D
330
2
100
AcDbEntity
  8
GAIKEI
  6
Continuous
 62
     1
100
AcDbLine
 10
56.68345462857575
 20
2.436757927083931
 30
0.0
 11
56.68345462857575
 21
2.367763927083898
 31
0.0
  0
LINE
  5
32E
330
2
100
AcDbEntity
  8
GAIKEI
  6
Continuous
 62
     1
100
AcDbLine
 10
56.7334547285758
 20
2.436757927083931
 30
0.0
 11
56.7334547285758
 21
2.367763927083898
 31
0.0
  0
LINE
  5
32F
330
2
100
AcDbEntity
  8
GAIKEI
  6
Continuous
 62
     1
100
AcDbLine
 10
56.68345462857575
 20
2.436757927083931
 30
0.0
 11
56.7334547285758
 21
2.436757927083931
 31
0.0
  0
LINE
  5
330
330
2
100
AcDbEntity
  8
GAIKEI
  6
Continuous
 62
     1
100
AcDbLine
 10
56.68345462857575
 20
2.148769627083936
 30
0.0
 11
56.7334547285758
 21
2.148769627083936
 31
0.0
  0
LINE
  5
331
330
2
100
AcDbEntity
  8
GAIKEI
  6
Continuous
 62
     1
100
AcDbLine
 10
56.56446052857575
 20
2.267764027083898
 30
0.0
 11
56.63345452857573
 21
2.267764027083898
 31
0.0
  0
LINE
  5
332
330
2
100
AcDbEntity
  8
GAIKEI
  6
Continuous
 62
     1
100
AcDbLine
 10
56.7834545285758
 20
2.317763827083921
 30
0.0
 11
56.85244882857579
 21
2.317763827083921
 31
0.0
  0
ARC
  5
333
330
2
100
AcDbEntity
  8
GAIKEI
  6
Continuous
 62
     1
100
AcDbCircle
 10
56.63345452857573
 20
2.367763927083898
 30
0.0
 40
0.0500001
100
AcDbArc
 50
270.0
 51
0.0
  0
ARC
  5
334
330
2
100
AcDbEntity
  8
GAIKEI
  6
Continuous
 62
     1
100
AcDbCircle
 10
56.63345452857573
 20
2.217763927083921
 30
0.0
 40
0.0500001
100
AcDbArc
 50
0.0
 51
90.0
  0
ARC
  5
335
330
2
100
AcDbEntity
  8
GAIKEI
  6
Continuous
 62
     1
100
AcDbCircle
 10
56.7834545285758
 20
2.217763927083921
 30
0.0
 40
0.0500001
100
AcDbArc
 50
90.0
 51
180.0
  0
ARC
  5
336
330
2
100
AcDbEntity
  8
GAIKEI
  6
Continuous
 62
     1
100
AcDbCircle
 10
56.7834545285758
 20
2.367763927083898
 30
0.0
 40
0.0500001
100
AcDbArc
 50
180.0
 51
270.0
  0
LINE
  5
337
330
2
100
AcDbEntity
  8
GAIKEI
  6
Continuous
 62
     1
100
AcDbLine
 10
56.63345452857573
 20
2.317763827083921
 30
0.0
 11
56.56446052857575
 21
2.317763827083921
 31
0.0
  0
LINE
  5
338
330
2
100
AcDbEntity
  8
GAIKEI
  6
Continuous
 62
     1
100
AcDbLine
 10
56.7834545285758
 20
2.267764027083898
 30
0.0
 11
56.85244882857579
 21
2.267764027083898
 31
0.0
  0
LINE
  5
339
330
2
100
AcDbEntity
  8
GAIKEI
  6
Continuous
 62
     1
100
AcDbLine
 10
56.7334547285758
 20
2.217763927083921
 30
0.0
 11
56.7334547285758
 21
2.148769627083936
 31
0.0
  0
LINE
  5
33A
330
2
100
AcDbEntity
  8
GAIKEI
  6
Continuous
 62
     1
100
AcDbLine
 10
56.68345462857575
 20
2.217763927083921
 30
0.0
 11
56.68345462857575
 21
2.148769627083936
 31
0.0
  0
LINE
  5
33B
330
2
100
AcDbEntity
  8
GAIKEI
  6
Continuous
 62
     1
100
AcDbLine
 10
57.06795472857573
 20
2.292763927083909
 30
0.0
 11
56.88820462857576
 21
1.981427827083905
 31
0.0
  0
LINE
  5
33C
330
2
100
AcDbEntity
  8
GAIKEI
  6
Continuous
 62
     1
100
AcDbLine
 10
56.88820462857576
 20
1.981427827083905
 30
0.0
 11
56.52870472857578
 21
1.981427827083905
 31
0.0
  0
LINE
  5
33D
330
2
100
AcDbEntity
  8
GAIKEI
  6
Continuous
 62
     1
100
AcDbLine
 10
56.52870472857578
 20
1.981427827083905
 30
0.0
 11
56.34895462857581
 21
2.292763927083909
 31
0.0
  0
LINE
  5
33E
330
2
100
AcDbEntity
  8
GAIKEI
  6
Continuous
 62
     1
100
AcDbLine
 10
56.34895462857581
 20
2.292763927083909
 30
0.0
 11
56.52870472857578
 21
2.604100027083915
 31
0.0
  0
LINE
  5
33F
330
2
100
AcDbEntity
  8
GAIKEI
  6
Continuous
 62
     1
100
AcDbLine
 10
56.52870472857578
 20
2.604100027083915
 30
0.0
 11
56.88820462857576
 21
2.604100027083915
 31
0.0
  0
LINE
  5
340
330
2
100
AcDbEntity
  8
GAIKEI
  6
Continuous
 62
     1
100
AcDbLine
 10
56.88820462857576
 20
2.604100027083915
 30
0.0
 11
57.06795472857573
 21
2.292763927083909
 31
0.0
  0
CIRCLE
  5
341
330
2
100
AcDbEntity
  8
GAIKEI
  6
Continuous
 62
     1
100
AcDbCircle
 10
56.70845452857577
 20
2.292763927083909
 30
0.0
 40
0.3113361000000001
  0
CIRCLE
  5
342
330
2
100
AcDbEntity
  8
GAIKEI
  6
Continuous
 62
     1
100
AcDbCircle
 10
56.70845452857577
 20
2.292763927083909
 30
0.0
 40
0.4250001000000001
  0
CIRCLE
  5
343
330
2
100
AcDbEntity
  8
GAIKEI
  6
Continuous
 62
     1
100
AcDbCircle
 10
56.70845452857577
 20
2.292763927083909
 30
0.0
 40
0.3624999
  0
LINE
  5
344
330
2
100
AcDbEntity
  8
GAIKEI
  6
Continuous
 62
     1
100
AcDbLine
 10
56.72795002857572
 20
1.930788427083939
 30
0.0
 11
56.72795002857572
 21
1.981427827083905
 31
0.0
  0
LINE
  5
345
330
2
100
AcDbEntity
  8
GAIKEI
  6
Continuous
 62
     1
100
AcDbLine
 10
56.68406932857578
 20
1.931085127083916
 30
0.0
 11
56.68406932857578
 21
1.981427827083905
 31
0.0
  0
CIRCLE
  5
346
330
2
100
AcDbEntity
  8
GAIKEI
  6
Continuous
 62
     1
100
AcDbCircle
 10
56.70845452857577
 20
6.592763827083898
 30
0.0
 40
0.2124999
  0
CIRCLE
  5
347
330
2
100
AcDbEntity
  8
GAIKEI
  6
Continuous
 62
     1
100
AcDbCircle
 10
56.70845452857577
 20
7.342763827083898
 30
0.0
 40
0.2124999
  0
LINE
  5
348
330
2
100
AcDbEntity
  8
GAIKEI
  6
Continuous
 62
     1
100
AcDbLine
 10
56.84192872857579
 20
-13.39770497291607
 30
0.0
 11
56.85418402857578
 21
-13.4461798729161
 31
0.0
  0
LINE
  5
349
330
2
100
AcDbEntity
  8
GAIKEI
  6
Continuous
 62
     1
100
AcDbLine
 10
56.56272502857575
 20
-13.46829227291607
 30
0.0
 11
56.57498032857574
 21
-13.5167671729161
 31
0.0
  0
LINE
  5
34A
330
2
100
AcDbEntity
  8
GAIKEI
  6
Continuous
 62
     1
100
AcDbLine
 10
56.64892372857583
 20
-13.32376187291606
 30
0.0
 11
56.66583442857575
 21
-13.39065137291606
 31
0.0
  0
LINE
  5
34B
330
2
100
AcDbEntity
  8
GAIKEI
  6
Continuous
 62
     1
100
AcDbLine
 10
56.6973983285758
 20
-13.31150657291607
 30
0.0
 11
56.71430932857571
 21
-13.37839637291608
 31
0.0
  0
LINE
  5
34C
330
2
100
AcDbEntity
  8
GAIKEI
  6
Continuous
 62
     1
100
AcDbLine
 10
56.64892372857583
 20
-13.32376187291606
 30
0.0
 11
56.6973983285758
 21
-13.31150657291607
 31
0.0
  0
LINE
  5
34D
330
2
100
AcDbEntity
  8
GAIKEI
  6
Continuous
 62
     1
100
AcDbLine
 10
56.71951072857575
 20
-13.6029655729161
 30
0.0
 11
56.76798562857572
 21
-13.59071027291605
 31
0.0
  0
LINE
  5
34E
330
2
100
AcDbEntity
  8
GAIKEI
  6
Continuous
 62
     1
100
AcDbLine
 10
56.57498032857574
 20
-13.5167671729161
 30
0.0
 11
56.64186982857575
 21
-13.49985647291606
 31
0.0
  0
LINE
  5
34F
330
2
100
AcDbEntity
  8
GAIKEI
  6
Continuous
 62
     1
100
AcDbLine
 10
56.77503922857579
 20
-13.41461597291606
 30
0.0
 11
56.84192872857579
 21
-13.39770497291607
 31
0.0
  0
ARC
  5
350
330
2
100
AcDbEntity
  8
GAIKEI
  6
Continuous
 62
     1
100
AcDbCircle
 10
56.61735952857577
 20
-13.40290667291606
 30
0.0
 40
0.0500001
100
AcDbArc
 50
284.1879930000038
 51
14.18799300000105
  0
ARC
  5
351
330
2
100
AcDbEntity
  8
GAIKEI
  6
Continuous
 62
     1
100
AcDbCircle
 10
56.65412512857574
 20
-13.54833107291608
 30
0.0
 40
0.0500001
100
AcDbArc
 50
14.18799300000105
 51
104.1879930000038
  0
ARC
  5
352
330
2
100
AcDbEntity
  8
GAIKEI
  6
Continuous
 62
     1
100
AcDbCircle
 10
56.79954982857577
 20
-13.51156547291606
 30
0.0
 40
0.0500001
100
AcDbArc
 50
104.1879930000038
 51
194.187993000001
  0
ARC
  5
353
330
2
100
AcDbEntity
  8
GAIKEI
  6
Continuous
 62
     1
100
AcDbCircle
 10
56.76278392857579
 20
-13.36614107291609
 30
0.0
 40
0.0500001
100
AcDbArc
 50
194.187993000001
 51
284.1879930000038
  0
LINE
  5
354
330
2
100
AcDbEntity
  8
GAIKEI
  6
Continuous
 62
     1
100
AcDbLine
 10
56.62961482857578
 20
-13.45138157291609
 30
0.0
 11
56.56272502857575
 21
-13.46829227291607
 31
0.0
  0
LINE
  5
355
330
2
100
AcDbEntity
  8
GAIKEI
  6
Continuous
 62
     1
100
AcDbLine
 10
56.78729452857578
 20
-13.46309057291608
 30
0.0
 11
56.85418402857578
 21
-13.4461798729161
 31
0.0
  0
LINE
  5
356
330
2
100
AcDbEntity
  8
GAIKEI
  6
Continuous
 62
     1
100
AcDbLine
 10
56.75107492857581
 20
-13.52382077291611
 30
0.0
 11
56.76798562857572
 21
-13.59071027291605
 31
0.0
  0
LINE
  5
357
330
2
100
AcDbEntity
  8
GAIKEI
  6
Continuous
 62
     1
100
AcDbLine
 10
56.70260002857583
 20
-13.5360760729161
 30
0.0
 11
56.71951072857575
 21
-13.6029655729161
 31
0.0
  0
LINE
  5
358
330
2
100
AcDbEntity
  8
GAIKEI
  6
Continuous
 62
     1
100
AcDbLine
 10
57.05698882857575
 20
-13.36912127291606
 30
0.0
 11
56.95903132857575
 21
-13.71501797291608
 31
0.0
  0
LINE
  5
359
330
2
100
AcDbEntity
  8
GAIKEI
  6
Continuous
 62
     1
100
AcDbLine
 10
56.95903132857575
 20
-13.71501797291608
 30
0.0
 11
56.61049732857577
 21
-13.80313307291606
 31
0.0
  0
LINE
  5
35A
330
2
100
AcDbEntity
  8
GAIKEI
  6
Continuous
 62
     1
100
AcDbLine
 10
56.61049732857577
 20
-13.80313307291606
 30
0.0
 11
56.35992052857579
 21
-13.54535117291607
 31
0.0
  0
LINE
  5
35B
330
2
100
AcDbEntity
  8
GAIKEI
  6
Continuous
 62
     1
100
AcDbLine
 10
56.35992052857579
 20
-13.54535117291607
 30
0.0
 11
56.4578777285758
 21
-13.19945417291609
 31
0.0
  0
LINE
  5
35C
330
2
100
AcDbEntity
  8
GAIKEI
  6
Continuous
 62
     1
100
AcDbLine
 10
56.4578777285758
 20
-13.19945417291609
 30
0.0
 11
56.80641172857575
 21
-13.11133937291606
 31
0.0
  0
LINE
  5
35D
330
2
100
AcDbEntity
  8
GAIKEI
  6
Continuous
 62
     1
100
AcDbLine
 10
56.80641172857575
 20
-13.11133937291606
 30
0.0
 11
57.05698882857575
 21
-13.36912127291606
 31
0.0
  0
CIRCLE
  5
35E
330
2
100
AcDbEntity
  8
GAIKEI
  6
Continuous
 62
     1
100
AcDbCircle
 10
56.70845452857577
 20
-13.45723607291609
 30
0.0
 40
0.3113361000000001
  0
CIRCLE
  5
35F
330
2
100
AcDbEntity
  8
GAIKEI
  6
Continuous
 62
     1
100
AcDbCircle
 10
56.70845452857577
 20
-13.45723607291609
 30
0.0
 40
0.4250001000000001
  0
CIRCLE
  5
360
330
2
100
AcDbEntity
  8
GAIKEI
  6
Continuous
 62
     1
100
AcDbCircle
 10
56.70845452857577
 20
-13.45723607291609
 30
0.0
 40
0.3624999
  0
LINE
  5
361
330
2
100
AcDbEntity
  8
GAIKEI
  6
Continuous
 62
     1
100
AcDbLine
 10
56.81607682857578
 20
-13.80339167291606
 30
0.0
 11
56.80366522857582
 21
-13.7542969729161
 31
0.0
  0
LINE
  5
362
330
2
100
AcDbEntity
  8
GAIKEI
  6
Continuous
 62
     1
100
AcDbLine
 10
56.77346212857571
 20
-13.8138595729161
 30
0.0
 11
56.76112312857572
 21
-13.76505227291608
 31
0.0
  0
POINT
  5
363
330
2
100
AcDbEntity
  8
S1
  6
HIDDEN2
100
AcDbPoint
 10
-50.57186558954106
 20
-16.4822359729161
 30
0.0
  0
POINT
  5
364
330
2
100
AcDbEntity
  8
S1
  6
HIDDEN2
100
AcDbPoint
 10
-50.57186558954106
 20
-16.13223617291606
 30
0.0
  0
POINT
  5
365
330
2
100
AcDbEntity
  8
S1
  6
HIDDEN2
100
AcDbPoint
 10
-50.57186558954106
 20
-16.30723607291605
 30
0.0
  0
POINT
  5
366
330
2
100
AcDbEntity
  8
S1
  6
HIDDEN2
100
AcDbPoint
 10
13.88813451045894
 20
12.36776382708393
 30
0.0
  0
POINT
  5
367
330
2
100
AcDbEntity
  8
S1
  6
HIDDEN2
100
AcDbPoint
 10
13.88813451045894
 20
12.01776402708389
 30
0.0
  0
POINT
  5
368
330
2
100
AcDbEntity
  8
S1
  6
HIDDEN2
100
AcDbPoint
 10
13.88813451045894
 20
12.19276392708388
 30
0.0
  0
POINT
  5
369
330
2
100
AcDbEntity
  8
S1
  6
HIDDEN2
100
AcDbPoint
 10
13.88813451045894
 20
-16.13223617291606
 30
0.0
  0
POINT
  5
36A
330
2
100
AcDbEntity
  8
S1
  6
HIDDEN2
100
AcDbPoint
 10
13.88813451045894
 20
-16.4822359729161
 30
0.0
  0
POINT
  5
36B
330
2
100
AcDbEntity
  8
S1
  6
HIDDEN2
100
AcDbPoint
 10
13.88813451045894
 20
-16.30723607291605
 30
0.0
  0
LINE
  5
36C
330
2
100
AcDbEntity
  8
S1
  6
HIDDEN2
100
AcDbLine
 10
-18.34186568954106
 20
7.367764027083921
 30
0.0
 11
-18.34186568954106
 21
-14.45723597291606
 31
0.0
  0
ARC
  5
36D
330
2
100
AcDbEntity
  8
S1
  6
HIDDEN2
100
AcDbCircle
 10
7.388134410458917
 20
-1.132236172916065
 30
0.0
 40
0.0999999
100
AcDbArc
 50
180.0
 51
270.0
  0
ARC
  5
36E
330
2
100
AcDbEntity
  8
S1
  6
HIDDEN2
100
AcDbCircle
 10
9.688134510458953
 20
-1.132236172916065
 30
0.0
 40
0.0999999
100
AcDbArc
 50
270.0
 51
0.0
  0
ARC
  5
36F
330
2
100
AcDbEntity
  8
S1
  6
HIDDEN2
100
AcDbCircle
 10
7.388134410458917
 20
8.66776392708391
 30
0.0
 40
0.0999999
100
AcDbArc
 50
90.0
 51
180.0
  0
ARC
  5
370
330
2
100
AcDbEntity
  8
S1
  6
HIDDEN2
100
AcDbCircle
 10
9.688134510458953
 20
8.66776392708391
 30
0.0
 40
0.0999999
100
AcDbArc
 50
0.0
 51
90.0
  0
LINE
  5
371
330
2
100
AcDbEntity
  8
S1
  6
HIDDEN2
100
AcDbLine
 10
9.688134510458953
 20
8.767763827083911
 30
0.0
 11
7.388134410458917
 21
8.767763827083911
 31
0.0
  0
LINE
  5
372
330
2
100
AcDbEntity
  8
S1
  6
HIDDEN2
100
AcDbLine
 10
9.688134510458953
 20
-1.232236072916065
 30
0.0
 11
7.388134410458917
 21
-1.232236072916065
 31
0.0
  0
LINE
  5
373
330
2
100
AcDbEntity
  8
S1
  6
HIDDEN2
100
AcDbLine
 10
7.288134510458917
 20
8.66776392708391
 30
0.0
 11
7.288134510458917
 21
-1.132236172916065
 31
0.0
  0
LINE
  5
374
330
2
100
AcDbEntity
  8
S1
  6
HIDDEN2
100
AcDbLine
 10
9.788134410458953
 20
8.66776392708391
 30
0.0
 11
9.788134410458953
 21
-1.132236172916065
 31
0.0
  0
CIRCLE
  5
375
330
2
100
AcDbEntity
  8
S1
  6
HIDDEN2
100
AcDbCircle
 10
-18.34186568954106
 20
9.61776402708392
 30
0.0
 40
0.1250001
  0
LINE
  5
376
330
2
100
AcDbEntity
  8
S1
  6
HIDDEN2
100
AcDbLine
 10
-17.09186558954104
 20
8.367763927083899
 30
0.0
 11
-18.34186568954106
 21
9.367763827083932
 31
0.0
  0
LINE
  5
377
330
2
100
AcDbEntity
  8
S1
  6
HIDDEN2
100
AcDbLine
 10
-17.59186568954106
 20
8.367763927083899
 30
0.0
 11
-17.09186558954104
 21
8.367763927083899
 31
0.0
  0
LINE
  5
378
330
2
100
AcDbEntity
  8
S1
  6
HIDDEN2
100
AcDbLine
 10
-17.59186568954106
 20
7.367764027083921
 30
0.0
 11
-17.59186568954106
 21
8.367763927083899
 31
0.0
  0
LINE
  5
379
330
2
100
AcDbEntity
  8
S1
  6
HIDDEN2
100
AcDbLine
 10
-19.09186568954106
 20
7.367764027083921
 30
0.0
 11
-17.59186568954106
 21
7.367764027083921
 31
0.0
  0
LINE
  5
37A
330
2
100
AcDbEntity
  8
S1
  6
HIDDEN2
100
AcDbLine
 10
-19.09186568954106
 20
8.367763927083899
 30
0.0
 11
-19.09186568954106
 21
7.367764027083921
 31
0.0
  0
LINE
  5
37B
330
2
100
AcDbEntity
  8
S1
  6
HIDDEN2
100
AcDbLine
 10
-19.59186548954107
 20
8.367763927083899
 30
0.0
 11
-19.09186568954106
 21
8.367763927083899
 31
0.0
  0
LINE
  5
37C
330
2
100
AcDbEntity
  8
S1
  6
HIDDEN2
100
AcDbLine
 10
-18.34186568954106
 20
9.367763827083932
 30
0.0
 11
-19.59186548954107
 21
8.367763927083899
 31
0.0
  0
ARC
  5
37D
330
2
100
AcDbEntity
  8
S1
  6
HIDDEN2
100
AcDbCircle
 10
-44.07186548954109
 20
-1.132236172916065
 30
0.0
 40
0.0999999
100
AcDbArc
 50
270.0
 51
0.0
  0
ARC
  5
37E
330
2
100
AcDbEntity
  8
S1
  6
HIDDEN2
100
AcDbCircle
 10
-46.37186558954107
 20
-1.132236172916065
 30
0.0
 40
0.0999999
100
AcDbArc
 50
180.0
 51
270.0
  0
ARC
  5
37F
330
2
100
AcDbEntity
  8
S1
  6
HIDDEN2
100
AcDbCircle
 10
-44.07186548954109
 20
8.66776392708391
 30
0.0
 40
0.0999999
100
AcDbArc
 50
0.0
 51
90.0
  0
ARC
  5
380
330
2
100
AcDbEntity
  8
S1
  6
HIDDEN2
100
AcDbCircle
 10
-46.37186558954107
 20
8.66776392708391
 30
0.0
 40
0.0999999
100
AcDbArc
 50
90.0
 51
180.0
  0
LINE
  5
381
330
2
100
AcDbEntity
  8
S1
  6
HIDDEN2
100
AcDbLine
 10
-46.37186558954107
 20
8.767763827083911
 30
0.0
 11
-44.07186548954109
 21
8.767763827083911
 31
0.0
  0
LINE
  5
382
330
2
100
AcDbEntity
  8
S1
  6
HIDDEN2
100
AcDbLine
 10
-46.37186558954107
 20
-1.232236072916065
 30
0.0
 11
-44.07186548954109
 21
-1.232236072916065
 31
0.0
  0
LINE
  5
383
330
2
100
AcDbEntity
  8
S1
  6
HIDDEN2
100
AcDbLine
 10
-43.97186558954103
 20
8.66776392708391
 30
0.0
 11
-43.97186558954103
 21
-1.132236172916065
 31
0.0
  0
LINE
  5
384
330
2
100
AcDbEntity
  8
S1
  6
HIDDEN2
100
AcDbLine
 10
-46.47186548954107
 20
8.66776392708391
 30
0.0
 11
-46.47186548954107
 21
-1.132236172916065
 31
0.0
  0
LINE
  5
385
330
2
100
AcDbEntity
  8
S1
  6
HIDDEN2
100
AcDbLine
 10
-46.84686548954107
 20
-13.95723617291605
 30
0.0
 11
-46.84686548954107
 21
-14.45723597291606
 31
0.0
  0
LINE
  5
386
330
2
100
AcDbEntity
  8
S1
  6
HIDDEN2
100
AcDbLine
 10
-43.59686558954103
 20
-13.95723617291605
 30
0.0
 11
-43.59686558954103
 21
-14.45723597291606
 31
0.0
  0
LINE
  5
387
330
2
100
AcDbEntity
  8
S1
  6
HIDDEN2
100
AcDbLine
 10
-46.95936548954104
 20
12.94276392708388
 30
0.0
 11
-51.34186568954106
 21
12.94276392708388
 31
0.0
  0
LINE
  5
388
330
2
100
AcDbEntity
  8
S1
  6
HIDDEN2
100
AcDbLine
 10
-46.95936548954104
 20
13.04276382708394
 30
0.0
 11
-51.34186568954106
 21
13.04276382708394
 31
0.0
  0
LINE
  5
389
330
2
100
AcDbEntity
  8
S1
  6
HIDDEN2
100
AcDbLine
 10
-46.95936548954104
 20
11.34276402708394
 30
0.0
 11
-51.34186568954106
 21
11.34276402708394
 31
0.0
  0
LINE
  5
38A
330
2
100
AcDbEntity
  8
S1
  6
HIDDEN2
100
AcDbLine
 10
-43.07936558954104
 20
-13.6572361729161
 30
0.0
 11
-43.15936568954106
 21
-13.6572361729161
 31
0.0
  0
LINE
  5
38B
330
2
100
AcDbEntity
  8
S1
  6
HIDDEN2
100
AcDbLine
 10
-43.07936558954104
 20
-13.25723597291607
 30
0.0
 11
-43.15936568954106
 21
-13.25723597291607
 31
0.0
  0
LINE
  5
38C
330
2
100
AcDbEntity
  8
S1
  6
HIDDEN2
100
AcDbLine
 10
-43.07936558954104
 20
-13.25723597291607
 30
0.0
 11
-43.07936558954104
 21
-13.6572361729161
 31
0.0
  0
LINE
  5
38D
330
2
100
AcDbEntity
  8
S1
  6
HIDDEN2
100
AcDbLine
 10
-47.40436568954106
 20
-13.0819585729161
 30
0.0
 11
-47.40436568954106
 21
-13.83251387291608
 31
0.0
  0
LINE
  5
38E
330
2
100
AcDbEntity
  8
S1
  6
HIDDEN2
100
AcDbLine
 10
-47.01936548954107
 20
-13.90723607291607
 30
0.0
 11
-46.95936548954104
 21
-13.90723607291607
 31
0.0
  0
LINE
  5
38F
330
2
100
AcDbEntity
  8
S1
  6
HIDDEN2
100
AcDbLine
 10
-46.95936548954104
 20
-13.0072360729161
 30
0.0
 11
-47.01936548954107
 21
-13.0072360729161
 31
0.0
  0
LINE
  5
390
330
2
100
AcDbEntity
  8
S1
  6
HIDDEN2
100
AcDbLine
 10
-47.01936548954107
 20
-13.0072360729161
 30
0.0
 11
-47.01936548954107
 21
-13.90723607291607
 31
0.0
  0
LINE
  5
391
330
2
100
AcDbEntity
  8
S1
  6
HIDDEN2
100
AcDbLine
 10
-47.07936548954103
 20
-13.0819585729161
 30
0.0
 11
-47.07936548954103
 21
-13.83251387291608
 31
0.0
  0
LINE
  5
392
330
2
100
AcDbEntity
  8
S1
  6
HIDDEN2
100
AcDbLine
 10
-47.40436568954106
 20
-13.83251387291608
 30
0.0
 11
-47.01936548954107
 21
-13.83251387291608
 31
0.0
  0
LINE
  5
393
330
2
100
AcDbEntity
  8
S1
  6
HIDDEN2
100
AcDbLine
 10
-47.40436568954106
 20
-13.6572361729161
 30
0.0
 11
-47.07936548954103
 21
-13.6572361729161
 31
0.0
  0
LINE
  5
394
330
2
100
AcDbEntity
  8
S1
  6
HIDDEN2
100
AcDbLine
 10
-47.07936548954103
 20
-13.25723597291607
 30
0.0
 11
-47.40436568954106
 21
-13.25723597291607
 31
0.0
  0
LINE
  5
395
330
2
100
AcDbEntity
  8
S1
  6
HIDDEN2
100
AcDbLine
 10
-47.40436568954106
 20
-13.0819585729161
 30
0.0
 11
-47.01936548954107
 21
-13.0819585729161
 31
0.0
  0
LINE
  5
396
330
2
100
AcDbEntity
  8
S1
  6
HIDDEN2
100
AcDbLine
 10
-43.07936558954104
 20
2.092763827083899
 30
0.0
 11
-43.15936568954106
 21
2.092763827083899
 31
0.0
  0
LINE
  5
397
330
2
100
AcDbEntity
  8
S1
  6
HIDDEN2
100
AcDbLine
 10
-43.07936558954104
 20
2.49276402708392
 30
0.0
 11
-43.15936568954106
 21
2.49276402708392
 31
0.0
  0
LINE
  5
398
330
2
100
AcDbEntity
  8
S1
  6
HIDDEN2
100
AcDbLine
 10
-43.07936558954104
 20
2.49276402708392
 30
0.0
 11
-43.07936558954104
 21
2.092763827083899
 31
0.0
  0
LINE
  5
399
330
2
100
AcDbEntity
  8
S1
  6
HIDDEN2
100
AcDbLine
 10
-47.40436568954106
 20
2.668041427083892
 30
0.0
 11
-47.40436568954106
 21
1.917486127083918
 31
0.0
  0
LINE
  5
39A
330
2
100
AcDbEntity
  8
S1
  6
HIDDEN2
100
AcDbLine
 10
-47.01936548954107
 20
1.842763927083921
 30
0.0
 11
-46.95936548954104
 21
1.842763927083921
 31
0.0
  0
LINE
  5
39B
330
2
100
AcDbEntity
  8
S1
  6
HIDDEN2
100
AcDbLine
 10
-46.95936548954104
 20
2.742763927083898
 30
0.0
 11
-47.01936548954107
 21
2.742763927083898
 31
0.0
  0
LINE
  5
39C
330
2
100
AcDbEntity
  8
S1
  6
HIDDEN2
100
AcDbLine
 10
-47.01936548954107
 20
2.742763927083898
 30
0.0
 11
-47.01936548954107
 21
1.842763927083921
 31
0.0
  0
LINE
  5
39D
330
2
100
AcDbEntity
  8
S1
  6
HIDDEN2
100
AcDbLine
 10
-47.07936548954103
 20
2.668041427083892
 30
0.0
 11
-47.07936548954103
 21
1.917486127083918
 31
0.0
  0
LINE
  5
39E
330
2
100
AcDbEntity
  8
S1
  6
HIDDEN2
100
AcDbLine
 10
-47.40436568954106
 20
1.917486127083918
 30
0.0
 11
-47.01936548954107
 21
1.917486127083918
 31
0.0
  0
LINE
  5
39F
330
2
100
AcDbEntity
  8
S1
  6
HIDDEN2
100
AcDbLine
 10
-47.40436568954106
 20
2.092763827083899
 30
0.0
 11
-47.07936548954103
 21
2.092763827083899
 31
0.0
  0
LINE
  5
3A0
330
2
100
AcDbEntity
  8
S1
  6
HIDDEN2
100
AcDbLine
 10
-47.07936548954103
 20
2.49276402708392
 30
0.0
 11
-47.40436568954106
 21
2.49276402708392
 31
0.0
  0
LINE
  5
3A1
330
2
100
AcDbEntity
  8
S1
  6
HIDDEN2
100
AcDbLine
 10
-47.40436568954106
 20
2.668041427083892
 30
0.0
 11
-47.01936548954107
 21
2.668041427083892
 31
0.0
  0
LINE
  5
3A2
330
2
100
AcDbEntity
  8
S1
  6
HIDDEN2
100
AcDbLine
 10
-46.83436568954107
 20
-14.08223597291606
 30
0.0
 11
-46.83436568954107
 21
-13.95723617291605
 31
0.0
  0
LINE
  5
3A3
330
2
100
AcDbEntity
  8
S1
  6
HIDDEN2
100
AcDbLine
 10
-43.60936568954103
 20
-14.08223597291606
 30
0.0
 11
-43.60936568954103
 21
-13.95723617291605
 31
0.0
  0
LINE
  5
3A4
330
2
100
AcDbEntity
  8
S1
  6
HIDDEN2
100
AcDbLine
 10
-46.83436568954107
 20
-13.95723617291605
 30
0.0
 11
-46.95936548954104
 21
-13.95723617291605
 31
0.0
  0
LINE
  5
3A5
330
2
100
AcDbEntity
  8
S1
  6
HIDDEN2
100
AcDbLine
 10
-43.60936568954103
 20
-13.95723617291605
 30
0.0
 11
-43.48436558954108
 21
-13.95723617291605
 31
0.0
  0
LINE
  5
3A6
330
2
100
AcDbEntity
  8
S1
  6
HIDDEN2
100
AcDbLine
 10
-46.83436568954107
 20
-14.08223597291606
 30
0.0
 11
-43.60936568954103
 21
-14.08223597291606
 31
0.0
  0
ARC
  5
3A7
330
2
100
AcDbEntity
  8
S1
  6
HIDDEN2
100
AcDbCircle
 10
-43.58436548954102
 20
-13.45723607291609
 30
0.0
 40
0.4250001000000001
100
AcDbArc
 50
314.9405469999988
 51
44.90087200000178
  0
LINE
  5
3A8
330
2
100
AcDbEntity
  8
S1
  6
HIDDEN2
100
AcDbLine
 10
-43.15936568954106
 20
-13.7572360729161
 30
0.0
 11
-43.48436558954108
 21
-13.7572360729161
 31
0.0
  0
LINE
  5
3A9
330
2
100
AcDbEntity
  8
S1
  6
HIDDEN2
100
AcDbLine
 10
-43.15936568954106
 20
-13.15723607291607
 30
0.0
 11
-43.48436558954108
 21
-13.15723607291607
 31
0.0
  0
LINE
  5
3AA
330
2
100
AcDbEntity
  8
S1
  6
HIDDEN2
100
AcDbLine
 10
-43.15936568954106
 20
-13.15723607291607
 30
0.0
 11
-43.15936568954106
 21
-13.7572360729161
 31
0.0
  0
ARC
  5
3AB
330
2
100
AcDbEntity
  8
S1
  6
HIDDEN2
100
AcDbCircle
 10
-43.58436548954102
 20
2.292763927083909
 30
0.0
 40
0.4250001000000001
100
AcDbArc
 50
314.9405469999988
 51
44.90087200000178
  0
LINE
  5
3AC
330
2
100
AcDbEntity
  8
S1
  6
HIDDEN2
100
AcDbLine
 10
-43.15936568954106
 20
1.992763927083899
 30
0.0
 11
-43.48436558954108
 21
1.992763927083899
 31
0.0
  0
LINE
  5
3AD
330
2
100
AcDbEntity
  8
S1
  6
HIDDEN2
100
AcDbLine
 10
-43.15936568954106
 20
2.592763927083921
 30
0.0
 11
-43.48436558954108
 21
2.592763927083921
 31
0.0
  0
LINE
  5
3AE
330
2
100
AcDbEntity
  8
S1
  6
HIDDEN2
100
AcDbLine
 10
-43.15936568954106
 20
2.592763927083921
 30
0.0
 11
-43.15936568954106
 21
1.992763927083899
 31
0.0
  0
ARC
  5
3AF
330
2
100
AcDbEntity
  8
S1
  6
HIDDEN2
100
AcDbCircle
 10
-47.07186548954108
 20
12.19276392708388
 30
0.0
 40
0.1749999
100
AcDbArc
 50
49.99479900000068
 51
90.0
  0
ARC
  5
3B0
330
2
100
AcDbEntity
  8
S1
  6
HIDDEN2
100
AcDbCircle
 10
10.38813441045891
 20
12.19276392708388
 30
0.0
 40
0.1749999
100
AcDbArc
 50
229.9947990000006
 51
270.0
  0
LINE
  5
3B1
330
2
100
AcDbEntity
  8
S1
  6
HIDDEN2
100
AcDbLine
 10
6.800634510458962
 20
11.34276402708394
 30
0.0
 11
-43.48436558954108
 21
11.34276402708394
 31
0.0
  0
LINE
  5
3B2
330
2
100
AcDbEntity
  8
S1
  6
HIDDEN2
100
AcDbLine
 10
6.800634510458962
 20
12.94276392708388
 30
0.0
 11
-43.48436558954108
 21
12.94276392708388
 31
0.0
  0
LINE
  5
3B3
330
2
100
AcDbEntity
  8
S1
  6
HIDDEN2
100
AcDbLine
 10
6.800634510458962
 20
13.04276382708394
 30
0.0
 11
-43.48436558954108
 21
13.04276382708394
 31
0.0
  0
LINE
  5
3B4
330
2
100
AcDbEntity
  8
S1
  6
HIDDEN2
100
AcDbLine
 10
51.59692972857579
 20
1.061153527083887
 30
0.0
 11
51.58459042857578
 21
1.109960527083899
 31
0.0
  0
LINE
  5
3B5
330
2
100
AcDbEntity
  8
S1
  6
HIDDEN2
100
AcDbLine
 10
51.63954442857573
 20
1.071621427083925
 30
0.0
 11
51.62713252857577
 21
1.120715827083927
 31
0.0
  0
CIRCLE
  5
3B6
330
2
100
AcDbEntity
  8
S1
  6
HIDDEN2
100
AcDbCircle
 10
51.53192212857572
 20
1.417776727083946
 30
0.0
 40
0.3624999
  0
CIRCLE
  5
3B7
330
2
100
AcDbEntity
  8
S1
  6
HIDDEN2
100
AcDbCircle
 10
51.53192212857572
 20
1.417776727083946
 30
0.0
 40
0.4250001000000001
  0
CIRCLE
  5
3B8
330
2
100
AcDbEntity
  8
S1
  6
HIDDEN2
100
AcDbCircle
 10
51.53192212857572
 20
1.417776727083946
 30
0.0
 40
0.3113361000000001
  0
LINE
  5
3B9
330
2
100
AcDbEntity
  8
S1
  6
HIDDEN2
100
AcDbLine
 10
51.62987932857571
 20
1.763673727083926
 30
0.0
 11
51.88045612857571
 21
1.505891827083928
 31
0.0
  0
LINE
  5
3BA
330
2
100
AcDbEntity
  8
S1
  6
HIDDEN2
100
AcDbLine
 10
51.28134532857576
 20
1.675558627083943
 30
0.0
 11
51.62987932857571
 21
1.763673727083926
 31
0.0
  0
LINE
  5
3BB
330
2
100
AcDbEntity
  8
S1
  6
HIDDEN2
100
AcDbLine
 10
51.18338812857576
 20
1.329661927083918
 30
0.0
 11
51.28134532857576
 21
1.675558627083943
 31
0.0
  0
LINE
  5
3BC
330
2
100
AcDbEntity
  8
S1
  6
HIDDEN2
100
AcDbLine
 10
51.43396492857572
 20
1.07188002708392
 30
0.0
 11
51.18338812857576
 21
1.329661927083918
 31
0.0
  0
LINE
  5
3BD
330
2
100
AcDbEntity
  8
S1
  6
HIDDEN2
100
AcDbLine
 10
51.78249892857582
 20
1.159995127083901
 30
0.0
 11
51.43396492857572
 21
1.07188002708392
 31
0.0
  0
LINE
  5
3BE
330
2
100
AcDbEntity
  8
S1
  6
HIDDEN2
100
AcDbLine
 10
51.88045612857571
 20
1.505891827083928
 30
0.0
 11
51.78249892857582
 21
1.159995127083901
 31
0.0
  0
LINE
  5
3BF
330
2
100
AcDbEntity
  8
S1
  6
HIDDEN2
100
AcDbLine
 10
51.5260676285758
 20
1.338937027083942
 30
0.0
 11
51.54297832857571
 21
1.27204752708394
 31
0.0
  0
LINE
  5
3C0
330
2
100
AcDbEntity
  8
S1
  6
HIDDEN2
100
AcDbLine
 10
51.57454222857575
 20
1.351192327083936
 30
0.0
 11
51.59145322857579
 21
1.284302527083923
 31
0.0
  0
LINE
  5
3C1
330
2
100
AcDbEntity
  8
S1
  6
HIDDEN2
100
AcDbLine
 10
51.61076182857573
 20
1.41192222708389
 30
0.0
 11
51.67765162857574
 21
1.428832927083931
 31
0.0
  0
LINE
  5
3C2
330
2
100
AcDbEntity
  8
S1
  6
HIDDEN2
100
AcDbLine
 10
51.45308212857571
 20
1.423631527083898
 30
0.0
 11
51.3861926285757
 21
1.406720827083915
 31
0.0
  0
ARC
  5
3C3
330
2
100
AcDbEntity
  8
S1
  6
HIDDEN2
100
AcDbCircle
 10
51.58625152857575
 20
1.508872027083896
 30
0.0
 40
0.0500001
100
AcDbArc
 50
194.187993000001
 51
284.1879930000038
  0
ARC
  5
3C4
330
2
100
AcDbEntity
  8
S1
  6
HIDDEN2
100
AcDbCircle
 10
51.62301712857573
 20
1.363447327083917
 30
0.0
 40
0.0500001
100
AcDbArc
 50
104.1879930000038
 51
194.187993000001
  0
ARC
  5
3C5
330
2
100
AcDbEntity
  8
S1
  6
HIDDEN2
100
AcDbCircle
 10
51.47759272857581
 20
1.326681727083893
 30
0.0
 40
0.0500001
100
AcDbArc
 50
14.18799300000105
 51
104.1879930000038
  0
ARC
  5
3C6
330
2
100
AcDbEntity
  8
S1
  6
HIDDEN2
100
AcDbCircle
 10
51.44082712857573
 20
1.472106427083928
 30
0.0
 40
0.0500001
100
AcDbArc
 50
284.1879930000038
 51
14.18799300000105
  0
LINE
  5
3C7
330
2
100
AcDbEntity
  8
S1
  6
HIDDEN2
100
AcDbLine
 10
51.59850682857575
 20
1.460397127083921
 30
0.0
 11
51.66539632857575
 21
1.477307827083905
 31
0.0
  0
LINE
  5
3C8
330
2
100
AcDbEntity
  8
S1
  6
HIDDEN2
100
AcDbLine
 10
51.39844792857582
 20
1.358245927083941
 30
0.0
 11
51.4653374285757
 21
1.375156627083924
 31
0.0
  0
LINE
  5
3C9
330
2
100
AcDbEntity
  8
S1
  6
HIDDEN2
100
AcDbLine
 10
51.54297832857571
 20
1.27204752708394
 30
0.0
 11
51.59145322857579
 21
1.284302527083923
 31
0.0
  0
LINE
  5
3CA
330
2
100
AcDbEntity
  8
S1
  6
HIDDEN2
100
AcDbLine
 10
51.47239102857577
 20
1.551251227083923
 30
0.0
 11
51.52086592857575
 21
1.563506227083905
 31
0.0
  0
LINE
  5
3CB
330
2
100
AcDbEntity
  8
S1
  6
HIDDEN2
100
AcDbLine
 10
51.52086592857575
 20
1.563506227083905
 30
0.0
 11
51.53777662857578
 21
1.496616727083902
 31
0.0
  0
LINE
  5
3CC
330
2
100
AcDbEntity
  8
S1
  6
HIDDEN2
100
AcDbLine
 10
51.47239102857577
 20
1.551251227083923
 30
0.0
 11
51.4893017285757
 21
1.48436142708391
 31
0.0
  0
LINE
  5
3CD
330
2
100
AcDbEntity
  8
S1
  6
HIDDEN2
100
AcDbLine
 10
51.3861926285757
 20
1.406720827083915
 30
0.0
 11
51.39844792857582
 21
1.358245927083941
 31
0.0
  0
LINE
  5
3CE
330
2
100
AcDbEntity
  8
S1
  6
HIDDEN2
100
AcDbLine
 10
51.66539632857575
 20
1.477307827083905
 30
0.0
 11
51.67765162857574
 21
1.428832927083931
 31
0.0
  0
LINE
  5
3CF
330
2
100
AcDbEntity
  8
S1
  6
HIDDEN2
100
AcDbLine
 10
-18.34186568954106
 20
12.94276392708388
 30
0.0
 11
-18.34186568954106
 21
12.36776382708393
 31
0.0
  0
LINE
  5
3D0
330
2
100
AcDbEntity
  8
S1
  6
HIDDEN2
100
AcDbLine
 10
-43.48436558954108
 20
10.3427638270839
 30
0.0
 11
6.800634510458962
 21
10.3427638270839
 31
0.0
  0
LINE
  5
3D1
330
2
100
AcDbEntity
  8
S1
  6
HIDDEN2
100
AcDbLine
 10
-43.48436558954108
 20
10.44276402708391
 30
0.0
 11
6.800634510458962
 21
10.44276402708391
 31
0.0
  0
LINE
  5
3D2
330
2
100
AcDbEntity
  8
S1
  6
HIDDEN2
100
AcDbLine
 10
-42.45936548954102
 20
-15.3572359729161
 30
0.0
 11
-43.43436548954104
 21
-15.3572359729161
 31
0.0
  0
LINE
  5
3D3
330
2
100
AcDbEntity
  8
S1
  6
HIDDEN2
100
AcDbLine
 10
-43.43436548954104
 20
-15.20723597291606
 30
0.0
 11
-42.45936548954102
 21
-15.20723597291606
 31
0.0
  0
LINE
  5
3D4
330
2
100
AcDbEntity
  8
S1
  6
HIDDEN2
100
AcDbLine
 10
-47.00936558954106
 20
-15.3572359729161
 30
0.0
 11
-47.98436558954108
 21
-15.3572359729161
 31
0.0
  0
LINE
  5
3D5
330
2
100
AcDbEntity
  8
S1
  6
HIDDEN2
100
AcDbLine
 10
-47.98436558954108
 20
-15.20723597291606
 30
0.0
 11
-47.00936558954106
 21
-15.20723597291606
 31
0.0
  0
LINE
  5
3D6
330
2
100
AcDbEntity
  8
S1
  6
HIDDEN2
100
AcDbLine
 10
-47.98436558954108
 20
-15.3572359729161
 30
0.0
 11
-47.98436558954108
 21
-15.20723597291606
 31
0.0
  0
LINE
  5
3D7
330
2
100
AcDbEntity
  8
S1
  6
HIDDEN2
100
AcDbLine
 10
-47.00936558954106
 20
-15.3572359729161
 30
0.0
 11
-47.00936558954106
 21
-15.20723597291606
 31
0.0
  0
LINE
  5
3D8
330
2
100
AcDbEntity
  8
S1
  6
HIDDEN2
100
AcDbLine
 10
-43.43436548954104
 20
-15.3572359729161
 30
0.0
 11
-43.43436548954104
 21
-15.20723597291606
 31
0.0
  0
LINE
  5
3D9
330
2
100
AcDbEntity
  8
S1
  6
HIDDEN2
100
AcDbLine
 10
-42.45936548954102
 20
-15.3572359729161
 30
0.0
 11
-42.45936548954102
 21
-15.20723597291606
 31
0.0
  0
ARC
  5
3DA
330
2
100
AcDbEntity
  8
S1
  6
HIDDEN2
100
AcDbCircle
 10
-42.59186558954104
 20
-16.30723607291605
 30
0.0
 40
0.1749999
100
AcDbArc
 50
90.0
 51
270.0
  0
ARC
  5
3DB
330
2
100
AcDbEntity
  8
S1
  6
HIDDEN2
100
AcDbCircle
 10
-39.09186548954107
 20
-16.30723607291605
 30
0.0
 40
0.1749999
100
AcDbArc
 50
270.0
 51
90.0
  0
LINE
  5
3DC
330
2
100
AcDbEntity
  8
S1
  6
HIDDEN2
100
AcDbLine
 10
-39.09186548954107
 20
-16.4822359729161
 30
0.0
 11
-42.59186558954104
 21
-16.4822359729161
 31
0.0
  0
LINE
  5
3DD
330
2
100
AcDbEntity
  8
S1
  6
HIDDEN2
100
AcDbLine
 10
-42.59186558954104
 20
-16.13223617291606
 30
0.0
 11
-39.09186548954107
 21
-16.13223617291606
 31
0.0
  0
LINE
  5
3DE
330
2
100
AcDbEntity
  8
S1
  6
HIDDEN2
100
AcDbLine
 10
-50.57186558954106
 20
-16.13223617291606
 30
0.0
 11
-47.07186548954108
 21
-16.13223617291606
 31
0.0
  0
LINE
  5
3DF
330
2
100
AcDbEntity
  8
S1
  6
HIDDEN2
100
AcDbLine
 10
-47.07186548954108
 20
-16.4822359729161
 30
0.0
 11
-50.57186558954106
 21
-16.4822359729161
 31
0.0
  0
ARC
  5
3E0
330
2
100
AcDbEntity
  8
S1
  6
HIDDEN2
100
AcDbCircle
 10
-47.07186548954108
 20
-16.30723607291605
 30
0.0
 40
0.1749999
100
AcDbArc
 50
270.0
 51
90.0
  0
ARC
  5
3E1
330
2
100
AcDbEntity
  8
S1
  6
HIDDEN2
100
AcDbCircle
 10
-50.57186558954106
 20
-16.30723607291605
 30
0.0
 40
0.1749999
100
AcDbArc
 50
90.0
 51
270.0
  0
LINE
  5
3E2
330
2
100
AcDbEntity
  8
S1
  6
HIDDEN2
100
AcDbLine
 10
-51.34186568954106
 20
-17.15723597291605
 30
0.0
 11
-51.34186568954106
 21
-14.45723597291606
 31
0.0
  0
ARC
  5
3E3
330
2
100
AcDbEntity
  8
S1
  6
HIDDEN2
100
AcDbCircle
 10
-39.09186548954107
 20
12.19276392708388
 30
0.0
 40
0.1749999
100
AcDbArc
 50
270.0
 51
90.0
  0
LINE
  5
3E4
330
2
100
AcDbEntity
  8
S1
  6
HIDDEN2
100
AcDbLine
 10
-39.09186548954107
 20
12.36776382708393
 30
0.0
 11
-42.59186558954104
 21
12.36776382708393
 31
0.0
  0
LINE
  5
3E5
330
2
100
AcDbEntity
  8
S1
  6
HIDDEN2
100
AcDbLine
 10
-42.59186558954104
 20
12.01776402708389
 30
0.0
 11
-39.09186548954107
 21
12.01776402708389
 31
0.0
  0
LINE
  5
3E6
330
2
100
AcDbEntity
  8
S1
  6
HIDDEN2
100
AcDbLine
 10
-50.57186558954106
 20
12.01776402708389
 30
0.0
 11
-47.07186548954108
 21
12.01776402708389
 31
0.0
  0
LINE
  5
3E7
330
2
100
AcDbEntity
  8
S1
  6
HIDDEN2
100
AcDbLine
 10
-47.07186548954108
 20
12.36776382708393
 30
0.0
 11
-50.57186558954106
 21
12.36776382708393
 31
0.0
  0
ARC
  5
3E8
330
2
100
AcDbEntity
  8
S1
  6
HIDDEN2
100
AcDbCircle
 10
-50.57186558954106
 20
12.19276392708388
 30
0.0
 40
0.1749999
100
AcDbArc
 50
90.0
 51
270.0
  0
LINE
  5
3E9
330
2
100
AcDbEntity
  8
S1
  6
HIDDEN2
100
AcDbLine
 10
-51.34186568954106
 20
13.04276382708394
 30
0.0
 11
-51.34186568954106
 21
10.3427638270839
 31
0.0
  0
LINE
  5
3EA
330
2
100
AcDbEntity
  8
S1
  6
HIDDEN2
100
AcDbLine
 10
-47.97186548954107
 20
10.3427638270839
 30
0.0
 11
-47.97186548954107
 21
-14.45723597291606
 31
0.0
  0
LINE
  5
3EB
330
2
100
AcDbEntity
  8
S1
  6
HIDDEN2
100
AcDbLine
 10
-42.47186558954104
 20
10.3427638270839
 30
0.0
 11
-42.47186558954104
 21
-14.45723597291606
 31
0.0
  0
LINE
  5
3EC
330
2
100
AcDbEntity
  8
S1
  6
HIDDEN2
100
AcDbLine
 10
-47.98436558954108
 20
11.24276382708393
 30
0.0
 11
-47.00936558954106
 21
11.24276382708393
 31
0.0
  0
LINE
  5
3ED
330
2
100
AcDbEntity
  8
S1
  6
HIDDEN2
100
AcDbLine
 10
-47.00936558954106
 20
11.0927638270839
 30
0.0
 11
-47.98436558954108
 21
11.0927638270839
 31
0.0
  0
LINE
  5
3EE
330
2
100
AcDbEntity
  8
S1
  6
HIDDEN2
100
AcDbLine
 10
-43.43436548954104
 20
11.24276382708393
 30
0.0
 11
-42.45936548954102
 21
11.24276382708393
 31
0.0
  0
LINE
  5
3EF
330
2
100
AcDbEntity
  8
S1
  6
HIDDEN2
100
AcDbLine
 10
-42.45936548954102
 20
11.0927638270839
 30
0.0
 11
-43.43436548954104
 21
11.0927638270839
 31
0.0
  0
LINE
  5
3F0
330
2
100
AcDbEntity
  8
S1
  6
HIDDEN2
100
AcDbLine
 10
-42.45936548954102
 20
11.24276382708393
 30
0.0
 11
-42.45936548954102
 21
11.0927638270839
 31
0.0
  0
LINE
  5
3F1
330
2
100
AcDbEntity
  8
S1
  6
HIDDEN2
100
AcDbLine
 10
-43.43436548954104
 20
11.24276382708393
 30
0.0
 11
-43.43436548954104
 21
11.0927638270839
 31
0.0
  0
LINE
  5
3F2
330
2
100
AcDbEntity
  8
S1
  6
HIDDEN2
100
AcDbLine
 10
-47.00936558954106
 20
11.24276382708393
 30
0.0
 11
-47.00936558954106
 21
11.0927638270839
 31
0.0
  0
LINE
  5
3F3
330
2
100
AcDbEntity
  8
S1
  6
HIDDEN2
100
AcDbLine
 10
-47.98436558954108
 20
11.24276382708393
 30
0.0
 11
-47.98436558954108
 21
11.0927638270839
 31
0.0
  0
ARC
  5
3F4
330
2
100
AcDbEntity
  8
S1
  6
HIDDEN2
100
AcDbCircle
 10
-42.59186558954104
 20
12.19276392708388
 30
0.0
 40
0.1749999
100
AcDbArc
 50
90.0
 51
270.0
  0
ARC
  5
3F5
330
2
100
AcDbEntity
  8
S1
  6
HIDDEN2
100
AcDbCircle
 10
-47.07186548954108
 20
12.19276392708388
 30
0.0
 40
0.1749999
100
AcDbArc
 50
270.0
 51
310.0052009999993
  0
LINE
  5
3F6
330
2
100
AcDbEntity
  8
S1
  6
HIDDEN2
100
AcDbLine
 10
6.395634510458933
 20
-13.6572361729161
 30
0.0
 11
6.475634310458928
 21
-13.6572361729161
 31
0.0
  0
LINE
  5
3F7
330
2
100
AcDbEntity
  8
S1
  6
HIDDEN2
100
AcDbLine
 10
6.395634510458933
 20
-13.25723597291607
 30
0.0
 11
6.475634310458928
 21
-13.25723597291607
 31
0.0
  0
LINE
  5
3F8
330
2
100
AcDbEntity
  8
S1
  6
HIDDEN2
100
AcDbLine
 10
6.395634510458933
 20
-13.25723597291607
 30
0.0
 11
6.395634510458933
 21
-13.6572361729161
 31
0.0
  0
LINE
  5
3F9
330
2
100
AcDbEntity
  8
S1
  6
HIDDEN2
100
AcDbLine
 10
10.72063431045893
 20
-13.0819585729161
 30
0.0
 11
10.72063431045893
 21
-13.83251387291608
 31
0.0
  0
LINE
  5
3FA
330
2
100
AcDbEntity
  8
S1
  6
HIDDEN2
100
AcDbLine
 10
10.33563441045896
 20
-13.90723607291607
 30
0.0
 11
10.2756344104589
 21
-13.90723607291607
 31
0.0
  0
LINE
  5
3FB
330
2
100
AcDbEntity
  8
S1
  6
HIDDEN2
100
AcDbLine
 10
10.2756344104589
 20
-13.0072360729161
 30
0.0
 11
10.33563441045896
 21
-13.0072360729161
 31
0.0
  0
LINE
  5
3FC
330
2
100
AcDbEntity
  8
S1
  6
HIDDEN2
100
AcDbLine
 10
10.33563441045896
 20
-13.0072360729161
 30
0.0
 11
10.33563441045896
 21
-13.90723607291607
 31
0.0
  0
LINE
  5
3FD
330
2
100
AcDbEntity
  8
S1
  6
HIDDEN2
100
AcDbLine
 10
10.39563441045891
 20
-13.0819585729161
 30
0.0
 11
10.39563441045891
 21
-13.83251387291608
 31
0.0
  0
LINE
  5
3FE
330
2
100
AcDbEntity
  8
S1
  6
HIDDEN2
100
AcDbLine
 10
10.72063431045893
 20
-13.83251387291608
 30
0.0
 11
10.33563441045896
 21
-13.83251387291608
 31
0.0
  0
LINE
  5
3FF
330
2
100
AcDbEntity
  8
S1
  6
HIDDEN2
100
AcDbLine
 10
10.72063431045893
 20
-13.6572361729161
 30
0.0
 11
10.39563441045891
 21
-13.6572361729161
 31
0.0
  0
LINE
  5
400
330
2
100
AcDbEntity
  8
S1
  6
HIDDEN2
100
AcDbLine
 10
10.39563441045891
 20
-13.25723597291607
 30
0.0
 11
10.72063431045893
 21
-13.25723597291607
 31
0.0
  0
LINE
  5
401
330
2
100
AcDbEntity
  8
S1
  6
HIDDEN2
100
AcDbLine
 10
10.72063431045893
 20
-13.0819585729161
 30
0.0
 11
10.33563441045896
 21
-13.0819585729161
 31
0.0
  0
LINE
  5
402
330
2
100
AcDbEntity
  8
S1
  6
HIDDEN2
100
AcDbLine
 10
6.395634510458933
 20
2.092763827083899
 30
0.0
 11
6.475634310458928
 21
2.092763827083899
 31
0.0
  0
LINE
  5
403
330
2
100
AcDbEntity
  8
S1
  6
HIDDEN2
100
AcDbLine
 10
6.395634510458933
 20
2.49276402708392
 30
0.0
 11
6.475634310458928
 21
2.49276402708392
 31
0.0
  0
LINE
  5
404
330
2
100
AcDbEntity
  8
S1
  6
HIDDEN2
100
AcDbLine
 10
6.395634510458933
 20
2.49276402708392
 30
0.0
 11
6.395634510458933
 21
2.092763827083899
 31
0.0
  0
LINE
  5
405
330
2
100
AcDbEntity
  8
S1
  6
HIDDEN2
100
AcDbLine
 10
10.72063431045893
 20
2.668041427083892
 30
0.0
 11
10.72063431045893
 21
1.917486127083918
 31
0.0
  0
LINE
  5
406
330
2
100
AcDbEntity
  8
S1
  6
HIDDEN2
100
AcDbLine
 10
10.33563441045896
 20
1.842763927083921
 30
0.0
 11
10.2756344104589
 21
1.842763927083921
 31
0.0
  0
LINE
  5
407
330
2
100
AcDbEntity
  8
S1
  6
HIDDEN2
100
AcDbLine
 10
10.2756344104589
 20
2.742763927083898
 30
0.0
 11
10.33563441045896
 21
2.742763927083898
 31
0.0
  0
LINE
  5
408
330
2
100
AcDbEntity
  8
S1
  6
HIDDEN2
100
AcDbLine
 10
10.33563441045896
 20
2.742763927083898
 30
0.0
 11
10.33563441045896
 21
1.842763927083921
 31
0.0
  0
LINE
  5
409
330
2
100
AcDbEntity
  8
S1
  6
HIDDEN2
100
AcDbLine
 10
10.39563441045891
 20
2.668041427083892
 30
0.0
 11
10.39563441045891
 21
1.917486127083918
 31
0.0
  0
LINE
  5
40A
330
2
100
AcDbEntity
  8
S1
  6
HIDDEN2
100
AcDbLine
 10
10.72063431045893
 20
1.917486127083918
 30
0.0
 11
10.33563441045896
 21
1.917486127083918
 31
0.0
  0
LINE
  5
40B
330
2
100
AcDbEntity
  8
S1
  6
HIDDEN2
100
AcDbLine
 10
10.72063431045893
 20
2.092763827083899
 30
0.0
 11
10.39563441045891
 21
2.092763827083899
 31
0.0
  0
LINE
  5
40C
330
2
100
AcDbEntity
  8
S1
  6
HIDDEN2
100
AcDbLine
 10
10.39563441045891
 20
2.49276402708392
 30
0.0
 11
10.72063431045893
 21
2.49276402708392
 31
0.0
  0
LINE
  5
40D
330
2
100
AcDbEntity
  8
S1
  6
HIDDEN2
100
AcDbLine
 10
10.72063431045893
 20
2.668041427083892
 30
0.0
 11
10.33563441045896
 21
2.668041427083892
 31
0.0
  0
LINE
  5
40E
330
2
100
AcDbEntity
  8
S1
  6
HIDDEN2
100
AcDbLine
 10
10.2756344104589
 20
10.44276402708391
 30
0.0
 11
14.65813431045893
 21
10.44276402708391
 31
0.0
  0
LINE
  5
40F
330
2
100
AcDbEntity
  8
S1
  6
HIDDEN2
100
AcDbLine
 10
10.2756344104589
 20
10.3427638270839
 30
0.0
 11
14.65813431045893
 21
10.3427638270839
 31
0.0
  0
LINE
  5
410
330
2
100
AcDbEntity
  8
S1
  6
HIDDEN2
100
AcDbLine
 10
10.15063431045894
 20
-14.08223597291606
 30
0.0
 11
10.15063431045894
 21
-13.95723617291605
 31
0.0
  0
LINE
  5
411
330
2
100
AcDbEntity
  8
S1
  6
HIDDEN2
100
AcDbLine
 10
6.925634310458917
 20
-14.08223597291606
 30
0.0
 11
6.925634310458917
 21
-13.95723617291605
 31
0.0
  0
LINE
  5
412
330
2
100
AcDbEntity
  8
S1
  6
HIDDEN2
100
AcDbLine
 10
10.15063431045894
 20
-13.95723617291605
 30
0.0
 11
10.2756344104589
 21
-13.95723617291605
 31
0.0
  0
LINE
  5
413
330
2
100
AcDbEntity
  8
S1
  6
HIDDEN2
100
AcDbLine
 10
6.925634310458917
 20
-13.95723617291605
 30
0.0
 11
6.800634510458962
 21
-13.95723617291605
 31
0.0
  0
LINE
  5
414
330
2
100
AcDbEntity
  8
S1
  6
HIDDEN2
100
AcDbLine
 10
10.15063431045894
 20
-14.08223597291606
 30
0.0
 11
6.925634310458917
 21
-14.08223597291606
 31
0.0
  0
ARC
  5
415
330
2
100
AcDbEntity
  8
S1
  6
HIDDEN2
100
AcDbCircle
 10
6.900634410458906
 20
-13.45723607291609
 30
0.0
 40
0.4250001000000001
100
AcDbArc
 50
135.0991279999982
 51
225.059453000001
  0
LINE
  5
416
330
2
100
AcDbEntity
  8
S1
  6
HIDDEN2
100
AcDbLine
 10
6.475634310458928
 20
-13.7572360729161
 30
0.0
 11
6.800634510458962
 21
-13.7572360729161
 31
0.0
  0
LINE
  5
417
330
2
100
AcDbEntity
  8
S1
  6
HIDDEN2
100
AcDbLine
 10
6.475634310458928
 20
-13.15723607291607
 30
0.0
 11
6.800634510458962
 21
-13.15723607291607
 31
0.0
  0
LINE
  5
418
330
2
100
AcDbEntity
  8
S1
  6
HIDDEN2
100
AcDbLine
 10
6.475634310458928
 20
-13.15723607291607
 30
0.0
 11
6.475634310458928
 21
-13.7572360729161
 31
0.0
  0
ARC
  5
419
330
2
100
AcDbEntity
  8
S1
  6
HIDDEN2
100
AcDbCircle
 10
6.900634410458906
 20
2.292763927083909
 30
0.0
 40
0.4250001000000001
100
AcDbArc
 50
135.0991279999982
 51
225.059453000001
  0
LINE
  5
41A
330
2
100
AcDbEntity
  8
S1
  6
HIDDEN2
100
AcDbLine
 10
6.475634310458928
 20
1.992763927083899
 30
0.0
 11
6.800634510458962
 21
1.992763927083899
 31
0.0
  0
LINE
  5
41B
330
2
100
AcDbEntity
  8
S1
  6
HIDDEN2
100
AcDbLine
 10
6.475634310458928
 20
2.592763927083921
 30
0.0
 11
6.800634510458962
 21
2.592763927083921
 31
0.0
  0
LINE
  5
41C
330
2
100
AcDbEntity
  8
S1
  6
HIDDEN2
100
AcDbLine
 10
6.475634310458928
 20
2.592763927083921
 30
0.0
 11
6.475634310458928
 21
1.992763927083899
 31
0.0
  0
LINE
  5
41D
330
2
100
AcDbEntity
  8
S1
  6
HIDDEN2
100
AcDbLine
 10
-34.31686568954103
 20
-15.80723597291608
 30
0.0
 11
-37.76686568954108
 21
-15.80723597291608
 31
0.0
  0
ARC
  5
41E
330
2
100
AcDbEntity
  8
S1
  6
HIDDEN2
100
AcDbCircle
 10
-34.31686568954103
 20
-15.95723597291606
 30
0.0
 40
0.15
100
AcDbArc
 50
0.0
 51
90.0
  0
ARC
  5
41F
330
2
100
AcDbEntity
  8
S1
  6
HIDDEN2
100
AcDbCircle
 10
-34.31686568954103
 20
-16.55723597291609
 30
0.0
 40
0.15
100
AcDbArc
 50
270.0
 51
0.0
  0
ARC
  5
420
330
2
100
AcDbEntity
  8
S1
  6
HIDDEN2
100
AcDbCircle
 10
-37.76686568954108
 20
-16.55723597291609
 30
0.0
 40
0.15
100
AcDbArc
 50
180.0
 51
270.0
  0
ARC
  5
421
330
2
100
AcDbEntity
  8
S1
  6
HIDDEN2
100
AcDbCircle
 10
-37.76686568954108
 20
-15.95723597291606
 30
0.0
 40
0.15
100
AcDbArc
 50
90.0
 51
180.0
  0
LINE
  5
422
330
2
100
AcDbEntity
  8
S1
  6
HIDDEN2
100
AcDbLine
 10
-37.76686568954108
 20
-16.70723597291606
 30
0.0
 11
-34.31686568954103
 21
-16.70723597291606
 31
0.0
  0
LINE
  5
423
330
2
100
AcDbEntity
  8
S1
  6
HIDDEN2
100
AcDbLine
 10
-34.16686568954105
 20
-15.95723597291606
 30
0.0
 11
-34.16686568954105
 21
-16.55723597291609
 31
0.0
  0
LINE
  5
424
330
2
100
AcDbEntity
  8
S1
  6
HIDDEN2
100
AcDbLine
 10
-37.91686568954105
 20
-15.95723597291606
 30
0.0
 11
-37.91686568954105
 21
-16.55723597291609
 31
0.0
  0
LINE
  5
425
330
2
100
AcDbEntity
  8
S1
  6
HIDDEN2
100
AcDbLine
 10
11.28813441045894
 20
10.3427638270839
 30
0.0
 11
11.28813441045894
 21
-14.45723597291606
 31
0.0
  0
LINE
  5
426
330
2
100
AcDbEntity
  8
S1
  6
HIDDEN2
100
AcDbLine
 10
10.16313441045895
 20
-13.95723617291605
 30
0.0
 11
10.16313441045895
 21
-14.45723597291606
 31
0.0
  0
LINE
  5
427
330
2
100
AcDbEntity
  8
S1
  6
HIDDEN2
100
AcDbLine
 10
5.788134510458917
 20
10.3427638270839
 30
0.0
 11
5.788134510458917
 21
-14.45723597291606
 31
0.0
  0
LINE
  5
428
330
2
100
AcDbEntity
  8
S1
  6
HIDDEN2
100
AcDbLine
 10
6.913134510458917
 20
-13.95723617291605
 30
0.0
 11
6.913134510458917
 21
-14.45723597291606
 31
0.0
  0
LINE
  5
429
330
2
100
AcDbEntity
  8
S1
  6
HIDDEN2
100
AcDbLine
 10
-15.59186558954104
 20
10.3427638270839
 30
0.0
 11
-15.59186558954104
 21
-14.45723597291606
 31
0.0
  0
LINE
  5
42A
330
2
100
AcDbEntity
  8
S1
  6
HIDDEN2
100
AcDbLine
 10
-16.71686558954104
 20
10.3427638270839
 30
0.0
 11
-16.71686558954104
 21
-14.45723597291606
 31
0.0
  0
LINE
  5
42B
330
2
100
AcDbEntity
  8
S1
  6
HIDDEN2
100
AcDbLine
 10
-21.09186548954107
 20
10.3427638270839
 30
0.0
 11
-21.09186548954107
 21
-14.45723597291606
 31
0.0
  0
LINE
  5
42C
330
2
100
AcDbEntity
  8
S1
  6
HIDDEN2
100
AcDbLine
 10
-19.96686548954107
 20
10.3427638270839
 30
0.0
 11
-19.96686548954107
 21
-14.45723597291606
 31
0.0
  0
LINE
  5
42D
330
2
100
AcDbEntity
  8
S1
  6
HIDDEN2
100
AcDbLine
 10
-21.10436558954109
 20
-15.3572359729161
 30
0.0
 11
-20.12936558954106
 21
-15.3572359729161
 31
0.0
  0
LINE
  5
42E
330
2
100
AcDbEntity
  8
S1
  6
HIDDEN2
100
AcDbLine
 10
-20.12936558954106
 20
-15.20723597291606
 30
0.0
 11
-21.10436558954109
 21
-15.20723597291606
 31
0.0
  0
LINE
  5
42F
330
2
100
AcDbEntity
  8
S1
  6
HIDDEN2
100
AcDbLine
 10
-16.55436548954105
 20
-15.3572359729161
 30
0.0
 11
-15.57936548954103
 21
-15.3572359729161
 31
0.0
  0
LINE
  5
430
330
2
100
AcDbEntity
  8
S1
  6
HIDDEN2
100
AcDbLine
 10
-15.57936548954103
 20
-15.20723597291606
 30
0.0
 11
-16.55436548954105
 21
-15.20723597291606
 31
0.0
  0
LINE
  5
431
330
2
100
AcDbEntity
  8
S1
  6
HIDDEN2
100
AcDbLine
 10
-15.57936548954103
 20
-15.3572359729161
 30
0.0
 11
-15.57936548954103
 21
-15.20723597291606
 31
0.0
  0
LINE
  5
432
330
2
100
AcDbEntity
  8
S1
  6
HIDDEN2
100
AcDbLine
 10
-16.55436548954105
 20
-15.3572359729161
 30
0.0
 11
-16.55436548954105
 21
-15.20723597291606
 31
0.0
  0
LINE
  5
433
330
2
100
AcDbEntity
  8
S1
  6
HIDDEN2
100
AcDbLine
 10
-20.12936558954106
 20
-15.3572359729161
 30
0.0
 11
-20.12936558954106
 21
-15.20723597291606
 31
0.0
  0
LINE
  5
434
330
2
100
AcDbEntity
  8
S1
  6
HIDDEN2
100
AcDbLine
 10
-21.10436558954109
 20
-15.3572359729161
 30
0.0
 11
-21.10436558954109
 21
-15.20723597291606
 31
0.0
  0
LINE
  5
435
330
2
100
AcDbEntity
  8
S1
  6
HIDDEN2
100
AcDbLine
 10
-15.57936548954103
 20
11.24276382708393
 30
0.0
 11
-16.55436548954105
 21
11.24276382708393
 31
0.0
  0
LINE
  5
436
330
2
100
AcDbEntity
  8
S1
  6
HIDDEN2
100
AcDbLine
 10
-16.55436548954105
 20
11.0927638270839
 30
0.0
 11
-15.57936548954103
 21
11.0927638270839
 31
0.0
  0
LINE
  5
437
330
2
100
AcDbEntity
  8
S1
  6
HIDDEN2
100
AcDbLine
 10
-20.12936558954106
 20
11.24276382708393
 30
0.0
 11
-21.10436558954109
 21
11.24276382708393
 31
0.0
  0
LINE
  5
438
330
2
100
AcDbEntity
  8
S1
  6
HIDDEN2
100
AcDbLine
 10
-21.10436558954109
 20
11.0927638270839
 30
0.0
 11
-20.12936558954106
 21
11.0927638270839
 31
0.0
  0
LINE
  5
439
330
2
100
AcDbEntity
  8
S1
  6
HIDDEN2
100
AcDbLine
 10
-21.10436558954109
 20
11.24276382708393
 30
0.0
 11
-21.10436558954109
 21
11.0927638270839
 31
0.0
  0
LINE
  5
43A
330
2
100
AcDbEntity
  8
S1
  6
HIDDEN2
100
AcDbLine
 10
-20.12936558954106
 20
11.24276382708393
 30
0.0
 11
-20.12936558954106
 21
11.0927638270839
 31
0.0
  0
LINE
  5
43B
330
2
100
AcDbEntity
  8
S1
  6
HIDDEN2
100
AcDbLine
 10
-16.55436548954105
 20
11.24276382708393
 30
0.0
 11
-16.55436548954105
 21
11.0927638270839
 31
0.0
  0
LINE
  5
43C
330
2
100
AcDbEntity
  8
S1
  6
HIDDEN2
100
AcDbLine
 10
-15.57936548954103
 20
11.24276382708393
 30
0.0
 11
-15.57936548954103
 21
11.0927638270839
 31
0.0
  0
LINE
  5
43D
330
2
100
AcDbEntity
  8
S1
  6
HIDDEN2
100
AcDbLine
 10
11.30063451045896
 20
11.24276382708393
 30
0.0
 11
10.32563451045894
 21
11.24276382708393
 31
0.0
  0
LINE
  5
43E
330
2
100
AcDbEntity
  8
S1
  6
HIDDEN2
100
AcDbLine
 10
10.32563451045894
 20
11.0927638270839
 30
0.0
 11
11.30063451045896
 21
11.0927638270839
 31
0.0
  0
LINE
  5
43F
330
2
100
AcDbEntity
  8
S1
  6
HIDDEN2
100
AcDbLine
 10
6.750634410458927
 20
11.24276382708393
 30
0.0
 11
5.775634410458906
 21
11.24276382708393
 31
0.0
  0
LINE
  5
440
330
2
100
AcDbEntity
  8
S1
  6
HIDDEN2
100
AcDbLine
 10
5.775634410458906
 20
11.0927638270839
 30
0.0
 11
6.750634410458927
 21
11.0927638270839
 31
0.0
  0
LINE
  5
441
330
2
100
AcDbEntity
  8
S1
  6
HIDDEN2
100
AcDbLine
 10
5.775634410458906
 20
11.24276382708393
 30
0.0
 11
5.775634410458906
 21
11.0927638270839
 31
0.0
  0
LINE
  5
442
330
2
100
AcDbEntity
  8
S1
  6
HIDDEN2
100
AcDbLine
 10
6.750634410458927
 20
11.24276382708393
 30
0.0
 11
6.750634410458927
 21
11.0927638270839
 31
0.0
  0
LINE
  5
443
330
2
100
AcDbEntity
  8
S1
  6
HIDDEN2
100
AcDbLine
 10
10.32563451045894
 20
11.24276382708393
 30
0.0
 11
10.32563451045894
 21
11.0927638270839
 31
0.0
  0
LINE
  5
444
330
2
100
AcDbEntity
  8
S1
  6
HIDDEN2
100
AcDbLine
 10
11.30063451045896
 20
11.24276382708393
 30
0.0
 11
11.30063451045896
 21
11.0927638270839
 31
0.0
  0
LINE
  5
445
330
2
100
AcDbEntity
  8
S1
  6
HIDDEN2
100
AcDbLine
 10
5.775634410458906
 20
-15.3572359729161
 30
0.0
 11
6.750634410458927
 21
-15.3572359729161
 31
0.0
  0
LINE
  5
446
330
2
100
AcDbEntity
  8
S1
  6
HIDDEN2
100
AcDbLine
 10
6.750634410458927
 20
-15.20723597291606
 30
0.0
 11
5.775634410458906
 21
-15.20723597291606
 31
0.0
  0
LINE
  5
447
330
2
100
AcDbEntity
  8
S1
  6
HIDDEN2
100
AcDbLine
 10
10.32563451045894
 20
-15.3572359729161
 30
0.0
 11
11.30063451045896
 21
-15.3572359729161
 31
0.0
  0
LINE
  5
448
330
2
100
AcDbEntity
  8
S1
  6
HIDDEN2
100
AcDbLine
 10
11.30063451045896
 20
-15.20723597291606
 30
0.0
 11
10.32563451045894
 21
-15.20723597291606
 31
0.0
  0
LINE
  5
449
330
2
100
AcDbEntity
  8
S1
  6
HIDDEN2
100
AcDbLine
 10
11.30063451045896
 20
-15.3572359729161
 30
0.0
 11
11.30063451045896
 21
-15.20723597291606
 31
0.0
  0
LINE
  5
44A
330
2
100
AcDbEntity
  8
S1
  6
HIDDEN2
100
AcDbLine
 10
10.32563451045894
 20
-15.3572359729161
 30
0.0
 11
10.32563451045894
 21
-15.20723597291606
 31
0.0
  0
LINE
  5
44B
330
2
100
AcDbEntity
  8
S1
  6
HIDDEN2
100
AcDbLine
 10
6.750634410458927
 20
-15.3572359729161
 30
0.0
 11
6.750634410458927
 21
-15.20723597291606
 31
0.0
  0
LINE
  5
44C
330
2
100
AcDbEntity
  8
S1
  6
HIDDEN2
100
AcDbLine
 10
5.775634410458906
 20
-15.3572359729161
 30
0.0
 11
5.775634410458906
 21
-15.20723597291606
 31
0.0
  0
LINE
  5
44D
330
2
100
AcDbEntity
  8
S1
  6
HIDDEN2
100
AcDbLine
 10
-51.34186568954106
 20
-14.55723617291607
 30
0.0
 11
14.65813431045893
 21
-14.55723617291607
 31
0.0
  0
LINE
  5
44E
330
2
100
AcDbEntity
  8
S1
  6
HIDDEN2
100
AcDbLine
 10
-51.34186568954106
 20
10.44276402708391
 30
0.0
 11
-46.95936548954104
 21
10.44276402708391
 31
0.0
  0
LINE
  5
44F
330
2
100
AcDbEntity
  8
S1
  6
HIDDEN2
100
AcDbLine
 10
-51.34186568954106
 20
-14.45723597291606
 30
0.0
 11
14.65813431045893
 21
-14.45723597291606
 31
0.0
  0
LINE
  5
450
330
2
100
AcDbEntity
  8
S1
  6
HIDDEN2
100
AcDbLine
 10
-51.34186568954106
 20
10.3427638270839
 30
0.0
 11
-46.95936548954104
 21
10.3427638270839
 31
0.0
  0
ARC
  5
451
330
2
100
AcDbEntity
  8
S1
  6
HIDDEN2
100
AcDbCircle
 10
-30.25186568954109
 20
-16.30723607291605
 30
0.0
 40
0.1749999
100
AcDbArc
 50
90.0
 51
270.0
  0
ARC
  5
452
330
2
100
AcDbEntity
  8
S1
  6
HIDDEN2
100
AcDbCircle
 10
-26.75186558954107
 20
-16.30723607291605
 30
0.0
 40
0.1749999
100
AcDbArc
 50
270.0
 51
90.0
  0
LINE
  5
453
330
2
100
AcDbEntity
  8
S1
  6
HIDDEN2
100
AcDbLine
 10
-26.75186558954107
 20
-16.4822359729161
 30
0.0
 11
-30.25186568954109
 21
-16.4822359729161
 31
0.0
  0
LINE
  5
454
330
2
100
AcDbEntity
  8
S1
  6
HIDDEN2
100
AcDbLine
 10
-30.25186568954109
 20
-16.13223617291606
 30
0.0
 11
-26.75186558954107
 21
-16.13223617291606
 31
0.0
  0
LINE
  5
455
330
2
100
AcDbEntity
  8
S1
  6
HIDDEN2
100
AcDbLine
 10
-18.34186568954106
 20
-15.45723617291605
 30
0.0
 11
-18.34186568954106
 21
-14.55723617291607
 31
0.0
  0
LINE
  5
456
330
2
100
AcDbEntity
  8
S1
  6
HIDDEN2
100
AcDbLine
 10
-18.34186568954106
 20
-16.4822359729161
 30
0.0
 11
-18.34186568954106
 21
-17.05723607291605
 31
0.0
  0
ARC
  5
457
330
2
100
AcDbEntity
  8
S1
  6
HIDDEN2
100
AcDbCircle
 10
5.90813451045892
 20
-16.30723607291605
 30
0.0
 40
0.1749999
100
AcDbArc
 50
270.0
 51
90.0
  0
ARC
  5
458
330
2
100
AcDbEntity
  8
S1
  6
HIDDEN2
100
AcDbCircle
 10
2.408134410458956
 20
-16.30723607291605
 30
0.0
 40
0.1749999
100
AcDbArc
 50
90.0
 51
270.0
  0
LINE
  5
459
330
2
100
AcDbEntity
  8
S1
  6
HIDDEN2
100
AcDbLine
 10
2.408134410458956
 20
-16.4822359729161
 30
0.0
 11
5.90813451045892
 21
-16.4822359729161
 31
0.0
  0
LINE
  5
45A
330
2
100
AcDbEntity
  8
S1
  6
HIDDEN2
100
AcDbLine
 10
5.90813451045892
 20
-16.13223617291606
 30
0.0
 11
2.408134410458956
 21
-16.13223617291606
 31
0.0
  0
ARC
  5
45B
330
2
100
AcDbEntity
  8
S1
  6
HIDDEN2
100
AcDbCircle
 10
-6.43186568954104
 20
-16.30723607291605
 30
0.0
 40
0.1749999
100
AcDbArc
 50
270.0
 51
90.0
  0
ARC
  5
45C
330
2
100
AcDbEntity
  8
S1
  6
HIDDEN2
100
AcDbCircle
 10
-9.931865489541053
 20
-16.30723607291605
 30
0.0
 40
0.1749999
100
AcDbArc
 50
90.0
 51
270.0
  0
LINE
  5
45D
330
2
100
AcDbEntity
  8
S1
  6
HIDDEN2
100
AcDbLine
 10
-9.931865489541053
 20
-16.4822359729161
 30
0.0
 11
-6.43186568954104
 21
-16.4822359729161
 31
0.0
  0
LINE
  5
45E
330
2
100
AcDbEntity
  8
S1
  6
HIDDEN2
100
AcDbLine
 10
-6.43186568954104
 20
-16.13223617291606
 30
0.0
 11
-9.931865489541053
 21
-16.13223617291606
 31
0.0
  0
LINE
  5
45F
330
2
100
AcDbEntity
  8
S1
  6
HIDDEN2
100
AcDbLine
 10
13.88813451045894
 20
-16.13223617291606
 30
0.0
 11
10.38813441045891
 21
-16.13223617291606
 31
0.0
  0
LINE
  5
460
330
2
100
AcDbEntity
  8
S1
  6
HIDDEN2
100
AcDbLine
 10
10.38813441045891
 20
-16.4822359729161
 30
0.0
 11
13.88813451045894
 21
-16.4822359729161
 31
0.0
  0
ARC
  5
461
330
2
100
AcDbEntity
  8
S1
  6
HIDDEN2
100
AcDbCircle
 10
10.38813441045891
 20
-16.30723607291605
 30
0.0
 40
0.1749999
100
AcDbArc
 50
90.0
 51
270.0
  0
ARC
  5
462
330
2
100
AcDbEntity
  8
S1
  6
HIDDEN2
100
AcDbCircle
 10
13.88813451045894
 20
-16.30723607291605
 30
0.0
 40
0.1749999
100
AcDbArc
 50
270.0
 51
90.0
  0
LINE
  5
463
330
2
100
AcDbEntity
  8
S1
  6
HIDDEN2
100
AcDbLine
 10
14.65813431045893
 20
-15.45723617291605
 30
0.0
 11
-51.34186568954106
 21
-15.45723617291605
 31
0.0
  0
LINE
  5
464
330
2
100
AcDbEntity
  8
S1
  6
HIDDEN2
100
AcDbLine
 10
14.65813431045893
 20
-17.05723607291605
 30
0.0
 11
-51.34186568954106
 21
-17.05723607291605
 31
0.0
  0
LINE
  5
465
330
2
100
AcDbEntity
  8
S1
  6
HIDDEN2
100
AcDbLine
 10
14.65813431045893
 20
-17.15723597291605
 30
0.0
 11
-51.34186568954106
 21
-17.15723597291605
 31
0.0
  0
LINE
  5
466
330
2
100
AcDbEntity
  8
S1
  6
HIDDEN2
100
AcDbLine
 10
14.65813431045893
 20
-17.15723597291605
 30
0.0
 11
14.65813431045893
 21
-14.45723597291606
 31
0.0
  0
ARC
  5
467
330
2
100
AcDbEntity
  8
S1
  6
HIDDEN2
100
AcDbCircle
 10
-18.34186568954106
 20
-15.80723597291608
 30
0.0
 40
0.3500001
100
AcDbArc
 50
299.9999999999997
 51
239.9999999999995
  0
LINE
  5
468
330
2
100
AcDbEntity
  8
S1
  6
HIDDEN2
100
AcDbLine
 10
-18.16686548954106
 20
-16.11034487291607
 30
0.0
 11
-18.16686548954106
 21
-16.30723607291605
 31
0.0
  0
LINE
  5
469
330
2
100
AcDbEntity
  8
S1
  6
HIDDEN2
100
AcDbLine
 10
-18.51686558954105
 20
-16.11034487291607
 30
0.0
 11
-18.51686558954105
 21
-16.30723607291605
 31
0.0
  0
ARC
  5
46A
330
2
100
AcDbEntity
  8
S1
  6
HIDDEN2
100
AcDbCircle
 10
-18.34186568954106
 20
-16.30723607291605
 30
0.0
 40
0.1749999
100
AcDbArc
 50
180.0
 51
0.0
  0
LINE
  5
46B
330
2
100
AcDbEntity
  8
S1
  6
HIDDEN2
100
AcDbLine
 10
-18.34186568954106
 20
10.3427638270839
 30
0.0
 11
-18.34186568954106
 21
9.742763827083932
 31
0.0
  0
ARC
  5
46C
330
2
100
AcDbEntity
  8
S1
  6
HIDDEN2
100
AcDbCircle
 10
-30.25186568954109
 20
12.19276392708388
 30
0.0
 40
0.1749999
100
AcDbArc
 50
90.0
 51
270.0
  0
ARC
  5
46D
330
2
100
AcDbEntity
  8
S1
  6
HIDDEN2
100
AcDbCircle
 10
-26.75186558954107
 20
12.19276392708388
 30
0.0
 40
0.1749999
100
AcDbArc
 50
270.0
 51
90.0
  0
LINE
  5
46E
330
2
100
AcDbEntity
  8
S1
  6
HIDDEN2
100
AcDbLine
 10
-26.75186558954107
 20
12.36776382708393
 30
0.0
 11
-30.25186568954109
 21
12.36776382708393
 31
0.0
  0
LINE
  5
46F
330
2
100
AcDbEntity
  8
S1
  6
HIDDEN2
100
AcDbLine
 10
-30.25186568954109
 20
12.01776402708389
 30
0.0
 11
-26.75186558954107
 21
12.01776402708389
 31
0.0
  0
LINE
  5
470
330
2
100
AcDbEntity
  8
S1
  6
HIDDEN2
100
AcDbLine
 10
-18.34186568954106
 20
11.34276402708394
 30
0.0
 11
-18.34186568954106
 21
10.44276402708391
 31
0.0
  0
ARC
  5
471
330
2
100
AcDbEntity
  8
S1
  6
HIDDEN2
100
AcDbCircle
 10
5.90813451045892
 20
12.19276392708388
 30
0.0
 40
0.1749999
100
AcDbArc
 50
270.0
 51
90.0
  0
ARC
  5
472
330
2
100
AcDbEntity
  8
S1
  6
HIDDEN2
100
AcDbCircle
 10
2.408134410458956
 20
12.19276392708388
 30
0.0
 40
0.1749999
100
AcDbArc
 50
90.0
 51
270.0
  0
LINE
  5
473
330
2
100
AcDbEntity
  8
S1
  6
HIDDEN2
100
AcDbLine
 10
2.408134410458956
 20
12.36776382708393
 30
0.0
 11
5.90813451045892
 21
12.36776382708393
 31
0.0
  0
LINE
  5
474
330
2
100
AcDbEntity
  8
S1
  6
HIDDEN2
100
AcDbLine
 10
5.90813451045892
 20
12.01776402708389
 30
0.0
 11
2.408134410458956
 21
12.01776402708389
 31
0.0
  0
ARC
  5
475
330
2
100
AcDbEntity
  8
S1
  6
HIDDEN2
100
AcDbCircle
 10
-6.43186568954104
 20
12.19276392708388
 30
0.0
 40
0.1749999
100
AcDbArc
 50
270.0
 51
90.0
  0
ARC
  5
476
330
2
100
AcDbEntity
  8
S1
  6
HIDDEN2
100
AcDbCircle
 10
-9.931865489541053
 20
12.19276392708388
 30
0.0
 40
0.1749999
100
AcDbArc
 50
90.0
 51
270.0
  0
LINE
  5
477
330
2
100
AcDbEntity
  8
S1
  6
HIDDEN2
100
AcDbLine
 10
-9.931865489541053
 20
12.36776382708393
 30
0.0
 11
-6.43186568954104
 21
12.36776382708393
 31
0.0
  0
LINE
  5
478
330
2
100
AcDbEntity
  8
S1
  6
HIDDEN2
100
AcDbLine
 10
-6.43186568954104
 20
12.01776402708389
 30
0.0
 11
-9.931865489541053
 21
12.01776402708389
 31
0.0
  0
LINE
  5
479
330
2
100
AcDbEntity
  8
S1
  6
HIDDEN2
100
AcDbLine
 10
13.88813451045894
 20
12.01776402708389
 30
0.0
 11
10.38813441045891
 21
12.01776402708389
 31
0.0
  0
LINE
  5
47A
330
2
100
AcDbEntity
  8
S1
  6
HIDDEN2
100
AcDbLine
 10
10.38813441045891
 20
12.36776382708393
 30
0.0
 11
13.88813451045894
 21
12.36776382708393
 31
0.0
  0
ARC
  5
47B
330
2
100
AcDbEntity
  8
S1
  6
HIDDEN2
100
AcDbCircle
 10
10.38813441045891
 20
12.19276392708388
 30
0.0
 40
0.1749999
100
AcDbArc
 50
90.0
 51
130.0052009999993
  0
ARC
  5
47C
330
2
100
AcDbEntity
  8
S1
  6
HIDDEN2
100
AcDbCircle
 10
13.88813451045894
 20
12.19276392708388
 30
0.0
 40
0.1749999
100
AcDbArc
 50
270.0
 51
90.0
  0
LINE
  5
47D
330
2
100
AcDbEntity
  8
S1
  6
HIDDEN2
100
AcDbLine
 10
14.65813431045893
 20
11.34276402708394
 30
0.0
 11
10.2756344104589
 21
11.34276402708394
 31
0.0
  0
LINE
  5
47E
330
2
100
AcDbEntity
  8
S1
  6
HIDDEN2
100
AcDbLine
 10
14.65813431045893
 20
12.94276392708388
 30
0.0
 11
10.2756344104589
 21
12.94276392708388
 31
0.0
  0
LINE
  5
47F
330
2
100
AcDbEntity
  8
S1
  6
HIDDEN2
100
AcDbLine
 10
14.65813431045893
 20
13.04276382708394
 30
0.0
 11
10.2756344104589
 21
13.04276382708394
 31
0.0
  0
LINE
  5
480
330
2
100
AcDbEntity
  8
S1
  6
HIDDEN2
100
AcDbLine
 10
14.65813431045893
 20
13.04276382708394
 30
0.0
 11
14.65813431045893
 21
10.3427638270839
 31
0.0
  0
ARC
  5
481
330
2
100
AcDbEntity
  8
S1
  6
HIDDEN2
100
AcDbCircle
 10
-18.34186568954106
 20
11.69276382708392
 30
0.0
 40
0.3500001
100
AcDbArc
 50
120.0000000000005
 51
59.99999999999944
  0
LINE
  5
482
330
2
100
AcDbEntity
  8
S1
  6
HIDDEN2
100
AcDbLine
 10
-18.16686548954106
 20
11.9958727270839
 30
0.0
 11
-18.16686548954106
 21
12.19276392708388
 31
0.0
  0
LINE
  5
483
330
2
100
AcDbEntity
  8
S1
  6
HIDDEN2
100
AcDbLine
 10
-18.51686558954105
 20
11.9958727270839
 30
0.0
 11
-18.51686558954105
 21
12.19276392708388
 31
0.0
  0
ARC
  5
484
330
2
100
AcDbEntity
  8
S1
  6
HIDDEN2
100
AcDbCircle
 10
-18.34186568954106
 20
12.19276392708388
 30
0.0
 40
0.1749999
100
AcDbArc
 50
0.0
 51
180.0
  0
LINE
  5
48B
330
2
100
AcDbEntity
  8
WAKU
 62
     4
100
AcDbLine
 10
67.09817455743382
 20
-62.94869034583404
 30
0.0
 11
-57.90182544256595
 21
-62.94869034583404
 31
0.0
  0
LINE
  5
48C
330
2
100
AcDbEntity
  8
WAKU
 62
     1
100
AcDbLine
 10
-57.90182544256595
 20
-57.94869034583404
 30
0.0
 11
67.09817455743382
 21
-57.94869034583404
 31
0.0
  0
LINE
  5
48D
330
2
100
AcDbEntity
  8
WAKU
 62
     1
100
AcDbLine
 10
-57.90182544256595
 20
-52.94869034583404
 30
0.0
 11
67.09817455743382
 21
-52.94869034583404
 31
0.0
  0
LINE
  5
48E
330
2
100
AcDbEntity
  8
WAKU
 62
     1
100
AcDbLine
 10
-57.90182544256595
 20
-42.94869034583404
 30
0.0
 11
67.09817455743382
 21
-42.94869034583404
 31
0.0
  0
LINE
  5
48F
330
2
100
AcDbEntity
  8
WAKU
 62
     1
100
AcDbLine
 10
-57.90182544256595
 20
-32.94869034583405
 30
0.0
 11
67.09817455743382
 21
-32.94869034583405
 31
0.0
  0
LINE
  5
490
330
2
100
AcDbEntity
  8
WAKU
 62
     1
100
AcDbLine
 10
-57.90182544256595
 20
-47.94869034583404
 30
0.0
 11
67.09817455743382
 21
-47.94869034583404
 31
0.0
  0
LINE
  5
491
330
2
100
AcDbEntity
  8
WAKU
 62
     1
100
AcDbLine
 10
-57.90182544256595
 20
-37.94869034583405
 30
0.0
 11
67.09817455743382
 21
-37.94869034583405
 31
0.0
  0
LINE
  5
494
330
2
100
AcDbEntity
  8
WAKU
 62
     4
100
AcDbLine
 10
-17.90182544256617
 20
-27.94869034583405
 30
0.0
 11
-17.90182544256617
 21
-62.94869034583404
 31
0.0
  0
LINE
  5
495
330
2
100
AcDbEntity
  8
WAKU
 62
     4
100
AcDbLine
 10
-57.90182544256618
 20
-27.94869034583405
 30
0.0
 11
-57.90182544256595
 21
-62.94869034583404
 31
0.0
  0
TEXT
  5
496
330
2
100
AcDbEntity
  8
MOJI1
100
AcDbText
 10
-55.40182544256595
 20
-46.94869034583404
 30
0.0
 40
3.0
  1
画素数
100
AcDbText
  0
TEXT
  5
497
330
2
100
AcDbEntity
  8
MOJI1
100
AcDbText
 10
-55.40182544256595
 20
-31.94869034583405
 30
0.0
 40
3.0
  1
電  源
100
AcDbText
  0
TEXT
  5
498
330
2
100
AcDbEntity
  8
MOJI1
100
AcDbText
 10
-55.40182544256595
 20
-36.94869034583405
 30
0.0
 40
3.0
  1
消費電力
100
AcDbText
  0
TEXT
  5
499
330
2
100
AcDbEntity
  8
MOJI1
100
AcDbText
 10
-55.40182544256595
 20
-56.94869034583405
 30
0.0
 40
3.0
  1
接続端子
100
AcDbText
  0
TEXT
  5
49A
330
2
100
AcDbEntity
  8
MOJI1
100
AcDbText
 10
-55.40182544256595
 20
-51.94869034583405
 30
0.0
 40
3.0
  1
音声最大出力
100
AcDbText
  0
TEXT
  5
49B
330
2
100
AcDbEntity
  8
MOJI1
100
AcDbText
 10
-55.40182544256595
 20
-41.94869034583404
 30
0.0
 40
3.0
  1
パネルサイズ
100
AcDbText
  0
LINE
  5
49C
330
2
100
AcDbEntity
  8
WAKU
 62
     4
100
AcDbLine
 10
67.09817455743382
 20
-27.94869034583405
 30
0.0
 11
67.09817455743382
 21
-62.94869034583404
 31
0.0
  0
TEXT
  5
49D
330
2
100
AcDbEntity
  8
MOJI1
100
AcDbText
 10
-30.90182544256617
 20
46.051309654166
 30
0.0
 40
4.0
  1
ハイビジョンプラズマディスプレイ壁掛け金具付（角度付）
 41
0.7700000000000001
100
AcDbText
  0
TEXT
  5
589
330
2
100
AcDbEntity
  8
MOJI1
100
AcDbText
 10
-15.40182544256617
 20
-61.94869034583404
 30
0.0
 40
3.0
  1
シリアル
100
AcDbText
  0
TEXT
  5
58A
330
2
100
AcDbEntity
  8
MOJI1
100
AcDbText
 10
-15.40182544256617
 20
-56.94869034583405
 30
0.0
 40
3.0
  1
ビデオ／Ｓビデオ／ＰＣ／外部スピーカ
100
AcDbText
  0
TEXT
  5
58B
330
2
100
AcDbEntity
  8
MOJI1
100
AcDbText
 10
-15.40182544256617
 20
-51.94869034583405
 30
0.0
 40
3.0
  1
２０Ｗ（１０Ｗ＋１０Ｗ）
100
AcDbText
  0
TEXT
  5
58C
330
2
100
AcDbEntity
  8
MOJI1
100
AcDbText
 10
-15.40182544256617
 20
-46.94869034583404
 30
0.0
 40
3.0
  1
１０４９０８８画素（水平１３６６×垂直７６８）
100
AcDbText
  0
TEXT
  5
58D
330
2
100
AcDbEntity
  8
MOJI1
100
AcDbText
 10
-15.40182544256617
 20
-41.94869034583404
 30
0.0
 40
3.0
  1
６５Ｖ型（１６：９）
100
AcDbText
  0
TEXT
  5
58E
330
2
100
AcDbEntity
  8
MOJI1
100
AcDbText
 10
-15.40182544256617
 20
-36.94869034583405
 30
0.0
 40
3.0
  1
６１５Ｗ
100
AcDbText
  0
TEXT
  5
58F
330
2
100
AcDbEntity
  8
MOJI1
100
AcDbText
 10
-15.40182544256617
 20
-31.94869034583405
 30
0.0
 40
3.0
  1
ＡＣ１００Ｖ　５０Ｈｚ／６０Ｈｚ
100
AcDbText
  0
ENDSEC
  0
SECTION
  2
OBJECTS
  0
DICTIONARY
  5
9
330
0
100
AcDbDictionary
281
     1
  3
ACAD_COLOR
350
30
  3
ACAD_GROUP
350
2C
  3
ACAD_LAYOUT
350
D
  3
ACAD_MATERIAL
350
2F
  3
ACAD_MLINESTYLE
350
2D
  3
ACAD_PLOTSETTINGS
350
2E
  3
ACAD_PLOTSTYLENAME
350
8
  3
ACDBHEADERROUNDTRIPXREC
350
5CB
  3
AcDbVariableDictionary
350
4B1
  0
DICTIONARY
  5
15
330
14
100
AcDbDictionary
280
     1
281
     1
  3
ACAD_LAYERFILTERS
360
16
  0
DICTIONARY
  5
3
330
2
100
AcDbDictionary
280
     1
281
     1
  0
DICTIONARY
  5
F
330
E
100
AcDbDictionary
280
     1
281
     1
  0
DICTIONARY
  5
30
102
{ACAD_REACTORS
330
9
102
}
330
9
100
AcDbDictionary
281
     1
  0
DICTIONARY
  5
2C
102
{ACAD_REACTORS
330
9
102
}
330
9
100
AcDbDictionary
281
     1
  0
DICTIONARY
  5
D
102
{ACAD_REACTORS
330
9
102
}
330
9
100
AcDbDictionary
281
     1
  3
Model
350
C
  3
ﾚｲｱｳﾄ1
350
13
  0
DICTIONARY
  5
2F
102
{ACAD_REACTORS
330
9
102
}
330
9
100
AcDbDictionary
281
     1
  0
DICTIONARY
  5
2D
102
{ACAD_REACTORS
330
9
102
}
330
9
100
AcDbDictionary
281
     1
  3
STANDARD
350
32
  0
DICTIONARY
  5
2E
102
{ACAD_REACTORS
330
9
102
}
330
9
100
AcDbDictionary
281
     1
  0
ACDBDICTIONARYWDFLT
  5
8
102
{ACAD_REACTORS
330
9
102
}
330
9
100
AcDbDictionary
281
     1
  3
Normal
350
7
100
AcDbDictionaryWithDefault
340
7
  0
DICTIONARY
  5
5CB
102
{ACAD_REACTORS
330
9
102
}
330
9
100
AcDbDictionary
281
     1
  3
COLORDICT
350
5CD
  3
MATERIALDICT
350
5CC
  0
DICTIONARY
  5
4B1
102
{ACAD_REACTORS
330
9
102
}
330
9
100
AcDbDictionary
281
     1
  3
DIMASSOC
350
4B3
  3
HIDETEXT
350
4B2
  3
PROJECTNAME
350
4B4
  0
DICTIONARY
  5
16
102
{ACAD_REACTORS
330
15
102
}
330
15
100
AcDbDictionary
280
     1
281
     1
  0
LAYOUT
  5
C
102
{ACAD_XDICTIONARY
360
5CE
102
}
102
{ACAD_REACTORS
330
D
102
}
330
D
100
AcDbPlotSettings
  1

  2
\\URANUS\8FPAM09
  4
A4
  6

 40
4.180416584014891
 41
4.349743366241455
 42
4.222747802734375
 43
4.349761962890625
 44
210.0156707763671
 45
297.0106506347656
 46
6.089999999999998
 47
0.0
 48
0.0
 49
0.0
140
0.0
141
0.0
142
1.0
143
1.367726833746803
 70
 11956
 72
     1
 73
     0
 74
     1
  7
tmsacad.ctb
 75
     0
147
0.7311401482564772
148
0.5130323401381247
149
0.0903991659697567
100
AcDbLayout
  1
Model
 70
     1
 71
     0
 10
0.0
 20
0.0
 11
12.0
 21
9.0
 12
0.0
 22
0.0
 32
0.0
 14
0.0
 24
0.0
 34
0.0
 15
0.0
 25
0.0
 35
0.0
146
0.0
 13
0.0
 23
0.0
 33
0.0
 16
1.0
 26
0.0
 36
0.0
 17
0.0
 27
1.0
 37
0.0
 76
     0
330
2
  0
LAYOUT
  5
13
102
{ACAD_XDICTIONARY
360
5D0
102
}
102
{ACAD_REACTORS
330
D
102
}
330
D
100
AcDbPlotSettings
  1

  2
C:\Program Files\ACAD2000\plotters\DWF ePlot.pc3
  4

  6

 40
0.0
 41
0.0
 42
0.0
 43
0.0
 44
0.0
 45
0.0
 46
0.0
 47
0.0
 48
0.0
 49
0.0
140
0.0
141
0.0
142
1.0
143
1.0
 70
   688
 72
     0
 73
     0
 74
     5
  7
tmsacad.ctb
 75
    16
147
1.0
148
0.0
149
0.0
100
AcDbLayout
  1
ﾚｲｱｳﾄ1
 70
     1
 71
     1
 10
0.0
 20
0.0
 11
12.0
 21
9.0
 12
0.0
 22
0.0
 32
0.0
 14
1.000000000000000E+20
 24
1.000000000000000E+20
 34
1.000000000000000E+20
 15
-1.000000000000000E+20
 25
-1.000000000000000E+20
 35
-1.000000000000000E+20
146
0.0
 13
0.0
 23
0.0
 33
0.0
 16
1.0
 26
0.0
 36
0.0
 17
0.0
 27
1.0
 37
0.0
 76
     0
330
E
  0
MLINESTYLE
  5
32
102
{ACAD_REACTORS
330
2D
102
}
330
2D
100
AcDbMlineStyle
  2
STANDARD
 70
     0
  3

 62
   256
 51
90.0
 52
90.0
 71
     2
 49
0.5
 62
   256
  6
BYLAYER
 49
-0.5
 62
   256
  6
BYLAYER
  0
ACDBPLACEHOLDER
  5
7
102
{ACAD_REACTORS
330
8
102
}
330
8
  0
XRECORD
  5
5CD
102
{ACAD_REACTORS
330
5CB
102
}
330
5CB
100
AcDbXrecord
280
     1
340
30
  0
XRECORD
  5
5CC
102
{ACAD_REACTORS
330
5CB
102
}
330
5CB
100
AcDbXrecord
280
     1
340
2F
  0
DICTIONARYVAR
  5
4B3
102
{ACAD_REACTORS
330
4B1
102
}
330
4B1
100
DictionaryVariables
280
     0
  1
1
  0
DICTIONARYVAR
  5
4B2
102
{ACAD_REACTORS
330
4B1
102
}
330
4B1
100
DictionaryVariables
280
     0
  1
1
  0
DICTIONARYVAR
  5
4B4
102
{ACAD_REACTORS
330
4B1
102
}
330
4B1
100
DictionaryVariables
280
     0
  1

  0
DICTIONARY
  5
5CE
330
C
100
AcDbDictionary
280
     1
281
     1
  3
ACAD_XREC_ROUNDTRIP
360
5CF
  0
DICTIONARY
  5
5D0
330
13
100
AcDbDictionary
280
     1
281
     1
  3
ACAD_XREC_ROUNDTRIP
360
5D1
  0
XRECORD
  5
5CF
102
{ACAD_REACTORS
330
5CE
102
}
330
5CE
100
AcDbXrecord
280
     1
102
SHADEPLOT
 70
     0
102
SHADEPLOTRESLEVEL
 70
     2
102
SHADEPLOTCUSTOMDPI
 70
   300
  0
XRECORD
  5
5D1
102
{ACAD_REACTORS
330
5D0
102
}
330
5D0
100
AcDbXrecord
280
     1
102
SHADEPLOT
 70
     0
102
SHADEPLOTRESLEVEL
 70
     2
102
SHADEPLOTCUSTOMDPI
 70
   300
  0
ENDSEC
  0
EOF
