  0
SECTION
  2
HEADER
  9
$ACADVER
  1
AC1015
  9
$ACADMAINTVER
 70
    20
  9
$DWGCODEPAGE
  3
ANSI_932
  9
$INSBASE
 10
129.0
 20
120.4992141396419
 30
0.0
  9
$EXTMIN
 10
130.9821784898029
 20
5.486668340205028
 30
-0.0015258207003583
  9
$EXTMAX
 10
256.0037893610058
 20
118.5137166316428
 30
0.0000000349246037
  9
$LIMMIN
 10
-145.4330542011794
 20
-0.3771192194590185
  9
$LIMMAX
 10
404.4606587162924
 20
394.575728465793
  9
$ORTHOMODE
 70
     1
  9
$REGENMODE
 70
     1
  9
$FILLMODE
 70
     1
  9
$QTEXTMODE
 70
     0
  9
$MIRRTEXT
 70
     1
  9
$LTSCALE
 40
1.0
  9
$ATTMODE
 70
     1
  9
$TEXTSIZE
 40
3.0
  9
$TRACEWID
 40
0.5
  9
$TEXTSTYLE
  7
STANDARD
  9
$CLAYER
  8
0
  9
$CELTYPE
  6
ByLayer
  9
$CECOLOR
 62
   256
  9
$CELTSCALE
 40
1.0
  9
$DISPSILH
 70
     0
  9
$DIMSCALE
 40
1.0
  9
$DIMASZ
 40
2.0
  9
$DIMEXO
 40
2.0
  9
$DIMDLI
 40
8.0
  9
$DIMRND
 40
0.0
  9
$DIMDLE
 40
0.0
  9
$DIMEXE
 40
2.0
  9
$DIMTP
 40
0.0
  9
$DIMTM
 40
0.0
  9
$DIMTXT
 40
2.5
  9
$DIMCEN
 40
0.0
  9
$DIMTSZ
 40
0.0
  9
$DIMTOL
 70
     0
  9
$DIMLIM
 70
     0
  9
$DIMTIH
 70
     0
  9
$DIMTOH
 70
     0
  9
$DIMSE1
 70
     0
  9
$DIMSE2
 70
     0
  9
$DIMTAD
 70
     3
  9
$DIMZIN
 70
     0
  9
$DIMBLK
  1

  9
$DIMASO
 70
     1
  9
$DIMSHO
 70
     1
  9
$DIMPOST
  1

  9
$DIMAPOST
  1

  9
$DIMALT
 70
     0
  9
$DIMALTD
 70
     2
  9
$DIMALTF
 40
25.4
  9
$DIMLFAC
 40
1.0
  9
$DIMTOFL
 70
     1
  9
$DIMTVP
 40
0.0
  9
$DIMTIX
 70
     0
  9
$DIMSOXD
 70
     0
  9
$DIMSAH
 70
     1
  9
$DIMBLK1
  1
OPEN30
  9
$DIMBLK2
  1
OPEN30
  9
$DIMSTYLE
  2
STANDARD
  9
$DIMCLRD
 70
     0
  9
$DIMCLRE
 70
     0
  9
$DIMCLRT
 70
     0
  9
$DIMTFAC
 40
1.0
  9
$DIMGAP
 40
0.5
  9
$DIMJUST
 70
     0
  9
$DIMSD1
 70
     0
  9
$DIMSD2
 70
     0
  9
$DIMTOLJ
 70
     1
  9
$DIMTZIN
 70
     0
  9
$DIMALTZ
 70
     0
  9
$DIMALTTZ
 70
     0
  9
$DIMUPT
 70
     0
  9
$DIMDEC
 70
     4
  9
$DIMTDEC
 70
     4
  9
$DIMALTU
 70
     2
  9
$DIMALTTD
 70
     2
  9
$DIMTXSTY
  7
STANDARD
  9
$DIMAUNIT
 70
     0
  9
$DIMADEC
 70
     0
  9
$DIMALTRND
 40
0.0
  9
$DIMAZIN
 70
     0
  9
$DIMDSEP
 70
    46
  9
$DIMATFIT
 70
     3
  9
$DIMFRAC
 70
     0
  9
$DIMLDRBLK
  1

  9
$DIMLUNIT
 70
     2
  9
$DIMLWD
 70
    -2
  9
$DIMLWE
 70
    -2
  9
$DIMTMOVE
 70
     0
  9
$LUNITS
 70
     2
  9
$LUPREC
 70
     4
  9
$SKETCHINC
 40
0.1
  9
$FILLETRAD
 40
0.0
  9
$AUNITS
 70
     0
  9
$AUPREC
 70
     0
  9
$MENU
  1
ACAD
  9
$ELEVATION
 40
0.0
  9
$PELEVATION
 40
0.0
  9
$THICKNESS
 40
0.0
  9
$LIMCHECK
 70
     0
  9
$CHAMFERA
 40
0.0
  9
$CHAMFERB
 40
0.0
  9
$CHAMFERC
 40
0.0
  9
$CHAMFERD
 40
0.0
  9
$SKPOLY
 70
     0
  9
$TDCREATE
 40
2451815.565532581
  9
$TDUCREATE
 40
2451815.190532581
  9
$TDUPDATE
 40
2453731.652118959
  9
$TDUUPDATE
 40
2453731.277118959
  9
$TDINDWG
 40
0.6910593056
  9
$TDUSRTIMER
 40
0.6910593056
  9
$USRTIMER
 70
     1
  9
$ANGBASE
 50
0.0
  9
$ANGDIR
 70
     0
  9
$PDMODE
 70
     0
  9
$PDSIZE
 40
0.0
  9
$PLINEWID
 40
0.0
  9
$SPLFRAME
 70
     0
  9
$SPLINETYPE
 70
     6
  9
$SPLINESEGS
 70
     8
  9
$HANDSEED
  5
4CC
  9
$SURFTAB1
 70
     6
  9
$SURFTAB2
 70
     6
  9
$SURFTYPE
 70
     6
  9
$SURFU
 70
     6
  9
$SURFV
 70
     6
  9
$UCSBASE
  2

  9
$UCSNAME
  2

  9
$UCSORG
 10
0.0
 20
0.0
 30
0.0
  9
$UCSXDIR
 10
1.0
 20
0.0
 30
0.0
  9
$UCSYDIR
 10
0.0
 20
1.0
 30
0.0
  9
$UCSORTHOREF
  2

  9
$UCSORTHOVIEW
 70
     0
  9
$UCSORGTOP
 10
0.0
 20
0.0
 30
0.0
  9
$UCSORGBOTTOM
 10
0.0
 20
0.0
 30
0.0
  9
$UCSORGLEFT
 10
0.0
 20
0.0
 30
0.0
  9
$UCSORGRIGHT
 10
0.0
 20
0.0
 30
0.0
  9
$UCSORGFRONT
 10
0.0
 20
0.0
 30
0.0
  9
$UCSORGBACK
 10
0.0
 20
0.0
 30
0.0
  9
$PUCSBASE
  2

  9
$PUCSNAME
  2

  9
$PUCSORG
 10
0.0
 20
0.0
 30
0.0
  9
$PUCSXDIR
 10
1.0
 20
0.0
 30
0.0
  9
$PUCSYDIR
 10
0.0
 20
1.0
 30
0.0
  9
$PUCSORTHOREF
  2

  9
$PUCSORTHOVIEW
 70
     0
  9
$PUCSORGTOP
 10
0.0
 20
0.0
 30
0.0
  9
$PUCSORGBOTTOM
 10
0.0
 20
0.0
 30
0.0
  9
$PUCSORGLEFT
 10
0.0
 20
0.0
 30
0.0
  9
$PUCSORGRIGHT
 10
0.0
 20
0.0
 30
0.0
  9
$PUCSORGFRONT
 10
0.0
 20
0.0
 30
0.0
  9
$PUCSORGBACK
 10
0.0
 20
0.0
 30
0.0
  9
$USERI1
 70
     0
  9
$USERI2
 70
     0
  9
$USERI3
 70
     0
  9
$USERI4
 70
     0
  9
$USERI5
 70
     0
  9
$USERR1
 40
0.0
  9
$USERR2
 40
0.0
  9
$USERR3
 40
0.0
  9
$USERR4
 40
0.0
  9
$USERR5
 40
0.0
  9
$WORLDVIEW
 70
     1
  9
$SHADEDGE
 70
     3
  9
$SHADEDIF
 70
    70
  9
$TILEMODE
 70
     1
  9
$MAXACTVP
 70
    48
  9
$PINSBASE
 10
0.0
 20
0.0
 30
0.0
  9
$PLIMCHECK
 70
     0
  9
$PEXTMIN
 10
1.000000000000000E+20
 20
1.000000000000000E+20
 30
1.000000000000000E+20
  9
$PEXTMAX
 10
-1.000000000000000E+20
 20
-1.000000000000000E+20
 30
-1.000000000000000E+20
  9
$PLIMMIN
 10
0.0
 20
0.0
  9
$PLIMMAX
 10
12.0
 20
9.0
  9
$UNITMODE
 70
     0
  9
$VISRETAIN
 70
     1
  9
$PLINEGEN
 70
     0
  9
$PSLTSCALE
 70
     1
  9
$TREEDEPTH
 70
  3020
  9
$CMLSTYLE
  2
Standard
  9
$CMLJUST
 70
     0
  9
$CMLSCALE
 40
1.0
  9
$PROXYGRAPHICS
 70
     1
  9
$MEASUREMENT
 70
     0
  9
$CELWEIGHT
370
    -1
  9
$ENDCAPS
280
     0
  9
$JOINSTYLE
280
     0
  9
$LWDISPLAY
290
     0
  9
$INSUNITS
 70
     0
  9
$HYPERLINKBASE
  1

  9
$STYLESHEET
  1

  9
$XEDIT
290
     1
  9
$CEPSNTYPE
380
     0
  9
$PSTYLEMODE
290
     1
  9
$FINGERPRINTGUID
  2
{71C29E7F-E629-4540-A213-7D4AE5B672F8}
  9
$VERSIONGUID
  2
{4AAE9548-D9C6-4CDD-9605-13301853B4FF}
  9
$EXTNAMES
290
     1
  9
$PSVPSCALE
 40
0.0
  9
$OLESTARTUP
290
     0
  0
ENDSEC
  0
SECTION
  2
CLASSES
  0
CLASS
  1
ACDBDICTIONARYWDFLT
  2
AcDbDictionaryWithDefault
  3
ObjectDBX Classes
 90
        0
280
     0
281
     0
  0
CLASS
  1
DICTIONARYVAR
  2
AcDbDictionaryVar
  3
ObjectDBX Classes
 90
        0
280
     0
281
     0
  0
CLASS
  1
ACDBPLACEHOLDER
  2
AcDbPlaceHolder
  3
ObjectDBX Classes
 90
        0
280
     0
281
     0
  0
CLASS
  1
LAYOUT
  2
AcDbLayout
  3
ObjectDBX Classes
 90
        0
280
     0
281
     0
  0
ENDSEC
  0
SECTION
  2
TABLES
  0
TABLE
  2
VPORT
  5
474
330
0
100
AcDbSymbolTable
 70
     2
  0
VPORT
  5
4C3
330
474
100
AcDbSymbolTableRecord
100
AcDbViewportTableRecord
  2
*Active
 70
     0
 10
0.0
 20
0.0
 11
1.0
 21
1.0
 12
193.4929839254044
 22
62.00019248592395
 13
0.0
 23
0.0
 14
1.0
 24
1.0
 15
0.0
 25
0.0
 16
0.0
 26
0.0
 36
1.0
 17
0.0
 27
0.0
 37
0.0
 40
113.9958515625073
 41
1.589413447782546
 42
50.0
 43
0.0
 44
0.0
 50
0.0
 51
0.0
 71
     0
 72
  1000
 73
     1
 74
     0
 75
     0
 76
     0
 77
     0
 78
     0
281
     0
 65
     1
110
0.0
120
0.0
130
0.0
111
1.0
121
0.0
131
0.0
112
0.0
122
1.0
132
0.0
 79
     0
146
0.0
  0
ENDTAB
  0
TABLE
  2
LTYPE
  5
471
330
0
100
AcDbSymbolTable
 70
     1
  0
LTYPE
  5
47F
330
471
100
AcDbSymbolTableRecord
100
AcDbLinetypeTableRecord
  2
ByBlock
 70
     0
  3

 72
    65
 73
     0
 40
0.0
  0
LTYPE
  5
480
330
471
100
AcDbSymbolTableRecord
100
AcDbLinetypeTableRecord
  2
ByLayer
 70
     0
  3

 72
    65
 73
     0
 40
0.0
  0
LTYPE
  5
481
330
471
100
AcDbSymbolTableRecord
100
AcDbLinetypeTableRecord
  2
CONTINUOUS
 70
     0
  3
Solid line
 72
    65
 73
     0
 40
0.0
  0
ENDTAB
  0
TABLE
  2
LAYER
  5
46E
330
0
100
AcDbSymbolTable
 70
     7
  0
LAYER
  5
47C
330
46E
100
AcDbSymbolTableRecord
100
AcDbLayerTableRecord
  2
0
 70
     0
 62
     7
  6
CONTINUOUS
370
    -3
390
47B
  0
LAYER
  5
490
330
46E
100
AcDbSymbolTableRecord
100
AcDbLayerTableRecord
  2
SUNPO
 70
     0
 62
     3
  6
CONTINUOUS
370
    -3
390
47B
  0
LAYER
  5
492
330
46E
100
AcDbSymbolTableRecord
100
AcDbLayerTableRecord
  2
DEFPOINTS
 70
     0
 62
     7
  6
CONTINUOUS
290
     0
370
    -3
390
47B
  0
LAYER
  5
493
330
46E
100
AcDbSymbolTableRecord
100
AcDbLayerTableRecord
  2
WAKU
 70
     0
 62
     4
  6
CONTINUOUS
370
    -3
390
47B
  0
LAYER
  5
494
330
46E
100
AcDbSymbolTableRecord
100
AcDbLayerTableRecord
  2
MOJI1
 70
     0
 62
     2
  6
CONTINUOUS
370
    -3
390
47B
  0
LAYER
  5
495
330
46E
100
AcDbSymbolTableRecord
100
AcDbLayerTableRecord
  2
GAIKEI
 70
     0
 62
     7
  6
CONTINUOUS
370
    -3
390
47B
  0
LAYER
  5
496
330
46E
100
AcDbSymbolTableRecord
100
AcDbLayerTableRecord
  2
TOUROKU
 70
     0
 62
     1
  6
CONTINUOUS
370
    -3
390
47B
  0
ENDTAB
  0
TABLE
  2
STYLE
  5
46F
330
0
100
AcDbSymbolTable
 70
     2
  0
STYLE
  5
47D
330
46F
100
AcDbSymbolTableRecord
100
AcDbTextStyleTableRecord
  2
STANDARD
 70
     0
 40
0.0
 41
1.0
 50
0.0
 71
     0
 42
3.0
  3
MONOTXT.shx
  4
BIGFONT.shx
  0
ENDTAB
  0
TABLE
  2
VIEW
  5
472
330
0
100
AcDbSymbolTable
 70
     0
  0
ENDTAB
  0
TABLE
  2
UCS
  5
473
330
0
100
AcDbSymbolTable
 70
     0
  0
ENDTAB
  0
TABLE
  2
APPID
  5
475
330
0
100
AcDbSymbolTable
 70
     1
  0
APPID
  5
47E
330
475
100
AcDbSymbolTableRecord
100
AcDbRegAppTableRecord
  2
ACAD
 70
     0
  0
ENDTAB
  0
TABLE
  2
DIMSTYLE
  5
476
330
0
100
AcDbSymbolTable
 70
     1
100
AcDbDimStyleTable
 71
     1
340
498
  0
DIMSTYLE
105
498
102
{ACAD_REACTORS
330
358
330
331
102
}
330
476
100
AcDbSymbolTableRecord
100
AcDbDimStyleTableRecord
  2
STANDARD
 70
     0
 40
0.0
 41
2.0
 42
2.0
 43
8.0
 44
2.0
 73
     0
 74
     0
 77
     3
140
3.0
141
0.0
173
     1
279
     2
340
47D
  0
ENDTAB
  0
TABLE
  2
BLOCK_RECORD
  5
46D
330
0
100
AcDbSymbolTable
 70
     7
  0
BLOCK_RECORD
  5
48C
330
46D
100
AcDbSymbolTableRecord
100
AcDbBlockTableRecord
  2
*Model_Space
340
48F
  0
BLOCK_RECORD
  5
488
330
46D
100
AcDbSymbolTableRecord
100
AcDbBlockTableRecord
  2
*Paper_Space
340
48B
  0
BLOCK_RECORD
  5
49F
330
46D
100
AcDbSymbolTableRecord
100
AcDbBlockTableRecord
  2
_OPEN30
340
0
102
{BLKREFS
331
336
331
33D
331
35D
331
35E
331
4AC
331
4AD
331
4B8
331
4B9
102
}
  0
BLOCK_RECORD
  5
4A8
330
46D
100
AcDbSymbolTableRecord
100
AcDbBlockTableRecord
  2
*D5
340
0
  0
BLOCK_RECORD
  5
4B4
330
46D
100
AcDbSymbolTableRecord
100
AcDbBlockTableRecord
  2
*D6
340
0
  0
ENDTAB
  0
ENDSEC
  0
SECTION
  2
BLOCKS
  0
BLOCK
  5
48D
330
48C
100
AcDbEntity
  8
0
100
AcDbBlockBegin
  2
*Model_Space
 70
     0
 10
0.0
 20
0.0
 30
0.0
  3
*Model_Space
  1

  0
ENDBLK
  5
48E
330
48C
100
AcDbEntity
  8
0
100
AcDbBlockEnd
  0
BLOCK
  5
489
330
488
100
AcDbEntity
 67
     1
  8
0
100
AcDbBlockBegin
  2
*Paper_Space
 70
     0
 10
0.0
 20
0.0
 30
0.0
  3
*Paper_Space
  1

  0
ENDBLK
  5
48A
330
488
100
AcDbEntity
 67
     1
  8
0
100
AcDbBlockEnd
  0
BLOCK
  5
4A0
330
49F
100
AcDbEntity
  8
0
100
AcDbBlockBegin
  2
_OPEN30
 70
     0
 10
0.0
 20
0.0
 30
0.0
  3
_OPEN30
  1

  0
LINE
  5
338
330
49F
100
AcDbEntity
  8
0
  6
ByBlock
 62
     0
100
AcDbLine
 10
-1.0
 20
0.26794919
 30
0.0
 11
0.0
 21
0.0
 31
0.0
  0
LINE
  5
339
330
49F
100
AcDbEntity
  8
0
  6
ByBlock
 62
     0
100
AcDbLine
 10
0.0
 20
0.0
 30
0.0
 11
-1.0
 21
-0.26794919
 31
0.0
  0
LINE
  5
33A
330
49F
100
AcDbEntity
  8
0
  6
ByBlock
 62
     0
100
AcDbLine
 10
0.0
 20
0.0
 30
0.0
 11
-1.0
 21
0.0
 31
0.0
  0
ENDBLK
  5
33C
330
49F
100
AcDbEntity
  8
0
100
AcDbBlockEnd
  0
BLOCK
  5
4B2
330
4A8
100
AcDbEntity
  8
0
100
AcDbBlockBegin
  2
*D5
 70
     1
 10
0.0
 20
0.0
 30
0.0
  3
*D5
  1

  0
LINE
  5
4A9
330
4A8
100
AcDbEntity
  8
SUNPO
 62
     0
370
    -2
100
AcDbLine
 10
162.8772635132448
 20
53.50891433939827
 30
0.0
 11
162.8772635132448
 21
45.50891433939827
 31
0.0
  0
LINE
  5
4AA
330
4A8
100
AcDbEntity
  8
SUNPO
 62
     0
370
    -2
100
AcDbLine
 10
199.4272635132447
 20
53.50891433939827
 30
0.0
 11
199.4272635132447
 21
45.50891433939827
 31
0.0
  0
LINE
  5
4AB
330
4A8
100
AcDbEntity
  8
SUNPO
 62
     0
370
    -2
100
AcDbLine
 10
164.8772635132448
 20
47.50891433939826
 30
0.0
 11
197.4272635132447
 21
47.50891433939826
 31
0.0
  0
INSERT
  5
4AC
330
4A8
100
AcDbEntity
  8
SUNPO
 62
     0
370
    -2
100
AcDbBlockReference
  2
_OPEN30
 10
162.8772635132448
 20
47.50891433939826
 30
0.0
 41
2.0
 42
2.0
 43
2.0
 50
180.0
  0
INSERT
  5
4AD
330
4A8
100
AcDbEntity
  8
SUNPO
 62
     0
370
    -2
100
AcDbBlockReference
  2
_OPEN30
 10
199.4272635132447
 20
47.50891433939826
 30
0.0
 41
2.0
 42
2.0
 43
2.0
  0
MTEXT
  5
4AE
330
4A8
100
AcDbEntity
  8
SUNPO
 62
     0
100
AcDbMText
 10
181.1522635132447
 20
49.25891433939827
 30
0.0
 40
2.5
 41
0.0
 71
     5
 72
     1
  1
\A1;731
 73
     1
 44
1.0
1001
ACAD
1000
MTEXTBEGIN
1070
    73
1070
     1
1070
    44
1040
1.0
1070
    74
1070
     0
1000
MTEXTEND
  0
POINT
  5
4AF
330
4A8
100
AcDbEntity
  8
DEFPOINTS
 62
     0
100
AcDbPoint
 10
162.8772635132448
 20
55.50891433939827
 30
0.0
  0
POINT
  5
4B0
330
4A8
100
AcDbEntity
  8
DEFPOINTS
 62
     0
100
AcDbPoint
 10
199.4272635132447
 20
55.50891433939827
 30
0.0
  0
POINT
  5
4B1
330
4A8
100
AcDbEntity
  8
DEFPOINTS
 62
     0
100
AcDbPoint
 10
199.4272635132447
 20
47.50891433939826
 30
0.0
  0
ENDBLK
  5
4B3
330
4A8
100
AcDbEntity
  8
0
100
AcDbBlockEnd
  0
BLOCK
  5
4BE
330
4B4
100
AcDbEntity
  8
0
100
AcDbBlockBegin
  2
*D6
 70
     1
 10
0.0
 20
0.0
 30
0.0
  3
*D6
  1

  0
LINE
  5
4B5
330
4B4
100
AcDbEntity
  8
SUNPO
 62
     0
370
    -2
100
AcDbLine
 10
218.1765931086934
 20
55.38980997409136
 30
0.0
 11
210.1765931086934
 21
55.38980997409136
 31
0.0
  0
LINE
  5
4B6
330
4B4
100
AcDbEntity
  8
SUNPO
 62
     0
370
    -2
100
AcDbLine
 10
218.1765931086934
 20
76.93980997409138
 30
0.0
 11
210.1765931086934
 21
76.93980997409138
 31
0.0
  0
LINE
  5
4B7
330
4B4
100
AcDbEntity
  8
SUNPO
 62
     0
370
    -2
100
AcDbLine
 10
212.1765931086934
 20
57.38980997409136
 30
0.0
 11
212.1765931086934
 21
74.93980997409138
 31
0.0
  0
INSERT
  5
4B8
330
4B4
100
AcDbEntity
  8
SUNPO
 62
     0
370
    -2
100
AcDbBlockReference
  2
_OPEN30
 10
212.1765931086934
 20
55.38980997409136
 30
0.0
 41
2.0
 42
2.0
 43
2.0
 50
270.0
  0
INSERT
  5
4B9
330
4B4
100
AcDbEntity
  8
SUNPO
 62
     0
370
    -2
100
AcDbBlockReference
  2
_OPEN30
 10
212.1765931086934
 20
76.93980997409138
 30
0.0
 41
2.0
 42
2.0
 43
2.0
 50
90.0
  0
MTEXT
  5
4BA
330
4B4
100
AcDbEntity
  8
SUNPO
 62
     0
100
AcDbMText
 10
210.4265931086934
 20
66.1648099740914
 30
0.0
 40
2.5
 41
0.0
 71
     5
 72
     1
  1
\A1;431
 11
0.0000000000000001
 21
1.0
 31
0.0
 73
     1
 44
1.0
1001
ACAD
1000
MTEXTBEGIN
1070
    73
1070
     1
1070
    44
1040
1.0
1070
    74
1070
     0
1000
MTEXTEND
  0
POINT
  5
4BB
330
4B4
100
AcDbEntity
  8
DEFPOINTS
 62
     0
100
AcDbPoint
 10
220.1765931086934
 20
55.38980997409136
 30
0.0
  0
POINT
  5
4BC
330
4B4
100
AcDbEntity
  8
DEFPOINTS
 62
     0
100
AcDbPoint
 10
220.1765931086934
 20
76.93980997409138
 30
0.0
  0
POINT
  5
4BD
330
4B4
100
AcDbEntity
  8
DEFPOINTS
 62
     0
100
AcDbPoint
 10
212.1765931086934
 20
76.93980997409138
 30
0.0
  0
ENDBLK
  5
4BF
330
4B4
100
AcDbEntity
  8
0
100
AcDbBlockEnd
  0
ENDSEC
  0
SECTION
  2
ENTITIES
  0
TEXT
  5
31E
330
48C
100
AcDbEntity
  8
MOJI1
100
AcDbText
 10
157.9999999999998
 20
114.4992141396419
 30
0.0
 40
4.0
  1
プラズマディスプレイ天吊り金具
100
AcDbText
  0
TEXT
  5
320
330
48C
100
AcDbEntity
  8
TOUROKU
100
AcDbText
 10
235.1999500329273
 20
108.4992141396418
 30
0.0
 40
2.0
  1
ＴＹＣＥ４２ＰＳ７
 72
     2
 11
255.9999500329273
 21
108.4992141396418
 31
0.0
100
AcDbText
  0
ARC
  5
322
330
48C
100
AcDbEntity
  8
GAIKEI
  6
Continuous
100
AcDbCircle
 10
222.8440714022715
 20
73.9614589740914
 30
0.0
 40
1.0
100
AcDbArc
 50
304.9024960000012
 51
0.0
  0
LINE
  5
324
330
48C
100
AcDbEntity
  8
GAIKEI
  6
Continuous
100
AcDbLine
 10
227.5413954022715
 20
75.35819547409137
 30
0.0
 11
227.5413954022715
 21
73.52166647409139
 31
0.0
  0
CIRCLE
  5
325
330
48C
100
AcDbEntity
  8
GAIKEI
  6
Continuous
 62
     1
100
AcDbCircle
 10
221.8940714022715
 20
74.43980997409138
 30
0.0
 40
1.087499999999999
  0
CIRCLE
  5
326
330
48C
100
AcDbEntity
  8
GAIKEI
  6
Continuous
 62
     1
100
AcDbCircle
 10
221.8940714022715
 20
74.43980997409138
 30
0.0
 40
0.9525
  0
LINE
  5
327
330
48C
100
AcDbEntity
  8
GAIKEI
  6
Continuous
100
AcDbLine
 10
230.7155614022715
 20
74.67268347409135
 30
0.0
 11
226.4100224022715
 21
64.33332547409141
 31
0.0
  0
LINE
  5
328
330
48C
100
AcDbEntity
  8
GAIKEI
  6
Continuous
100
AcDbLine
 10
229.3954469022715
 20
75.22240897409138
 30
0.0
 11
225.0899079022715
 21
64.88305047409139
 31
0.0
  0
LINE
  5
329
330
48C
100
AcDbEntity
  8
GAIKEI
  6
Continuous
 62
     1
100
AcDbLine
 10
199.4272635132447
 20
73.39480997409147
 30
0.0
 11
199.4272635132447
 21
75.93480997409165
 31
0.0
  0
LINE
  5
32A
330
48C
100
AcDbEntity
  8
GAIKEI
  6
Continuous
 62
     7
100
AcDbLine
 10
183.3022635132447
 20
73.18980997409155
 30
0.0
 11
183.3022635132447
 21
76.13980997409159
 31
0.0
  0
LINE
  5
32B
330
48C
100
AcDbEntity
  8
GAIKEI
  6
Continuous
 62
     7
100
AcDbLine
 10
179.0022635132448
 20
73.18980997409155
 30
0.0
 11
179.0022635132448
 21
76.13980997409159
 31
0.0
  0
LINE
  5
32C
330
48C
100
AcDbEntity
  8
GAIKEI
  6
Continuous
 62
     1
100
AcDbLine
 10
162.8772635132448
 20
73.39480997409147
 30
0.0
 11
162.8772635132448
 21
75.93480997409165
 31
0.0
  0
LINE
  5
32D
330
48C
100
AcDbEntity
  8
GAIKEI
  6
Continuous
 62
     7
100
AcDbLine
 10
166.5522635132447
 20
56.6148099740915
 30
0.0
 11
166.5522635132447
 21
77.16480997409146
 31
0.0
  0
LINE
  5
32E
330
48C
100
AcDbEntity
  8
GAIKEI
  6
Continuous
 62
     7
100
AcDbLine
 10
163.1522635132446
 20
55.6148099740915
 30
0.0
 11
163.1522635132446
 21
77.16480997409146
 31
0.0
  0
LINE
  5
32F
330
48C
100
AcDbEntity
  8
GAIKEI
  6
Continuous
 62
     7
100
AcDbLine
 10
199.1522635132445
 20
55.6148099740915
 30
0.0
 11
199.1522635132445
 21
77.16480997409146
 31
0.0
  0
LINE
  5
330
330
48C
100
AcDbEntity
  8
GAIKEI
  6
Continuous
 62
     7
100
AcDbLine
 10
195.7522635132448
 20
56.6148099740915
 30
0.0
 11
195.7522635132448
 21
77.16480997409146
 31
0.0
  0
DIMENSION
  5
331
330
48C
100
AcDbEntity
  8
SUNPO
100
AcDbDimension
  2
*D6
 10
212.1765931086934
 20
76.93980997409138
 30
0.0
 11
210.4265931086934
 21
66.1648099740914
 31
0.0
 70
    33
  1
431
 71
     5
 42
21.55000000000001
  3
STANDARD
100
AcDbAlignedDimension
 13
220.1765931086934
 23
55.38980997409136
 33
0.0
 14
220.1765931086934
 24
76.93980997409138
 34
0.0
1001
ACAD
1000
DSTYLE
1002
{
1070
    40
1040
1.0
1070
   140
1040
2.5
1070
   147
1040
0.5
1070
   172
1070
     1
1070
   279
1070
     0
1070
   343
1005
49F
1070
   344
1005
49F
1002
}
  0
LINE
  5
347
330
48C
100
AcDbEntity
  8
GAIKEI
  6
Continuous
100
AcDbLine
 10
220.1940714022715
 20
55.38980997409136
 30
0.0
 11
220.1940714022715
 21
76.93980997409138
 31
0.0
  0
LINE
  5
348
330
48C
100
AcDbEntity
  8
GAIKEI
  6
Continuous
100
AcDbLine
 10
220.1940714022715
 20
76.93980997409138
 30
0.0
 11
220.1940714022715
 21
55.38980997409136
 31
0.0
  0
LINE
  5
34A
330
48C
100
AcDbEntity
  8
WAKU
 62
     4
100
AcDbLine
 10
255.9999999999999
 20
5.499214139642163
 30
0.0
 11
131.0000000000001
 21
5.499214139642163
 31
0.0
  0
LINE
  5
34C
330
48C
100
AcDbEntity
  8
WAKU
 62
     1
100
AcDbLine
 10
255.9999999999999
 20
10.49921413964216
 30
0.0
 11
131.0000000000001
 21
10.49921413964216
 31
0.0
  0
LINE
  5
34D
330
48C
100
AcDbEntity
  8
WAKU
 62
     1
100
AcDbLine
 10
131.0000000000001
 20
15.49921413964216
 30
0.0
 11
255.9999999999999
 21
15.49921413964216
 31
0.0
  0
LINE
  5
34E
330
48C
100
AcDbEntity
  8
WAKU
 62
     1
100
AcDbLine
 10
131.0000000000001
 20
20.49921413964216
 30
0.0
 11
255.9999999999999
 21
20.49921413964216
 31
0.0
  0
LINE
  5
34F
330
48C
100
AcDbEntity
  8
WAKU
 62
     1
100
AcDbLine
 10
131.0000000000001
 20
30.49921413964217
 30
0.0
 11
255.9999999999999
 21
30.49921413964217
 31
0.0
  0
LINE
  5
350
330
48C
100
AcDbEntity
  8
WAKU
 62
     4
100
AcDbLine
 10
131.0000000000001
 20
40.49921413964216
 30
0.0
 11
255.9999999999999
 21
40.49921413964216
 31
0.0
  0
LINE
  5
351
330
48C
100
AcDbEntity
  8
WAKU
 62
     1
100
AcDbLine
 10
131.0000000000001
 20
25.49921413964217
 30
0.0
 11
255.9999999999999
 21
25.49921413964217
 31
0.0
  0
LINE
  5
352
330
48C
100
AcDbEntity
  8
WAKU
 62
     1
100
AcDbLine
 10
131.0000000000001
 20
35.49921413964216
 30
0.0
 11
255.9999999999999
 21
35.49921413964216
 31
0.0
  0
LINE
  5
354
330
48C
100
AcDbEntity
  8
WAKU
 62
     4
100
AcDbLine
 10
130.9999999999999
 20
40.49921413964216
 30
0.0
 11
131.0000000000001
 21
5.499214139642163
 31
0.0
  0
LINE
  5
355
330
48C
100
AcDbEntity
  8
WAKU
 62
     4
100
AcDbLine
 10
170.9999999999999
 20
40.49921413964216
 30
0.0
 11
170.9999999999999
 21
5.499214139642163
 31
0.0
  0
LINE
  5
356
330
48C
100
AcDbEntity
  8
GAIKEI
  6
Continuous
 62
     7
100
AcDbLine
 10
166.5522635132447
 20
73.39480997409147
 30
0.0
 11
195.7522635132448
 21
73.39480997409147
 31
0.0
  0
LINE
  5
357
330
48C
100
AcDbEntity
  8
GAIKEI
  6
Continuous
 62
     7
100
AcDbLine
 10
166.5522635132447
 20
56.97980997409151
 30
0.0
 11
195.7522635132448
 21
56.97980997409151
 31
0.0
  0
DIMENSION
  5
358
330
48C
100
AcDbEntity
  8
SUNPO
100
AcDbDimension
  2
*D5
 10
199.4272635132447
 20
47.50891433939826
 30
0.0
 11
181.1522635132447
 21
49.25891433939827
 31
0.0
 70
    33
  1
731
 71
     5
 42
36.54999999999987
  3
STANDARD
100
AcDbAlignedDimension
 13
162.8772635132448
 23
55.50891433939827
 33
0.0
 14
199.4272635132447
 24
55.50891433939827
 34
0.0
1001
ACAD
1000
DSTYLE
1002
{
1070
    40
1040
1.0
1070
   140
1040
2.5
1070
   147
1040
0.5
1070
   172
1070
     1
1070
   279
1070
     0
1070
   343
1005
49F
1070
   344
1005
49F
1002
}
  0
LINE
  5
365
330
48C
100
AcDbEntity
  8
GAIKEI
  6
Continuous
 62
     7
100
AcDbLine
 10
166.5522635132447
 20
58.24980997409149
 30
0.0
 11
180.5172635132449
 21
58.24980997409149
 31
0.0
  0
TEXT
  5
366
330
48C
100
AcDbEntity
  8
MOJI1
100
AcDbText
 10
133.5000000000001
 20
36.49921413964216
 30
0.0
 40
3.0
  1
適合機器
100
AcDbText
  0
TEXT
  5
367
330
48C
100
AcDbEntity
  8
MOJI1
100
AcDbText
 10
133.5000000000001
 20
31.49921413964217
 30
0.0
 40
3.0
  1
角度調整
100
AcDbText
  0
LINE
  5
368
330
48C
100
AcDbEntity
  8
GAIKEI
  6
Continuous
 62
     1
100
AcDbLine
 10
162.8772635132448
 20
56.97980997409151
 30
0.0
 11
162.8772635132448
 21
58.24980997409149
 31
0.0
  0
LINE
  5
369
330
48C
100
AcDbEntity
  8
GAIKEI
  6
Continuous
 62
     7
100
AcDbLine
 10
165.5522635132447
 20
55.6148099740915
 30
0.0
 11
163.1522635132446
 21
55.6148099740915
 31
0.0
  0
ARC
  5
36A
330
48C
100
AcDbEntity
  8
GAIKEI
  6
Continuous
 62
     7
100
AcDbCircle
 10
165.5522635132447
 20
56.6148099740915
 30
0.0
 40
1.0
100
AcDbArc
 50
270.0
 51
0.0
  0
LINE
  5
36B
330
48C
100
AcDbEntity
  8
GAIKEI
  6
Continuous
 62
     1
100
AcDbLine
 10
162.8772635132448
 20
56.97980997409151
 30
0.0
 11
163.1522635132446
 21
56.97980997409151
 31
0.0
  0
ARC
  5
36C
330
48C
100
AcDbEntity
  8
GAIKEI
  6
Continuous
 62
     1
100
AcDbCircle
 10
164.6522635132446
 20
60.21480997409141
 30
0.0
 40
0.625
100
AcDbArc
 50
304.0557980000041
 51
350.8228690000268
  0
ARC
  5
36D
330
48C
100
AcDbEntity
  8
GAIKEI
  6
Continuous
 62
     1
100
AcDbCircle
 10
164.6522635132446
 20
60.21480997409141
 30
0.0
 40
0.625
100
AcDbArc
 50
9.177131469991792
 51
170.8228679999852
  0
LINE
  5
36E
330
48C
100
AcDbEntity
  8
GAIKEI
  6
Continuous
 62
     1
100
AcDbLine
 10
164.0352635132449
 20
60.3144894740915
 30
0.0
 11
163.9365435132449
 21
60.33043847409159
 31
0.0
  0
LINE
  5
36F
330
48C
100
AcDbEntity
  8
GAIKEI
  6
Continuous
 62
     1
100
AcDbLine
 10
165.2692635132448
 20
60.3144894740915
 30
0.0
 11
165.3679835132448
 21
60.33043847409159
 31
0.0
  0
ARC
  5
370
330
48C
100
AcDbEntity
  8
GAIKEI
  6
Continuous
 62
     1
100
AcDbCircle
 10
165.2772635132446
 20
60.21480997409141
 30
0.0
 40
0.1
100
AcDbArc
 50
265.4114340000065
 51
94.58856590003843
  0
ARC
  5
371
330
48C
100
AcDbEntity
  8
GAIKEI
  6
Continuous
 62
     1
100
AcDbCircle
 10
164.0272635132445
 20
60.21480997409141
 30
0.0
 40
0.1
100
AcDbArc
 50
85.41143440003597
 51
274.5885659999935
  0
ARC
  5
372
330
48C
100
AcDbEntity
  8
GAIKEI
  6
Continuous
 62
     1
100
AcDbCircle
 10
164.6522635132446
 20
60.21480997409141
 30
0.0
 40
0.625
100
AcDbArc
 50
189.1771309999731
 51
235.9442019999954
  0
ARC
  5
373
330
48C
100
AcDbEntity
  8
GAIKEI
  6
Continuous
 62
     1
100
AcDbCircle
 10
164.6522635132446
 20
60.21480997409141
 30
0.0
 40
0.7250000000000001
100
AcDbArc
 50
9.177131469991792
 51
170.8228679999852
  0
ARC
  5
374
330
48C
100
AcDbEntity
  8
GAIKEI
  6
Continuous
 62
     1
100
AcDbCircle
 10
164.6272635132448
 20
59.1148099740915
 30
0.0
 40
0.325
100
AcDbArc
 50
180.0
 51
270.0
  0
ARC
  5
375
330
48C
100
AcDbEntity
  8
GAIKEI
  6
Continuous
 62
     1
100
AcDbCircle
 10
164.6772635132447
 20
59.1148099740915
 30
0.0
 40
0.325
100
AcDbArc
 50
270.0
 51
0.0
  0
LINE
  5
376
330
48C
100
AcDbEntity
  8
GAIKEI
  6
Continuous
 62
     1
100
AcDbLine
 10
164.6772635132447
 20
58.78980997409146
 30
0.0
 11
164.6272635132448
 21
58.78980997409146
 31
0.0
  0
LINE
  5
377
330
48C
100
AcDbEntity
  8
GAIKEI
  6
Continuous
 62
     1
100
AcDbLine
 10
164.3022635132447
 20
59.1148099740915
 30
0.0
 11
164.3022635132447
 21
59.69700197409135
 31
0.0
  0
LINE
  5
378
330
48C
100
AcDbEntity
  8
GAIKEI
  6
Continuous
 62
     1
100
AcDbLine
 10
165.0022635132448
 20
59.1148099740915
 30
0.0
 11
165.0022635132448
 21
59.69700197409135
 31
0.0
  0
LINE
  5
379
330
48C
100
AcDbEntity
  8
GAIKEI
  6
Continuous
 62
     1
100
AcDbLine
 10
162.8772635132448
 20
58.24980997409149
 30
0.0
 11
163.1522635132446
 21
58.24980997409149
 31
0.0
  0
LINE
  5
37A
330
48C
100
AcDbEntity
  8
GAIKEI
  6
Continuous
 62
     1
100
AcDbLine
 10
162.8772635132448
 20
73.39480997409147
 30
0.0
 11
163.1522635132446
 21
73.39480997409147
 31
0.0
  0
LINE
  5
37B
330
48C
100
AcDbEntity
  8
GAIKEI
  6
Continuous
 62
     7
100
AcDbLine
 10
181.7872635132449
 20
58.24980997409149
 30
0.0
 11
195.7522635132448
 21
58.24980997409149
 31
0.0
  0
ARC
  5
37C
330
48C
100
AcDbEntity
  8
GAIKEI
  6
Continuous
 62
     7
100
AcDbCircle
 10
181.1522635132446
 20
58.24980997409149
 30
0.0
 40
0.635
100
AcDbArc
 50
180.0
 51
0.0
  0
LINE
  5
37D
330
48C
100
AcDbEntity
  8
GAIKEI
  6
Continuous
 62
     7
100
AcDbLine
 10
179.0022635132448
 20
72.18980997409154
 30
0.0
 11
183.3022635132447
 21
72.18980997409154
 31
0.0
  0
LINE
  5
37E
330
48C
100
AcDbEntity
  8
GAIKEI
  6
Continuous
 62
     1
100
AcDbLine
 10
181.0772635132448
 20
63.91480997409146
 30
0.0
 11
181.0772635132448
 21
66.26480997409159
 31
0.0
  0
LINE
  5
37F
330
48C
100
AcDbEntity
  8
GAIKEI
  6
Continuous
 62
     1
100
AcDbLine
 10
181.2272635132449
 20
63.91480997409146
 30
0.0
 11
181.2272635132449
 21
66.26480997409159
 31
0.0
  0
LINE
  5
380
330
48C
100
AcDbEntity
  8
GAIKEI
  6
Continuous
 62
     7
100
AcDbLine
 10
180.4372635132449
 20
63.7648099740916
 30
0.0
 11
180.4372635132449
 21
72.18980997409154
 31
0.0
  0
LINE
  5
381
330
48C
100
AcDbEntity
  8
GAIKEI
  6
Continuous
 62
     7
100
AcDbLine
 10
181.8672635132448
 20
63.7648099740916
 30
0.0
 11
181.8672635132448
 21
72.18980997409154
 31
0.0
  0
LINE
  5
382
330
48C
100
AcDbEntity
  8
GAIKEI
  6
Continuous
 62
     1
100
AcDbLine
 10
180.4372635132449
 20
63.7648099740916
 30
0.0
 11
180.9272635132447
 21
63.7648099740916
 31
0.0
  0
LINE
  5
383
330
48C
100
AcDbEntity
  8
GAIKEI
  6
Continuous
 62
     1
100
AcDbLine
 10
181.3772635132448
 20
63.7648099740916
 30
0.0
 11
181.8672635132448
 21
63.7648099740916
 31
0.0
  0
ARC
  5
384
330
48C
100
AcDbEntity
  8
GAIKEI
  6
Continuous
 62
     1
100
AcDbCircle
 10
180.9272635132447
 20
63.91480997409146
 30
0.0
 40
0.15
100
AcDbArc
 50
270.0
 51
0.0
  0
ARC
  5
385
330
48C
100
AcDbEntity
  8
GAIKEI
  6
Continuous
 62
     1
100
AcDbCircle
 10
181.3772635132448
 20
63.91480997409146
 30
0.0
 40
0.15
100
AcDbArc
 50
180.0
 51
270.0
  0
LINE
  5
386
330
48C
100
AcDbEntity
  8
GAIKEI
  6
Continuous
 62
     7
100
AcDbLine
 10
180.5172635132449
 20
58.24980997409149
 30
0.0
 11
180.5172635132449
 21
63.76480997409153
 31
0.0
  0
LINE
  5
387
330
48C
100
AcDbEntity
  8
GAIKEI
  6
Continuous
 62
     7
100
AcDbLine
 10
181.7872635132449
 20
58.24980997409149
 30
0.0
 11
181.7872635132449
 21
63.7648099740916
 31
0.0
  0
LINE
  5
388
330
48C
100
AcDbEntity
  8
GAIKEI
  6
Continuous
 62
     7
100
AcDbLine
 10
178.9772635132449
 20
72.21480997409141
 30
0.0
 11
178.9772635132449
 21
73.16480997409145
 31
0.0
  0
LINE
  5
389
330
48C
100
AcDbEntity
  8
GAIKEI
  6
Continuous
 62
     7
100
AcDbLine
 10
178.9772635132449
 20
73.16480997409145
 30
0.0
 11
179.0022635132448
 21
73.18980997409155
 31
0.0
  0
LINE
  5
38A
330
48C
100
AcDbEntity
  8
GAIKEI
  6
Continuous
 62
     7
100
AcDbLine
 10
178.9772635132449
 20
72.21480997409141
 30
0.0
 11
179.0022635132448
 21
72.18980997409154
 31
0.0
  0
LINE
  5
38B
330
48C
100
AcDbEntity
  8
GAIKEI
  6
Continuous
 62
     7
100
AcDbLine
 10
183.3272635132448
 20
72.21480997409141
 30
0.0
 11
183.3272635132448
 21
73.16480997409145
 31
0.0
  0
LINE
  5
38C
330
48C
100
AcDbEntity
  8
GAIKEI
  6
Continuous
 62
     7
100
AcDbLine
 10
183.3022635132447
 20
73.18980997409155
 30
0.0
 11
183.3272635132448
 21
73.16480997409145
 31
0.0
  0
LINE
  5
38D
330
48C
100
AcDbEntity
  8
GAIKEI
  6
Continuous
 62
     7
100
AcDbLine
 10
183.3022635132447
 20
72.18980997409154
 30
0.0
 11
183.3272635132448
 21
72.21480997409141
 31
0.0
  0
LINE
  5
38E
330
48C
100
AcDbEntity
  8
GAIKEI
  6
Continuous
 62
     1
100
AcDbLine
 10
199.4272635132447
 20
56.97980997409151
 30
0.0
 11
199.4272635132447
 21
58.24980997409149
 31
0.0
  0
LINE
  5
38F
330
48C
100
AcDbEntity
  8
GAIKEI
  6
Continuous
 62
     1
100
AcDbLine
 10
199.4272635132447
 20
56.97980997409151
 30
0.0
 11
199.1522635132445
 21
56.97980997409151
 31
0.0
  0
ARC
  5
390
330
48C
100
AcDbEntity
  8
GAIKEI
  6
Continuous
 62
     7
100
AcDbCircle
 10
196.7522635132448
 20
56.6148099740915
 30
0.0
 40
1.0
100
AcDbArc
 50
180.0
 51
270.0
  0
LINE
  5
391
330
48C
100
AcDbEntity
  8
GAIKEI
  6
Continuous
 62
     7
100
AcDbLine
 10
196.7522635132448
 20
55.6148099740915
 30
0.0
 11
199.1522635132445
 21
55.6148099740915
 31
0.0
  0
LINE
  5
392
330
48C
100
AcDbEntity
  8
GAIKEI
  6
Continuous
 62
     1
100
AcDbLine
 10
199.4272635132447
 20
58.24980997409149
 30
0.0
 11
199.1522635132445
 21
58.24980997409149
 31
0.0
  0
ARC
  5
393
330
48C
100
AcDbEntity
  8
GAIKEI
  6
Continuous
 62
     1
100
AcDbCircle
 10
197.6522635132446
 20
60.21480997409141
 30
0.0
 40
0.625
100
AcDbArc
 50
189.1771309999731
 51
235.9442019999954
  0
ARC
  5
394
330
48C
100
AcDbEntity
  8
GAIKEI
  6
Continuous
 62
     1
100
AcDbCircle
 10
197.6522635132446
 20
60.21480997409141
 30
0.0
 40
0.625
100
AcDbArc
 50
9.177131469991792
 51
170.8228679999852
  0
LINE
  5
395
330
48C
100
AcDbEntity
  8
GAIKEI
  6
Continuous
 62
     1
100
AcDbLine
 10
198.2692635132448
 20
60.3144894740915
 30
0.0
 11
198.3679835132448
 21
60.33043847409159
 31
0.0
  0
LINE
  5
396
330
48C
100
AcDbEntity
  8
GAIKEI
  6
Continuous
 62
     1
100
AcDbLine
 10
197.0352635132449
 20
60.3144894740915
 30
0.0
 11
196.9365435132449
 21
60.33043847409159
 31
0.0
  0
ARC
  5
397
330
48C
100
AcDbEntity
  8
GAIKEI
  6
Continuous
 62
     1
100
AcDbCircle
 10
197.0272635132445
 20
60.21480997409141
 30
0.0
 40
0.1
100
AcDbArc
 50
85.41143440003597
 51
274.5885659999935
  0
ARC
  5
398
330
48C
100
AcDbEntity
  8
GAIKEI
  6
Continuous
 62
     1
100
AcDbCircle
 10
198.2772635132445
 20
60.21480997409141
 30
0.0
 40
0.1
100
AcDbArc
 50
265.4114340000065
 51
94.58856590003843
  0
ARC
  5
399
330
48C
100
AcDbEntity
  8
GAIKEI
  6
Continuous
 62
     1
100
AcDbCircle
 10
197.6522635132446
 20
60.21480997409141
 30
0.0
 40
0.625
100
AcDbArc
 50
304.0557980000041
 51
350.8228690000268
  0
ARC
  5
39A
330
48C
100
AcDbEntity
  8
GAIKEI
  6
Continuous
 62
     1
100
AcDbCircle
 10
197.6522635132446
 20
60.21480997409141
 30
0.0
 40
0.7250000000000001
100
AcDbArc
 50
9.177131469991792
 51
170.8228679999852
  0
ARC
  5
39B
330
48C
100
AcDbEntity
  8
GAIKEI
  6
Continuous
 62
     1
100
AcDbCircle
 10
197.6772635132447
 20
59.1148099740915
 30
0.0
 40
0.325
100
AcDbArc
 50
270.0
 51
0.0
  0
ARC
  5
39C
330
48C
100
AcDbEntity
  8
GAIKEI
  6
Continuous
 62
     1
100
AcDbCircle
 10
197.6272635132448
 20
59.1148099740915
 30
0.0
 40
0.325
100
AcDbArc
 50
180.0
 51
270.0
  0
LINE
  5
39D
330
48C
100
AcDbEntity
  8
GAIKEI
  6
Continuous
 62
     1
100
AcDbLine
 10
197.6272635132448
 20
58.78980997409146
 30
0.0
 11
197.6772635132447
 21
58.78980997409146
 31
0.0
  0
LINE
  5
39E
330
48C
100
AcDbEntity
  8
GAIKEI
  6
Continuous
 62
     1
100
AcDbLine
 10
198.0022635132448
 20
59.1148099740915
 30
0.0
 11
198.0022635132448
 21
59.69700197409135
 31
0.0
  0
LINE
  5
39F
330
48C
100
AcDbEntity
  8
GAIKEI
  6
Continuous
 62
     1
100
AcDbLine
 10
197.3022635132447
 20
59.1148099740915
 30
0.0
 11
197.3022635132447
 21
59.69700197409135
 31
0.0
  0
LINE
  5
3A0
330
48C
100
AcDbEntity
  8
GAIKEI
  6
Continuous
 62
     1
100
AcDbLine
 10
199.4272635132447
 20
73.39480997409147
 30
0.0
 11
199.1522635132445
 21
73.39480997409147
 31
0.0
  0
LINE
  5
3A1
330
48C
100
AcDbEntity
  8
WAKU
 62
     4
100
AcDbLine
 10
255.9999999999999
 20
40.49921413964216
 30
0.0
 11
255.9999999999999
 21
5.499214139642163
 31
0.0
  0
ARC
  5
3A2
330
48C
100
AcDbEntity
  8
GAIKEI
  6
Continuous
100
AcDbCircle
 10
222.8440714022715
 20
57.75205147409139
 30
0.0
 40
1.0
100
AcDbArc
 50
0.0
 51
65.0560949999999
  0
LINE
  5
3A3
330
48C
100
AcDbEntity
  8
GAIKEI
  6
Continuous
100
AcDbLine
 10
226.3361694022715
 20
64.36407897409136
 30
0.0
 11
223.7547784022715
 21
58.16510447409139
 31
0.0
  0
LINE
  5
3A4
330
48C
100
AcDbEntity
  8
GAIKEI
  6
Continuous
100
AcDbLine
 10
220.1940714022715
 20
55.38980997409136
 30
0.0
 11
221.4728904022715
 21
55.38980997409136
 31
0.0
  0
LINE
  5
3A5
330
48C
100
AcDbEntity
  8
GAIKEI
  6
Continuous
100
AcDbLine
 10
223.8440714022715
 20
57.75205147409139
 30
0.0
 11
223.8440714022715
 21
57.02756847409139
 31
0.0
  0
ARC
  5
3A6
330
48C
100
AcDbEntity
  8
GAIKEI
  6
Continuous
100
AcDbCircle
 10
222.8440714022715
 20
57.02756847409139
 30
0.0
 40
1.0
100
AcDbArc
 50
294.9439050000001
 51
0.0
  0
ARC
  5
3A7
330
48C
100
AcDbEntity
  8
GAIKEI
  6
Continuous
100
AcDbCircle
 10
221.4728904022715
 20
56.38980997409135
 30
0.0
 40
1.0
100
AcDbArc
 50
270.0
 51
294.9439050000001
  0
CIRCLE
  5
3A8
330
48C
100
AcDbEntity
  8
GAIKEI
  6
Continuous
 62
     1
100
AcDbCircle
 10
222.7440714022715
 20
57.38980997409136
 30
0.0
 40
0.6550000000000001
  0
LINE
  5
3A9
330
48C
100
AcDbEntity
  8
GAIKEI
  6
Continuous
100
AcDbLine
 10
221.8946209022715
 20
55.48308897409135
 30
0.0
 11
223.2658024022715
 21
56.12084747409138
 31
0.0
  0
LINE
  5
3AA
330
48C
100
AcDbEntity
  8
GAIKEI
  6
Continuous
100
AcDbLine
 10
223.2440714022715
 20
72.22480997409134
 30
0.0
 11
227.5440714022715
 21
72.22480997409134
 31
0.0
  0
LINE
  5
3AB
330
48C
100
AcDbEntity
  8
GAIKEI
  6
Continuous
100
AcDbLine
 10
223.5203469022715
 20
73.22480997409134
 30
0.0
 11
227.9339709022715
 21
73.22480997409134
 31
0.0
  0
LINE
  5
3AC
330
48C
100
AcDbEntity
  8
GAIKEI
  6
Continuous
100
AcDbLine
 10
223.6273674022715
 20
73.33980997409134
 30
0.0
 11
227.9339709022715
 21
73.33980997409134
 31
0.0
  0
LINE
  5
3AD
330
48C
100
AcDbEntity
  8
GAIKEI
  6
Continuous
100
AcDbLine
 10
226.4100224022715
 20
64.33332547409141
 30
0.0
 11
225.0899079022715
 21
64.88305047409139
 31
0.0
  0
CIRCLE
  5
3AE
330
48C
100
AcDbEntity
  8
GAIKEI
  6
Continuous
 62
     1
100
AcDbCircle
 10
226.0213844022715
 20
65.26448597409139
 30
0.0
 40
0.45
  0
LINE
  5
3AF
330
48C
100
AcDbEntity
  8
GAIKEI
  6
Continuous
100
AcDbLine
 10
223.6371274022715
 20
73.35230997409141
 30
0.0
 11
228.6184369022715
 21
73.35230997409141
 31
0.0
  0
LINE
  5
3B0
330
48C
100
AcDbEntity
  8
GAIKEI
  6
Continuous
100
AcDbLine
 10
221.6940714022715
 20
71.41816097409133
 30
0.0
 11
221.6940714022715
 21
60.02756847409139
 31
0.0
  0
CIRCLE
  5
3B1
330
48C
100
AcDbEntity
  8
GAIKEI
  6
Continuous
 62
     1
100
AcDbCircle
 10
220.5440714022715
 20
59.61480997409139
 30
0.0
 40
0.125
  0
LINE
  5
3B2
330
48C
100
AcDbEntity
  8
GAIKEI
  6
Continuous
 62
     1
100
AcDbLine
 10
220.3677664022715
 20
59.47550697409139
 30
0.0
 11
220.3677664022715
 21
58.30411297409138
 31
0.0
  0
ARC
  5
3B3
330
48C
100
AcDbEntity
  8
GAIKEI
  6
Continuous
 62
     1
100
AcDbCircle
 10
220.4027764022715
 20
59.43980997409139
 30
0.0
 40
0.05
100
AcDbArc
 50
90.0
 51
159.9999999999999
  0
POINT
  5
3B4
330
48C
100
AcDbEntity
  8
GAIKEI
 62
     1
100
AcDbPoint
 10
220.3677664022715
 20
59.48980997409138
 30
0.0
  0
ARC
  5
3B5
330
48C
100
AcDbEntity
  8
GAIKEI
  6
Continuous
 62
     1
100
AcDbCircle
 10
220.6040714022714
 20
59.43980997409139
 30
0.0
 40
0.05
100
AcDbArc
 50
0.0
 51
90.0
  0
LINE
  5
3B6
330
48C
100
AcDbEntity
  8
GAIKEI
  6
Continuous
 62
     1
100
AcDbLine
 10
220.3042794022715
 20
59.3153809740914
 30
0.0
 11
220.3557919022715
 21
59.45691097409139
 31
0.0
  0
LINE
  5
3B7
330
48C
100
AcDbEntity
  8
GAIKEI
  6
Continuous
 62
     1
100
AcDbLine
 10
220.3040714022715
 20
58.46423897409136
 30
0.0
 11
220.3040714022715
 21
59.31480997409138
 31
0.0
  0
LINE
  5
3B8
330
48C
100
AcDbEntity
  8
GAIKEI
  6
Continuous
 62
     1
100
AcDbLine
 10
220.3040714022715
 20
59.21480997409134
 30
0.0
 11
220.1940714022715
 21
59.21480997409134
 31
0.0
  0
LINE
  5
3B9
330
48C
100
AcDbEntity
  8
GAIKEI
  6
Continuous
 62
     1
100
AcDbLine
 10
220.6040714022714
 20
59.48980997409138
 30
0.0
 11
220.4027764022715
 21
59.48980997409138
 31
0.0
  0
ARC
  5
3BA
330
48C
100
AcDbEntity
  8
GAIKEI
  6
Continuous
 62
     1
100
AcDbCircle
 10
220.4027764022715
 20
58.33980997409135
 30
0.0
 40
0.05
100
AcDbArc
 50
200.0000000000001
 51
270.0
  0
POINT
  5
3BB
330
48C
100
AcDbEntity
  8
GAIKEI
 62
     1
100
AcDbPoint
 10
220.3677664022715
 20
58.28980997409139
 30
0.0
  0
ARC
  5
3BC
330
48C
100
AcDbEntity
  8
GAIKEI
  6
Continuous
 62
     1
100
AcDbCircle
 10
220.6040714022714
 20
58.33980997409135
 30
0.0
 40
0.05
100
AcDbArc
 50
270.0
 51
0.0
  0
LINE
  5
3BD
330
48C
100
AcDbEntity
  8
GAIKEI
  6
Continuous
 62
     1
100
AcDbLine
 10
220.3042794022715
 20
58.46423897409136
 30
0.0
 11
220.3557919022715
 21
58.32270897409138
 31
0.0
  0
LINE
  5
3BE
330
48C
100
AcDbEntity
  8
GAIKEI
  6
Continuous
 62
     1
100
AcDbLine
 10
220.3040714022715
 20
58.56480997409139
 30
0.0
 11
220.1940714022715
 21
58.56480997409139
 31
0.0
  0
LINE
  5
3BF
330
48C
100
AcDbEntity
  8
GAIKEI
  6
Continuous
 62
     1
100
AcDbLine
 10
220.6040714022714
 20
58.28980997409139
 30
0.0
 11
220.4027764022715
 21
58.28980997409139
 31
0.0
  0
LINE
  5
3C0
330
48C
100
AcDbEntity
  8
GAIKEI
  6
Continuous
 62
     1
100
AcDbLine
 10
220.6540714022715
 20
59.43980997409139
 30
0.0
 11
220.6540714022715
 21
58.33980997409135
 31
0.0
  0
CIRCLE
  5
3C1
330
48C
100
AcDbEntity
  8
GAIKEI
  6
Continuous
 62
     1
100
AcDbCircle
 10
224.4168979022715
 20
61.40694897409135
 30
0.0
 40
0.175
  0
CIRCLE
  5
3C2
330
48C
100
AcDbEntity
  8
GAIKEI
  6
Continuous
 62
     1
100
AcDbCircle
 10
224.7052149022715
 20
62.09931697409139
 30
0.0
 40
0.175
  0
CIRCLE
  5
3C3
330
48C
100
AcDbEntity
  8
GAIKEI
  6
Continuous
 62
     1
100
AcDbCircle
 10
224.9935324022715
 20
62.79168447409139
 30
0.0
 40
0.175
  0
CIRCLE
  5
3C4
330
48C
100
AcDbEntity
  8
GAIKEI
  6
Continuous
 62
     1
100
AcDbCircle
 10
225.2818499022715
 20
63.48405247409137
 30
0.0
 40
0.175
  0
CIRCLE
  5
3C5
330
48C
100
AcDbEntity
  8
GAIKEI
  6
Continuous
 62
     1
100
AcDbCircle
 10
225.5701674022715
 20
64.17641997409143
 30
0.0
 40
0.175
  0
ARC
  5
3C6
330
48C
100
AcDbEntity
  8
GAIKEI
  6
Continuous
100
AcDbCircle
 10
222.6940714022715
 20
60.02756847409139
 30
0.0
 40
1.0
100
AcDbArc
 50
180.0
 51
245.0560949999999
  0
CIRCLE
  5
3C7
330
48C
100
AcDbEntity
  8
GAIKEI
  6
Continuous
 62
     1
100
AcDbCircle
 10
221.6940714022715
 20
58.88980997409135
 30
0.0
 40
0.1625
  0
LINE
  5
3C8
330
48C
100
AcDbEntity
  8
GAIKEI
  6
Continuous
100
AcDbLine
 10
222.2723409022715
 20
59.12084747409139
 30
0.0
 11
223.2658024022715
 21
58.65877247409135
 31
0.0
  0
LINE
  5
3C9
330
48C
100
AcDbEntity
  8
GAIKEI
  6
Continuous
100
AcDbLine
 10
225.1637604022715
 20
64.85229647409139
 30
0.0
 11
222.6951629022715
 21
58.92418597409136
 31
0.0
  0
POINT
  5
3CA
330
48C
100
AcDbEntity
  8
GAIKEI
100
AcDbPoint
 10
220.1940714022715
 20
66.88980997409136
 30
0.0
  0
LINE
  5
3CB
330
48C
100
AcDbEntity
  8
GAIKEI
  6
Continuous
100
AcDbLine
 10
223.2190714022715
 20
72.24980997409137
 30
0.0
 11
223.2440714022715
 21
72.22480997409134
 31
0.0
  0
LINE
  5
3CC
330
48C
100
AcDbEntity
  8
GAIKEI
  6
Continuous
100
AcDbLine
 10
223.2190714022715
 20
73.0037634740914
 30
0.0
 11
223.2190714022715
 21
72.24980997409137
 31
0.0
  0
LINE
  5
3CD
330
48C
100
AcDbEntity
  8
GAIKEI
  6
Continuous
100
AcDbLine
 10
226.0683294022715
 20
73.22480997409134
 30
0.0
 11
226.0683294022715
 21
72.22480997409134
 31
0.0
  0
ARC
  5
3CE
330
48C
100
AcDbEntity
  8
GAIKEI
  6
Continuous
100
AcDbCircle
 10
222.6940714022715
 20
71.41816097409133
 30
0.0
 40
1.0
100
AcDbArc
 50
124.9024960000012
 51
180.0
  0
LINE
  5
3CF
330
48C
100
AcDbEntity
  8
GAIKEI
  6
Continuous
100
AcDbLine
 10
222.1218899022715
 20
72.23828797409137
 30
0.0
 11
223.4162529022715
 21
73.14133197409138
 31
0.0
  0
LINE
  5
3D0
330
48C
100
AcDbEntity
  8
GAIKEI
  6
Continuous
100
AcDbLine
 10
227.5690714022715
 20
73.19980997409138
 30
0.0
 11
227.5440714022715
 21
73.22480997409134
 31
0.0
  0
LINE
  5
3D1
330
48C
100
AcDbEntity
  8
GAIKEI
  6
Continuous
100
AcDbLine
 10
227.5690714022715
 20
72.24980997409137
 30
0.0
 11
227.5440714022715
 21
72.22480997409134
 31
0.0
  0
LINE
  5
3D2
330
48C
100
AcDbEntity
  8
GAIKEI
  6
Continuous
100
AcDbLine
 10
227.5690714022715
 20
73.19980997409138
 30
0.0
 11
227.5690714022715
 21
72.24980997409137
 31
0.0
  0
LINE
  5
3D3
330
48C
100
AcDbEntity
  8
GAIKEI
  6
Continuous
100
AcDbLine
 10
227.9339709022715
 20
73.22480997409134
 30
0.0
 11
227.9339709022715
 21
73.33980997409134
 31
0.0
  0
LINE
  5
3D4
330
48C
100
AcDbEntity
  8
GAIKEI
100
AcDbLine
 10
172.4022635132446
 20
103.233735870044
 30
0.0
 11
189.9022635132445
 21
103.233735870044
 31
0.0
  0
LINE
  5
3D5
330
48C
100
AcDbEntity
  8
GAIKEI
100
AcDbLine
 10
189.9022635132445
 20
103.3937358700439
 30
0.0
 11
172.4022635132446
 21
103.3937358700439
 31
0.0
  0
LINE
  5
3D6
330
48C
100
AcDbEntity
  8
GAIKEI
  6
Continuous
 62
     7
100
AcDbLine
 10
166.5522635132447
 20
75.93480997409165
 30
0.0
 11
179.0022635132445
 21
75.93480997409165
 31
0.0
  0
LINE
  5
3D7
330
48C
100
AcDbEntity
  8
GAIKEI
  6
Continuous
 62
     7
100
AcDbLine
 10
163.8272635132448
 20
76.83459547409142
 30
0.0
 11
163.8272635132448
 21
77.01480997409159
 31
0.0
  0
LINE
  5
3D8
330
48C
100
AcDbEntity
  8
GAIKEI
  6
Continuous
 62
     7
100
AcDbLine
 10
165.4772635132449
 20
76.83459547409142
 30
0.0
 11
165.4772635132449
 21
77.01480997409159
 31
0.0
  0
LINE
  5
3D9
330
48C
100
AcDbEntity
  8
GAIKEI
  6
Continuous
 62
     7
100
AcDbLine
 10
163.6772635132447
 20
77.16480997409146
 30
0.0
 11
163.1522635132446
 21
77.16480997409146
 31
0.0
  0
ARC
  5
3DA
330
48C
100
AcDbEntity
  8
GAIKEI
  6
Continuous
 62
     7
100
AcDbCircle
 10
163.6772635132447
 20
77.01480997409159
 30
0.0
 40
0.15
100
AcDbArc
 50
0.0
 51
90.000000199999
  0
ARC
  5
3DB
330
48C
100
AcDbEntity
  8
GAIKEI
  6
Continuous
 62
     7
100
AcDbCircle
 10
165.6272635132448
 20
77.01480997409159
 30
0.0
 40
0.15
100
AcDbArc
 50
90.000000199999
 51
180.0
  0
ARC
  5
3DC
330
48C
100
AcDbEntity
  8
GAIKEI
  6
Continuous
 62
     7
100
AcDbCircle
 10
163.9772635132449
 20
76.83459547409142
 30
0.0
 40
0.15
100
AcDbArc
 50
180.0
 51
229.8990919999559
  0
ARC
  5
3DD
330
48C
100
AcDbEntity
  8
GAIKEI
  6
Continuous
 62
     7
100
AcDbCircle
 10
165.3272635132448
 20
76.83459547409142
 30
0.0
 40
0.15
100
AcDbArc
 50
310.1009080000441
 51
0.0
  0
LINE
  5
3DE
330
48C
100
AcDbEntity
  8
GAIKEI
  6
Continuous
 62
     7
100
AcDbLine
 10
166.5522635132447
 20
77.16480997409146
 30
0.0
 11
165.6272635132448
 21
77.16480997409146
 31
0.0
  0
LINE
  5
3DF
330
48C
100
AcDbEntity
  8
GAIKEI
  6
Continuous
 62
     7
100
AcDbLine
 10
164.3022635132447
 20
75.1148099740915
 30
0.0
 11
164.3022635132447
 21
76.29502447409165
 31
0.0
  0
LINE
  5
3E0
330
48C
100
AcDbEntity
  8
GAIKEI
  6
Continuous
 62
     7
100
AcDbLine
 10
165.0022635132448
 20
75.1148099740915
 30
0.0
 11
165.0022635132448
 21
76.29502447409165
 31
0.0
  0
LINE
  5
3E1
330
48C
100
AcDbEntity
  8
GAIKEI
  6
Continuous
 62
     7
100
AcDbLine
 10
164.6772635132447
 20
74.78980997409145
 30
0.0
 11
164.6272635132448
 21
74.78980997409145
 31
0.0
  0
ARC
  5
3E2
330
48C
100
AcDbEntity
  8
GAIKEI
  6
Continuous
 62
     7
100
AcDbCircle
 10
164.6772635132447
 20
75.1148099740915
 30
0.0
 40
0.325
100
AcDbArc
 50
270.0
 51
0.0
  0
ARC
  5
3E3
330
48C
100
AcDbEntity
  8
GAIKEI
  6
Continuous
 62
     7
100
AcDbCircle
 10
164.6272635132448
 20
75.1148099740915
 30
0.0
 40
0.325
100
AcDbArc
 50
180.0
 51
270.0
  0
ARC
  5
3E4
330
48C
100
AcDbEntity
  8
GAIKEI
  6
Continuous
 62
     7
100
AcDbCircle
 10
164.1522635132446
 20
76.29502447409165
 30
0.0
 40
0.15
100
AcDbArc
 50
0.0
 51
49.89909239998906
  0
ARC
  5
3E5
330
48C
100
AcDbEntity
  8
GAIKEI
  6
Continuous
 62
     7
100
AcDbCircle
 10
165.1522635132446
 20
76.29502447409165
 30
0.0
 40
0.15
100
AcDbArc
 50
130.1009080000441
 51
180.0
  0
LINE
  5
3E6
330
48C
100
AcDbEntity
  8
GAIKEI
  6
Continuous
 62
     7
100
AcDbLine
 10
164.3022635132447
 20
75.93480997409165
 30
0.0
 11
165.0022635132448
 21
75.93480997409165
 31
0.0
  0
LINE
  5
3E7
330
48C
100
AcDbEntity
  8
GAIKEI
  6
Continuous
 62
     1
100
AcDbLine
 10
162.8772635132448
 20
75.93480997409165
 30
0.0
 11
163.1522635132446
 21
75.93480997409165
 31
0.0
  0
LINE
  5
3E8
330
48C
100
AcDbEntity
  8
GAIKEI
  6
Continuous
 62
     7
100
AcDbLine
 10
165.423888513245
 20
76.71985897409152
 30
0.0
 11
165.0556435132448
 21
76.40976147409152
 31
0.0
  0
LINE
  5
3E9
330
48C
100
AcDbEntity
  8
GAIKEI
  6
Continuous
 62
     7
100
AcDbLine
 10
164.2488885132448
 20
76.40976147409152
 30
0.0
 11
163.8806435132446
 21
76.71985897409152
 31
0.0
  0
LINE
  5
3EA
330
48C
100
AcDbEntity
  8
GAIKEI
100
AcDbLine
 10
172.4022635132446
 20
103.3937358700439
 30
0.0
 11
172.4022635132446
 21
103.233735870044
 31
0.0
  0
LINE
  5
3EB
330
48C
100
AcDbEntity
  8
GAIKEI
  6
Continuous
 62
     7
100
AcDbLine
 10
183.3022635132447
 20
75.93480997409165
 30
0.0
 11
195.7522635132448
 21
75.93480997409165
 31
0.0
  0
LINE
  5
3EC
330
48C
100
AcDbEntity
  8
GAIKEI
100
AcDbLine
 10
183.3797635132448
 20
99.870009870044
 30
0.0
 11
183.3797635132448
 21
76.59703770367333
 31
0.0
  0
LINE
  5
3ED
330
48C
100
AcDbEntity
  8
GAIKEI
100
AcDbLine
 10
183.3797635132448
 20
99.870009870044
 30
0.0
 11
183.3797635132448
 21
88.11283654357916
 31
0.0
  0
LINE
  5
3EE
330
48C
100
AcDbEntity
  8
GAIKEI
100
AcDbLine
 10
183.3797635132448
 20
99.89373587004392
 30
0.0
 11
183.3797635132448
 21
88.11283654357916
 31
0.0
  0
LINE
  5
3EF
330
48C
100
AcDbEntity
  8
GAIKEI
100
AcDbLine
 10
178.9247635132447
 20
99.89373587004392
 30
0.0
 11
178.9247635132447
 21
76.59703770367331
 31
0.0
  0
LINE
  5
3F0
330
48C
100
AcDbEntity
  8
GAIKEI
  6
Continuous
 62
     7
100
AcDbLine
 10
183.3797635132448
 20
76.59703770367333
 30
0.0
 11
178.9247635132447
 21
76.59703770367333
 31
0.0
  0
LINE
  5
3F1
330
48C
100
AcDbEntity
  8
GAIKEI
  6
Continuous
 62
     7
100
AcDbLine
 10
179.0022635132448
 20
76.13980997409159
 30
0.0
 11
183.3022635132447
 21
76.13980997409159
 31
0.0
  0
LINE
  5
3F2
330
48C
100
AcDbEntity
  8
GAIKEI
  6
Continuous
 62
     7
100
AcDbLine
 10
180.9022635132446
 20
76.53980997409146
 30
0.0
 11
181.4022635132445
 21
76.53980997409146
 31
0.0
  0
LINE
  5
3F3
330
48C
100
AcDbEntity
  8
GAIKEI
  6
Continuous
 62
     7
100
AcDbLine
 10
183.0597635132449
 20
76.13980997409159
 30
0.0
 11
183.0597635132449
 21
76.59703770367333
 31
0.0
  0
LINE
  5
3F4
330
48C
100
AcDbEntity
  8
GAIKEI
  6
Continuous
 62
     7
100
AcDbLine
 10
180.9022635132446
 20
76.13980997409159
 30
0.0
 11
180.9022635132446
 21
76.53980997409146
 31
0.0
  0
LINE
  5
3F5
330
48C
100
AcDbEntity
  8
GAIKEI
  6
Continuous
 62
     7
100
AcDbLine
 10
181.4022635132445
 20
76.13980997409159
 30
0.0
 11
181.4022635132445
 21
76.53980997409146
 31
0.0
  0
LINE
  5
3F6
330
48C
100
AcDbEntity
  8
GAIKEI
  6
Continuous
 62
     7
100
AcDbLine
 10
179.2447635132448
 20
76.13980997409159
 30
0.0
 11
179.2447635132448
 21
76.59703770367333
 31
0.0
  0
LINE
  5
3F7
330
48C
100
AcDbEntity
  8
GAIKEI
100
AcDbLine
 10
178.2422635132448
 20
99.89373587004392
 30
0.0
 11
184.0622635132449
 21
99.89373587004392
 31
0.0
  0
LINE
  5
3F8
330
48C
100
AcDbEntity
  8
GAIKEI
100
AcDbLine
 10
174.9022635132446
 20
103.233735870044
 30
0.0
 11
178.2422635132448
 21
99.89373587004392
 31
0.0
  0
CIRCLE
  5
3F9
330
48C
100
AcDbEntity
  8
GAIKEI
 62
     1
100
AcDbCircle
 10
181.1522635132446
 20
98.79500987004394
 30
0.0
 40
0.275
  0
LINE
  5
3FA
330
48C
100
AcDbEntity
  8
GAIKEI
100
AcDbLine
 10
184.0622635132449
 20
99.89373587004392
 30
0.0
 11
187.4022635132446
 21
103.233735870044
 31
0.0
  0
LINE
  5
3FB
330
48C
100
AcDbEntity
  8
GAIKEI
100
AcDbLine
 10
189.9022635132445
 20
103.3937358700439
 30
0.0
 11
189.9022635132445
 21
103.233735870044
 31
0.0
  0
LINE
  5
3FC
330
48C
100
AcDbEntity
  8
GAIKEI
  6
Continuous
 62
     1
100
AcDbLine
 10
199.4272635132447
 20
75.93480997409165
 30
0.0
 11
199.1522635132445
 21
75.93480997409165
 31
0.0
  0
LINE
  5
3FD
330
48C
100
AcDbEntity
  8
GAIKEI
  6
Continuous
 62
     7
100
AcDbLine
 10
198.6272635132448
 20
77.16480997409146
 30
0.0
 11
199.1522635132445
 21
77.16480997409146
 31
0.0
  0
LINE
  5
3FE
330
48C
100
AcDbEntity
  8
GAIKEI
  6
Continuous
 62
     7
100
AcDbLine
 10
195.7522635132448
 20
77.16480997409146
 30
0.0
 11
196.6772635132447
 21
77.16480997409146
 31
0.0
  0
LINE
  5
3FF
330
48C
100
AcDbEntity
  8
GAIKEI
  6
Continuous
 62
     7
100
AcDbLine
 10
198.4772635132449
 20
76.83459547409142
 30
0.0
 11
198.4772635132449
 21
77.01480997409159
 31
0.0
  0
LINE
  5
400
330
48C
100
AcDbEntity
  8
GAIKEI
  6
Continuous
 62
     7
100
AcDbLine
 10
196.8272635132448
 20
76.83459547409142
 30
0.0
 11
196.8272635132448
 21
77.01480997409159
 31
0.0
  0
ARC
  5
401
330
48C
100
AcDbEntity
  8
GAIKEI
  6
Continuous
 62
     7
100
AcDbCircle
 10
196.6772635132447
 20
77.01480997409159
 30
0.0
 40
0.15
100
AcDbArc
 50
0.0
 51
90.000000199999
  0
ARC
  5
402
330
48C
100
AcDbEntity
  8
GAIKEI
  6
Continuous
 62
     7
100
AcDbCircle
 10
198.3272635132448
 20
76.83459547409142
 30
0.0
 40
0.15
100
AcDbArc
 50
310.1009080000441
 51
0.0
  0
ARC
  5
403
330
48C
100
AcDbEntity
  8
GAIKEI
  6
Continuous
 62
     7
100
AcDbCircle
 10
196.9772635132449
 20
76.83459547409142
 30
0.0
 40
0.15
100
AcDbArc
 50
180.0
 51
229.8990919999559
  0
ARC
  5
404
330
48C
100
AcDbEntity
  8
GAIKEI
  6
Continuous
 62
     7
100
AcDbCircle
 10
198.6272635132448
 20
77.01480997409159
 30
0.0
 40
0.15
100
AcDbArc
 50
90.000000199999
 51
180.0
  0
LINE
  5
405
330
48C
100
AcDbEntity
  8
GAIKEI
  6
Continuous
 62
     7
100
AcDbLine
 10
198.0022635132448
 20
75.1148099740915
 30
0.0
 11
198.0022635132448
 21
76.29502447409165
 31
0.0
  0
LINE
  5
406
330
48C
100
AcDbEntity
  8
GAIKEI
  6
Continuous
 62
     7
100
AcDbLine
 10
197.3022635132447
 20
75.1148099740915
 30
0.0
 11
197.3022635132447
 21
76.29502447409165
 31
0.0
  0
LINE
  5
407
330
48C
100
AcDbEntity
  8
GAIKEI
  6
Continuous
 62
     7
100
AcDbLine
 10
197.6272635132448
 20
74.78980997409145
 30
0.0
 11
197.6772635132447
 21
74.78980997409145
 31
0.0
  0
ARC
  5
408
330
48C
100
AcDbEntity
  8
GAIKEI
  6
Continuous
 62
     7
100
AcDbCircle
 10
197.6272635132448
 20
75.1148099740915
 30
0.0
 40
0.325
100
AcDbArc
 50
180.0
 51
270.0
  0
ARC
  5
409
330
48C
100
AcDbEntity
  8
GAIKEI
  6
Continuous
 62
     7
100
AcDbCircle
 10
197.6772635132447
 20
75.1148099740915
 30
0.0
 40
0.325
100
AcDbArc
 50
270.0
 51
0.0
  0
ARC
  5
40A
330
48C
100
AcDbEntity
  8
GAIKEI
  6
Continuous
 62
     7
100
AcDbCircle
 10
198.1522635132446
 20
76.29502447409165
 30
0.0
 40
0.15
100
AcDbArc
 50
130.1009080000441
 51
180.0
  0
ARC
  5
40B
330
48C
100
AcDbEntity
  8
GAIKEI
  6
Continuous
 62
     7
100
AcDbCircle
 10
197.1522635132446
 20
76.29502447409165
 30
0.0
 40
0.15
100
AcDbArc
 50
0.0
 51
49.89909239998906
  0
LINE
  5
40C
330
48C
100
AcDbEntity
  8
GAIKEI
  6
Continuous
 62
     7
100
AcDbLine
 10
197.3022635132447
 20
75.93480997409165
 30
0.0
 11
198.0022635132448
 21
75.93480997409165
 31
0.0
  0
LINE
  5
40D
330
48C
100
AcDbEntity
  8
GAIKEI
  6
Continuous
 62
     7
100
AcDbLine
 10
196.8806435132447
 20
76.71985897409152
 30
0.0
 11
197.2488885132448
 21
76.40976147409152
 31
0.0
  0
LINE
  5
40E
330
48C
100
AcDbEntity
  8
GAIKEI
  6
Continuous
 62
     7
100
AcDbLine
 10
198.0556435132448
 20
76.40976147409152
 30
0.0
 11
198.423888513245
 21
76.71985897409152
 31
0.0
  0
LINE
  5
40F
330
48C
100
AcDbEntity
  8
GAIKEI
  6
Continuous
100
AcDbLine
 10
227.6215714022715
 20
101.1988043700437
 30
0.0
 11
227.6215714022715
 21
76.37480997409138
 31
0.0
  0
LINE
  5
410
330
48C
100
AcDbEntity
  8
GAIKEI
  6
Continuous
100
AcDbLine
 10
223.1665714022714
 20
101.1988043700437
 30
0.0
 11
223.1665714022714
 21
76.37480997409138
 31
0.0
  0
LINE
  5
411
330
48C
100
AcDbEntity
  8
GAIKEI
  6
Continuous
100
AcDbLine
 10
223.5203469022715
 20
75.65480997409141
 30
0.0
 11
227.9339709022715
 21
75.65480997409141
 31
0.0
  0
LINE
  5
412
330
48C
100
AcDbEntity
  8
GAIKEI
  6
Continuous
100
AcDbLine
 10
223.6273674022715
 20
75.53980997409141
 30
0.0
 11
227.9339709022715
 21
75.53980997409141
 31
0.0
  0
LINE
  5
413
330
48C
100
AcDbEntity
  8
GAIKEI
  6
Continuous
100
AcDbLine
 10
223.1665714022714
 20
76.37480997409138
 30
0.0
 11
227.6215714022715
 21
76.37480997409138
 31
0.0
  0
LINE
  5
414
330
48C
100
AcDbEntity
  8
GAIKEI
  6
Continuous
100
AcDbLine
 10
223.6371274022715
 20
75.52730997409134
 30
0.0
 11
229.0588754022715
 21
75.52730997409134
 31
0.0
  0
LINE
  5
415
330
48C
100
AcDbEntity
  8
GAIKEI
  6
Continuous
100
AcDbLine
 10
220.1940714022715
 20
76.93980997409138
 30
0.0
 11
221.3797079022715
 21
76.93980997409138
 31
0.0
  0
LINE
  5
416
330
48C
100
AcDbEntity
  8
GAIKEI
  6
Continuous
 62
     1
100
AcDbLine
 10
220.3677664022715
 20
74.30411297409138
 30
0.0
 11
220.3677664022715
 21
75.4755069740914
 31
0.0
  0
LINE
  5
417
330
48C
100
AcDbEntity
  8
GAIKEI
  6
Continuous
 62
     1
100
AcDbLine
 10
220.3040714022715
 20
75.31538097409141
 30
0.0
 11
220.3040714022715
 21
74.46480997409134
 31
0.0
  0
LINE
  5
418
330
48C
100
AcDbEntity
  8
GAIKEI
  6
Continuous
 62
     1
100
AcDbLine
 10
220.6540714022715
 20
74.33980997409133
 30
0.0
 11
220.6540714022715
 21
75.43980997409137
 31
0.0
  0
ARC
  5
419
330
48C
100
AcDbEntity
  8
GAIKEI
  6
Continuous
 62
     1
100
AcDbCircle
 10
220.4027764022715
 20
74.33980997409133
 30
0.0
 40
0.05
100
AcDbArc
 50
200.0000000000001
 51
270.0
  0
POINT
  5
41A
330
48C
100
AcDbEntity
  8
GAIKEI
 62
     1
100
AcDbPoint
 10
220.3677664022715
 20
74.28980997409141
 30
0.0
  0
ARC
  5
41B
330
48C
100
AcDbEntity
  8
GAIKEI
  6
Continuous
 62
     1
100
AcDbCircle
 10
220.6040714022714
 20
74.33980997409133
 30
0.0
 40
0.05
100
AcDbArc
 50
270.0
 51
0.0
  0
LINE
  5
41C
330
48C
100
AcDbEntity
  8
GAIKEI
  6
Continuous
 62
     1
100
AcDbLine
 10
220.3042794022715
 20
74.46423897409137
 30
0.0
 11
220.3557919022715
 21
74.32270897409138
 31
0.0
  0
LINE
  5
41D
330
48C
100
AcDbEntity
  8
GAIKEI
  6
Continuous
 62
     1
100
AcDbLine
 10
220.3040714022715
 20
74.56480997409137
 30
0.0
 11
220.1940714022715
 21
74.56480997409137
 31
0.0
  0
LINE
  5
41E
330
48C
100
AcDbEntity
  8
GAIKEI
  6
Continuous
 62
     1
100
AcDbLine
 10
220.6040714022714
 20
74.28980997409141
 30
0.0
 11
220.4027764022715
 21
74.28980997409141
 31
0.0
  0
ARC
  5
41F
330
48C
100
AcDbEntity
  8
GAIKEI
  6
Continuous
 62
     1
100
AcDbCircle
 10
220.4027764022715
 20
75.43980997409137
 30
0.0
 40
0.05
100
AcDbArc
 50
90.0
 51
159.9999999999999
  0
POINT
  5
420
330
48C
100
AcDbEntity
  8
GAIKEI
 62
     1
100
AcDbPoint
 10
220.3677664022715
 20
75.48980997409138
 30
0.0
  0
ARC
  5
421
330
48C
100
AcDbEntity
  8
GAIKEI
  6
Continuous
 62
     1
100
AcDbCircle
 10
220.6040714022714
 20
75.43980997409137
 30
0.0
 40
0.05
100
AcDbArc
 50
0.0
 51
90.0
  0
LINE
  5
422
330
48C
100
AcDbEntity
  8
GAIKEI
  6
Continuous
 62
     1
100
AcDbLine
 10
220.3042794022715
 20
75.31538097409141
 30
0.0
 11
220.3557919022715
 21
75.4569109740914
 31
0.0
  0
LINE
  5
423
330
48C
100
AcDbEntity
  8
GAIKEI
  6
Continuous
 62
     1
100
AcDbLine
 10
220.3040714022715
 20
75.21480997409134
 30
0.0
 11
220.1940714022715
 21
75.21480997409134
 31
0.0
  0
LINE
  5
424
330
48C
100
AcDbEntity
  8
GAIKEI
  6
Continuous
 62
     1
100
AcDbLine
 10
220.6040714022714
 20
75.48980997409138
 30
0.0
 11
220.4027764022715
 21
75.48980997409138
 31
0.0
  0
CIRCLE
  5
425
330
48C
100
AcDbEntity
  8
GAIKEI
  6
Continuous
 62
     1
100
AcDbCircle
 10
225.3940714022715
 20
77.12480997409137
 30
0.0
 40
0.4375
  0
CIRCLE
  5
426
330
48C
100
AcDbEntity
  8
GAIKEI
  6
Continuous
 62
     1
100
AcDbCircle
 10
225.3940714022715
 20
77.12480997409137
 30
0.0
 40
0.2
  0
ARC
  5
427
330
48C
100
AcDbEntity
  8
GAIKEI
  6
Continuous
100
AcDbCircle
 10
221.3797079022715
 20
75.93980997409137
 30
0.0
 40
1.0
100
AcDbArc
 50
55.09750399999876
 51
90.0
  0
LINE
  5
428
330
48C
100
AcDbEntity
  8
GAIKEI
  6
Continuous
100
AcDbLine
 10
223.8440714022715
 20
74.91816097409134
 30
0.0
 11
223.8440714022715
 21
73.9614589740914
 31
0.0
  0
LINE
  5
429
330
48C
100
AcDbEntity
  8
GAIKEI
  6
Continuous
100
AcDbLine
 10
223.4865714022715
 20
76.37480997409138
 30
0.0
 11
223.4865714022715
 21
75.68444647409139
 31
0.0
  0
LINE
  5
42A
330
48C
100
AcDbEntity
  8
GAIKEI
  6
Continuous
100
AcDbLine
 10
223.3290714022715
 20
76.05480997409138
 30
0.0
 11
223.4440714022715
 21
76.05480997409138
 31
0.0
  0
LINE
  5
42B
330
48C
100
AcDbEntity
  8
GAIKEI
  6
Continuous
100
AcDbLine
 10
223.3290714022715
 20
75.79911247409139
 30
0.0
 11
223.3290714022715
 21
76.05480997409138
 31
0.0
  0
LINE
  5
42C
330
48C
100
AcDbEntity
  8
GAIKEI
  6
Continuous
100
AcDbLine
 10
223.4440714022715
 20
75.71816097409136
 30
0.0
 11
223.4440714022715
 21
76.05480997409138
 31
0.0
  0
ARC
  5
42D
330
48C
100
AcDbEntity
  8
GAIKEI
  6
Continuous
100
AcDbCircle
 10
222.8440714022715
 20
74.91816097409134
 30
0.0
 40
1.0
100
AcDbArc
 50
0.0
 51
55.09750399999876
  0
CIRCLE
  5
42E
330
48C
100
AcDbEntity
  8
GAIKEI
  6
Continuous
 62
     1
100
AcDbCircle
 10
221.1940714022715
 20
76.18980997409138
 30
0.0
 40
0.1625
  0
LINE
  5
42F
330
48C
100
AcDbEntity
  8
GAIKEI
  6
Continuous
100
AcDbLine
 10
221.9518894022715
 20
76.75993697409139
 30
0.0
 11
223.4162529022715
 21
75.73828797409136
 31
0.0
  0
CIRCLE
  5
430
330
48C
100
AcDbEntity
  8
GAIKEI
  6
Continuous
 62
     1
100
AcDbCircle
 10
225.3940714022715
 20
82.12480997409137
 30
0.0
 40
0.385
  0
LINE
  5
431
330
48C
100
AcDbEntity
  8
GAIKEI
  6
Continuous
100
AcDbLine
 10
230.7155614022715
 20
74.67268347409135
 30
0.0
 11
229.3954469022715
 21
75.22240897409138
 31
0.0
  0
CIRCLE
  5
432
330
48C
100
AcDbEntity
  8
GAIKEI
  6
Continuous
 62
     1
100
AcDbCircle
 10
229.8440714022715
 20
74.43980997409138
 30
0.0
 40
0.175
  0
ARC
  5
433
330
48C
100
AcDbEntity
  8
GAIKEI
  6
Continuous
100
AcDbCircle
 10
229.0588754022715
 20
74.77730997409134
 30
0.0
 40
0.75
100
AcDbArc
 50
55.17770999999992
 51
90.0
  0
LINE
  5
434
330
48C
100
AcDbEntity
  8
GAIKEI
  6
Continuous
100
AcDbLine
 10
229.4871504022715
 20
75.39300547409138
 30
0.0
 11
229.9723464022715
 21
75.05550547409139
 31
0.0
  0
ARC
  5
435
330
48C
100
AcDbEntity
  8
GAIKEI
  6
Continuous
100
AcDbCircle
 10
229.5440714022715
 20
74.43980997409138
 30
0.0
 40
0.75
100
AcDbArc
 50
39.91597400000019
 51
55.17770999999992
  0
LINE
  5
436
330
48C
100
AcDbEntity
  8
GAIKEI
  6
Continuous
100
AcDbLine
 10
227.3015714022715
 20
76.37480997409138
 30
0.0
 11
227.3015714022715
 21
75.65480997409141
 31
0.0
  0
LINE
  5
437
330
48C
100
AcDbEntity
  8
GAIKEI
  6
Continuous
100
AcDbLine
 10
227.9339709022715
 20
75.65480997409141
 30
0.0
 11
227.9339709022715
 21
75.53980997409141
 31
0.0
  0
LINE
  5
438
330
48C
100
AcDbEntity
  8
GAIKEI
  6
Continuous
100
AcDbLine
 10
223.1665714022714
 20
101.1988043700437
 30
0.0
 11
227.6215714022715
 21
101.1988043700437
 31
0.0
  0
LINE
  5
439
330
48C
100
AcDbEntity
  8
GAIKEI
  6
Continuous
100
AcDbLine
 10
222.2587629022715
 20
101.2537358700437
 30
0.0
 11
228.5293799022715
 21
101.2537358700437
 31
0.0
  0
LINE
  5
43A
330
48C
100
AcDbEntity
  8
GAIKEI
  6
Continuous
100
AcDbLine
 10
216.6440714022715
 20
103.5537358700438
 30
0.0
 11
231.2965714022715
 21
103.5537358700438
 31
0.0
  0
LINE
  5
43B
330
48C
100
AcDbEntity
  8
GAIKEI
  6
Continuous
100
AcDbLine
 10
216.6440714022715
 20
103.3937358700437
 30
0.0
 11
234.1440714022715
 21
103.3937358700437
 31
0.0
  0
LINE
  5
43C
330
48C
100
AcDbEntity
  8
GAIKEI
  6
Continuous
100
AcDbLine
 10
221.5281619022715
 20
101.5709308700437
 30
0.0
 11
220.0736194022715
 21
103.1272913700438
 31
0.0
  0
ARC
  5
43D
330
48C
100
AcDbEntity
  8
GAIKEI
  6
Continuous
100
AcDbCircle
 10
219.4599149022715
 20
102.5537358700438
 30
0.0
 40
0.84
100
AcDbArc
 50
43.06320000000059
 51
90.0
  0
LINE
  5
43E
330
48C
100
AcDbEntity
  8
GAIKEI
  6
Continuous
100
AcDbLine
 10
216.6440714022715
 20
103.5537358700438
 30
0.0
 11
216.6440714022715
 21
103.3937358700437
 31
0.0
  0
LINE
  5
43F
330
48C
100
AcDbEntity
  8
GAIKEI
  6
Continuous
100
AcDbLine
 10
223.3190714022715
 20
101.2537358700437
 30
0.0
 11
223.3190714022715
 21
101.1988043700437
 31
0.0
  0
ARC
  5
440
330
48C
100
AcDbEntity
  8
GAIKEI
  6
Continuous
100
AcDbCircle
 10
222.2587629022715
 20
102.2537358700437
 30
0.0
 40
1.0
100
AcDbArc
 50
223.0632000000006
 51
270.0
  0
ARC
  5
441
330
48C
100
AcDbEntity
  8
GAIKEI
  6
Continuous
 62
     1
100
AcDbCircle
 10
223.1359654022715
 20
100.4488043700437
 30
0.0
 40
0.15
100
AcDbArc
 50
90.0
 51
151.371362000001
  0
LINE
  5
442
330
48C
100
AcDbEntity
  8
GAIKEI
  6
Continuous
 62
     1
100
AcDbLine
 10
223.0043039022715
 20
99.67693487004378
 30
0.0
 11
222.8641359022714
 21
99.93371487004374
 31
0.0
  0
LINE
  5
443
330
48C
100
AcDbEntity
  8
GAIKEI
  6
Continuous
 62
     1
100
AcDbLine
 10
223.0043039022715
 20
100.5206738700437
 30
0.0
 11
222.8641359022714
 21
100.2638938700437
 31
0.0
  0
ARC
  5
444
330
48C
100
AcDbEntity
  8
GAIKEI
  6
Continuous
 62
     1
100
AcDbCircle
 10
223.1665714022714
 20
100.0988043700437
 30
0.0
 40
0.34456
100
AcDbArc
 50
151.371362000001
 51
208.628637999999
  0
LINE
  5
445
330
48C
100
AcDbEntity
  8
GAIKEI
  6
Continuous
 62
     1
100
AcDbLine
 10
223.1665714022714
 20
100.5988043700437
 30
0.0
 11
223.1359654022715
 21
100.5988043700437
 31
0.0
  0
CIRCLE
  5
446
330
48C
100
AcDbEntity
  8
GAIKEI
  6
Continuous
 62
     1
100
AcDbCircle
 10
225.3940714022715
 20
98.09880437004373
 30
0.0
 40
0.5
  0
LINE
  5
447
330
48C
100
AcDbEntity
  8
GAIKEI
  6
Continuous
 62
     1
100
AcDbLine
 10
225.6440714022715
 20
98.24314187004372
 30
0.0
 11
225.6440714022715
 21
97.95446687004371
 31
0.0
  0
LINE
  5
448
330
48C
100
AcDbEntity
  8
GAIKEI
  6
Continuous
 62
     1
100
AcDbLine
 10
225.3940714022715
 20
97.81012937004376
 30
0.0
 11
225.6440714022715
 21
97.95446687004371
 31
0.0
  0
LINE
  5
449
330
48C
100
AcDbEntity
  8
GAIKEI
  6
Continuous
 62
     1
100
AcDbLine
 10
225.1440714022715
 20
97.95446687004371
 30
0.0
 11
225.3940714022715
 21
97.81012937004376
 31
0.0
  0
LINE
  5
44A
330
48C
100
AcDbEntity
  8
GAIKEI
  6
Continuous
 62
     1
100
AcDbLine
 10
225.1440714022715
 20
98.24314187004372
 30
0.0
 11
225.1440714022715
 21
97.95446687004371
 31
0.0
  0
LINE
  5
44B
330
48C
100
AcDbEntity
  8
GAIKEI
  6
Continuous
 62
     1
100
AcDbLine
 10
225.1440714022715
 20
98.24314187004372
 30
0.0
 11
225.3940714022715
 21
98.38747937004372
 31
0.0
  0
LINE
  5
44C
330
48C
100
AcDbEntity
  8
GAIKEI
  6
Continuous
 62
     1
100
AcDbLine
 10
225.3940714022715
 20
98.38747937004372
 30
0.0
 11
225.6440714022715
 21
98.24314187004372
 31
0.0
  0
LINE
  5
44D
330
48C
100
AcDbEntity
  8
GAIKEI
  6
Continuous
 62
     1
100
AcDbLine
 10
223.1665714022714
 20
99.59880437004372
 30
0.0
 11
223.1359654022715
 21
99.59880437004372
 31
0.0
  0
ARC
  5
44E
330
48C
100
AcDbEntity
  8
GAIKEI
  6
Continuous
 62
     1
100
AcDbCircle
 10
223.1359654022715
 20
99.74880437004372
 30
0.0
 40
0.15
100
AcDbArc
 50
208.628637999999
 51
270.0
  0
LINE
  5
44F
330
48C
100
AcDbEntity
  8
GAIKEI
  6
Continuous
100
AcDbLine
 10
230.0518989022715
 20
101.9537358700437
 30
0.0
 11
234.1440714022715
 21
101.9537358700437
 31
0.0
  0
LINE
  5
450
330
48C
100
AcDbEntity
  8
GAIKEI
  6
Continuous
100
AcDbLine
 10
231.3282284022715
 20
103.5537358700438
 30
0.0
 11
234.1440714022715
 21
103.5537358700438
 31
0.0
  0
LINE
  5
451
330
48C
100
AcDbEntity
  8
GAIKEI
  6
Continuous
100
AcDbLine
 10
229.2599809022715
 20
101.5709308700437
 30
0.0
 11
230.7145234022715
 21
103.1272913700438
 31
0.0
  0
ARC
  5
452
330
48C
100
AcDbEntity
  8
GAIKEI
  6
Continuous
100
AcDbCircle
 10
230.0518989022715
 20
100.9537358700437
 30
0.0
 40
1.0
100
AcDbArc
 50
90.0
 51
136.9367999999994
  0
ARC
  5
453
330
48C
100
AcDbEntity
  8
GAIKEI
  6
Continuous
100
AcDbCircle
 10
231.3282284022715
 20
102.5537358700438
 30
0.0
 40
0.84
100
AcDbArc
 50
90.0
 51
136.9367999999994
  0
ARC
  5
454
330
48C
100
AcDbEntity
  8
GAIKEI
  6
Continuous
 62
     1
100
AcDbCircle
 10
227.6521779022715
 20
100.4488043700437
 30
0.0
 40
0.15
100
AcDbArc
 50
28.62863799999898
 51
90.0
  0
LINE
  5
455
330
48C
100
AcDbEntity
  8
GAIKEI
  6
Continuous
 62
     1
100
AcDbLine
 10
227.7838394022715
 20
99.67693487004378
 30
0.0
 11
227.9240069022715
 21
99.93371487004374
 31
0.0
  0
LINE
  5
456
330
48C
100
AcDbEntity
  8
GAIKEI
  6
Continuous
 62
     1
100
AcDbLine
 10
227.7838394022715
 20
100.5206738700437
 30
0.0
 11
227.9240069022715
 21
100.2638938700437
 31
0.0
  0
ARC
  5
457
330
48C
100
AcDbEntity
  8
GAIKEI
  6
Continuous
 62
     1
100
AcDbCircle
 10
227.6215714022715
 20
100.0988043700437
 30
0.0
 40
0.34456
100
AcDbArc
 50
331.371362000001
 51
28.62863799999898
  0
LINE
  5
458
330
48C
100
AcDbEntity
  8
GAIKEI
  6
Continuous
 62
     1
100
AcDbLine
 10
227.6215714022715
 20
100.5988043700437
 30
0.0
 11
227.6521779022715
 21
100.5988043700437
 31
0.0
  0
LINE
  5
459
330
48C
100
AcDbEntity
  8
GAIKEI
  6
Continuous
100
AcDbLine
 10
227.4690714022715
 20
101.2537358700437
 30
0.0
 11
227.4690714022715
 21
101.1988043700437
 31
0.0
  0
LINE
  5
45A
330
48C
100
AcDbEntity
  8
GAIKEI
  6
Continuous
 62
     1
100
AcDbLine
 10
227.6215714022715
 20
99.59880437004372
 30
0.0
 11
227.6521779022715
 21
99.59880437004372
 31
0.0
  0
ARC
  5
45B
330
48C
100
AcDbEntity
  8
GAIKEI
  6
Continuous
 62
     1
100
AcDbCircle
 10
227.6521779022715
 20
99.74880437004372
 30
0.0
 40
0.15
100
AcDbArc
 50
270.0
 51
331.371362000001
  0
ARC
  5
45C
330
48C
100
AcDbEntity
  8
GAIKEI
  6
Continuous
100
AcDbCircle
 10
228.5293799022715
 20
102.2537358700437
 30
0.0
 40
1.0
100
AcDbArc
 50
270.0
 51
316.9367999999994
  0
LINE
  5
45D
330
48C
100
AcDbEntity
  8
GAIKEI
  6
Continuous
100
AcDbLine
 10
234.1440714022715
 20
103.5537358700438
 30
0.0
 11
234.1440714022715
 21
101.9537358700437
 31
0.0
  0
TEXT
  5
4A6
330
48C
100
AcDbEntity
  8
MOJI1
100
AcDbText
 10
173.4999999999999
 20
31.49921413964217
 30
0.0
 40
3.0
  1
３段階（０度、１５度、３０度）
100
AcDbText
  0
TEXT
  5
4A7
330
48C
100
AcDbEntity
  8
MOJI1
100
AcDbText
 10
173.4999999999999
 20
36.49921413964216
 30
0.0
 40
3.0
  1
５０Ｖ型、４２Ｖ型、３７Ｖ型
100
AcDbText
  0
ENDSEC
  0
SECTION
  2
OBJECTS
  0
DICTIONARY
  5
478
330
0
100
AcDbDictionary
281
     1
  3
ACAD_COLOR
350
487
  3
ACAD_GROUP
350
479
  3
ACAD_LAYOUT
350
485
  3
ACAD_MATERIAL
350
486
  3
ACAD_MLINESTYLE
350
482
  3
ACAD_PLOTSETTINGS
350
484
  3
ACAD_PLOTSTYLENAME
350
47A
  3
ACDBHEADERROUNDTRIPXREC
350
4C5
  3
AcDbVariableDictionary
350
4C0
  3
DWGPROPS
350
4C4
  0
DICTIONARY
  5
487
102
{ACAD_REACTORS
330
478
102
}
330
478
100
AcDbDictionary
281
     1
  0
DICTIONARY
  5
479
102
{ACAD_REACTORS
330
478
102
}
330
478
100
AcDbDictionary
281
     1
  0
DICTIONARY
  5
485
102
{ACAD_REACTORS
330
478
102
}
330
478
100
AcDbDictionary
281
     1
  3
Model
350
48F
  3
レイアウト1
350
48B
  0
DICTIONARY
  5
486
102
{ACAD_REACTORS
330
478
102
}
330
478
100
AcDbDictionary
281
     1
  0
DICTIONARY
  5
482
102
{ACAD_REACTORS
330
478
102
}
330
478
100
AcDbDictionary
281
     1
  3
Standard
350
483
  0
DICTIONARY
  5
484
102
{ACAD_REACTORS
330
478
102
}
330
478
100
AcDbDictionary
281
     1
  0
ACDBDICTIONARYWDFLT
  5
47A
102
{ACAD_REACTORS
330
478
102
}
330
478
100
AcDbDictionary
281
     1
  3
Normal
350
47B
100
AcDbDictionaryWithDefault
340
47B
  0
DICTIONARY
  5
4C5
102
{ACAD_REACTORS
330
478
102
}
330
478
100
AcDbDictionary
281
     1
  3
COLORDICT
350
4C7
  3
MATERIALDICT
350
4C6
  0
DICTIONARY
  5
4C0
102
{ACAD_REACTORS
330
478
102
}
330
478
100
AcDbDictionary
281
     1
  3
DIMASSOC
350
4C1
  3
PROJECTNAME
350
4C2
  0
XRECORD
  5
4C4
102
{ACAD_REACTORS
330
478
102
}
330
478
100
AcDbXrecord
280
     1
  1
DWGPROPS COOKIE
  2

  3

  4

  6

  7

  8

  9

300
=
301
=
302
=
303
=
304
=
305
=
306
=
307
=
308
=
309
=
 40
0.6910593055555556
 41
2451815.565532581
 42
2453731.652118959
  1

 90
        0
  0
LAYOUT
  5
48F
102
{ACAD_XDICTIONARY
360
4CA
102
}
102
{ACAD_REACTORS
330
485
102
}
330
485
100
AcDbPlotSettings
  1

  2
\\Uranus\BFACN02M
  4

  6

 40
0.0
 41
0.0
 42
0.0
 43
0.0
 44
0.0
 45
0.0
 46
0.0
 47
0.0
 48
0.0
 49
0.0
140
0.0
141
0.0
142
1.0
143
1.0
 70
  1712
 72
     0
 73
     0
 74
     0
  7
SSC.ctb
 75
     0
147
1.0
148
0.0
149
0.0
100
AcDbLayout
  1
Model
 70
     1
 71
     0
 10
0.0
 20
0.0
 11
12.0
 21
9.0
 12
0.0
 22
0.0
 32
0.0
 14
0.0
 24
0.0
 34
0.0
 15
0.0
 25
0.0
 35
0.0
146
0.0
 13
0.0
 23
0.0
 33
0.0
 16
1.0
 26
0.0
 36
0.0
 17
0.0
 27
1.0
 37
0.0
 76
     0
330
48C
  0
LAYOUT
  5
48B
102
{ACAD_XDICTIONARY
360
4C8
102
}
102
{ACAD_REACTORS
330
485
102
}
330
485
100
AcDbPlotSettings
  1

  2
\\Uranus\BFACN02M
  4

  6

 40
0.0
 41
0.0
 42
0.0
 43
0.0
 44
0.0
 45
0.0
 46
0.0
 47
0.0
 48
0.0
 49
0.0
140
0.0
141
0.0
142
1.0
143
1.0
 70
   688
 72
     0
 73
     0
 74
     5
  7
SSC.ctb
 75
    16
147
1.0
148
0.0
149
0.0
100
AcDbLayout
  1
レイアウト1
 70
     1
 71
     1
 10
0.0
 20
0.0
 11
12.0
 21
9.0
 12
0.0
 22
0.0
 32
0.0
 14
1.000000000000000E+20
 24
1.000000000000000E+20
 34
1.000000000000000E+20
 15
-1.000000000000000E+20
 25
-1.000000000000000E+20
 35
-1.000000000000000E+20
146
0.0
 13
0.0
 23
0.0
 33
0.0
 16
1.0
 26
0.0
 36
0.0
 17
0.0
 27
1.0
 37
0.0
 76
     0
330
488
  0
MLINESTYLE
  5
483
102
{ACAD_REACTORS
330
482
102
}
330
482
100
AcDbMlineStyle
  2
STANDARD
 70
     0
  3

 62
   256
 51
90.0
 52
90.0
 71
     2
 49
0.5
 62
   256
  6
BYLAYER
 49
-0.5
 62
   256
  6
BYLAYER
  0
ACDBPLACEHOLDER
  5
47B
102
{ACAD_REACTORS
330
47A
102
}
330
47A
  0
XRECORD
  5
4C7
102
{ACAD_REACTORS
330
4C5
102
}
330
4C5
100
AcDbXrecord
280
     1
340
487
  0
XRECORD
  5
4C6
102
{ACAD_REACTORS
330
4C5
102
}
330
4C5
100
AcDbXrecord
280
     1
340
486
  0
DICTIONARYVAR
  5
4C1
102
{ACAD_REACTORS
330
4C0
102
}
330
4C0
100
DictionaryVariables
280
     0
  1
1
  0
DICTIONARYVAR
  5
4C2
102
{ACAD_REACTORS
330
4C0
102
}
330
4C0
100
DictionaryVariables
280
     0
  1

  0
DICTIONARY
  5
4CA
330
48F
100
AcDbDictionary
280
     1
281
     1
  3
ACAD_XREC_ROUNDTRIP
360
4CB
  0
DICTIONARY
  5
4C8
330
48B
100
AcDbDictionary
280
     1
281
     1
  3
ACAD_XREC_ROUNDTRIP
360
4C9
  0
XRECORD
  5
4CB
102
{ACAD_REACTORS
330
4CA
102
}
330
4CA
100
AcDbXrecord
280
     1
102
SHADEPLOT
 70
     0
102
SHADEPLOTRESLEVEL
 70
     2
102
SHADEPLOTCUSTOMDPI
 70
   300
  0
XRECORD
  5
4C9
102
{ACAD_REACTORS
330
4C8
102
}
330
4C8
100
AcDbXrecord
280
     1
102
SHADEPLOT
 70
     0
102
SHADEPLOTRESLEVEL
 70
     2
102
SHADEPLOTCUSTOMDPI
 70
   300
  0
ENDSEC
  0
EOF
