  0
SECTION
  2
HEADER
  9
$ACADVER
  1
AC1015
  9
$ACADMAINTVER
 70
    20
  9
$DWGCODEPAGE
  3
ANSI_932
  9
$INSBASE
 10
0.0
 20
246.4992141396417
 30
0.0
  9
$EXTMIN
 10
-62.31807193020995
 20
-52.52250058718073
 30
-0.0000000349181948
  9
$EXTMAX
 10
62.6886953709718
 20
60.57476994273566
 30
0.0000000814935747
  9
$LIMMIN
 10
-1101.784450318844
 20
-1579.160531687244
  9
$LIMMAX
 10
-508.2420711400536
 20
-1161.440814074914
  9
$ORTHOMODE
 70
     1
  9
$REGENMODE
 70
     1
  9
$FILLMODE
 70
     1
  9
$QTEXTMODE
 70
     0
  9
$MIRRTEXT
 70
     1
  9
$LTSCALE
 40
1.0
  9
$ATTMODE
 70
     1
  9
$TEXTSIZE
 40
2.5
  9
$TRACEWID
 40
0.5
  9
$TEXTSTYLE
  7
STANDARD
  9
$CLAYER
  8
GAIKEI
  9
$CELTYPE
  6
BYLAYER
  9
$CECOLOR
 62
   256
  9
$CELTSCALE
 40
1.0
  9
$DISPSILH
 70
     0
  9
$DIMSCALE
 40
1.0
  9
$DIMASZ
 40
2.0
  9
$DIMEXO
 40
2.0
  9
$DIMDLI
 40
8.0
  9
$DIMRND
 40
0.0
  9
$DIMDLE
 40
0.0
  9
$DIMEXE
 40
2.0
  9
$DIMTP
 40
0.0
  9
$DIMTM
 40
0.0
  9
$DIMTXT
 40
2.5
  9
$DIMCEN
 40
0.0
  9
$DIMTSZ
 40
0.0
  9
$DIMTOL
 70
     0
  9
$DIMLIM
 70
     0
  9
$DIMTIH
 70
     0
  9
$DIMTOH
 70
     0
  9
$DIMSE1
 70
     0
  9
$DIMSE2
 70
     0
  9
$DIMTAD
 70
     3
  9
$DIMZIN
 70
     0
  9
$DIMBLK
  1

  9
$DIMASO
 70
     1
  9
$DIMSHO
 70
     1
  9
$DIMPOST
  1

  9
$DIMAPOST
  1

  9
$DIMALT
 70
     0
  9
$DIMALTD
 70
     2
  9
$DIMALTF
 40
25.4
  9
$DIMLFAC
 40
1.0
  9
$DIMTOFL
 70
     1
  9
$DIMTVP
 40
0.0
  9
$DIMTIX
 70
     0
  9
$DIMSOXD
 70
     0
  9
$DIMSAH
 70
     1
  9
$DIMBLK1
  1
OPEN30
  9
$DIMBLK2
  1
OPEN30
  9
$DIMSTYLE
  2
STANDARD
  9
$DIMCLRD
 70
     0
  9
$DIMCLRE
 70
     0
  9
$DIMCLRT
 70
     0
  9
$DIMTFAC
 40
1.0
  9
$DIMGAP
 40
0.5
  9
$DIMJUST
 70
     0
  9
$DIMSD1
 70
     0
  9
$DIMSD2
 70
     0
  9
$DIMTOLJ
 70
     1
  9
$DIMTZIN
 70
     0
  9
$DIMALTZ
 70
     0
  9
$DIMALTTZ
 70
     0
  9
$DIMUPT
 70
     0
  9
$DIMDEC
 70
     4
  9
$DIMTDEC
 70
     4
  9
$DIMALTU
 70
     2
  9
$DIMALTTD
 70
     2
  9
$DIMTXSTY
  7
STANDARD
  9
$DIMAUNIT
 70
     0
  9
$DIMADEC
 70
     0
  9
$DIMALTRND
 40
0.0
  9
$DIMAZIN
 70
     0
  9
$DIMDSEP
 70
    46
  9
$DIMATFIT
 70
     3
  9
$DIMFRAC
 70
     0
  9
$DIMLDRBLK
  1
OPEN30
  9
$DIMLUNIT
 70
     2
  9
$DIMLWD
 70
    -2
  9
$DIMLWE
 70
    -2
  9
$DIMTMOVE
 70
     0
  9
$LUNITS
 70
     2
  9
$LUPREC
 70
     4
  9
$SKETCHINC
 40
0.1
  9
$FILLETRAD
 40
0.5
  9
$AUNITS
 70
     0
  9
$AUPREC
 70
     0
  9
$MENU
  1
ACAD
  9
$ELEVATION
 40
0.0
  9
$PELEVATION
 40
0.0
  9
$THICKNESS
 40
0.0
  9
$LIMCHECK
 70
     0
  9
$CHAMFERA
 40
0.0
  9
$CHAMFERB
 40
0.0
  9
$CHAMFERC
 40
0.0
  9
$CHAMFERD
 40
0.0
  9
$SKPOLY
 70
     0
  9
$TDCREATE
 40
2451815.565532581
  9
$TDUCREATE
 40
2451815.190532581
  9
$TDUPDATE
 40
2453731.733162975
  9
$TDUUPDATE
 40
2453731.358162975
  9
$TDINDWG
 40
0.5401559838
  9
$TDUSRTIMER
 40
0.5401558102
  9
$USRTIMER
 70
     1
  9
$ANGBASE
 50
0.0
  9
$ANGDIR
 70
     0
  9
$PDMODE
 70
     0
  9
$PDSIZE
 40
0.0
  9
$PLINEWID
 40
0.0
  9
$SPLFRAME
 70
     0
  9
$SPLINETYPE
 70
     6
  9
$SPLINESEGS
 70
     8
  9
$HANDSEED
  5
125
  9
$SURFTAB1
 70
     6
  9
$SURFTAB2
 70
     6
  9
$SURFTYPE
 70
     6
  9
$SURFU
 70
     6
  9
$SURFV
 70
     6
  9
$UCSBASE
  2

  9
$UCSNAME
  2

  9
$UCSORG
 10
0.0
 20
0.0
 30
0.0
  9
$UCSXDIR
 10
1.0
 20
0.0
 30
0.0
  9
$UCSYDIR
 10
0.0
 20
1.0
 30
0.0
  9
$UCSORTHOREF
  2

  9
$UCSORTHOVIEW
 70
     0
  9
$UCSORGTOP
 10
0.0
 20
0.0
 30
0.0
  9
$UCSORGBOTTOM
 10
0.0
 20
0.0
 30
0.0
  9
$UCSORGLEFT
 10
0.0
 20
0.0
 30
0.0
  9
$UCSORGRIGHT
 10
0.0
 20
0.0
 30
0.0
  9
$UCSORGFRONT
 10
0.0
 20
0.0
 30
0.0
  9
$UCSORGBACK
 10
0.0
 20
0.0
 30
0.0
  9
$PUCSBASE
  2

  9
$PUCSNAME
  2

  9
$PUCSORG
 10
0.0
 20
0.0
 30
0.0
  9
$PUCSXDIR
 10
1.0
 20
0.0
 30
0.0
  9
$PUCSYDIR
 10
0.0
 20
1.0
 30
0.0
  9
$PUCSORTHOREF
  2

  9
$PUCSORTHOVIEW
 70
     0
  9
$PUCSORGTOP
 10
0.0
 20
0.0
 30
0.0
  9
$PUCSORGBOTTOM
 10
0.0
 20
0.0
 30
0.0
  9
$PUCSORGLEFT
 10
0.0
 20
0.0
 30
0.0
  9
$PUCSORGRIGHT
 10
0.0
 20
0.0
 30
0.0
  9
$PUCSORGFRONT
 10
0.0
 20
0.0
 30
0.0
  9
$PUCSORGBACK
 10
0.0
 20
0.0
 30
0.0
  9
$USERI1
 70
     0
  9
$USERI2
 70
     0
  9
$USERI3
 70
     0
  9
$USERI4
 70
     0
  9
$USERI5
 70
     0
  9
$USERR1
 40
0.0
  9
$USERR2
 40
0.0
  9
$USERR3
 40
0.0
  9
$USERR4
 40
0.0
  9
$USERR5
 40
0.0
  9
$WORLDVIEW
 70
     1
  9
$SHADEDGE
 70
     3
  9
$SHADEDIF
 70
    70
  9
$TILEMODE
 70
     1
  9
$MAXACTVP
 70
    48
  9
$PINSBASE
 10
0.0
 20
0.0
 30
0.0
  9
$PLIMCHECK
 70
     0
  9
$PEXTMIN
 10
1.000000000000000E+20
 20
1.000000000000000E+20
 30
1.000000000000000E+20
  9
$PEXTMAX
 10
-1.000000000000000E+20
 20
-1.000000000000000E+20
 30
-1.000000000000000E+20
  9
$PLIMMIN
 10
0.0
 20
0.0
  9
$PLIMMAX
 10
12.0
 20
9.0
  9
$UNITMODE
 70
     0
  9
$VISRETAIN
 70
     1
  9
$PLINEGEN
 70
     0
  9
$PSLTSCALE
 70
     1
  9
$TREEDEPTH
 70
  3020
  9
$CMLSTYLE
  2
STANDARD
  9
$CMLJUST
 70
     0
  9
$CMLSCALE
 40
1.0
  9
$PROXYGRAPHICS
 70
     1
  9
$MEASUREMENT
 70
     0
  9
$CELWEIGHT
370
    -1
  9
$ENDCAPS
280
     0
  9
$JOINSTYLE
280
     0
  9
$LWDISPLAY
290
     0
  9
$INSUNITS
 70
     0
  9
$HYPERLINKBASE
  1

  9
$STYLESHEET
  1

  9
$XEDIT
290
     1
  9
$CEPSNTYPE
380
     0
  9
$PSTYLEMODE
290
     1
  9
$FINGERPRINTGUID
  2
{1754B7AB-9B3C-11D4-AD9E-00104B1004F2}
  9
$VERSIONGUID
  2
{5763B8F4-6D13-4E99-A897-08E1B4D2110F}
  9
$EXTNAMES
290
     1
  9
$PSVPSCALE
 40
0.0
  9
$OLESTARTUP
290
     0
  0
ENDSEC
  0
SECTION
  2
CLASSES
  0
CLASS
  1
ACDBDICTIONARYWDFLT
  2
AcDbDictionaryWithDefault
  3
ObjectDBX Classes
 90
        0
280
     0
281
     0
  0
CLASS
  1
ACDBPLACEHOLDER
  2
AcDbPlaceHolder
  3
ObjectDBX Classes
 90
        0
280
     0
281
     0
  0
CLASS
  1
LAYOUT
  2
AcDbLayout
  3
ObjectDBX Classes
 90
        0
280
     0
281
     0
  0
CLASS
  1
DICTIONARYVAR
  2
AcDbDictionaryVar
  3
ObjectDBX Classes
 90
        0
280
     0
281
     0
  0
ENDSEC
  0
SECTION
  2
TABLES
  0
TABLE
  2
VPORT
  5
1F
330
0
100
AcDbSymbolTable
 70
     2
  0
VPORT
  5
11D
330
1F
100
AcDbSymbolTableRecord
100
AcDbViewportTableRecord
  2
*Active
 70
     0
 10
0.0
 20
0.0
 11
1.0
 21
1.0
 12
0.1853117203809269
 22
4.026134677777463
 13
0.0
 23
0.0
 14
1.0
 24
1.0
 15
0.0
 25
0.0
 16
0.0
 26
0.0
 36
1.0
 17
0.0
 27
0.0
 37
0.0
 40
114.0666757058871
 41
1.589413447782546
 42
50.0
 43
0.0
 44
0.0
 50
0.0
 51
0.0
 71
     0
 72
  1000
 73
     1
 74
     0
 75
     0
 76
     1
 77
     0
 78
     0
281
     0
 65
     1
110
0.0
120
0.0
130
0.0
111
1.0
121
0.0
131
0.0
112
0.0
122
1.0
132
0.0
 79
     0
146
0.0
  0
ENDTAB
  0
TABLE
  2
LTYPE
  5
1A
330
0
100
AcDbSymbolTable
 70
     1
  0
LTYPE
  5
1B
330
1A
100
AcDbSymbolTableRecord
100
AcDbLinetypeTableRecord
  2
BYBLOCK
 70
     0
  3

 72
    65
 73
     0
 40
0.0
  0
LTYPE
  5
1C
330
1A
100
AcDbSymbolTableRecord
100
AcDbLinetypeTableRecord
  2
BYLAYER
 70
     0
  3

 72
    65
 73
     0
 40
0.0
  0
LTYPE
  5
A
330
1A
100
AcDbSymbolTableRecord
100
AcDbLinetypeTableRecord
  2
CONTINUOUS
 70
     0
  3
Solid line
 72
    65
 73
     0
 40
0.0
  0
ENDTAB
  0
TABLE
  2
LAYER
  5
14
102
{ACAD_XDICTIONARY
360
15
102
}
330
0
100
AcDbSymbolTable
 70
     7
  0
LAYER
  5
6
330
14
100
AcDbSymbolTableRecord
100
AcDbLayerTableRecord
  2
0
 70
     0
 62
     7
  6
CONTINUOUS
370
    -3
390
7
  0
LAYER
  5
85
330
14
100
AcDbSymbolTableRecord
100
AcDbLayerTableRecord
  2
DEFPOINTS
 70
     0
 62
     7
  6
CONTINUOUS
290
     0
370
    -3
390
7
  0
LAYER
  5
C2
330
14
100
AcDbSymbolTableRecord
100
AcDbLayerTableRecord
  2
WAKU
 70
     0
 62
     4
  6
CONTINUOUS
370
    -3
390
7
  0
LAYER
  5
34
330
14
100
AcDbSymbolTableRecord
100
AcDbLayerTableRecord
  2
MOJI1
 70
     0
 62
     2
  6
CONTINUOUS
370
    -3
390
7
  0
LAYER
  5
31
330
14
100
AcDbSymbolTableRecord
100
AcDbLayerTableRecord
  2
GAIKEI
 70
     0
 62
     7
  6
CONTINUOUS
370
    -3
390
7
  0
LAYER
  5
36
330
14
100
AcDbSymbolTableRecord
100
AcDbLayerTableRecord
  2
TOUROKU
 70
     0
 62
     1
  6
CONTINUOUS
370
    -3
390
7
  0
LAYER
  5
73
330
14
100
AcDbSymbolTableRecord
100
AcDbLayerTableRecord
  2
SUNPO
 70
     0
 62
     3
  6
CONTINUOUS
370
    -3
390
7
  0
ENDTAB
  0
TABLE
  2
STYLE
  5
17
330
0
100
AcDbSymbolTable
 70
     1
  0
STYLE
  5
18
330
17
100
AcDbSymbolTableRecord
100
AcDbTextStyleTableRecord
  2
STANDARD
 70
     0
 40
0.0
 41
1.0
 50
0.0
 71
     0
 42
2.5
  3
MONOTXT.shx
  4
BIGFONT.shx
  0
ENDTAB
  0
TABLE
  2
VIEW
  5
1D
330
0
100
AcDbSymbolTable
 70
     0
  0
ENDTAB
  0
TABLE
  2
UCS
  5
1E
330
0
100
AcDbSymbolTable
 70
     0
  0
ENDTAB
  0
TABLE
  2
APPID
  5
21
330
0
100
AcDbSymbolTable
 70
     1
  0
APPID
  5
22
330
21
100
AcDbSymbolTableRecord
100
AcDbRegAppTableRecord
  2
ACAD
 70
     0
  0
ENDTAB
  0
TABLE
  2
DIMSTYLE
  5
23
330
0
100
AcDbSymbolTable
 70
     1
100
AcDbDimStyleTable
 71
     1
340
24
  0
DIMSTYLE
105
24
102
{ACAD_REACTORS
330
89
330
79
102
}
330
23
100
AcDbSymbolTableRecord
100
AcDbDimStyleTableRecord
  2
STANDARD
 70
     0
 40
0.0
 41
2.0
 42
2.0
 43
8.0
 44
2.0
 73
     0
 74
     0
 77
     3
140
3.0
141
0.0
173
     1
279
     2
288
     1
340
18
341
25
343
25
344
25
  0
ENDTAB
  0
TABLE
  2
BLOCK_RECORD
  5
1
330
0
100
AcDbSymbolTable
 70
     5
  0
BLOCK_RECORD
  5
2
102
{ACAD_XDICTIONARY
360
3
102
}
330
1
100
AcDbSymbolTableRecord
100
AcDbBlockTableRecord
  2
*MODEL_SPACE
340
C
  0
BLOCK_RECORD
  5
E
102
{ACAD_XDICTIONARY
360
F
102
}
330
1
100
AcDbSymbolTableRecord
100
AcDbBlockTableRecord
  2
*PAPER_SPACE
340
13
  0
BLOCK_RECORD
  5
25
330
1
100
AcDbSymbolTableRecord
100
AcDbBlockTableRecord
  2
_OPEN30
340
0
102
{BLKREFS
331
90
331
91
331
81
331
82
331
75
331
74
331
10C
331
10D
331
117
331
118
102
}
  0
BLOCK_RECORD
  5
DC
330
1
100
AcDbSymbolTableRecord
100
AcDbBlockTableRecord
  2
*D3
340
0
  0
BLOCK_RECORD
  5
E9
330
1
100
AcDbSymbolTableRecord
100
AcDbBlockTableRecord
  2
*D4
340
0
  0
ENDTAB
  0
ENDSEC
  0
SECTION
  2
BLOCKS
  0
BLOCK
  5
5
330
2
100
AcDbEntity
  8
0
100
AcDbBlockBegin
  2
*MODEL_SPACE
 70
     0
 10
0.0
 20
0.0
 30
0.0
  3
*MODEL_SPACE
  1

  0
ENDBLK
  5
B
330
2
100
AcDbEntity
  8
0
100
AcDbBlockEnd
  0
BLOCK
  5
11
330
E
100
AcDbEntity
 67
     1
  8
0
100
AcDbBlockBegin
  2
*PAPER_SPACE
 70
     0
 10
0.0
 20
0.0
 30
0.0
  3
*PAPER_SPACE
  1

  0
ENDBLK
  5
12
330
E
100
AcDbEntity
 67
     1
  8
0
100
AcDbBlockEnd
  0
BLOCK
  5
26
330
25
100
AcDbEntity
  8
0
100
AcDbBlockBegin
  2
_OPEN30
 70
     0
 10
0.0
 20
0.0
 30
0.0
  3
_OPEN30
  1

  0
LINE
  5
27
330
25
100
AcDbEntity
  8
0
  6
ByBlock
 62
     0
100
AcDbLine
 10
-1.0
 20
0.26794919
 30
0.0
 11
0.0
 21
0.0
 31
0.0
  0
LINE
  5
28
330
25
100
AcDbEntity
  8
0
  6
ByBlock
 62
     0
100
AcDbLine
 10
0.0
 20
0.0
 30
0.0
 11
-1.0
 21
-0.26794919
 31
0.0
  0
LINE
  5
29
330
25
100
AcDbEntity
  8
0
  6
ByBlock
 62
     0
100
AcDbLine
 10
0.0
 20
0.0
 30
0.0
 11
-1.0
 21
0.0
 31
0.0
  0
ENDBLK
  5
2A
330
25
100
AcDbEntity
  8
0
100
AcDbBlockEnd
  0
BLOCK
  5
E7
330
DC
100
AcDbEntity
  8
0
100
AcDbBlockBegin
  2
*D3
 70
     1
 10
0.0
 20
0.0
 30
0.0
  3
*D3
  1

  0
LINE
  5
108
330
DC
100
AcDbEntity
  8
SUNPO
 62
     0
370
    -2
100
AcDbLine
 10
-18.60812229506439
 20
30.70219406925912
 30
0.0
 11
-18.60812229506439
 21
38.70219406925912
 31
0.0
  0
LINE
  5
109
330
DC
100
AcDbEntity
  8
SUNPO
 62
     0
370
    -2
100
AcDbLine
 10
-13.25638979506459
 20
30.70219406925912
 30
0.0
 11
-13.25638979506459
 21
38.70219406925912
 31
0.0
  0
LINE
  5
10A
330
DC
100
AcDbEntity
  8
SUNPO
 62
     0
370
    -2
100
AcDbLine
 10
-16.60812229506439
 20
36.70219406925912
 30
0.0
 11
-15.25638979506459
 21
36.70219406925912
 31
0.0
  0
LINE
  5
10B
330
DC
100
AcDbEntity
  8
SUNPO
 62
     0
370
    -2
100
AcDbLine
 10
-13.25638979506459
 20
36.70219406925912
 30
0.0
 11
-3.589723128397923
 21
36.70219406925912
 31
0.0
  0
INSERT
  5
10C
330
DC
100
AcDbEntity
  8
SUNPO
 62
     0
370
    -2
100
AcDbBlockReference
  2
_OPEN30
 10
-18.60812229506439
 20
36.70219406925912
 30
0.0
 41
2.0
 42
2.0
 43
2.0
 50
180.0
  0
INSERT
  5
10D
330
DC
100
AcDbEntity
  8
SUNPO
 62
     0
370
    -2
100
AcDbBlockReference
  2
_OPEN30
 10
-13.25638979506459
 20
36.70219406925912
 30
0.0
 41
2.0
 42
2.0
 43
2.0
  0
MTEXT
  5
10E
330
DC
100
AcDbEntity
  8
SUNPO
 62
     0
100
AcDbMText
 10
-7.423056461731256
 20
38.45219406925912
 30
0.0
 40
2.5
 41
0.0
 71
     5
 72
     1
  1
\A1;107
 73
     1
 44
1.0
1001
ACAD
1000
MTEXTBEGIN
1070
    73
1070
     1
1070
    44
1040
1.0
1070
    74
1070
     0
1000
MTEXTEND
  0
POINT
  5
10F
330
DC
100
AcDbEntity
  8
DEFPOINTS
 62
     0
100
AcDbPoint
 10
-18.60812229506439
 20
28.70219406925912
 30
0.0
  0
POINT
  5
110
330
DC
100
AcDbEntity
  8
DEFPOINTS
 62
     0
100
AcDbPoint
 10
-13.25638979506459
 20
28.70219406925912
 30
0.0
  0
POINT
  5
111
330
DC
100
AcDbEntity
  8
DEFPOINTS
 62
     0
100
AcDbPoint
 10
-13.25638979506459
 20
36.70219406925912
 30
0.0
  0
ENDBLK
  5
E8
330
DC
100
AcDbEntity
  8
0
100
AcDbBlockEnd
  0
BLOCK
  5
F5
330
E9
100
AcDbEntity
  8
0
100
AcDbBlockBegin
  2
*D4
 70
     1
 10
0.0
 20
0.0
 30
0.0
  3
*D4
  1

  0
LINE
  5
112
330
E9
100
AcDbEntity
  8
SUNPO
 62
     0
370
    -2
100
AcDbLine
 10
11.275523733936
 20
30.70219406925912
 30
0.0
 11
11.275523733936
 21
38.70219406925912
 31
0.0
  0
LINE
  5
113
330
E9
100
AcDbEntity
  8
SUNPO
 62
     0
370
    -2
100
AcDbLine
 10
15.66552623393597
 20
30.70219406925912
 30
0.0
 11
15.66552623393597
 21
38.70219406925912
 31
0.0
  0
LINE
  5
114
330
E9
100
AcDbEntity
  8
SUNPO
 62
     0
370
    -2
100
AcDbLine
 10
9.275523733935999
 20
36.70219406925912
 30
0.0
 11
7.275523733935999
 21
36.70219406925912
 31
0.0
  0
LINE
  5
115
330
E9
100
AcDbEntity
  8
SUNPO
 62
     0
370
    -2
100
AcDbLine
 10
17.66552623393597
 20
36.70219406925912
 30
0.0
 11
24.83219290060264
 21
36.70219406925912
 31
0.0
  0
LINE
  5
116
330
E9
100
AcDbEntity
  8
SUNPO
 62
     0
370
    -2
100
AcDbLine
 10
11.275523733936
 20
36.70219406925912
 30
0.0
 11
15.66552623393597
 21
36.70219406925912
 31
0.0
  0
INSERT
  5
117
330
E9
100
AcDbEntity
  8
SUNPO
 62
     0
370
    -2
100
AcDbBlockReference
  2
_OPEN30
 10
11.275523733936
 20
36.70219406925912
 30
0.0
 41
2.0
 42
2.0
 43
2.0
  0
INSERT
  5
118
330
E9
100
AcDbEntity
  8
SUNPO
 62
     0
370
    -2
100
AcDbBlockReference
  2
_OPEN30
 10
15.66552623393597
 20
36.70219406925912
 30
0.0
 41
2.0
 42
2.0
 43
2.0
 50
180.0
  0
MTEXT
  5
119
330
E9
100
AcDbEntity
  8
SUNPO
 62
     0
100
AcDbMText
 10
22.24885956726931
 20
38.45219406925912
 30
0.0
 40
2.5
 41
0.0
 71
     5
 72
     1
  1
\A1;88
 73
     1
 44
1.0
1001
ACAD
1000
MTEXTBEGIN
1070
    73
1070
     1
1070
    44
1040
1.0
1070
    74
1070
     0
1000
MTEXTEND
  0
POINT
  5
11A
330
E9
100
AcDbEntity
  8
DEFPOINTS
 62
     0
100
AcDbPoint
 10
11.275523733936
 20
28.70219406925912
 30
0.0
  0
POINT
  5
11B
330
E9
100
AcDbEntity
  8
DEFPOINTS
 62
     0
100
AcDbPoint
 10
15.66552623393597
 20
28.70219406925912
 30
0.0
  0
POINT
  5
11C
330
E9
100
AcDbEntity
  8
DEFPOINTS
 62
     0
100
AcDbPoint
 10
15.66552623393597
 20
36.70219406925912
 30
0.0
  0
ENDBLK
  5
F6
330
E9
100
AcDbEntity
  8
0
100
AcDbBlockEnd
  0
ENDSEC
  0
SECTION
  2
ENTITIES
  0
TEXT
  5
33
330
2
100
AcDbEntity
  8
MOJI1
100
AcDbText
 10
-35.31606436228617
 20
56.54498323847292
 30
0.0
 40
4.0
  1
スピーカ
100
AcDbText
  0
TEXT
  5
35
330
2
100
AcDbEntity
  8
TOUROKU
100
AcDbText
 10
41.88388567064146
 20
50.54498323847325
 30
0.0
 40
2.0
  1
ＴＹＳＰ３７Ｐ８Ｋ
 72
     2
 11
62.68388567064146
 21
50.54498323847325
 31
0.0
100
AcDbText
  0
LINE
  5
37
330
2
100
AcDbEntity
  8
GAIKEI
  6
Continuous
100
AcDbLine
 10
15.66552598393593
 20
24.90843580378797
 30
0.0
 11
15.66552598393593
 21
24.971656053788
 31
0.0
  0
LINE
  5
38
330
2
100
AcDbEntity
  8
GAIKEI
  6
Continuous
100
AcDbLine
 10
11.27552373393598
 20
28.6241913688942
 30
0.0
 11
11.45052795494733
 21
28.90307248030692
 31
0.0
  0
LINE
  5
39
330
2
100
AcDbEntity
  8
GAIKEI
  6
Continuous
100
AcDbLine
 10
13.47552373393603
 20
28.04081008693977
 30
0.0
 11
13.47552373393603
 21
28.95229555378799
 31
0.0
  0
SPLINE
  5
3A
330
2
100
AcDbEntity
  8
GAIKEI
  6
Continuous
100
AcDbSpline
210
0.0
220
0.0
230
1.0
 70
     8
 71
     3
 72
     9
 73
     5
 74
     3
 42
0.0000000001
 43
0.0000000001
 44
0.000001
 12
0.6535156864074856
 22
-0.7569129722889898
 32
0.0
 13
0.641560766438372
 23
-0.7670722149621957
 33
0.0
 40
0.0
 40
0.0
 40
0.0
 40
0.0
 40
0.0011430106086537
 40
0.0022866783576895
 40
0.0022866783576895
 40
0.0022866783576895
 40
0.0022866783576895
 10
15.48736443166797
 20
25.45942453407824
 30
0.0
 10
15.48761342345547
 20
25.45913614755919
 30
0.0
 10
15.48810745509749
 20
25.45855567255873
 30
0.0
 10
15.48859690499663
 20
25.45797135386061
 30
0.0
 10
15.48884148244917
 20
25.45767892860946
 30
0.0
 11
15.48736443166797
 21
25.45942453407824
 31
0.0
 11
15.48810617238007
 21
25.45855486997081
 31
0.0
 11
15.48884148244917
 21
25.45767892860946
 31
0.0
  0
LINE
  5
3B
330
2
100
AcDbEntity
  8
GAIKEI
100
AcDbLine
 10
11.45052795494733
 20
28.90307248030692
 30
0.0
 11
12.43481316213648
 21
29.00368722939075
 31
0.0
  0
LINE
  5
3C
330
2
100
AcDbEntity
  8
GAIKEI
100
AcDbLine
 10
12.43481316213648
 20
29.00368722939075
 30
0.0
 11
13.42515740041801
 21
29.00650705360945
 31
0.0
  0
LINE
  5
3D
330
2
100
AcDbEntity
  8
GAIKEI
100
AcDbLine
 10
13.47552373393603
 20
28.95229555378799
 30
0.0
 11
13.42515740041801
 21
29.00650705360945
 31
0.0
  0
LINE
  5
3E
330
2
100
AcDbEntity
  8
GAIKEI
100
AcDbLine
 10
15.54867300137313
 20
25.38630216907373
 30
0.0
 11
13.59237671649883
 21
27.7195650666998
 31
0.0
  0
ARC
  5
3F
330
2
100
AcDbEntity
  8
GAIKEI
100
AcDbCircle
 10
13.97552373393603
 20
28.04081008693977
 30
0.0
 40
0.5
100
AcDbArc
 50
180.0
 51
219.9777471365737
  0
ARC
  5
40
330
2
100
AcDbEntity
  8
GAIKEI
100
AcDbCircle
 10
15.16552598393593
 20
25.06505714883378
 30
0.0
 40
0.5
100
AcDbArc
 50
0.0
 51
39.97774713657351
  0
LINE
  5
41
330
2
100
AcDbEntity
  8
GAIKEI
100
AcDbLine
 10
15.40291618948038
 20
25.13098215126573
 30
0.0
 11
15.04576286916801
 21
25.2509528543907
 31
0.0
  0
ARC
  5
42
330
2
100
AcDbEntity
  8
GAIKEI
100
AcDbCircle
 10
15.33502059393559
 20
24.78464774670888
 30
0.0
 40
0.3529268078144859
100
AcDbArc
 50
20.53301155991607
 51
78.90836575227895
  0
LINE
  5
43
330
2
100
AcDbEntity
  8
GAIKEI
100
AcDbLine
 10
15.04576286916801
 20
25.2509528543907
 30
0.0
 11
12.44289423393604
 21
27.63989127373787
 31
0.0
  0
LINE
  5
44
330
2
100
AcDbEntity
  8
GAIKEI
100
AcDbLine
 10
15.04576286916801
 20
5.267444503185288
 30
0.0
 11
12.44289423393604
 21
2.878506083838118
 31
0.0
  0
ARC
  5
45
330
2
100
AcDbEntity
  8
GAIKEI
100
AcDbCircle
 10
15.33502059393559
 20
5.733749610867106
 30
0.0
 40
0.3529268078144859
100
AcDbArc
 50
281.0916342477211
 51
339.4669884400839
  0
LINE
  5
46
330
2
100
AcDbEntity
  8
GAIKEI
100
AcDbLine
 10
15.40291618948038
 20
5.387415206310264
 30
0.0
 11
15.04576286916801
 21
5.267444503185288
 31
0.0
  0
ARC
  5
47
330
2
100
AcDbEntity
  8
GAIKEI
100
AcDbCircle
 10
15.16552598393593
 20
5.453340208742218
 30
0.0
 40
0.5
100
AcDbArc
 50
320.0222528634265
 51
0.0
  0
ARC
  5
48
330
2
100
AcDbEntity
  8
GAIKEI
100
AcDbCircle
 10
13.97552373393603
 20
2.477587270636234
 30
0.0
 40
0.5
100
AcDbArc
 50
140.0222528634263
 51
180.0
  0
LINE
  5
49
330
2
100
AcDbEntity
  8
GAIKEI
100
AcDbLine
 10
15.54867300137313
 20
5.132095188502261
 30
0.0
 11
13.59237671649883
 21
2.79883229087619
 31
0.0
  0
LINE
  5
4A
330
2
100
AcDbEntity
  8
GAIKEI
100
AcDbLine
 10
13.47552373393603
 20
1.566101803788001
 30
0.0
 11
13.42515740041801
 21
1.511890303966538
 31
0.0
  0
LINE
  5
4B
330
2
100
AcDbEntity
  8
GAIKEI
100
AcDbLine
 10
12.43481316213648
 20
1.514710128185241
 30
0.0
 11
13.42515740041801
 21
1.511890303966538
 31
0.0
  0
LINE
  5
4C
330
2
100
AcDbEntity
  8
GAIKEI
100
AcDbLine
 10
11.45052795494733
 20
1.615324877269074
 30
0.0
 11
12.43481316213648
 21
1.514710128185241
 31
0.0
  0
LINE
  5
4D
330
2
100
AcDbEntity
  8
GAIKEI
  6
Continuous
 62
     1
100
AcDbLine
 10
-18.55693029506448
 20
28.70421355378801
 30
0.0
 11
-18.56938504506445
 21
28.27644055378801
 31
0.0
  0
LINE
  5
4E
330
2
100
AcDbEntity
  8
GAIKEI
  6
Continuous
 62
     1
100
AcDbLine
 10
-18.00758554506444
 20
28.27643505378802
 30
0.0
 11
-18.56938979506447
 21
28.27643505378802
 31
0.0
  0
LINE
  5
4F
330
2
100
AcDbEntity
  8
GAIKEI
  6
Continuous
100
AcDbLine
 10
-18.58940829506457
 20
28.73421155378805
 30
0.0
 11
-18.60251029506446
 21
28.28420705378801
 31
0.0
  0
LINE
  5
50
330
2
100
AcDbEntity
  8
GAIKEI
  6
Continuous
 62
     1
100
AcDbLine
 10
-18.0200365450645
 20
28.70420605378803
 30
0.0
 11
-18.55693854506433
 21
28.70420605378803
 31
0.0
  0
LINE
  5
51
330
2
100
AcDbEntity
  8
GAIKEI
  6
Continuous
100
AcDbLine
 10
-18.53951904506459
 20
28.73421080378802
 30
0.0
 11
-18.00018804506442
 21
28.73421080378802
 31
0.0
  0
LINE
  5
52
330
2
100
AcDbEntity
  8
GAIKEI
  6
Continuous
100
AcDbLine
 10
-18.55785404506457
 20
28.73421080378802
 30
0.0
 11
-18.53951904506459
 21
28.73421080378802
 31
0.0
  0
LINE
  5
53
330
2
100
AcDbEntity
  8
GAIKEI
  6
Continuous
100
AcDbLine
 10
-18.55785404506457
 20
28.73421080378802
 30
0.0
 11
-18.5893970450644
 21
28.73421080378802
 31
0.0
  0
SPLINE
  5
54
330
2
100
AcDbEntity
  8
GAIKEI
  6
Continuous
 62
     1
100
AcDbSpline
210
0.0
220
0.0
230
1.0
 70
     8
 71
     3
 72
     9
 73
     5
 74
     3
 42
0.0000000001
 43
0.0000000001
 44
0.000001
 12
0.4555710774664803
 22
0.8901994121409149
 32
0.0
 13
0.4548274176199876
 23
0.8905795978918074
 33
0.0
 40
0.0
 40
0.0
 40
0.0
 40
0.0
 40
0.0517793888168832
 40
0.1036079629296224
 40
0.1036079629296224
 40
0.1036079629296224
 40
0.1036079629296224
 10
-13.30355715395296
 20
28.70735544228137
 30
0.0
 10
-13.29569408996834
 20
28.72272010277664
 30
0.0
 10
-13.2799640615447
 20
28.75346584530227
 30
0.0
 10
-13.26424687071046
 20
28.78421815387343
 30
0.0
 10
-13.25638918520292
 20
28.79960397743764
 30
0.0
 11
-13.30355715395296
 21
28.70735544228137
 31
0.0
 11
-13.27997473345465
 21
28.75345288776936
 31
0.0
 11
-13.25638918520292
 21
28.79960397743764
 31
0.0
  0
LINE
  5
55
330
2
100
AcDbEntity
  8
GAIKEI
  6
Continuous
100
AcDbLine
 10
-18.03745604506446
 20
28.73421080378802
 30
0.0
 11
-18.03745604506446
 21
28.70420605378803
 31
0.0
  0
SPLINE
  5
56
330
2
100
AcDbEntity
  8
GAIKEI
  6
Continuous
100
AcDbSpline
210
0.0
220
0.0
230
1.0
 70
     8
 71
     3
 72
     9
 73
     5
 74
     3
 42
0.0000000001
 43
0.0000000001
 44
0.000001
 12
-0.9999883567442765
 22
-0.0048255959094992
 32
0.0
 13
-0.9289662195941573
 23
-0.3701645078244804
 33
0.0
 40
0.0
 40
0.0
 40
0.0
 40
0.0
 40
0.0006886604951467
 40
0.0013897972775188
 40
0.0013897972775188
 40
0.0013897972775188
 40
0.0013897972775188
 10
-13.45737795473417
 20
29.00370553993764
 30
0.0
 10
-13.4576075055598
 20
29.00370443220522
 30
0.0
 10
-13.45807135798127
 20
29.00364994540419
 30
0.0
 10
-13.45851582440772
 20
29.00351129020285
 30
0.0
 10
-13.4587329352031
 20
29.00342477821886
 30
0.0
 11
-13.45737795473417
 21
29.00370553993764
 31
0.0
 11
-13.45806327157049
 21
29.00362994741306
 31
0.0
 11
-13.4587329352031
 21
29.00342477821886
 31
0.0
  0
LINE
  5
57
330
2
100
AcDbEntity
  8
GAIKEI
  6
Continuous
 62
     1
100
AcDbLine
 10
-17.96515354506448
 20
28.67031705378804
 30
0.0
 11
-17.73146229506449
 21
28.43639605378804
 31
0.0
  0
LINE
  5
58
330
2
100
AcDbEntity
  8
GAIKEI
  6
Continuous
 62
     1
100
AcDbLine
 10
-17.76538954506452
 20
28.87008530378802
 30
0.0
 11
-17.53146854506451
 21
28.63639405378803
 31
0.0
  0
LINE
  5
59
330
2
100
AcDbEntity
  8
GAIKEI
  6
Continuous
 62
     1
100
AcDbLine
 10
-13.79899179506453
 20
28.60982130378801
 30
0.0
 11
-17.50471679506442
 21
28.60982130378801
 31
0.0
  0
LINE
  5
5A
330
2
100
AcDbEntity
  8
GAIKEI
  6
Continuous
 62
     1
100
AcDbLine
 10
-13.33879829506429
 20
28.67104605378802
 30
0.0
 11
-13.57241654506458
 21
28.43644880378804
 31
0.0
  0
LINE
  5
5B
330
2
100
AcDbEntity
  8
GAIKEI
  6
Continuous
 62
     1
100
AcDbLine
 10
-13.77238054506449
 20
28.63638730378801
 30
0.0
 11
-13.53609029506435
 21
28.87200755378803
 31
0.0
  0
SPLINE
  5
5C
330
2
100
AcDbEntity
  8
GAIKEI
  6
Continuous
 62
     1
100
AcDbSpline
210
0.0
220
0.0
230
1.0
 70
     8
 71
     3
 72
     9
 73
     5
 74
     3
 42
0.0000000001
 43
0.0000000001
 44
0.000001
 12
-0.4193310596052152
 22
-0.9078333891471318
 32
0.0
 13
-0.4173617955917634
 23
-0.9087404093471464
 33
0.0
 40
0.0
 40
0.0
 40
0.0
 40
0.0
 40
0.0530945544880671
 40
0.1061312742876951
 40
0.1061312742876951
 40
0.1061312742876951
 40
0.1061312742876951
 10
-13.4587329352031
 20
29.00342477821886
 30
0.0
 10
-13.46615433380068
 20
28.98735777510348
 30
0.0
 10
-13.48097028738255
 20
28.95523260230624
 30
0.0
 10
-13.4957514076564
 20
28.92309138925802
 30
0.0
 10
-13.50312990785903
 20
28.90702585243764
 30
0.0
 11
-13.4587329352031
 21
29.00342477821886
 31
0.0
 11
-13.48096964524472
 21
28.95521108173899
 31
0.0
 11
-13.50312990785903
 21
28.90702585243764
 31
0.0
  0
LINE
  5
5D
330
2
100
AcDbEntity
  8
GAIKEI
  6
Continuous
 62
     1
100
AcDbLine
 10
-18.02003404506432
 20
28.70420655378803
 30
0.0
 11
-18.00757929506437
 21
28.27643355378802
 31
0.0
  0
LINE
  5
5E
330
2
100
AcDbEntity
  8
GAIKEI
  6
Continuous
100
AcDbLine
 10
-18.10151854506454
 20
28.80651289665829
 30
0.0
 11
-18.10151854506455
 21
28.73421080378802
 31
0.0
  0
LINE
  5
5F
330
2
100
AcDbEntity
  8
GAIKEI
  6
Continuous
100
AcDbLine
 10
-18.10151854506455
 20
28.80673280378807
 30
0.0
 11
-18.10157954506428
 21
28.80673280378807
 31
0.0
  0
LINE
  5
60
330
2
100
AcDbEntity
  8
GAIKEI
  6
Continuous
100
AcDbLine
 10
-18.10157904506457
 20
28.80673005378799
 30
0.0
 11
-18.10159129506462
 21
28.80673005378799
 31
0.0
  0
LINE
  5
61
330
2
100
AcDbEntity
  8
GAIKEI
  6
Continuous
100
AcDbLine
 10
-13.25638929506442
 20
28.79960405378802
 30
0.0
 11
-13.2563280450646
 21
28.79960405378802
 31
0.0
  0
LINE
  5
62
330
2
100
AcDbEntity
  8
GAIKEI
100
AcDbLine
 10
-17.90137952570684
 20
29.00651284834234
 30
0.0
 11
-13.45625027570673
 21
29.00342305252983
 31
0.0
  0
LINE
  5
63
330
2
100
AcDbEntity
  8
GAIKEI
 62
     1
100
AcDbLine
 10
-17.76524469663891
 20
28.87008536962273
 30
0.0
 11
-13.53881644663882
 21
28.8720063147305
 31
0.0
  0
ARC
  5
64
330
2
100
AcDbEntity
  8
GAIKEI
  6
Continuous
 62
     1
100
AcDbCircle
 10
-17.50471679506442
 20
28.40982130378802
 30
0.0
 40
0.2
100
AcDbArc
 50
90.00000000000005
 51
180.0
  0
ARC
  5
65
330
2
100
AcDbEntity
  8
GAIKEI
 62
     1
100
AcDbCircle
 10
-17.76515379506455
 20
28.67008539028046
 30
0.0
 40
0.2
100
AcDbArc
 50
90.02604138370868
 51
179.9999999999999
  0
ARC
  5
66
330
2
100
AcDbEntity
  8
GAIKEI
100
AcDbCircle
 10
-17.90151854506454
 20
28.80651289665829
 30
0.0
 40
0.2
100
AcDbArc
 50
89.96017388445904
 51
180.0
  0
ARC
  5
67
330
2
100
AcDbEntity
  8
GAIKEI
 62
     1
100
AcDbCircle
 10
-13.53872554506445
 20
28.67200633538823
 30
0.0
 40
0.2
100
AcDbArc
 50
0.0
 51
90.02604138370868
  0
ARC
  5
68
330
2
100
AcDbEntity
  8
GAIKEI
100
AcDbCircle
 10
-13.45638929506442
 20
28.80342310084578
 30
0.0
 40
0.2
100
AcDbArc
 50
0.0
 51
89.96017388445919
  0
ARC
  5
69
330
2
100
AcDbEntity
  8
GAIKEI
  6
Continuous
 62
     1
100
AcDbCircle
 10
-13.79899179506453
 20
28.40982130378802
 30
0.0
 40
0.2
100
AcDbArc
 50
0.0
 51
90.00000000000005
  0
ARC
  5
6A
330
2
100
AcDbEntity
  8
GAIKEI
  6
Continuous
 62
     1
100
AcDbCircle
 10
-13.79899179506453
 20
2.108576053787999
 30
0.0
 40
0.2
100
AcDbArc
 50
270.0
 51
0.0
  0
ARC
  5
6B
330
2
100
AcDbEntity
  8
GAIKEI
100
AcDbCircle
 10
-13.45638929506442
 20
1.714974256730243
 30
0.0
 40
0.2
100
AcDbArc
 50
270.0398261155409
 51
0.0
  0
ARC
  5
6C
330
2
100
AcDbEntity
  8
GAIKEI
 62
     1
100
AcDbCircle
 10
-13.53872554506445
 20
1.846391022187788
 30
0.0
 40
0.2
100
AcDbArc
 50
269.9739586162913
 51
0.0
  0
ARC
  5
6D
330
2
100
AcDbEntity
  8
GAIKEI
100
AcDbCircle
 10
-17.90151854506454
 20
1.711884460917729
 30
0.0
 40
0.2
100
AcDbArc
 50
180.0
 51
270.039826115541
  0
ARC
  5
6E
330
2
100
AcDbEntity
  8
GAIKEI
 62
     1
100
AcDbCircle
 10
-17.76515379506455
 20
1.848311967295558
 30
0.0
 40
0.2
100
AcDbArc
 50
180.0
 51
269.9739586162913
  0
ARC
  5
6F
330
2
100
AcDbEntity
  8
GAIKEI
  6
Continuous
 62
     1
100
AcDbCircle
 10
-17.50471679506442
 20
2.108576053787999
 30
0.0
 40
0.2
100
AcDbArc
 50
180.0
 51
270.0
  0
LINE
  5
70
330
2
100
AcDbEntity
  8
GAIKEI
 62
     1
100
AcDbLine
 10
-17.76524469663891
 20
1.648311987953292
 30
0.0
 11
-13.53881644663882
 21
1.646391042845522
 31
0.0
  0
LINE
  5
71
330
2
100
AcDbEntity
  8
GAIKEI
100
AcDbLine
 10
-17.90137952570684
 20
1.511884509233681
 30
0.0
 11
-13.45625027570673
 21
1.514974305046195
 31
0.0
  0
MTEXT
  5
72
330
2
100
AcDbEntity
  8
SUNPO
100
AcDbMText
 10
-7.010820545064382
 20
15.25919867878801
 30
0.0
 40
2.5
 41
0.0
 71
     5
 72
     1
  1
\A1;550
 11
0.0000000000000001
 21
1.0
 31
0.0
 73
     1
 44
1.0
1001
ACAD
1000
MTEXTBEGIN
1070
    73
1070
     1
1070
    44
1040
1.0
1070
    74
1070
     0
1000
MTEXTEND
  0
INSERT
  5
74
330
2
100
AcDbEntity
  8
SUNPO
100
AcDbBlockReference
  2
_OPEN30
 10
-5.260820545064347
 20
29.00650705378803
 30
0.0
 41
2.0
 42
2.0
 43
2.0
 50
90.0
  0
INSERT
  5
75
330
2
100
AcDbEntity
  8
SUNPO
100
AcDbBlockReference
  2
_OPEN30
 10
-5.260820545064356
 20
1.511890303787993
 30
0.0
 41
2.0
 42
2.0
 43
2.0
 50
270.0
  0
LINE
  5
76
330
2
100
AcDbEntity
  8
SUNPO
100
AcDbLine
 10
-5.260820545064356
 20
3.511890303787993
 30
0.0
 11
-5.260820545064347
 21
27.00650705378803
 31
0.0
  0
LINE
  5
77
330
2
100
AcDbEntity
  8
SUNPO
100
AcDbLine
 10
-11.26082054506435
 20
29.00650705378803
 30
0.0
 11
-3.260820545064348
 21
29.00650705378803
 31
0.0
  0
LINE
  5
78
330
2
100
AcDbEntity
  8
SUNPO
100
AcDbLine
 10
-11.26082054506435
 20
1.511890303787993
 30
0.0
 11
-3.260820545064355
 21
1.511890303787993
 31
0.0
  0
DIMENSION
  5
79
330
2
100
AcDbEntity
  8
SUNPO
100
AcDbDimension
  2
*D4
 10
15.66552623393597
 20
36.70219406925912
 30
0.0
 11
22.24885956726931
 21
38.45219406925912
 31
0.0
 70
    33
  1
88
 71
     5
 42
4.390002499999971
  3
STANDARD
100
AcDbAlignedDimension
 13
11.275523733936
 23
28.70219406925912
 33
0.0
 14
15.66552623393597
 24
28.70219406925912
 34
0.0
1001
ACAD
1000
DSTYLE
1002
{
1070
    40
1040
1.0
1070
   140
1040
2.5
1070
   147
1040
0.5
1070
   172
1070
     1
1070
   279
1070
     0
1070
   288
1070
     0
1002
}
  0
DIMENSION
  5
89
330
2
100
AcDbEntity
  8
SUNPO
100
AcDbDimension
  2
*D3
 10
-13.25638979506459
 20
36.70219406925912
 30
0.0
 11
-7.423056461731256
 21
38.45219406925912
 31
0.0
 70
    33
  1
107
 71
     5
 42
5.351732499999799
  3
STANDARD
100
AcDbAlignedDimension
 13
-18.60812229506439
 23
28.70219406925912
 33
0.0
 14
-13.25638979506459
 24
28.70219406925912
 34
0.0
1001
ACAD
1000
DSTYLE
1002
{
1070
    40
1040
1.0
1070
   140
1040
2.5
1070
   147
1040
0.5
1070
   172
1070
     1
1070
   279
1070
     0
1070
   288
1070
     0
1002
}
  0
LINE
  5
97
330
2
100
AcDbEntity
  8
GAIKEI
  6
Continuous
 62
     1
100
AcDbLine
 10
15.04576298393601
 20
5.267444553787981
 30
0.0
 11
15.04576298393601
 21
15.259192553788
 31
0.0
  0
LINE
  5
98
330
2
100
AcDbEntity
  8
GAIKEI
  6
Continuous
 62
     1
100
AcDbLine
 10
11.48941523393603
 20
28.90704758202483
 30
0.0
 11
11.48941523393603
 21
1.611345113197215
 31
0.0
  0
LINE
  5
99
330
2
100
AcDbEntity
  8
GAIKEI
  6
Continuous
 62
     1
100
AcDbLine
 10
11.42982048393617
 20
28.87007371892412
 30
0.0
 11
11.42982048393617
 21
1.648323638651929
 31
0.0
  0
LINE
  5
9A
330
2
100
AcDbEntity
  8
GAIKEI
  6
Continuous
 62
     1
100
AcDbLine
 10
12.44289423393604
 20
29.00371023876573
 30
0.0
 11
12.44289423393604
 21
1.514668354932069
 31
0.0
  0
LINE
  5
9B
330
2
100
AcDbEntity
  8
GAIKEI
  6
Continuous
 62
     1
100
AcDbLine
 10
15.04576298393601
 20
15.259192553788
 30
0.0
 11
15.04576298393601
 21
25.25095280378798
 31
0.0
  0
LINE
  5
9C
330
2
100
AcDbEntity
  8
GAIKEI
  6
Continuous
 62
     1
100
AcDbLine
 10
15.66552598393593
 20
15.259192553788
 30
0.0
 11
15.04576298393601
 21
15.259192553788
 31
0.0
  0
SPLINE
  5
9D
330
2
100
AcDbEntity
  8
GAIKEI
  6
Continuous
100
AcDbSpline
210
0.0
220
0.0
230
1.0
 70
     8
 71
     3
 72
     9
 73
     5
 74
     3
 42
0.0000000001
 43
0.0000000001
 44
0.000001
 12
0.6535156864074855
 22
0.7569129722889898
 32
0.0
 13
0.6415607664383718
 23
0.7670722149621957
 33
0.0
 40
0.0
 40
0.0
 40
0.0
 40
0.0
 40
0.0011430106086501
 40
0.0022866783576929
 40
0.0022866783576929
 40
0.0022866783576929
 40
0.0022866783576929
 10
15.48736443166797
 20
5.058972823497753
 30
0.0
 10
15.48761342345546
 20
5.059261210016804
 30
0.0
 10
15.4881074550975
 20
5.059841685017266
 30
0.0
 10
15.48859690499662
 20
5.060426003715392
 30
0.0
 10
15.48884148244917
 20
5.060718428966538
 30
0.0
 11
15.48736443166797
 21
5.058972823497753
 31
0.0
 11
15.48810617238007
 21
5.059842487605179
 31
0.0
 11
15.48884148244917
 21
5.060718428966538
 31
0.0
  0
LINE
  5
9E
330
2
100
AcDbEntity
  8
GAIKEI
  6
Continuous
100
AcDbLine
 10
13.47552373393603
 20
2.477587270636234
 30
0.0
 11
13.47552373393603
 21
1.566101803788001
 31
0.0
  0
LINE
  5
9F
330
2
100
AcDbEntity
  8
GAIKEI
  6
Continuous
100
AcDbLine
 10
11.275523733936
 20
28.62419136889426
 30
0.0
 11
11.27552373393598
 21
1.894205988681789
 31
0.0
  0
LINE
  5
A0
330
2
100
AcDbEntity
  8
GAIKEI
  6
Continuous
100
AcDbLine
 10
11.27552373393598
 20
1.894205988681789
 30
0.0
 11
11.45052795494733
 21
1.615324877269074
 31
0.0
  0
LINE
  5
A1
330
2
100
AcDbEntity
  8
GAIKEI
  6
Continuous
100
AcDbLine
 10
15.66552598393593
 20
5.609961553788025
 30
0.0
 11
15.66552598393593
 21
5.546741303787995
 31
0.0
  0
LINE
  5
A2
330
2
100
AcDbEntity
  8
GAIKEI
  6
Continuous
100
AcDbLine
 10
15.66552598393593
 20
15.259192553788
 30
0.0
 11
15.66552598393593
 21
5.453340208742218
 31
0.0
  0
LINE
  5
A3
330
2
100
AcDbEntity
  8
GAIKEI
  6
Continuous
100
AcDbLine
 10
15.66552598393593
 20
24.908435803788
 30
0.0
 11
15.66552598393593
 21
15.259192553788
 31
0.0
  0
LINE
  5
A4
330
2
100
AcDbEntity
  8
GAIKEI
  6
Continuous
100
AcDbLine
 10
-18.00018804506442
 20
28.73421080378802
 30
0.0
 11
-18.00018804506442
 21
1.848151303787972
 31
0.0
  0
LINE
  5
A5
330
2
100
AcDbEntity
  8
GAIKEI
  6
Continuous
 62
     1
100
AcDbLine
 10
-17.96515379506456
 20
28.67008539028046
 30
0.0
 11
-17.96515379506455
 21
1.848311967295558
 31
0.0
  0
LINE
  5
A6
330
2
100
AcDbEntity
  8
GAIKEI
  6
Continuous
 62
     1
100
AcDbLine
 10
-13.33872554506445
 20
28.67200633538823
 30
0.0
 11
-13.33872554506445
 21
1.846391022187788
 31
0.0
  0
LINE
  5
A7
330
2
100
AcDbEntity
  8
GAIKEI
  6
Continuous
 62
     1
100
AcDbLine
 10
-13.59899179506453
 20
28.40982130378802
 30
0.0
 11
-13.59899179506453
 21
2.108576053787999
 31
0.0
  0
LINE
  5
A8
330
2
100
AcDbEntity
  8
GAIKEI
  6
Continuous
100
AcDbLine
 10
-13.25638929506442
 20
1.718793303788004
 30
0.0
 11
-13.2563280450646
 21
1.718793303788004
 31
0.0
  0
LINE
  5
A9
330
2
100
AcDbEntity
  8
GAIKEI
  6
Continuous
100
AcDbLine
 10
-13.25638929506442
 20
1.714974256730243
 30
0.0
 11
-13.25638929506443
 21
28.79960405378799
 31
0.0
  0
LINE
  5
AA
330
2
100
AcDbEntity
  8
GAIKEI
  6
Continuous
 62
     1
100
AcDbLine
 10
-17.70471679506442
 20
2.108576053787999
 30
0.0
 11
-17.70471679506443
 21
28.40982130378802
 31
0.0
  0
LINE
  5
AB
330
2
100
AcDbEntity
  8
GAIKEI
  6
Continuous
100
AcDbLine
 10
-18.10157904506457
 20
1.711667303788033
 30
0.0
 11
-18.10159129506462
 21
1.711667303788033
 31
0.0
  0
LINE
  5
AC
330
2
100
AcDbEntity
  8
GAIKEI
  6
Continuous
100
AcDbLine
 10
-18.10151854506455
 20
1.711664553787954
 30
0.0
 11
-18.10157954506428
 21
1.711664553787954
 31
0.0
  0
LINE
  5
AD
330
2
100
AcDbEntity
  8
GAIKEI
  6
Continuous
100
AcDbLine
 10
-18.10151854506454
 20
1.711884460917729
 30
0.0
 11
-18.10151854506455
 21
1.784186553788003
 31
0.0
  0
LINE
  5
AE
330
2
100
AcDbEntity
  8
GAIKEI
  6
Continuous
 62
     1
100
AcDbLine
 10
-18.02003404506432
 20
1.814190803787994
 30
0.0
 11
-18.00757929506437
 21
2.241963803787996
 31
0.0
  0
SPLINE
  5
AF
330
2
100
AcDbEntity
  8
GAIKEI
  6
Continuous
 62
     1
100
AcDbSpline
210
0.0
220
0.0
230
1.0
 70
     8
 71
     3
 72
     9
 73
     5
 74
     3
 42
0.0000000001
 43
0.0000000001
 44
0.000001
 12
-0.4193310596052151
 22
0.9078333891471318
 32
0.0
 13
-0.4173617955917634
 23
0.9087404093471464
 33
0.0
 40
0.0
 40
0.0
 40
0.0
 40
0.0
 40
0.0530945544880659
 40
0.1061312742876886
 40
0.1061312742876886
 40
0.1061312742876886
 40
0.1061312742876886
 10
-13.4587329352031
 20
1.514972579357163
 30
0.0
 10
-13.46615433380068
 20
1.531039582472549
 30
0.0
 10
-13.48097028738255
 20
1.563164755269775
 30
0.0
 10
-13.4957514076564
 20
1.595305968317999
 30
0.0
 10
-13.50312990785903
 20
1.611371505138379
 30
0.0
 11
-13.4587329352031
 21
1.514972579357163
 31
0.0
 11
-13.48096964524472
 21
1.563186275837039
 31
0.0
 11
-13.50312990785903
 21
1.611371505138379
 31
0.0
  0
LINE
  5
B0
330
2
100
AcDbEntity
  8
GAIKEI
  6
Continuous
 62
     1
100
AcDbLine
 10
-13.77238054506449
 20
1.882010053788008
 30
0.0
 11
-13.53609029506435
 21
1.646389803787996
 31
0.0
  0
LINE
  5
B1
330
2
100
AcDbEntity
  8
GAIKEI
  6
Continuous
 62
     1
100
AcDbLine
 10
-13.33879829506429
 20
1.847351303788001
 30
0.0
 11
-13.57241654506458
 21
2.08194855378798
 31
0.0
  0
LINE
  5
B2
330
2
100
AcDbEntity
  8
GAIKEI
  6
Continuous
 62
     1
100
AcDbLine
 10
-13.79899179506453
 20
1.908576053788009
 30
0.0
 11
-17.50471679506442
 21
1.908576053788009
 31
0.0
  0
LINE
  5
B3
330
2
100
AcDbEntity
  8
GAIKEI
  6
Continuous
 62
     1
100
AcDbLine
 10
-17.76538954506452
 20
1.648312053788004
 30
0.0
 11
-17.53146854506451
 21
1.882003303787995
 31
0.0
  0
LINE
  5
B4
330
2
100
AcDbEntity
  8
GAIKEI
  6
Continuous
 62
     1
100
AcDbLine
 10
-17.96515354506448
 20
1.84808030378798
 30
0.0
 11
-17.73146229506449
 21
2.082001303787989
 31
0.0
  0
SPLINE
  5
B5
330
2
100
AcDbEntity
  8
GAIKEI
  6
Continuous
100
AcDbSpline
210
0.0
220
0.0
230
1.0
 70
     8
 71
     3
 72
     9
 73
     5
 74
     3
 42
0.0000000001
 43
0.0000000001
 44
0.000001
 12
-0.9999883567442765
 22
0.0048255959094992
 32
0.0
 13
-0.9289662195941573
 23
0.3701645078244804
 33
0.0
 40
0.0
 40
0.0
 40
0.0
 40
0.0
 40
0.0006886604951469
 40
0.0013897972775206
 40
0.0013897972775206
 40
0.0013897972775206
 40
0.0013897972775206
 10
-13.45737795473417
 20
1.514691817638379
 30
0.0
 10
-13.4576075055598
 20
1.514692925370801
 30
0.0
 10
-13.45807135798127
 20
1.514747412171824
 30
0.0
 10
-13.45851582440772
 20
1.514886067373174
 30
0.0
 10
-13.4587329352031
 20
1.514972579357163
 30
0.0
 11
-13.45737795473417
 21
1.514691817638379
 31
0.0
 11
-13.45806327157049
 21
1.51476741016296
 31
0.0
 11
-13.4587329352031
 21
1.514972579357163
 31
0.0
  0
LINE
  5
B6
330
2
100
AcDbEntity
  8
GAIKEI
  6
Continuous
100
AcDbLine
 10
-18.03745604506446
 20
1.784186553788003
 30
0.0
 11
-18.03745604506446
 21
1.814191303787993
 31
0.0
  0
SPLINE
  5
B7
330
2
100
AcDbEntity
  8
GAIKEI
  6
Continuous
 62
     1
100
AcDbSpline
210
0.0
220
0.0
230
1.0
 70
     8
 71
     3
 72
     9
 73
     5
 74
     3
 42
0.0000000001
 43
0.0000000001
 44
0.000001
 12
0.4555710774664803
 22
-0.8901994121409149
 32
0.0
 13
0.4548274176199876
 23
-0.8905795978918074
 33
0.0
 40
0.0
 40
0.0
 40
0.0
 40
0.0
 40
0.0517793888168816
 40
0.1036079629296248
 40
0.1036079629296248
 40
0.1036079629296248
 40
0.1036079629296248
 10
-13.30355715395296
 20
1.81104191529465
 30
0.0
 10
-13.29569408996834
 20
1.795677254799382
 30
0.0
 10
-13.2799640615447
 20
1.76493151227375
 30
0.0
 10
-13.26424687071046
 20
1.734179203702589
 30
0.0
 10
-13.25638918520292
 20
1.718793380138379
 30
0.0
 11
-13.30355715395296
 21
1.81104191529465
 31
0.0
 11
-13.27997473345465
 21
1.764944469806664
 31
0.0
 11
-13.25638918520292
 21
1.718793380138379
 31
0.0
  0
LINE
  5
B8
330
2
100
AcDbEntity
  8
GAIKEI
  6
Continuous
 62
     1
100
AcDbLine
 10
-18.00758554506444
 20
28.27641055378797
 30
0.0
 11
-18.00758554506444
 21
2.241962303788
 31
0.0
  0
LINE
  5
B9
330
2
100
AcDbEntity
  8
GAIKEI
  6
Continuous
100
AcDbLine
 10
-18.55785404506457
 20
1.784186553788003
 30
0.0
 11
-18.5893970450644
 21
1.784186553788003
 31
0.0
  0
LINE
  5
BA
330
2
100
AcDbEntity
  8
GAIKEI
  6
Continuous
100
AcDbLine
 10
-18.55785404506457
 20
1.784186553788003
 30
0.0
 11
-18.53951904506459
 21
1.784186553788003
 31
0.0
  0
LINE
  5
BB
330
2
100
AcDbEntity
  8
GAIKEI
  6
Continuous
100
AcDbLine
 10
-18.53951904506459
 20
1.784186553788003
 30
0.0
 11
-18.03745604506446
 21
1.784186553788003
 31
0.0
  0
LINE
  5
BC
330
2
100
AcDbEntity
  8
GAIKEI
  6
Continuous
 62
     1
100
AcDbLine
 10
-18.0200365450645
 20
1.814191303787993
 30
0.0
 11
-18.55693854506433
 21
1.814191303787993
 31
0.0
  0
LINE
  5
BD
330
2
100
AcDbEntity
  8
GAIKEI
  6
Continuous
100
AcDbLine
 10
-18.60251954506441
 20
28.28418655378801
 30
0.0
 11
-18.60251954506441
 21
2.234186553787991
 31
0.0
  0
LINE
  5
BE
330
2
100
AcDbEntity
  8
GAIKEI
  6
Continuous
100
AcDbLine
 10
-18.58940829506457
 20
1.784185803787976
 30
0.0
 11
-18.60251029506446
 21
2.23419030378801
 31
0.0
  0
LINE
  5
BF
330
2
100
AcDbEntity
  8
GAIKEI
  6
Continuous
 62
     1
100
AcDbLine
 10
-18.00758554506444
 20
2.241962303788
 30
0.0
 11
-18.56938979506447
 21
2.241962303788
 31
0.0
  0
LINE
  5
C0
330
2
100
AcDbEntity
  8
GAIKEI
  6
Continuous
 62
     1
100
AcDbLine
 10
-18.55693029506448
 20
1.814183803788012
 30
0.0
 11
-18.56938504506445
 21
2.241956803788013
 31
0.0
  0
LINE
  5
C1
330
2
100
AcDbEntity
  8
WAKU
 62
     4
100
AcDbLine
 10
62.68393563771383
 20
-17.45501676152708
 30
0.0
 11
62.68393563771383
 21
-52.45501676152708
 31
0.0
  0
TEXT
  5
C3
330
2
100
AcDbEntity
  8
MOJI1
100
AcDbText
 10
-19.81606436228617
 20
-26.45501676152708
 30
0.0
 40
3.0
  1
８Ｗ
100
AcDbText
  0
TEXT
  5
C4
330
2
100
AcDbEntity
  8
MOJI1
100
AcDbText
 10
-19.81606436228617
 20
-31.45501676152708
 30
0.0
 40
3.0
  1
６Ω
100
AcDbText
  0
LINE
  5
C5
330
2
100
AcDbEntity
  8
WAKU
 62
     4
100
AcDbLine
 10
-22.31606436228617
 20
-17.45501676152708
 30
0.0
 11
-22.31606436228617
 21
-52.45501676152708
 31
0.0
  0
TEXT
  5
C6
330
2
100
AcDbEntity
  8
MOJI1
100
AcDbText
 10
-19.81606436228617
 20
-21.45501676152708
 30
0.0
 40
3.0
  1
２ウェイ  ３スピーカ  密閉型
100
AcDbText
  0
TEXT
  5
C7
330
2
100
AcDbEntity
  8
MOJI1
100
AcDbText
 10
-19.81606436228617
 20
-36.45501676152708
 30
0.0
 40
3.0
  1
スピーカの定格は１本当たりの値です
100
AcDbText
  0
TEXT
  5
C8
330
2
100
AcDbEntity
  8
MOJI1
100
AcDbText
 10
-59.81606436228593
 20
-21.45501676152708
 30
0.0
 40
3.0
  1
形  式
100
AcDbText
  0
TEXT
  5
C9
330
2
100
AcDbEntity
  8
MOJI1
100
AcDbText
 10
-59.81606436228593
 20
-26.45501676152708
 30
0.0
 40
3.0
  1
定格入力
100
AcDbText
  0
TEXT
  5
CA
330
2
100
AcDbEntity
  8
MOJI1
100
AcDbText
 10
-59.81606436228593
 20
-36.45501676152708
 30
0.0
 40
3.0
  1
その他
100
AcDbText
  0
LINE
  5
CB
330
2
100
AcDbEntity
  8
WAKU
 62
     4
100
AcDbLine
 10
-62.31606436228616
 20
-17.45501676152708
 30
0.0
 11
-62.31606436228593
 21
-52.45501676152708
 31
0.0
  0
LINE
  5
CC
330
2
100
AcDbEntity
  8
WAKU
 62
     1
100
AcDbLine
 10
-62.31606436228593
 20
-32.45501676152708
 30
0.0
 11
62.68393563771383
 21
-32.45501676152708
 31
0.0
  0
LINE
  5
CD
330
2
100
AcDbEntity
  8
WAKU
 62
     1
100
AcDbLine
 10
-62.31606436228593
 20
-37.45501676152708
 30
0.0
 11
62.68393563771383
 21
-37.45501676152708
 31
0.0
  0
LINE
  5
CE
330
2
100
AcDbEntity
  8
WAKU
 62
     4
100
AcDbLine
 10
-62.31606436228593
 20
-17.45501676152708
 30
0.0
 11
62.68393563771383
 21
-17.45501676152708
 31
0.0
  0
LINE
  5
CF
330
2
100
AcDbEntity
  8
WAKU
 62
     1
100
AcDbLine
 10
-62.31606436228593
 20
-22.45501676152708
 30
0.0
 11
62.68393563771383
 21
-22.45501676152708
 31
0.0
  0
LINE
  5
D0
330
2
100
AcDbEntity
  8
WAKU
 62
     1
100
AcDbLine
 10
-62.31606436228593
 20
-27.45501676152708
 30
0.0
 11
62.68393563771383
 21
-27.45501676152708
 31
0.0
  0
LINE
  5
D1
330
2
100
AcDbEntity
  8
WAKU
 62
     1
100
AcDbLine
 10
-62.31606436228593
 20
-42.45501676152708
 30
0.0
 11
62.68393563771383
 21
-42.45501676152708
 31
0.0
  0
LINE
  5
D2
330
2
100
AcDbEntity
  8
WAKU
 62
     1
100
AcDbLine
 10
-62.31606436228593
 20
-47.45501676152708
 30
0.0
 11
62.68393563771383
 21
-47.45501676152708
 31
0.0
  0
LINE
  5
D3
330
2
100
AcDbEntity
  8
WAKU
 62
     4
100
AcDbLine
 10
62.68393563771383
 20
-52.45501676152708
 30
0.0
 11
-62.31606436228593
 21
-52.45501676152708
 31
0.0
  0
TEXT
  5
D4
330
2
100
AcDbEntity
  8
MOJI1
100
AcDbText
 10
-59.81606436228593
 20
-31.45501676152708
 30
0.0
 40
3.0
  1
インピーダンス
100
AcDbText
  0
ENDSEC
  0
SECTION
  2
OBJECTS
  0
DICTIONARY
  5
9
330
0
100
AcDbDictionary
281
     1
  3
ACAD_COLOR
350
30
  3
ACAD_GROUP
350
2C
  3
ACAD_LAYOUT
350
D
  3
ACAD_MATERIAL
350
2F
  3
ACAD_MLINESTYLE
350
2D
  3
ACAD_PLOTSETTINGS
350
2E
  3
ACAD_PLOTSTYLENAME
350
8
  3
ACDBHEADERROUNDTRIPXREC
350
11E
  3
AcDbVariableDictionary
350
F7
  0
DICTIONARY
  5
15
330
14
100
AcDbDictionary
280
     1
281
     1
  3
ACAD_LAYERFILTERS
360
16
  0
DICTIONARY
  5
3
330
2
100
AcDbDictionary
280
     1
281
     1
  3
ACAD_LAYOUTSELFREF
360
4
  0
DICTIONARY
  5
F
330
E
100
AcDbDictionary
280
     1
281
     1
  3
ACAD_LAYOUTSELFREF
360
10
  0
DICTIONARY
  5
30
102
{ACAD_REACTORS
330
9
102
}
330
9
100
AcDbDictionary
281
     1
  0
DICTIONARY
  5
2C
102
{ACAD_REACTORS
330
9
102
}
330
9
100
AcDbDictionary
281
     1
  0
DICTIONARY
  5
D
102
{ACAD_REACTORS
330
9
102
}
330
9
100
AcDbDictionary
281
     1
  3
Model
350
C
  3
ﾚｲｱｳﾄ1
350
13
  0
DICTIONARY
  5
2F
102
{ACAD_REACTORS
330
9
102
}
330
9
100
AcDbDictionary
281
     1
  0
DICTIONARY
  5
2D
102
{ACAD_REACTORS
330
9
102
}
330
9
100
AcDbDictionary
281
     1
  3
STANDARD
350
32
  0
DICTIONARY
  5
2E
102
{ACAD_REACTORS
330
9
102
}
330
9
100
AcDbDictionary
281
     1
  0
ACDBDICTIONARYWDFLT
  5
8
102
{ACAD_REACTORS
330
9
102
}
330
9
100
AcDbDictionary
281
     1
  3
Normal
350
7
100
AcDbDictionaryWithDefault
340
7
  0
DICTIONARY
  5
11E
102
{ACAD_REACTORS
330
9
102
}
330
9
100
AcDbDictionary
281
     1
  3
COLORDICT
350
120
  3
MATERIALDICT
350
11F
  0
DICTIONARY
  5
F7
102
{ACAD_REACTORS
330
9
102
}
330
9
100
AcDbDictionary
281
     1
  3
DIMASSOC
350
F9
  3
HIDETEXT
350
F8
  3
PROJECTNAME
350
FA
  0
DICTIONARY
  5
16
102
{ACAD_REACTORS
330
15
102
}
330
15
100
AcDbDictionary
280
     1
281
     1
  0
XRECORD
  5
4
102
{ACAD_REACTORS
330
3
102
}
330
3
100
AcDbXrecord
280
     1
340
2
  0
XRECORD
  5
10
102
{ACAD_REACTORS
330
F
102
}
330
F
100
AcDbXrecord
280
     1
340
E
  0
LAYOUT
  5
C
102
{ACAD_XDICTIONARY
360
121
102
}
102
{ACAD_REACTORS
330
D
102
}
330
D
100
AcDbPlotSettings
  1

  2
\\MARS\NX800A(RPDL)
  4
A4
  6

 40
5.831416606903076
 41
4.942422866821289
 42
7.609405517578125
 43
5.789093017578125
 44
209.9733276367186
 45
296.9683227539062
 46
4.23
 47
0.0
 48
0.0
 49
0.0
140
0.0
141
0.0
142
1.0
143
1.377557041813
 70
 11956
 72
     1
 73
     0
 74
     1
  7
tmsacad.ctb
 75
     0
147
0.7259227528494222
148
0.5228791232484547
149
0.0333900090324306
100
AcDbLayout
  1
Model
 70
     1
 71
     0
 10
0.0
 20
0.0
 11
12.0
 21
9.0
 12
0.0
 22
0.0
 32
0.0
 14
0.0
 24
0.0
 34
0.0
 15
0.0
 25
0.0
 35
0.0
146
0.0
 13
0.0
 23
0.0
 33
0.0
 16
1.0
 26
0.0
 36
0.0
 17
0.0
 27
1.0
 37
0.0
 76
     0
330
2
  0
LAYOUT
  5
13
102
{ACAD_XDICTIONARY
360
123
102
}
102
{ACAD_REACTORS
330
D
102
}
330
D
100
AcDbPlotSettings
  1

  2
C:\Program Files\ACAD2000\plotters\DWF ePlot.pc3
  4

  6

 40
0.0
 41
0.0
 42
0.0
 43
0.0
 44
0.0
 45
0.0
 46
0.0
 47
0.0
 48
0.0
 49
0.0
140
0.0
141
0.0
142
1.0
143
1.0
 70
   688
 72
     0
 73
     0
 74
     5
  7
tmsacad.ctb
 75
    16
147
1.0
148
0.0
149
0.0
100
AcDbLayout
  1
ﾚｲｱｳﾄ1
 70
     1
 71
     1
 10
0.0
 20
0.0
 11
12.0
 21
9.0
 12
0.0
 22
0.0
 32
0.0
 14
1.000000000000000E+20
 24
1.000000000000000E+20
 34
1.000000000000000E+20
 15
-1.000000000000000E+20
 25
-1.000000000000000E+20
 35
-1.000000000000000E+20
146
0.0
 13
0.0
 23
0.0
 33
0.0
 16
1.0
 26
0.0
 36
0.0
 17
0.0
 27
1.0
 37
0.0
 76
     0
330
E
  0
MLINESTYLE
  5
32
102
{ACAD_REACTORS
330
2D
102
}
330
2D
100
AcDbMlineStyle
  2
STANDARD
 70
     0
  3

 62
   256
 51
90.0
 52
90.0
 71
     2
 49
0.5
 62
   256
  6
BYLAYER
 49
-0.5
 62
   256
  6
BYLAYER
  0
ACDBPLACEHOLDER
  5
7
102
{ACAD_REACTORS
330
8
102
}
330
8
  0
XRECORD
  5
120
102
{ACAD_REACTORS
330
11E
102
}
330
11E
100
AcDbXrecord
280
     1
340
30
  0
XRECORD
  5
11F
102
{ACAD_REACTORS
330
11E
102
}
330
11E
100
AcDbXrecord
280
     1
340
2F
  0
DICTIONARYVAR
  5
F9
102
{ACAD_REACTORS
330
F7
102
}
330
F7
100
DictionaryVariables
280
     0
  1
1
  0
DICTIONARYVAR
  5
F8
102
{ACAD_REACTORS
330
F7
102
}
330
F7
100
DictionaryVariables
280
     0
  1
1
  0
DICTIONARYVAR
  5
FA
102
{ACAD_REACTORS
330
F7
102
}
330
F7
100
DictionaryVariables
280
     0
  1

  0
DICTIONARY
  5
121
330
C
100
AcDbDictionary
280
     1
281
     1
  3
ACAD_XREC_ROUNDTRIP
360
122
  0
DICTIONARY
  5
123
330
13
100
AcDbDictionary
280
     1
281
     1
  3
ACAD_XREC_ROUNDTRIP
360
124
  0
XRECORD
  5
122
102
{ACAD_REACTORS
330
121
102
}
330
121
100
AcDbXrecord
280
     1
102
SHADEPLOT
 70
     0
102
SHADEPLOTRESLEVEL
 70
     2
102
SHADEPLOTCUSTOMDPI
 70
   300
  0
XRECORD
  5
124
102
{ACAD_REACTORS
330
123
102
}
330
123
100
AcDbXrecord
280
     1
102
SHADEPLOT
 70
     0
102
SHADEPLOTRESLEVEL
 70
     2
102
SHADEPLOTCUSTOMDPI
 70
   300
  0
ENDSEC
  0
EOF
