  0
SECTION
  2
HEADER
  9
$ACADVER
  1
AC1015
  9
$ACADMAINTVER
 70
    20
  9
$DWGCODEPAGE
  3
ANSI_932
  9
$INSBASE
 10
129.0
 20
246.4992141396418
 30
0.0
  9
$EXTMIN
 10
-62.54316859329628
 20
-58.04362429437879
 30
-0.0000000349181948
  9
$EXTMAX
 10
62.52535554387214
 20
55.03712651656314
 30
0.0000000814935747
  9
$LIMMIN
 10
-1101.784450318844
 20
-1579.160531687244
  9
$LIMMAX
 10
-508.2420711400536
 20
-1161.440814074914
  9
$ORTHOMODE
 70
     1
  9
$REGENMODE
 70
     1
  9
$FILLMODE
 70
     1
  9
$QTEXTMODE
 70
     0
  9
$MIRRTEXT
 70
     1
  9
$LTSCALE
 40
1.0
  9
$ATTMODE
 70
     1
  9
$TEXTSIZE
 40
2.5
  9
$TRACEWID
 40
0.5
  9
$TEXTSTYLE
  7
STANDARD
  9
$CLAYER
  8
0
  9
$CELTYPE
  6
BYLAYER
  9
$CECOLOR
 62
   256
  9
$CELTSCALE
 40
1.0
  9
$DISPSILH
 70
     0
  9
$DIMSCALE
 40
1.0
  9
$DIMASZ
 40
2.0
  9
$DIMEXO
 40
2.0
  9
$DIMDLI
 40
8.0
  9
$DIMRND
 40
0.0
  9
$DIMDLE
 40
0.0
  9
$DIMEXE
 40
2.0
  9
$DIMTP
 40
0.0
  9
$DIMTM
 40
0.0
  9
$DIMTXT
 40
2.5
  9
$DIMCEN
 40
0.0
  9
$DIMTSZ
 40
0.0
  9
$DIMTOL
 70
     0
  9
$DIMLIM
 70
     0
  9
$DIMTIH
 70
     0
  9
$DIMTOH
 70
     0
  9
$DIMSE1
 70
     0
  9
$DIMSE2
 70
     0
  9
$DIMTAD
 70
     3
  9
$DIMZIN
 70
     0
  9
$DIMBLK
  1

  9
$DIMASO
 70
     1
  9
$DIMSHO
 70
     1
  9
$DIMPOST
  1

  9
$DIMAPOST
  1

  9
$DIMALT
 70
     0
  9
$DIMALTD
 70
     2
  9
$DIMALTF
 40
25.4
  9
$DIMLFAC
 40
1.0
  9
$DIMTOFL
 70
     1
  9
$DIMTVP
 40
0.0
  9
$DIMTIX
 70
     0
  9
$DIMSOXD
 70
     0
  9
$DIMSAH
 70
     1
  9
$DIMBLK1
  1
OPEN30
  9
$DIMBLK2
  1
OPEN30
  9
$DIMSTYLE
  2
STANDARD
  9
$DIMCLRD
 70
     0
  9
$DIMCLRE
 70
     0
  9
$DIMCLRT
 70
     0
  9
$DIMTFAC
 40
1.0
  9
$DIMGAP
 40
0.5
  9
$DIMJUST
 70
     0
  9
$DIMSD1
 70
     0
  9
$DIMSD2
 70
     0
  9
$DIMTOLJ
 70
     1
  9
$DIMTZIN
 70
     0
  9
$DIMALTZ
 70
     0
  9
$DIMALTTZ
 70
     0
  9
$DIMUPT
 70
     0
  9
$DIMDEC
 70
     4
  9
$DIMTDEC
 70
     4
  9
$DIMALTU
 70
     2
  9
$DIMALTTD
 70
     2
  9
$DIMTXSTY
  7
STANDARD
  9
$DIMAUNIT
 70
     0
  9
$DIMADEC
 70
     0
  9
$DIMALTRND
 40
0.0
  9
$DIMAZIN
 70
     0
  9
$DIMDSEP
 70
    46
  9
$DIMATFIT
 70
     3
  9
$DIMFRAC
 70
     0
  9
$DIMLDRBLK
  1
OPEN30
  9
$DIMLUNIT
 70
     2
  9
$DIMLWD
 70
    -2
  9
$DIMLWE
 70
    -2
  9
$DIMTMOVE
 70
     0
  9
$LUNITS
 70
     2
  9
$LUPREC
 70
     4
  9
$SKETCHINC
 40
0.1
  9
$FILLETRAD
 40
0.5
  9
$AUNITS
 70
     0
  9
$AUPREC
 70
     0
  9
$MENU
  1
ACAD
  9
$ELEVATION
 40
0.0
  9
$PELEVATION
 40
0.0
  9
$THICKNESS
 40
0.0
  9
$LIMCHECK
 70
     0
  9
$CHAMFERA
 40
0.0
  9
$CHAMFERB
 40
0.0
  9
$CHAMFERC
 40
0.0
  9
$CHAMFERD
 40
0.0
  9
$SKPOLY
 70
     0
  9
$TDCREATE
 40
2451815.565532581
  9
$TDUCREATE
 40
2451815.190532581
  9
$TDUPDATE
 40
2453731.733618160
  9
$TDUUPDATE
 40
2453731.358618160
  9
$TDINDWG
 40
0.5402026389
  9
$TDUSRTIMER
 40
0.5402026389
  9
$USRTIMER
 70
     1
  9
$ANGBASE
 50
0.0
  9
$ANGDIR
 70
     0
  9
$PDMODE
 70
     0
  9
$PDSIZE
 40
0.0
  9
$PLINEWID
 40
0.0
  9
$SPLFRAME
 70
     0
  9
$SPLINETYPE
 70
     6
  9
$SPLINESEGS
 70
     8
  9
$HANDSEED
  5
125
  9
$SURFTAB1
 70
     6
  9
$SURFTAB2
 70
     6
  9
$SURFTYPE
 70
     6
  9
$SURFU
 70
     6
  9
$SURFV
 70
     6
  9
$UCSBASE
  2

  9
$UCSNAME
  2

  9
$UCSORG
 10
0.0
 20
0.0
 30
0.0
  9
$UCSXDIR
 10
1.0
 20
0.0
 30
0.0
  9
$UCSYDIR
 10
0.0
 20
1.0
 30
0.0
  9
$UCSORTHOREF
  2

  9
$UCSORTHOVIEW
 70
     0
  9
$UCSORGTOP
 10
0.0
 20
0.0
 30
0.0
  9
$UCSORGBOTTOM
 10
0.0
 20
0.0
 30
0.0
  9
$UCSORGLEFT
 10
0.0
 20
0.0
 30
0.0
  9
$UCSORGRIGHT
 10
0.0
 20
0.0
 30
0.0
  9
$UCSORGFRONT
 10
0.0
 20
0.0
 30
0.0
  9
$UCSORGBACK
 10
0.0
 20
0.0
 30
0.0
  9
$PUCSBASE
  2

  9
$PUCSNAME
  2

  9
$PUCSORG
 10
0.0
 20
0.0
 30
0.0
  9
$PUCSXDIR
 10
1.0
 20
0.0
 30
0.0
  9
$PUCSYDIR
 10
0.0
 20
1.0
 30
0.0
  9
$PUCSORTHOREF
  2

  9
$PUCSORTHOVIEW
 70
     0
  9
$PUCSORGTOP
 10
0.0
 20
0.0
 30
0.0
  9
$PUCSORGBOTTOM
 10
0.0
 20
0.0
 30
0.0
  9
$PUCSORGLEFT
 10
0.0
 20
0.0
 30
0.0
  9
$PUCSORGRIGHT
 10
0.0
 20
0.0
 30
0.0
  9
$PUCSORGFRONT
 10
0.0
 20
0.0
 30
0.0
  9
$PUCSORGBACK
 10
0.0
 20
0.0
 30
0.0
  9
$USERI1
 70
     0
  9
$USERI2
 70
     0
  9
$USERI3
 70
     0
  9
$USERI4
 70
     0
  9
$USERI5
 70
     0
  9
$USERR1
 40
0.0
  9
$USERR2
 40
0.0
  9
$USERR3
 40
0.0
  9
$USERR4
 40
0.0
  9
$USERR5
 40
0.0
  9
$WORLDVIEW
 70
     1
  9
$SHADEDGE
 70
     3
  9
$SHADEDIF
 70
    70
  9
$TILEMODE
 70
     1
  9
$MAXACTVP
 70
    48
  9
$PINSBASE
 10
0.0
 20
0.0
 30
0.0
  9
$PLIMCHECK
 70
     0
  9
$PEXTMIN
 10
1.000000000000000E+20
 20
1.000000000000000E+20
 30
1.000000000000000E+20
  9
$PEXTMAX
 10
-1.000000000000000E+20
 20
-1.000000000000000E+20
 30
-1.000000000000000E+20
  9
$PLIMMIN
 10
0.0
 20
0.0
  9
$PLIMMAX
 10
12.0
 20
9.0
  9
$UNITMODE
 70
     0
  9
$VISRETAIN
 70
     1
  9
$PLINEGEN
 70
     0
  9
$PSLTSCALE
 70
     1
  9
$TREEDEPTH
 70
  3020
  9
$CMLSTYLE
  2
STANDARD
  9
$CMLJUST
 70
     0
  9
$CMLSCALE
 40
1.0
  9
$PROXYGRAPHICS
 70
     1
  9
$MEASUREMENT
 70
     0
  9
$CELWEIGHT
370
    -1
  9
$ENDCAPS
280
     0
  9
$JOINSTYLE
280
     0
  9
$LWDISPLAY
290
     0
  9
$INSUNITS
 70
     0
  9
$HYPERLINKBASE
  1

  9
$STYLESHEET
  1

  9
$XEDIT
290
     1
  9
$CEPSNTYPE
380
     0
  9
$PSTYLEMODE
290
     1
  9
$FINGERPRINTGUID
  2
{1754B7AB-9B3C-11D4-AD9E-00104B1004F2}
  9
$VERSIONGUID
  2
{D8134696-E850-4F89-9D58-CF0E73C96C5D}
  9
$EXTNAMES
290
     1
  9
$PSVPSCALE
 40
0.0
  9
$OLESTARTUP
290
     0
  0
ENDSEC
  0
SECTION
  2
CLASSES
  0
CLASS
  1
ACDBDICTIONARYWDFLT
  2
AcDbDictionaryWithDefault
  3
ObjectDBX Classes
 90
        0
280
     0
281
     0
  0
CLASS
  1
ACDBPLACEHOLDER
  2
AcDbPlaceHolder
  3
ObjectDBX Classes
 90
        0
280
     0
281
     0
  0
CLASS
  1
LAYOUT
  2
AcDbLayout
  3
ObjectDBX Classes
 90
        0
280
     0
281
     0
  0
CLASS
  1
DICTIONARYVAR
  2
AcDbDictionaryVar
  3
ObjectDBX Classes
 90
        0
280
     0
281
     0
  0
ENDSEC
  0
SECTION
  2
TABLES
  0
TABLE
  2
VPORT
  5
1F
330
0
100
AcDbSymbolTable
 70
     2
  0
VPORT
  5
11D
330
1F
100
AcDbSymbolTableRecord
100
AcDbViewportTableRecord
  2
*Active
 70
     0
 10
0.0
 20
0.0
 11
1.0
 21
1.0
 12
-0.0089065247120743
 22
-1.503248888907819
 13
0.0
 23
0.0
 14
1.0
 24
1.0
 15
0.0
 25
0.0
 16
0.0
 26
0.0
 36
1.0
 17
0.0
 27
0.0
 37
0.0
 40
114.0500143893214
 41
1.589413447782546
 42
50.0
 43
0.0
 44
0.0
 50
0.0
 51
0.0
 71
     0
 72
  1000
 73
     1
 74
     0
 75
     0
 76
     1
 77
     0
 78
     0
281
     0
 65
     1
110
0.0
120
0.0
130
0.0
111
1.0
121
0.0
131
0.0
112
0.0
122
1.0
132
0.0
 79
     0
146
0.0
  0
ENDTAB
  0
TABLE
  2
LTYPE
  5
1A
330
0
100
AcDbSymbolTable
 70
     1
  0
LTYPE
  5
1B
330
1A
100
AcDbSymbolTableRecord
100
AcDbLinetypeTableRecord
  2
BYBLOCK
 70
     0
  3

 72
    65
 73
     0
 40
0.0
  0
LTYPE
  5
1C
330
1A
100
AcDbSymbolTableRecord
100
AcDbLinetypeTableRecord
  2
BYLAYER
 70
     0
  3

 72
    65
 73
     0
 40
0.0
  0
LTYPE
  5
A
330
1A
100
AcDbSymbolTableRecord
100
AcDbLinetypeTableRecord
  2
CONTINUOUS
 70
     0
  3
Solid line
 72
    65
 73
     0
 40
0.0
  0
ENDTAB
  0
TABLE
  2
LAYER
  5
14
102
{ACAD_XDICTIONARY
360
15
102
}
330
0
100
AcDbSymbolTable
 70
     7
  0
LAYER
  5
6
330
14
100
AcDbSymbolTableRecord
100
AcDbLayerTableRecord
  2
0
 70
     0
 62
     7
  6
CONTINUOUS
370
    -3
390
7
  0
LAYER
  5
6D
330
14
100
AcDbSymbolTableRecord
100
AcDbLayerTableRecord
  2
DEFPOINTS
 70
     0
 62
     7
  6
CONTINUOUS
290
     0
370
    -3
390
7
  0
LAYER
  5
C3
330
14
100
AcDbSymbolTableRecord
100
AcDbLayerTableRecord
  2
WAKU
 70
     0
 62
     4
  6
CONTINUOUS
370
    -3
390
7
  0
LAYER
  5
34
330
14
100
AcDbSymbolTableRecord
100
AcDbLayerTableRecord
  2
MOJI1
 70
     0
 62
     2
  6
CONTINUOUS
370
    -3
390
7
  0
LAYER
  5
31
330
14
100
AcDbSymbolTableRecord
100
AcDbLayerTableRecord
  2
GAIKEI
 70
     0
 62
     7
  6
CONTINUOUS
370
    -3
390
7
  0
LAYER
  5
36
330
14
100
AcDbSymbolTableRecord
100
AcDbLayerTableRecord
  2
TOUROKU
 70
     0
 62
     1
  6
CONTINUOUS
370
    -3
390
7
  0
LAYER
  5
62
330
14
100
AcDbSymbolTableRecord
100
AcDbLayerTableRecord
  2
SUNPO
 70
     0
 62
     3
  6
CONTINUOUS
370
    -3
390
7
  0
ENDTAB
  0
TABLE
  2
STYLE
  5
17
330
0
100
AcDbSymbolTable
 70
     1
  0
STYLE
  5
18
330
17
100
AcDbSymbolTableRecord
100
AcDbTextStyleTableRecord
  2
STANDARD
 70
     0
 40
0.0
 41
1.0
 50
0.0
 71
     0
 42
2.5
  3
MONOTXT.shx
  4
BIGFONT.shx
  0
ENDTAB
  0
TABLE
  2
VIEW
  5
1D
330
0
100
AcDbSymbolTable
 70
     0
  0
ENDTAB
  0
TABLE
  2
UCS
  5
1E
330
0
100
AcDbSymbolTable
 70
     0
  0
ENDTAB
  0
TABLE
  2
APPID
  5
21
330
0
100
AcDbSymbolTable
 70
     1
  0
APPID
  5
22
330
21
100
AcDbSymbolTableRecord
100
AcDbRegAppTableRecord
  2
ACAD
 70
     0
  0
ENDTAB
  0
TABLE
  2
DIMSTYLE
  5
23
330
0
100
AcDbSymbolTable
 70
     1
100
AcDbDimStyleTable
 71
     1
340
24
  0
DIMSTYLE
105
24
102
{ACAD_REACTORS
330
71
330
61
102
}
330
23
100
AcDbSymbolTableRecord
100
AcDbDimStyleTableRecord
  2
STANDARD
 70
     0
 40
0.0
 41
2.0
 42
2.0
 43
8.0
 44
2.0
 73
     0
 74
     0
 77
     3
140
3.0
141
0.0
173
     1
279
     2
288
     1
340
18
341
25
343
25
344
25
  0
ENDTAB
  0
TABLE
  2
BLOCK_RECORD
  5
1
330
0
100
AcDbSymbolTable
 70
     5
  0
BLOCK_RECORD
  5
2
102
{ACAD_XDICTIONARY
360
3
102
}
330
1
100
AcDbSymbolTableRecord
100
AcDbBlockTableRecord
  2
*MODEL_SPACE
340
C
  0
BLOCK_RECORD
  5
E
102
{ACAD_XDICTIONARY
360
F
102
}
330
1
100
AcDbSymbolTableRecord
100
AcDbBlockTableRecord
  2
*PAPER_SPACE
340
13
  0
BLOCK_RECORD
  5
25
330
1
100
AcDbSymbolTableRecord
100
AcDbBlockTableRecord
  2
_OPEN30
340
0
102
{BLKREFS
331
83
331
84
331
69
331
6A
331
79
331
7A
331
10D
331
10E
331
117
331
118
102
}
  0
BLOCK_RECORD
  5
DC
330
1
100
AcDbSymbolTableRecord
100
AcDbBlockTableRecord
  2
*D3
340
0
  0
BLOCK_RECORD
  5
EA
330
1
100
AcDbSymbolTableRecord
100
AcDbBlockTableRecord
  2
*D4
340
0
  0
ENDTAB
  0
ENDSEC
  0
SECTION
  2
BLOCKS
  0
BLOCK
  5
5
330
2
100
AcDbEntity
  8
0
100
AcDbBlockBegin
  2
*MODEL_SPACE
 70
     0
 10
0.0
 20
0.0
 30
0.0
  3
*MODEL_SPACE
  1

  0
ENDBLK
  5
B
330
2
100
AcDbEntity
  8
0
100
AcDbBlockEnd
  0
BLOCK
  5
11
330
E
100
AcDbEntity
 67
     1
  8
0
100
AcDbBlockBegin
  2
*PAPER_SPACE
 70
     0
 10
0.0
 20
0.0
 30
0.0
  3
*PAPER_SPACE
  1

  0
ENDBLK
  5
12
330
E
100
AcDbEntity
 67
     1
  8
0
100
AcDbBlockEnd
  0
BLOCK
  5
26
330
25
100
AcDbEntity
  8
0
100
AcDbBlockBegin
  2
_OPEN30
 70
     0
 10
0.0
 20
0.0
 30
0.0
  3
_OPEN30
  1

  0
LINE
  5
27
330
25
100
AcDbEntity
  8
0
  6
ByBlock
 62
     0
100
AcDbLine
 10
-1.0
 20
0.26794919
 30
0.0
 11
0.0
 21
0.0
 31
0.0
  0
LINE
  5
28
330
25
100
AcDbEntity
  8
0
  6
ByBlock
 62
     0
100
AcDbLine
 10
0.0
 20
0.0
 30
0.0
 11
-1.0
 21
-0.26794919
 31
0.0
  0
LINE
  5
29
330
25
100
AcDbEntity
  8
0
  6
ByBlock
 62
     0
100
AcDbLine
 10
0.0
 20
0.0
 30
0.0
 11
-1.0
 21
0.0
 31
0.0
  0
ENDBLK
  5
2A
330
25
100
AcDbEntity
  8
0
100
AcDbBlockEnd
  0
BLOCK
  5
E8
330
DC
100
AcDbEntity
  8
0
100
AcDbBlockBegin
  2
*D3
 70
     1
 10
0.0
 20
0.0
 30
0.0
  3
*D3
  1

  0
LINE
  5
108
330
DC
100
AcDbEntity
  8
SUNPO
 62
     0
370
    -2
100
AcDbLine
 10
11.06939506058177
 20
25.13888045149699
 30
0.0
 11
11.06939506058177
 21
33.13888045149699
 31
0.0
  0
LINE
  5
109
330
DC
100
AcDbEntity
  8
SUNPO
 62
     0
370
    -2
100
AcDbLine
 10
15.45939756058175
 20
25.13888045149699
 30
0.0
 11
15.45939756058175
 21
33.13888045149699
 31
0.0
  0
LINE
  5
10A
330
DC
100
AcDbEntity
  8
SUNPO
 62
     0
370
    -2
100
AcDbLine
 10
9.06939506058177
 20
31.13888045149699
 30
0.0
 11
7.06939506058177
 21
31.13888045149699
 31
0.0
  0
LINE
  5
10B
330
DC
100
AcDbEntity
  8
SUNPO
 62
     0
370
    -2
100
AcDbLine
 10
17.45939756058175
 20
31.13888045149699
 30
0.0
 11
24.62606422724842
 21
31.13888045149699
 31
0.0
  0
LINE
  5
10C
330
DC
100
AcDbEntity
  8
SUNPO
 62
     0
370
    -2
100
AcDbLine
 10
11.06939506058177
 20
31.13888045149699
 30
0.0
 11
15.45939756058175
 21
31.13888045149699
 31
0.0
  0
INSERT
  5
10D
330
DC
100
AcDbEntity
  8
SUNPO
 62
     0
370
    -2
100
AcDbBlockReference
  2
_OPEN30
 10
11.06939506058177
 20
31.13888045149699
 30
0.0
 41
2.0
 42
2.0
 43
2.0
  0
INSERT
  5
10E
330
DC
100
AcDbEntity
  8
SUNPO
 62
     0
370
    -2
100
AcDbBlockReference
  2
_OPEN30
 10
15.45939756058175
 20
31.13888045149699
 30
0.0
 41
2.0
 42
2.0
 43
2.0
 50
180.0
  0
MTEXT
  5
10F
330
DC
100
AcDbEntity
  8
SUNPO
 62
     0
100
AcDbMText
 10
22.04273089391509
 20
32.88888045149699
 30
0.0
 40
2.5
 41
0.0
 71
     5
 72
     1
  1
\A1;88
 73
     1
 44
1.0
1001
ACAD
1000
MTEXTBEGIN
1070
    73
1070
     1
1070
    44
1040
1.0
1070
    74
1070
     0
1000
MTEXTEND
  0
POINT
  5
110
330
DC
100
AcDbEntity
  8
DEFPOINTS
 62
     0
100
AcDbPoint
 10
11.06939506058177
 20
23.13888045149699
 30
0.0
  0
POINT
  5
111
330
DC
100
AcDbEntity
  8
DEFPOINTS
 62
     0
100
AcDbPoint
 10
15.45939756058175
 20
23.13888045149699
 30
0.0
  0
POINT
  5
112
330
DC
100
AcDbEntity
  8
DEFPOINTS
 62
     0
100
AcDbPoint
 10
15.45939756058175
 20
31.13888045149699
 30
0.0
  0
ENDBLK
  5
E9
330
DC
100
AcDbEntity
  8
0
100
AcDbBlockEnd
  0
BLOCK
  5
F5
330
EA
100
AcDbEntity
  8
0
100
AcDbBlockBegin
  2
*D4
 70
     1
 10
0.0
 20
0.0
 30
0.0
  3
*D4
  1

  0
LINE
  5
113
330
EA
100
AcDbEntity
  8
SUNPO
 62
     0
370
    -2
100
AcDbLine
 10
-18.8142509684186
 20
25.13888045149699
 30
0.0
 11
-18.8142509684186
 21
33.13888045149699
 31
0.0
  0
LINE
  5
114
330
EA
100
AcDbEntity
  8
SUNPO
 62
     0
370
    -2
100
AcDbLine
 10
-13.4625184684188
 20
25.13888045149699
 30
0.0
 11
-13.4625184684188
 21
33.13888045149699
 31
0.0
  0
LINE
  5
115
330
EA
100
AcDbEntity
  8
SUNPO
 62
     0
370
    -2
100
AcDbLine
 10
-16.8142509684186
 20
31.13888045149699
 30
0.0
 11
-15.4625184684188
 21
31.13888045149699
 31
0.0
  0
LINE
  5
116
330
EA
100
AcDbEntity
  8
SUNPO
 62
     0
370
    -2
100
AcDbLine
 10
-13.4625184684188
 20
31.13888045149699
 30
0.0
 11
-3.795851801752132
 21
31.13888045149699
 31
0.0
  0
INSERT
  5
117
330
EA
100
AcDbEntity
  8
SUNPO
 62
     0
370
    -2
100
AcDbBlockReference
  2
_OPEN30
 10
-18.8142509684186
 20
31.13888045149699
 30
0.0
 41
2.0
 42
2.0
 43
2.0
 50
180.0
  0
INSERT
  5
118
330
EA
100
AcDbEntity
  8
SUNPO
 62
     0
370
    -2
100
AcDbBlockReference
  2
_OPEN30
 10
-13.4625184684188
 20
31.13888045149699
 30
0.0
 41
2.0
 42
2.0
 43
2.0
  0
MTEXT
  5
119
330
EA
100
AcDbEntity
  8
SUNPO
 62
     0
100
AcDbMText
 10
-7.629185135085466
 20
32.88888045149699
 30
0.0
 40
2.5
 41
0.0
 71
     5
 72
     1
  1
\A1;107
 73
     1
 44
1.0
1001
ACAD
1000
MTEXTBEGIN
1070
    73
1070
     1
1070
    44
1040
1.0
1070
    74
1070
     0
1000
MTEXTEND
  0
POINT
  5
11A
330
EA
100
AcDbEntity
  8
DEFPOINTS
 62
     0
100
AcDbPoint
 10
-18.8142509684186
 20
23.13888045149699
 30
0.0
  0
POINT
  5
11B
330
EA
100
AcDbEntity
  8
DEFPOINTS
 62
     0
100
AcDbPoint
 10
-13.4625184684188
 20
23.13888045149699
 30
0.0
  0
POINT
  5
11C
330
EA
100
AcDbEntity
  8
DEFPOINTS
 62
     0
100
AcDbPoint
 10
-13.4625184684188
 20
31.13888045149699
 30
0.0
  0
ENDBLK
  5
F6
330
EA
100
AcDbEntity
  8
0
100
AcDbBlockEnd
  0
ENDSEC
  0
SECTION
  2
ENTITIES
  0
TEXT
  5
33
330
2
100
AcDbEntity
  8
MOJI1
100
AcDbText
 10
-35.52219303564039
 20
50.98166962071445
 30
0.0
 40
4.0
  1
スピーカ
100
AcDbText
  0
TEXT
  5
35
330
2
100
AcDbEntity
  8
TOUROKU
100
AcDbText
 10
41.67775699728725
 20
44.98166962071478
 30
0.0
 40
2.0
  1
ＴＹＳＰ３７Ｐ８Ｓ
 72
     2
 11
62.47775699728725
 21
44.98166962071478
 31
0.0
100
AcDbText
  0
LINE
  5
37
330
2
100
AcDbEntity
  8
GAIKEI
  6
Continuous
 62
     1
100
AcDbLine
 10
-18.7630589684187
 20
-3.749129813974121
 30
0.0
 11
-18.77551371841866
 21
-3.321356813974118
 31
0.0
  0
LINE
  5
38
330
2
100
AcDbEntity
  8
GAIKEI
  6
Continuous
 62
     1
100
AcDbLine
 10
-18.21371421841866
 20
-3.321351313974133
 30
0.0
 11
-18.77551846841868
 21
-3.321351313974133
 31
0.0
  0
LINE
  5
39
330
2
100
AcDbEntity
  8
GAIKEI
  6
Continuous
100
AcDbLine
 10
-18.79553696841879
 20
-3.779127813974156
 30
0.0
 11
-18.80863896841868
 21
-3.329123313974121
 31
0.0
  0
LINE
  5
3A
330
2
100
AcDbEntity
  8
GAIKEI
  6
Continuous
100
AcDbLine
 10
-18.80864821841862
 20
22.72087293602587
 30
0.0
 11
-18.80864821841862
 21
-3.32912706397414
 31
0.0
  0
LINE
  5
3B
330
2
100
AcDbEntity
  8
GAIKEI
  6
Continuous
 62
     1
100
AcDbLine
 10
-18.22616521841871
 20
-3.74912231397414
 30
0.0
 11
-18.76306721841854
 21
-3.74912231397414
 31
0.0
  0
LINE
  5
3C
330
2
100
AcDbEntity
  8
GAIKEI
  6
Continuous
100
AcDbLine
 10
-18.74564771841881
 20
-3.779127063974129
 30
0.0
 11
-18.24358471841867
 21
-3.779127063974129
 31
0.0
  0
LINE
  5
3D
330
2
100
AcDbEntity
  8
GAIKEI
  6
Continuous
100
AcDbLine
 10
-18.76398271841878
 20
-3.779127063974129
 30
0.0
 11
-18.74564771841881
 21
-3.779127063974129
 31
0.0
  0
LINE
  5
3E
330
2
100
AcDbEntity
  8
GAIKEI
  6
Continuous
100
AcDbLine
 10
-18.76398271841878
 20
-3.779127063974129
 30
0.0
 11
-18.79552571841862
 21
-3.779127063974129
 31
0.0
  0
LINE
  5
3F
330
2
100
AcDbEntity
  8
GAIKEI
  6
Continuous
 62
     1
100
AcDbLine
 10
-18.21371421841866
 20
22.71309693602583
 30
0.0
 11
-18.21371421841866
 21
-3.321351313974133
 31
0.0
  0
SPLINE
  5
40
330
2
100
AcDbEntity
  8
GAIKEI
  6
Continuous
 62
     1
100
AcDbSpline
210
0.0
220
0.0
230
1.0
 70
     8
 71
     3
 72
     9
 73
     5
 74
     3
 42
0.0000000001
 43
0.0000000001
 44
0.000001
 12
0.4555710774664803
 22
-0.8901994121409149
 32
0.0
 13
0.4548274176199876
 23
-0.8905795978918074
 33
0.0
 40
0.0
 40
0.0
 40
0.0
 40
0.0
 40
0.0517793888168864
 40
0.1036079629296288
 40
0.1036079629296288
 40
0.1036079629296288
 40
0.1036079629296288
 10
-13.50968582730718
 20
-3.752271702467481
 30
0.0
 10
-13.50182276332255
 20
-3.76763636296275
 30
0.0
 10
-13.48609273489892
 20
-3.798382105488383
 30
0.0
 10
-13.47037554406467
 20
-3.829134414059543
 30
0.0
 10
-13.46251785855713
 20
-3.844520237623754
 30
0.0
 11
-13.50968582730718
 21
-3.752271702467481
 31
0.0
 11
-13.48610340680886
 21
-3.798369147955468
 31
0.0
 11
-13.46251785855713
 21
-3.844520237623754
 31
0.0
  0
LINE
  5
41
330
2
100
AcDbEntity
  8
GAIKEI
  6
Continuous
100
AcDbLine
 10
-18.24358471841867
 20
-3.779127063974129
 30
0.0
 11
-18.24358471841867
 21
-3.74912231397414
 31
0.0
  0
SPLINE
  5
42
330
2
100
AcDbEntity
  8
GAIKEI
  6
Continuous
100
AcDbSpline
210
0.0
220
0.0
230
1.0
 70
     8
 71
     3
 72
     9
 73
     5
 74
     3
 42
0.0000000001
 43
0.0000000001
 44
0.000001
 12
-0.9999883567442765
 22
0.0048255959094992
 32
0.0
 13
-0.9289662195941573
 23
0.3701645078244804
 33
0.0
 40
0.0
 40
0.0
 40
0.0
 40
0.0
 40
0.0006886604951541
 40
0.0013897972775204
 40
0.0013897972775204
 40
0.0013897972775204
 40
0.0013897972775204
 10
-13.66350662808838
 20
-4.048621800123753
 30
0.0
 10
-13.66373617891401
 20
-4.04862069239133
 30
0.0
 10
-13.66420003133549
 20
-4.048566205590308
 30
0.0
 10
-13.66464449776193
 20
-4.048427550388957
 30
0.0
 10
-13.66486160855731
 20
-4.04834103840497
 30
0.0
 11
-13.66350662808838
 21
-4.048621800123753
 31
0.0
 11
-13.66419194492471
 21
-4.048546207599173
 31
0.0
 11
-13.66486160855731
 21
-4.04834103840497
 31
0.0
  0
LINE
  5
43
330
2
100
AcDbEntity
  8
GAIKEI
  6
Continuous
 62
     1
100
AcDbLine
 10
-18.17128221841869
 20
-3.715233313974151
 30
0.0
 11
-17.9375909684187
 21
-3.481312313974143
 31
0.0
  0
LINE
  5
44
330
2
100
AcDbEntity
  8
GAIKEI
  6
Continuous
 62
     1
100
AcDbLine
 10
-17.97151821841874
 20
-3.915001563974128
 30
0.0
 11
-17.73759721841873
 21
-3.681310313974136
 31
0.0
  0
LINE
  5
45
330
2
100
AcDbEntity
  8
GAIKEI
  6
Continuous
 62
     1
100
AcDbLine
 10
-14.00512046841874
 20
-3.654737563974122
 30
0.0
 11
-17.71084546841862
 21
-3.654737563974122
 31
0.0
  0
LINE
  5
46
330
2
100
AcDbEntity
  8
GAIKEI
  6
Continuous
 62
     1
100
AcDbLine
 10
-13.54492696841851
 20
-3.715962313974131
 30
0.0
 11
-13.7785452184188
 21
-3.481365063974151
 31
0.0
  0
LINE
  5
47
330
2
100
AcDbEntity
  8
GAIKEI
  6
Continuous
 62
     1
100
AcDbLine
 10
-13.97850921841871
 20
-3.681303563974124
 30
0.0
 11
-13.74221896841857
 21
-3.916923813974136
 31
0.0
  0
SPLINE
  5
48
330
2
100
AcDbEntity
  8
GAIKEI
  6
Continuous
 62
     1
100
AcDbSpline
210
0.0
220
0.0
230
1.0
 70
     8
 71
     3
 72
     9
 73
     5
 74
     3
 42
0.0000000001
 43
0.0000000001
 44
0.000001
 12
-0.4193310596052152
 22
0.9078333891471318
 32
0.0
 13
-0.4173617955917634
 23
0.9087404093471464
 33
0.0
 40
0.0
 40
0.0
 40
0.0
 40
0.0
 40
0.0530945544880694
 40
0.1061312742876928
 40
0.1061312742876928
 40
0.1061312742876928
 40
0.1061312742876928
 10
-13.66486160855731
 20
-4.04834103840497
 30
0.0
 10
-13.67228300715489
 20
-4.032274035289583
 30
0.0
 10
-13.68709896073677
 20
-4.000148862492356
 30
0.0
 10
-13.70188008101062
 20
-3.968007649444134
 30
0.0
 10
-13.70925858121325
 20
-3.951942112623754
 30
0.0
 11
-13.66486160855731
 21
-4.04834103840497
 31
0.0
 11
-13.68709831859894
 21
-4.000127341925093
 31
0.0
 11
-13.70925858121325
 21
-3.951942112623754
 31
0.0
  0
LINE
  5
49
330
2
100
AcDbEntity
  8
GAIKEI
  6
Continuous
 62
     1
100
AcDbLine
 10
-18.22616271841855
 20
-3.749122813974138
 30
0.0
 11
-18.21370796841859
 21
-3.321349813974136
 31
0.0
  0
LINE
  5
4A
330
2
100
AcDbEntity
  8
GAIKEI
  6
Continuous
100
AcDbLine
 10
-18.30764721841876
 20
-3.851429156844403
 30
0.0
 11
-18.30764721841876
 21
-3.779127063974129
 31
0.0
  0
LINE
  5
4B
330
2
100
AcDbEntity
  8
GAIKEI
  6
Continuous
100
AcDbLine
 10
-18.30764721841876
 20
-3.851649063974178
 30
0.0
 11
-18.3077082184185
 21
-3.851649063974178
 31
0.0
  0
LINE
  5
4C
330
2
100
AcDbEntity
  8
GAIKEI
  6
Continuous
100
AcDbLine
 10
-18.30770771841878
 20
-3.8516463139741
 30
0.0
 11
-18.30771996841884
 21
-3.8516463139741
 31
0.0
  0
LINE
  5
4D
330
2
100
AcDbEntity
  8
GAIKEI
  6
Continuous
 62
     1
100
AcDbLine
 10
-17.91084546841864
 20
-3.454737563974133
 30
0.0
 11
-17.91084546841864
 21
22.84650768602589
 31
0.0
  0
LINE
  5
4E
330
2
100
AcDbEntity
  8
GAIKEI
  6
Continuous
100
AcDbLine
 10
-13.46251796841864
 20
-3.848339361031888
 30
0.0
 11
-13.46251796841864
 21
23.23629043602585
 31
0.0
  0
LINE
  5
4F
330
2
100
AcDbEntity
  8
GAIKEI
  6
Continuous
100
AcDbLine
 10
-13.46251796841864
 20
-3.844520313974129
 30
0.0
 11
-13.46245671841882
 21
-3.844520313974129
 31
0.0
  0
LINE
  5
50
330
2
100
AcDbEntity
  8
GAIKEI
  6
Continuous
 62
     1
100
AcDbLine
 10
-13.80512046841875
 20
22.84650768602589
 30
0.0
 11
-13.80512046841875
 21
-3.454737563974133
 31
0.0
  0
LINE
  5
51
330
2
100
AcDbEntity
  8
GAIKEI
  6
Continuous
 62
     1
100
AcDbLine
 10
-13.54485421841866
 20
23.1086927176261
 30
0.0
 11
-13.54485421841866
 21
-3.716922595574344
 31
0.0
  0
LINE
  5
52
330
2
100
AcDbEntity
  8
GAIKEI
  6
Continuous
 62
     1
100
AcDbLine
 10
-18.17128246841878
 20
23.10677177251833
 30
0.0
 11
-18.17128246841878
 21
-3.715001650466574
 31
0.0
  0
LINE
  5
53
330
2
100
AcDbEntity
  8
GAIKEI
  6
Continuous
100
AcDbLine
 10
-18.20631671841863
 20
23.17089718602588
 30
0.0
 11
-18.20631671841863
 21
-3.715162313974161
 31
0.0
  0
LINE
  5
54
330
2
100
AcDbEntity
  8
GAIKEI
  6
Continuous
100
AcDbLine
 10
15.45939731058172
 20
19.34512218602586
 30
0.0
 11
15.45939731058172
 21
9.695878936025877
 31
0.0
  0
LINE
  5
55
330
2
100
AcDbEntity
  8
GAIKEI
  6
Continuous
100
AcDbLine
 10
15.45939731058172
 20
9.695878936025877
 30
0.0
 11
15.45939731058172
 21
-0.1099734090199149
 31
0.0
  0
LINE
  5
56
330
2
100
AcDbEntity
  8
GAIKEI
  6
Continuous
100
AcDbLine
 10
15.45939731058172
 20
0.0466479360258916
 30
0.0
 11
15.45939731058172
 21
-0.0165723139741374
 31
0.0
  0
LINE
  5
57
330
2
100
AcDbEntity
  8
GAIKEI
  6
Continuous
100
AcDbLine
 10
11.06939506058177
 20
-3.669107629080343
 30
0.0
 11
11.24439928159313
 21
-3.947988740493058
 31
0.0
  0
LINE
  5
58
330
2
100
AcDbEntity
  8
GAIKEI
  6
Continuous
100
AcDbLine
 10
11.06939506058177
 20
23.06087775113212
 30
0.0
 11
11.06939506058177
 21
-3.669107629080343
 31
0.0
  0
LINE
  5
59
330
2
100
AcDbEntity
  8
GAIKEI
  6
Continuous
100
AcDbLine
 10
13.26939506058181
 20
-3.085726347125897
 30
0.0
 11
13.26939506058181
 21
-3.997211813974131
 31
0.0
  0
SPLINE
  5
5A
330
2
100
AcDbEntity
  8
GAIKEI
  6
Continuous
100
AcDbSpline
210
0.0
220
0.0
230
1.0
 70
     8
 71
     3
 72
     9
 73
     5
 74
     3
 42
0.0000000001
 43
0.0000000001
 44
0.000001
 12
0.6535156864074855
 22
0.7569129722889898
 32
0.0
 13
0.6415607664383718
 23
0.7670722149621957
 33
0.0
 40
0.0
 40
0.0
 40
0.0
 40
0.0
 40
0.0011430106086579
 40
0.0022866783577014
 40
0.0022866783577014
 40
0.0022866783577014
 40
0.0022866783577014
 10
15.28123575831375
 20
-0.5043407942643796
 30
0.0
 10
15.28148475010124
 20
-0.5040524077453272
 30
0.0
 10
15.28197878174328
 20
-0.5034719327448637
 30
0.0
 10
15.28246823164242
 20
-0.5028876140467422
 30
0.0
 10
15.28271280909496
 20
-0.5025951887955955
 30
0.0
 11
15.28123575831375
 21
-0.5043407942643796
 31
0.0
 11
15.28197749902586
 21
-0.503471130156953
 31
0.0
 11
15.28271280909496
 21
-0.5025951887955955
 31
0.0
  0
LINE
  5
5B
330
2
100
AcDbEntity
  8
GAIKEI
  6
Continuous
 62
     1
100
AcDbLine
 10
15.45939731058172
 20
9.695878936025877
 30
0.0
 11
14.8396343105818
 21
9.695878936025877
 31
0.0
  0
LINE
  5
5C
330
2
100
AcDbEntity
  8
GAIKEI
  6
Continuous
 62
     1
100
AcDbLine
 10
14.8396343105818
 20
9.695878936025877
 30
0.0
 11
14.8396343105818
 21
19.68763918602585
 31
0.0
  0
LINE
  5
5D
330
2
100
AcDbEntity
  8
GAIKEI
  6
Continuous
 62
     1
100
AcDbLine
 10
12.23676556058183
 20
23.4403966210036
 30
0.0
 11
12.23676556058183
 21
-4.048645262830063
 31
0.0
  0
LINE
  5
5E
330
2
100
AcDbEntity
  8
GAIKEI
  6
Continuous
 62
     1
100
AcDbLine
 10
11.22369181058195
 20
23.30676010116198
 30
0.0
 11
11.22369181058195
 21
-3.914989979110201
 31
0.0
  0
LINE
  5
5F
330
2
100
AcDbEntity
  8
GAIKEI
  6
Continuous
 62
     1
100
AcDbLine
 10
11.28328656058181
 20
23.3437339642627
 30
0.0
 11
11.28328656058181
 21
-3.951968504564915
 31
0.0
  0
LINE
  5
60
330
2
100
AcDbEntity
  8
GAIKEI
  6
Continuous
 62
     1
100
AcDbLine
 10
14.8396343105818
 20
-0.2958690639741519
 30
0.0
 11
14.8396343105818
 21
9.695878936025877
 31
0.0
  0
DIMENSION
  5
61
330
2
100
AcDbEntity
  8
SUNPO
100
AcDbDimension
  2
*D4
 10
-13.4625184684188
 20
31.13888045149699
 30
0.0
 11
-7.629185135085466
 21
32.88888045149699
 31
0.0
 70
    33
  1
107
 71
     5
 42
5.351732499999801
  3
STANDARD
100
AcDbAlignedDimension
 13
-18.8142509684186
 23
23.13888045149699
 33
0.0
 14
-13.4625184684188
 24
23.13888045149699
 34
0.0
1001
ACAD
1000
DSTYLE
1002
{
1070
    40
1040
1.0
1070
   140
1040
2.5
1070
   147
1040
0.5
1070
   172
1070
     1
1070
   279
1070
     0
1070
   288
1070
     0
1002
}
  0
DIMENSION
  5
71
330
2
100
AcDbEntity
  8
SUNPO
100
AcDbDimension
  2
*D3
 10
15.45939756058175
 20
31.13888045149699
 30
0.0
 11
22.04273089391509
 21
32.88888045149699
 31
0.0
 70
    33
  1
88
 71
     5
 42
4.39000249999998
  3
STANDARD
100
AcDbAlignedDimension
 13
11.06939506058177
 23
23.13888045149699
 33
0.0
 14
15.45939756058175
 24
23.13888045149699
 34
0.0
1001
ACAD
1000
DSTYLE
1002
{
1070
    40
1040
1.0
1070
   140
1040
2.5
1070
   147
1040
0.5
1070
   172
1070
     1
1070
   279
1070
     0
1070
   288
1070
     0
1002
}
  0
LINE
  5
80
330
2
100
AcDbEntity
  8
SUNPO
100
AcDbLine
 10
-11.46694921841856
 20
-4.05142331397414
 30
0.0
 11
-3.466949218418561
 21
-4.05142331397414
 31
0.0
  0
LINE
  5
81
330
2
100
AcDbEntity
  8
SUNPO
100
AcDbLine
 10
-11.46694921841856
 20
23.44319343602589
 30
0.0
 11
-3.466949218418561
 21
23.44319343602589
 31
0.0
  0
LINE
  5
82
330
2
100
AcDbEntity
  8
SUNPO
100
AcDbLine
 10
-5.466949218418561
 20
-2.051423313974139
 30
0.0
 11
-5.466949218418561
 21
21.44319343602589
 31
0.0
  0
INSERT
  5
83
330
2
100
AcDbEntity
  8
SUNPO
100
AcDbBlockReference
  2
_OPEN30
 10
-5.466949218418561
 20
-4.05142331397414
 30
0.0
 41
2.0
 42
2.0
 43
2.0
 50
270.0
  0
INSERT
  5
84
330
2
100
AcDbEntity
  8
SUNPO
100
AcDbBlockReference
  2
_OPEN30
 10
-5.466949218418561
 20
23.44319343602589
 30
0.0
 41
2.0
 42
2.0
 43
2.0
 50
90.0
  0
MTEXT
  5
85
330
2
100
AcDbEntity
  8
SUNPO
100
AcDbMText
 10
-7.216949218418591
 20
9.695885061025876
 30
0.0
 40
2.5
 41
0.0
 71
     5
 72
     1
  1
\A1;550
 11
0.0000000000000001
 21
1.0
 31
0.0
 73
     1
 44
1.0
1001
ACAD
1000
MTEXTBEGIN
1070
    73
1070
     1
1070
    44
1040
1.0
1070
    74
1070
     0
1000
MTEXTEND
  0
LINE
  5
86
330
2
100
AcDbEntity
  8
GAIKEI
100
AcDbLine
 10
-18.10750819906104
 20
-4.051429108528451
 30
0.0
 11
-13.66237894906095
 21
-4.048339312715937
 31
0.0
  0
LINE
  5
87
330
2
100
AcDbEntity
  8
GAIKEI
 62
     1
100
AcDbLine
 10
-17.97137336999313
 20
-3.915001629808841
 30
0.0
 11
-13.74494511999302
 21
-3.916922574916611
 31
0.0
  0
ARC
  5
88
330
2
100
AcDbEntity
  8
GAIKEI
  6
Continuous
 62
     1
100
AcDbCircle
 10
-17.71084546841862
 20
-3.454737563974133
 30
0.0
 40
0.2
100
AcDbArc
 50
180.0
 51
270.0
  0
ARC
  5
89
330
2
100
AcDbEntity
  8
GAIKEI
 62
     1
100
AcDbCircle
 10
-17.97128246841876
 20
-3.715001650466574
 30
0.0
 40
0.2
100
AcDbArc
 50
180.0
 51
269.9739586162913
  0
ARC
  5
8A
330
2
100
AcDbEntity
  8
GAIKEI
100
AcDbCircle
 10
-18.10764721841875
 20
-3.851429156844403
 30
0.0
 40
0.2
100
AcDbArc
 50
180.0
 51
270.039826115541
  0
ARC
  5
8B
330
2
100
AcDbEntity
  8
GAIKEI
 62
     1
100
AcDbCircle
 10
-13.74485421841865
 20
-3.716922595574344
 30
0.0
 40
0.2
100
AcDbArc
 50
269.9739586162913
 51
0.0
  0
ARC
  5
8C
330
2
100
AcDbEntity
  8
GAIKEI
100
AcDbCircle
 10
-13.66251796841863
 20
-3.848339361031888
 30
0.0
 40
0.2
100
AcDbArc
 50
270.0398261155409
 51
0.0
  0
ARC
  5
8D
330
2
100
AcDbEntity
  8
GAIKEI
  6
Continuous
 62
     1
100
AcDbCircle
 10
-14.00512046841874
 20
-3.454737563974133
 30
0.0
 40
0.2
100
AcDbArc
 50
270.0
 51
0.0
  0
ARC
  5
8E
330
2
100
AcDbEntity
  8
GAIKEI
  6
Continuous
 62
     1
100
AcDbCircle
 10
-14.00512046841874
 20
22.84650768602589
 30
0.0
 40
0.2
100
AcDbArc
 50
0.0
 51
90.00000000000005
  0
ARC
  5
8F
330
2
100
AcDbEntity
  8
GAIKEI
100
AcDbCircle
 10
-13.66251796841863
 20
23.24010948308364
 30
0.0
 40
0.2
100
AcDbArc
 50
0.0
 51
89.96017388445919
  0
ARC
  5
90
330
2
100
AcDbEntity
  8
GAIKEI
 62
     1
100
AcDbCircle
 10
-13.74485421841865
 20
23.1086927176261
 30
0.0
 40
0.2
100
AcDbArc
 50
0.0
 51
90.02604138370868
  0
ARC
  5
91
330
2
100
AcDbEntity
  8
GAIKEI
100
AcDbCircle
 10
-18.10764721841875
 20
23.24319927889616
 30
0.0
 40
0.2
100
AcDbArc
 50
89.96017388445904
 51
180.0
  0
ARC
  5
92
330
2
100
AcDbEntity
  8
GAIKEI
 62
     1
100
AcDbCircle
 10
-17.97128246841876
 20
23.10677177251833
 30
0.0
 40
0.2
100
AcDbArc
 50
90.02604138370868
 51
179.9999999999999
  0
ARC
  5
93
330
2
100
AcDbEntity
  8
GAIKEI
  6
Continuous
 62
     1
100
AcDbCircle
 10
-17.71084546841862
 20
22.84650768602589
 30
0.0
 40
0.2
100
AcDbArc
 50
90.00000000000005
 51
180.0
  0
LINE
  5
94
330
2
100
AcDbEntity
  8
GAIKEI
 62
     1
100
AcDbLine
 10
-17.97137336999313
 20
23.30677175186059
 30
0.0
 11
-13.74494511999302
 21
23.30869269696837
 31
0.0
  0
LINE
  5
95
330
2
100
AcDbEntity
  8
GAIKEI
100
AcDbLine
 10
-18.10750819906104
 20
23.44319923058021
 30
0.0
 11
-13.66237894906095
 21
23.44010943476769
 31
0.0
  0
LINE
  5
96
330
2
100
AcDbEntity
  8
GAIKEI
  6
Continuous
100
AcDbLine
 10
-13.46251796841864
 20
23.23629043602588
 30
0.0
 11
-13.46245671841882
 21
23.23629043602588
 31
0.0
  0
LINE
  5
97
330
2
100
AcDbEntity
  8
GAIKEI
  6
Continuous
100
AcDbLine
 10
-18.30770771841878
 20
23.24341643602585
 30
0.0
 11
-18.30771996841884
 21
23.24341643602585
 31
0.0
  0
LINE
  5
98
330
2
100
AcDbEntity
  8
GAIKEI
  6
Continuous
100
AcDbLine
 10
-18.30764721841876
 20
23.24341918602593
 30
0.0
 11
-18.3077082184185
 21
23.24341918602593
 31
0.0
  0
LINE
  5
99
330
2
100
AcDbEntity
  8
GAIKEI
  6
Continuous
100
AcDbLine
 10
-18.30764721841876
 20
23.24319927889616
 30
0.0
 11
-18.30764721841876
 21
23.17089718602588
 31
0.0
  0
LINE
  5
9A
330
2
100
AcDbEntity
  8
GAIKEI
  6
Continuous
 62
     1
100
AcDbLine
 10
-18.22616271841855
 20
23.14089293602589
 30
0.0
 11
-18.21370796841859
 21
22.71311993602589
 31
0.0
  0
SPLINE
  5
9B
330
2
100
AcDbEntity
  8
GAIKEI
  6
Continuous
 62
     1
100
AcDbSpline
210
0.0
220
0.0
230
1.0
 70
     8
 71
     3
 72
     9
 73
     5
 74
     3
 42
0.0000000001
 43
0.0000000001
 44
0.000001
 12
-0.4193310596052151
 22
-0.9078333891471318
 32
0.0
 13
-0.4173617955917634
 23
-0.9087404093471464
 33
0.0
 40
0.0
 40
0.0
 40
0.0
 40
0.0
 40
0.0530945544880629
 40
0.1061312742876859
 40
0.1061312742876859
 40
0.1061312742876859
 40
0.1061312742876859
 10
-13.66486160855731
 20
23.44011116045672
 30
0.0
 10
-13.67228300715489
 20
23.42404415734133
 30
0.0
 10
-13.68709896073676
 20
23.3919189845441
 30
0.0
 10
-13.70188008101062
 20
23.35977777149589
 30
0.0
 10
-13.70925858121325
 20
23.34371223467551
 30
0.0
 11
-13.66486160855731
 21
23.44011116045672
 31
0.0
 11
-13.68709831859894
 21
23.39189746397685
 31
0.0
 11
-13.70925858121325
 21
23.34371223467551
 31
0.0
  0
LINE
  5
9C
330
2
100
AcDbEntity
  8
GAIKEI
  6
Continuous
 62
     1
100
AcDbLine
 10
-13.97850921841871
 20
23.07307368602588
 30
0.0
 11
-13.74221896841857
 21
23.30869393602589
 31
0.0
  0
LINE
  5
9D
330
2
100
AcDbEntity
  8
GAIKEI
  6
Continuous
 62
     1
100
AcDbLine
 10
-13.54492696841851
 20
23.10773243602588
 30
0.0
 11
-13.7785452184188
 21
22.87313518602591
 31
0.0
  0
LINE
  5
9E
330
2
100
AcDbEntity
  8
GAIKEI
  6
Continuous
 62
     1
100
AcDbLine
 10
-14.00512046841874
 20
23.04650768602588
 30
0.0
 11
-17.71084546841862
 21
23.04650768602588
 31
0.0
  0
LINE
  5
9F
330
2
100
AcDbEntity
  8
GAIKEI
  6
Continuous
 62
     1
100
AcDbLine
 10
-17.97151821841874
 20
23.30677168602588
 30
0.0
 11
-17.73759721841873
 21
23.07308043602589
 31
0.0
  0
LINE
  5
A0
330
2
100
AcDbEntity
  8
GAIKEI
  6
Continuous
 62
     1
100
AcDbLine
 10
-18.17128221841869
 20
23.10700343602591
 30
0.0
 11
-17.9375909684187
 21
22.87308243602589
 31
0.0
  0
SPLINE
  5
A1
330
2
100
AcDbEntity
  8
GAIKEI
  6
Continuous
100
AcDbSpline
210
0.0
220
0.0
230
1.0
 70
     8
 71
     3
 72
     9
 73
     5
 74
     3
 42
0.0000000001
 43
0.0000000001
 44
0.000001
 12
-0.9999883567442765
 22
-0.0048255959094992
 32
0.0
 13
-0.9289662195941573
 23
-0.3701645078244804
 33
0.0
 40
0.0
 40
0.0
 40
0.0
 40
0.0
 40
0.0006886604951545
 40
0.0013897972775219
 40
0.0013897972775219
 40
0.0013897972775219
 40
0.0013897972775219
 10
-13.66350662808838
 20
23.44039192217551
 30
0.0
 10
-13.66373617891401
 20
23.44039081444309
 30
0.0
 10
-13.66420003133548
 20
23.44033632764206
 30
0.0
 10
-13.66464449776193
 20
23.44019767244071
 30
0.0
 10
-13.66486160855731
 20
23.44011116045672
 30
0.0
 11
-13.66350662808838
 21
23.44039192217551
 31
0.0
 11
-13.66419194492471
 21
23.44031632965092
 31
0.0
 11
-13.66486160855731
 21
23.44011116045672
 31
0.0
  0
LINE
  5
A2
330
2
100
AcDbEntity
  8
GAIKEI
  6
Continuous
100
AcDbLine
 10
-18.24358471841867
 20
23.17089718602588
 30
0.0
 11
-18.24358471841867
 21
23.14089243602589
 31
0.0
  0
SPLINE
  5
A3
330
2
100
AcDbEntity
  8
GAIKEI
  6
Continuous
 62
     1
100
AcDbSpline
210
0.0
220
0.0
230
1.0
 70
     8
 71
     3
 72
     9
 73
     5
 74
     3
 42
0.0000000001
 43
0.0000000001
 44
0.000001
 12
0.4555710774664803
 22
0.8901994121409149
 32
0.0
 13
0.4548274176199876
 23
0.8905795978918074
 33
0.0
 40
0.0
 40
0.0
 40
0.0
 40
0.0
 40
0.0517793888168872
 40
0.1036079629296383
 40
0.1036079629296383
 40
0.1036079629296383
 40
0.1036079629296383
 10
-13.50968582730718
 20
23.14404182451923
 30
0.0
 10
-13.50182276332255
 20
23.1594064850145
 30
0.0
 10
-13.48609273489892
 20
23.19015222754014
 30
0.0
 10
-13.47037554406467
 20
23.2209045361113
 30
0.0
 10
-13.46251785855713
 20
23.23629035967551
 30
0.0
 11
-13.50968582730718
 21
23.14404182451923
 31
0.0
 11
-13.48610340680886
 21
23.19013927000722
 31
0.0
 11
-13.46251785855713
 21
23.23629035967551
 31
0.0
  0
LINE
  5
A4
330
2
100
AcDbEntity
  8
GAIKEI
  6
Continuous
100
AcDbLine
 10
-18.76398271841878
 20
23.17089718602588
 30
0.0
 11
-18.79552571841862
 21
23.17089718602588
 31
0.0
  0
LINE
  5
A5
330
2
100
AcDbEntity
  8
GAIKEI
  6
Continuous
100
AcDbLine
 10
-18.76398271841878
 20
23.17089718602588
 30
0.0
 11
-18.74564771841881
 21
23.17089718602588
 31
0.0
  0
LINE
  5
A6
330
2
100
AcDbEntity
  8
GAIKEI
  6
Continuous
100
AcDbLine
 10
-18.74564771841881
 20
23.17089718602588
 30
0.0
 11
-18.20631671841863
 21
23.17089718602588
 31
0.0
  0
LINE
  5
A7
330
2
100
AcDbEntity
  8
GAIKEI
  6
Continuous
 62
     1
100
AcDbLine
 10
-18.22616521841871
 20
23.14089243602589
 30
0.0
 11
-18.76306721841854
 21
23.14089243602589
 31
0.0
  0
LINE
  5
A8
330
2
100
AcDbEntity
  8
GAIKEI
  6
Continuous
100
AcDbLine
 10
-18.79553696841879
 20
23.17089793602591
 30
0.0
 11
-18.80863896841868
 21
22.72089343602587
 31
0.0
  0
LINE
  5
A9
330
2
100
AcDbEntity
  8
GAIKEI
  6
Continuous
 62
     1
100
AcDbLine
 10
-18.21371421841866
 20
22.71312143602589
 30
0.0
 11
-18.77551846841868
 21
22.71312143602589
 31
0.0
  0
LINE
  5
AA
330
2
100
AcDbEntity
  8
GAIKEI
  6
Continuous
 62
     1
100
AcDbLine
 10
-18.7630589684187
 20
23.14089993602587
 30
0.0
 11
-18.77551371841866
 21
22.71312693602587
 31
0.0
  0
LINE
  5
AB
330
2
100
AcDbEntity
  8
GAIKEI
100
AcDbLine
 10
11.24439928159313
 20
-3.947988740493058
 30
0.0
 11
12.22868448878228
 21
-4.04860348957689
 31
0.0
  0
LINE
  5
AC
330
2
100
AcDbEntity
  8
GAIKEI
100
AcDbLine
 10
12.22868448878228
 20
-4.04860348957689
 30
0.0
 11
13.2190287270638
 21
-4.051423313795595
 31
0.0
  0
LINE
  5
AD
330
2
100
AcDbEntity
  8
GAIKEI
100
AcDbLine
 10
13.26939506058181
 20
-3.997211813974131
 30
0.0
 11
13.2190287270638
 21
-4.051423313795595
 31
0.0
  0
LINE
  5
AE
330
2
100
AcDbEntity
  8
GAIKEI
100
AcDbLine
 10
15.3425443280189
 20
-0.4312184292598717
 30
0.0
 11
13.38624804314463
 21
-2.764481326885941
 31
0.0
  0
ARC
  5
AF
330
2
100
AcDbEntity
  8
GAIKEI
100
AcDbCircle
 10
13.76939506058181
 20
-3.085726347125897
 30
0.0
 40
0.5
100
AcDbArc
 50
140.0222528634263
 51
180.0
  0
ARC
  5
B0
330
2
100
AcDbEntity
  8
GAIKEI
100
AcDbCircle
 10
14.95939731058172
 20
-0.1099734090199149
 30
0.0
 40
0.5
100
AcDbArc
 50
320.0222528634265
 51
0.0
  0
LINE
  5
B1
330
2
100
AcDbEntity
  8
GAIKEI
100
AcDbLine
 10
15.19678751612616
 20
-0.1758984114518682
 30
0.0
 11
14.8396341958138
 21
-0.2958691145768455
 31
0.0
  0
ARC
  5
B2
330
2
100
AcDbEntity
  8
GAIKEI
100
AcDbCircle
 10
15.12889192058139
 20
0.1704359931049737
 30
0.0
 40
0.3529268078144859
100
AcDbArc
 50
281.0916342477211
 51
339.4669884400839
  0
LINE
  5
B3
330
2
100
AcDbEntity
  8
GAIKEI
100
AcDbLine
 10
14.8396341958138
 20
-0.2958691145768455
 30
0.0
 11
12.23676556058183
 21
-2.684807533924014
 31
0.0
  0
LINE
  5
B4
330
2
100
AcDbEntity
  8
GAIKEI
100
AcDbLine
 10
14.8396341958138
 20
19.68763923662857
 30
0.0
 11
12.23676556058183
 21
22.07657765597573
 31
0.0
  0
ARC
  5
B5
330
2
100
AcDbEntity
  8
GAIKEI
100
AcDbCircle
 10
15.12889192058139
 20
19.22133412894675
 30
0.0
 40
0.3529268078144859
100
AcDbArc
 50
20.53301155991607
 51
78.90836575227895
  0
LINE
  5
B6
330
2
100
AcDbEntity
  8
GAIKEI
100
AcDbLine
 10
15.19678751612616
 20
19.56766853350359
 30
0.0
 11
14.8396341958138
 21
19.68763923662857
 31
0.0
  0
ARC
  5
B7
330
2
100
AcDbEntity
  8
GAIKEI
100
AcDbCircle
 10
14.95939731058172
 20
19.50174353107164
 30
0.0
 40
0.5
100
AcDbArc
 50
0.0
 51
39.97774713657351
  0
ARC
  5
B8
330
2
100
AcDbEntity
  8
GAIKEI
100
AcDbCircle
 10
13.76939506058181
 20
22.47749646917762
 30
0.0
 40
0.5
100
AcDbArc
 50
180.0
 51
219.9777471365737
  0
LINE
  5
B9
330
2
100
AcDbEntity
  8
GAIKEI
100
AcDbLine
 10
15.3425443280189
 20
19.82298855131159
 30
0.0
 11
13.38624804314463
 21
22.15625144893767
 31
0.0
  0
LINE
  5
BA
330
2
100
AcDbEntity
  8
GAIKEI
100
AcDbLine
 10
13.26939506058181
 20
23.38898193602586
 30
0.0
 11
13.2190287270638
 21
23.44319343584732
 31
0.0
  0
LINE
  5
BB
330
2
100
AcDbEntity
  8
GAIKEI
100
AcDbLine
 10
12.22868448878228
 20
23.44037361162861
 30
0.0
 11
13.2190287270638
 21
23.44319343584732
 31
0.0
  0
LINE
  5
BC
330
2
100
AcDbEntity
  8
GAIKEI
100
AcDbLine
 10
11.24439928159313
 20
23.33975886254478
 30
0.0
 11
12.22868448878228
 21
23.44037361162861
 31
0.0
  0
SPLINE
  5
BD
330
2
100
AcDbEntity
  8
GAIKEI
  6
Continuous
100
AcDbSpline
210
0.0
220
0.0
230
1.0
 70
     8
 71
     3
 72
     9
 73
     5
 74
     3
 42
0.0000000001
 43
0.0000000001
 44
0.000001
 12
0.6535156864074856
 22
-0.7569129722889898
 32
0.0
 13
0.641560766438372
 23
-0.7670722149621957
 33
0.0
 40
0.0
 40
0.0
 40
0.0
 40
0.0
 40
0.0011430106086611
 40
0.0022866783576987
 40
0.0022866783576987
 40
0.0022866783576987
 40
0.0022866783576987
 10
15.28123575831375
 20
19.8961109163161
 30
0.0
 10
15.28148475010124
 20
19.89582252979705
 30
0.0
 10
15.28197878174328
 20
19.89524205479658
 30
0.0
 10
15.28246823164242
 20
19.89465773609846
 30
0.0
 10
15.28271280909496
 20
19.89436531084732
 30
0.0
 11
15.28123575831375
 21
19.8961109163161
 31
0.0
 11
15.28197749902586
 21
19.89524125220867
 31
0.0
 11
15.28271280909496
 21
19.89436531084732
 31
0.0
  0
LINE
  5
BE
330
2
100
AcDbEntity
  8
GAIKEI
  6
Continuous
100
AcDbLine
 10
13.26939506058181
 20
22.47749646917762
 30
0.0
 11
13.26939506058181
 21
23.38898193602586
 31
0.0
  0
LINE
  5
BF
330
2
100
AcDbEntity
  8
GAIKEI
  6
Continuous
100
AcDbLine
 10
11.06939506058177
 20
23.06087775113207
 30
0.0
 11
11.24439928159313
 21
23.33975886254478
 31
0.0
  0
LINE
  5
C0
330
2
100
AcDbEntity
  8
GAIKEI
  6
Continuous
100
AcDbLine
 10
15.45939731058172
 20
19.34512218602583
 30
0.0
 11
15.45939731058172
 21
19.40834243602586
 31
0.0
  0
TEXT
  5
C1
330
2
100
AcDbEntity
  8
MOJI1
100
AcDbText
 10
-60.02219303564015
 20
-37.01833037928555
 30
0.0
 40
3.0
  1
インピーダンス
100
AcDbText
  0
LINE
  5
C2
330
2
100
AcDbEntity
  8
WAKU
 62
     4
100
AcDbLine
 10
62.47780696435961
 20
-58.01833037928553
 30
0.0
 11
-62.52219303564015
 21
-58.01833037928553
 31
0.0
  0
LINE
  5
C4
330
2
100
AcDbEntity
  8
WAKU
 62
     1
100
AcDbLine
 10
-62.52219303564015
 20
-53.01833037928553
 30
0.0
 11
62.47780696435961
 21
-53.01833037928553
 31
0.0
  0
LINE
  5
C5
330
2
100
AcDbEntity
  8
WAKU
 62
     1
100
AcDbLine
 10
-62.52219303564015
 20
-48.01833037928553
 30
0.0
 11
62.47780696435961
 21
-48.01833037928553
 31
0.0
  0
LINE
  5
C6
330
2
100
AcDbEntity
  8
WAKU
 62
     1
100
AcDbLine
 10
-62.52219303564015
 20
-33.01833037928555
 30
0.0
 11
62.47780696435961
 21
-33.01833037928555
 31
0.0
  0
LINE
  5
C7
330
2
100
AcDbEntity
  8
WAKU
 62
     1
100
AcDbLine
 10
-62.52219303564015
 20
-28.01833037928555
 30
0.0
 11
62.47780696435961
 21
-28.01833037928555
 31
0.0
  0
LINE
  5
C8
330
2
100
AcDbEntity
  8
WAKU
 62
     4
100
AcDbLine
 10
-62.52219303564015
 20
-23.01833037928554
 30
0.0
 11
62.47780696435961
 21
-23.01833037928554
 31
0.0
  0
LINE
  5
C9
330
2
100
AcDbEntity
  8
WAKU
 62
     1
100
AcDbLine
 10
-62.52219303564015
 20
-43.01833037928553
 30
0.0
 11
62.47780696435961
 21
-43.01833037928553
 31
0.0
  0
LINE
  5
CA
330
2
100
AcDbEntity
  8
WAKU
 62
     1
100
AcDbLine
 10
-62.52219303564015
 20
-38.01833037928555
 30
0.0
 11
62.47780696435961
 21
-38.01833037928555
 31
0.0
  0
LINE
  5
CB
330
2
100
AcDbEntity
  8
WAKU
 62
     4
100
AcDbLine
 10
-62.52219303564038
 20
-23.01833037928554
 30
0.0
 11
-62.52219303564015
 21
-58.01833037928553
 31
0.0
  0
TEXT
  5
CC
330
2
100
AcDbEntity
  8
MOJI1
100
AcDbText
 10
-60.02219303564015
 20
-42.01833037928554
 30
0.0
 40
3.0
  1
その他
100
AcDbText
  0
TEXT
  5
CD
330
2
100
AcDbEntity
  8
MOJI1
100
AcDbText
 10
-60.02219303564015
 20
-32.01833037928555
 30
0.0
 40
3.0
  1
定格入力
100
AcDbText
  0
TEXT
  5
CE
330
2
100
AcDbEntity
  8
MOJI1
100
AcDbText
 10
-60.02219303564015
 20
-27.01833037928555
 30
0.0
 40
3.0
  1
形  式
100
AcDbText
  0
TEXT
  5
CF
330
2
100
AcDbEntity
  8
MOJI1
100
AcDbText
 10
-20.02219303564038
 20
-42.01833037928554
 30
0.0
 40
3.0
  1
スピーカの定格は１本当たりの値です
100
AcDbText
  0
TEXT
  5
D0
330
2
100
AcDbEntity
  8
MOJI1
100
AcDbText
 10
-20.02219303564038
 20
-27.01833037928555
 30
0.0
 40
3.0
  1
２ウェイ  ３スピーカ  密閉型
100
AcDbText
  0
LINE
  5
D1
330
2
100
AcDbEntity
  8
WAKU
 62
     4
100
AcDbLine
 10
-22.52219303564038
 20
-23.01833037928554
 30
0.0
 11
-22.52219303564038
 21
-58.01833037928553
 31
0.0
  0
TEXT
  5
D2
330
2
100
AcDbEntity
  8
MOJI1
100
AcDbText
 10
-20.02219303564038
 20
-37.01833037928555
 30
0.0
 40
3.0
  1
６Ω
100
AcDbText
  0
TEXT
  5
D3
330
2
100
AcDbEntity
  8
MOJI1
100
AcDbText
 10
-20.02219303564038
 20
-32.01833037928555
 30
0.0
 40
3.0
  1
８Ｗ
100
AcDbText
  0
LINE
  5
D4
330
2
100
AcDbEntity
  8
WAKU
 62
     4
100
AcDbLine
 10
62.47780696435961
 20
-23.01833037928554
 30
0.0
 11
62.47780696435961
 21
-58.01833037928553
 31
0.0
  0
ENDSEC
  0
SECTION
  2
OBJECTS
  0
DICTIONARY
  5
9
330
0
100
AcDbDictionary
281
     1
  3
ACAD_COLOR
350
30
  3
ACAD_GROUP
350
2C
  3
ACAD_LAYOUT
350
D
  3
ACAD_MATERIAL
350
2F
  3
ACAD_MLINESTYLE
350
2D
  3
ACAD_PLOTSETTINGS
350
2E
  3
ACAD_PLOTSTYLENAME
350
8
  3
ACDBHEADERROUNDTRIPXREC
350
11E
  3
AcDbVariableDictionary
350
F7
  0
DICTIONARY
  5
15
330
14
100
AcDbDictionary
280
     1
281
     1
  3
ACAD_LAYERFILTERS
360
16
  0
DICTIONARY
  5
3
330
2
100
AcDbDictionary
280
     1
281
     1
  3
ACAD_LAYOUTSELFREF
360
4
  0
DICTIONARY
  5
F
330
E
100
AcDbDictionary
280
     1
281
     1
  3
ACAD_LAYOUTSELFREF
360
10
  0
DICTIONARY
  5
30
102
{ACAD_REACTORS
330
9
102
}
330
9
100
AcDbDictionary
281
     1
  0
DICTIONARY
  5
2C
102
{ACAD_REACTORS
330
9
102
}
330
9
100
AcDbDictionary
281
     1
  0
DICTIONARY
  5
D
102
{ACAD_REACTORS
330
9
102
}
330
9
100
AcDbDictionary
281
     1
  3
Model
350
C
  3
ﾚｲｱｳﾄ1
350
13
  0
DICTIONARY
  5
2F
102
{ACAD_REACTORS
330
9
102
}
330
9
100
AcDbDictionary
281
     1
  0
DICTIONARY
  5
2D
102
{ACAD_REACTORS
330
9
102
}
330
9
100
AcDbDictionary
281
     1
  3
STANDARD
350
32
  0
DICTIONARY
  5
2E
102
{ACAD_REACTORS
330
9
102
}
330
9
100
AcDbDictionary
281
     1
  0
ACDBDICTIONARYWDFLT
  5
8
102
{ACAD_REACTORS
330
9
102
}
330
9
100
AcDbDictionary
281
     1
  3
Normal
350
7
100
AcDbDictionaryWithDefault
340
7
  0
DICTIONARY
  5
11E
102
{ACAD_REACTORS
330
9
102
}
330
9
100
AcDbDictionary
281
     1
  3
COLORDICT
350
120
  3
MATERIALDICT
350
11F
  0
DICTIONARY
  5
F7
102
{ACAD_REACTORS
330
9
102
}
330
9
100
AcDbDictionary
281
     1
  3
DIMASSOC
350
F9
  3
HIDETEXT
350
F8
  3
PROJECTNAME
350
FA
  0
DICTIONARY
  5
16
102
{ACAD_REACTORS
330
15
102
}
330
15
100
AcDbDictionary
280
     1
281
     1
  0
XRECORD
  5
4
102
{ACAD_REACTORS
330
3
102
}
330
3
100
AcDbXrecord
280
     1
340
2
  0
XRECORD
  5
10
102
{ACAD_REACTORS
330
F
102
}
330
F
100
AcDbXrecord
280
     1
340
E
  0
LAYOUT
  5
C
102
{ACAD_XDICTIONARY
360
121
102
}
102
{ACAD_REACTORS
330
D
102
}
330
D
100
AcDbPlotSettings
  1

  2
\\MARS\NX800A(RPDL)
  4
A4
  6

 40
5.831416606903076
 41
4.942422866821289
 42
7.609405517578125
 43
5.789093017578125
 44
209.9733276367186
 45
296.9683227539062
 46
4.23
 47
0.0
 48
0.0
 49
0.0
140
0.0
141
0.0
142
1.0
143
1.377557041813
 70
 11956
 72
     1
 73
     0
 74
     1
  7
tmsacad.ctb
 75
     0
147
0.7259227528494222
148
0.5228791232484547
149
0.0333900090324306
100
AcDbLayout
  1
Model
 70
     1
 71
     0
 10
0.0
 20
0.0
 11
12.0
 21
9.0
 12
0.0
 22
0.0
 32
0.0
 14
0.0
 24
0.0
 34
0.0
 15
0.0
 25
0.0
 35
0.0
146
0.0
 13
0.0
 23
0.0
 33
0.0
 16
1.0
 26
0.0
 36
0.0
 17
0.0
 27
1.0
 37
0.0
 76
     0
330
2
  0
LAYOUT
  5
13
102
{ACAD_XDICTIONARY
360
123
102
}
102
{ACAD_REACTORS
330
D
102
}
330
D
100
AcDbPlotSettings
  1

  2
C:\Program Files\ACAD2000\plotters\DWF ePlot.pc3
  4

  6

 40
0.0
 41
0.0
 42
0.0
 43
0.0
 44
0.0
 45
0.0
 46
0.0
 47
0.0
 48
0.0
 49
0.0
140
0.0
141
0.0
142
1.0
143
1.0
 70
   688
 72
     0
 73
     0
 74
     5
  7
tmsacad.ctb
 75
    16
147
1.0
148
0.0
149
0.0
100
AcDbLayout
  1
ﾚｲｱｳﾄ1
 70
     1
 71
     1
 10
0.0
 20
0.0
 11
12.0
 21
9.0
 12
0.0
 22
0.0
 32
0.0
 14
1.000000000000000E+20
 24
1.000000000000000E+20
 34
1.000000000000000E+20
 15
-1.000000000000000E+20
 25
-1.000000000000000E+20
 35
-1.000000000000000E+20
146
0.0
 13
0.0
 23
0.0
 33
0.0
 16
1.0
 26
0.0
 36
0.0
 17
0.0
 27
1.0
 37
0.0
 76
     0
330
E
  0
MLINESTYLE
  5
32
102
{ACAD_REACTORS
330
2D
102
}
330
2D
100
AcDbMlineStyle
  2
STANDARD
 70
     0
  3

 62
   256
 51
90.0
 52
90.0
 71
     2
 49
0.5
 62
   256
  6
BYLAYER
 49
-0.5
 62
   256
  6
BYLAYER
  0
ACDBPLACEHOLDER
  5
7
102
{ACAD_REACTORS
330
8
102
}
330
8
  0
XRECORD
  5
120
102
{ACAD_REACTORS
330
11E
102
}
330
11E
100
AcDbXrecord
280
     1
340
30
  0
XRECORD
  5
11F
102
{ACAD_REACTORS
330
11E
102
}
330
11E
100
AcDbXrecord
280
     1
340
2F
  0
DICTIONARYVAR
  5
F9
102
{ACAD_REACTORS
330
F7
102
}
330
F7
100
DictionaryVariables
280
     0
  1
1
  0
DICTIONARYVAR
  5
F8
102
{ACAD_REACTORS
330
F7
102
}
330
F7
100
DictionaryVariables
280
     0
  1
1
  0
DICTIONARYVAR
  5
FA
102
{ACAD_REACTORS
330
F7
102
}
330
F7
100
DictionaryVariables
280
     0
  1

  0
DICTIONARY
  5
121
330
C
100
AcDbDictionary
280
     1
281
     1
  3
ACAD_XREC_ROUNDTRIP
360
122
  0
DICTIONARY
  5
123
330
13
100
AcDbDictionary
280
     1
281
     1
  3
ACAD_XREC_ROUNDTRIP
360
124
  0
XRECORD
  5
122
102
{ACAD_REACTORS
330
121
102
}
330
121
100
AcDbXrecord
280
     1
102
SHADEPLOT
 70
     0
102
SHADEPLOTRESLEVEL
 70
     2
102
SHADEPLOTCUSTOMDPI
 70
   300
  0
XRECORD
  5
124
102
{ACAD_REACTORS
330
123
102
}
330
123
100
AcDbXrecord
280
     1
102
SHADEPLOT
 70
     0
102
SHADEPLOTRESLEVEL
 70
     2
102
SHADEPLOTCUSTOMDPI
 70
   300
  0
ENDSEC
  0
EOF
