  0
SECTION
  2
HEADER
  9
$ACADVER
  1
AC1015
  9
$ACADMAINTVER
 70
    20
  9
$DWGCODEPAGE
  3
ANSI_932
  9
$INSBASE
 10
0.0
 20
120.4992141396419
 30
0.0
  9
$EXTMIN
 10
-61.64278194095095
 20
-60.66003931277919
 30
-0.0000000349181948
  9
$EXTMAX
 10
63.44519608556357
 20
52.50295348452983
 30
0.0000000814935747
  9
$LIMMIN
 10
-1101.784450318844
 20
-1579.160531687244
  9
$LIMMAX
 10
-508.2420711400536
 20
-1161.440814074914
  9
$ORTHOMODE
 70
     1
  9
$REGENMODE
 70
     1
  9
$FILLMODE
 70
     1
  9
$QTEXTMODE
 70
     0
  9
$MIRRTEXT
 70
     1
  9
$LTSCALE
 40
1.0
  9
$ATTMODE
 70
     1
  9
$TEXTSIZE
 40
2.5
  9
$TRACEWID
 40
0.5
  9
$TEXTSTYLE
  7
STANDARD
  9
$CLAYER
  8
GAIKEI
  9
$CELTYPE
  6
BYLAYER
  9
$CECOLOR
 62
   256
  9
$CELTSCALE
 40
1.0
  9
$DISPSILH
 70
     0
  9
$DIMSCALE
 40
1.0
  9
$DIMASZ
 40
2.0
  9
$DIMEXO
 40
2.0
  9
$DIMDLI
 40
8.0
  9
$DIMRND
 40
0.0
  9
$DIMDLE
 40
0.0
  9
$DIMEXE
 40
2.0
  9
$DIMTP
 40
0.0
  9
$DIMTM
 40
0.0
  9
$DIMTXT
 40
2.5
  9
$DIMCEN
 40
0.0
  9
$DIMTSZ
 40
0.0
  9
$DIMTOL
 70
     0
  9
$DIMLIM
 70
     0
  9
$DIMTIH
 70
     0
  9
$DIMTOH
 70
     0
  9
$DIMSE1
 70
     0
  9
$DIMSE2
 70
     0
  9
$DIMTAD
 70
     3
  9
$DIMZIN
 70
     0
  9
$DIMBLK
  1

  9
$DIMASO
 70
     1
  9
$DIMSHO
 70
     1
  9
$DIMPOST
  1

  9
$DIMAPOST
  1

  9
$DIMALT
 70
     0
  9
$DIMALTD
 70
     2
  9
$DIMALTF
 40
25.4
  9
$DIMLFAC
 40
1.0
  9
$DIMTOFL
 70
     1
  9
$DIMTVP
 40
0.0
  9
$DIMTIX
 70
     0
  9
$DIMSOXD
 70
     0
  9
$DIMSAH
 70
     1
  9
$DIMBLK1
  1
OPEN30
  9
$DIMBLK2
  1
OPEN30
  9
$DIMSTYLE
  2
STANDARD
  9
$DIMCLRD
 70
     0
  9
$DIMCLRE
 70
     0
  9
$DIMCLRT
 70
     0
  9
$DIMTFAC
 40
1.0
  9
$DIMGAP
 40
0.5
  9
$DIMJUST
 70
     0
  9
$DIMSD1
 70
     0
  9
$DIMSD2
 70
     0
  9
$DIMTOLJ
 70
     1
  9
$DIMTZIN
 70
     0
  9
$DIMALTZ
 70
     0
  9
$DIMALTTZ
 70
     0
  9
$DIMUPT
 70
     0
  9
$DIMDEC
 70
     4
  9
$DIMTDEC
 70
     4
  9
$DIMALTU
 70
     2
  9
$DIMALTTD
 70
     2
  9
$DIMTXSTY
  7
STANDARD
  9
$DIMAUNIT
 70
     0
  9
$DIMADEC
 70
     0
  9
$DIMALTRND
 40
0.0
  9
$DIMAZIN
 70
     0
  9
$DIMDSEP
 70
    46
  9
$DIMATFIT
 70
     3
  9
$DIMFRAC
 70
     0
  9
$DIMLDRBLK
  1
OPEN30
  9
$DIMLUNIT
 70
     2
  9
$DIMLWD
 70
    -2
  9
$DIMLWE
 70
    -2
  9
$DIMTMOVE
 70
     0
  9
$LUNITS
 70
     2
  9
$LUPREC
 70
     4
  9
$SKETCHINC
 40
0.1
  9
$FILLETRAD
 40
0.5
  9
$AUNITS
 70
     0
  9
$AUPREC
 70
     0
  9
$MENU
  1
ACAD
  9
$ELEVATION
 40
0.0
  9
$PELEVATION
 40
0.0
  9
$THICKNESS
 40
0.0
  9
$LIMCHECK
 70
     0
  9
$CHAMFERA
 40
0.0
  9
$CHAMFERB
 40
0.0
  9
$CHAMFERC
 40
0.0
  9
$CHAMFERD
 40
0.0
  9
$SKPOLY
 70
     0
  9
$TDCREATE
 40
2451815.565532581
  9
$TDUCREATE
 40
2451815.190532581
  9
$TDUPDATE
 40
2453731.733964838
  9
$TDUUPDATE
 40
2453731.358964838
  9
$TDINDWG
 40
0.5404212963
  9
$TDUSRTIMER
 40
0.5404212963
  9
$USRTIMER
 70
     1
  9
$ANGBASE
 50
0.0
  9
$ANGDIR
 70
     0
  9
$PDMODE
 70
     0
  9
$PDSIZE
 40
0.0
  9
$PLINEWID
 40
0.0
  9
$SPLFRAME
 70
     0
  9
$SPLINETYPE
 70
     6
  9
$SPLINESEGS
 70
     8
  9
$HANDSEED
  5
125
  9
$SURFTAB1
 70
     6
  9
$SURFTAB2
 70
     6
  9
$SURFTYPE
 70
     6
  9
$SURFU
 70
     6
  9
$SURFV
 70
     6
  9
$UCSBASE
  2

  9
$UCSNAME
  2

  9
$UCSORG
 10
0.0
 20
0.0
 30
0.0
  9
$UCSXDIR
 10
1.0
 20
0.0
 30
0.0
  9
$UCSYDIR
 10
0.0
 20
1.0
 30
0.0
  9
$UCSORTHOREF
  2

  9
$UCSORTHOVIEW
 70
     0
  9
$UCSORGTOP
 10
0.0
 20
0.0
 30
0.0
  9
$UCSORGBOTTOM
 10
0.0
 20
0.0
 30
0.0
  9
$UCSORGLEFT
 10
0.0
 20
0.0
 30
0.0
  9
$UCSORGRIGHT
 10
0.0
 20
0.0
 30
0.0
  9
$UCSORGFRONT
 10
0.0
 20
0.0
 30
0.0
  9
$UCSORGBACK
 10
0.0
 20
0.0
 30
0.0
  9
$PUCSBASE
  2

  9
$PUCSNAME
  2

  9
$PUCSORG
 10
0.0
 20
0.0
 30
0.0
  9
$PUCSXDIR
 10
1.0
 20
0.0
 30
0.0
  9
$PUCSYDIR
 10
0.0
 20
1.0
 30
0.0
  9
$PUCSORTHOREF
  2

  9
$PUCSORTHOVIEW
 70
     0
  9
$PUCSORGTOP
 10
0.0
 20
0.0
 30
0.0
  9
$PUCSORGBOTTOM
 10
0.0
 20
0.0
 30
0.0
  9
$PUCSORGLEFT
 10
0.0
 20
0.0
 30
0.0
  9
$PUCSORGRIGHT
 10
0.0
 20
0.0
 30
0.0
  9
$PUCSORGFRONT
 10
0.0
 20
0.0
 30
0.0
  9
$PUCSORGBACK
 10
0.0
 20
0.0
 30
0.0
  9
$USERI1
 70
     0
  9
$USERI2
 70
     0
  9
$USERI3
 70
     0
  9
$USERI4
 70
     0
  9
$USERI5
 70
     0
  9
$USERR1
 40
0.0
  9
$USERR2
 40
0.0
  9
$USERR3
 40
0.0
  9
$USERR4
 40
0.0
  9
$USERR5
 40
0.0
  9
$WORLDVIEW
 70
     1
  9
$SHADEDGE
 70
     3
  9
$SHADEDIF
 70
    70
  9
$TILEMODE
 70
     1
  9
$MAXACTVP
 70
    48
  9
$PINSBASE
 10
0.0
 20
0.0
 30
0.0
  9
$PLIMCHECK
 70
     0
  9
$PEXTMIN
 10
1.000000000000000E+20
 20
1.000000000000000E+20
 30
1.000000000000000E+20
  9
$PEXTMAX
 10
-1.000000000000000E+20
 20
-1.000000000000000E+20
 30
-1.000000000000000E+20
  9
$PLIMMIN
 10
0.0
 20
0.0
  9
$PLIMMAX
 10
12.0
 20
9.0
  9
$UNITMODE
 70
     0
  9
$VISRETAIN
 70
     1
  9
$PLINEGEN
 70
     0
  9
$PSLTSCALE
 70
     1
  9
$TREEDEPTH
 70
  3020
  9
$CMLSTYLE
  2
STANDARD
  9
$CMLJUST
 70
     0
  9
$CMLSCALE
 40
1.0
  9
$PROXYGRAPHICS
 70
     1
  9
$MEASUREMENT
 70
     0
  9
$CELWEIGHT
370
    -1
  9
$ENDCAPS
280
     0
  9
$JOINSTYLE
280
     0
  9
$LWDISPLAY
290
     0
  9
$INSUNITS
 70
     0
  9
$HYPERLINKBASE
  1

  9
$STYLESHEET
  1

  9
$XEDIT
290
     1
  9
$CEPSNTYPE
380
     0
  9
$PSTYLEMODE
290
     1
  9
$FINGERPRINTGUID
  2
{1754B7AB-9B3C-11D4-AD9E-00104B1004F2}
  9
$VERSIONGUID
  2
{BFC900EF-07E8-4FC6-AE63-B4ECA614A444}
  9
$EXTNAMES
290
     1
  9
$PSVPSCALE
 40
0.0
  9
$OLESTARTUP
290
     0
  0
ENDSEC
  0
SECTION
  2
CLASSES
  0
CLASS
  1
ACDBDICTIONARYWDFLT
  2
AcDbDictionaryWithDefault
  3
ObjectDBX Classes
 90
        0
280
     0
281
     0
  0
CLASS
  1
ACDBPLACEHOLDER
  2
AcDbPlaceHolder
  3
ObjectDBX Classes
 90
        0
280
     0
281
     0
  0
CLASS
  1
LAYOUT
  2
AcDbLayout
  3
ObjectDBX Classes
 90
        0
280
     0
281
     0
  0
CLASS
  1
DICTIONARYVAR
  2
AcDbDictionaryVar
  3
ObjectDBX Classes
 90
        0
280
     0
281
     0
  0
ENDSEC
  0
SECTION
  2
TABLES
  0
TABLE
  2
VPORT
  5
1F
330
0
100
AcDbSymbolTable
 70
     2
  0
VPORT
  5
11D
330
1F
100
AcDbSymbolTableRecord
100
AcDbViewportTableRecord
  2
*Active
 70
     0
 10
0.0
 20
0.0
 11
1.0
 21
1.0
 12
0.901207072306299
 22
-4.078542914124682
 13
0.0
 23
0.0
 14
1.0
 24
1.0
 15
0.0
 25
0.0
 16
0.0
 26
0.0
 36
1.0
 17
0.0
 27
0.0
 37
0.0
 40
114.1329613070002
 41
1.589413447782546
 42
50.0
 43
0.0
 44
0.0
 50
0.0
 51
0.0
 71
     0
 72
  1000
 73
     1
 74
     0
 75
     0
 76
     1
 77
     0
 78
     0
281
     0
 65
     1
110
0.0
120
0.0
130
0.0
111
1.0
121
0.0
131
0.0
112
0.0
122
1.0
132
0.0
 79
     0
146
0.0
  0
ENDTAB
  0
TABLE
  2
LTYPE
  5
1A
330
0
100
AcDbSymbolTable
 70
     1
  0
LTYPE
  5
1B
330
1A
100
AcDbSymbolTableRecord
100
AcDbLinetypeTableRecord
  2
BYBLOCK
 70
     0
  3

 72
    65
 73
     0
 40
0.0
  0
LTYPE
  5
1C
330
1A
100
AcDbSymbolTableRecord
100
AcDbLinetypeTableRecord
  2
BYLAYER
 70
     0
  3

 72
    65
 73
     0
 40
0.0
  0
LTYPE
  5
A
330
1A
100
AcDbSymbolTableRecord
100
AcDbLinetypeTableRecord
  2
CONTINUOUS
 70
     0
  3
Solid line
 72
    65
 73
     0
 40
0.0
  0
ENDTAB
  0
TABLE
  2
LAYER
  5
14
102
{ACAD_XDICTIONARY
360
15
102
}
330
0
100
AcDbSymbolTable
 70
     7
  0
LAYER
  5
6
330
14
100
AcDbSymbolTableRecord
100
AcDbLayerTableRecord
  2
0
 70
     0
 62
     7
  6
CONTINUOUS
370
    -3
390
7
  0
LAYER
  5
6B
330
14
100
AcDbSymbolTableRecord
100
AcDbLayerTableRecord
  2
DEFPOINTS
 70
     0
 62
     7
  6
CONTINUOUS
290
     0
370
    -3
390
7
  0
LAYER
  5
C3
330
14
100
AcDbSymbolTableRecord
100
AcDbLayerTableRecord
  2
WAKU
 70
     0
 62
     4
  6
CONTINUOUS
370
    -3
390
7
  0
LAYER
  5
34
330
14
100
AcDbSymbolTableRecord
100
AcDbLayerTableRecord
  2
MOJI1
 70
     0
 62
     2
  6
CONTINUOUS
370
    -3
390
7
  0
LAYER
  5
31
330
14
100
AcDbSymbolTableRecord
100
AcDbLayerTableRecord
  2
GAIKEI
 70
     0
 62
     7
  6
CONTINUOUS
370
    -3
390
7
  0
LAYER
  5
C0
330
14
100
AcDbSymbolTableRecord
100
AcDbLayerTableRecord
  2
TOUROKU
 70
     0
 62
     1
  6
CONTINUOUS
370
    -3
390
7
  0
LAYER
  5
60
330
14
100
AcDbSymbolTableRecord
100
AcDbLayerTableRecord
  2
SUNPO
 70
     0
 62
     3
  6
CONTINUOUS
370
    -3
390
7
  0
ENDTAB
  0
TABLE
  2
STYLE
  5
17
330
0
100
AcDbSymbolTable
 70
     1
  0
STYLE
  5
18
330
17
100
AcDbSymbolTableRecord
100
AcDbTextStyleTableRecord
  2
STANDARD
 70
     0
 40
0.0
 41
1.0
 50
0.0
 71
     0
 42
2.5
  3
MONOTXT.shx
  4
BIGFONT.shx
  0
ENDTAB
  0
TABLE
  2
VIEW
  5
1D
330
0
100
AcDbSymbolTable
 70
     0
  0
ENDTAB
  0
TABLE
  2
UCS
  5
1E
330
0
100
AcDbSymbolTable
 70
     0
  0
ENDTAB
  0
TABLE
  2
APPID
  5
21
330
0
100
AcDbSymbolTable
 70
     1
  0
APPID
  5
22
330
21
100
AcDbSymbolTableRecord
100
AcDbRegAppTableRecord
  2
ACAD
 70
     0
  0
ENDTAB
  0
TABLE
  2
DIMSTYLE
  5
23
330
0
100
AcDbSymbolTable
 70
     1
100
AcDbDimStyleTable
 71
     1
340
24
  0
DIMSTYLE
105
24
102
{ACAD_REACTORS
330
6F
330
5F
102
}
330
23
100
AcDbSymbolTableRecord
100
AcDbDimStyleTableRecord
  2
STANDARD
 70
     0
 40
0.0
 41
2.0
 42
2.0
 43
8.0
 44
2.0
 73
     0
 74
     0
 77
     3
140
3.0
141
0.0
173
     1
279
     2
288
     1
340
18
341
25
343
25
344
25
  0
ENDTAB
  0
TABLE
  2
BLOCK_RECORD
  5
1
330
0
100
AcDbSymbolTable
 70
     5
  0
BLOCK_RECORD
  5
2
102
{ACAD_XDICTIONARY
360
3
102
}
330
1
100
AcDbSymbolTableRecord
100
AcDbBlockTableRecord
  2
*MODEL_SPACE
340
C
  0
BLOCK_RECORD
  5
E
102
{ACAD_XDICTIONARY
360
F
102
}
330
1
100
AcDbSymbolTableRecord
100
AcDbBlockTableRecord
  2
*PAPER_SPACE
340
13
  0
BLOCK_RECORD
  5
25
330
1
100
AcDbSymbolTableRecord
100
AcDbBlockTableRecord
  2
_OPEN30
340
0
102
{BLKREFS
331
81
331
82
331
67
331
68
331
77
331
78
331
10D
331
10E
331
117
331
118
102
}
  0
BLOCK_RECORD
  5
DC
330
1
100
AcDbSymbolTableRecord
100
AcDbBlockTableRecord
  2
*D3
340
0
  0
BLOCK_RECORD
  5
EA
330
1
100
AcDbSymbolTableRecord
100
AcDbBlockTableRecord
  2
*D4
340
0
  0
ENDTAB
  0
ENDSEC
  0
SECTION
  2
BLOCKS
  0
BLOCK
  5
5
330
2
100
AcDbEntity
  8
0
100
AcDbBlockBegin
  2
*MODEL_SPACE
 70
     0
 10
0.0
 20
0.0
 30
0.0
  3
*MODEL_SPACE
  1

  0
ENDBLK
  5
B
330
2
100
AcDbEntity
  8
0
100
AcDbBlockEnd
  0
BLOCK
  5
11
330
E
100
AcDbEntity
 67
     1
  8
0
100
AcDbBlockBegin
  2
*PAPER_SPACE
 70
     0
 10
0.0
 20
0.0
 30
0.0
  3
*PAPER_SPACE
  1

  0
ENDBLK
  5
12
330
E
100
AcDbEntity
 67
     1
  8
0
100
AcDbBlockEnd
  0
BLOCK
  5
26
330
25
100
AcDbEntity
  8
0
100
AcDbBlockBegin
  2
_OPEN30
 70
     0
 10
0.0
 20
0.0
 30
0.0
  3
_OPEN30
  1

  0
LINE
  5
27
330
25
100
AcDbEntity
  8
0
  6
ByBlock
 62
     0
100
AcDbLine
 10
-1.0
 20
0.26794919
 30
0.0
 11
0.0
 21
0.0
 31
0.0
  0
LINE
  5
28
330
25
100
AcDbEntity
  8
0
  6
ByBlock
 62
     0
100
AcDbLine
 10
0.0
 20
0.0
 30
0.0
 11
-1.0
 21
-0.26794919
 31
0.0
  0
LINE
  5
29
330
25
100
AcDbEntity
  8
0
  6
ByBlock
 62
     0
100
AcDbLine
 10
0.0
 20
0.0
 30
0.0
 11
-1.0
 21
0.0
 31
0.0
  0
ENDBLK
  5
2A
330
25
100
AcDbEntity
  8
0
100
AcDbBlockEnd
  0
BLOCK
  5
E8
330
DC
100
AcDbEntity
  8
0
100
AcDbBlockBegin
  2
*D3
 70
     1
 10
0.0
 20
0.0
 30
0.0
  3
*D3
  1

  0
LINE
  5
108
330
DC
100
AcDbEntity
  8
SUNPO
 62
     0
370
    -2
100
AcDbLine
 10
12.03225165769711
 20
22.61885534914992
 30
0.0
 11
12.03225165769711
 21
30.61885534914993
 31
0.0
  0
LINE
  5
109
330
DC
100
AcDbEntity
  8
SUNPO
 62
     0
370
    -2
100
AcDbLine
 10
16.4222541576971
 20
22.61885534914992
 30
0.0
 11
16.4222541576971
 21
30.61885534914993
 31
0.0
  0
LINE
  5
10A
330
DC
100
AcDbEntity
  8
SUNPO
 62
     0
370
    -2
100
AcDbLine
 10
10.03225165769711
 20
28.61885534914993
 30
0.0
 11
8.032251657697109
 21
28.61885534914993
 31
0.0
  0
LINE
  5
10B
330
DC
100
AcDbEntity
  8
SUNPO
 62
     0
370
    -2
100
AcDbLine
 10
18.4222541576971
 20
28.61885534914993
 30
0.0
 11
25.58892082436377
 21
28.61885534914993
 31
0.0
  0
LINE
  5
10C
330
DC
100
AcDbEntity
  8
SUNPO
 62
     0
370
    -2
100
AcDbLine
 10
12.03225165769711
 20
28.61885534914993
 30
0.0
 11
16.4222541576971
 21
28.61885534914993
 31
0.0
  0
INSERT
  5
10D
330
DC
100
AcDbEntity
  8
SUNPO
 62
     0
370
    -2
100
AcDbBlockReference
  2
_OPEN30
 10
12.03225165769711
 20
28.61885534914993
 30
0.0
 41
2.0
 42
2.0
 43
2.0
  0
INSERT
  5
10E
330
DC
100
AcDbEntity
  8
SUNPO
 62
     0
370
    -2
100
AcDbBlockReference
  2
_OPEN30
 10
16.4222541576971
 20
28.61885534914993
 30
0.0
 41
2.0
 42
2.0
 43
2.0
 50
180.0
  0
MTEXT
  5
10F
330
DC
100
AcDbEntity
  8
SUNPO
 62
     0
100
AcDbMText
 10
23.00558749103043
 20
30.36885534914993
 30
0.0
 40
2.5
 41
0.0
 71
     5
 72
     1
  1
\A1;88
 73
     1
 44
1.0
1001
ACAD
1000
MTEXTBEGIN
1070
    73
1070
     1
1070
    44
1040
1.0
1070
    74
1070
     0
1000
MTEXTEND
  0
POINT
  5
110
330
DC
100
AcDbEntity
  8
DEFPOINTS
 62
     0
100
AcDbPoint
 10
12.03225165769711
 20
20.61885534914992
 30
0.0
  0
POINT
  5
111
330
DC
100
AcDbEntity
  8
DEFPOINTS
 62
     0
100
AcDbPoint
 10
16.4222541576971
 20
20.61885534914992
 30
0.0
  0
POINT
  5
112
330
DC
100
AcDbEntity
  8
DEFPOINTS
 62
     0
100
AcDbPoint
 10
16.4222541576971
 20
28.61885534914993
 30
0.0
  0
ENDBLK
  5
E9
330
DC
100
AcDbEntity
  8
0
100
AcDbBlockEnd
  0
BLOCK
  5
F5
330
EA
100
AcDbEntity
  8
0
100
AcDbBlockBegin
  2
*D4
 70
     1
 10
0.0
 20
0.0
 30
0.0
  3
*D4
  1

  0
LINE
  5
113
330
EA
100
AcDbEntity
  8
SUNPO
 62
     0
370
    -2
100
AcDbLine
 10
-17.85139437130325
 20
22.61885534914992
 30
0.0
 11
-17.85139437130325
 21
30.61885534914993
 31
0.0
  0
LINE
  5
114
330
EA
100
AcDbEntity
  8
SUNPO
 62
     0
370
    -2
100
AcDbLine
 10
-12.49966187130346
 20
22.61885534914992
 30
0.0
 11
-12.49966187130346
 21
30.61885534914993
 31
0.0
  0
LINE
  5
115
330
EA
100
AcDbEntity
  8
SUNPO
 62
     0
370
    -2
100
AcDbLine
 10
-15.85139437130325
 20
28.61885534914993
 30
0.0
 11
-14.49966187130346
 21
28.61885534914993
 31
0.0
  0
LINE
  5
116
330
EA
100
AcDbEntity
  8
SUNPO
 62
     0
370
    -2
100
AcDbLine
 10
-12.49966187130346
 20
28.61885534914993
 30
0.0
 11
-2.832995204636794
 21
28.61885534914993
 31
0.0
  0
INSERT
  5
117
330
EA
100
AcDbEntity
  8
SUNPO
 62
     0
370
    -2
100
AcDbBlockReference
  2
_OPEN30
 10
-17.85139437130325
 20
28.61885534914993
 30
0.0
 41
2.0
 42
2.0
 43
2.0
 50
180.0
  0
INSERT
  5
118
330
EA
100
AcDbEntity
  8
SUNPO
 62
     0
370
    -2
100
AcDbBlockReference
  2
_OPEN30
 10
-12.49966187130346
 20
28.61885534914993
 30
0.0
 41
2.0
 42
2.0
 43
2.0
  0
MTEXT
  5
119
330
EA
100
AcDbEntity
  8
SUNPO
 62
     0
100
AcDbMText
 10
-6.666328537970127
 20
30.36885534914993
 30
0.0
 40
2.5
 41
0.0
 71
     5
 72
     1
  1
\A1;107
 73
     1
 44
1.0
1001
ACAD
1000
MTEXTBEGIN
1070
    73
1070
     1
1070
    44
1040
1.0
1070
    74
1070
     0
1000
MTEXTEND
  0
POINT
  5
11A
330
EA
100
AcDbEntity
  8
DEFPOINTS
 62
     0
100
AcDbPoint
 10
-17.85139437130325
 20
20.61885534914992
 30
0.0
  0
POINT
  5
11B
330
EA
100
AcDbEntity
  8
DEFPOINTS
 62
     0
100
AcDbPoint
 10
-12.49966187130346
 20
20.61885534914992
 30
0.0
  0
POINT
  5
11C
330
EA
100
AcDbEntity
  8
DEFPOINTS
 62
     0
100
AcDbPoint
 10
-12.49966187130346
 20
28.61885534914993
 30
0.0
  0
ENDBLK
  5
F6
330
EA
100
AcDbEntity
  8
0
100
AcDbBlockEnd
  0
ENDSEC
  0
SECTION
  2
ENTITIES
  0
TEXT
  5
33
330
2
100
AcDbEntity
  8
MOJI1
100
AcDbText
 10
-34.55933643852507
 20
48.46164451836742
 30
0.0
 40
4.0
  1
スピーカ
100
AcDbText
  0
LINE
  5
35
330
2
100
AcDbEntity
  8
GAIKEI
  6
Continuous
 62
     1
100
AcDbLine
 10
-17.80020237130336
 20
-7.771846541317472
 30
0.0
 11
-17.81265712130332
 21
-7.344073541317469
 31
0.0
  0
LINE
  5
36
330
2
100
AcDbEntity
  8
GAIKEI
  6
Continuous
 62
     1
100
AcDbLine
 10
-17.25085762130331
 20
-7.344068041317482
 30
0.0
 11
-17.81266187130333
 21
-7.344068041317482
 31
0.0
  0
LINE
  5
37
330
2
100
AcDbEntity
  8
GAIKEI
  6
Continuous
100
AcDbLine
 10
-17.83268037130344
 20
-7.801844541317508
 30
0.0
 11
-17.84578237130332
 21
-7.351840041317472
 31
0.0
  0
LINE
  5
38
330
2
100
AcDbEntity
  8
GAIKEI
  6
Continuous
100
AcDbLine
 10
-17.84579162130327
 20
20.20084783367881
 30
0.0
 11
-17.84579162130327
 21
-7.351843791317492
 31
0.0
  0
LINE
  5
39
330
2
100
AcDbEntity
  8
GAIKEI
  6
Continuous
 62
     1
100
AcDbLine
 10
-17.26330862130336
 20
-7.771839041317491
 30
0.0
 11
-17.80021062130319
 21
-7.771839041317491
 31
0.0
  0
LINE
  5
3A
330
2
100
AcDbEntity
  8
GAIKEI
  6
Continuous
100
AcDbLine
 10
-17.78279112130346
 20
-7.80184379131748
 30
0.0
 11
-17.28072812130332
 21
-7.80184379131748
 31
0.0
  0
LINE
  5
3B
330
2
100
AcDbEntity
  8
GAIKEI
  6
Continuous
100
AcDbLine
 10
-17.80112612130344
 20
-7.80184379131748
 30
0.0
 11
-17.78279112130346
 21
-7.80184379131748
 31
0.0
  0
LINE
  5
3C
330
2
100
AcDbEntity
  8
GAIKEI
  6
Continuous
100
AcDbLine
 10
-17.80112612130344
 20
-7.80184379131748
 30
0.0
 11
-17.83266912130327
 21
-7.80184379131748
 31
0.0
  0
LINE
  5
3D
330
2
100
AcDbEntity
  8
GAIKEI
  6
Continuous
 62
     1
100
AcDbLine
 10
-17.25085762130331
 20
20.19307183367877
 30
0.0
 11
-17.25085762130331
 21
-7.344068041317482
 31
0.0
  0
SPLINE
  5
3E
330
2
100
AcDbEntity
  8
GAIKEI
  6
Continuous
 62
     1
100
AcDbSpline
210
0.0
220
0.0
230
1.0
 70
     8
 71
     3
 72
     9
 73
     5
 74
     3
 42
0.0000000001
 43
0.0000000001
 44
0.000001
 12
0.4555710774664803
 22
-0.8901994121409149
 32
0.0
 13
0.4548274176199876
 23
-0.8905795978918074
 33
0.0
 40
0.0
 40
0.0
 40
0.0
 40
0.0
 40
0.0517793888168832
 40
0.1036079629296263
 40
0.1036079629296263
 40
0.1036079629296263
 40
0.1036079629296263
 10
-12.54682923019183
 20
-7.774988429810831
 30
0.0
 10
-12.53896616620721
 20
-7.7903530903061
 30
0.0
 10
-12.52323613778357
 20
-7.821098832831733
 30
0.0
 10
-12.50751894694933
 20
-7.851851141402894
 30
0.0
 10
-12.49966126144179
 20
-7.867236964967105
 30
0.0
 11
-12.54682923019183
 21
-7.774988429810831
 31
0.0
 11
-12.52324680969352
 21
-7.821085875298821
 31
0.0
 11
-12.49966126144179
 21
-7.867236964967105
 31
0.0
  0
LINE
  5
3F
330
2
100
AcDbEntity
  8
GAIKEI
  6
Continuous
100
AcDbLine
 10
-17.28072812130332
 20
-7.80184379131748
 30
0.0
 11
-17.28072812130332
 21
-7.771839041317491
 31
0.0
  0
SPLINE
  5
40
330
2
100
AcDbEntity
  8
GAIKEI
  6
Continuous
100
AcDbSpline
210
0.0
220
0.0
230
1.0
 70
     8
 71
     3
 72
     9
 73
     5
 74
     3
 42
0.0000000001
 43
0.0000000001
 44
0.000001
 12
-0.9999883567442765
 22
0.0048255959094992
 32
0.0
 13
-0.9289662195941573
 23
0.3701645078244804
 33
0.0
 40
0.0
 40
0.0
 40
0.0
 40
0.0
 40
0.0006886604951575
 40
0.0013897972775328
 40
0.0013897972775328
 40
0.0013897972775328
 40
0.0013897972775328
 10
-12.70065003097303
 20
-8.071338527467105
 30
0.0
 10
-12.70087958179866
 20
-8.071337419734682
 30
0.0
 10
-12.70134343422014
 20
-8.071282932933661
 30
0.0
 10
-12.70178790064659
 20
-8.07114427773231
 30
0.0
 10
-12.70200501144197
 20
-8.071057765748321
 30
0.0
 11
-12.70065003097303
 21
-8.071338527467105
 31
0.0
 11
-12.70133534780936
 21
-8.071262934942522
 31
0.0
 11
-12.70200501144197
 21
-8.071057765748321
 31
0.0
  0
LINE
  5
41
330
2
100
AcDbEntity
  8
GAIKEI
  6
Continuous
 62
     1
100
AcDbLine
 10
-17.20842562130335
 20
-7.737950041317503
 30
0.0
 11
-16.97473437130335
 21
-7.504029041317493
 31
0.0
  0
LINE
  5
42
330
2
100
AcDbEntity
  8
GAIKEI
  6
Continuous
 62
     1
100
AcDbLine
 10
-17.00866162130339
 20
-7.93771829131748
 30
0.0
 11
-16.77474062130338
 21
-7.704027041317487
 31
0.0
  0
LINE
  5
43
330
2
100
AcDbEntity
  8
GAIKEI
  6
Continuous
 62
     1
100
AcDbLine
 10
-13.04226387130339
 20
-7.677454291317473
 30
0.0
 11
-16.74798887130328
 21
-7.677454291317473
 31
0.0
  0
LINE
  5
44
330
2
100
AcDbEntity
  8
GAIKEI
  6
Continuous
 62
     1
100
AcDbLine
 10
-12.58207037130316
 20
-7.738679041317482
 30
0.0
 11
-12.81568862130345
 21
-7.504081791317503
 31
0.0
  0
LINE
  5
45
330
2
100
AcDbEntity
  8
GAIKEI
  6
Continuous
 62
     1
100
AcDbLine
 10
-13.01565262130336
 20
-7.704020291317475
 30
0.0
 11
-12.77936237130322
 21
-7.939640541317486
 31
0.0
  0
SPLINE
  5
46
330
2
100
AcDbEntity
  8
GAIKEI
  6
Continuous
 62
     1
100
AcDbSpline
210
0.0
220
0.0
230
1.0
 70
     8
 71
     3
 72
     9
 73
     5
 74
     3
 42
0.0000000001
 43
0.0000000001
 44
0.000001
 12
-0.4193310596052152
 22
0.9078333891471318
 32
0.0
 13
-0.4173617955917634
 23
0.9087404093471464
 33
0.0
 40
0.0
 40
0.0
 40
0.0
 40
0.0
 40
0.0530945544880663
 40
0.1061312742876879
 40
0.1061312742876879
 40
0.1061312742876879
 40
0.1061312742876879
 10
-12.70200501144197
 20
-8.071057765748321
 30
0.0
 10
-12.70942641003955
 20
-8.054990762632934
 30
0.0
 10
-12.72424236362142
 20
-8.02286558983571
 30
0.0
 10
-12.73902348389528
 20
-7.990724376787484
 30
0.0
 10
-12.7464019840979
 20
-7.974658839967105
 30
0.0
 11
-12.70200501144197
 21
-8.071057765748321
 31
0.0
 11
-12.72424172148359
 21
-8.022844069268444
 31
0.0
 11
-12.7464019840979
 21
-7.974658839967105
 31
0.0
  0
LINE
  5
47
330
2
100
AcDbEntity
  8
GAIKEI
  6
Continuous
 62
     1
100
AcDbLine
 10
-17.2633061213032
 20
-7.77183954131749
 30
0.0
 11
-17.25085137130324
 21
-7.344066541317486
 31
0.0
  0
LINE
  5
48
330
2
100
AcDbEntity
  8
GAIKEI
  6
Continuous
100
AcDbLine
 10
-17.34479062130342
 20
-7.874145884187754
 30
0.0
 11
-17.34479062130342
 21
-7.80184379131748
 31
0.0
  0
LINE
  5
49
330
2
100
AcDbEntity
  8
GAIKEI
  6
Continuous
100
AcDbLine
 10
-17.34479062130342
 20
-7.874365791317528
 30
0.0
 11
-17.34485162130315
 21
-7.874365791317528
 31
0.0
  0
LINE
  5
4A
330
2
100
AcDbEntity
  8
GAIKEI
  6
Continuous
100
AcDbLine
 10
-17.34485112130343
 20
-7.87436304131745
 30
0.0
 11
-17.34486337130349
 21
-7.87436304131745
 31
0.0
  0
LINE
  5
4B
330
2
100
AcDbEntity
  8
GAIKEI
  6
Continuous
 62
     1
100
AcDbLine
 10
-16.94798887130328
 20
-7.477454291317485
 30
0.0
 11
-16.94798887130328
 21
20.32648258367883
 31
0.0
  0
LINE
  5
4C
330
2
100
AcDbEntity
  8
GAIKEI
  6
Continuous
100
AcDbLine
 10
-12.49966137130329
 20
-7.87105608837524
 30
0.0
 11
-12.49966137130329
 21
20.71626533367879
 31
0.0
  0
LINE
  5
4D
330
2
100
AcDbEntity
  8
GAIKEI
  6
Continuous
100
AcDbLine
 10
-12.49966137130329
 20
-7.86723704131748
 30
0.0
 11
-12.49960012130347
 21
-7.86723704131748
 31
0.0
  0
LINE
  5
4E
330
2
100
AcDbEntity
  8
GAIKEI
  6
Continuous
 62
     1
100
AcDbLine
 10
-12.8422638713034
 20
20.32648258367883
 30
0.0
 11
-12.8422638713034
 21
-7.477454291317485
 31
0.0
  0
LINE
  5
4F
330
2
100
AcDbEntity
  8
GAIKEI
  6
Continuous
 62
     1
100
AcDbLine
 10
-12.58199762130331
 20
20.58866761527903
 30
0.0
 11
-12.58199762130331
 21
-7.739639322917696
 31
0.0
  0
LINE
  5
50
330
2
100
AcDbEntity
  8
GAIKEI
  6
Continuous
 62
     1
100
AcDbLine
 10
-17.20842587130343
 20
20.58674667017127
 30
0.0
 11
-17.20842587130343
 21
-7.737718377809926
 31
0.0
  0
LINE
  5
51
330
2
100
AcDbEntity
  8
GAIKEI
  6
Continuous
100
AcDbLine
 10
-17.24346012130328
 20
20.65087208367882
 30
0.0
 11
-17.24346012130328
 21
-7.737879041317513
 31
0.0
  0
LINE
  5
52
330
2
100
AcDbEntity
  8
GAIKEI
  6
Continuous
100
AcDbLine
 10
16.42225390769707
 20
16.8250970836788
 30
0.0
 11
16.42225390769707
 21
7.175853833678813
 31
0.0
  0
LINE
  5
53
330
2
100
AcDbEntity
  8
GAIKEI
  6
Continuous
100
AcDbLine
 10
16.42225390769707
 20
7.175853833678813
 30
0.0
 11
16.42225390769707
 21
-4.132690136363264
 31
0.0
  0
LINE
  5
54
330
2
100
AcDbEntity
  8
GAIKEI
  6
Continuous
100
AcDbLine
 10
16.42225390769707
 20
-3.976068791317458
 30
0.0
 11
16.42225390769707
 21
-4.039289041317488
 31
0.0
  0
LINE
  5
55
330
2
100
AcDbEntity
  8
GAIKEI
  6
Continuous
100
AcDbLine
 10
12.03225165769711
 20
-7.691824356423693
 30
0.0
 11
12.20725587870848
 21
-7.97070546783641
 31
0.0
  0
LINE
  5
56
330
2
100
AcDbEntity
  8
GAIKEI
  6
Continuous
100
AcDbLine
 10
12.03225165769711
 20
20.54085264878506
 30
0.0
 11
12.03225165769711
 21
-7.691824356423693
 31
0.0
  0
LINE
  5
57
330
2
100
AcDbEntity
  8
GAIKEI
  6
Continuous
100
AcDbLine
 10
14.23225165769716
 20
-7.108443074469248
 30
0.0
 11
14.23225165769716
 21
-8.019928541317481
 31
0.0
  0
SPLINE
  5
58
330
2
100
AcDbEntity
  8
GAIKEI
  6
Continuous
100
AcDbSpline
210
0.0
220
0.0
230
1.0
 70
     8
 71
     3
 72
     9
 73
     5
 74
     3
 42
0.0000000001
 43
0.0000000001
 44
0.000001
 12
0.6535156864074855
 22
0.7569129722889898
 32
0.0
 13
0.6415607664383718
 23
0.7670722149621957
 33
0.0
 40
0.0
 40
0.0
 40
0.0
 40
0.0
 40
0.0011430106086499
 40
0.0022866783577014
 40
0.0022866783577014
 40
0.0022866783577014
 40
0.0022866783577014
 10
16.2440923554291
 20
-4.52705752160773
 30
0.0
 10
16.24434134721659
 20
-4.52676913508868
 30
0.0
 10
16.24483537885862
 20
-4.526188660088211
 30
0.0
 10
16.24532482875777
 20
-4.525604341390095
 30
0.0
 10
16.24556940621031
 20
-4.525311916138946
 30
0.0
 11
16.2440923554291
 21
-4.52705752160773
 31
0.0
 11
16.2448340961412
 21
-4.526187857500302
 31
0.0
 11
16.24556940621031
 21
-4.525311916138946
 31
0.0
  0
LINE
  5
59
330
2
100
AcDbEntity
  8
GAIKEI
  6
Continuous
 62
     1
100
AcDbLine
 10
16.42225390769709
 20
6.424514146180682
 30
0.0
 11
15.80249090769718
 21
6.424514146180682
 31
0.0
  0
LINE
  5
5A
330
2
100
AcDbEntity
  8
GAIKEI
  6
Continuous
 62
     1
100
AcDbLine
 10
15.80249090769715
 20
7.175853833678813
 30
0.0
 11
15.80249090769715
 21
17.16761408367878
 31
0.0
  0
LINE
  5
5B
330
2
100
AcDbEntity
  8
GAIKEI
  6
Continuous
 62
     1
100
AcDbLine
 10
13.19962215769718
 20
20.92037151865654
 30
0.0
 11
13.19962215769718
 21
-8.071361990173413
 31
0.0
  0
LINE
  5
5C
330
2
100
AcDbEntity
  8
GAIKEI
  6
Continuous
 62
     1
100
AcDbLine
 10
12.1865484076973
 20
20.78673499881492
 30
0.0
 11
12.1865484076973
 21
-7.937706706453552
 31
0.0
  0
LINE
  5
5D
330
2
100
AcDbEntity
  8
GAIKEI
  6
Continuous
 62
     1
100
AcDbLine
 10
12.24614315769716
 20
20.82370886191563
 30
0.0
 11
12.24614315769716
 21
-7.974685231908267
 31
0.0
  0
LINE
  5
5E
330
2
100
AcDbEntity
  8
GAIKEI
  6
Continuous
 62
     1
100
AcDbLine
 10
15.80249090769715
 20
-4.318585791317501
 30
0.0
 11
15.80249090769715
 21
7.175853833678813
 31
0.0
  0
DIMENSION
  5
5F
330
2
100
AcDbEntity
  8
SUNPO
100
AcDbDimension
  2
*D4
 10
-12.49966187130346
 20
28.61885534914993
 30
0.0
 11
-6.666328537970127
 21
30.36885534914993
 31
0.0
 70
    33
  1
107
 71
     5
 42
5.351732499999789
  3
STANDARD
100
AcDbAlignedDimension
 13
-17.85139437130325
 23
20.61885534914992
 33
0.0
 14
-12.49966187130346
 24
20.61885534914992
 34
0.0
1001
ACAD
1000
DSTYLE
1002
{
1070
    40
1040
1.0
1070
   140
1040
2.5
1070
   147
1040
0.5
1070
   172
1070
     1
1070
   279
1070
     0
1070
   288
1070
     0
1002
}
  0
DIMENSION
  5
6F
330
2
100
AcDbEntity
  8
SUNPO
100
AcDbDimension
  2
*D3
 10
16.4222541576971
 20
28.61885534914993
 30
0.0
 11
23.00558749103043
 21
30.36885534914993
 31
0.0
 70
    33
  1
88
 71
     5
 42
4.39000249999999
  3
STANDARD
100
AcDbAlignedDimension
 13
12.03225165769711
 23
20.61885534914992
 33
0.0
 14
16.4222541576971
 24
20.61885534914992
 34
0.0
1001
ACAD
1000
DSTYLE
1002
{
1070
    40
1040
1.0
1070
   140
1040
2.5
1070
   147
1040
0.5
1070
   172
1070
     1
1070
   279
1070
     0
1070
   288
1070
     0
1002
}
  0
LINE
  5
7E
330
2
100
AcDbEntity
  8
SUNPO
100
AcDbLine
 10
-10.50409262130321
 20
-8.074140041317491
 30
0.0
 11
-2.504092621303214
 21
-8.074140041317491
 31
0.0
  0
LINE
  5
7F
330
2
100
AcDbEntity
  8
SUNPO
100
AcDbLine
 10
-10.50409262130321
 20
20.92316833367883
 30
0.0
 11
-2.504092621303214
 21
20.92316833367883
 31
0.0
  0
LINE
  5
80
330
2
100
AcDbEntity
  8
SUNPO
100
AcDbLine
 10
-4.504092621303215
 20
-6.074140041317491
 30
0.0
 11
-4.504092621303215
 21
18.92316833367883
 31
0.0
  0
INSERT
  5
81
330
2
100
AcDbEntity
  8
SUNPO
100
AcDbBlockReference
  2
_OPEN30
 10
-4.504092621303215
 20
-8.074140041317491
 30
0.0
 41
2.0
 42
2.0
 43
2.0
 50
270.0
  0
INSERT
  5
82
330
2
100
AcDbEntity
  8
SUNPO
100
AcDbBlockReference
  2
_OPEN30
 10
-4.504092621303215
 20
20.92316833367883
 30
0.0
 41
2.0
 42
2.0
 43
2.0
 50
90.0
  0
MTEXT
  5
83
330
2
100
AcDbEntity
  8
SUNPO
100
AcDbMText
 10
-6.254092621303242
 20
7.175859958678812
 30
0.0
 40
2.5
 41
0.0
 71
     5
 72
     1
  1
610
 11
0.0000000000000001
 21
1.0
 31
0.0
 73
     1
 44
1.0
1001
ACAD
1000
MTEXTBEGIN
1070
    73
1070
     1
1070
    44
1040
1.0
1070
    74
1070
     0
1000
MTEXTEND
  0
LINE
  5
84
330
2
100
AcDbEntity
  8
GAIKEI
100
AcDbLine
 10
-17.1446516019457
 20
-8.074145835871803
 30
0.0
 11
-12.6995223519456
 21
-8.071056040059287
 31
0.0
  0
LINE
  5
85
330
2
100
AcDbEntity
  8
GAIKEI
 62
     1
100
AcDbLine
 10
-17.00851677287778
 20
-7.937718357152192
 30
0.0
 11
-12.78208852287767
 21
-7.939639302259962
 31
0.0
  0
ARC
  5
86
330
2
100
AcDbEntity
  8
GAIKEI
  6
Continuous
 62
     1
100
AcDbCircle
 10
-16.74798887130328
 20
-7.477454291317485
 30
0.0
 40
0.2
100
AcDbArc
 50
180.0
 51
270.0
  0
ARC
  5
87
330
2
100
AcDbEntity
  8
GAIKEI
 62
     1
100
AcDbCircle
 10
-17.00842587130341
 20
-7.737718377809926
 30
0.0
 40
0.2
100
AcDbArc
 50
180.0
 51
269.9739586162913
  0
ARC
  5
88
330
2
100
AcDbEntity
  8
GAIKEI
100
AcDbCircle
 10
-17.1447906213034
 20
-7.874145884187754
 30
0.0
 40
0.2
100
AcDbArc
 50
180.0
 51
270.039826115541
  0
ARC
  5
89
330
2
100
AcDbEntity
  8
GAIKEI
 62
     1
100
AcDbCircle
 10
-12.7819976213033
 20
-7.739639322917696
 30
0.0
 40
0.2
100
AcDbArc
 50
269.9739586162913
 51
0.0
  0
ARC
  5
8A
330
2
100
AcDbEntity
  8
GAIKEI
100
AcDbCircle
 10
-12.69966137130328
 20
-7.87105608837524
 30
0.0
 40
0.2
100
AcDbArc
 50
270.0398261155409
 51
0.0
  0
ARC
  5
8B
330
2
100
AcDbEntity
  8
GAIKEI
  6
Continuous
 62
     1
100
AcDbCircle
 10
-13.04226387130339
 20
-7.477454291317485
 30
0.0
 40
0.2
100
AcDbArc
 50
270.0
 51
0.0
  0
ARC
  5
8C
330
2
100
AcDbEntity
  8
GAIKEI
  6
Continuous
 62
     1
100
AcDbCircle
 10
-13.04226387130339
 20
20.32648258367883
 30
0.0
 40
0.2
100
AcDbArc
 50
0.0
 51
90.00000000000005
  0
ARC
  5
8D
330
2
100
AcDbEntity
  8
GAIKEI
100
AcDbCircle
 10
-12.69966137130328
 20
20.72008438073658
 30
0.0
 40
0.2
100
AcDbArc
 50
0.0
 51
89.96017388445919
  0
ARC
  5
8E
330
2
100
AcDbEntity
  8
GAIKEI
 62
     1
100
AcDbCircle
 10
-12.7819976213033
 20
20.58866761527903
 30
0.0
 40
0.2
100
AcDbArc
 50
0.0
 51
90.02604138370868
  0
ARC
  5
8F
330
2
100
AcDbEntity
  8
GAIKEI
100
AcDbCircle
 10
-17.1447906213034
 20
20.72317417654909
 30
0.0
 40
0.2
100
AcDbArc
 50
89.96017388445904
 51
180.0
  0
ARC
  5
90
330
2
100
AcDbEntity
  8
GAIKEI
 62
     1
100
AcDbCircle
 10
-17.00842587130341
 20
20.58674667017127
 30
0.0
 40
0.2
100
AcDbArc
 50
90.02604138370868
 51
179.9999999999999
  0
ARC
  5
91
330
2
100
AcDbEntity
  8
GAIKEI
  6
Continuous
 62
     1
100
AcDbCircle
 10
-16.74798887130328
 20
20.32648258367883
 30
0.0
 40
0.2
100
AcDbArc
 50
90.00000000000005
 51
180.0
  0
LINE
  5
92
330
2
100
AcDbEntity
  8
GAIKEI
 62
     1
100
AcDbLine
 10
-17.00851677287778
 20
20.78674664951353
 30
0.0
 11
-12.78208852287767
 21
20.7886675946213
 31
0.0
  0
LINE
  5
93
330
2
100
AcDbEntity
  8
GAIKEI
100
AcDbLine
 10
-17.1446516019457
 20
20.92317412823314
 30
0.0
 11
-12.6995223519456
 21
20.92008433242063
 31
0.0
  0
LINE
  5
94
330
2
100
AcDbEntity
  8
GAIKEI
  6
Continuous
100
AcDbLine
 10
-12.49966137130329
 20
20.71626533367882
 30
0.0
 11
-12.49960012130347
 21
20.71626533367882
 31
0.0
  0
LINE
  5
95
330
2
100
AcDbEntity
  8
GAIKEI
  6
Continuous
100
AcDbLine
 10
-17.34485112130343
 20
20.72339133367879
 30
0.0
 11
-17.34486337130349
 21
20.72339133367879
 31
0.0
  0
LINE
  5
96
330
2
100
AcDbEntity
  8
GAIKEI
  6
Continuous
100
AcDbLine
 10
-17.34479062130342
 20
20.72339408367887
 30
0.0
 11
-17.34485162130315
 21
20.72339408367887
 31
0.0
  0
LINE
  5
97
330
2
100
AcDbEntity
  8
GAIKEI
  6
Continuous
100
AcDbLine
 10
-17.34479062130342
 20
20.72317417654909
 30
0.0
 11
-17.34479062130342
 21
20.65087208367882
 31
0.0
  0
LINE
  5
98
330
2
100
AcDbEntity
  8
GAIKEI
  6
Continuous
 62
     1
100
AcDbLine
 10
-17.2633061213032
 20
20.62086783367883
 30
0.0
 11
-17.25085137130324
 21
20.19309483367883
 31
0.0
  0
SPLINE
  5
99
330
2
100
AcDbEntity
  8
GAIKEI
  6
Continuous
 62
     1
100
AcDbSpline
210
0.0
220
0.0
230
1.0
 70
     8
 71
     3
 72
     9
 73
     5
 74
     3
 42
0.0000000001
 43
0.0000000001
 44
0.000001
 12
-0.4193310596052151
 22
-0.9078333891471318
 32
0.0
 13
-0.4173617955917634
 23
-0.9087404093471464
 33
0.0
 40
0.0
 40
0.0
 40
0.0
 40
0.0
 40
0.0530945544880614
 40
0.1061312742876847
 40
0.1061312742876847
 40
0.1061312742876847
 40
0.1061312742876847
 10
-12.70200501144197
 20
20.92008605810966
 30
0.0
 10
-12.70942641003955
 20
20.90401905499428
 30
0.0
 10
-12.72424236362142
 20
20.87189388219705
 30
0.0
 10
-12.73902348389527
 20
20.83975266914883
 30
0.0
 10
-12.7464019840979
 20
20.82368713232845
 30
0.0
 11
-12.70200501144197
 21
20.92008605810966
 31
0.0
 11
-12.72424172148359
 21
20.87187236162979
 31
0.0
 11
-12.7464019840979
 21
20.82368713232845
 31
0.0
  0
LINE
  5
9A
330
2
100
AcDbEntity
  8
GAIKEI
  6
Continuous
 62
     1
100
AcDbLine
 10
-13.01565262130336
 20
20.55304858367882
 30
0.0
 11
-12.77936237130322
 21
20.78866883367883
 31
0.0
  0
LINE
  5
9B
330
2
100
AcDbEntity
  8
GAIKEI
  6
Continuous
 62
     1
100
AcDbLine
 10
-12.58207037130316
 20
20.58770733367882
 30
0.0
 11
-12.81568862130345
 21
20.35311008367884
 31
0.0
  0
LINE
  5
9C
330
2
100
AcDbEntity
  8
GAIKEI
  6
Continuous
 62
     1
100
AcDbLine
 10
-13.04226387130339
 20
20.52648258367881
 30
0.0
 11
-16.74798887130328
 21
20.52648258367881
 31
0.0
  0
LINE
  5
9D
330
2
100
AcDbEntity
  8
GAIKEI
  6
Continuous
 62
     1
100
AcDbLine
 10
-17.00866162130339
 20
20.78674658367882
 30
0.0
 11
-16.77474062130338
 21
20.55305533367883
 31
0.0
  0
LINE
  5
9E
330
2
100
AcDbEntity
  8
GAIKEI
  6
Continuous
 62
     1
100
AcDbLine
 10
-17.20842562130335
 20
20.58697833367884
 30
0.0
 11
-16.97473437130335
 21
20.35305733367883
 31
0.0
  0
SPLINE
  5
9F
330
2
100
AcDbEntity
  8
GAIKEI
  6
Continuous
100
AcDbSpline
210
0.0
220
0.0
230
1.0
 70
     8
 71
     3
 72
     9
 73
     5
 74
     3
 42
0.0000000001
 43
0.0000000001
 44
0.000001
 12
-0.9999883567442765
 22
-0.0048255959094992
 32
0.0
 13
-0.9289662195941573
 23
-0.3701645078244804
 33
0.0
 40
0.0
 40
0.0
 40
0.0
 40
0.0
 40
0.0006886604951577
 40
0.0013897972775335
 40
0.0013897972775335
 40
0.0013897972775335
 40
0.0013897972775335
 10
-12.70065003097303
 20
20.92036681982845
 30
0.0
 10
-12.70087958179866
 20
20.92036571209602
 30
0.0
 10
-12.70134343422014
 20
20.920311225295
 30
0.0
 10
-12.70178790064659
 20
20.92017257009365
 30
0.0
 10
-12.70200501144197
 20
20.92008605810966
 30
0.0
 11
-12.70065003097303
 21
20.92036681982845
 31
0.0
 11
-12.70133534780936
 21
20.92029122730386
 31
0.0
 11
-12.70200501144197
 21
20.92008605810966
 31
0.0
  0
LINE
  5
A0
330
2
100
AcDbEntity
  8
GAIKEI
  6
Continuous
100
AcDbLine
 10
-17.28072812130332
 20
20.65087208367882
 30
0.0
 11
-17.28072812130332
 21
20.62086733367883
 31
0.0
  0
SPLINE
  5
A1
330
2
100
AcDbEntity
  8
GAIKEI
  6
Continuous
 62
     1
100
AcDbSpline
210
0.0
220
0.0
230
1.0
 70
     8
 71
     3
 72
     9
 73
     5
 74
     3
 42
0.0000000001
 43
0.0000000001
 44
0.000001
 12
0.4555710774664803
 22
0.8901994121409149
 32
0.0
 13
0.4548274176199876
 23
0.8905795978918074
 33
0.0
 40
0.0
 40
0.0
 40
0.0
 40
0.0
 40
0.0517793888168824
 40
0.1036079629296287
 40
0.1036079629296287
 40
0.1036079629296287
 40
0.1036079629296287
 10
-12.54682923019183
 20
20.62401672217217
 30
0.0
 10
-12.53896616620721
 20
20.63938138266744
 30
0.0
 10
-12.52323613778357
 20
20.67012712519307
 30
0.0
 10
-12.50751894694933
 20
20.70087943376424
 30
0.0
 10
-12.49966126144179
 20
20.71626525732845
 30
0.0
 11
-12.54682923019183
 21
20.62401672217217
 31
0.0
 11
-12.52324680969352
 21
20.67011416766016
 31
0.0
 11
-12.49966126144179
 21
20.71626525732845
 31
0.0
  0
LINE
  5
A2
330
2
100
AcDbEntity
  8
GAIKEI
  6
Continuous
100
AcDbLine
 10
-17.80112612130344
 20
20.65087208367882
 30
0.0
 11
-17.83266912130327
 21
20.65087208367882
 31
0.0
  0
LINE
  5
A3
330
2
100
AcDbEntity
  8
GAIKEI
  6
Continuous
100
AcDbLine
 10
-17.80112612130344
 20
20.65087208367882
 30
0.0
 11
-17.78279112130346
 21
20.65087208367882
 31
0.0
  0
LINE
  5
A4
330
2
100
AcDbEntity
  8
GAIKEI
  6
Continuous
100
AcDbLine
 10
-17.78279112130346
 20
20.65087208367882
 30
0.0
 11
-17.24346012130328
 21
20.65087208367882
 31
0.0
  0
LINE
  5
A5
330
2
100
AcDbEntity
  8
GAIKEI
  6
Continuous
 62
     1
100
AcDbLine
 10
-17.26330862130336
 20
20.62086733367883
 30
0.0
 11
-17.80021062130319
 21
20.62086733367883
 31
0.0
  0
LINE
  5
A6
330
2
100
AcDbEntity
  8
GAIKEI
  6
Continuous
100
AcDbLine
 10
-17.83268037130344
 20
20.65087283367885
 30
0.0
 11
-17.84578237130332
 21
20.20086833367881
 31
0.0
  0
LINE
  5
A7
330
2
100
AcDbEntity
  8
GAIKEI
  6
Continuous
 62
     1
100
AcDbLine
 10
-17.25085762130331
 20
20.19309633367882
 30
0.0
 11
-17.81266187130333
 21
20.19309633367882
 31
0.0
  0
LINE
  5
A8
330
2
100
AcDbEntity
  8
GAIKEI
  6
Continuous
 62
     1
100
AcDbLine
 10
-17.80020237130336
 20
20.62087483367881
 30
0.0
 11
-17.81265712130332
 21
20.19310183367881
 31
0.0
  0
LINE
  5
A9
330
2
100
AcDbEntity
  8
GAIKEI
100
AcDbLine
 10
12.20725587870848
 20
-7.97070546783641
 30
0.0
 11
13.19154108589762
 21
-8.071320216920241
 31
0.0
  0
LINE
  5
AA
330
2
100
AcDbEntity
  8
GAIKEI
100
AcDbLine
 10
13.19154108589762
 20
-8.071320216920241
 30
0.0
 11
14.18188532417915
 21
-8.074140041138946
 31
0.0
  0
LINE
  5
AB
330
2
100
AcDbEntity
  8
GAIKEI
100
AcDbLine
 10
14.23225165769716
 20
-8.019928541317481
 30
0.0
 11
14.18188532417915
 21
-8.074140041138946
 31
0.0
  0
LINE
  5
AC
330
2
100
AcDbEntity
  8
GAIKEI
100
AcDbLine
 10
16.30540092513425
 20
-4.453935156603221
 30
0.0
 11
14.34910464025998
 21
-6.787198054229293
 31
0.0
  0
ARC
  5
AD
330
2
100
AcDbEntity
  8
GAIKEI
100
AcDbCircle
 10
14.73225165769716
 20
-7.108443074469248
 30
0.0
 40
0.5
100
AcDbArc
 50
140.0222528634263
 51
180.0
  0
ARC
  5
AE
330
2
100
AcDbEntity
  8
GAIKEI
100
AcDbCircle
 10
15.92225390769707
 20
-4.132690136363264
 30
0.0
 40
0.5
100
AcDbArc
 50
320.0222528634265
 51
0.0
  0
LINE
  5
AF
330
2
100
AcDbEntity
  8
GAIKEI
100
AcDbLine
 10
16.15964411324151
 20
-4.198615138795218
 30
0.0
 11
15.80249079292915
 21
-4.318585841920196
 31
0.0
  0
ARC
  5
B0
330
2
100
AcDbEntity
  8
GAIKEI
100
AcDbCircle
 10
16.09174851769674
 20
-3.852280734238377
 30
0.0
 40
0.3529268078144859
100
AcDbArc
 50
281.0916342477211
 51
339.4669884400839
  0
LINE
  5
B1
330
2
100
AcDbEntity
  8
GAIKEI
100
AcDbLine
 10
15.80249079292915
 20
-4.318585841920196
 30
0.0
 11
13.19962215769718
 21
-6.707524261267366
 31
0.0
  0
LINE
  5
B2
330
2
100
AcDbEntity
  8
GAIKEI
100
AcDbLine
 10
15.80249079292915
 20
17.16761413428151
 30
0.0
 11
13.19962215769718
 21
19.55655255362868
 31
0.0
  0
ARC
  5
B3
330
2
100
AcDbEntity
  8
GAIKEI
100
AcDbCircle
 10
16.09174851769674
 20
16.70130902659969
 30
0.0
 40
0.3529268078144859
100
AcDbArc
 50
20.53301155991607
 51
78.90836575227895
  0
LINE
  5
B4
330
2
100
AcDbEntity
  8
GAIKEI
100
AcDbLine
 10
16.15964411324151
 20
17.04764343115653
 30
0.0
 11
15.80249079292915
 21
17.16761413428151
 31
0.0
  0
ARC
  5
B5
330
2
100
AcDbEntity
  8
GAIKEI
100
AcDbCircle
 10
15.92225390769707
 20
16.98171842872457
 30
0.0
 40
0.5
100
AcDbArc
 50
0.0
 51
39.97774713657351
  0
ARC
  5
B6
330
2
100
AcDbEntity
  8
GAIKEI
100
AcDbCircle
 10
14.73225165769716
 20
19.95747136683055
 30
0.0
 40
0.5
100
AcDbArc
 50
180.0
 51
219.9777471365737
  0
LINE
  5
B7
330
2
100
AcDbEntity
  8
GAIKEI
100
AcDbLine
 10
16.30540092513425
 20
17.30296344896453
 30
0.0
 11
14.34910464025998
 21
19.6362263465906
 31
0.0
  0
LINE
  5
B8
330
2
100
AcDbEntity
  8
GAIKEI
100
AcDbLine
 10
14.23225165769716
 20
20.86895683367879
 30
0.0
 11
14.18188532417915
 21
20.92316833350026
 31
0.0
  0
LINE
  5
B9
330
2
100
AcDbEntity
  8
GAIKEI
100
AcDbLine
 10
13.19154108589762
 20
20.92034850928155
 30
0.0
 11
14.18188532417915
 21
20.92316833350026
 31
0.0
  0
LINE
  5
BA
330
2
100
AcDbEntity
  8
GAIKEI
100
AcDbLine
 10
12.20725587870848
 20
20.81973376019772
 30
0.0
 11
13.19154108589762
 21
20.92034850928155
 31
0.0
  0
SPLINE
  5
BB
330
2
100
AcDbEntity
  8
GAIKEI
  6
Continuous
100
AcDbSpline
210
0.0
220
0.0
230
1.0
 70
     8
 71
     3
 72
     9
 73
     5
 74
     3
 42
0.0000000001
 43
0.0000000001
 44
0.000001
 12
0.6535156864074856
 22
-0.7569129722889898
 32
0.0
 13
0.641560766438372
 23
-0.7670722149621957
 33
0.0
 40
0.0
 40
0.0
 40
0.0
 40
0.0
 40
0.0011430106086522
 40
0.0022866783577014
 40
0.0022866783577014
 40
0.0022866783577014
 40
0.0022866783577014
 10
16.2440923554291
 20
17.37608581396904
 30
0.0
 10
16.24434134721659
 20
17.37579742744999
 30
0.0
 10
16.24483537885863
 20
17.37521695244952
 30
0.0
 10
16.24532482875777
 20
17.3746326337514
 30
0.0
 10
16.24556940621031
 20
17.37434020850026
 30
0.0
 11
16.2440923554291
 21
17.37608581396904
 31
0.0
 11
16.2448340961412
 21
17.37521614986161
 31
0.0
 11
16.24556940621031
 21
17.37434020850026
 31
0.0
  0
LINE
  5
BC
330
2
100
AcDbEntity
  8
GAIKEI
  6
Continuous
100
AcDbLine
 10
14.23225165769716
 20
19.95747136683055
 30
0.0
 11
14.23225165769716
 21
20.86895683367879
 31
0.0
  0
LINE
  5
BD
330
2
100
AcDbEntity
  8
GAIKEI
  6
Continuous
100
AcDbLine
 10
12.03225165769711
 20
20.54085264878501
 30
0.0
 11
12.20725587870848
 21
20.81973376019772
 31
0.0
  0
LINE
  5
BE
330
2
100
AcDbEntity
  8
GAIKEI
  6
Continuous
100
AcDbLine
 10
16.42225390769707
 20
16.82509708367877
 30
0.0
 11
16.42225390769707
 21
16.8883173336788
 31
0.0
  0
TEXT
  5
BF
330
2
100
AcDbEntity
  8
TOUROKU
100
AcDbText
 10
42.64061359440256
 20
42.46164451836775
 30
0.0
 40
2.0
  1
ＴＹＳＰ４２Ｐ８Ｋ
 72
     2
 11
63.44061359440257
 21
42.46164451836775
 31
0.0
100
AcDbText
  0
TEXT
  5
C1
330
2
100
AcDbEntity
  8
MOJI1
100
AcDbText
 10
-59.05933643852485
 20
-39.53835548163258
 30
0.0
 40
3.0
  1
インピーダンス
100
AcDbText
  0
LINE
  5
C2
330
2
100
AcDbEntity
  8
WAKU
 62
     4
100
AcDbLine
 10
63.44066356147493
 20
-60.53835548163258
 30
0.0
 11
-61.55933643852485
 21
-60.53835548163258
 31
0.0
  0
LINE
  5
C4
330
2
100
AcDbEntity
  8
WAKU
 62
     1
100
AcDbLine
 10
-61.55933643852485
 20
-55.53835548163258
 30
0.0
 11
63.44066356147493
 21
-55.53835548163258
 31
0.0
  0
LINE
  5
C5
330
2
100
AcDbEntity
  8
WAKU
 62
     1
100
AcDbLine
 10
-61.55933643852485
 20
-50.53835548163258
 30
0.0
 11
63.44066356147493
 21
-50.53835548163258
 31
0.0
  0
LINE
  5
C6
330
2
100
AcDbEntity
  8
WAKU
 62
     1
100
AcDbLine
 10
-61.55933643852485
 20
-35.53835548163258
 30
0.0
 11
63.44066356147493
 21
-35.53835548163258
 31
0.0
  0
LINE
  5
C7
330
2
100
AcDbEntity
  8
WAKU
 62
     1
100
AcDbLine
 10
-61.55933643852485
 20
-30.53835548163258
 30
0.0
 11
63.44066356147493
 21
-30.53835548163258
 31
0.0
  0
LINE
  5
C8
330
2
100
AcDbEntity
  8
WAKU
 62
     4
100
AcDbLine
 10
-61.55933643852485
 20
-25.53835548163258
 30
0.0
 11
63.44066356147493
 21
-25.53835548163258
 31
0.0
  0
LINE
  5
C9
330
2
100
AcDbEntity
  8
WAKU
 62
     1
100
AcDbLine
 10
-61.55933643852485
 20
-45.53835548163258
 30
0.0
 11
63.44066356147493
 21
-45.53835548163258
 31
0.0
  0
LINE
  5
CA
330
2
100
AcDbEntity
  8
WAKU
 62
     1
100
AcDbLine
 10
-61.55933643852485
 20
-40.53835548163258
 30
0.0
 11
63.44066356147493
 21
-40.53835548163258
 31
0.0
  0
LINE
  5
CB
330
2
100
AcDbEntity
  8
WAKU
 62
     4
100
AcDbLine
 10
-61.55933643852506
 20
-25.53835548163258
 30
0.0
 11
-61.55933643852485
 21
-60.53835548163258
 31
0.0
  0
TEXT
  5
CC
330
2
100
AcDbEntity
  8
MOJI1
100
AcDbText
 10
-59.05933643852485
 20
-44.53835548163256
 30
0.0
 40
3.0
  1
その他
100
AcDbText
  0
TEXT
  5
CD
330
2
100
AcDbEntity
  8
MOJI1
100
AcDbText
 10
-59.05933643852485
 20
-34.53835548163258
 30
0.0
 40
3.0
  1
定格入力
100
AcDbText
  0
TEXT
  5
CE
330
2
100
AcDbEntity
  8
MOJI1
100
AcDbText
 10
-59.05933643852485
 20
-29.53835548163258
 30
0.0
 40
3.0
  1
形  式
100
AcDbText
  0
TEXT
  5
CF
330
2
100
AcDbEntity
  8
MOJI1
100
AcDbText
 10
-19.05933643852506
 20
-44.53835548163256
 30
0.0
 40
3.0
  1
スピーカの定格は１本当たりの値です
100
AcDbText
  0
TEXT
  5
D0
330
2
100
AcDbEntity
  8
MOJI1
100
AcDbText
 10
-19.05933643852506
 20
-29.53835548163258
 30
0.0
 40
3.0
  1
２ウェイ  ３スピーカ  密閉型
100
AcDbText
  0
LINE
  5
D1
330
2
100
AcDbEntity
  8
WAKU
 62
     4
100
AcDbLine
 10
-21.55933643852506
 20
-25.53835548163258
 30
0.0
 11
-21.55933643852506
 21
-60.53835548163258
 31
0.0
  0
TEXT
  5
D2
330
2
100
AcDbEntity
  8
MOJI1
100
AcDbText
 10
-19.05933643852506
 20
-39.53835548163258
 30
0.0
 40
3.0
  1
６Ω
100
AcDbText
  0
TEXT
  5
D3
330
2
100
AcDbEntity
  8
MOJI1
100
AcDbText
 10
-19.05933643852506
 20
-34.53835548163258
 30
0.0
 40
3.0
  1
８Ｗ
100
AcDbText
  0
LINE
  5
D4
330
2
100
AcDbEntity
  8
WAKU
 62
     4
100
AcDbLine
 10
63.44066356147493
 20
-25.53835548163258
 30
0.0
 11
63.44066356147493
 21
-60.53835548163258
 31
0.0
  0
ENDSEC
  0
SECTION
  2
OBJECTS
  0
DICTIONARY
  5
9
330
0
100
AcDbDictionary
281
     1
  3
ACAD_COLOR
350
30
  3
ACAD_GROUP
350
2C
  3
ACAD_LAYOUT
350
D
  3
ACAD_MATERIAL
350
2F
  3
ACAD_MLINESTYLE
350
2D
  3
ACAD_PLOTSETTINGS
350
2E
  3
ACAD_PLOTSTYLENAME
350
8
  3
ACDBHEADERROUNDTRIPXREC
350
11E
  3
AcDbVariableDictionary
350
F7
  0
DICTIONARY
  5
15
330
14
100
AcDbDictionary
280
     1
281
     1
  3
ACAD_LAYERFILTERS
360
16
  0
DICTIONARY
  5
3
330
2
100
AcDbDictionary
280
     1
281
     1
  3
ACAD_LAYOUTSELFREF
360
4
  0
DICTIONARY
  5
F
330
E
100
AcDbDictionary
280
     1
281
     1
  3
ACAD_LAYOUTSELFREF
360
10
  0
DICTIONARY
  5
30
102
{ACAD_REACTORS
330
9
102
}
330
9
100
AcDbDictionary
281
     1
  0
DICTIONARY
  5
2C
102
{ACAD_REACTORS
330
9
102
}
330
9
100
AcDbDictionary
281
     1
  0
DICTIONARY
  5
D
102
{ACAD_REACTORS
330
9
102
}
330
9
100
AcDbDictionary
281
     1
  3
Model
350
C
  3
ﾚｲｱｳﾄ1
350
13
  0
DICTIONARY
  5
2F
102
{ACAD_REACTORS
330
9
102
}
330
9
100
AcDbDictionary
281
     1
  0
DICTIONARY
  5
2D
102
{ACAD_REACTORS
330
9
102
}
330
9
100
AcDbDictionary
281
     1
  3
STANDARD
350
32
  0
DICTIONARY
  5
2E
102
{ACAD_REACTORS
330
9
102
}
330
9
100
AcDbDictionary
281
     1
  0
ACDBDICTIONARYWDFLT
  5
8
102
{ACAD_REACTORS
330
9
102
}
330
9
100
AcDbDictionary
281
     1
  3
Normal
350
7
100
AcDbDictionaryWithDefault
340
7
  0
DICTIONARY
  5
11E
102
{ACAD_REACTORS
330
9
102
}
330
9
100
AcDbDictionary
281
     1
  3
COLORDICT
350
120
  3
MATERIALDICT
350
11F
  0
DICTIONARY
  5
F7
102
{ACAD_REACTORS
330
9
102
}
330
9
100
AcDbDictionary
281
     1
  3
DIMASSOC
350
F9
  3
HIDETEXT
350
F8
  3
PROJECTNAME
350
FA
  0
DICTIONARY
  5
16
102
{ACAD_REACTORS
330
15
102
}
330
15
100
AcDbDictionary
280
     1
281
     1
  0
XRECORD
  5
4
102
{ACAD_REACTORS
330
3
102
}
330
3
100
AcDbXrecord
280
     1
340
2
  0
XRECORD
  5
10
102
{ACAD_REACTORS
330
F
102
}
330
F
100
AcDbXrecord
280
     1
340
E
  0
LAYOUT
  5
C
102
{ACAD_XDICTIONARY
360
121
102
}
102
{ACAD_REACTORS
330
D
102
}
330
D
100
AcDbPlotSettings
  1

  2
\\MARS\NX800A(RPDL)
  4
A4
  6

 40
5.831416606903076
 41
4.942422866821289
 42
7.609405517578125
 43
5.789093017578125
 44
209.9733276367186
 45
296.9683227539062
 46
4.23
 47
0.0
 48
0.0
 49
0.0
140
0.0
141
0.0
142
1.0
143
1.377557041813
 70
 11956
 72
     1
 73
     0
 74
     1
  7
tmsacad.ctb
 75
     0
147
0.7259227528494222
148
0.5228791232484547
149
0.0333900090324306
100
AcDbLayout
  1
Model
 70
     1
 71
     0
 10
0.0
 20
0.0
 11
12.0
 21
9.0
 12
0.0
 22
0.0
 32
0.0
 14
0.0
 24
0.0
 34
0.0
 15
0.0
 25
0.0
 35
0.0
146
0.0
 13
0.0
 23
0.0
 33
0.0
 16
1.0
 26
0.0
 36
0.0
 17
0.0
 27
1.0
 37
0.0
 76
     0
330
2
  0
LAYOUT
  5
13
102
{ACAD_XDICTIONARY
360
123
102
}
102
{ACAD_REACTORS
330
D
102
}
330
D
100
AcDbPlotSettings
  1

  2
C:\Program Files\ACAD2000\plotters\DWF ePlot.pc3
  4

  6

 40
0.0
 41
0.0
 42
0.0
 43
0.0
 44
0.0
 45
0.0
 46
0.0
 47
0.0
 48
0.0
 49
0.0
140
0.0
141
0.0
142
1.0
143
1.0
 70
   688
 72
     0
 73
     0
 74
     5
  7
tmsacad.ctb
 75
    16
147
1.0
148
0.0
149
0.0
100
AcDbLayout
  1
ﾚｲｱｳﾄ1
 70
     1
 71
     1
 10
0.0
 20
0.0
 11
12.0
 21
9.0
 12
0.0
 22
0.0
 32
0.0
 14
1.000000000000000E+20
 24
1.000000000000000E+20
 34
1.000000000000000E+20
 15
-1.000000000000000E+20
 25
-1.000000000000000E+20
 35
-1.000000000000000E+20
146
0.0
 13
0.0
 23
0.0
 33
0.0
 16
1.0
 26
0.0
 36
0.0
 17
0.0
 27
1.0
 37
0.0
 76
     0
330
E
  0
MLINESTYLE
  5
32
102
{ACAD_REACTORS
330
2D
102
}
330
2D
100
AcDbMlineStyle
  2
STANDARD
 70
     0
  3

 62
   256
 51
90.0
 52
90.0
 71
     2
 49
0.5
 62
   256
  6
BYLAYER
 49
-0.5
 62
   256
  6
BYLAYER
  0
ACDBPLACEHOLDER
  5
7
102
{ACAD_REACTORS
330
8
102
}
330
8
  0
XRECORD
  5
120
102
{ACAD_REACTORS
330
11E
102
}
330
11E
100
AcDbXrecord
280
     1
340
30
  0
XRECORD
  5
11F
102
{ACAD_REACTORS
330
11E
102
}
330
11E
100
AcDbXrecord
280
     1
340
2F
  0
DICTIONARYVAR
  5
F9
102
{ACAD_REACTORS
330
F7
102
}
330
F7
100
DictionaryVariables
280
     0
  1
1
  0
DICTIONARYVAR
  5
F8
102
{ACAD_REACTORS
330
F7
102
}
330
F7
100
DictionaryVariables
280
     0
  1
1
  0
DICTIONARYVAR
  5
FA
102
{ACAD_REACTORS
330
F7
102
}
330
F7
100
DictionaryVariables
280
     0
  1

  0
DICTIONARY
  5
121
330
C
100
AcDbDictionary
280
     1
281
     1
  3
ACAD_XREC_ROUNDTRIP
360
122
  0
DICTIONARY
  5
123
330
13
100
AcDbDictionary
280
     1
281
     1
  3
ACAD_XREC_ROUNDTRIP
360
124
  0
XRECORD
  5
122
102
{ACAD_REACTORS
330
121
102
}
330
121
100
AcDbXrecord
280
     1
102
SHADEPLOT
 70
     0
102
SHADEPLOTRESLEVEL
 70
     2
102
SHADEPLOTCUSTOMDPI
 70
   300
  0
XRECORD
  5
124
102
{ACAD_REACTORS
330
123
102
}
330
123
100
AcDbXrecord
280
     1
102
SHADEPLOT
 70
     0
102
SHADEPLOTRESLEVEL
 70
     2
102
SHADEPLOTCUSTOMDPI
 70
   300
  0
ENDSEC
  0
EOF
