  0
SECTION
  2
HEADER
  9
$ACADVER
  1
AC1015
  9
$ACADMAINTVER
 70
    20
  9
$DWGCODEPAGE
  3
ANSI_932
  9
$INSBASE
 10
129.0
 20
119.9138814556559
 30
0.0
  9
$EXTMIN
 10
-63.92113306193824
 20
-55.22720036032388
 30
-0.0000000349181948
  9
$EXTMAX
 10
61.18036277292595
 20
57.92874406299507
 30
0.0000000814935747
  9
$LIMMIN
 10
-1101.784450318844
 20
-1579.160531687244
  9
$LIMMAX
 10
-508.2420711400536
 20
-1161.440814074914
  9
$ORTHOMODE
 70
     1
  9
$REGENMODE
 70
     1
  9
$FILLMODE
 70
     1
  9
$QTEXTMODE
 70
     0
  9
$MIRRTEXT
 70
     1
  9
$LTSCALE
 40
1.0
  9
$ATTMODE
 70
     1
  9
$TEXTSIZE
 40
2.5
  9
$TRACEWID
 40
0.5
  9
$TEXTSTYLE
  7
STANDARD
  9
$CLAYER
  8
GAIKEI
  9
$CELTYPE
  6
BYLAYER
  9
$CECOLOR
 62
   256
  9
$CELTSCALE
 40
1.0
  9
$DISPSILH
 70
     0
  9
$DIMSCALE
 40
1.0
  9
$DIMASZ
 40
2.0
  9
$DIMEXO
 40
2.0
  9
$DIMDLI
 40
8.0
  9
$DIMRND
 40
0.0
  9
$DIMDLE
 40
0.0
  9
$DIMEXE
 40
2.0
  9
$DIMTP
 40
0.0
  9
$DIMTM
 40
0.0
  9
$DIMTXT
 40
2.5
  9
$DIMCEN
 40
0.0
  9
$DIMTSZ
 40
0.0
  9
$DIMTOL
 70
     0
  9
$DIMLIM
 70
     0
  9
$DIMTIH
 70
     0
  9
$DIMTOH
 70
     0
  9
$DIMSE1
 70
     0
  9
$DIMSE2
 70
     0
  9
$DIMTAD
 70
     3
  9
$DIMZIN
 70
     0
  9
$DIMBLK
  1

  9
$DIMASO
 70
     1
  9
$DIMSHO
 70
     1
  9
$DIMPOST
  1

  9
$DIMAPOST
  1

  9
$DIMALT
 70
     0
  9
$DIMALTD
 70
     2
  9
$DIMALTF
 40
25.4
  9
$DIMLFAC
 40
1.0
  9
$DIMTOFL
 70
     1
  9
$DIMTVP
 40
0.0
  9
$DIMTIX
 70
     0
  9
$DIMSOXD
 70
     0
  9
$DIMSAH
 70
     1
  9
$DIMBLK1
  1
OPEN30
  9
$DIMBLK2
  1
OPEN30
  9
$DIMSTYLE
  2
STANDARD
  9
$DIMCLRD
 70
     0
  9
$DIMCLRE
 70
     0
  9
$DIMCLRT
 70
     0
  9
$DIMTFAC
 40
1.0
  9
$DIMGAP
 40
0.5
  9
$DIMJUST
 70
     0
  9
$DIMSD1
 70
     0
  9
$DIMSD2
 70
     0
  9
$DIMTOLJ
 70
     1
  9
$DIMTZIN
 70
     0
  9
$DIMALTZ
 70
     0
  9
$DIMALTTZ
 70
     0
  9
$DIMUPT
 70
     0
  9
$DIMDEC
 70
     4
  9
$DIMTDEC
 70
     4
  9
$DIMALTU
 70
     2
  9
$DIMALTTD
 70
     2
  9
$DIMTXSTY
  7
STANDARD
  9
$DIMAUNIT
 70
     0
  9
$DIMADEC
 70
     0
  9
$DIMALTRND
 40
0.0
  9
$DIMAZIN
 70
     0
  9
$DIMDSEP
 70
    46
  9
$DIMATFIT
 70
     3
  9
$DIMFRAC
 70
     0
  9
$DIMLDRBLK
  1
OPEN30
  9
$DIMLUNIT
 70
     2
  9
$DIMLWD
 70
    -2
  9
$DIMLWE
 70
    -2
  9
$DIMTMOVE
 70
     0
  9
$LUNITS
 70
     2
  9
$LUPREC
 70
     4
  9
$SKETCHINC
 40
0.1
  9
$FILLETRAD
 40
0.5
  9
$AUNITS
 70
     0
  9
$AUPREC
 70
     0
  9
$MENU
  1
ACAD
  9
$ELEVATION
 40
0.0
  9
$PELEVATION
 40
0.0
  9
$THICKNESS
 40
0.0
  9
$LIMCHECK
 70
     0
  9
$CHAMFERA
 40
0.0
  9
$CHAMFERB
 40
0.0
  9
$CHAMFERC
 40
0.0
  9
$CHAMFERD
 40
0.0
  9
$SKPOLY
 70
     0
  9
$TDCREATE
 40
2451815.565532581
  9
$TDUCREATE
 40
2451815.190532581
  9
$TDUPDATE
 40
2453731.734425995
  9
$TDUUPDATE
 40
2453731.359425995
  9
$TDINDWG
 40
0.5407708565
  9
$TDUSRTIMER
 40
0.5407708565
  9
$USRTIMER
 70
     1
  9
$ANGBASE
 50
0.0
  9
$ANGDIR
 70
     0
  9
$PDMODE
 70
     0
  9
$PDSIZE
 40
0.0
  9
$PLINEWID
 40
0.0
  9
$SPLFRAME
 70
     0
  9
$SPLINETYPE
 70
     6
  9
$SPLINESEGS
 70
     8
  9
$HANDSEED
  5
125
  9
$SURFTAB1
 70
     6
  9
$SURFTAB2
 70
     6
  9
$SURFTYPE
 70
     6
  9
$SURFU
 70
     6
  9
$SURFV
 70
     6
  9
$UCSBASE
  2

  9
$UCSNAME
  2

  9
$UCSORG
 10
0.0
 20
0.0
 30
0.0
  9
$UCSXDIR
 10
1.0
 20
0.0
 30
0.0
  9
$UCSYDIR
 10
0.0
 20
1.0
 30
0.0
  9
$UCSORTHOREF
  2

  9
$UCSORTHOVIEW
 70
     0
  9
$UCSORGTOP
 10
0.0
 20
0.0
 30
0.0
  9
$UCSORGBOTTOM
 10
0.0
 20
0.0
 30
0.0
  9
$UCSORGLEFT
 10
0.0
 20
0.0
 30
0.0
  9
$UCSORGRIGHT
 10
0.0
 20
0.0
 30
0.0
  9
$UCSORGFRONT
 10
0.0
 20
0.0
 30
0.0
  9
$UCSORGBACK
 10
0.0
 20
0.0
 30
0.0
  9
$PUCSBASE
  2

  9
$PUCSNAME
  2

  9
$PUCSORG
 10
0.0
 20
0.0
 30
0.0
  9
$PUCSXDIR
 10
1.0
 20
0.0
 30
0.0
  9
$PUCSYDIR
 10
0.0
 20
1.0
 30
0.0
  9
$PUCSORTHOREF
  2

  9
$PUCSORTHOVIEW
 70
     0
  9
$PUCSORGTOP
 10
0.0
 20
0.0
 30
0.0
  9
$PUCSORGBOTTOM
 10
0.0
 20
0.0
 30
0.0
  9
$PUCSORGLEFT
 10
0.0
 20
0.0
 30
0.0
  9
$PUCSORGRIGHT
 10
0.0
 20
0.0
 30
0.0
  9
$PUCSORGFRONT
 10
0.0
 20
0.0
 30
0.0
  9
$PUCSORGBACK
 10
0.0
 20
0.0
 30
0.0
  9
$USERI1
 70
     0
  9
$USERI2
 70
     0
  9
$USERI3
 70
     0
  9
$USERI4
 70
     0
  9
$USERI5
 70
     0
  9
$USERR1
 40
0.0
  9
$USERR2
 40
0.0
  9
$USERR3
 40
0.0
  9
$USERR4
 40
0.0
  9
$USERR5
 40
0.0
  9
$WORLDVIEW
 70
     1
  9
$SHADEDGE
 70
     3
  9
$SHADEDIF
 70
    70
  9
$TILEMODE
 70
     1
  9
$MAXACTVP
 70
    48
  9
$PINSBASE
 10
0.0
 20
0.0
 30
0.0
  9
$PLIMCHECK
 70
     0
  9
$PEXTMIN
 10
1.000000000000000E+20
 20
1.000000000000000E+20
 30
1.000000000000000E+20
  9
$PEXTMAX
 10
-1.000000000000000E+20
 20
-1.000000000000000E+20
 30
-1.000000000000000E+20
  9
$PLIMMIN
 10
0.0
 20
0.0
  9
$PLIMMAX
 10
12.0
 20
9.0
  9
$UNITMODE
 70
     0
  9
$VISRETAIN
 70
     1
  9
$PLINEGEN
 70
     0
  9
$PSLTSCALE
 70
     1
  9
$TREEDEPTH
 70
  3020
  9
$CMLSTYLE
  2
STANDARD
  9
$CMLJUST
 70
     0
  9
$CMLSCALE
 40
1.0
  9
$PROXYGRAPHICS
 70
     1
  9
$MEASUREMENT
 70
     0
  9
$CELWEIGHT
370
    -1
  9
$ENDCAPS
280
     0
  9
$JOINSTYLE
280
     0
  9
$LWDISPLAY
290
     0
  9
$INSUNITS
 70
     0
  9
$HYPERLINKBASE
  1

  9
$STYLESHEET
  1

  9
$XEDIT
290
     1
  9
$CEPSNTYPE
380
     0
  9
$PSTYLEMODE
290
     1
  9
$FINGERPRINTGUID
  2
{1754B7AB-9B3C-11D4-AD9E-00104B1004F2}
  9
$VERSIONGUID
  2
{BCF80DA3-7F38-406A-83FB-E1D09DAFC7F8}
  9
$EXTNAMES
290
     1
  9
$PSVPSCALE
 40
0.0
  9
$OLESTARTUP
290
     0
  0
ENDSEC
  0
SECTION
  2
CLASSES
  0
CLASS
  1
ACDBDICTIONARYWDFLT
  2
AcDbDictionaryWithDefault
  3
ObjectDBX Classes
 90
        0
280
     0
281
     0
  0
CLASS
  1
ACDBPLACEHOLDER
  2
AcDbPlaceHolder
  3
ObjectDBX Classes
 90
        0
280
     0
281
     0
  0
CLASS
  1
LAYOUT
  2
AcDbLayout
  3
ObjectDBX Classes
 90
        0
280
     0
281
     0
  0
CLASS
  1
DICTIONARYVAR
  2
AcDbDictionaryVar
  3
ObjectDBX Classes
 90
        0
280
     0
281
     0
  0
ENDSEC
  0
SECTION
  2
TABLES
  0
TABLE
  2
VPORT
  5
1F
330
0
100
AcDbSymbolTable
 70
     2
  0
VPORT
  5
11D
330
1F
100
AcDbSymbolTableRecord
100
AcDbViewportTableRecord
  2
*Active
 70
     0
 10
0.0
 20
0.0
 11
1.0
 21
1.0
 12
-1.370385144506144
 22
1.350771851335593
 13
0.0
 23
0.0
 14
1.0
 24
1.0
 15
0.0
 25
0.0
 16
0.0
 26
0.0
 36
1.0
 17
0.0
 27
0.0
 37
0.0
 40
114.1258525183759
 41
1.589413447782546
 42
50.0
 43
0.0
 44
0.0
 50
0.0
 51
0.0
 71
     0
 72
  1000
 73
     1
 74
     0
 75
     0
 76
     1
 77
     0
 78
     0
281
     0
 65
     1
110
0.0
120
0.0
130
0.0
111
1.0
121
0.0
131
0.0
112
0.0
122
1.0
132
0.0
 79
     0
146
0.0
  0
ENDTAB
  0
TABLE
  2
LTYPE
  5
1A
330
0
100
AcDbSymbolTable
 70
     1
  0
LTYPE
  5
1B
330
1A
100
AcDbSymbolTableRecord
100
AcDbLinetypeTableRecord
  2
BYBLOCK
 70
     0
  3

 72
    65
 73
     0
 40
0.0
  0
LTYPE
  5
1C
330
1A
100
AcDbSymbolTableRecord
100
AcDbLinetypeTableRecord
  2
BYLAYER
 70
     0
  3

 72
    65
 73
     0
 40
0.0
  0
LTYPE
  5
A
330
1A
100
AcDbSymbolTableRecord
100
AcDbLinetypeTableRecord
  2
CONTINUOUS
 70
     0
  3
Solid line
 72
    65
 73
     0
 40
0.0
  0
ENDTAB
  0
TABLE
  2
LAYER
  5
14
102
{ACAD_XDICTIONARY
360
15
102
}
330
0
100
AcDbSymbolTable
 70
     7
  0
LAYER
  5
6
330
14
100
AcDbSymbolTableRecord
100
AcDbLayerTableRecord
  2
0
 70
     0
 62
     7
  6
CONTINUOUS
370
    -3
390
7
  0
LAYER
  5
85
330
14
100
AcDbSymbolTableRecord
100
AcDbLayerTableRecord
  2
DEFPOINTS
 70
     0
 62
     7
  6
CONTINUOUS
290
     0
370
    -3
390
7
  0
LAYER
  5
C2
330
14
100
AcDbSymbolTableRecord
100
AcDbLayerTableRecord
  2
WAKU
 70
     0
 62
     4
  6
CONTINUOUS
370
    -3
390
7
  0
LAYER
  5
34
330
14
100
AcDbSymbolTableRecord
100
AcDbLayerTableRecord
  2
MOJI1
 70
     0
 62
     2
  6
CONTINUOUS
370
    -3
390
7
  0
LAYER
  5
31
330
14
100
AcDbSymbolTableRecord
100
AcDbLayerTableRecord
  2
GAIKEI
 70
     0
 62
     7
  6
CONTINUOUS
370
    -3
390
7
  0
LAYER
  5
36
330
14
100
AcDbSymbolTableRecord
100
AcDbLayerTableRecord
  2
TOUROKU
 70
     0
 62
     1
  6
CONTINUOUS
370
    -3
390
7
  0
LAYER
  5
73
330
14
100
AcDbSymbolTableRecord
100
AcDbLayerTableRecord
  2
SUNPO
 70
     0
 62
     3
  6
CONTINUOUS
370
    -3
390
7
  0
ENDTAB
  0
TABLE
  2
STYLE
  5
17
330
0
100
AcDbSymbolTable
 70
     1
  0
STYLE
  5
18
330
17
100
AcDbSymbolTableRecord
100
AcDbTextStyleTableRecord
  2
STANDARD
 70
     0
 40
0.0
 41
1.0
 50
0.0
 71
     0
 42
2.5
  3
MONOTXT.shx
  4
BIGFONT.shx
  0
ENDTAB
  0
TABLE
  2
VIEW
  5
1D
330
0
100
AcDbSymbolTable
 70
     0
  0
ENDTAB
  0
TABLE
  2
UCS
  5
1E
330
0
100
AcDbSymbolTable
 70
     0
  0
ENDTAB
  0
TABLE
  2
APPID
  5
21
330
0
100
AcDbSymbolTable
 70
     1
  0
APPID
  5
22
330
21
100
AcDbSymbolTableRecord
100
AcDbRegAppTableRecord
  2
ACAD
 70
     0
  0
ENDTAB
  0
TABLE
  2
DIMSTYLE
  5
23
330
0
100
AcDbSymbolTable
 70
     1
100
AcDbDimStyleTable
 71
     1
340
24
  0
DIMSTYLE
105
24
102
{ACAD_REACTORS
330
89
330
79
102
}
330
23
100
AcDbSymbolTableRecord
100
AcDbDimStyleTableRecord
  2
STANDARD
 70
     0
 40
0.0
 41
2.0
 42
2.0
 43
8.0
 44
2.0
 73
     0
 74
     0
 77
     3
140
3.0
141
0.0
173
     1
279
     2
288
     1
340
18
341
25
343
25
344
25
  0
ENDTAB
  0
TABLE
  2
BLOCK_RECORD
  5
1
330
0
100
AcDbSymbolTable
 70
     5
  0
BLOCK_RECORD
  5
2
102
{ACAD_XDICTIONARY
360
3
102
}
330
1
100
AcDbSymbolTableRecord
100
AcDbBlockTableRecord
  2
*MODEL_SPACE
340
C
  0
BLOCK_RECORD
  5
E
102
{ACAD_XDICTIONARY
360
F
102
}
330
1
100
AcDbSymbolTableRecord
100
AcDbBlockTableRecord
  2
*PAPER_SPACE
340
13
  0
BLOCK_RECORD
  5
25
330
1
100
AcDbSymbolTableRecord
100
AcDbBlockTableRecord
  2
_OPEN30
340
0
102
{BLKREFS
331
74
331
75
331
81
331
82
331
90
331
91
331
10C
331
10D
331
117
331
118
102
}
  0
BLOCK_RECORD
  5
DC
330
1
100
AcDbSymbolTableRecord
100
AcDbBlockTableRecord
  2
*D3
340
0
  0
BLOCK_RECORD
  5
E9
330
1
100
AcDbSymbolTableRecord
100
AcDbBlockTableRecord
  2
*D4
340
0
  0
ENDTAB
  0
ENDSEC
  0
SECTION
  2
BLOCKS
  0
BLOCK
  5
5
330
2
100
AcDbEntity
  8
0
100
AcDbBlockBegin
  2
*MODEL_SPACE
 70
     0
 10
0.0
 20
0.0
 30
0.0
  3
*MODEL_SPACE
  1

  0
ENDBLK
  5
B
330
2
100
AcDbEntity
  8
0
100
AcDbBlockEnd
  0
BLOCK
  5
11
330
E
100
AcDbEntity
 67
     1
  8
0
100
AcDbBlockBegin
  2
*PAPER_SPACE
 70
     0
 10
0.0
 20
0.0
 30
0.0
  3
*PAPER_SPACE
  1

  0
ENDBLK
  5
12
330
E
100
AcDbEntity
 67
     1
  8
0
100
AcDbBlockEnd
  0
BLOCK
  5
26
330
25
100
AcDbEntity
  8
0
100
AcDbBlockBegin
  2
_OPEN30
 70
     0
 10
0.0
 20
0.0
 30
0.0
  3
_OPEN30
  1

  0
LINE
  5
27
330
25
100
AcDbEntity
  8
0
  6
ByBlock
 62
     0
100
AcDbLine
 10
-1.0
 20
0.26794919
 30
0.0
 11
0.0
 21
0.0
 31
0.0
  0
LINE
  5
28
330
25
100
AcDbEntity
  8
0
  6
ByBlock
 62
     0
100
AcDbLine
 10
0.0
 20
0.0
 30
0.0
 11
-1.0
 21
-0.26794919
 31
0.0
  0
LINE
  5
29
330
25
100
AcDbEntity
  8
0
  6
ByBlock
 62
     0
100
AcDbLine
 10
0.0
 20
0.0
 30
0.0
 11
-1.0
 21
0.0
 31
0.0
  0
ENDBLK
  5
2A
330
25
100
AcDbEntity
  8
0
100
AcDbBlockEnd
  0
BLOCK
  5
E7
330
DC
100
AcDbEntity
  8
0
100
AcDbBlockBegin
  2
*D3
 70
     1
 10
0.0
 20
0.0
 30
0.0
  3
*D3
  1

  0
LINE
  5
108
330
DC
100
AcDbEntity
  8
SUNPO
 62
     0
370
    -2
100
AcDbLine
 10
-20.1772216837771
 20
28.01955380438332
 30
0.0
 11
-20.1772216837771
 21
36.01955380438332
 31
0.0
  0
LINE
  5
109
330
DC
100
AcDbEntity
  8
SUNPO
 62
     0
370
    -2
100
AcDbLine
 10
-14.8254891837773
 20
28.01955380438332
 30
0.0
 11
-14.8254891837773
 21
36.01955380438332
 31
0.0
  0
LINE
  5
10A
330
DC
100
AcDbEntity
  8
SUNPO
 62
     0
370
    -2
100
AcDbLine
 10
-18.1772216837771
 20
34.01955380438332
 30
0.0
 11
-16.8254891837773
 21
34.01955380438332
 31
0.0
  0
LINE
  5
10B
330
DC
100
AcDbEntity
  8
SUNPO
 62
     0
370
    -2
100
AcDbLine
 10
-14.8254891837773
 20
34.01955380438332
 30
0.0
 11
-5.158822517110634
 21
34.01955380438332
 31
0.0
  0
INSERT
  5
10C
330
DC
100
AcDbEntity
  8
SUNPO
 62
     0
370
    -2
100
AcDbBlockReference
  2
_OPEN30
 10
-20.1772216837771
 20
34.01955380438332
 30
0.0
 41
2.0
 42
2.0
 43
2.0
 50
180.0
  0
INSERT
  5
10D
330
DC
100
AcDbEntity
  8
SUNPO
 62
     0
370
    -2
100
AcDbBlockReference
  2
_OPEN30
 10
-14.8254891837773
 20
34.01955380438332
 30
0.0
 41
2.0
 42
2.0
 43
2.0
  0
MTEXT
  5
10E
330
DC
100
AcDbEntity
  8
SUNPO
 62
     0
100
AcDbMText
 10
-8.992155850443968
 20
35.76955380438332
 30
0.0
 40
2.5
 41
0.0
 71
     5
 72
     1
  1
\A1;107
 73
     1
 44
1.0
1001
ACAD
1000
MTEXTBEGIN
1070
    73
1070
     1
1070
    44
1040
1.0
1070
    74
1070
     0
1000
MTEXTEND
  0
POINT
  5
10F
330
DC
100
AcDbEntity
  8
DEFPOINTS
 62
     0
100
AcDbPoint
 10
-20.1772216837771
 20
26.01955380438332
 30
0.0
  0
POINT
  5
110
330
DC
100
AcDbEntity
  8
DEFPOINTS
 62
     0
100
AcDbPoint
 10
-14.8254891837773
 20
26.01955380438332
 30
0.0
  0
POINT
  5
111
330
DC
100
AcDbEntity
  8
DEFPOINTS
 62
     0
100
AcDbPoint
 10
-14.8254891837773
 20
34.01955380438332
 30
0.0
  0
ENDBLK
  5
E8
330
DC
100
AcDbEntity
  8
0
100
AcDbBlockEnd
  0
BLOCK
  5
F5
330
E9
100
AcDbEntity
  8
0
100
AcDbBlockBegin
  2
*D4
 70
     1
 10
0.0
 20
0.0
 30
0.0
  3
*D4
  1

  0
LINE
  5
112
330
E9
100
AcDbEntity
  8
SUNPO
 62
     0
370
    -2
100
AcDbLine
 10
9.706424345223267
 20
28.01955380438332
 30
0.0
 11
9.706424345223267
 21
36.01955380438332
 31
0.0
  0
LINE
  5
113
330
E9
100
AcDbEntity
  8
SUNPO
 62
     0
370
    -2
100
AcDbLine
 10
14.09642684522325
 20
28.01955380438332
 30
0.0
 11
14.09642684522325
 21
36.01955380438332
 31
0.0
  0
LINE
  5
114
330
E9
100
AcDbEntity
  8
SUNPO
 62
     0
370
    -2
100
AcDbLine
 10
7.706424345223267
 20
34.01955380438332
 30
0.0
 11
5.706424345223267
 21
34.01955380438332
 31
0.0
  0
LINE
  5
115
330
E9
100
AcDbEntity
  8
SUNPO
 62
     0
370
    -2
100
AcDbLine
 10
16.09642684522325
 20
34.01955380438332
 30
0.0
 11
23.26309351188992
 21
34.01955380438332
 31
0.0
  0
LINE
  5
116
330
E9
100
AcDbEntity
  8
SUNPO
 62
     0
370
    -2
100
AcDbLine
 10
9.706424345223267
 20
34.01955380438332
 30
0.0
 11
14.09642684522325
 21
34.01955380438332
 31
0.0
  0
INSERT
  5
117
330
E9
100
AcDbEntity
  8
SUNPO
 62
     0
370
    -2
100
AcDbBlockReference
  2
_OPEN30
 10
9.706424345223267
 20
34.01955380438332
 30
0.0
 41
2.0
 42
2.0
 43
2.0
  0
INSERT
  5
118
330
E9
100
AcDbEntity
  8
SUNPO
 62
     0
370
    -2
100
AcDbBlockReference
  2
_OPEN30
 10
14.09642684522325
 20
34.01955380438332
 30
0.0
 41
2.0
 42
2.0
 43
2.0
 50
180.0
  0
MTEXT
  5
119
330
E9
100
AcDbEntity
  8
SUNPO
 62
     0
100
AcDbMText
 10
20.67976017855658
 20
35.76955380438332
 30
0.0
 40
2.5
 41
0.0
 71
     5
 72
     1
  1
\A1;88
 73
     1
 44
1.0
1001
ACAD
1000
MTEXTBEGIN
1070
    73
1070
     1
1070
    44
1040
1.0
1070
    74
1070
     0
1000
MTEXTEND
  0
POINT
  5
11A
330
E9
100
AcDbEntity
  8
DEFPOINTS
 62
     0
100
AcDbPoint
 10
9.706424345223267
 20
26.01955380438332
 30
0.0
  0
POINT
  5
11B
330
E9
100
AcDbEntity
  8
DEFPOINTS
 62
     0
100
AcDbPoint
 10
14.09642684522325
 20
26.01955380438332
 30
0.0
  0
POINT
  5
11C
330
E9
100
AcDbEntity
  8
DEFPOINTS
 62
     0
100
AcDbPoint
 10
14.09642684522325
 20
34.01955380438332
 30
0.0
  0
ENDBLK
  5
F6
330
E9
100
AcDbEntity
  8
0
100
AcDbBlockEnd
  0
ENDSEC
  0
SECTION
  2
ENTITIES
  0
TEXT
  5
33
330
2
100
AcDbEntity
  8
MOJI1
100
AcDbText
 10
-36.88516375099891
 20
53.86234297360082
 30
0.0
 40
4.0
  1
スピーカ
100
AcDbText
  0
TEXT
  5
35
330
2
100
AcDbEntity
  8
TOUROKU
100
AcDbText
 10
40.31478628192873
 20
47.86234297360116
 30
0.0
 40
2.0
  1
ＴＹＳＰ４２Ｐ８Ｓ
 72
     2
 11
61.11478628192873
 21
47.86234297360116
 31
0.0
100
AcDbText
  0
LINE
  5
37
330
2
100
AcDbEntity
  8
GAIKEI
  6
Continuous
100
AcDbLine
 10
14.09642659522322
 20
22.22579553891216
 30
0.0
 11
14.09642659522322
 21
22.28901578891219
 31
0.0
  0
LINE
  5
38
330
2
100
AcDbEntity
  8
GAIKEI
  6
Continuous
100
AcDbLine
 10
9.706424345223267
 20
25.9415511040184
 30
0.0
 11
9.881428566234632
 21
26.22043221543112
 31
0.0
  0
LINE
  5
39
330
2
100
AcDbEntity
  8
GAIKEI
  6
Continuous
100
AcDbLine
 10
11.90642434522331
 20
25.35816982206396
 30
0.0
 11
11.90642434522331
 21
26.26965528891219
 31
0.0
  0
SPLINE
  5
3A
330
2
100
AcDbEntity
  8
GAIKEI
  6
Continuous
100
AcDbSpline
210
0.0
220
0.0
230
1.0
 70
     8
 71
     3
 72
     9
 73
     5
 74
     3
 42
0.0000000001
 43
0.0000000001
 44
0.000001
 12
0.6535156864074856
 22
-0.7569129722889898
 32
0.0
 13
0.641560766438372
 23
-0.7670722149621957
 33
0.0
 40
0.0
 40
0.0
 40
0.0
 40
0.0
 40
0.0011430106086587
 40
0.0022866783577057
 40
0.0022866783577057
 40
0.0022866783577057
 40
0.0022866783577057
 10
13.91826504295525
 20
22.77678426920244
 30
0.0
 10
13.91851403474274
 20
22.77649588268339
 30
0.0
 10
13.91900806638478
 20
22.77591540768292
 30
0.0
 10
13.91949751628392
 20
22.7753310889848
 30
0.0
 10
13.91974209373646
 20
22.77503866373365
 30
0.0
 11
13.91826504295525
 21
22.77678426920244
 31
0.0
 11
13.91900678366736
 21
22.77591460509501
 31
0.0
 11
13.91974209373646
 21
22.77503866373365
 31
0.0
  0
LINE
  5
3B
330
2
100
AcDbEntity
  8
GAIKEI
100
AcDbLine
 10
9.881428566234632
 20
26.22043221543112
 30
0.0
 11
10.86571377342377
 21
26.32104696451495
 31
0.0
  0
LINE
  5
3C
330
2
100
AcDbEntity
  8
GAIKEI
100
AcDbLine
 10
10.86571377342377
 20
26.32104696451495
 30
0.0
 11
11.8560580117053
 21
26.32386678873365
 31
0.0
  0
LINE
  5
3D
330
2
100
AcDbEntity
  8
GAIKEI
100
AcDbLine
 10
11.90642434522331
 20
26.26965528891219
 30
0.0
 11
11.8560580117053
 21
26.32386678873365
 31
0.0
  0
LINE
  5
3E
330
2
100
AcDbEntity
  8
GAIKEI
100
AcDbLine
 10
13.9795736126604
 20
22.70366190419793
 30
0.0
 11
12.02327732778613
 21
25.036924801824
 31
0.0
  0
ARC
  5
3F
330
2
100
AcDbEntity
  8
GAIKEI
100
AcDbCircle
 10
12.40642434522331
 20
25.35816982206396
 30
0.0
 40
0.5
100
AcDbArc
 50
180.0
 51
219.9777471365737
  0
ARC
  5
40
330
2
100
AcDbEntity
  8
GAIKEI
100
AcDbCircle
 10
13.59642659522322
 20
22.38241688395797
 30
0.0
 40
0.5
100
AcDbArc
 50
0.0
 51
39.97774713657351
  0
LINE
  5
41
330
2
100
AcDbEntity
  8
GAIKEI
100
AcDbLine
 10
13.83381680076766
 20
22.44834188638993
 30
0.0
 11
13.4766634804553
 21
22.5683125895149
 31
0.0
  0
ARC
  5
42
330
2
100
AcDbEntity
  8
GAIKEI
100
AcDbCircle
 10
13.76592120522289
 20
22.10200748183309
 30
0.0
 40
0.3529268078144859
100
AcDbArc
 50
20.53301155991607
 51
78.90836575227895
  0
LINE
  5
43
330
2
100
AcDbEntity
  8
GAIKEI
100
AcDbLine
 10
13.4766634804553
 20
22.5683125895149
 30
0.0
 11
10.87379484522333
 21
24.95725100886208
 31
0.0
  0
LINE
  5
44
330
2
100
AcDbEntity
  8
GAIKEI
100
AcDbLine
 10
13.4766634804553
 20
1.082112613313199
 30
0.0
 11
10.87379484522333
 21
-1.306825806033969
 31
0.0
  0
ARC
  5
45
330
2
100
AcDbEntity
  8
GAIKEI
100
AcDbCircle
 10
13.76592120522289
 20
1.548417720995018
 30
0.0
 40
0.3529268078144859
100
AcDbArc
 50
281.0916342477211
 51
339.4669884400839
  0
LINE
  5
46
330
2
100
AcDbEntity
  8
GAIKEI
100
AcDbLine
 10
13.83381680076766
 20
1.202083316438177
 30
0.0
 11
13.4766634804553
 21
1.082112613313199
 31
0.0
  0
ARC
  5
47
330
2
100
AcDbEntity
  8
GAIKEI
100
AcDbCircle
 10
13.59642659522322
 20
1.268008318870129
 30
0.0
 40
0.5
100
AcDbArc
 50
320.0222528634265
 51
0.0
  0
ARC
  5
48
330
2
100
AcDbEntity
  8
GAIKEI
100
AcDbCircle
 10
12.40642434522331
 20
-1.707744619235852
 30
0.0
 40
0.5
100
AcDbArc
 50
140.0222528634263
 51
180.0
  0
LINE
  5
49
330
2
100
AcDbEntity
  8
GAIKEI
100
AcDbLine
 10
13.9795736126604
 20
0.9467632986301735
 30
0.0
 11
12.02327732778613
 21
-1.386499598995896
 31
0.0
  0
LINE
  5
4A
330
2
100
AcDbEntity
  8
GAIKEI
100
AcDbLine
 10
11.90642434522331
 20
-2.619230086084086
 30
0.0
 11
11.8560580117053
 21
-2.673441585905549
 31
0.0
  0
LINE
  5
4B
330
2
100
AcDbEntity
  8
GAIKEI
100
AcDbLine
 10
10.86571377342377
 20
-2.670621761686845
 30
0.0
 11
11.8560580117053
 21
-2.673441585905549
 31
0.0
  0
LINE
  5
4C
330
2
100
AcDbEntity
  8
GAIKEI
100
AcDbLine
 10
9.881428566234632
 20
-2.570007012603014
 30
0.0
 11
10.86571377342377
 21
-2.670621761686845
 31
0.0
  0
LINE
  5
4D
330
2
100
AcDbEntity
  8
GAIKEI
  6
Continuous
 62
     1
100
AcDbLine
 10
-20.1260296837772
 20
26.02157328891221
 30
0.0
 11
-20.13848443377717
 21
25.59380028891221
 31
0.0
  0
LINE
  5
4E
330
2
100
AcDbEntity
  8
GAIKEI
  6
Continuous
 62
     1
100
AcDbLine
 10
-19.57668493377716
 20
25.59379478891222
 30
0.0
 11
-20.13848918377718
 21
25.59379478891222
 31
0.0
  0
LINE
  5
4F
330
2
100
AcDbEntity
  8
GAIKEI
  6
Continuous
100
AcDbLine
 10
-20.15850768377729
 20
26.05157128891224
 30
0.0
 11
-20.17160968377718
 21
25.60156678891222
 31
0.0
  0
LINE
  5
50
330
2
100
AcDbEntity
  8
GAIKEI
  6
Continuous
 62
     1
100
AcDbLine
 10
-19.58913593377721
 20
26.02156578891223
 30
0.0
 11
-20.12603793377704
 21
26.02156578891223
 31
0.0
  0
LINE
  5
51
330
2
100
AcDbEntity
  8
GAIKEI
  6
Continuous
100
AcDbLine
 10
-20.10861843377731
 20
26.05157053891222
 30
0.0
 11
-19.56928743377713
 21
26.05157053891222
 31
0.0
  0
LINE
  5
52
330
2
100
AcDbEntity
  8
GAIKEI
  6
Continuous
100
AcDbLine
 10
-20.12695343377729
 20
26.05157053891222
 30
0.0
 11
-20.10861843377731
 21
26.05157053891222
 31
0.0
  0
LINE
  5
53
330
2
100
AcDbEntity
  8
GAIKEI
  6
Continuous
100
AcDbLine
 10
-20.12695343377729
 20
26.05157053891222
 30
0.0
 11
-20.15849643377712
 21
26.05157053891222
 31
0.0
  0
SPLINE
  5
54
330
2
100
AcDbEntity
  8
GAIKEI
  6
Continuous
 62
     1
100
AcDbSpline
210
0.0
220
0.0
230
1.0
 70
     8
 71
     3
 72
     9
 73
     5
 74
     3
 42
0.0000000001
 43
0.0000000001
 44
0.000001
 12
0.4555710774664803
 22
0.8901994121409149
 32
0.0
 13
0.4548274176199876
 23
0.8905795978918074
 33
0.0
 40
0.0
 40
0.0
 40
0.0
 40
0.0
 40
0.0517793888168808
 40
0.1036079629296256
 40
0.1036079629296256
 40
0.1036079629296256
 40
0.1036079629296256
 10
-14.87265654266568
 20
26.02471517740557
 30
0.0
 10
-14.86479347868106
 20
26.04007983790084
 30
0.0
 10
-14.84906345025741
 20
26.07082558042646
 30
0.0
 10
-14.83334625942317
 20
26.10157788899763
 30
0.0
 10
-14.82548857391563
 20
26.11696371256184
 30
0.0
 11
-14.87265654266568
 21
26.02471517740557
 31
0.0
 11
-14.84907412216736
 21
26.07081262289355
 31
0.0
 11
-14.82548857391563
 21
26.11696371256184
 31
0.0
  0
LINE
  5
55
330
2
100
AcDbEntity
  8
GAIKEI
  6
Continuous
100
AcDbLine
 10
-19.60655543377717
 20
26.05157053891222
 30
0.0
 11
-19.60655543377717
 21
26.02156578891223
 31
0.0
  0
SPLINE
  5
56
330
2
100
AcDbEntity
  8
GAIKEI
  6
Continuous
100
AcDbSpline
210
0.0
220
0.0
230
1.0
 70
     8
 71
     3
 72
     9
 73
     5
 74
     3
 42
0.0000000001
 43
0.0000000001
 44
0.000001
 12
-0.9999883567442765
 22
-0.0048255959094992
 32
0.0
 13
-0.9289662195941573
 23
-0.3701645078244804
 33
0.0
 40
0.0
 40
0.0
 40
0.0
 40
0.0
 40
0.0006886604951542
 40
0.0013897972775205
 40
0.0013897972775205
 40
0.0013897972775205
 40
0.0013897972775205
 10
-15.02647734344688
 20
26.32106527506184
 30
0.0
 10
-15.02670689427251
 20
26.32106416732942
 30
0.0
 10
-15.02717074669399
 20
26.32100968052839
 30
0.0
 10
-15.02761521312043
 20
26.32087102532704
 30
0.0
 10
-15.02783232391581
 20
26.32078451334306
 30
0.0
 11
-15.02647734344688
 21
26.32106527506184
 31
0.0
 11
-15.02716266028321
 21
26.32098968253726
 31
0.0
 11
-15.02783232391581
 21
26.32078451334306
 31
0.0
  0
LINE
  5
57
330
2
100
AcDbEntity
  8
GAIKEI
  6
Continuous
 62
     1
100
AcDbLine
 10
-19.53425293377719
 20
25.98767678891224
 30
0.0
 11
-19.3005616837772
 21
25.75375578891223
 31
0.0
  0
LINE
  5
58
330
2
100
AcDbEntity
  8
GAIKEI
  6
Continuous
 62
     1
100
AcDbLine
 10
-19.33448893377724
 20
26.18744503891222
 30
0.0
 11
-19.10056793377723
 21
25.95375378891223
 31
0.0
  0
LINE
  5
59
330
2
100
AcDbEntity
  8
GAIKEI
  6
Continuous
 62
     1
100
AcDbLine
 10
-15.36809118377724
 20
25.92718103891221
 30
0.0
 11
-19.07381618377712
 21
25.92718103891221
 31
0.0
  0
LINE
  5
5A
330
2
100
AcDbEntity
  8
GAIKEI
  6
Continuous
 62
     1
100
AcDbLine
 10
-14.90789768377701
 20
25.98840578891222
 30
0.0
 11
-15.1415159337773
 21
25.75380853891224
 31
0.0
  0
LINE
  5
5B
330
2
100
AcDbEntity
  8
GAIKEI
  6
Continuous
 62
     1
100
AcDbLine
 10
-15.34147993377721
 20
25.95374703891221
 30
0.0
 11
-15.10518968377707
 21
26.18936728891223
 31
0.0
  0
SPLINE
  5
5C
330
2
100
AcDbEntity
  8
GAIKEI
  6
Continuous
 62
     1
100
AcDbSpline
210
0.0
220
0.0
230
1.0
 70
     8
 71
     3
 72
     9
 73
     5
 74
     3
 42
0.0000000001
 43
0.0000000001
 44
0.000001
 12
-0.4193310596052152
 22
-0.9078333891471318
 32
0.0
 13
-0.4173617955917634
 23
-0.9087404093471464
 33
0.0
 40
0.0
 40
0.0
 40
0.0
 40
0.0
 40
0.0530945544880694
 40
0.1061312742876924
 40
0.1061312742876924
 40
0.1061312742876924
 40
0.1061312742876924
 10
-15.02783232391581
 20
26.32078451334306
 30
0.0
 10
-15.03525372251339
 20
26.30471751022767
 30
0.0
 10
-15.05006967609527
 20
26.27259233743044
 30
0.0
 10
-15.06485079636912
 20
26.24045112438222
 30
0.0
 10
-15.07222929657175
 20
26.22438558756184
 30
0.0
 11
-15.02783232391581
 21
26.32078451334306
 31
0.0
 11
-15.05006903395744
 21
26.27257081686318
 31
0.0
 11
-15.07222929657175
 21
26.22438558756184
 31
0.0
  0
LINE
  5
5D
330
2
100
AcDbEntity
  8
GAIKEI
  6
Continuous
 62
     1
100
AcDbLine
 10
-19.58913343377705
 20
26.02156628891223
 30
0.0
 11
-19.57667868377709
 21
25.59379328891222
 31
0.0
  0
LINE
  5
5E
330
2
100
AcDbEntity
  8
GAIKEI
  6
Continuous
100
AcDbLine
 10
-19.67061793377726
 20
26.12387263178249
 30
0.0
 11
-19.67061793377726
 21
26.05157053891222
 31
0.0
  0
LINE
  5
5F
330
2
100
AcDbEntity
  8
GAIKEI
  6
Continuous
100
AcDbLine
 10
-19.67061793377726
 20
26.12409253891227
 30
0.0
 11
-19.670678933777
 21
26.12409253891227
 31
0.0
  0
LINE
  5
60
330
2
100
AcDbEntity
  8
GAIKEI
  6
Continuous
100
AcDbLine
 10
-19.67067843377728
 20
26.12408978891219
 30
0.0
 11
-19.67069068377734
 21
26.12408978891219
 31
0.0
  0
LINE
  5
61
330
2
100
AcDbEntity
  8
GAIKEI
  6
Continuous
100
AcDbLine
 10
-14.82548868377714
 20
26.11696378891222
 30
0.0
 11
-14.82542743377732
 21
26.11696378891222
 31
0.0
  0
LINE
  5
62
330
2
100
AcDbEntity
  8
GAIKEI
100
AcDbLine
 10
-19.47047891441954
 20
26.32387258346654
 30
0.0
 11
-15.02534966441945
 21
26.32078278765404
 31
0.0
  0
LINE
  5
63
330
2
100
AcDbEntity
  8
GAIKEI
 62
     1
100
AcDbLine
 10
-19.33434408535163
 20
26.18744510474693
 30
0.0
 11
-15.10791583535152
 21
26.1893660498547
 31
0.0
  0
ARC
  5
64
330
2
100
AcDbEntity
  8
GAIKEI
  6
Continuous
 62
     1
100
AcDbCircle
 10
-19.07381618377712
 20
25.72718103891222
 30
0.0
 40
0.2
100
AcDbArc
 50
90.00000000000005
 51
180.0
  0
ARC
  5
65
330
2
100
AcDbEntity
  8
GAIKEI
 62
     1
100
AcDbCircle
 10
-19.33425318377726
 20
25.98744512540466
 30
0.0
 40
0.2
100
AcDbArc
 50
90.02604138370868
 51
179.9999999999999
  0
ARC
  5
66
330
2
100
AcDbEntity
  8
GAIKEI
100
AcDbCircle
 10
-19.47061793377725
 20
26.12387263178249
 30
0.0
 40
0.2
100
AcDbArc
 50
89.96017388445904
 51
180.0
  0
ARC
  5
67
330
2
100
AcDbEntity
  8
GAIKEI
 62
     1
100
AcDbCircle
 10
-15.10782493377715
 20
25.98936607051243
 30
0.0
 40
0.2
100
AcDbArc
 50
0.0
 51
90.02604138370868
  0
ARC
  5
68
330
2
100
AcDbEntity
  8
GAIKEI
100
AcDbCircle
 10
-15.02548868377713
 20
26.12078283596999
 30
0.0
 40
0.2
100
AcDbArc
 50
0.0
 51
89.96017388445919
  0
ARC
  5
69
330
2
100
AcDbEntity
  8
GAIKEI
  6
Continuous
 62
     1
100
AcDbCircle
 10
-15.36809118377724
 20
25.72718103891222
 30
0.0
 40
0.2
100
AcDbArc
 50
0.0
 51
90.00000000000005
  0
ARC
  5
6A
330
2
100
AcDbEntity
  8
GAIKEI
  6
Continuous
 62
     1
100
AcDbCircle
 10
-15.36809118377724
 20
-2.076755836084088
 30
0.0
 40
0.2
100
AcDbArc
 50
270.0
 51
0.0
  0
ARC
  5
6B
330
2
100
AcDbEntity
  8
GAIKEI
100
AcDbCircle
 10
-15.02548868377713
 20
-2.470357633141844
 30
0.0
 40
0.2
100
AcDbArc
 50
270.0398261155409
 51
0.0
  0
ARC
  5
6C
330
2
100
AcDbEntity
  8
GAIKEI
 62
     1
100
AcDbCircle
 10
-15.10782493377715
 20
-2.338940867684299
 30
0.0
 40
0.2
100
AcDbArc
 50
269.9739586162913
 51
0.0
  0
ARC
  5
6D
330
2
100
AcDbEntity
  8
GAIKEI
100
AcDbCircle
 10
-19.47061793377725
 20
-2.473447428954357
 30
0.0
 40
0.2
100
AcDbArc
 50
180.0
 51
270.039826115541
  0
ARC
  5
6E
330
2
100
AcDbEntity
  8
GAIKEI
 62
     1
100
AcDbCircle
 10
-19.33425318377726
 20
-2.337019922576529
 30
0.0
 40
0.2
100
AcDbArc
 50
180.0
 51
269.9739586162913
  0
ARC
  5
6F
330
2
100
AcDbEntity
  8
GAIKEI
  6
Continuous
 62
     1
100
AcDbCircle
 10
-19.07381618377712
 20
-2.076755836084088
 30
0.0
 40
0.2
100
AcDbArc
 50
180.0
 51
270.0
  0
LINE
  5
70
330
2
100
AcDbEntity
  8
GAIKEI
 62
     1
100
AcDbLine
 10
-19.33434408535163
 20
-2.537019901918796
 30
0.0
 11
-15.10791583535152
 21
-2.538940847026565
 31
0.0
  0
LINE
  5
71
330
2
100
AcDbEntity
  8
GAIKEI
100
AcDbLine
 10
-19.47047891441954
 20
-2.673447380638406
 30
0.0
 11
-15.02534966441945
 21
-2.670357584825893
 31
0.0
  0
MTEXT
  5
72
330
2
100
AcDbEntity
  8
SUNPO
100
AcDbMText
 10
-8.579919933777089
 20
12.57655841391221
 30
0.0
 40
2.5
 41
0.0
 71
     5
 72
     1
  1
610
 11
0.0000000000000001
 21
1.0
 31
0.0
 73
     1
 44
1.0
1001
ACAD
1000
MTEXTBEGIN
1070
    73
1070
     1
1070
    44
1040
1.0
1070
    74
1070
     0
1000
MTEXTEND
  0
INSERT
  5
74
330
2
100
AcDbEntity
  8
SUNPO
100
AcDbBlockReference
  2
_OPEN30
 10
-6.829919933777063
 20
26.32386678891223
 30
0.0
 41
2.0
 42
2.0
 43
2.0
 50
90.0
  0
INSERT
  5
75
330
2
100
AcDbEntity
  8
SUNPO
100
AcDbBlockReference
  2
_OPEN30
 10
-6.829919933777063
 20
-2.673441586084095
 30
0.0
 41
2.0
 42
2.0
 43
2.0
 50
270.0
  0
LINE
  5
76
330
2
100
AcDbEntity
  8
SUNPO
100
AcDbLine
 10
-6.829919933777063
 20
-0.6734415860840956
 30
0.0
 11
-6.829919933777063
 21
24.32386678891223
 31
0.0
  0
LINE
  5
77
330
2
100
AcDbEntity
  8
SUNPO
100
AcDbLine
 10
-12.82991993377706
 20
26.32386678891223
 30
0.0
 11
-4.829919933777063
 21
26.32386678891223
 31
0.0
  0
LINE
  5
78
330
2
100
AcDbEntity
  8
SUNPO
100
AcDbLine
 10
-12.82991993377706
 20
-2.673441586084095
 30
0.0
 11
-4.829919933777063
 21
-2.673441586084095
 31
0.0
  0
DIMENSION
  5
79
330
2
100
AcDbEntity
  8
SUNPO
100
AcDbDimension
  2
*D4
 10
14.09642684522325
 20
34.01955380438332
 30
0.0
 11
20.67976017855658
 21
35.76955380438332
 31
0.0
 70
    33
  1
88
 71
     5
 42
4.390002499999983
  3
STANDARD
100
AcDbAlignedDimension
 13
9.706424345223267
 23
26.01955380438332
 33
0.0
 14
14.09642684522325
 24
26.01955380438332
 34
0.0
1001
ACAD
1000
DSTYLE
1002
{
1070
    40
1040
1.0
1070
   140
1040
2.5
1070
   147
1040
0.5
1070
   172
1070
     1
1070
   279
1070
     0
1070
   288
1070
     0
1002
}
  0
DIMENSION
  5
89
330
2
100
AcDbEntity
  8
SUNPO
100
AcDbDimension
  2
*D3
 10
-14.8254891837773
 20
34.01955380438332
 30
0.0
 11
-8.992155850443968
 21
35.76955380438332
 31
0.0
 70
    33
  1
107
 71
     5
 42
5.351732499999799
  3
STANDARD
100
AcDbAlignedDimension
 13
-20.1772216837771
 23
26.01955380438332
 33
0.0
 14
-14.8254891837773
 24
26.01955380438332
 34
0.0
1001
ACAD
1000
DSTYLE
1002
{
1070
    40
1040
1.0
1070
   140
1040
2.5
1070
   147
1040
0.5
1070
   172
1070
     1
1070
   279
1070
     0
1070
   288
1070
     0
1002
}
  0
LINE
  5
97
330
2
100
AcDbEntity
  8
GAIKEI
  6
Continuous
 62
     1
100
AcDbLine
 10
13.4766635952233
 20
1.082112663915892
 30
0.0
 11
13.4766635952233
 21
12.57655228891221
 31
0.0
  0
LINE
  5
98
330
2
100
AcDbEntity
  8
GAIKEI
  6
Continuous
 62
     1
100
AcDbLine
 10
9.920315845223312
 20
26.22440731714903
 30
0.0
 11
9.920315845223312
 21
-2.573986776674871
 31
0.0
  0
LINE
  5
99
330
2
100
AcDbEntity
  8
GAIKEI
  6
Continuous
 62
     1
100
AcDbLine
 10
9.860721095223453
 20
26.18743345404832
 30
0.0
 11
9.860721095223453
 21
-2.537008251220156
 31
0.0
  0
LINE
  5
9A
330
2
100
AcDbEntity
  8
GAIKEI
  6
Continuous
 62
     1
100
AcDbLine
 10
10.87379484522333
 20
26.32106997388993
 30
0.0
 11
10.87379484522333
 21
-2.670663534940017
 31
0.0
  0
LINE
  5
9B
330
2
100
AcDbEntity
  8
GAIKEI
  6
Continuous
 62
     1
100
AcDbLine
 10
13.4766635952233
 20
12.57655228891221
 30
0.0
 11
13.4766635952233
 21
22.56831253891218
 31
0.0
  0
LINE
  5
9C
330
2
100
AcDbEntity
  8
GAIKEI
  6
Continuous
 62
     1
100
AcDbLine
 10
14.09642659522325
 20
11.82521260141408
 30
0.0
 11
13.47666359522333
 21
11.82521260141408
 31
0.0
  0
SPLINE
  5
9D
330
2
100
AcDbEntity
  8
GAIKEI
  6
Continuous
100
AcDbSpline
210
0.0
220
0.0
230
1.0
 70
     8
 71
     3
 72
     9
 73
     5
 74
     3
 42
0.0000000001
 43
0.0000000001
 44
0.000001
 12
0.6535156864074855
 22
0.7569129722889898
 32
0.0
 13
0.6415607664383718
 23
0.7670722149621957
 33
0.0
 40
0.0
 40
0.0
 40
0.0
 40
0.0
 40
0.0011430106086564
 40
0.0022866783577002
 40
0.0022866783577002
 40
0.0022866783577002
 40
0.0022866783577002
 10
13.91826504295525
 20
0.8736409336256656
 30
0.0
 10
13.91851403474274
 20
0.8739293201447175
 30
0.0
 10
13.91900806638478
 20
0.8745097951451816
 30
0.0
 10
13.91949751628392
 20
0.8750941138433031
 30
0.0
 10
13.91974209373646
 20
0.8753865390944497
 30
0.0
 11
13.91826504295525
 21
0.8736409336256656
 31
0.0
 11
13.91900678366736
 21
0.8745105977330922
 31
0.0
 11
13.91974209373646
 21
0.8753865390944497
 31
0.0
  0
LINE
  5
9E
330
2
100
AcDbEntity
  8
GAIKEI
  6
Continuous
100
AcDbLine
 10
11.90642434522331
 20
-1.707744619235852
 30
0.0
 11
11.90642434522331
 21
-2.619230086084086
 31
0.0
  0
LINE
  5
9F
330
2
100
AcDbEntity
  8
GAIKEI
  6
Continuous
100
AcDbLine
 10
9.706424345223267
 20
25.94155110401846
 30
0.0
 11
9.706424345223267
 21
-2.291125901190298
 31
0.0
  0
LINE
  5
A0
330
2
100
AcDbEntity
  8
GAIKEI
  6
Continuous
100
AcDbLine
 10
9.706424345223267
 20
-2.291125901190298
 30
0.0
 11
9.881428566234632
 21
-2.570007012603014
 31
0.0
  0
LINE
  5
A1
330
2
100
AcDbEntity
  8
GAIKEI
  6
Continuous
100
AcDbLine
 10
14.09642659522322
 20
1.424629663915936
 30
0.0
 11
14.09642659522322
 21
1.361409413915906
 31
0.0
  0
LINE
  5
A2
330
2
100
AcDbEntity
  8
GAIKEI
  6
Continuous
100
AcDbLine
 10
14.09642659522322
 20
12.57655228891221
 30
0.0
 11
14.09642659522322
 21
1.268008318870129
 31
0.0
  0
LINE
  5
A3
330
2
100
AcDbEntity
  8
GAIKEI
  6
Continuous
100
AcDbLine
 10
14.09642659522322
 20
22.2257955389122
 30
0.0
 11
14.09642659522322
 21
12.57655228891221
 31
0.0
  0
LINE
  5
A4
330
2
100
AcDbEntity
  8
GAIKEI
  6
Continuous
100
AcDbLine
 10
-19.56928743377713
 20
26.05157053891222
 30
0.0
 11
-19.56928743377713
 21
-2.337180586084115
 31
0.0
  0
LINE
  5
A5
330
2
100
AcDbEntity
  8
GAIKEI
  6
Continuous
 62
     1
100
AcDbLine
 10
-19.53425318377728
 20
25.98744512540466
 30
0.0
 11
-19.53425318377728
 21
-2.337019922576529
 31
0.0
  0
LINE
  5
A6
330
2
100
AcDbEntity
  8
GAIKEI
  6
Continuous
 62
     1
100
AcDbLine
 10
-14.90782493377716
 20
25.98936607051243
 30
0.0
 11
-14.90782493377716
 21
-2.338940867684299
 31
0.0
  0
LINE
  5
A7
330
2
100
AcDbEntity
  8
GAIKEI
  6
Continuous
 62
     1
100
AcDbLine
 10
-15.16809118377724
 20
25.72718103891222
 30
0.0
 11
-15.16809118377724
 21
-2.076755836084088
 31
0.0
  0
LINE
  5
A8
330
2
100
AcDbEntity
  8
GAIKEI
  6
Continuous
100
AcDbLine
 10
-14.82548868377714
 20
-2.466538586084083
 30
0.0
 11
-14.82542743377732
 21
-2.466538586084083
 31
0.0
  0
LINE
  5
A9
330
2
100
AcDbEntity
  8
GAIKEI
  6
Continuous
100
AcDbLine
 10
-14.82548868377714
 20
-2.470357633141844
 30
0.0
 11
-14.82548868377714
 21
26.11696378891219
 31
0.0
  0
LINE
  5
AA
330
2
100
AcDbEntity
  8
GAIKEI
  6
Continuous
 62
     1
100
AcDbLine
 10
-19.27381618377714
 20
-2.076755836084088
 30
0.0
 11
-19.27381618377714
 21
25.72718103891222
 31
0.0
  0
LINE
  5
AB
330
2
100
AcDbEntity
  8
GAIKEI
  6
Continuous
100
AcDbLine
 10
-19.67067843377728
 20
-2.473664586084055
 30
0.0
 11
-19.67069068377734
 21
-2.473664586084055
 31
0.0
  0
LINE
  5
AC
330
2
100
AcDbEntity
  8
GAIKEI
  6
Continuous
100
AcDbLine
 10
-19.67061793377726
 20
-2.473667336084133
 30
0.0
 11
-19.670678933777
 21
-2.473667336084133
 31
0.0
  0
LINE
  5
AD
330
2
100
AcDbEntity
  8
GAIKEI
  6
Continuous
100
AcDbLine
 10
-19.67061793377726
 20
-2.473447428954357
 30
0.0
 11
-19.67061793377726
 21
-2.401145336084083
 31
0.0
  0
LINE
  5
AE
330
2
100
AcDbEntity
  8
GAIKEI
  6
Continuous
 62
     1
100
AcDbLine
 10
-19.58913343377705
 20
-2.371141086084094
 30
0.0
 11
-19.57667868377709
 21
-1.943368086084091
 31
0.0
  0
SPLINE
  5
AF
330
2
100
AcDbEntity
  8
GAIKEI
  6
Continuous
 62
     1
100
AcDbSpline
210
0.0
220
0.0
230
1.0
 70
     8
 71
     3
 72
     9
 73
     5
 74
     3
 42
0.0000000001
 43
0.0000000001
 44
0.000001
 12
-0.4193310596052151
 22
0.9078333891471318
 32
0.0
 13
-0.4173617955917634
 23
0.9087404093471464
 33
0.0
 40
0.0
 40
0.0
 40
0.0
 40
0.0
 40
0.0530945544880682
 40
0.1061312742876923
 40
0.1061312742876923
 40
0.1061312742876923
 40
0.1061312742876923
 10
-15.02783232391581
 20
-2.670359310514924
 30
0.0
 10
-15.03525372251339
 20
-2.654292307399538
 30
0.0
 10
-15.05006967609527
 20
-2.622167134602311
 30
0.0
 10
-15.06485079636912
 20
-2.590025921554088
 30
0.0
 10
-15.07222929657175
 20
-2.573960384733708
 30
0.0
 11
-15.02783232391581
 21
-2.670359310514924
 31
0.0
 11
-15.05006903395744
 21
-2.622145614035048
 31
0.0
 11
-15.07222929657175
 21
-2.573960384733708
 31
0.0
  0
LINE
  5
B0
330
2
100
AcDbEntity
  8
GAIKEI
  6
Continuous
 62
     1
100
AcDbLine
 10
-15.34147993377721
 20
-2.30332183608408
 30
0.0
 11
-15.10518968377707
 21
-2.53894208608409
 31
0.0
  0
LINE
  5
B1
330
2
100
AcDbEntity
  8
GAIKEI
  6
Continuous
 62
     1
100
AcDbLine
 10
-14.90789768377701
 20
-2.337980586084086
 30
0.0
 11
-15.1415159337773
 21
-2.103383336084106
 31
0.0
  0
LINE
  5
B2
330
2
100
AcDbEntity
  8
GAIKEI
  6
Continuous
 62
     1
100
AcDbLine
 10
-15.36809118377724
 20
-2.276755836084078
 30
0.0
 11
-19.07381618377712
 21
-2.276755836084078
 31
0.0
  0
LINE
  5
B3
330
2
100
AcDbEntity
  8
GAIKEI
  6
Continuous
 62
     1
100
AcDbLine
 10
-19.33448893377724
 20
-2.537019836084084
 30
0.0
 11
-19.10056793377723
 21
-2.30332858608409
 31
0.0
  0
LINE
  5
B4
330
2
100
AcDbEntity
  8
GAIKEI
  6
Continuous
 62
     1
100
AcDbLine
 10
-19.53425293377719
 20
-2.337251586084106
 30
0.0
 11
-19.3005616837772
 21
-2.103330586084098
 31
0.0
  0
SPLINE
  5
B5
330
2
100
AcDbEntity
  8
GAIKEI
  6
Continuous
100
AcDbSpline
210
0.0
220
0.0
230
1.0
 70
     8
 71
     3
 72
     9
 73
     5
 74
     3
 42
0.0000000001
 43
0.0000000001
 44
0.000001
 12
-0.9999883567442765
 22
0.0048255959094992
 32
0.0
 13
-0.9289662195941573
 23
0.3701645078244804
 33
0.0
 40
0.0
 40
0.0
 40
0.0
 40
0.0
 40
0.0006886604951541
 40
0.0013897972775205
 40
0.0013897972775205
 40
0.0013897972775205
 40
0.0013897972775205
 10
-15.02647734344688
 20
-2.670640072233708
 30
0.0
 10
-15.02670689427251
 20
-2.670638964501286
 30
0.0
 10
-15.02717074669398
 20
-2.670584477700261
 30
0.0
 10
-15.02761521312043
 20
-2.670445822498912
 30
0.0
 10
-15.02783232391581
 20
-2.670359310514924
 30
0.0
 11
-15.02647734344688
 21
-2.670640072233708
 31
0.0
 11
-15.02716266028321
 21
-2.670564479709127
 31
0.0
 11
-15.02783232391581
 21
-2.670359310514924
 31
0.0
  0
LINE
  5
B6
330
2
100
AcDbEntity
  8
GAIKEI
  6
Continuous
100
AcDbLine
 10
-19.60655543377717
 20
-2.401145336084083
 30
0.0
 11
-19.60655543377717
 21
-2.371140586084095
 31
0.0
  0
SPLINE
  5
B7
330
2
100
AcDbEntity
  8
GAIKEI
  6
Continuous
 62
     1
100
AcDbSpline
210
0.0
220
0.0
230
1.0
 70
     8
 71
     3
 72
     9
 73
     5
 74
     3
 42
0.0000000001
 43
0.0000000001
 44
0.000001
 12
0.4555710774664803
 22
-0.8901994121409149
 32
0.0
 13
0.4548274176199876
 23
-0.8905795978918074
 33
0.0
 40
0.0
 40
0.0
 40
0.0
 40
0.0
 40
0.0517793888168872
 40
0.1036079629296288
 40
0.1036079629296288
 40
0.1036079629296288
 40
0.1036079629296288
 10
-14.87265654266568
 20
-2.374289974577436
 30
0.0
 10
-14.86479347868105
 20
-2.389654635072705
 30
0.0
 10
-14.84906345025741
 20
-2.420400377598337
 30
0.0
 10
-14.83334625942317
 20
-2.451152686169498
 30
0.0
 10
-14.82548857391563
 20
-2.466538509733708
 30
0.0
 11
-14.87265654266568
 21
-2.374289974577436
 31
0.0
 11
-14.84907412216736
 21
-2.420387420065424
 31
0.0
 11
-14.82548857391563
 21
-2.466538509733708
 31
0.0
  0
LINE
  5
B8
330
2
100
AcDbEntity
  8
GAIKEI
  6
Continuous
 62
     1
100
AcDbLine
 10
-19.57668493377716
 20
25.59377028891217
 30
0.0
 11
-19.57668493377716
 21
-1.943369586084088
 31
0.0
  0
LINE
  5
B9
330
2
100
AcDbEntity
  8
GAIKEI
  6
Continuous
100
AcDbLine
 10
-20.12695343377729
 20
-2.401145336084083
 30
0.0
 11
-20.15849643377712
 21
-2.401145336084083
 31
0.0
  0
LINE
  5
BA
330
2
100
AcDbEntity
  8
GAIKEI
  6
Continuous
100
AcDbLine
 10
-20.12695343377729
 20
-2.401145336084083
 30
0.0
 11
-20.10861843377731
 21
-2.401145336084083
 31
0.0
  0
LINE
  5
BB
330
2
100
AcDbEntity
  8
GAIKEI
  6
Continuous
100
AcDbLine
 10
-20.10861843377731
 20
-2.401145336084083
 30
0.0
 11
-19.60655543377717
 21
-2.401145336084083
 31
0.0
  0
LINE
  5
BC
330
2
100
AcDbEntity
  8
GAIKEI
  6
Continuous
 62
     1
100
AcDbLine
 10
-19.58913593377721
 20
-2.371140586084095
 30
0.0
 11
-20.12603793377704
 21
-2.371140586084095
 31
0.0
  0
LINE
  5
BD
330
2
100
AcDbEntity
  8
GAIKEI
  6
Continuous
100
AcDbLine
 10
-20.17161893377712
 20
25.60154628891221
 30
0.0
 11
-20.17161893377712
 21
-1.951145336084095
 31
0.0
  0
LINE
  5
BE
330
2
100
AcDbEntity
  8
GAIKEI
  6
Continuous
100
AcDbLine
 10
-20.15850768377729
 20
-2.40114608608411
 30
0.0
 11
-20.17160968377718
 21
-1.951141586084076
 31
0.0
  0
LINE
  5
BF
330
2
100
AcDbEntity
  8
GAIKEI
  6
Continuous
 62
     1
100
AcDbLine
 10
-19.57668493377716
 20
-1.943369586084088
 30
0.0
 11
-20.13848918377718
 21
-1.943369586084088
 31
0.0
  0
LINE
  5
C0
330
2
100
AcDbEntity
  8
GAIKEI
  6
Continuous
 62
     1
100
AcDbLine
 10
-20.1260296837772
 20
-2.371148086084076
 30
0.0
 11
-20.13848443377717
 21
-1.943375086084074
 31
0.0
  0
LINE
  5
C1
330
2
100
AcDbEntity
  8
WAKU
 62
     4
100
AcDbLine
 10
61.1148362490011
 20
-20.13765702639918
 30
0.0
 11
61.1148362490011
 21
-55.13765702639918
 31
0.0
  0
TEXT
  5
C3
330
2
100
AcDbEntity
  8
MOJI1
100
AcDbText
 10
-21.38516375099891
 20
-29.13765702639918
 30
0.0
 40
3.0
  1
８Ｗ
100
AcDbText
  0
TEXT
  5
C4
330
2
100
AcDbEntity
  8
MOJI1
100
AcDbText
 10
-21.38516375099891
 20
-34.13765702639917
 30
0.0
 40
3.0
  1
６Ω
100
AcDbText
  0
LINE
  5
C5
330
2
100
AcDbEntity
  8
WAKU
 62
     4
100
AcDbLine
 10
-23.88516375099891
 20
-20.13765702639918
 30
0.0
 11
-23.88516375099891
 21
-55.13765702639918
 31
0.0
  0
TEXT
  5
C6
330
2
100
AcDbEntity
  8
MOJI1
100
AcDbText
 10
-21.38516375099891
 20
-24.13765702639918
 30
0.0
 40
3.0
  1
２ウェイ  ３スピーカ  密閉型
100
AcDbText
  0
TEXT
  5
C7
330
2
100
AcDbEntity
  8
MOJI1
100
AcDbText
 10
-21.38516375099891
 20
-39.13765702639917
 30
0.0
 40
3.0
  1
スピーカの定格は１本当たりの値です
100
AcDbText
  0
TEXT
  5
C8
330
2
100
AcDbEntity
  8
MOJI1
100
AcDbText
 10
-61.38516375099868
 20
-24.13765702639918
 30
0.0
 40
3.0
  1
形  式
100
AcDbText
  0
TEXT
  5
C9
330
2
100
AcDbEntity
  8
MOJI1
100
AcDbText
 10
-61.38516375099868
 20
-29.13765702639918
 30
0.0
 40
3.0
  1
定格入力
100
AcDbText
  0
TEXT
  5
CA
330
2
100
AcDbEntity
  8
MOJI1
100
AcDbText
 10
-61.38516375099868
 20
-39.13765702639917
 30
0.0
 40
3.0
  1
その他
100
AcDbText
  0
LINE
  5
CB
330
2
100
AcDbEntity
  8
WAKU
 62
     4
100
AcDbLine
 10
-63.8851637509989
 20
-20.13765702639918
 30
0.0
 11
-63.88516375099868
 21
-55.13765702639918
 31
0.0
  0
LINE
  5
CC
330
2
100
AcDbEntity
  8
WAKU
 62
     1
100
AcDbLine
 10
-63.88516375099868
 20
-35.13765702639918
 30
0.0
 11
61.1148362490011
 21
-35.13765702639918
 31
0.0
  0
LINE
  5
CD
330
2
100
AcDbEntity
  8
WAKU
 62
     1
100
AcDbLine
 10
-63.88516375099868
 20
-40.13765702639918
 30
0.0
 11
61.1148362490011
 21
-40.13765702639918
 31
0.0
  0
LINE
  5
CE
330
2
100
AcDbEntity
  8
WAKU
 62
     4
100
AcDbLine
 10
-63.88516375099868
 20
-20.13765702639918
 30
0.0
 11
61.1148362490011
 21
-20.13765702639918
 31
0.0
  0
LINE
  5
CF
330
2
100
AcDbEntity
  8
WAKU
 62
     1
100
AcDbLine
 10
-63.88516375099868
 20
-25.13765702639918
 30
0.0
 11
61.1148362490011
 21
-25.13765702639918
 31
0.0
  0
LINE
  5
D0
330
2
100
AcDbEntity
  8
WAKU
 62
     1
100
AcDbLine
 10
-63.88516375099868
 20
-30.13765702639918
 30
0.0
 11
61.1148362490011
 21
-30.13765702639918
 31
0.0
  0
LINE
  5
D1
330
2
100
AcDbEntity
  8
WAKU
 62
     1
100
AcDbLine
 10
-63.88516375099868
 20
-45.13765702639918
 30
0.0
 11
61.1148362490011
 21
-45.13765702639918
 31
0.0
  0
LINE
  5
D2
330
2
100
AcDbEntity
  8
WAKU
 62
     1
100
AcDbLine
 10
-63.88516375099868
 20
-50.13765702639918
 30
0.0
 11
61.1148362490011
 21
-50.13765702639918
 31
0.0
  0
LINE
  5
D3
330
2
100
AcDbEntity
  8
WAKU
 62
     4
100
AcDbLine
 10
61.1148362490011
 20
-55.13765702639918
 30
0.0
 11
-63.88516375099868
 21
-55.13765702639918
 31
0.0
  0
TEXT
  5
D4
330
2
100
AcDbEntity
  8
MOJI1
100
AcDbText
 10
-61.38516375099868
 20
-34.13765702639917
 30
0.0
 40
3.0
  1
インピーダンス
100
AcDbText
  0
ENDSEC
  0
SECTION
  2
OBJECTS
  0
DICTIONARY
  5
9
330
0
100
AcDbDictionary
281
     1
  3
ACAD_COLOR
350
30
  3
ACAD_GROUP
350
2C
  3
ACAD_LAYOUT
350
D
  3
ACAD_MATERIAL
350
2F
  3
ACAD_MLINESTYLE
350
2D
  3
ACAD_PLOTSETTINGS
350
2E
  3
ACAD_PLOTSTYLENAME
350
8
  3
ACDBHEADERROUNDTRIPXREC
350
11E
  3
AcDbVariableDictionary
350
F7
  0
DICTIONARY
  5
15
330
14
100
AcDbDictionary
280
     1
281
     1
  3
ACAD_LAYERFILTERS
360
16
  0
DICTIONARY
  5
3
330
2
100
AcDbDictionary
280
     1
281
     1
  3
ACAD_LAYOUTSELFREF
360
4
  0
DICTIONARY
  5
F
330
E
100
AcDbDictionary
280
     1
281
     1
  3
ACAD_LAYOUTSELFREF
360
10
  0
DICTIONARY
  5
30
102
{ACAD_REACTORS
330
9
102
}
330
9
100
AcDbDictionary
281
     1
  0
DICTIONARY
  5
2C
102
{ACAD_REACTORS
330
9
102
}
330
9
100
AcDbDictionary
281
     1
  0
DICTIONARY
  5
D
102
{ACAD_REACTORS
330
9
102
}
330
9
100
AcDbDictionary
281
     1
  3
Model
350
C
  3
ﾚｲｱｳﾄ1
350
13
  0
DICTIONARY
  5
2F
102
{ACAD_REACTORS
330
9
102
}
330
9
100
AcDbDictionary
281
     1
  0
DICTIONARY
  5
2D
102
{ACAD_REACTORS
330
9
102
}
330
9
100
AcDbDictionary
281
     1
  3
STANDARD
350
32
  0
DICTIONARY
  5
2E
102
{ACAD_REACTORS
330
9
102
}
330
9
100
AcDbDictionary
281
     1
  0
ACDBDICTIONARYWDFLT
  5
8
102
{ACAD_REACTORS
330
9
102
}
330
9
100
AcDbDictionary
281
     1
  3
Normal
350
7
100
AcDbDictionaryWithDefault
340
7
  0
DICTIONARY
  5
11E
102
{ACAD_REACTORS
330
9
102
}
330
9
100
AcDbDictionary
281
     1
  3
COLORDICT
350
120
  3
MATERIALDICT
350
11F
  0
DICTIONARY
  5
F7
102
{ACAD_REACTORS
330
9
102
}
330
9
100
AcDbDictionary
281
     1
  3
DIMASSOC
350
F9
  3
HIDETEXT
350
F8
  3
PROJECTNAME
350
FA
  0
DICTIONARY
  5
16
102
{ACAD_REACTORS
330
15
102
}
330
15
100
AcDbDictionary
280
     1
281
     1
  0
XRECORD
  5
4
102
{ACAD_REACTORS
330
3
102
}
330
3
100
AcDbXrecord
280
     1
340
2
  0
XRECORD
  5
10
102
{ACAD_REACTORS
330
F
102
}
330
F
100
AcDbXrecord
280
     1
340
E
  0
LAYOUT
  5
C
102
{ACAD_XDICTIONARY
360
121
102
}
102
{ACAD_REACTORS
330
D
102
}
330
D
100
AcDbPlotSettings
  1

  2
\\MARS\NX800A(RPDL)
  4
A4
  6

 40
5.831416606903076
 41
4.942422866821289
 42
7.609405517578125
 43
5.789093017578125
 44
209.9733276367186
 45
296.9683227539062
 46
4.23
 47
0.0
 48
0.0
 49
0.0
140
0.0
141
0.0
142
1.0
143
1.377557041813
 70
 11956
 72
     1
 73
     0
 74
     1
  7
tmsacad.ctb
 75
     0
147
0.7259227528494222
148
0.5228791232484547
149
0.0333900090324306
100
AcDbLayout
  1
Model
 70
     1
 71
     0
 10
0.0
 20
0.0
 11
12.0
 21
9.0
 12
0.0
 22
0.0
 32
0.0
 14
0.0
 24
0.0
 34
0.0
 15
0.0
 25
0.0
 35
0.0
146
0.0
 13
0.0
 23
0.0
 33
0.0
 16
1.0
 26
0.0
 36
0.0
 17
0.0
 27
1.0
 37
0.0
 76
     0
330
2
  0
LAYOUT
  5
13
102
{ACAD_XDICTIONARY
360
123
102
}
102
{ACAD_REACTORS
330
D
102
}
330
D
100
AcDbPlotSettings
  1

  2
C:\Program Files\ACAD2000\plotters\DWF ePlot.pc3
  4

  6

 40
0.0
 41
0.0
 42
0.0
 43
0.0
 44
0.0
 45
0.0
 46
0.0
 47
0.0
 48
0.0
 49
0.0
140
0.0
141
0.0
142
1.0
143
1.0
 70
   688
 72
     0
 73
     0
 74
     5
  7
tmsacad.ctb
 75
    16
147
1.0
148
0.0
149
0.0
100
AcDbLayout
  1
ﾚｲｱｳﾄ1
 70
     1
 71
     1
 10
0.0
 20
0.0
 11
12.0
 21
9.0
 12
0.0
 22
0.0
 32
0.0
 14
1.000000000000000E+20
 24
1.000000000000000E+20
 34
1.000000000000000E+20
 15
-1.000000000000000E+20
 25
-1.000000000000000E+20
 35
-1.000000000000000E+20
146
0.0
 13
0.0
 23
0.0
 33
0.0
 16
1.0
 26
0.0
 36
0.0
 17
0.0
 27
1.0
 37
0.0
 76
     0
330
E
  0
MLINESTYLE
  5
32
102
{ACAD_REACTORS
330
2D
102
}
330
2D
100
AcDbMlineStyle
  2
STANDARD
 70
     0
  3

 62
   256
 51
90.0
 52
90.0
 71
     2
 49
0.5
 62
   256
  6
BYLAYER
 49
-0.5
 62
   256
  6
BYLAYER
  0
ACDBPLACEHOLDER
  5
7
102
{ACAD_REACTORS
330
8
102
}
330
8
  0
XRECORD
  5
120
102
{ACAD_REACTORS
330
11E
102
}
330
11E
100
AcDbXrecord
280
     1
340
30
  0
XRECORD
  5
11F
102
{ACAD_REACTORS
330
11E
102
}
330
11E
100
AcDbXrecord
280
     1
340
2F
  0
DICTIONARYVAR
  5
F9
102
{ACAD_REACTORS
330
F7
102
}
330
F7
100
DictionaryVariables
280
     0
  1
1
  0
DICTIONARYVAR
  5
F8
102
{ACAD_REACTORS
330
F7
102
}
330
F7
100
DictionaryVariables
280
     0
  1
1
  0
DICTIONARYVAR
  5
FA
102
{ACAD_REACTORS
330
F7
102
}
330
F7
100
DictionaryVariables
280
     0
  1

  0
DICTIONARY
  5
121
330
C
100
AcDbDictionary
280
     1
281
     1
  3
ACAD_XREC_ROUNDTRIP
360
122
  0
DICTIONARY
  5
123
330
13
100
AcDbDictionary
280
     1
281
     1
  3
ACAD_XREC_ROUNDTRIP
360
124
  0
XRECORD
  5
122
102
{ACAD_REACTORS
330
121
102
}
330
121
100
AcDbXrecord
280
     1
102
SHADEPLOT
 70
     0
102
SHADEPLOTRESLEVEL
 70
     2
102
SHADEPLOTCUSTOMDPI
 70
   300
  0
XRECORD
  5
124
102
{ACAD_REACTORS
330
123
102
}
330
123
100
AcDbXrecord
280
     1
102
SHADEPLOT
 70
     0
102
SHADEPLOTRESLEVEL
 70
     2
102
SHADEPLOTCUSTOMDPI
 70
   300
  0
ENDSEC
  0
EOF
