  0
SECTION
  2
HEADER
  9
$ACADVER
  1
AC1015
  9
$ACADMAINTVER
 70
    20
  9
$DWGCODEPAGE
  3
ANSI_932
  9
$INSBASE
 10
260.3549869044098
 20
246.7742273578934
 30
0.0
  9
$EXTMIN
 10
-0.0290934916263268
 20
-0.0166040013572229
 30
-0.0000000349181948
  9
$EXTMAX
 10
125.0011544448787
 20
113.0010628639222
 30
0.0000000814935747
  9
$LIMMIN
 10
-0.5301701287974084
 20
-0.4870092999968847
  9
$LIMMAX
 10
520.715527008329
 20
394.7491613091022
  9
$ORTHOMODE
 70
     1
  9
$REGENMODE
 70
     1
  9
$FILLMODE
 70
     1
  9
$QTEXTMODE
 70
     0
  9
$MIRRTEXT
 70
     0
  9
$LTSCALE
 40
1.0
  9
$ATTMODE
 70
     1
  9
$TEXTSIZE
 40
3.0
  9
$TRACEWID
 40
0.05
  9
$TEXTSTYLE
  7
STANDARD
  9
$CLAYER
  8
0
  9
$CELTYPE
  6
ByLayer
  9
$CECOLOR
 62
   256
  9
$CELTSCALE
 40
1.0
  9
$DISPSILH
 70
     0
  9
$DIMSCALE
 40
1.0
  9
$DIMASZ
 40
2.0
  9
$DIMEXO
 40
2.0
  9
$DIMDLI
 40
8.0
  9
$DIMRND
 40
0.0
  9
$DIMDLE
 40
0.0
  9
$DIMEXE
 40
2.0
  9
$DIMTP
 40
0.0
  9
$DIMTM
 40
0.0
  9
$DIMTXT
 40
2.5
  9
$DIMCEN
 40
0.0
  9
$DIMTSZ
 40
0.0
  9
$DIMTOL
 70
     0
  9
$DIMLIM
 70
     0
  9
$DIMTIH
 70
     0
  9
$DIMTOH
 70
     0
  9
$DIMSE1
 70
     0
  9
$DIMSE2
 70
     0
  9
$DIMTAD
 70
     3
  9
$DIMZIN
 70
     0
  9
$DIMBLK
  1

  9
$DIMASO
 70
     1
  9
$DIMSHO
 70
     0
  9
$DIMPOST
  1

  9
$DIMAPOST
  1

  9
$DIMALT
 70
     0
  9
$DIMALTD
 70
     2
  9
$DIMALTF
 40
25.4
  9
$DIMLFAC
 40
1.0
  9
$DIMTOFL
 70
     1
  9
$DIMTVP
 40
0.0
  9
$DIMTIX
 70
     0
  9
$DIMSOXD
 70
     0
  9
$DIMSAH
 70
     1
  9
$DIMBLK1
  1
OPEN30
  9
$DIMBLK2
  1
OPEN30
  9
$DIMSTYLE
  2
STANDARD
  9
$DIMCLRD
 70
     0
  9
$DIMCLRE
 70
     0
  9
$DIMCLRT
 70
     0
  9
$DIMTFAC
 40
1.0
  9
$DIMGAP
 40
0.5
  9
$DIMJUST
 70
     0
  9
$DIMSD1
 70
     0
  9
$DIMSD2
 70
     0
  9
$DIMTOLJ
 70
     1
  9
$DIMTZIN
 70
     0
  9
$DIMALTZ
 70
     0
  9
$DIMALTTZ
 70
     0
  9
$DIMUPT
 70
     0
  9
$DIMDEC
 70
     4
  9
$DIMTDEC
 70
     4
  9
$DIMALTU
 70
     2
  9
$DIMALTTD
 70
     2
  9
$DIMTXSTY
  7
STANDARD
  9
$DIMAUNIT
 70
     0
  9
$DIMADEC
 70
     0
  9
$DIMALTRND
 40
0.0
  9
$DIMAZIN
 70
     0
  9
$DIMDSEP
 70
    46
  9
$DIMATFIT
 70
     3
  9
$DIMFRAC
 70
     0
  9
$DIMLDRBLK
  1

  9
$DIMLUNIT
 70
     2
  9
$DIMLWD
 70
    -2
  9
$DIMLWE
 70
    -2
  9
$DIMTMOVE
 70
     0
  9
$LUNITS
 70
     2
  9
$LUPREC
 70
     4
  9
$SKETCHINC
 40
0.1
  9
$FILLETRAD
 40
0.0
  9
$AUNITS
 70
     0
  9
$AUPREC
 70
     0
  9
$MENU
  1
ACAD
  9
$ELEVATION
 40
0.0
  9
$PELEVATION
 40
0.0
  9
$THICKNESS
 40
0.0
  9
$LIMCHECK
 70
     0
  9
$CHAMFERA
 40
0.0
  9
$CHAMFERB
 40
0.0
  9
$CHAMFERC
 40
0.0
  9
$CHAMFERD
 40
0.0
  9
$SKPOLY
 70
     0
  9
$TDCREATE
 40
2448884.641931713
  9
$TDUCREATE
 40
2448884.266931713
  9
$TDUPDATE
 40
2453731.660441076
  9
$TDUUPDATE
 40
2453731.285441076
  9
$TDINDWG
 40
1.3174207176
  9
$TDUSRTIMER
 40
1.3174207176
  9
$USRTIMER
 70
     1
  9
$ANGBASE
 50
0.0
  9
$ANGDIR
 70
     0
  9
$PDMODE
 70
     0
  9
$PDSIZE
 40
0.0
  9
$PLINEWID
 40
0.0
  9
$SPLFRAME
 70
     0
  9
$SPLINETYPE
 70
     6
  9
$SPLINESEGS
 70
     8
  9
$HANDSEED
  5
4F7
  9
$SURFTAB1
 70
     6
  9
$SURFTAB2
 70
     6
  9
$SURFTYPE
 70
     6
  9
$SURFU
 70
     6
  9
$SURFV
 70
     6
  9
$UCSBASE
  2

  9
$UCSNAME
  2

  9
$UCSORG
 10
0.0
 20
0.0
 30
0.0
  9
$UCSXDIR
 10
1.0
 20
0.0
 30
0.0
  9
$UCSYDIR
 10
0.0
 20
1.0
 30
0.0
  9
$UCSORTHOREF
  2

  9
$UCSORTHOVIEW
 70
     0
  9
$UCSORGTOP
 10
0.0
 20
0.0
 30
0.0
  9
$UCSORGBOTTOM
 10
0.0
 20
0.0
 30
0.0
  9
$UCSORGLEFT
 10
0.0
 20
0.0
 30
0.0
  9
$UCSORGRIGHT
 10
0.0
 20
0.0
 30
0.0
  9
$UCSORGFRONT
 10
0.0
 20
0.0
 30
0.0
  9
$UCSORGBACK
 10
0.0
 20
0.0
 30
0.0
  9
$PUCSBASE
  2

  9
$PUCSNAME
  2

  9
$PUCSORG
 10
0.0
 20
0.0
 30
0.0
  9
$PUCSXDIR
 10
1.0
 20
0.0
 30
0.0
  9
$PUCSYDIR
 10
0.0
 20
1.0
 30
0.0
  9
$PUCSORTHOREF
  2

  9
$PUCSORTHOVIEW
 70
     0
  9
$PUCSORGTOP
 10
0.0
 20
0.0
 30
0.0
  9
$PUCSORGBOTTOM
 10
0.0
 20
0.0
 30
0.0
  9
$PUCSORGLEFT
 10
0.0
 20
0.0
 30
0.0
  9
$PUCSORGRIGHT
 10
0.0
 20
0.0
 30
0.0
  9
$PUCSORGFRONT
 10
0.0
 20
0.0
 30
0.0
  9
$PUCSORGBACK
 10
0.0
 20
0.0
 30
0.0
  9
$USERI1
 70
     0
  9
$USERI2
 70
     0
  9
$USERI3
 70
     0
  9
$USERI4
 70
     0
  9
$USERI5
 70
     0
  9
$USERR1
 40
0.0
  9
$USERR2
 40
0.0
  9
$USERR3
 40
0.0
  9
$USERR4
 40
0.0
  9
$USERR5
 40
0.0
  9
$WORLDVIEW
 70
     1
  9
$SHADEDGE
 70
     3
  9
$SHADEDIF
 70
    70
  9
$TILEMODE
 70
     1
  9
$MAXACTVP
 70
    48
  9
$PINSBASE
 10
0.0
 20
0.0
 30
0.0
  9
$PLIMCHECK
 70
     0
  9
$PEXTMIN
 10
1.000000000000000E+20
 20
1.000000000000000E+20
 30
1.000000000000000E+20
  9
$PEXTMAX
 10
-1.000000000000000E+20
 20
-1.000000000000000E+20
 30
-1.000000000000000E+20
  9
$PLIMMIN
 10
0.0
 20
0.0
  9
$PLIMMAX
 10
12.0
 20
9.0
  9
$UNITMODE
 70
     0
  9
$VISRETAIN
 70
     0
  9
$PLINEGEN
 70
     0
  9
$PSLTSCALE
 70
     0
  9
$TREEDEPTH
 70
  3020
  9
$CMLSTYLE
  2
Standard
  9
$CMLJUST
 70
     0
  9
$CMLSCALE
 40
1.0
  9
$PROXYGRAPHICS
 70
     1
  9
$MEASUREMENT
 70
     0
  9
$CELWEIGHT
370
    -1
  9
$ENDCAPS
280
     0
  9
$JOINSTYLE
280
     0
  9
$LWDISPLAY
290
     0
  9
$INSUNITS
 70
     0
  9
$HYPERLINKBASE
  1

  9
$STYLESHEET
  1

  9
$XEDIT
290
     1
  9
$CEPSNTYPE
380
     0
  9
$PSTYLEMODE
290
     1
  9
$FINGERPRINTGUID
  2
{294E7EA9-5636-43D8-B6F6-F2A77712171B}
  9
$VERSIONGUID
  2
{784C8E87-9BEF-40DE-83FD-421B0B6B596F}
  9
$EXTNAMES
290
     1
  9
$PSVPSCALE
 40
0.0
  9
$OLESTARTUP
290
     0
  0
ENDSEC
  0
SECTION
  2
CLASSES
  0
CLASS
  1
ACDBDICTIONARYWDFLT
  2
AcDbDictionaryWithDefault
  3
ObjectDBX Classes
 90
        0
280
     0
281
     0
  0
CLASS
  1
DICTIONARYVAR
  2
AcDbDictionaryVar
  3
ObjectDBX Classes
 90
        0
280
     0
281
     0
  0
CLASS
  1
ACDBPLACEHOLDER
  2
AcDbPlaceHolder
  3
ObjectDBX Classes
 90
        0
280
     0
281
     0
  0
CLASS
  1
LAYOUT
  2
AcDbLayout
  3
ObjectDBX Classes
 90
        0
280
     0
281
     0
  0
ENDSEC
  0
SECTION
  2
TABLES
  0
TABLE
  2
VPORT
  5
494
330
0
100
AcDbSymbolTable
 70
     2
  0
VPORT
  5
4EE
330
494
100
AcDbSymbolTableRecord
100
AcDbViewportTableRecord
  2
*Active
 70
     0
 10
0.0
 20
0.0
 11
1.0
 21
1.0
 12
62.48603047662618
 22
56.49222943128251
 13
0.0
 23
0.0
 14
1.0
 24
1.0
 15
0.0
 25
0.0
 16
0.0
 26
0.0
 36
1.0
 17
0.0
 27
0.0
 37
0.0
 40
113.9863897241247
 41
1.589413447782546
 42
50.0
 43
0.0
 44
0.0
 50
0.0
 51
0.0
 71
     0
 72
 10000
 73
     1
 74
     0
 75
     0
 76
     0
 77
     0
 78
     0
281
     0
 65
     1
110
0.0
120
0.0
130
0.0
111
1.0
121
0.0
131
0.0
112
0.0
122
1.0
132
0.0
 79
     0
146
0.0
  0
ENDTAB
  0
TABLE
  2
LTYPE
  5
491
330
0
100
AcDbSymbolTable
 70
     1
  0
LTYPE
  5
49F
330
491
100
AcDbSymbolTableRecord
100
AcDbLinetypeTableRecord
  2
ByBlock
 70
     0
  3

 72
    65
 73
     0
 40
0.0
  0
LTYPE
  5
4A0
330
491
100
AcDbSymbolTableRecord
100
AcDbLinetypeTableRecord
  2
ByLayer
 70
     0
  3

 72
    65
 73
     0
 40
0.0
  0
LTYPE
  5
4A1
330
491
100
AcDbSymbolTableRecord
100
AcDbLinetypeTableRecord
  2
CONTINUOUS
 70
     0
  3
実線
 72
    65
 73
     0
 40
0.0
  0
ENDTAB
  0
TABLE
  2
LAYER
  5
48E
330
0
100
AcDbSymbolTable
 70
     7
  0
LAYER
  5
49C
330
48E
100
AcDbSymbolTableRecord
100
AcDbLayerTableRecord
  2
0
 70
     0
 62
     7
  6
CONTINUOUS
370
    -3
390
49B
  0
LAYER
  5
4B0
330
48E
100
AcDbSymbolTableRecord
100
AcDbLayerTableRecord
  2
SUNPO
 70
     0
 62
     3
  6
CONTINUOUS
370
    -3
390
49B
  0
LAYER
  5
4B2
330
48E
100
AcDbSymbolTableRecord
100
AcDbLayerTableRecord
  2
WAKU
 70
     0
 62
     4
  6
CONTINUOUS
370
    -3
390
49B
  0
LAYER
  5
4B3
330
48E
100
AcDbSymbolTableRecord
100
AcDbLayerTableRecord
  2
MOJI1
 70
     0
 62
     2
  6
CONTINUOUS
370
    -3
390
49B
  0
LAYER
  5
4B4
330
48E
100
AcDbSymbolTableRecord
100
AcDbLayerTableRecord
  2
GAIKEI
 70
     0
 62
     7
  6
CONTINUOUS
370
    -3
390
49B
  0
LAYER
  5
4B5
330
48E
100
AcDbSymbolTableRecord
100
AcDbLayerTableRecord
  2
DEFPOINTS
 70
     0
 62
     7
  6
CONTINUOUS
290
     0
370
    -3
390
49B
  0
LAYER
  5
4B6
330
48E
100
AcDbSymbolTableRecord
100
AcDbLayerTableRecord
  2
TOUROKU
 70
     0
 62
     1
  6
CONTINUOUS
370
    -3
390
49B
  0
ENDTAB
  0
TABLE
  2
STYLE
  5
48F
330
0
100
AcDbSymbolTable
 70
     2
  0
STYLE
  5
49D
330
48F
100
AcDbSymbolTableRecord
100
AcDbTextStyleTableRecord
  2
STANDARD
 70
     0
 40
0.0
 41
1.0
 50
0.0
 71
     0
 42
3.0
  3
MONOTXT.shx
  4
BIGFONT.shx
  0
ENDTAB
  0
TABLE
  2
VIEW
  5
492
330
0
100
AcDbSymbolTable
 70
     0
  0
ENDTAB
  0
TABLE
  2
UCS
  5
493
330
0
100
AcDbSymbolTable
 70
     0
  0
ENDTAB
  0
TABLE
  2
APPID
  5
495
330
0
100
AcDbSymbolTable
 70
     1
  0
APPID
  5
49E
330
495
100
AcDbSymbolTableRecord
100
AcDbRegAppTableRecord
  2
ACAD
 70
     0
  0
ENDTAB
  0
TABLE
  2
DIMSTYLE
  5
496
330
0
100
AcDbSymbolTable
 70
     1
100
AcDbDimStyleTable
 71
     1
340
4B8
  0
DIMSTYLE
105
4B8
102
{ACAD_REACTORS
330
35F
330
336
330
320
102
}
330
496
100
AcDbSymbolTableRecord
100
AcDbDimStyleTableRecord
  2
STANDARD
 70
     0
 40
0.0
 41
2.0
 42
2.0
 43
8.0
 44
2.0
 73
     0
 74
     0
 77
     3
140
3.0
141
0.0
173
     1
279
     2
340
49D
  0
ENDTAB
  0
TABLE
  2
BLOCK_RECORD
  5
48D
330
0
100
AcDbSymbolTable
 70
     9
  0
BLOCK_RECORD
  5
4AC
330
48D
100
AcDbSymbolTableRecord
100
AcDbBlockTableRecord
  2
*Model_Space
340
4AF
  0
BLOCK_RECORD
  5
4A8
330
48D
100
AcDbSymbolTableRecord
100
AcDbBlockTableRecord
  2
*Paper_Space
340
4AB
  0
BLOCK_RECORD
  5
4BF
330
48D
100
AcDbSymbolTableRecord
100
AcDbBlockTableRecord
  2
_OPEN30
340
0
102
{BLKREFS
331
33B
331
33C
331
364
331
365
331
325
331
32C
331
4D2
331
4D3
331
4DB
331
4DC
331
4E4
331
4E5
102
}
  0
BLOCK_RECORD
  5
4C7
330
48D
100
AcDbSymbolTableRecord
100
AcDbBlockTableRecord
  2
*D6
340
0
  0
BLOCK_RECORD
  5
4C9
330
48D
100
AcDbSymbolTableRecord
100
AcDbBlockTableRecord
  2
*D7
340
0
  0
BLOCK_RECORD
  5
4CB
330
48D
100
AcDbSymbolTableRecord
100
AcDbBlockTableRecord
  2
*D8
340
0
  0
ENDTAB
  0
ENDSEC
  0
SECTION
  2
BLOCKS
  0
BLOCK
  5
4AD
330
4AC
100
AcDbEntity
  8
0
100
AcDbBlockBegin
  2
*Model_Space
 70
     0
 10
0.0
 20
0.0
 30
0.0
  3
*Model_Space
  1

  0
ENDBLK
  5
4AE
330
4AC
100
AcDbEntity
  8
0
100
AcDbBlockEnd
  0
BLOCK
  5
4A9
330
4A8
100
AcDbEntity
 67
     1
  8
0
100
AcDbBlockBegin
  2
*Paper_Space
 70
     0
 10
0.0
 20
0.0
 30
0.0
  3
*Paper_Space
  1

  0
ENDBLK
  5
4AA
330
4A8
100
AcDbEntity
 67
     1
  8
0
100
AcDbBlockEnd
  0
BLOCK
  5
4C0
330
4BF
100
AcDbEntity
  8
0
100
AcDbBlockBegin
  2
_OPEN30
 70
     0
 10
0.0
 20
0.0
 30
0.0
  3
_OPEN30
  1

  0
LINE
  5
327
330
4BF
100
AcDbEntity
  8
0
  6
ByBlock
 62
     0
100
AcDbLine
 10
-1.0
 20
0.26794919
 30
0.0
 11
0.0
 21
0.0
 31
0.0
  0
LINE
  5
328
330
4BF
100
AcDbEntity
  8
0
  6
ByBlock
 62
     0
100
AcDbLine
 10
0.0
 20
0.0
 30
0.0
 11
-1.0
 21
-0.26794919
 31
0.0
  0
LINE
  5
329
330
4BF
100
AcDbEntity
  8
0
  6
ByBlock
 62
     0
100
AcDbLine
 10
0.0
 20
0.0
 30
0.0
 11
-1.0
 21
0.0
 31
0.0
  0
ENDBLK
  5
32B
330
4BF
100
AcDbEntity
  8
0
100
AcDbBlockEnd
  0
BLOCK
  5
4C8
330
4C7
100
AcDbEntity
  8
0
100
AcDbBlockBegin
  2
*D6
 70
     1
 10
0.0
 20
0.0
 30
0.0
  3
*D6
  1

  0
LINE
  5
4D8
330
4C7
100
AcDbEntity
  8
SUNPO
 62
     0
370
    -2
100
AcDbLine
 10
35.69818573694761
 20
64.99285773282557
 30
0.0
 11
35.69818573694761
 21
56.99285773282557
 31
0.0
  0
LINE
  5
4D9
330
4C7
100
AcDbEntity
  8
SUNPO
 62
     0
370
    -2
100
AcDbLine
 10
57.84781535184913
 20
64.99285773282557
 30
0.0
 11
57.84781535184913
 21
56.99285773282557
 31
0.0
  0
LINE
  5
4DA
330
4C7
100
AcDbEntity
  8
SUNPO
 62
     0
370
    -2
100
AcDbLine
 10
37.69818573694761
 20
58.99285773282557
 30
0.0
 11
55.84781535184913
 21
58.99285773282557
 31
0.0
  0
INSERT
  5
4DB
330
4C7
100
AcDbEntity
  8
SUNPO
 62
     0
370
    -2
100
AcDbBlockReference
  2
_OPEN30
 10
35.69818573694761
 20
58.99285773282557
 30
0.0
 41
2.0
 42
2.0
 43
2.0
 50
180.0
  0
INSERT
  5
4DC
330
4C7
100
AcDbEntity
  8
SUNPO
 62
     0
370
    -2
100
AcDbBlockReference
  2
_OPEN30
 10
57.84781535184913
 20
58.99285773282557
 30
0.0
 41
2.0
 42
2.0
 43
2.0
  0
MTEXT
  5
4DD
330
4C7
100
AcDbEntity
  8
SUNPO
 62
     0
100
AcDbMText
 10
46.77300054439837
 20
60.74285773282557
 30
0.0
 40
2.5
 41
0.0
 71
     5
 72
     1
  1
\A1;443
 73
     1
 44
1.0
1001
ACAD
1000
MTEXTBEGIN
1070
    73
1070
     1
1070
    44
1040
1.0
1070
    74
1070
     0
1000
MTEXTEND
  0
POINT
  5
4DE
330
4C7
100
AcDbEntity
  8
DEFPOINTS
 62
     0
100
AcDbPoint
 10
35.69818573694761
 20
66.99285773282557
 30
0.0
  0
POINT
  5
4DF
330
4C7
100
AcDbEntity
  8
DEFPOINTS
 62
     0
100
AcDbPoint
 10
57.84781535184913
 20
66.99285773282557
 30
0.0
  0
POINT
  5
4E0
330
4C7
100
AcDbEntity
  8
DEFPOINTS
 62
     0
100
AcDbPoint
 10
57.84781535184913
 20
58.99285773282557
 30
0.0
  0
ENDBLK
  5
3D8
330
4C7
100
AcDbEntity
  8
0
100
AcDbBlockEnd
  0
BLOCK
  5
4CA
330
4C9
100
AcDbEntity
  8
0
100
AcDbBlockBegin
  2
*D7
 70
     1
 10
0.0
 20
0.0
 30
0.0
  3
*D7
  1

  0
LINE
  5
4E1
330
4C9
100
AcDbEntity
  8
SUNPO
 62
     0
370
    -2
100
AcDbLine
 10
78.27384124587172
 20
64.99285773282557
 30
0.0
 11
78.27384124587172
 21
56.99285773282557
 31
0.0
  0
LINE
  5
4E2
330
4C9
100
AcDbEntity
  8
SUNPO
 62
     0
370
    -2
100
AcDbLine
 10
91.87973751621187
 20
64.99285773282557
 30
0.0
 11
91.87973751621187
 21
56.99285773282557
 31
0.0
  0
LINE
  5
4E3
330
4C9
100
AcDbEntity
  8
SUNPO
 62
     0
370
    -2
100
AcDbLine
 10
80.27384124587172
 20
58.99285773282557
 30
0.0
 11
89.87973751621188
 21
58.99285773282557
 31
0.0
  0
INSERT
  5
4E4
330
4C9
100
AcDbEntity
  8
SUNPO
 62
     0
370
    -2
100
AcDbBlockReference
  2
_OPEN30
 10
78.27384124587172
 20
58.99285773282557
 30
0.0
 41
2.0
 42
2.0
 43
2.0
 50
180.0
  0
INSERT
  5
4E5
330
4C9
100
AcDbEntity
  8
SUNPO
 62
     0
370
    -2
100
AcDbBlockReference
  2
_OPEN30
 10
91.87973751621187
 20
58.99285773282557
 30
0.0
 41
2.0
 42
2.0
 43
2.0
  0
MTEXT
  5
4E6
330
4C9
100
AcDbEntity
  8
SUNPO
 62
     0
100
AcDbMText
 10
85.07678938104181
 20
60.74285773282557
 30
0.0
 40
2.5
 41
0.0
 71
     5
 72
     1
  1
\A1;271.5
 73
     1
 44
1.0
1001
ACAD
1000
MTEXTBEGIN
1070
    73
1070
     1
1070
    44
1040
1.0
1070
    74
1070
     0
1000
MTEXTEND
  0
POINT
  5
4E7
330
4C9
100
AcDbEntity
  8
DEFPOINTS
 62
     0
100
AcDbPoint
 10
78.27384124587172
 20
66.99285773282557
 30
0.0
  0
POINT
  5
4E8
330
4C9
100
AcDbEntity
  8
DEFPOINTS
 62
     0
100
AcDbPoint
 10
91.87973751621187
 20
66.99285773282557
 30
0.0
  0
POINT
  5
4E9
330
4C9
100
AcDbEntity
  8
DEFPOINTS
 62
     0
100
AcDbPoint
 10
91.87973751621187
 20
58.99285773282557
 30
0.0
  0
ENDBLK
  5
3E4
330
4C9
100
AcDbEntity
  8
0
100
AcDbBlockEnd
  0
BLOCK
  5
4CC
330
4CB
100
AcDbEntity
  8
0
100
AcDbBlockBegin
  2
*D8
 70
     1
 10
0.0
 20
0.0
 30
0.0
  3
*D8
  1

  0
LINE
  5
4CF
330
4CB
100
AcDbEntity
  8
SUNPO
 62
     0
370
    -2
100
AcDbLine
 10
59.84321153336981
 20
66.9964816018029
 30
0.0
 11
67.84321153336981
 21
66.9964816018029
 31
0.0
  0
LINE
  5
4D0
330
4CB
100
AcDbEntity
  8
SUNPO
 62
     0
370
    -2
100
AcDbLine
 10
59.84321153336981
 20
76.44659987247854
 30
0.0
 11
67.84321153336981
 21
76.44659987247854
 31
0.0
  0
LINE
  5
4D1
330
4CB
100
AcDbEntity
  8
SUNPO
 62
     0
370
    -2
100
AcDbLine
 10
65.84321153336981
 20
68.9964816018029
 30
0.0
 11
65.84321153336981
 21
74.44659987247854
 31
0.0
  0
INSERT
  5
4D2
330
4CB
100
AcDbEntity
  8
SUNPO
 62
     0
370
    -2
100
AcDbBlockReference
  2
_OPEN30
 10
65.84321153336981
 20
66.9964816018029
 30
0.0
 41
2.0
 42
2.0
 43
2.0
 50
270.0
  0
INSERT
  5
4D3
330
4CB
100
AcDbEntity
  8
SUNPO
 62
     0
370
    -2
100
AcDbBlockReference
  2
_OPEN30
 10
65.84321153336981
 20
76.44659987247854
 30
0.0
 41
2.0
 42
2.0
 43
2.0
 50
90.0
  0
MTEXT
  5
4D4
330
4CB
100
AcDbEntity
  8
SUNPO
 62
     0
100
AcDbMText
 10
64.09321153336979
 20
71.72154073714074
 30
0.0
 40
2.5
 41
0.0
 71
     5
 72
     1
  1
\A1;189
 11
0.0000000000000001
 21
1.0
 31
0.0
 73
     1
 44
1.0
1001
ACAD
1000
MTEXTBEGIN
1070
    73
1070
     1
1070
    44
1040
1.0
1070
    74
1070
     0
1000
MTEXTEND
  0
POINT
  5
4D5
330
4CB
100
AcDbEntity
  8
DEFPOINTS
 62
     0
100
AcDbPoint
 10
57.84321153336981
 20
66.9964816018029
 30
0.0
  0
POINT
  5
4D6
330
4CB
100
AcDbEntity
  8
DEFPOINTS
 62
     0
100
AcDbPoint
 10
57.84321153336981
 20
76.44659987247854
 30
0.0
  0
POINT
  5
4D7
330
4CB
100
AcDbEntity
  8
DEFPOINTS
 62
     0
100
AcDbPoint
 10
65.84321153336981
 20
76.44659987247854
 30
0.0
  0
ENDBLK
  5
3F0
330
4CB
100
AcDbEntity
  8
0
100
AcDbBlockEnd
  0
ENDSEC
  0
SECTION
  2
ENTITIES
  0
TEXT
  5
31C
330
4AC
100
AcDbEntity
  8
MOJI1
100
AcDbText
 10
26.99999999999955
 20
109.0
 30
0.0
 40
4.0
  1
液晶ディスプレイ用据置きスタンド（シルバー）
 41
0.95
100
AcDbText
  0
TEXT
  5
31E
330
4AC
100
AcDbEntity
  8
TOUROKU
100
AcDbText
 10
104.5999500329273
 20
103.0000000000002
 30
0.0
 40
2.0
  1
ＴＹＳT３２Ｌ７Ｓ
 72
     2
 11
124.9999500329273
 21
103.0000000000002
 31
0.0
100
AcDbText
  0
DIMENSION
  5
320
330
4AC
100
AcDbEntity
  8
SUNPO
100
AcDbDimension
  2
*D7
 10
91.87973751621187
 20
58.99285773282557
 30
0.0
 11
85.07678938104181
 21
60.74285773282557
 31
0.0
 70
    33
  1
271.5
 71
     5
 42
13.60589627034015
  3
STANDARD
100
AcDbAlignedDimension
 13
78.27384124587172
 23
66.99285773282557
 33
0.0
 14
91.87973751621187
 24
66.99285773282557
 34
0.0
1001
ACAD
1000
DSTYLE
1002
{
1070
    40
1040
1.0
1070
   140
1040
2.5
1070
   147
1040
0.5
1070
   172
1070
     1
1070
   279
1070
     0
1070
   343
1005
4BF
1070
   344
1005
4BF
1002
}
  0
DIMENSION
  5
336
330
4AC
100
AcDbEntity
  8
SUNPO
100
AcDbDimension
  2
*D6
 10
57.84781535184913
 20
58.99285773282557
 30
0.0
 11
46.77300054439837
 21
60.74285773282557
 31
0.0
 70
    33
  1
443
 71
     5
 42
22.14962961490153
  3
STANDARD
100
AcDbAlignedDimension
 13
35.69818573694761
 23
66.99285773282557
 33
0.0
 14
57.84781535184913
 24
66.99285773282557
 34
0.0
1001
ACAD
1000
DSTYLE
1002
{
1070
    40
1040
1.0
1070
   140
1040
2.5
1070
   147
1040
0.5
1070
   172
1070
     1
1070
   279
1070
     0
1070
   343
1005
4BF
1070
   344
1005
4BF
1002
}
  0
ARC
  5
343
330
4AC
100
AcDbEntity
  8
GAIKEI
100
AcDbCircle
 10
82.37588074815541
 20
52.39143458534972
 30
0.0
 40
15.50161077313741
100
AcDbArc
 50
98.29421690667814
 51
105.1144469209679
  0
LINE
  5
345
330
4AC
100
AcDbEntity
  8
GAIKEI
 62
     1
100
AcDbLine
 10
80.36567560629896
 20
66.89586291150593
 30
0.0
 11
78.52444761002279
 21
66.89586291150593
 31
0.0
  0
LINE
  5
346
330
4AC
100
AcDbEntity
  8
GAIKEI
 62
     1
100
AcDbLine
 10
78.33386766079968
 20
67.35679681830268
 30
0.0
 11
91.81453911253028
 21
67.35679681830268
 31
0.0
  0
LINE
  5
347
330
4AC
100
AcDbEntity
  8
GAIKEI
 62
     1
100
AcDbLine
 10
78.27384124587172
 20
67.04632076615567
 30
0.0
 11
91.87973751621187
 21
67.04632076615567
 31
0.0
  0
LINE
  5
348
330
4AC
100
AcDbEntity
  8
GAIKEI
100
AcDbLine
 10
78.3232102294287
 20
66.9964816018029
 30
0.0
 11
91.83036853265491
 21
66.9964816018029
 31
0.0
  0
LWPOLYLINE
  5
349
330
4AC
100
AcDbEntity
  8
GAIKEI
100
AcDbPolyline
 90
        7
 70
     0
 43
0.0
 10
35.76643358851196
 20
67.43328037881315
 10
36.02779416187696
 20
67.50278875725182
 10
36.69265241472317
 20
67.66872152521739
 10
37.12050717067928
 20
67.76788188307737
 10
37.58217314617879
 20
67.86719013168479
 10
38.05529594111317
 20
67.95866020216127
 10
38.51752115537272
 20
68.03430602562912
  0
LWPOLYLINE
  5
34A
330
4AC
100
AcDbEntity
  8
GAIKEI
100
AcDbPolyline
 90
        7
 70
     0
 43
0.0
 10
35.7664335885205
 20
67.43328037874326
 10
36.02779416188605
 20
67.50278875717885
 10
36.69265241473239
 20
67.66872152514105
 10
37.12050717068905
 20
67.7678818829994
 10
37.58217314618844
 20
67.86719013160517
 10
38.05529594112295
 20
67.95866020208018
 10
38.51752115538204
 20
68.03430602554607
  0
LINE
  5
34B
330
4AC
100
AcDbEntity
  8
GAIKEI
 62
     1
100
AcDbLine
 10
46.78757746584051
 20
67.30445622299885
 30
0.0
 11
35.71025200817257
 21
67.35679681829686
 31
0.0
  0
LINE
  5
34C
330
4AC
100
AcDbEntity
  8
GAIKEI
100
AcDbLine
 10
57.84781535185903
 20
66.9964816018055
 30
0.0
 11
35.69818573696102
 21
66.99648160180697
 31
0.0
  0
LINE
  5
34D
330
4AC
100
AcDbEntity
  8
GAIKEI
100
AcDbLine
 10
37.22318573694759
 20
69.84648360068212
 30
0.0
 11
56.32318573694761
 21
69.84648360068212
 31
0.0
  0
LINE
  5
34E
330
4AC
100
AcDbEntity
  8
GAIKEI
100
AcDbLine
 10
56.32318573694761
 20
69.4964816018029
 30
0.0
 11
37.22318573694759
 21
69.4964816018029
 31
0.0
  0
LINE
  5
34F
330
4AC
100
AcDbEntity
  8
GAIKEI
100
AcDbLine
 10
37.71870871513056
 20
76.14796894173202
 30
0.0
 11
37.71870871513056
 21
71.48679182240869
 31
0.0
  0
LINE
  5
350
330
4AC
100
AcDbEntity
  8
GAIKEI
100
AcDbLine
 10
38.25741345925793
 20
76.16405730337223
 30
0.0
 11
38.25741345925793
 21
71.48679182240869
 31
0.0
  0
LINE
  5
351
330
4AC
100
AcDbEntity
  8
GAIKEI
100
AcDbLine
 10
35.71025200817633
 20
67.35679681829639
 30
0.0
 11
35.76643358850605
 21
67.43328037878928
 31
0.0
  0
LINE
  5
352
330
4AC
100
AcDbEntity
  8
GAIKEI
100
AcDbLine
 10
35.69818573694522
 20
66.99648160179731
 30
0.0
 11
35.71025200817486
 21
67.35679681829694
 31
0.0
  0
LINE
  5
353
330
4AC
100
AcDbEntity
  8
GAIKEI
100
AcDbLine
 10
35.7102520081744
 20
67.3567968183097
 30
0.0
 11
35.76643358850492
 21
67.43328037880508
 31
0.0
  0
LINE
  5
354
330
4AC
100
AcDbEntity
  8
GAIKEI
 62
     1
100
AcDbLine
 10
36.48591859971622
 20
66.89586291150593
 30
0.0
 11
38.21196996997287
 21
66.89586291150593
 31
0.0
  0
LINE
  5
355
330
4AC
100
AcDbEntity
  8
GAIKEI
 62
     1
100
AcDbLine
 10
36.48591859971622
 20
66.9964816018029
 30
0.0
 11
36.48591859971622
 21
66.89586291150593
 31
0.0
  0
LINE
  5
356
330
4AC
100
AcDbEntity
  8
GAIKEI
100
AcDbLine
 10
38.34040897565581
 20
71.48679182240869
 30
0.0
 11
38.39403684778996
 21
69.84354683625574
 31
0.0
  0
LINE
  5
357
330
4AC
100
AcDbEntity
  8
GAIKEI
100
AcDbLine
 10
37.55720854659046
 20
69.84648160180293
 30
0.0
 11
37.6114529708625
 21
71.48679182240869
 31
0.0
  0
LINE
  5
358
330
4AC
100
AcDbEntity
  8
GAIKEI
 62
     1
100
AcDbLine
 10
38.21196996997287
 20
66.89586291150593
 30
0.0
 11
38.21196996997287
 21
66.9964816018029
 31
0.0
  0
LINE
  5
359
330
4AC
100
AcDbEntity
  8
GAIKEI
100
AcDbLine
 10
37.22318573694759
 20
69.4964816018029
 30
0.0
 11
37.22318573694759
 21
69.84648360068212
 31
0.0
  0
CIRCLE
  5
35A
330
4AC
100
AcDbEntity
  8
GAIKEI
 62
     1
100
AcDbCircle
 10
37.97318573694759
 20
72.89648160180291
 30
0.0
 40
0.1046381933662862
  0
LINE
  5
35B
330
4AC
100
AcDbEntity
  8
GAIKEI
100
AcDbLine
 10
37.6114529708625
 20
71.48679182240869
 30
0.0
 11
38.34040897565581
 21
71.48679182240869
 31
0.0
  0
CIRCLE
  5
35C
330
4AC
100
AcDbEntity
  8
GAIKEI
 62
     1
100
AcDbCircle
 10
37.97318573694759
 20
75.84648160180293
 30
0.0
 40
0.1046381933662862
  0
LWPOLYLINE
  5
35D
330
4AC
100
AcDbEntity
  8
GAIKEI
100
AcDbPolyline
 90
       39
 70
     0
 43
0.0
 10
37.71870871513056
 20
76.14796894173209
 10
37.72019605064679
 20
76.16079633771002
 10
37.72610648856332
 20
76.1946140180154
 10
37.73139932312543
 20
76.21720772684013
 10
37.73861267593207
 20
76.24242522120574
 10
37.74801812786472
 20
76.26939190593201
 10
37.75988725980487
 20
76.29723318583859
 10
37.774491652634
 20
76.32507446574516
 10
37.7921028872336
 20
76.35204115047144
 10
37.81299254448514
 20
76.37725864483707
 10
37.82475165063085
 20
76.38893813464081
 10
37.8374322052701
 20
76.3998523536618
 10
37.85106815601307
 20
76.40989197750243
 10
37.86569345046997
 20
76.41894768176524
 10
37.88134203625097
 20
76.42691014205269
 10
37.89804786096624
 20
76.43367003396715
 10
37.91584487222598
 20
76.43911803311119
 10
37.93476701764038
 20
76.44314481508721
 10
37.95484824481962
 20
76.4456410554977
 10
37.97612250137446
 20
76.44649742994601
 10
37.99743155110976
 20
76.44568720741514
 10
38.01768301121255
 20
76.44332549493144
 10
38.03690187479251
 20
76.43951572515851
 10
38.05511313495933
 20
76.43436133075977
 10
38.0723417848227
 20
76.42796574439876
 10
38.08861281749234
 20
76.42043239873901
 10
38.10395122607793
 20
76.41186472644396
 10
38.11838200368914
 20
76.40236616017721
 10
38.13193014343572
 20
76.3920401326022
 10
38.14462063842731
 20
76.38099007638249
 10
38.16752866658439
 20
76.35713160866287
 10
38.18730603303796
 20
76.33161821832647
 10
38.20415268266554
 20
76.30527736668135
 10
38.21826856034475
 20
76.27893651503557
 10
38.22985361095308
 20
76.25342312469716
 10
38.23910777936815
 20
76.22956465697427
 10
38.2462310104675
 20
76.20818857317491
 10
38.25488444022925
 20
76.17619340257913
 10
38.25741345925883
 20
76.16405730337437
  0
LINE
  5
35E
330
4AC
100
AcDbEntity
  8
GAIKEI
100
AcDbLine
 10
37.73466939136085
 20
76.21999359582694
 30
0.0
 11
38.24242923189104
 21
76.21999359582694
 31
0.0
  0
DIMENSION
  5
35F
330
4AC
100
AcDbEntity
  8
SUNPO
100
AcDbDimension
  2
*D8
 10
65.84321153336981
 20
76.44659987247854
 30
0.0
 11
64.09321153336979
 21
71.72154073714074
 31
0.0
 70
    33
  1
189
 71
     5
 42
9.450118270675645
  3
STANDARD
100
AcDbAlignedDimension
 13
57.84321153336981
 23
66.9964816018029
 33
0.0
 14
57.84321153336981
 24
76.44659987247854
 34
0.0
1001
ACAD
1000
DSTYLE
1002
{
1070
    40
1040
1.0
1070
   140
1040
2.5
1070
   147
1040
0.5
1070
   172
1070
     1
1070
   279
1070
     0
1070
   343
1005
4BF
1070
   344
1005
4BF
1002
}
  0
LINE
  5
36C
330
4AC
100
AcDbEntity
  8
GAIKEI
 62
     1
100
AcDbLine
 10
57.83568523791405
 20
67.35679681830311
 30
0.0
 11
46.81579594141953
 21
67.30445622300379
 31
0.0
  0
LINE
  5
36D
330
4AC
100
AcDbEntity
  8
GAIKEI
 62
     1
100
AcDbLine
 10
42.89700302792993
 20
66.89586291150593
 30
0.0
 11
50.76638252195993
 21
66.89586291150593
 31
0.0
  0
LWPOLYLINE
  5
36E
330
4AC
100
AcDbEntity
  8
GAIKEI
100
AcDbPolyline
 90
        7
 70
     0
 43
0.0
 10
38.56182799294038
 20
68.02996472168889
 10
40.53180637802586
 20
67.90111418247523
 10
43.09039654672647
 20
67.81246659160434
 10
46.78349153272701
 20
67.77216787935708
 10
50.60386692609199
 20
67.81312696473015
 10
53.17593389070362
 20
67.90323695255029
 10
55.08163863300364
 20
68.03430602578271
  0
LINE
  5
36F
330
4AC
100
AcDbEntity
  8
GAIKEI
100
AcDbLine
 10
38.51752115571435
 20
68.0343060256564
 30
0.0
 11
40.82115747739043
 21
68.07439924434539
 31
0.0
  0
LINE
  5
370
330
4AC
100
AcDbEntity
  8
GAIKEI
100
AcDbLine
 10
38.51752115573027
 20
68.03430602562002
 30
0.0
 11
38.56182799294585
 21
68.0299647216816
 31
0.0
  0
LINE
  5
371
330
4AC
100
AcDbEntity
  8
GAIKEI
100
AcDbLine
 10
40.8153896793831
 20
67.88798645282182
 30
0.0
 11
40.91360171413464
 21
69.4964816018029
 31
0.0
  0
LINE
  5
372
330
4AC
100
AcDbEntity
  8
GAIKEI
 62
     1
100
AcDbLine
 10
41.7070388508987
 20
67.30445622300331
 30
0.0
 11
41.7070388508987
 21
66.9964816018029
 31
0.0
  0
LINE
  5
373
330
4AC
100
AcDbEntity
  8
GAIKEI
 62
     1
100
AcDbLine
 10
42.89700302792993
 20
66.9964816018029
 30
0.0
 11
42.89700302792993
 21
66.89586291150593
 31
0.0
  0
LINE
  5
374
330
4AC
100
AcDbEntity
  8
GAIKEI
100
AcDbLine
 10
55.20741345925796
 20
76.16405730337223
 30
0.0
 11
55.20741345925796
 21
71.48679182240869
 31
0.0
  0
LINE
  5
375
330
4AC
100
AcDbEntity
  8
GAIKEI
100
AcDbLine
 10
54.6687087151306
 20
76.14796894173202
 30
0.0
 11
54.6687087151306
 21
71.48679182240869
 31
0.0
  0
LINE
  5
376
330
4AC
100
AcDbEntity
  8
GAIKEI
100
AcDbLine
 10
52.78332652011943
 20
68.07430879739843
 30
0.0
 11
55.08163863301182
 21
68.03430602566554
 31
0.0
  0
LINE
  5
377
330
4AC
100
AcDbEntity
  8
GAIKEI
 62
     1
100
AcDbLine
 10
51.88158689152817
 20
67.3151817974301
 30
0.0
 11
51.88158689152817
 21
67.01409960102046
 31
0.0
  0
LINE
  5
378
330
4AC
100
AcDbEntity
  8
GAIKEI
 62
     1
100
AcDbLine
 10
50.76638252195993
 20
66.89586291150593
 30
0.0
 11
50.76638252195993
 21
66.9964816018029
 31
0.0
  0
LINE
  5
379
330
4AC
100
AcDbEntity
  8
GAIKEI
100
AcDbLine
 10
52.6962836490311
 20
69.4964816018029
 30
0.0
 11
52.79488917796311
 21
67.88538927615682
 31
0.0
  0
LWPOLYLINE
  5
37A
330
4AC
100
AcDbEntity
  8
GAIKEI
100
AcDbPolyline
 90
        7
 70
     0
 43
0.0
 10
55.08163863301184
 20
68.03430602566553
 10
55.54157694112444
 20
67.95866020221382
 10
56.00867061990031
 20
67.86719013174679
 10
56.46181267257331
 20
67.76788188314262
 10
56.87989610237741
 20
67.66872152527942
 10
57.52645910631459
 20
67.50278875728835
 10
57.77950365758329
 20
67.43328037879857
  0
LWPOLYLINE
  5
37B
330
4AC
100
AcDbEntity
  8
GAIKEI
100
AcDbPolyline
 90
        7
 70
     0
 43
0.0
 10
55.08163863301184
 20
68.0343060256655
 10
55.54157694112444
 20
67.95866020221374
 10
56.0086706199003
 20
67.86719013174675
 10
56.46181267257332
 20
67.76788188314256
 10
56.87989610237741
 20
67.66872152527934
 10
57.52645910631458
 20
67.50278875728823
 10
57.77950365758329
 20
67.4332803787984
  0
LINE
  5
37C
330
4AC
100
AcDbEntity
  8
GAIKEI
 62
     1
100
AcDbLine
 10
55.55892669500474
 20
66.89586291150593
 30
0.0
 11
57.28510575067138
 21
66.89586291150593
 31
0.0
  0
LINE
  5
37D
330
4AC
100
AcDbEntity
  8
GAIKEI
100
AcDbLine
 10
54.50720854659039
 20
69.84648160180293
 30
0.0
 11
54.56145297086255
 21
71.48679182240869
 31
0.0
  0
LINE
  5
37E
330
4AC
100
AcDbEntity
  8
GAIKEI
100
AcDbLine
 10
55.29040897565585
 20
71.48679182240869
 30
0.0
 11
55.34403684778999
 21
69.84354683625574
 31
0.0
  0
LINE
  5
37F
330
4AC
100
AcDbEntity
  8
GAIKEI
 62
     1
100
AcDbLine
 10
55.55892669500474
 20
66.9964816018029
 30
0.0
 11
55.55892669500474
 21
66.89586291150593
 31
0.0
  0
LINE
  5
380
330
4AC
100
AcDbEntity
  8
GAIKEI
100
AcDbLine
 10
56.32318573694761
 20
69.84648360068212
 30
0.0
 11
56.32318573694761
 21
69.4964816018029
 31
0.0
  0
LINE
  5
381
330
4AC
100
AcDbEntity
  8
GAIKEI
100
AcDbLine
 10
54.56145297086255
 20
71.48679182240869
 30
0.0
 11
55.29040897565585
 21
71.48679182240869
 31
0.0
  0
CIRCLE
  5
382
330
4AC
100
AcDbEntity
  8
GAIKEI
 62
     1
100
AcDbCircle
 10
54.92318573694763
 20
72.89648160180291
 30
0.0
 40
0.1046381933662862
  0
LINE
  5
383
330
4AC
100
AcDbEntity
  8
GAIKEI
100
AcDbLine
 10
57.77950365758329
 20
67.4332803787985
 30
0.0
 11
57.83568523791403
 21
67.35679681830252
 31
0.0
  0
LINE
  5
384
330
4AC
100
AcDbEntity
  8
GAIKEI
100
AcDbLine
 10
57.77950365758329
 20
67.43328037879905
 30
0.0
 11
57.83568523791405
 21
67.35679681830385
 31
0.0
  0
LINE
  5
385
330
4AC
100
AcDbEntity
  8
GAIKEI
100
AcDbLine
 10
57.83568523791576
 20
67.3567968183039
 30
0.0
 11
57.8478153518513
 21
66.99648160180436
 31
0.0
  0
LINE
  5
386
330
4AC
100
AcDbEntity
  8
GAIKEI
 62
     1
100
AcDbLine
 10
57.28510575067138
 20
66.89586291150593
 30
0.0
 11
57.28510575067138
 21
66.9964816018029
 31
0.0
  0
CIRCLE
  5
387
330
4AC
100
AcDbEntity
  8
GAIKEI
 62
     1
100
AcDbCircle
 10
54.92318573694763
 20
75.84648160180293
 30
0.0
 40
0.1046381933662862
  0
LINE
  5
388
330
4AC
100
AcDbEntity
  8
GAIKEI
100
AcDbLine
 10
54.6846693913609
 20
76.21999359582694
 30
0.0
 11
55.20741345925796
 21
76.21999359582694
 31
0.0
  0
LWPOLYLINE
  5
389
330
4AC
100
AcDbEntity
  8
GAIKEI
100
AcDbPolyline
 90
       39
 70
     0
 43
0.0
 10
54.6687087151306
 20
76.14796894173209
 10
54.67019605064682
 20
76.16079633771002
 10
54.67610648856336
 20
76.1946140180154
 10
54.68139932312547
 20
76.21720772684013
 10
54.68861267593212
 20
76.24242522120574
 10
54.69801812786476
 20
76.26939190593201
 10
54.7098872598049
 20
76.29723318583859
 10
54.72449165263403
 20
76.32507446574516
 10
54.74210288723361
 20
76.35204115047144
 10
54.76299254448513
 20
76.37725864483707
 10
54.77475165063085
 20
76.38893813464081
 10
54.78743220527009
 20
76.3998523536618
 10
54.80106815601306
 20
76.40989197750243
 10
54.81569345046995
 20
76.41894768176524
 10
54.83134203625094
 20
76.42691014205269
 10
54.84804786096621
 20
76.43367003396715
 10
54.86584487222593
 20
76.43911803311119
 10
54.88476701764034
 20
76.44314481508721
 10
54.90484824481955
 20
76.4456410554977
 10
54.92612250137427
 20
76.44649742994601
 10
54.9474315511096
 20
76.44568720741514
 10
54.96768301121239
 20
76.44332549493144
 10
54.98690187479237
 20
76.43951572515851
 10
55.0051131349592
 20
76.43436133075977
 10
55.0223417848226
 20
76.42796574439876
 10
55.03861281749224
 20
76.42043239873901
 10
55.05395122607782
 20
76.41186472644396
 10
55.06838200368907
 20
76.40236616017721
 10
55.08193014343564
 20
76.3920401326022
 10
55.09462063842725
 20
76.38099007638249
 10
55.11752866658436
 20
76.35713160866287
 10
55.13730603303794
 20
76.33161821832647
 10
55.15415268266554
 20
76.30527736668135
 10
55.16826856034476
 20
76.27893651503557
 10
55.17985361095313
 20
76.25342312469716
 10
55.1891077793682
 20
76.22956465697427
 10
55.19623101046757
 20
76.20818857317491
 10
55.20488444022936
 20
76.17619340257913
 10
55.20741345925899
 20
76.16405730337437
  0
LINE
  5
38A
330
4AC
100
AcDbEntity
  8
GAIKEI
 62
     7
100
AcDbLine
 10
78.28434195031082
 20
67.28109771018202
 30
0.0
 11
78.33386766079968
 21
67.35679681830268
 31
0.0
  0
LINE
  5
38B
330
4AC
100
AcDbEntity
  8
GAIKEI
100
AcDbLine
 10
78.28434195031082
 20
67.28109771018202
 30
0.0
 11
78.27384124587172
 21
67.04632076615567
 31
0.0
  0
LINE
  5
38C
330
4AC
100
AcDbEntity
  8
GAIKEI
 62
     1
100
AcDbLine
 10
78.52444761002279
 20
66.8958629115059
 30
0.0
 11
78.52444761002279
 21
66.9964816018029
 31
0.0
  0
LINE
  5
38D
330
4AC
100
AcDbEntity
  8
GAIKEI
100
AcDbLine
 10
78.3232102294287
 20
67.04632076615567
 30
0.0
 11
78.3232102294287
 21
66.99648160180294
 31
0.0
  0
LINE
  5
38E
330
4AC
100
AcDbEntity
  8
GAIKEI
100
AcDbLine
 10
88.56261200198094
 20
69.49648188921869
 30
0.0
 11
91.32899907742105
 21
69.49648188921869
 31
0.0
  0
ARC
  5
38F
330
4AC
100
AcDbEntity
  8
GAIKEI
100
AcDbCircle
 10
86.63007961696781
 20
49.86544767118434
 30
0.0
 40
18.2435170744987
100
AcDbArc
 50
73.33108342478812
 51
85.73018404972943
  0
LINE
  5
390
330
4AC
100
AcDbEntity
  8
GAIKEI
100
AcDbLine
 10
85.45910529596621
 20
69.84613967434743
 30
0.0
 11
91.32899907742105
 21
69.84613967434743
 31
0.0
  0
LINE
  5
391
330
4AC
100
AcDbEntity
  8
GAIKEI
100
AcDbLine
 10
87.71649502863796
 20
76.17938963549687
 30
0.0
 11
87.71649502863796
 21
71.50814660180291
 31
0.0
  0
LINE
  5
392
330
4AC
100
AcDbEntity
  8
GAIKEI
100
AcDbLine
 10
87.17791796992049
 20
76.17938963549687
 30
0.0
 11
87.17791796992049
 21
71.50814660180291
 31
0.0
  0
ARC
  5
393
330
4AC
100
AcDbEntity
  8
GAIKEI
100
AcDbCircle
 10
118.22832475045
 20
-751.0550272737092
 30
0.0
 40
819.6713649208609
100
AcDbArc
 50
92.11428025957882
 51
92.66339058809544
  0
LINE
  5
394
330
4AC
100
AcDbEntity
  8
GAIKEI
 62
     1
100
AcDbLine
 10
80.36567560629896
 20
66.99648160180294
 30
0.0
 11
80.36567560629896
 21
66.89586291150593
 31
0.0
  0
LINE
  5
395
330
4AC
100
AcDbEntity
  8
GAIKEI
 62
     1
100
AcDbLine
 10
89.21224513481751
 20
66.89586291150593
 30
0.0
 11
87.46097839746733
 21
66.89586291150593
 31
0.0
  0
LINE
  5
396
330
4AC
100
AcDbEntity
  8
GAIKEI
100
AcDbLine
 10
87.92708429301761
 20
70.25723441679142
 30
0.0
 11
87.90955536832052
 21
71.50814660180291
 31
0.0
  0
LINE
  5
397
330
4AC
100
AcDbEntity
  8
GAIKEI
100
AcDbLine
 10
87.62272059121583
 20
69.46983831079112
 30
0.0
 11
87.58042349800849
 21
68.04030780143898
 31
0.0
  0
LINE
  5
398
330
4AC
100
AcDbEntity
  8
GAIKEI
100
AcDbLine
 10
88.19560852009885
 20
68.04166934954716
 30
0.0
 11
88.14587508998751
 21
69.46983831079112
 31
0.0
  0
LINE
  5
399
330
4AC
100
AcDbEntity
  8
GAIKEI
100
AcDbLine
 10
88.56261200198094
 20
69.49648188921869
 30
0.0
 11
88.35244118626702
 21
69.49648188921869
 31
0.0
  0
LWPOLYLINE
  5
39A
330
4AC
100
AcDbEntity
  8
GAIKEI
100
AcDbPolyline
 90
        3
 70
     0
 43
0.0
 10
88.26247992734101
 20
70.24673371235238
 10
88.56261200198082
 20
70.24673371235238
 10
88.6367438407823
 20
70.17260187355097
  0
LINE
  5
39B
330
4AC
100
AcDbEntity
  8
GAIKEI
100
AcDbLine
 10
88.26247992734101
 20
70.24673371235235
 30
0.0
 11
88.56261200198094
 21
70.24673371235235
 31
0.0
  0
LINE
  5
39C
330
4AC
100
AcDbEntity
  8
GAIKEI
100
AcDbLine
 10
87.95184714826211
 20
70.24673371235235
 30
0.0
 11
88.26247992734101
 21
70.24673371235235
 31
0.0
  0
LINE
  5
39D
330
4AC
100
AcDbEntity
  8
GAIKEI
100
AcDbLine
 10
87.92708429301773
 20
70.25723441679142
 30
0.0
 11
87.95184714826211
 21
70.24673371235235
 31
0.0
  0
LINE
  5
39E
330
4AC
100
AcDbEntity
  8
GAIKEI
100
AcDbLine
 10
88.6367438407823
 20
70.17260187355097
 30
0.0
 11
88.6367438407823
 21
69.84613967434743
 31
0.0
  0
LINE
  5
39F
330
4AC
100
AcDbEntity
  8
GAIKEI
100
AcDbLine
 10
88.6367438407823
 20
70.17260187355097
 30
0.0
 11
88.56261200198094
 21
70.24673371235235
 31
0.0
  0
LINE
  5
3A0
330
4AC
100
AcDbEntity
  8
GAIKEI
100
AcDbLine
 10
87.00020121760246
 20
69.84613967434743
 30
0.0
 11
87.02956792466341
 21
71.50814660180291
 31
0.0
  0
LINE
  5
3A1
330
4AC
100
AcDbEntity
  8
GAIKEI
 62
     1
100
AcDbLine
 10
87.46097839746733
 20
66.8958629115059
 30
0.0
 11
87.46097839746733
 21
66.9964816018029
 31
0.0
  0
LINE
  5
3A2
330
4AC
100
AcDbEntity
  8
GAIKEI
100
AcDbLine
 10
87.02956792466341
 20
71.50814660180291
 30
0.0
 11
87.90955536832052
 21
71.50814660180291
 31
0.0
  0
LINE
  5
3A3
330
4AC
100
AcDbEntity
  8
GAIKEI
 62
     1
100
AcDbLine
 10
89.21224513481751
 20
66.99648160180294
 30
0.0
 11
89.21224513481751
 21
66.89586291150593
 31
0.0
  0
LWPOLYLINE
  5
3A4
330
4AC
100
AcDbEntity
  8
GAIKEI
100
AcDbPolyline
 90
        6
 70
     0
 43
0.0
 10
84.64898378483646
 20
69.44695617872984
 10
84.64898378483646
 20
69.47203248783814
 10
84.65932776234366
 20
69.47203248783814
 10
84.65932776234366
 20
69.48221973841336
 10
84.68424734451991
 20
69.48221973841336
 10
84.68424734451991
 20
69.49648188921869
  0
LINE
  5
3A5
330
4AC
100
AcDbEntity
  8
GAIKEI
100
AcDbLine
 10
84.55870907204667
 20
67.92179740789882
 30
0.0
 11
84.64898378483646
 21
69.4469561787298
 31
0.0
  0
LINE
  5
3A6
330
4AC
100
AcDbEntity
  8
GAIKEI
100
AcDbLine
 10
85.45910529596621
 20
69.49648188921869
 30
0.0
 11
85.45910529596621
 21
69.84613967434743
 31
0.0
  0
LINE
  5
3A7
330
4AC
100
AcDbEntity
  8
GAIKEI
100
AcDbLine
 10
84.68424734451991
 20
69.49648188921869
 30
0.0
 11
88.35244118626702
 21
69.49648188921869
 31
0.0
  0
ARC
  5
3A8
330
4AC
100
AcDbEntity
  8
GAIKEI
100
AcDbCircle
 10
87.44720649927922
 20
76.17730326090847
 30
0.0
 40
0.2692966115700758
100
AcDbArc
 50
0.4439032990869142
 51
179.5560967009131
  0
LINE
  5
3A9
330
4AC
100
AcDbEntity
  8
GAIKEI
100
AcDbLine
 10
87.18131516751439
 20
76.21999359582694
 30
0.0
 11
87.71309783104401
 21
76.21999359582694
 31
0.0
  0
LINE
  5
3AA
330
4AC
100
AcDbEntity
  8
GAIKEI
100
AcDbLine
 10
90.76399848782488
 20
69.4469561787298
 30
0.0
 11
90.85618764077695
 21
67.61272707447941
 31
0.0
  0
LINE
  5
3AB
330
4AC
100
AcDbEntity
  8
GAIKEI
 62
     1
100
AcDbLine
 10
91.38024878416116
 20
66.8958629115059
 30
0.0
 11
91.02886700278125
 21
66.8958629115059
 31
0.0
  0
LINE
  5
3AC
330
4AC
100
AcDbEntity
  8
GAIKEI
 62
     1
100
AcDbLine
 10
91.02886700278125
 20
66.8958629115059
 30
0.0
 11
91.02886700278125
 21
66.9964816018029
 31
0.0
  0
LINE
  5
3AD
330
4AC
100
AcDbEntity
  8
GAIKEI
100
AcDbLine
 10
91.86306558205751
 20
67.34234021925189
 30
0.0
 11
91.87973751621187
 21
67.04632076615567
 31
0.0
  0
LINE
  5
3AE
330
4AC
100
AcDbEntity
  8
GAIKEI
 62
     1
100
AcDbLine
 10
91.6642379848125
 20
66.8958629115059
 30
0.0
 11
91.38024878416116
 21
66.8958629115059
 31
0.0
  0
LINE
  5
3AF
330
4AC
100
AcDbEntity
  8
GAIKEI
 62
     1
100
AcDbLine
 10
91.6642379848125
 20
66.9964816018029
 30
0.0
 11
91.6642379848125
 21
66.8958629115059
 31
0.0
  0
LINE
  5
3B0
330
4AC
100
AcDbEntity
  8
GAIKEI
 62
     1
100
AcDbLine
 10
91.83036853265491
 20
66.9964816018029
 30
0.0
 11
91.83036853265491
 21
67.04632076615567
 31
0.0
  0
LWPOLYLINE
  5
3B1
330
4AC
100
AcDbEntity
  8
GAIKEI
100
AcDbPolyline
 90
        6
 70
     0
 43
0.0
 10
90.71478623119979
 20
69.49648188921869
 10
90.71478623119979
 20
69.48221973841336
 10
90.73939235951241
 20
69.48221973841336
 10
90.7533410564538
 20
69.47203248783814
 10
90.7533410564538
 20
69.4560463407816
 10
90.76399848782488
 20
69.44695617872984
  0
LINE
  5
3B2
330
4AC
100
AcDbEntity
  8
GAIKEI
100
AcDbLine
 10
91.32899907742105
 20
69.84613967434743
 30
0.0
 11
91.32899907742105
 21
69.67123241831709
 31
0.0
  0
LINE
  5
3B3
330
4AC
100
AcDbEntity
  8
GAIKEI
100
AcDbLine
 10
91.32899907742105
 20
69.84613967434743
 30
0.0
 11
91.32899907742105
 21
69.49648188921869
 31
0.0
  0
LINE
  5
3B4
330
4AC
100
AcDbEntity
  8
WAKU
 62
     4
100
AcDbLine
 10
0.0
 20
35.0
 30
0.0
 11
125.0
 21
35.0
 31
0.0
  0
LINE
  5
3B6
330
4AC
100
AcDbEntity
  8
WAKU
 62
     1
100
AcDbLine
 10
0.0
 20
5.0
 30
0.0
 11
125.0
 21
5.0
 31
0.0
  0
LINE
  5
3B7
330
4AC
100
AcDbEntity
  8
WAKU
 62
     1
100
AcDbLine
 10
0.0
 20
25.0
 30
0.0
 11
125.0
 21
25.0
 31
0.0
  0
LINE
  5
3B8
330
4AC
100
AcDbEntity
  8
WAKU
 62
     1
100
AcDbLine
 10
0.0
 20
10.0
 30
0.0
 11
125.0
 21
10.0
 31
0.0
  0
LINE
  5
3B9
330
4AC
100
AcDbEntity
  8
WAKU
 62
     4
100
AcDbLine
 10
125.0
 20
0.0
 30
0.0
 11
0.0
 21
0.0
 31
0.0
  0
LINE
  5
3BA
330
4AC
100
AcDbEntity
  8
WAKU
 62
     1
100
AcDbLine
 10
0.0
 20
20.0
 30
0.0
 11
125.0
 21
20.0
 31
0.0
  0
LINE
  5
3BB
330
4AC
100
AcDbEntity
  8
WAKU
 62
     1
100
AcDbLine
 10
0.0
 20
15.0
 30
0.0
 11
125.0
 21
15.0
 31
0.0
  0
LINE
  5
3BC
330
4AC
100
AcDbEntity
  8
WAKU
 62
     1
100
AcDbLine
 10
0.0
 20
30.0
 30
0.0
 11
125.0
 21
30.0
 31
0.0
  0
LINE
  5
3BD
330
4AC
100
AcDbEntity
  8
WAKU
 62
     4
100
AcDbLine
 10
40.0
 20
35.0
 30
0.0
 11
40.0
 21
0.0
 31
0.0
  0
LINE
  5
3BE
330
4AC
100
AcDbEntity
  8
WAKU
 62
     4
100
AcDbLine
 10
0.0
 20
35.0
 30
0.0
 11
0.0
 21
0.0
 31
0.0
  0
TEXT
  5
3BF
330
4AC
100
AcDbEntity
  8
MOJI1
100
AcDbText
 10
2.5
 20
26.1251189511155
 30
0.0
 40
3.0
  1
スタンドカラー
100
AcDbText
  0
TEXT
  5
3C0
330
4AC
100
AcDbEntity
  8
MOJI1
100
AcDbText
 10
2.5
 20
31.0
 30
0.0
 40
3.0
  1
適合機器
100
AcDbText
  0
LINE
  5
3C3
330
4AC
100
AcDbEntity
  8
WAKU
 62
     4
100
AcDbLine
 10
125.0
 20
35.0
 30
0.0
 11
125.0
 21
0.0
 31
0.0
  0
TEXT
  5
4CD
330
4AC
100
AcDbEntity
  8
MOJI1
100
AcDbText
 10
42.5
 20
26.05628590561595
 30
0.0
 40
3.0
  1
シルバー
100
AcDbText
  0
TEXT
  5
4CE
330
4AC
100
AcDbEntity
  8
MOJI1
100
AcDbText
 10
42.5
 20
31.0
 30
0.0
 40
3.0
  1
ＴＨ－３２ＬＨＤ７Ｓ
100
AcDbText
  0
ENDSEC
  0
SECTION
  2
OBJECTS
  0
DICTIONARY
  5
498
330
0
100
AcDbDictionary
281
     1
  3
ACAD_COLOR
350
4A7
  3
ACAD_GROUP
350
499
  3
ACAD_LAYOUT
350
4A5
  3
ACAD_MATERIAL
350
4A6
  3
ACAD_MLINESTYLE
350
4A2
  3
ACAD_PLOTSETTINGS
350
4A4
  3
ACAD_PLOTSTYLENAME
350
49A
  3
ACDBHEADERROUNDTRIPXREC
350
4F0
  3
AcDbVariableDictionary
350
4EB
  3
DWGPROPS
350
4EF
  0
DICTIONARY
  5
4A7
102
{ACAD_REACTORS
330
498
102
}
330
498
100
AcDbDictionary
281
     1
  0
DICTIONARY
  5
499
102
{ACAD_REACTORS
330
498
102
}
330
498
100
AcDbDictionary
281
     1
  0
DICTIONARY
  5
4A5
102
{ACAD_REACTORS
330
498
102
}
330
498
100
AcDbDictionary
281
     1
  3
Model
350
4AF
  3
レイアウト1
350
4AB
  0
DICTIONARY
  5
4A6
102
{ACAD_REACTORS
330
498
102
}
330
498
100
AcDbDictionary
281
     1
  0
DICTIONARY
  5
4A2
102
{ACAD_REACTORS
330
498
102
}
330
498
100
AcDbDictionary
281
     1
  3
Standard
350
4A3
  0
DICTIONARY
  5
4A4
102
{ACAD_REACTORS
330
498
102
}
330
498
100
AcDbDictionary
281
     1
  0
ACDBDICTIONARYWDFLT
  5
49A
102
{ACAD_REACTORS
330
498
102
}
330
498
100
AcDbDictionary
281
     1
  3
Normal
350
49B
100
AcDbDictionaryWithDefault
340
49B
  0
DICTIONARY
  5
4F0
102
{ACAD_REACTORS
330
498
102
}
330
498
100
AcDbDictionary
281
     1
  3
COLORDICT
350
4F2
  3
MATERIALDICT
350
4F1
  0
DICTIONARY
  5
4EB
102
{ACAD_REACTORS
330
498
102
}
330
498
100
AcDbDictionary
281
     1
  3
DIMASSOC
350
4EC
  3
PROJECTNAME
350
4ED
  0
XRECORD
  5
4EF
102
{ACAD_REACTORS
330
498
102
}
330
498
100
AcDbXrecord
280
     1
  1
DWGPROPS COOKIE
  2

  3

  4

  6

  7

  8

  9

300
=
301
=
302
=
303
=
304
=
305
=
306
=
307
=
308
=
309
=
 40
1.317420717592592
 41
2448884.641931713
 42
2453731.660441076
  1

 90
        0
  0
LAYOUT
  5
4AF
102
{ACAD_XDICTIONARY
360
4F5
102
}
102
{ACAD_REACTORS
330
4A5
102
}
330
4A5
100
AcDbPlotSettings
  1

  2
\\Uranus\BFACN02M
  4

  6

 40
0.0
 41
0.0
 42
0.0
 43
0.0
 44
0.0
 45
0.0
 46
0.0
 47
0.0
 48
0.0
 49
0.0
140
0.0
141
0.0
142
1.0
143
1.0
 70
  1712
 72
     0
 73
     0
 74
     0
  7
SSC.ctb
 75
     0
147
1.0
148
0.0
149
0.0
100
AcDbLayout
  1
Model
 70
     1
 71
     0
 10
0.0
 20
0.0
 11
12.0
 21
9.0
 12
0.0
 22
0.0
 32
0.0
 14
0.0
 24
0.0
 34
0.0
 15
0.0
 25
0.0
 35
0.0
146
0.0
 13
0.0
 23
0.0
 33
0.0
 16
1.0
 26
0.0
 36
0.0
 17
0.0
 27
1.0
 37
0.0
 76
     0
330
4AC
  0
LAYOUT
  5
4AB
102
{ACAD_XDICTIONARY
360
4F3
102
}
102
{ACAD_REACTORS
330
4A5
102
}
330
4A5
100
AcDbPlotSettings
  1

  2
\\Uranus\BFACN02M
  4

  6

 40
0.0
 41
0.0
 42
0.0
 43
0.0
 44
0.0
 45
0.0
 46
0.0
 47
0.0
 48
0.0
 49
0.0
140
0.0
141
0.0
142
1.0
143
1.0
 70
   688
 72
     0
 73
     0
 74
     5
  7
SSC.ctb
 75
    16
147
1.0
148
0.0
149
0.0
100
AcDbLayout
  1
レイアウト1
 70
     0
 71
     1
 10
0.0
 20
0.0
 11
12.0
 21
9.0
 12
0.0
 22
0.0
 32
0.0
 14
1.000000000000000E+20
 24
1.000000000000000E+20
 34
1.000000000000000E+20
 15
-1.000000000000000E+20
 25
-1.000000000000000E+20
 35
-1.000000000000000E+20
146
0.0
 13
0.0
 23
0.0
 33
0.0
 16
1.0
 26
0.0
 36
0.0
 17
0.0
 27
1.0
 37
0.0
 76
     0
330
4A8
  0
MLINESTYLE
  5
4A3
102
{ACAD_REACTORS
330
4A2
102
}
330
4A2
100
AcDbMlineStyle
  2
STANDARD
 70
     0
  3

 62
   256
 51
90.0
 52
90.0
 71
     2
 49
0.5
 62
   256
  6
BYLAYER
 49
-0.5
 62
   256
  6
BYLAYER
  0
ACDBPLACEHOLDER
  5
49B
102
{ACAD_REACTORS
330
49A
102
}
330
49A
  0
XRECORD
  5
4F2
102
{ACAD_REACTORS
330
4F0
102
}
330
4F0
100
AcDbXrecord
280
     1
340
4A7
  0
XRECORD
  5
4F1
102
{ACAD_REACTORS
330
4F0
102
}
330
4F0
100
AcDbXrecord
280
     1
340
4A6
  0
DICTIONARYVAR
  5
4EC
102
{ACAD_REACTORS
330
4EB
102
}
330
4EB
100
DictionaryVariables
280
     0
  1
1
  0
DICTIONARYVAR
  5
4ED
102
{ACAD_REACTORS
330
4EB
102
}
330
4EB
100
DictionaryVariables
280
     0
  1

  0
DICTIONARY
  5
4F5
330
4AF
100
AcDbDictionary
280
     1
281
     1
  3
ACAD_XREC_ROUNDTRIP
360
4F6
  0
DICTIONARY
  5
4F3
330
4AB
100
AcDbDictionary
280
     1
281
     1
  3
ACAD_XREC_ROUNDTRIP
360
4F4
  0
XRECORD
  5
4F6
102
{ACAD_REACTORS
330
4F5
102
}
330
4F5
100
AcDbXrecord
280
     1
102
SHADEPLOT
 70
     0
102
SHADEPLOTRESLEVEL
 70
     2
102
SHADEPLOTCUSTOMDPI
 70
   300
  0
XRECORD
  5
4F4
102
{ACAD_REACTORS
330
4F3
102
}
330
4F3
100
AcDbXrecord
280
     1
102
SHADEPLOT
 70
     0
102
SHADEPLOTRESLEVEL
 70
     2
102
SHADEPLOTCUSTOMDPI
 70
   300
  0
ENDSEC
  0
EOF
