  0
SECTION
  2
HEADER
  9
$ACADVER
  1
AC1015
  9
$ACADMAINTVER
 70
    20
  9
$DWGCODEPAGE
  3
ANSI_932
  9
$INSBASE
 10
131.3549869044098
 20
120.7742273578934
 30
0.0
  9
$EXTMIN
 10
-0.0030185717687914
 20
-0.0050517359719038
 30
-0.0000000349181948
  9
$EXTMAX
 10
125.0092542658241
 20
113.0067780229693
 30
0.0000000814935747
  9
$LIMMIN
 10
-21.59733209496051
 20
-0.087933096995414
  9
$LIMMAX
 10
146.7191407553392
 20
113.0723919617257
  9
$ORTHOMODE
 70
     1
  9
$REGENMODE
 70
     1
  9
$FILLMODE
 70
     1
  9
$QTEXTMODE
 70
     0
  9
$MIRRTEXT
 70
     0
  9
$LTSCALE
 40
1.0
  9
$ATTMODE
 70
     1
  9
$TEXTSIZE
 40
3.0
  9
$TRACEWID
 40
0.05
  9
$TEXTSTYLE
  7
STANDARD
  9
$CLAYER
  8
0
  9
$CELTYPE
  6
ByLayer
  9
$CECOLOR
 62
   256
  9
$CELTSCALE
 40
1.0
  9
$DISPSILH
 70
     0
  9
$DIMSCALE
 40
1.0
  9
$DIMASZ
 40
2.0
  9
$DIMEXO
 40
2.0
  9
$DIMDLI
 40
8.0
  9
$DIMRND
 40
0.0
  9
$DIMDLE
 40
0.0
  9
$DIMEXE
 40
2.0
  9
$DIMTP
 40
0.0
  9
$DIMTM
 40
0.0
  9
$DIMTXT
 40
2.5
  9
$DIMCEN
 40
0.0
  9
$DIMTSZ
 40
0.0
  9
$DIMTOL
 70
     0
  9
$DIMLIM
 70
     0
  9
$DIMTIH
 70
     0
  9
$DIMTOH
 70
     0
  9
$DIMSE1
 70
     0
  9
$DIMSE2
 70
     0
  9
$DIMTAD
 70
     3
  9
$DIMZIN
 70
     0
  9
$DIMBLK
  1

  9
$DIMASO
 70
     1
  9
$DIMSHO
 70
     0
  9
$DIMPOST
  1

  9
$DIMAPOST
  1

  9
$DIMALT
 70
     0
  9
$DIMALTD
 70
     2
  9
$DIMALTF
 40
25.4
  9
$DIMLFAC
 40
1.0
  9
$DIMTOFL
 70
     1
  9
$DIMTVP
 40
0.0
  9
$DIMTIX
 70
     0
  9
$DIMSOXD
 70
     0
  9
$DIMSAH
 70
     1
  9
$DIMBLK1
  1
OPEN30
  9
$DIMBLK2
  1
OPEN30
  9
$DIMSTYLE
  2
STANDARD
  9
$DIMCLRD
 70
     0
  9
$DIMCLRE
 70
     0
  9
$DIMCLRT
 70
     0
  9
$DIMTFAC
 40
1.0
  9
$DIMGAP
 40
0.5
  9
$DIMJUST
 70
     0
  9
$DIMSD1
 70
     0
  9
$DIMSD2
 70
     0
  9
$DIMTOLJ
 70
     1
  9
$DIMTZIN
 70
     0
  9
$DIMALTZ
 70
     0
  9
$DIMALTTZ
 70
     0
  9
$DIMUPT
 70
     0
  9
$DIMDEC
 70
     4
  9
$DIMTDEC
 70
     4
  9
$DIMALTU
 70
     2
  9
$DIMALTTD
 70
     2
  9
$DIMTXSTY
  7
STANDARD
  9
$DIMAUNIT
 70
     0
  9
$DIMADEC
 70
     0
  9
$DIMALTRND
 40
0.0
  9
$DIMAZIN
 70
     0
  9
$DIMDSEP
 70
    46
  9
$DIMATFIT
 70
     3
  9
$DIMFRAC
 70
     0
  9
$DIMLDRBLK
  1

  9
$DIMLUNIT
 70
     2
  9
$DIMLWD
 70
    -2
  9
$DIMLWE
 70
    -2
  9
$DIMTMOVE
 70
     0
  9
$LUNITS
 70
     2
  9
$LUPREC
 70
     4
  9
$SKETCHINC
 40
0.1
  9
$FILLETRAD
 40
0.0
  9
$AUNITS
 70
     0
  9
$AUPREC
 70
     0
  9
$MENU
  1
ACAD
  9
$ELEVATION
 40
0.0
  9
$PELEVATION
 40
0.0
  9
$THICKNESS
 40
0.0
  9
$LIMCHECK
 70
     0
  9
$CHAMFERA
 40
0.0
  9
$CHAMFERB
 40
0.0
  9
$CHAMFERC
 40
0.0
  9
$CHAMFERD
 40
0.0
  9
$SKPOLY
 70
     0
  9
$TDCREATE
 40
2448884.266931713
  9
$TDUCREATE
 40
2448883.891931713
  9
$TDUPDATE
 40
2453731.673373114
  9
$TDUUPDATE
 40
2453731.298373114
  9
$TDINDWG
 40
1.5165886921
  9
$TDUSRTIMER
 40
1.5165886921
  9
$USRTIMER
 70
     1
  9
$ANGBASE
 50
0.0
  9
$ANGDIR
 70
     0
  9
$PDMODE
 70
     0
  9
$PDSIZE
 40
0.0
  9
$PLINEWID
 40
0.0
  9
$SPLFRAME
 70
     0
  9
$SPLINETYPE
 70
     6
  9
$SPLINESEGS
 70
     8
  9
$HANDSEED
  5
730
  9
$SURFTAB1
 70
     6
  9
$SURFTAB2
 70
     6
  9
$SURFTYPE
 70
     6
  9
$SURFU
 70
     6
  9
$SURFV
 70
     6
  9
$UCSBASE
  2

  9
$UCSNAME
  2

  9
$UCSORG
 10
0.0
 20
0.0
 30
0.0
  9
$UCSXDIR
 10
1.0
 20
0.0
 30
0.0
  9
$UCSYDIR
 10
0.0
 20
1.0
 30
0.0
  9
$UCSORTHOREF
  2

  9
$UCSORTHOVIEW
 70
     0
  9
$UCSORGTOP
 10
0.0
 20
0.0
 30
0.0
  9
$UCSORGBOTTOM
 10
0.0
 20
0.0
 30
0.0
  9
$UCSORGLEFT
 10
0.0
 20
0.0
 30
0.0
  9
$UCSORGRIGHT
 10
0.0
 20
0.0
 30
0.0
  9
$UCSORGFRONT
 10
0.0
 20
0.0
 30
0.0
  9
$UCSORGBACK
 10
0.0
 20
0.0
 30
0.0
  9
$PUCSBASE
  2

  9
$PUCSNAME
  2

  9
$PUCSORG
 10
0.0
 20
0.0
 30
0.0
  9
$PUCSXDIR
 10
1.0
 20
0.0
 30
0.0
  9
$PUCSYDIR
 10
0.0
 20
1.0
 30
0.0
  9
$PUCSORTHOREF
  2

  9
$PUCSORTHOVIEW
 70
     0
  9
$PUCSORGTOP
 10
0.0
 20
0.0
 30
0.0
  9
$PUCSORGBOTTOM
 10
0.0
 20
0.0
 30
0.0
  9
$PUCSORGLEFT
 10
0.0
 20
0.0
 30
0.0
  9
$PUCSORGRIGHT
 10
0.0
 20
0.0
 30
0.0
  9
$PUCSORGFRONT
 10
0.0
 20
0.0
 30
0.0
  9
$PUCSORGBACK
 10
0.0
 20
0.0
 30
0.0
  9
$USERI1
 70
     0
  9
$USERI2
 70
     0
  9
$USERI3
 70
     0
  9
$USERI4
 70
     0
  9
$USERI5
 70
     0
  9
$USERR1
 40
0.0
  9
$USERR2
 40
0.0
  9
$USERR3
 40
0.0
  9
$USERR4
 40
0.0
  9
$USERR5
 40
0.0
  9
$WORLDVIEW
 70
     1
  9
$SHADEDGE
 70
     3
  9
$SHADEDIF
 70
    70
  9
$TILEMODE
 70
     1
  9
$MAXACTVP
 70
    48
  9
$PINSBASE
 10
0.0
 20
0.0
 30
0.0
  9
$PLIMCHECK
 70
     0
  9
$PEXTMIN
 10
1.000000000000000E+20
 20
1.000000000000000E+20
 30
1.000000000000000E+20
  9
$PEXTMAX
 10
-1.000000000000000E+20
 20
-1.000000000000000E+20
 30
-1.000000000000000E+20
  9
$PLIMMIN
 10
0.0
 20
0.0
  9
$PLIMMAX
 10
12.0
 20
9.0
  9
$UNITMODE
 70
     0
  9
$VISRETAIN
 70
     0
  9
$PLINEGEN
 70
     0
  9
$PSLTSCALE
 70
     0
  9
$TREEDEPTH
 70
  3020
  9
$CMLSTYLE
  2
Standard
  9
$CMLJUST
 70
     0
  9
$CMLSCALE
 40
1.0
  9
$PROXYGRAPHICS
 70
     1
  9
$MEASUREMENT
 70
     0
  9
$CELWEIGHT
370
    -1
  9
$ENDCAPS
280
     0
  9
$JOINSTYLE
280
     0
  9
$LWDISPLAY
290
     0
  9
$INSUNITS
 70
     0
  9
$HYPERLINKBASE
  1

  9
$STYLESHEET
  1

  9
$XEDIT
290
     1
  9
$CEPSNTYPE
380
     0
  9
$PSTYLEMODE
290
     1
  9
$FINGERPRINTGUID
  2
{852FD693-AE13-4C37-B907-806AB0E760E4}
  9
$VERSIONGUID
  2
{A0BDF0B3-CEE2-448C-8FE1-44E2190559D1}
  9
$EXTNAMES
290
     1
  9
$PSVPSCALE
 40
0.0
  9
$OLESTARTUP
290
     0
  0
ENDSEC
  0
SECTION
  2
CLASSES
  0
CLASS
  1
ACDBDICTIONARYWDFLT
  2
AcDbDictionaryWithDefault
  3
ObjectDBX Classes
 90
        0
280
     0
281
     0
  0
CLASS
  1
DICTIONARYVAR
  2
AcDbDictionaryVar
  3
ObjectDBX Classes
 90
        0
280
     0
281
     0
  0
CLASS
  1
ACDBPLACEHOLDER
  2
AcDbPlaceHolder
  3
ObjectDBX Classes
 90
        0
280
     0
281
     0
  0
CLASS
  1
LAYOUT
  2
AcDbLayout
  3
ObjectDBX Classes
 90
        0
280
     0
281
     0
  0
ENDSEC
  0
SECTION
  2
TABLES
  0
TABLE
  2
VPORT
  5
6CA
330
0
100
AcDbSymbolTable
 70
     2
  0
VPORT
  5
727
330
6CA
100
AcDbSymbolTableRecord
100
AcDbViewportTableRecord
  2
*Active
 70
     0
 10
0.0
 20
0.0
 11
1.0
 21
1.0
 12
62.50311784678974
 22
53.08144813711692
 13
0.0
 23
0.0
 14
1.0
 24
1.0
 15
0.0
 25
0.0
 16
0.0
 26
0.0
 36
1.0
 17
0.0
 27
0.0
 37
0.0
 40
113.9805026697166
 41
1.589413447782546
 42
50.0
 43
0.0
 44
0.0
 50
0.0
 51
0.0
 71
     0
 72
  1000
 73
     1
 74
     0
 75
     0
 76
     0
 77
     0
 78
     0
281
     0
 65
     1
110
0.0
120
0.0
130
0.0
111
1.0
121
0.0
131
0.0
112
0.0
122
1.0
132
0.0
 79
     0
146
0.0
  0
ENDTAB
  0
TABLE
  2
LTYPE
  5
6C7
330
0
100
AcDbSymbolTable
 70
     3
  0
LTYPE
  5
6D5
330
6C7
100
AcDbSymbolTableRecord
100
AcDbLinetypeTableRecord
  2
ByBlock
 70
     0
  3

 72
    65
 73
     0
 40
0.0
  0
LTYPE
  5
6D6
330
6C7
100
AcDbSymbolTableRecord
100
AcDbLinetypeTableRecord
  2
ByLayer
 70
     0
  3

 72
    65
 73
     0
 40
0.0
  0
LTYPE
  5
6D7
330
6C7
100
AcDbSymbolTableRecord
100
AcDbLinetypeTableRecord
  2
CONTINUOUS
 70
     0
  3
実線
 72
    65
 73
     0
 40
0.0
  0
LTYPE
  5
6E8
330
6C7
100
AcDbSymbolTableRecord
100
AcDbLinetypeTableRecord
  2
AI9-LTYPE1
 70
     0
  3
Illustrator Dash Style No.1
 72
    65
 73
     4
 40
6.349999999999999
 49
5.291666666666666
 74
     0
 49
-0.3527777777777778
 74
     0
 49
0.3527777777777778
 74
     0
 49
-0.3527777777777778
 74
     0
  0
LTYPE
  5
6E9
330
6C7
100
AcDbSymbolTableRecord
100
AcDbLinetypeTableRecord
  2
HIDDEN2
 70
     0
  3
Hidden (.5x) _ _ _ _ _ _ _ _ _ _ _ _ _ _ _ _ _
 72
    65
 73
     2
 40
1.399999999999999
 49
0.7
 74
     0
 49
-0.7
 74
     0
  0
ENDTAB
  0
TABLE
  2
LAYER
  5
6C4
330
0
100
AcDbSymbolTable
 70
     7
  0
LAYER
  5
6D2
330
6C4
100
AcDbSymbolTableRecord
100
AcDbLayerTableRecord
  2
0
 70
     0
 62
     7
  6
CONTINUOUS
370
    -3
390
6D1
  0
LAYER
  5
6E6
330
6C4
100
AcDbSymbolTableRecord
100
AcDbLayerTableRecord
  2
GAIKEI
 70
     0
 62
     7
  6
CONTINUOUS
370
    -3
390
6D1
  0
LAYER
  5
6EA
330
6C4
100
AcDbSymbolTableRecord
100
AcDbLayerTableRecord
  2
WAKU
 70
     0
 62
     4
  6
CONTINUOUS
370
    -3
390
6D1
  0
LAYER
  5
6EB
330
6C4
100
AcDbSymbolTableRecord
100
AcDbLayerTableRecord
  2
MOJI1
 70
     0
 62
     2
  6
CONTINUOUS
370
    -3
390
6D1
  0
LAYER
  5
6EC
330
6C4
100
AcDbSymbolTableRecord
100
AcDbLayerTableRecord
  2
DEFPOINTS
 70
     0
 62
     7
  6
CONTINUOUS
290
     0
370
    -3
390
6D1
  0
LAYER
  5
6ED
330
6C4
100
AcDbSymbolTableRecord
100
AcDbLayerTableRecord
  2
SUNPO
 70
     0
 62
     3
  6
CONTINUOUS
370
    -3
390
6D1
  0
LAYER
  5
6EE
330
6C4
100
AcDbSymbolTableRecord
100
AcDbLayerTableRecord
  2
TOUROKU
 70
     0
 62
     1
  6
CONTINUOUS
370
    -3
390
6D1
  0
ENDTAB
  0
TABLE
  2
STYLE
  5
6C5
330
0
100
AcDbSymbolTable
 70
     2
  0
STYLE
  5
6D3
330
6C5
100
AcDbSymbolTableRecord
100
AcDbTextStyleTableRecord
  2
STANDARD
 70
     0
 40
0.0
 41
1.0
 50
0.0
 71
     0
 42
3.0
  3
MONOTXT.shx
  4
BIGFONT.shx
  0
ENDTAB
  0
TABLE
  2
VIEW
  5
6C8
330
0
100
AcDbSymbolTable
 70
     0
  0
ENDTAB
  0
TABLE
  2
UCS
  5
6C9
330
0
100
AcDbSymbolTable
 70
     0
  0
ENDTAB
  0
TABLE
  2
APPID
  5
6CB
330
0
100
AcDbSymbolTable
 70
     1
  0
APPID
  5
6D4
330
6CB
100
AcDbSymbolTableRecord
100
AcDbRegAppTableRecord
  2
ACAD
 70
     0
  0
ENDTAB
  0
TABLE
  2
DIMSTYLE
  5
6CC
330
0
100
AcDbSymbolTable
 70
     1
100
AcDbDimStyleTable
 71
     1
340
6F0
  0
DIMSTYLE
105
6F0
102
{ACAD_REACTORS
330
349
330
33C
330
32B
102
}
330
6CC
100
AcDbSymbolTableRecord
100
AcDbDimStyleTableRecord
  2
STANDARD
 70
     0
 40
0.0
 41
2.0
 42
2.0
 43
8.0
 44
2.0
 73
     0
 74
     0
 77
     3
140
3.0
141
0.0
173
     1
279
     2
340
6D3
  0
ENDTAB
  0
TABLE
  2
BLOCK_RECORD
  5
6C3
330
0
100
AcDbSymbolTable
 70
     9
  0
BLOCK_RECORD
  5
6E2
330
6C3
100
AcDbSymbolTableRecord
100
AcDbBlockTableRecord
  2
*Model_Space
340
6E5
  0
BLOCK_RECORD
  5
6DE
330
6C3
100
AcDbSymbolTableRecord
100
AcDbBlockTableRecord
  2
*Paper_Space
340
6E1
  0
BLOCK_RECORD
  5
6F7
330
6C3
100
AcDbSymbolTableRecord
100
AcDbBlockTableRecord
  2
_OPEN30
340
0
102
{BLKREFS
331
34F
331
350
331
342
331
343
331
334
331
335
331
709
331
70A
331
712
331
713
331
71D
331
71E
102
}
  0
BLOCK_RECORD
  5
6FF
330
6C3
100
AcDbSymbolTableRecord
100
AcDbBlockTableRecord
  2
*D6
340
0
  0
BLOCK_RECORD
  5
701
330
6C3
100
AcDbSymbolTableRecord
100
AcDbBlockTableRecord
  2
*D7
340
0
  0
BLOCK_RECORD
  5
703
330
6C3
100
AcDbSymbolTableRecord
100
AcDbBlockTableRecord
  2
*D8
340
0
  0
ENDTAB
  0
ENDSEC
  0
SECTION
  2
BLOCKS
  0
BLOCK
  5
6E3
330
6E2
100
AcDbEntity
  8
0
100
AcDbBlockBegin
  2
*Model_Space
 70
     0
 10
0.0
 20
0.0
 30
0.0
  3
*Model_Space
  1

  0
ENDBLK
  5
6E4
330
6E2
100
AcDbEntity
  8
0
100
AcDbBlockEnd
  0
BLOCK
  5
6DF
330
6DE
100
AcDbEntity
 67
     1
  8
0
100
AcDbBlockBegin
  2
*Paper_Space
 70
     0
 10
0.0
 20
0.0
 30
0.0
  3
*Paper_Space
  1

  0
ENDBLK
  5
6E0
330
6DE
100
AcDbEntity
 67
     1
  8
0
100
AcDbBlockEnd
  0
BLOCK
  5
6F8
330
6F7
100
AcDbEntity
  8
0
100
AcDbBlockBegin
  2
_OPEN30
 70
     0
 10
0.0
 20
0.0
 30
0.0
  3
_OPEN30
  1

  0
LINE
  5
31B
330
6F7
100
AcDbEntity
  8
0
  6
ByBlock
 62
     0
100
AcDbLine
 10
-1.0
 20
0.26794919
 30
0.0
 11
0.0
 21
0.0
 31
0.0
  0
LINE
  5
31C
330
6F7
100
AcDbEntity
  8
0
  6
ByBlock
 62
     0
100
AcDbLine
 10
0.0
 20
0.0
 30
0.0
 11
-1.0
 21
-0.26794919
 31
0.0
  0
LINE
  5
31D
330
6F7
100
AcDbEntity
  8
0
  6
ByBlock
 62
     0
100
AcDbLine
 10
0.0
 20
0.0
 30
0.0
 11
-1.0
 21
0.0
 31
0.0
  0
ENDBLK
  5
31E
330
6F7
100
AcDbEntity
  8
0
100
AcDbBlockEnd
  0
BLOCK
  5
700
330
6FF
100
AcDbEntity
  8
0
100
AcDbBlockBegin
  2
*D6
 70
     1
 10
0.0
 20
0.0
 30
0.0
  3
*D6
  1

  0
LINE
  5
706
330
6FF
100
AcDbEntity
  8
SUNPO
 62
     0
370
    -2
100
AcDbLine
 10
39.25252162195281
 20
83.61587908386971
 30
0.0
 11
39.25252162195281
 21
91.6158790838697
 31
0.0
  0
LINE
  5
707
330
6FF
100
AcDbEntity
  8
SUNPO
 62
     0
370
    -2
100
AcDbLine
 10
51.2525261237485
 20
83.61587908386971
 30
0.0
 11
51.2525261237485
 21
91.6158790838697
 31
0.0
  0
LINE
  5
708
330
6FF
100
AcDbEntity
  8
SUNPO
 62
     0
370
    -2
100
AcDbLine
 10
41.2525216219528
 20
89.6158790838697
 30
0.0
 11
49.25252612374851
 21
89.6158790838697
 31
0.0
  0
INSERT
  5
709
330
6FF
100
AcDbEntity
  8
SUNPO
 62
     0
370
    -2
100
AcDbBlockReference
  2
_OPEN30
 10
39.25252162195281
 20
89.6158790838697
 30
0.0
 41
2.0
 42
2.0
 43
2.0
 50
180.0
  0
INSERT
  5
70A
330
6FF
100
AcDbEntity
  8
SUNPO
 62
     0
370
    -2
100
AcDbBlockReference
  2
_OPEN30
 10
51.2525261237485
 20
89.6158790838697
 30
0.0
 41
2.0
 42
2.0
 43
2.0
  0
MTEXT
  5
70B
330
6FF
100
AcDbEntity
  8
SUNPO
 62
     0
100
AcDbMText
 10
45.25252387285066
 20
91.36587908386969
 30
0.0
 40
2.5
 41
0.0
 71
     5
 72
     1
  1
\A1;120
 73
     1
 44
1.0
1001
ACAD
1000
MTEXTBEGIN
1070
    73
1070
     1
1070
    44
1040
1.0
1070
    74
1070
     0
1000
MTEXTEND
  0
POINT
  5
70C
330
6FF
100
AcDbEntity
  8
DEFPOINTS
 62
     0
100
AcDbPoint
 10
39.25252162195281
 20
81.6158790838697
 30
0.0
  0
POINT
  5
70D
330
6FF
100
AcDbEntity
  8
DEFPOINTS
 62
     0
100
AcDbPoint
 10
51.2525261237485
 20
81.6158790838697
 30
0.0
  0
POINT
  5
70E
330
6FF
100
AcDbEntity
  8
DEFPOINTS
 62
     0
100
AcDbPoint
 10
51.2525261237485
 20
89.6158790838697
 30
0.0
  0
ENDBLK
  5
469
330
6FF
100
AcDbEntity
  8
0
100
AcDbBlockEnd
  0
BLOCK
  5
702
330
701
100
AcDbEntity
  8
0
100
AcDbBlockBegin
  2
*D7
 70
     1
 10
0.0
 20
0.0
 30
0.0
  3
*D7
  1

  0
LINE
  5
70F
330
701
100
AcDbEntity
  8
SUNPO
 62
     0
370
    -2
100
AcDbLine
 10
53.26613305077462
 20
57.62402176829809
 30
0.0
 11
61.2661330507746
 21
57.62402176829809
 31
0.0
  0
LINE
  5
710
330
701
100
AcDbEntity
  8
SUNPO
 62
     0
370
    -2
100
AcDbLine
 10
53.26613305077462
 20
81.62402479741425
 30
0.0
 11
61.26613305077461
 21
81.62402479741425
 31
0.0
  0
LINE
  5
711
330
701
100
AcDbEntity
  8
SUNPO
 62
     0
370
    -2
100
AcDbLine
 10
59.2661330507746
 20
59.62402176829809
 30
0.0
 11
59.2661330507746
 21
79.62402479741425
 31
0.0
  0
INSERT
  5
712
330
701
100
AcDbEntity
  8
SUNPO
 62
     0
370
    -2
100
AcDbBlockReference
  2
_OPEN30
 10
59.2661330507746
 20
57.62402176829809
 30
0.0
 41
2.0
 42
2.0
 43
2.0
 50
270.0
  0
INSERT
  5
713
330
701
100
AcDbEntity
  8
SUNPO
 62
     0
370
    -2
100
AcDbBlockReference
  2
_OPEN30
 10
59.26613305077461
 20
81.62402479741425
 30
0.0
 41
2.0
 42
2.0
 43
2.0
 50
90.0
  0
MTEXT
  5
714
330
701
100
AcDbEntity
  8
SUNPO
 62
     0
100
AcDbMText
 10
57.5161330507746
 20
69.62402328285619
 30
0.0
 40
2.5
 41
0.0
 71
     5
 72
     1
  1
\A1;240
 11
0.0000000000000001
 21
1.0
 31
0.0
 73
     1
 44
1.0
1001
ACAD
1000
MTEXTBEGIN
1070
    73
1070
     1
1070
    44
1040
1.0
1070
    74
1070
     0
1000
MTEXTEND
  0
POINT
  5
715
330
701
100
AcDbEntity
  8
DEFPOINTS
 62
     0
100
AcDbPoint
 10
51.26613305077461
 20
57.62402176829809
 30
0.0
  0
POINT
  5
716
330
701
100
AcDbEntity
  8
DEFPOINTS
 62
     0
100
AcDbPoint
 10
51.26613305077461
 20
81.62402479741425
 30
0.0
  0
POINT
  5
717
330
701
100
AcDbEntity
  8
DEFPOINTS
 62
     0
100
AcDbPoint
 10
59.26613305077461
 20
81.62402479741425
 30
0.0
  0
ENDBLK
  5
475
330
701
100
AcDbEntity
  8
0
100
AcDbBlockEnd
  0
BLOCK
  5
704
330
703
100
AcDbEntity
  8
0
100
AcDbBlockBegin
  2
*D8
 70
     1
 10
0.0
 20
0.0
 30
0.0
  3
*D8
  1

  0
LINE
  5
718
330
703
100
AcDbEntity
  8
SUNPO
 62
     0
370
    -2
100
AcDbLine
 10
77.0208497883662
 20
83.61587908386971
 30
0.0
 11
77.0208497883662
 21
91.6158790838697
 31
0.0
  0
LINE
  5
719
330
703
100
AcDbEntity
  8
SUNPO
 62
     0
370
    -2
100
AcDbLine
 10
81.52085112498756
 20
83.61587908386971
 30
0.0
 11
81.52085112498756
 21
91.6158790838697
 31
0.0
  0
LINE
  5
71A
330
703
100
AcDbEntity
  8
SUNPO
 62
     0
370
    -2
100
AcDbLine
 10
75.0208497883662
 20
89.6158790838697
 30
0.0
 11
73.02084978836621
 21
89.6158790838697
 31
0.0
  0
LINE
  5
71B
330
703
100
AcDbEntity
  8
SUNPO
 62
     0
370
    -2
100
AcDbLine
 10
83.52085112498755
 20
89.6158790838697
 30
0.0
 11
90.68751779165422
 21
89.6158790838697
 31
0.0
  0
LINE
  5
71C
330
703
100
AcDbEntity
  8
SUNPO
 62
     0
370
    -2
100
AcDbLine
 10
77.0208497883662
 20
89.6158790838697
 30
0.0
 11
81.52085112498756
 21
89.6158790838697
 31
0.0
  0
INSERT
  5
71D
330
703
100
AcDbEntity
  8
SUNPO
 62
     0
370
    -2
100
AcDbBlockReference
  2
_OPEN30
 10
77.0208497883662
 20
89.6158790838697
 30
0.0
 41
2.0
 42
2.0
 43
2.0
  0
INSERT
  5
71E
330
703
100
AcDbEntity
  8
SUNPO
 62
     0
370
    -2
100
AcDbBlockReference
  2
_OPEN30
 10
81.52085112498756
 20
89.6158790838697
 30
0.0
 41
2.0
 42
2.0
 43
2.0
 50
180.0
  0
MTEXT
  5
71F
330
703
100
AcDbEntity
  8
SUNPO
 62
     0
100
AcDbMText
 10
88.10418445832089
 20
91.36587908386969
 30
0.0
 40
2.5
 41
0.0
 71
     5
 72
     1
  1
\A1;45
 73
     1
 44
1.0
1001
ACAD
1000
MTEXTBEGIN
1070
    73
1070
     1
1070
    44
1040
1.0
1070
    74
1070
     0
1000
MTEXTEND
  0
POINT
  5
720
330
703
100
AcDbEntity
  8
DEFPOINTS
 62
     0
100
AcDbPoint
 10
77.0208497883662
 20
81.6158790838697
 30
0.0
  0
POINT
  5
721
330
703
100
AcDbEntity
  8
DEFPOINTS
 62
     0
100
AcDbPoint
 10
81.52085112498756
 20
81.6158790838697
 30
0.0
  0
POINT
  5
722
330
703
100
AcDbEntity
  8
DEFPOINTS
 62
     0
100
AcDbPoint
 10
81.52085112498756
 20
89.6158790838697
 30
0.0
  0
ENDBLK
  5
483
330
703
100
AcDbEntity
  8
0
100
AcDbBlockEnd
  0
ENDSEC
  0
SECTION
  2
ENTITIES
  0
TEXT
  5
327
330
6E2
100
AcDbEntity
  8
MOJI1
100
AcDbText
 10
26.99999999999955
 20
109.0
 30
0.0
 40
4.0
  1
停電切換アダプター
100
AcDbText
  0
TEXT
  5
329
330
6E2
100
AcDbEntity
  8
TOUROKU
100
AcDbText
 10
111.9332833662605
 20
103.0000000000002
 30
0.0
 40
2.0
  1
ＶＢＤ２８１
 72
     2
 11
124.9999500329272
 21
103.0000000000002
 31
0.0
100
AcDbText
  0
DIMENSION
  5
32B
330
6E2
100
AcDbEntity
  8
SUNPO
100
AcDbDimension
  2
*D8
 10
81.52085112498756
 20
89.6158790838697
 30
0.0
 11
88.10418445832089
 21
91.36587908386969
 31
0.0
 70
    33
  1
45
 71
     5
 42
4.500001336621352
  3
STANDARD
100
AcDbAlignedDimension
 13
77.0208497883662
 23
81.6158790838697
 33
0.0
 14
81.52085112498756
 24
81.6158790838697
 34
0.0
1001
ACAD
1000
DSTYLE
1002
{
1070
    40
1040
1.0
1070
   140
1040
2.5
1070
   147
1040
0.5
1070
   172
1070
     1
1070
   279
1070
     0
1070
   343
1005
6F7
1070
   344
1005
6F7
1002
}
  0
DIMENSION
  5
33C
330
6E2
100
AcDbEntity
  8
SUNPO
100
AcDbDimension
  2
*D7
 10
59.26613305077461
 20
81.62402479741425
 30
0.0
 11
57.5161330507746
 21
69.62402328285619
 31
0.0
 70
    33
  1
240
 71
     5
 42
24.00000302911616
  3
STANDARD
100
AcDbAlignedDimension
 13
51.26613305077461
 23
57.62402176829809
 33
0.0
 14
51.26613305077461
 24
81.62402479741425
 34
0.0
1001
ACAD
1000
DSTYLE
1002
{
1070
    40
1040
1.0
1070
   140
1040
2.5
1070
   147
1040
0.5
1070
   172
1070
     1
1070
   279
1070
     0
1070
   343
1005
6F7
1070
   344
1005
6F7
1002
}
  0
DIMENSION
  5
349
330
6E2
100
AcDbEntity
  8
SUNPO
100
AcDbDimension
  2
*D6
 10
51.2525261237485
 20
89.6158790838697
 30
0.0
 11
45.25252387285066
 21
91.36587908386969
 31
0.0
 70
    33
  1
120
 71
     5
 42
12.0000045017957
  3
STANDARD
100
AcDbAlignedDimension
 13
39.25252162195281
 23
81.6158790838697
 33
0.0
 14
51.2525261237485
 24
81.6158790838697
 34
0.0
1001
ACAD
1000
DSTYLE
1002
{
1070
    40
1040
1.0
1070
   140
1040
2.5
1070
   147
1040
0.5
1070
   172
1070
     1
1070
   279
1070
     0
1070
   343
1005
6F7
1070
   344
1005
6F7
1002
}
  0
LINE
  5
356
330
6E2
100
AcDbEntity
  8
GAIKEI
 62
     1
100
AcDbLine
 10
81.47451679366083
 20
80.80084377658776
 30
0.0
 11
81.47451679366083
 21
78.83769314368179
 31
0.0
  0
LINE
  5
357
330
6E2
100
AcDbEntity
  8
GAIKEI
 62
     1
100
AcDbLine
 10
81.52085112500936
 20
80.80084377620003
 30
0.0
 11
81.52085112500936
 21
78.837693143254
 31
0.0
  0
LINE
  5
358
330
6E2
100
AcDbEntity
  8
GAIKEI
 62
     1
100
AcDbLine
 10
81.52085112498756
 20
80.80084377658776
 30
0.0
 11
81.47451679366083
 21
80.80084377658776
 31
0.0
  0
LINE
  5
359
330
6E2
100
AcDbEntity
  8
GAIKEI
 62
     1
100
AcDbLine
 10
81.52085112498756
 20
78.83769314368179
 30
0.0
 11
81.47451679366083
 21
78.83769314368179
 31
0.0
  0
LINE
  5
35A
330
6E2
100
AcDbEntity
  8
GAIKEI
 62
     1
100
AcDbLine
 10
81.52085112498756
 20
60.43689113297452
 30
0.0
 11
81.47451679366083
 21
60.43689113297452
 31
0.0
  0
LINE
  5
35B
330
6E2
100
AcDbEntity
  8
GAIKEI
 62
     1
100
AcDbLine
 10
81.52085112498756
 20
58.47374050006857
 30
0.0
 11
81.47451679366083
 21
58.47374050006857
 31
0.0
  0
CIRCLE
  5
35C
330
6E2
100
AcDbEntity
  8
GAIKEI
  6
Continuous
 62
     1
100
AcDbCircle
 10
41.97208234702381
 20
80.31341599735943
 30
0.0
 40
0.5230437010532773
  0
CIRCLE
  5
35D
330
6E2
100
AcDbEntity
  8
GAIKEI
 62
     1
100
AcDbCircle
 10
41.97208234702381
 20
80.31341599735943
 30
0.0
 40
0.42014486900531
  0
CIRCLE
  5
35E
330
6E2
100
AcDbEntity
  8
GAIKEI
 62
     1
100
AcDbCircle
 10
41.97208234702381
 20
80.31341599735943
 30
0.0
 40
0.2718835417858683
  0
LINE
  5
35F
330
6E2
100
AcDbEntity
  8
GAIKEI
 62
     1
100
AcDbLine
 10
42.46857646640589
 20
80.47744209016382
 30
0.0
 11
42.46857646640589
 21
81.52871089669247
 31
0.0
  0
LINE
  5
360
330
6E2
100
AcDbEntity
  8
GAIKEI
 62
     1
100
AcDbLine
 10
42.46857646640589
 20
81.52871089669247
 30
0.0
 11
42.27048226718872
 21
81.52871089669247
 31
0.0
  0
LINE
  5
361
330
6E2
100
AcDbEntity
  8
GAIKEI
 62
     1
100
AcDbLine
 10
42.27048226718852
 20
81.52871089669247
 30
0.0
 11
42.27048226718835
 21
80.74273386934397
 31
0.0
  0
LINE
  5
362
330
6E2
100
AcDbEntity
  8
GAIKEI
 62
     1
100
AcDbLine
 10
42.07251606336179
 20
80.8266135151894
 30
0.0
 11
42.07251606336179
 21
81.52871089669247
 31
0.0
  0
LINE
  5
363
330
6E2
100
AcDbEntity
  8
GAIKEI
 62
     1
100
AcDbLine
 10
42.07251606336186
 20
81.52871089669247
 30
0.0
 11
41.87442186414481
 21
81.52871089669247
 31
0.0
  0
LINE
  5
364
330
6E2
100
AcDbEntity
  8
GAIKEI
 62
     1
100
AcDbLine
 10
41.87442186414522
 20
81.52871089669181
 30
0.0
 11
41.87442186414563
 21
80.82708283161991
 31
0.0
  0
LINE
  5
365
330
6E2
100
AcDbEntity
  8
GAIKEI
 62
     1
100
AcDbLine
 10
41.6763276649274
 20
80.74473913046016
 30
0.0
 11
41.6763276649274
 21
81.52871089669247
 31
0.0
  0
LINE
  5
366
330
6E2
100
AcDbEntity
  8
GAIKEI
 62
     1
100
AcDbLine
 10
41.67632766492736
 20
81.52871089669247
 30
0.0
 11
41.47823346570996
 21
81.52871089669247
 31
0.0
  0
LINE
  5
367
330
6E2
100
AcDbEntity
  8
GAIKEI
 62
     1
100
AcDbLine
 10
41.47823346570953
 20
81.52871089669202
 30
0.0
 11
41.47823346570914
 21
80.48482315767662
 31
0.0
  0
LINE
  5
368
330
6E2
100
AcDbEntity
  8
GAIKEI
 62
     1
100
AcDbLine
 10
42.15272650801578
 20
80.37018195300419
 30
0.0
 11
42.02891230036377
 21
80.37018195300419
 31
0.0
  0
LINE
  5
369
330
6E2
100
AcDbEntity
  8
GAIKEI
 62
     1
100
AcDbLine
 10
42.02891230036377
 20
80.37018195300419
 30
0.0
 11
42.02891230036377
 21
80.49399616065622
 31
0.0
  0
LINE
  5
36A
330
6E2
100
AcDbEntity
  8
GAIKEI
 62
     1
100
AcDbLine
 10
42.02891230036377
 20
80.49399616065622
 30
0.0
 11
41.915295058814
 21
80.49399616065622
 31
0.0
  0
LINE
  5
36B
330
6E2
100
AcDbEntity
  8
GAIKEI
 62
     1
100
AcDbLine
 10
41.915295058814
 20
80.49399616065622
 30
0.0
 11
41.915295058814
 21
80.37018195300419
 31
0.0
  0
LINE
  5
36C
330
6E2
100
AcDbEntity
  8
GAIKEI
 62
     1
100
AcDbLine
 10
41.915295058814
 20
80.37018195300419
 30
0.0
 11
41.79148085116199
 21
80.37018195300419
 31
0.0
  0
LINE
  5
36D
330
6E2
100
AcDbEntity
  8
GAIKEI
 62
     1
100
AcDbLine
 10
41.79148085116199
 20
80.37018195300419
 30
0.0
 11
41.79148085116199
 21
80.25656471145442
 31
0.0
  0
LINE
  5
36E
330
6E2
100
AcDbEntity
  8
GAIKEI
 62
     1
100
AcDbLine
 10
41.79148085116199
 20
80.25656471145442
 30
0.0
 11
41.915295058814
 21
80.25656471145442
 31
0.0
  0
LINE
  5
36F
330
6E2
100
AcDbEntity
  8
GAIKEI
 62
     1
100
AcDbLine
 10
41.915295058814
 20
80.25656471145442
 30
0.0
 11
41.915295058814
 21
80.13283583406265
 31
0.0
  0
LINE
  5
370
330
6E2
100
AcDbEntity
  8
GAIKEI
 62
     1
100
AcDbLine
 10
41.915295058814
 20
80.13283583406265
 30
0.0
 11
42.02891230036377
 21
80.13283583406265
 31
0.0
  0
LINE
  5
371
330
6E2
100
AcDbEntity
  8
GAIKEI
 62
     1
100
AcDbLine
 10
42.02891230036377
 20
80.13283583406265
 30
0.0
 11
42.02891230036377
 21
80.25656471145442
 31
0.0
  0
LINE
  5
372
330
6E2
100
AcDbEntity
  8
GAIKEI
 62
     1
100
AcDbLine
 10
42.02891230036377
 20
80.25656471145442
 30
0.0
 11
42.15272650801578
 21
80.25656471145442
 31
0.0
  0
LINE
  5
373
330
6E2
100
AcDbEntity
  8
GAIKEI
 62
     1
100
AcDbLine
 10
42.15272650801578
 20
80.25656471145442
 30
0.0
 11
42.15272650801578
 21
80.37018195300419
 31
0.0
  0
CIRCLE
  5
374
330
6E2
100
AcDbEntity
  8
GAIKEI
 62
     1
100
AcDbCircle
 10
48.57046804806632
 20
58.9337559331851
 30
0.0
 40
0.2718622092208007
  0
CIRCLE
  5
375
330
6E2
100
AcDbEntity
  8
GAIKEI
 62
     1
100
AcDbCircle
 10
48.57046804806632
 20
58.9337559331851
 30
0.0
 40
0.4201662015703775
  0
LINE
  5
376
330
6E2
100
AcDbEntity
  8
GAIKEI
 62
     1
100
AcDbLine
 10
42.27048226718867
 20
79.88384388367288
 30
0.0
 11
42.27048226718867
 21
57.71651977043095
 31
0.0
  0
LINE
  5
377
330
6E2
100
AcDbEntity
  8
GAIKEI
 62
     1
100
AcDbLine
 10
42.27048226718867
 20
57.71651977043095
 30
0.0
 11
42.46857646640589
 21
57.71651977043095
 31
0.0
  0
LINE
  5
378
330
6E2
100
AcDbEntity
  8
GAIKEI
 62
     1
100
AcDbLine
 10
42.46857646640589
 20
57.71651977043095
 30
0.0
 11
42.46857646640589
 21
80.14889152309939
 31
0.0
  0
LINE
  5
379
330
6E2
100
AcDbEntity
  8
GAIKEI
 62
     1
100
AcDbLine
 10
41.87442186414457
 20
79.79957055046388
 30
0.0
 11
41.87442186414457
 21
57.71651977043095
 31
0.0
  0
LINE
  5
37A
330
6E2
100
AcDbEntity
  8
GAIKEI
 62
     1
100
AcDbLine
 10
41.87442186414457
 20
57.71651977043095
 30
0.0
 11
42.07251606336179
 21
57.71651977043095
 31
0.0
  0
LINE
  5
37B
330
6E2
100
AcDbEntity
  8
GAIKEI
 62
     1
100
AcDbLine
 10
42.07251606336179
 20
57.71651977043095
 30
0.0
 11
42.07251606336186
 21
79.80010538785089
 31
0.0
  0
LINE
  5
37C
330
6E2
100
AcDbEntity
  8
GAIKEI
 62
     1
100
AcDbLine
 10
41.47823346571013
 20
80.14111394967356
 30
0.0
 11
41.47823346571013
 21
57.71651977043095
 31
0.0
  0
LINE
  5
37D
330
6E2
100
AcDbEntity
  8
GAIKEI
 62
     1
100
AcDbLine
 10
41.47823346571013
 20
57.71651977043095
 30
0.0
 11
41.67632766492736
 21
57.71651977043095
 31
0.0
  0
LINE
  5
37E
330
6E2
100
AcDbEntity
  8
GAIKEI
 62
     1
100
AcDbLine
 10
41.67632766492736
 20
57.71651977043095
 30
0.0
 11
41.67632766492736
 21
79.8820184066968
 31
0.0
  0
LINE
  5
37F
330
6E2
100
AcDbEntity
  8
GAIKEI
 62
     1
100
AcDbLine
 10
43.85502253527577
 20
81.52871089669245
 30
0.0
 11
44.05303140423277
 21
81.52871089669245
 31
0.0
  0
LINE
  5
380
330
6E2
100
AcDbEntity
  8
GAIKEI
 62
     1
100
AcDbLine
 10
44.05303140423277
 20
81.52871089669245
 30
0.0
 11
44.05303140423277
 21
57.71651977043095
 31
0.0
  0
LINE
  5
381
330
6E2
100
AcDbEntity
  8
GAIKEI
 62
     1
100
AcDbLine
 10
44.05303140423277
 20
57.71651977043095
 30
0.0
 11
43.85502253527577
 21
57.71651977043095
 31
0.0
  0
LINE
  5
382
330
6E2
100
AcDbEntity
  8
GAIKEI
 62
     1
100
AcDbLine
 10
43.85502253527577
 20
57.71651977043095
 30
0.0
 11
43.85502253527577
 21
81.52871089669245
 31
0.0
  0
LINE
  5
383
330
6E2
100
AcDbEntity
  8
GAIKEI
 62
     1
100
AcDbLine
 10
43.45883413684132
 20
81.52871089669245
 30
0.0
 11
43.6569283360586
 21
81.52871089669245
 31
0.0
  0
LINE
  5
384
330
6E2
100
AcDbEntity
  8
GAIKEI
 62
     1
100
AcDbLine
 10
43.6569283360586
 20
81.52871089669245
 30
0.0
 11
43.6569283360586
 21
57.71651977043095
 31
0.0
  0
LINE
  5
385
330
6E2
100
AcDbEntity
  8
GAIKEI
 62
     1
100
AcDbLine
 10
43.6569283360586
 20
57.71651977043095
 30
0.0
 11
43.45883413684132
 21
57.71651977043095
 31
0.0
  0
LINE
  5
386
330
6E2
100
AcDbEntity
  8
GAIKEI
 62
     1
100
AcDbLine
 10
43.45883413684132
 20
57.71651977043095
 30
0.0
 11
43.45883413684132
 21
81.52871089669245
 31
0.0
  0
LINE
  5
387
330
6E2
100
AcDbEntity
  8
GAIKEI
 62
     1
100
AcDbLine
 10
43.06277373379729
 20
81.52871089669245
 30
0.0
 11
43.26082526788437
 21
81.52871089669245
 31
0.0
  0
LINE
  5
388
330
6E2
100
AcDbEntity
  8
GAIKEI
 62
     1
100
AcDbLine
 10
43.26082526788437
 20
81.52871089669245
 30
0.0
 11
43.26082526788437
 21
57.71651977043095
 31
0.0
  0
LINE
  5
389
330
6E2
100
AcDbEntity
  8
GAIKEI
 62
     1
100
AcDbLine
 10
43.26082526788437
 20
57.71651977043095
 30
0.0
 11
43.06277373379729
 21
57.71651977043095
 31
0.0
  0
LINE
  5
38A
330
6E2
100
AcDbEntity
  8
GAIKEI
 62
     1
100
AcDbLine
 10
43.06277373379729
 20
57.71651977043095
 30
0.0
 11
43.06277373379729
 21
81.52871089669245
 31
0.0
  0
LINE
  5
38B
330
6E2
100
AcDbEntity
  8
GAIKEI
 62
     1
100
AcDbLine
 10
42.66667066562312
 20
81.52871089669245
 30
0.0
 11
42.86467953458006
 21
81.52871089669245
 31
0.0
  0
LINE
  5
38C
330
6E2
100
AcDbEntity
  8
GAIKEI
 62
     1
100
AcDbLine
 10
42.86467953458006
 20
81.52871089669245
 30
0.0
 11
42.86467953458006
 21
57.71651977043095
 31
0.0
  0
LINE
  5
38D
330
6E2
100
AcDbEntity
  8
GAIKEI
 62
     1
100
AcDbLine
 10
42.86467953458006
 20
57.71651977043095
 30
0.0
 11
42.66667066562312
 21
57.71651977043095
 31
0.0
  0
LINE
  5
38E
330
6E2
100
AcDbEntity
  8
GAIKEI
 62
     1
100
AcDbLine
 10
42.66667066562312
 20
57.71651977043095
 30
0.0
 11
42.66667066562312
 21
81.52871089669245
 31
0.0
  0
LINE
  5
38F
330
6E2
100
AcDbEntity
  8
GAIKEI
 62
     1
100
AcDbLine
 10
41.28022459675318
 20
81.52871089669245
 30
0.0
 11
41.0821730626661
 21
81.52871089669245
 31
0.0
  0
LINE
  5
390
330
6E2
100
AcDbEntity
  8
GAIKEI
 62
     1
100
AcDbLine
 10
41.0821730626661
 20
81.52871089669245
 30
0.0
 11
41.0821730626661
 21
57.71651977043095
 31
0.0
  0
LINE
  5
391
330
6E2
100
AcDbEntity
  8
GAIKEI
 62
     1
100
AcDbLine
 10
41.0821730626661
 20
57.71651977043095
 30
0.0
 11
41.28022459675318
 21
57.71651977043095
 31
0.0
  0
LINE
  5
392
330
6E2
100
AcDbEntity
  8
GAIKEI
 62
     1
100
AcDbLine
 10
41.28022459675318
 20
57.71651977043095
 30
0.0
 11
41.28022459675318
 21
81.52871089669245
 31
0.0
  0
LWPOLYLINE
  5
393
330
6E2
100
AcDbEntity
  8
GAIKEI
 62
     1
100
AcDbPolyline
 90
       32
 70
     0
 43
0.0
 10
51.05225600289454
 20
80.70954039809882
 10
51.05151565065131
 20
80.7524982051893
 10
51.04931057772096
 20
80.79400268961967
 10
51.04566475980253
 20
80.83405972617834
 10
51.04060217259507
 20
80.87267518965381
 10
51.03414679179759
 20
80.90985495483444
 10
51.02632259310915
 20
80.94560489650865
 10
51.01715355222879
 20
80.97993088946486
 10
51.00666364485553
 20
81.01283880849157
 10
50.99487684668844
 20
81.0443345283771
 10
50.98181713342651
 20
81.07442392390995
 10
50.96750848076881
 20
81.10311286987855
 10
50.95197486441438
 20
81.13040724107127
 10
50.93524026006225
 20
81.15631291227655
 10
50.91732864341146
 20
81.18083575828286
 10
50.89826399016103
 20
81.20398165387857
 10
50.87807027601003
 20
81.22575647385213
 10
50.85677147665745
 20
81.24616609299197
 10
50.83439156780239
 20
81.2652163860865
 10
50.81095452514386
 20
81.28291322792419
 10
50.78648432438089
 20
81.29926249329336
 10
50.76100494121251
 20
81.31427005698256
 10
50.73454035133778
 20
81.32794179378015
 10
50.70711453045571
 20
81.34028357847455
 10
50.67875145426537
 20
81.35130128585419
 10
50.64947509846579
 20
81.3610007907075
 10
50.61930943875599
 20
81.36938796782294
 10
50.58827845083502
 20
81.37646869198889
 10
50.55640611040193
 20
81.38224883799377
 10
50.52371639315574
 20
81.38673428062604
 10
50.49023327479549
 20
81.3899308946741
 10
50.42098273752897
 20
81.39248113617135
  0
LINE
  5
394
330
6E2
100
AcDbEntity
  8
GAIKEI
 62
     1
100
AcDbLine
 10
50.42098273741568
 20
81.39248113617213
 30
0.0
 11
40.08410767341615
 21
81.39248113617327
 31
0.0
  0
LWPOLYLINE
  5
395
330
6E2
100
AcDbEntity
  8
GAIKEI
 62
     1
100
AcDbPolyline
 90
       32
 70
     0
 43
0.0
 10
40.08410767341746
 20
81.39248113616506
 10
40.01485665699678
 20
81.38993089467584
 10
39.98137296313392
 20
81.38673428063182
 10
39.94868246726736
 20
81.3822488380036
 10
39.91680916072058
 20
81.37646869200276
 10
39.88577703481703
 20
81.36938796784091
 10
39.85561008088021
 20
81.3610007907296
 10
39.82633229023358
 20
81.35130128588041
 10
39.79796765420064
 20
81.34028357850491
 10
39.77054016410482
 20
81.32794179381466
 10
39.74407381126962
 20
81.31427005702127
 10
39.71859258701853
 20
81.2992624933363
 10
39.694120482675
 20
81.28291322797132
 10
39.67068148956253
 20
81.26521638613787
 10
39.64829959900458
 20
81.24616609304757
 10
39.62699880232462
 20
81.22575647391201
 10
39.60680309084614
 20
81.20398165394275
 10
39.58773645589261
 20
81.18083575835134
 10
39.56982288878748
 20
81.15631291234937
 10
39.55308638085428
 20
81.13040724114842
 10
39.53755092341643
 20
81.10311286996006
 10
39.52324050779743
 20
81.07442392399589
 10
39.51017912532075
 20
81.04433452846743
 10
39.49839076730987
 20
81.01283880858629
 10
39.48789942508826
 20
80.97993088956403
 10
39.4787290899794
 20
80.94560489661226
 10
39.47090375330678
 20
80.90985495494251
 10
39.46444740639384
 20
80.87267518976641
 10
39.45938404056408
 20
80.83405972629547
 10
39.45573764714096
 20
80.79400268974129
 10
39.45353221744797
 20
80.75249820531549
 10
39.45279174280859
 20
80.70954039822956
  0
LINE
  5
396
330
6E2
100
AcDbEntity
  8
GAIKEI
 62
     1
100
AcDbLine
 10
39.45279174280222
 20
80.70954039810386
 30
0.0
 11
39.45279174280074
 21
58.5385914978806
 31
0.0
  0
LWPOLYLINE
  5
397
330
6E2
100
AcDbEntity
  8
GAIKEI
 62
     1
100
AcDbPolyline
 90
       32
 70
     0
 43
0.0
 10
39.45279174280773
 20
58.53859149785435
 10
39.45353221744242
 20
58.4956334459809
 10
39.45573764713078
 20
58.45412824803443
 10
39.45938404054935
 20
58.41407006047541
 10
39.46444740637462
 20
58.37545303976426
 10
39.47090375328317
 20
58.33827134236145
 10
39.47872908995146
 20
58.30251912472742
 10
39.48789942505607
 20
58.26819054332261
 10
39.49839076727352
 20
58.23527975460748
 10
39.5101791252803
 20
58.20378091504249
 10
39.52324050775295
 20
58.17368818108807
 10
39.53755092336802
 20
58.1449957092047
 10
39.553086380802
 20
58.11769765585278
 10
39.56982288873144
 20
58.09178817749281
 10
39.58773645583285
 20
58.06726143058521
 10
39.60680309078277
 20
58.04411157159043
 10
39.6269988022577
 20
58.02233275696893
 10
39.64829959893419
 20
58.00191914318118
 10
39.67068148948872
 20
57.98286488668759
 10
39.69412048259787
 20
57.96516414394861
 10
39.71859258693815
 20
57.94881107142474
 10
39.74407381118608
 20
57.93379982557636
 10
39.77054016401819
 20
57.92012456286399
 10
39.79796765411098
 20
57.90777943974801
 10
39.82633229014099
 20
57.89675861268893
 10
39.85561008078476
 20
57.88705623814715
 10
39.88577703471879
 20
57.87866647258316
 10
39.91680916061964
 20
57.87158347245738
 10
39.94868246716379
 20
57.86580139423029
 10
39.98137296302778
 20
57.86131439436227
 10
40.01485665688815
 20
57.85811662931389
 10
40.08410767330412
 20
57.85556542951757
  0
LINE
  5
398
330
6E2
100
AcDbEntity
  8
GAIKEI
 62
     1
100
AcDbLine
 10
40.08410767342321
 20
57.85556542954328
 30
0.0
 11
50.42098273742432
 21
57.85556542954646
 31
0.0
  0
LWPOLYLINE
  5
399
330
6E2
100
AcDbEntity
  8
GAIKEI
 62
     1
100
AcDbPolyline
 90
       32
 70
     0
 43
0.0
 10
50.42098273741249
 20
57.8555654295226
 10
50.49023327468376
 20
57.85811662931021
 10
50.5237163930465
 20
57.86131439435423
 10
50.55640611029528
 20
57.86580139421782
 10
50.58827845073103
 20
57.87158347244048
 10
50.61930943865472
 20
57.87866647256182
 10
50.64947509836732
 20
57.88705623812134
 10
50.67875145416979
 20
57.89675861265864
 10
50.70711453036309
 20
57.90777943971322
 10
50.73454035124818
 20
57.92012456282467
 10
50.76100494112605
 20
57.93379982553253
 10
50.78648432429759
 20
57.94881107137633
 10
50.81095452506385
 20
57.96516414389564
 10
50.83439156772572
 20
57.98286488663001
 10
50.85677147658421
 20
58.00191914311898
 10
50.87807027594028
 20
58.02233275690211
 10
50.89826399009485
 20
58.04411157151895
 10
50.91732864334893
 20
58.06726143050906
 10
50.93524026000345
 20
58.09178817741195
 10
50.95197486435938
 20
58.11769765576723
 10
50.96750848071771
 20
58.14499570911441
 10
50.98181713337935
 20
58.17368818099303
 10
50.99487684664532
 20
58.20378091494268
 10
51.00666364481655
 20
58.23527975450287
 10
51.01715355219397
 20
58.26819054321322
 10
51.02632259307861
 20
58.30251912461317
 10
51.03414679177138
 20
58.33827134224236
 10
51.04060217257329
 20
58.37545303964033
 10
51.04566475978526
 20
58.4140700603466
 10
51.04931057770827
 20
58.45412824790073
 10
51.05151565064325
 20
58.49563344584227
 10
51.0522560028912
 20
58.53859149771077
  0
LINE
  5
39A
330
6E2
100
AcDbEntity
  8
GAIKEI
 62
     1
100
AcDbLine
 10
51.05225600285486
 20
58.53859149788331
 30
0.0
 11
51.05225600284916
 21
80.70954039810748
 31
0.0
  0
LWPOLYLINE
  5
39B
330
6E2
100
AcDbEntity
  8
GAIKEI
100
AcDbPolyline
 90
       27
 70
     0
 43
0.0
 10
51.25252612374854
 20
80.94684385191007
 10
51.25140974338089
 20
80.99799087970019
 10
51.24810041855234
 20
81.04661121723642
 10
51.24265787367448
 20
81.09276408113613
 10
51.23514183315887
 20
81.13650868801661
 10
51.2256120214171
 20
81.17790425449539
 10
51.21412816286078
 20
81.21700999718973
 10
51.20074998190145
 20
81.25388513271701
 10
51.18553720295071
 20
81.28858887769462
 10
51.16854955042013
 20
81.32118044873994
 10
51.14984674872132
 20
81.35171906247029
 10
51.12948852226582
 20
81.38026393550306
 10
51.10753459546526
 20
81.40687428445566
 10
51.0840446927312
 20
81.43160932594543
 10
51.0590785384752
 20
81.45452827658974
 10
51.03269585710887
 20
81.47569035300593
 10
51.00495637304378
 20
81.49515477181141
 10
50.97591981069152
 20
81.51298074962355
 10
50.94564589446367
 20
81.52922750305966
 10
50.9141943487718
 20
81.54395424873721
 10
50.88162489802749
 20
81.55722020327351
 10
50.81337117902793
 20
81.57960660539181
 10
50.74136253275764
 20
81.59686044235359
 10
50.66607675450922
 20
81.60945544709777
 10
50.58799163957539
 20
81.61786535256331
 10
50.50758498324879
 20
81.62256389168918
 10
50.42533458082204
 20
81.6240247974143
  0
LINE
  5
39C
330
6E2
100
AcDbEntity
  8
GAIKEI
100
AcDbLine
 10
50.42533458068987
 20
81.62402479741308
 30
0.0
 11
40.07975583014297
 21
81.62402479741279
 31
0.0
  0
LWPOLYLINE
  5
39D
330
6E2
100
AcDbEntity
  8
GAIKEI
100
AcDbPolyline
 90
       27
 70
     0
 43
0.0
 10
40.07975583014024
 20
81.62402479741302
 10
39.99750494856149
 20
81.6225638916927
 10
39.9170969381136
 20
81.61786535257235
 10
39.83900971908474
 20
81.60945544711308
 10
39.76372121176305
 20
81.59686044237599
 10
39.69170933643669
 20
81.57960660542203
 10
39.62345201339381
 20
81.55722020331227
 10
39.59088065906872
 20
81.54395424878057
 10
39.55942716292256
 20
81.52922750310777
 10
39.52915126499135
 20
81.51298074967659
 10
39.50011270531108
 20
81.49515477186959
 10
39.47237122391783
 20
81.47569035306943
 10
39.44598656084757
 20
81.45452827665875
 10
39.42101845613633
 20
81.43160932602015
 10
39.39752664982012
 20
81.40687428453627
 10
39.37557088193498
 20
81.38026393558977
 10
39.35521089251692
 20
81.35171906256326
 10
39.33650642160195
 20
81.32118044883936
 10
39.31951720922612
 20
81.2885888778007
 10
39.30430299542542
 20
81.25388513282993
 10
39.29092352023586
 20
81.21700999730967
 10
39.27943852369349
 20
81.17790425462256
 10
39.26990774583429
 20
81.1365086881512
 10
39.26239092669432
 20
81.09276408127829
 10
39.25694780630958
 20
81.04661121738638
 10
39.25363812471611
 20
80.99799087985813
 10
39.25252162194988
 20
80.94684385207617
  0
LINE
  5
39E
330
6E2
100
AcDbEntity
  8
GAIKEI
100
AcDbLine
 10
39.25252162194921
 20
80.94684385190703
 30
0.0
 11
39.25252162194772
 21
58.30120271379929
 31
0.0
  0
LWPOLYLINE
  5
39F
330
6E2
100
AcDbEntity
  8
GAIKEI
100
AcDbPolyline
 90
       27
 70
     0
 43
0.0
 10
39.25252162195943
 20
58.30120271380775
 10
39.25363812471856
 20
58.25005568601768
 10
39.25694780630514
 20
58.20143534848146
 10
39.26239092668311
 20
58.15528248458178
 10
39.26990774581657
 20
58.11153787770132
 10
39.2794385236694
 20
58.07014231122256
 10
39.29092352020565
 20
58.03103656852827
 10
39.30430299538926
 20
57.994161433001
 10
39.31951720918418
 20
57.95945768802344
 10
39.33650642155443
 20
57.92686611697814
 10
39.35521089246403
 20
57.89632750324782
 10
39.37557088187688
 20
57.86778263021504
 10
39.39752664975703
 20
57.84117228126247
 10
39.4210184560684
 20
57.81643723977277
 10
39.44598656077504
 20
57.79351828912851
 10
39.47237122384089
 20
57.77235621271234
 10
39.50011270522992
 20
57.75289179390686
 10
39.52915126490614
 20
57.73506581609475
 10
39.55942716283347
 20
57.71881906265868
 10
39.59088065897596
 20
57.70409231698113
 10
39.62345201329759
 20
57.69082636244489
 10
39.69170933633409
 20
57.66843996032662
 10
39.76372121165489
 20
57.6511861233649
 10
39.83900971897174
 20
57.63859111862078
 10
39.91709693799651
 20
57.63018121315528
 10
39.9975049484411
 20
57.62548267402944
 10
40.07975583001729
 20
57.62402176830436
  0
LINE
  5
3A0
330
6E2
100
AcDbEntity
  8
GAIKEI
100
AcDbLine
 10
40.07975583014196
 20
57.62402176831256
 30
0.0
 11
50.42533458069102
 21
57.62402176831733
 31
0.0
  0
LWPOLYLINE
  5
3A1
330
6E2
100
AcDbEntity
  8
GAIKEI
100
AcDbPolyline
 90
       27
 70
     0
 43
0.0
 10
50.42533458066777
 20
57.62402176831705
 10
50.5075849830969
 20
57.62548267403759
 10
50.58799163942668
 20
57.63018121315807
 10
50.6660767543644
 20
57.63859111861751
 10
50.74136253261749
 20
57.65118612335488
 10
50.81337117889324
 20
57.66843996030901
 10
50.88162489789903
 20
57.6908263624189
 10
50.91419434864667
 20
57.70409231695075
 10
50.94564589434216
 20
57.71881906262365
 10
50.97591981057383
 20
57.73506581605493
 10
51.00495637293003
 20
57.75289179386198
 10
51.03269585699923
 20
57.77235621266226
 10
51.05907853836999
 20
57.79351828907303
 10
51.08404469263043
 20
57.81643723971175
 10
51.1075345953693
 20
57.84117228119571
 10
51.12948852217479
 20
57.86778263014227
 10
51.14984674863539
 20
57.89632750316893
 10
51.16854955033953
 20
57.9268661168929
 10
51.18553720287557
 20
57.95945768793163
 10
51.20074998183198
 20
57.99416143290253
 10
51.21412816279718
 20
58.0310365684229
 10
51.22561202135961
 20
58.07014231111006
 10
51.2351418331076
 20
58.1115378775815
 10
51.24265787362968
 20
58.15528248445457
 10
51.24810041851415
 20
58.20143534834656
 10
51.25140974334954
 20
58.25005568587494
 10
51.25252612372424
 20
58.30120271365697
  0
LINE
  5
3A2
330
6E2
100
AcDbEntity
  8
GAIKEI
100
AcDbLine
 10
51.25252612373878
 20
58.30120271378836
 30
0.0
 11
51.25252612373675
 21
80.94684385188884
 31
0.0
  0
LINE
  5
3A3
330
6E2
100
AcDbEntity
  8
GAIKEI
100
AcDbLine
 10
79.91670283115545
 20
81.24865698248569
 30
0.0
 11
79.91670283115545
 21
58.02592729417064
 31
0.0
  0
LINE
  5
3A4
330
6E2
100
AcDbEntity
  8
GAIKEI
100
AcDbLine
 10
81.51940051056298
 20
69.68388947319806
 30
0.0
 11
81.51940051056298
 21
69.89597783509958
 31
0.0
  0
LINE
  5
3A5
330
6E2
100
AcDbEntity
  8
GAIKEI
100
AcDbLine
 10
81.51940051056293
 20
69.89597783509947
 30
0.0
 11
81.48663369061912
 21
69.89597783509925
 31
0.0
  0
LINE
  5
3A6
330
6E2
100
AcDbEntity
  8
GAIKEI
100
AcDbLine
 10
81.48663369062001
 20
69.89597783509839
 30
0.0
 11
81.48663369062099
 21
78.83773580880978
 31
0.0
  0
LWPOLYLINE
  5
3A7
330
6E2
100
AcDbEntity
  8
GAIKEI
100
AcDbPolyline
 90
       28
 70
     0
 43
0.0
 10
81.48808430508461
 20
80.80084377658295
 10
81.4866044208817
 20
80.85255547674535
 10
81.4847501360996
 20
80.87667863141525
 10
81.48214901883894
 20
80.89967871715632
 10
81.47879811608097
 20
80.9215797799775
 10
81.47469447480714
 20
80.94240586588787
 10
81.46983514199877
 20
80.96218102089641
 10
81.46421716463716
 20
80.98092929101213
 10
81.45783758970368
 20
80.99867472224399
 10
81.45069346417972
 20
81.01544136060104
 10
81.4427818350466
 20
81.03125325209232
 10
81.43409974928569
 20
81.04613444272674
 10
81.4246442538783
 20
81.06010897851337
 10
81.41441239580581
 20
81.07320090546124
 10
81.40340122204959
 20
81.08543426957927
 10
81.39160777959094
 20
81.09683311687653
 10
81.37902911541123
 20
81.10742149336203
 10
81.36566227649183
 20
81.11722344504476
 10
81.35150430981408
 20
81.12626301793371
 10
81.33655226235932
 20
81.13456425803788
 10
81.32080318110894
 20
81.14215121136632
 10
81.3042541130442
 20
81.14904792392797
 10
81.28690210514655
 20
81.15527844173193
 10
81.26874420439728
 20
81.16086681078712
 10
81.22999891226934
 20
81.1702132866873
 10
81.1879946125112
 20
81.1772797197006
 10
81.14270768097364
 20
81.18225847789906
 10
81.09411449350748
 20
81.18534192935474
  0
LINE
  5
3A8
330
6E2
100
AcDbEntity
  8
GAIKEI
100
AcDbLine
 10
81.09411449337722
 20
81.18534192934715
 30
0.0
 11
79.92173731651178
 21
81.24349450171944
 31
0.0
  0
LINE
  5
3A9
330
6E2
100
AcDbEntity
  8
GAIKEI
100
AcDbLine
 10
79.92173731650109
 20
81.24349450165754
 30
0.0
 11
79.9217373164995
 21
81.63733631792513
 31
0.0
  0
LWPOLYLINE
  5
3AA
330
6E2
100
AcDbEntity
  8
GAIKEI
100
AcDbPolyline
 90
        5
 70
     0
 43
0.0
 10
79.92173731642606
 20
81.63733631798761
 10
78.80285494506416
 20
81.55638456670908
 10
78.04122504093403
 20
81.4872757222538
 10
77.72422129074721
 20
81.44996414932096
 10
77.49332343952255
 20
81.41249108220328
  0
LWPOLYLINE
  5
3AB
330
6E2
100
AcDbEntity
  8
GAIKEI
100
AcDbPolyline
 90
       26
 70
     0
 43
0.0
 10
77.4933234394457
 20
81.41249108217628
 10
77.41113706595952
 20
81.39735471062891
 10
77.36968139227109
 20
81.38885633960484
 10
77.32856670630212
 20
81.37880496201116
 10
77.28822999231486
 20
81.36650091554509
 10
77.24910823457236
 20
81.3512445379048
 10
77.23013952187466
 20
81.34229058042445
 10
77.21163841733653
 20
81.33233616678751
 10
77.19365954399062
 20
81.3212938392054
 10
77.17625752486987
 20
81.30907613989108
 10
77.15948698300706
 20
81.29559561105589
 10
77.14340254143497
 20
81.28076479491291
 10
77.12805882318651
 20
81.26449623367397
 10
77.11351045129408
 20
81.24670246955123
 10
77.09981204879085
 20
81.22729604475683
 10
77.0870182387099
 20
81.20618950150321
 10
77.07518364408331
 20
81.18329538200248
 10
77.06436288794453
 20
81.1585262284667
 10
77.05461059332606
 20
81.13179458310822
 10
77.04598138326048
 20
81.10301298813931
 10
77.03852988078114
 20
81.07209398577253
 10
77.03231070892032
 20
81.03895011821919
 10
77.02737849071116
 20
81.00349392769228
 10
77.02378784918636
 20
80.96563795640339
 10
77.02159340737882
 20
80.92529474656533
 10
77.02084978832094
 20
80.88237684039018
  0
LINE
  5
3AC
330
6E2
100
AcDbEntity
  8
GAIKEI
100
AcDbLine
 10
77.02084978834728
 20
80.88237684013437
 30
0.0
 11
77.02084978835045
 21
58.39225010130031
 31
0.0
  0
LWPOLYLINE
  5
3AD
330
6E2
100
AcDbEntity
  8
GAIKEI
100
AcDbPolyline
 90
       26
 70
     0
 43
0.0
 10
77.02084978832136
 20
58.39225010155495
 10
77.02159340737352
 20
58.34932844029879
 10
77.02378784917595
 20
58.30898194411247
 10
77.02737849069535
 20
58.27112312396003
 10
77.03231070889967
 20
58.23566449080533
 10
77.03852988075552
 20
58.20251855561105
 10
77.04598138323035
 20
58.17159782934083
 10
77.05461059329138
 20
58.14281482295779
 10
77.06436288790543
 20
58.11608204742504
 10
77.07518364404041
 20
58.09131201370701
 10
77.08701823866272
 20
58.06841723276637
 10
77.09981204874009
 20
58.04731021556552
 10
77.11351045123969
 20
58.02790347306949
 10
77.12805882312864
 20
58.01010951624038
 10
77.1434025413738
 20
57.99384085604208
 10
77.15948698294288
 20
57.97901000343722
 10
77.17625752480294
 20
57.96552946939062
 10
77.19365954392059
 20
57.95331176486353
 10
77.21163841726388
 20
57.94226940082115
 10
77.23013952179986
 20
57.93231488822653
 10
77.24910823449545
 20
57.92336073804165
 10
77.28822999223393
 20
57.90810356875795
 10
77.32856670621799
 20
57.89579798067712
 10
77.36968139218449
 20
57.88574406150519
 10
77.411137065871
 20
57.87724189894948
 10
77.49332343935555
 20
57.86209319451335
  0
LWPOLYLINE
  5
3AE
330
6E2
100
AcDbEntity
  8
GAIKEI
100
AcDbPolyline
 90
        5
 70
     0
 43
0.0
 10
77.49332343934111
 20
57.86209319442449
 10
77.72422129048209
 20
57.82463421013267
 10
78.04122504060615
 20
57.78733322015078
 10
78.8028549446999
 20
57.71823704190017
 10
79.92173731629463
 20
57.63729062373909
  0
LINE
  5
3AF
330
6E2
100
AcDbEntity
  8
GAIKEI
100
AcDbLine
 10
79.92173731667391
 20
57.63729062395531
 30
0.0
 11
79.92173731667526
 21
58.03100444486563
 31
0.0
  0
LINE
  5
3B0
330
6E2
100
AcDbEntity
  8
GAIKEI
100
AcDbLine
 10
79.92173731659568
 20
58.03100444458414
 30
0.0
 11
81.09411449346227
 21
58.08928501233452
 31
0.0
  0
LWPOLYLINE
  5
3B1
330
6E2
100
AcDbEntity
  8
GAIKEI
100
AcDbPolyline
 90
       28
 70
     0
 43
0.0
 10
81.09411449322944
 20
58.08928501227638
 10
81.1427076807001
 20
58.09235439131885
 10
81.18799461224218
 20
58.09732263947536
 10
81.22999891200478
 20
58.10438168733424
 10
81.26874420413711
 20
58.11372346548274
 10
81.28690210488857
 20
58.1193103567241
 10
81.30425411278844
 20
58.12553990450886
 10
81.32080318085529
 20
58.13243610015956
 10
81.3365522621078
 20
58.14002293500015
 10
81.35150430956469
 20
58.14832440035401
 10
81.36566227624456
 20
58.15736448754478
 10
81.37902911516608
 20
58.16716718789587
 10
81.39160777934783
 20
58.17775649273062
 10
81.40340122180859
 20
58.18915639337228
 10
81.41441239556687
 20
58.2013908811449
 10
81.4246442536414
 20
58.21448394737149
 10
81.43409974905077
 20
58.22845958337598
 10
81.44278183481377
 20
58.24334178048127
 10
81.45069346394892
 20
58.25915453001164
 10
81.45783758947493
 20
58.27592182328953
 10
81.46421716441027
 20
58.29366765163911
 10
81.46983514177389
 20
58.3124160063835
 10
81.47469447458428
 20
58.33219087884697
 10
81.47879811586006
 20
58.35301626035186
 10
81.48214901861992
 20
58.37491614222267
 10
81.48475013588255
 20
58.39791451578185
 10
81.48660442066645
 20
58.42203537235354
 10
81.48808430487324
 20
58.47374049982784
  0
LINE
  5
3B2
330
6E2
100
AcDbEntity
  8
GAIKEI
 62
     1
100
AcDbLine
 10
81.52085112500936
 20
58.47374050083818
 30
0.0
 11
81.52085112500936
 21
60.43689113381333
 31
0.0
  0
LINE
  5
3B3
330
6E2
100
AcDbEntity
  8
GAIKEI
100
AcDbLine
 10
81.4866336905834
 20
60.43689113267465
 30
0.0
 11
81.48663369056068
 21
69.47192910633749
 31
0.0
  0
LINE
  5
3B4
330
6E2
100
AcDbEntity
  8
GAIKEI
100
AcDbLine
 10
81.48663369113966
 20
69.47192910578451
 30
0.0
 11
81.51940051111079
 21
69.47192910575541
 31
0.0
  0
LINE
  5
3B5
330
6E2
100
AcDbEntity
  8
GAIKEI
100
AcDbLine
 10
81.51940051069688
 20
69.4719291077563
 30
0.0
 11
81.51940051064412
 21
69.6838894743414
 31
0.0
  0
LINE
  5
3B6
330
6E2
100
AcDbEntity
  8
GAIKEI
 62
     1
100
AcDbLine
 10
81.47451679366083
 20
58.47374050006857
 30
0.0
 11
81.47451679366083
 21
60.43689113297452
 31
0.0
  0
LINE
  5
3B7
330
6E2
100
AcDbEntity
  8
GAIKEI
 62
     1
100
AcDbLine
 10
48.7510695439282
 20
58.99050055626478
 30
0.0
 11
48.62725533627614
 21
58.99050055626478
 31
0.0
  0
LINE
  5
3B8
330
6E2
100
AcDbEntity
  8
GAIKEI
 62
     1
100
AcDbLine
 10
48.62725533627614
 20
58.99050055626478
 30
0.0
 11
48.62725533627614
 21
59.11431476391681
 31
0.0
  0
LINE
  5
3B9
330
6E2
100
AcDbEntity
  8
GAIKEI
 62
     1
100
AcDbLine
 10
48.62725533627614
 20
59.11431476391681
 30
0.0
 11
48.51368075985655
 21
59.11431476391681
 31
0.0
  0
LINE
  5
3BA
330
6E2
100
AcDbEntity
  8
GAIKEI
 62
     1
100
AcDbLine
 10
48.51368075985655
 20
59.11431476391681
 30
0.0
 11
48.51368075985655
 21
58.99050055626478
 31
0.0
  0
LINE
  5
3BB
330
6E2
100
AcDbEntity
  8
GAIKEI
 62
     1
100
AcDbLine
 10
48.51368075985655
 20
58.99050055626478
 30
0.0
 11
48.38995188246477
 21
58.99050055626478
 31
0.0
  0
LINE
  5
3BC
330
6E2
100
AcDbEntity
  8
GAIKEI
 62
     1
100
AcDbLine
 10
48.38995188246477
 20
58.99050055626478
 30
0.0
 11
48.38995188246477
 21
58.87692597984517
 31
0.0
  0
LINE
  5
3BD
330
6E2
100
AcDbEntity
  8
GAIKEI
 62
     1
100
AcDbLine
 10
48.38995188246477
 20
58.87692597984517
 30
0.0
 11
48.51368075985655
 21
58.87692597984517
 31
0.0
  0
LINE
  5
3BE
330
6E2
100
AcDbEntity
  8
GAIKEI
 62
     1
100
AcDbLine
 10
48.51368075985655
 20
58.87692597984517
 30
0.0
 11
48.51368075985655
 21
58.7531971024534
 31
0.0
  0
LINE
  5
3BF
330
6E2
100
AcDbEntity
  8
GAIKEI
 62
     1
100
AcDbLine
 10
48.51368075985655
 20
58.7531971024534
 30
0.0
 11
48.62725533627614
 21
58.7531971024534
 31
0.0
  0
LINE
  5
3C0
330
6E2
100
AcDbEntity
  8
GAIKEI
 62
     1
100
AcDbLine
 10
48.62725533627614
 20
58.7531971024534
 30
0.0
 11
48.62725533627614
 21
58.87692597984517
 31
0.0
  0
LINE
  5
3C1
330
6E2
100
AcDbEntity
  8
GAIKEI
 62
     1
100
AcDbLine
 10
48.62725533627614
 20
58.87692597984517
 30
0.0
 11
48.7510695439282
 21
58.87692597984517
 31
0.0
  0
LINE
  5
3C2
330
6E2
100
AcDbEntity
  8
GAIKEI
 62
     1
100
AcDbLine
 10
48.7510695439282
 20
58.87692597984517
 30
0.0
 11
48.7510695439282
 21
58.99050055626478
 31
0.0
  0
LINE
  5
3C3
330
6E2
100
AcDbEntity
  8
GAIKEI
 62
     1
100
AcDbLine
 10
45.44677321035575
 20
79.12090427751858
 30
0.0
 11
49.75455340470555
 21
79.12090427751858
 31
0.0
  0
LINE
  5
3C4
330
6E2
100
AcDbEntity
  8
GAIKEI
 62
     1
100
AcDbLine
 10
49.75455340470555
 20
79.12090427751858
 30
0.0
 11
49.75455340470555
 21
80.06461429097667
 31
0.0
  0
LINE
  5
3C5
330
6E2
100
AcDbEntity
  8
GAIKEI
 62
     1
100
AcDbLine
 10
49.75455340470555
 20
80.06461429097667
 30
0.0
 11
45.44677321035575
 21
80.06461429097667
 31
0.0
  0
LINE
  5
3C6
330
6E2
100
AcDbEntity
  8
GAIKEI
 62
     1
100
AcDbLine
 10
45.44677321035575
 20
80.06461429097667
 30
0.0
 11
45.44677321035575
 21
79.12090427751858
 31
0.0
  0
LINE
  5
3C7
330
6E2
100
AcDbEntity
  8
GAIKEI
  6
HIDDEN2
 62
     1
100
AcDbLine
 10
45.45142370954054
 20
80.06661955209301
 30
0.0
 11
49.94607717388195
 21
80.06661955209301
 31
0.0
  0
LWPOLYLINE
  5
3C9
330
6E2
100
AcDbEntity
  8
GAIKEI
  6
HIDDEN2
 62
     1
100
AcDbPolyline
 90
       33
 70
     0
 43
0.0
 10
49.94607717388195
 20
80.0666195520931
 10
49.9715673183836
 20
80.06597476802266
 10
49.99672284993597
 20
80.06406118589664
 10
50.02151264465996
 20
80.06090996084306
 10
50.04590557867651
 20
80.05655224798985
 10
50.06987052810647
 20
80.05101920246501
 10
50.09337636907077
 20
80.04434197939655
 10
50.1163919776903
 20
80.03655173391235
 10
50.13888623008593
 20
80.02767962114047
 10
50.1608280023786
 20
80.01775679620889
 10
50.18218617068918
 20
80.00681441424555
 10
50.20292961113858
 20
79.99488363037844
 10
50.22302719984767
 20
79.98199559973553
 10
50.24244781293739
 20
79.9681814774448
 10
50.26116032652859
 20
79.95347241863425
 10
50.27913361674221
 20
79.93789957843183
 10
50.29633655969911
 20
79.92149411196556
 10
50.31273803152022
 20
79.90428717436334
 10
50.32830690832643
 20
79.88630992075321
 10
50.34301206623863
 20
79.86759350626316
 10
50.3568223813777
 20
79.84816908602109
 10
50.36970672986456
 20
79.82806781515505
 10
50.3816339878201
 20
79.80732084879303
 10
50.39257303136523
 20
79.78595934206293
 10
50.40249273662083
 20
79.76401445009276
 10
50.41136197970779
 20
79.74151732801053
 10
50.41914963674703
 20
79.71849913094418
 10
50.42582458385947
 20
79.6949910140217
 10
50.43135569716592
 20
79.67102413237106
 10
50.43571185278736
 20
79.64662964112026
 10
50.43886192684465
 20
79.6218386953973
 10
50.44077479545871
 20
79.59668245033005
 10
50.44141933475041
 20
79.57119206104659
  0
LINE
  5
3CA
330
6E2
100
AcDbEntity
  8
GAIKEI
  6
HIDDEN2
 62
     1
100
AcDbLine
 10
50.44141933475021
 20
79.57119206096331
 30
0.0
 11
50.44141933475004
 21
61.43124465590075
 31
0.0
  0
LWPOLYLINE
  5
3CB
330
6E2
100
AcDbEntity
  8
GAIKEI
  6
HIDDEN2
 62
     1
100
AcDbPolyline
 90
       33
 70
     0
 43
0.0
 10
50.4414193347489
 20
61.43124465590403
 10
50.44077479546127
 20
61.40575426661954
 10
50.43886192685119
 20
61.38059802155121
 10
50.43571185279774
 20
61.35580707582698
 10
50.43135569718009
 20
61.33141258457486
 10
50.42582458387728
 20
61.30744570292279
 10
50.41914963676841
 20
61.28393758599879
 10
50.41136197973266
 20
61.26091938893082
 10
50.40249273664906
 20
61.23842226684685
 10
50.39257303139672
 20
61.21647737487485
 10
50.38163398785478
 20
61.19511586814284
 10
50.36970672990228
 20
61.17436890177875
 10
50.3568223814184
 20
61.15426763091059
 10
50.34301206628217
 20
61.13484321066631
 10
50.32830690837275
 20
61.1161267961739
 10
50.31273803156922
 20
61.09814954256135
 10
50.29633655975067
 20
61.08094260495664
 10
50.27913361679622
 20
61.06453713848772
 10
50.26116032658497
 20
61.04896429828258
 10
50.24244781299604
 20
61.03425523946917
 10
50.22302719990849
 20
61.02044111717554
 10
50.20292961120144
 20
61.0075530865296
 10
50.18218617075402
 20
60.99562230265935
 10
50.1608280024453
 20
60.98467992069277
 10
50.13888623015439
 20
60.97475709575785
 10
50.11639197776043
 20
60.96588498298256
 10
50.09337636914247
 20
60.95809473749486
 10
50.06987052817963
 20
60.95141751442274
 10
50.04590557875101
 20
60.94588446889417
 10
50.02151264473575
 20
60.94152675603714
 10
49.99672285001289
 20
60.93837553097963
 10
49.9715673184616
 20
60.93646194884959
 10
49.94607717396092
 20
60.93581716477501
  0
LINE
  5
3CC
330
6E2
100
AcDbEntity
  8
GAIKEI
  6
HIDDEN2
 62
     1
100
AcDbLine
 10
49.94607717388499
 20
60.93581716477274
 30
0.0
 11
40.5333288286124
 21
60.93581716477274
 31
0.0
  0
LWPOLYLINE
  5
3CD
330
6E2
100
AcDbEntity
  8
GAIKEI
  6
HIDDEN2
 62
     1
100
AcDbPolyline
 90
       33
 70
     0
 43
0.0
 10
40.53332882861639
 20
60.93581716479161
 10
40.50783843933196
 20
60.93646194886217
 10
40.48268219426364
 20
60.93837553098831
 10
40.45789124853949
 20
60.94152675604203
 10
40.43349675728742
 20
60.94588446889535
 10
40.40952987563539
 20
60.95141751442032
 10
40.38602175871145
 20
60.95809473748893
 10
40.36300356164352
 20
60.96588498297324
 10
40.3405064395596
 20
60.97475709574524
 10
40.31856154758766
 20
60.98467992067695
 10
40.29720004085571
 20
60.99562230264043
 10
40.27645307449165
 20
61.00755308650765
 10
40.25635180362354
 20
61.02044111715071
 10
40.23692738337932
 20
61.03425523944155
 10
40.21821096888698
 20
61.04896429825223
 10
40.20023371527449
 20
61.06453713845478
 10
40.18302677766979
 20
61.08094260492119
 10
40.16662131120094
 20
61.09814954252353
 10
40.15104847099585
 20
61.11612679613378
 10
40.13633941218252
 20
61.13484321062397
 10
40.12252528988891
 20
61.15426763086614
 10
40.10963725924304
 20
61.17436890173232
 10
40.09770647537286
 20
61.1951158680945
 10
40.08676409340632
 20
61.21647737482472
 10
40.07684126847146
 20
61.238422266795
 10
40.06796915569622
 20
61.26091938887738
 10
40.06017891020857
 20
61.28393758594386
 10
40.05350168713651
 20
61.30744570286645
 10
40.04796864160801
 20
61.33141258451722
 10
40.04361092875103
 20
61.35580707576814
 10
40.04045970369356
 20
61.38059802149126
 10
40.03854612156359
 20
61.40575426655861
 10
40.03790133748908
 20
61.43124465584221
  0
LINE
  5
3CE
330
6E2
100
AcDbEntity
  8
GAIKEI
  6
HIDDEN2
 62
     1
100
AcDbLine
 10
40.03790133749226
 20
61.43124465589061
 30
0.0
 11
40.03790133749521
 21
79.57119206094649
 31
0.0
  0
LWPOLYLINE
  5
3CF
330
6E2
100
AcDbEntity
  8
GAIKEI
  6
HIDDEN2
 62
     1
100
AcDbPolyline
 90
       33
 70
     0
 43
0.0
 10
40.03790133745645
 20
79.57119206094849
 10
40.03854612152679
 20
79.59668245023289
 10
40.04045970365268
 20
79.62183869530116
 10
40.04361092870621
 20
79.64662964102536
 10
40.04796864155933
 20
79.67102413227741
 10
40.05350168708406
 20
79.69499101392938
 10
40.06017891015245
 20
79.71849913085335
 10
40.06796915563653
 20
79.74151732792124
 10
40.07684126840828
 20
79.76401445000513
 10
40.08676409333982
 20
79.78595934197703
 10
40.09770647530306
 20
79.807320848709
 10
40.10963725917007
 20
79.82806781507303
 10
40.12252528981288
 20
79.84816908594111
 10
40.1363394121035
 20
79.86759350618534
 10
40.15104847091396
 20
79.88630992067768
 10
40.16662131111627
 20
79.90428717429011
 10
40.18302677758247
 20
79.9214941118948
 10
40.2002337151846
 20
79.93789957836366
 10
40.21821096879464
 20
79.95347241856873
 10
40.2369273832846
 20
79.96818147738203
 10
40.25635180352656
 20
79.98199559967559
 10
40.2764530743925
 20
79.99488363032148
 10
40.29720004075442
 20
80.00681441419164
 10
40.31856154748443
 20
80.01775679615814
 10
40.3405064394545
 20
80.02767962109301
 10
40.36300356153659
 20
80.03655173386823
 10
40.38602175860289
 20
80.04434197935585
 10
40.40952987552524
 20
80.05101920242791
 10
40.43349675717577
 20
80.05655224795642
 10
40.45789124842653
 20
80.06090996081336
 10
40.48268219414936
 20
80.06406118587081
 10
40.50783843921656
 20
80.06597476800079
 10
40.53332882849986
 20
80.06661955207528
  0
LINE
  5
3D0
330
6E2
100
AcDbEntity
  8
GAIKEI
  6
HIDDEN2
 62
     1
100
AcDbLine
 10
40.53332882862014
 20
80.06661955200252
 30
0.0
 11
43.85894772726532
 21
80.06661955198751
 31
0.0
  0
LWPOLYLINE
  5
3D1
330
6E2
100
AcDbEntity
  8
GAIKEI
  6
HIDDEN2
 62
     1
100
AcDbPolyline
 90
       48
 70
     0
 43
0.0
 10
43.85894772720246
 20
80.06661955217849
 10
43.92002883994169
 20
80.06379444558897
 10
43.97763395286471
 20
80.05545428761726
 10
44.03169894328083
 20
80.04180182096169
 10
44.08215968849936
 20
80.02303978832078
 10
44.1289520658296
 20
79.99937093239302
 10
44.17201195258085
 20
79.9709979958769
 10
44.21127522606238
 20
79.93812372147079
 10
44.24667776358353
 20
79.90095085187333
 10
44.27815544245357
 20
79.85968212978288
 10
44.30564413998179
 20
79.81452029789797
 10
44.3290797334775
 20
79.76566809891702
 10
44.34839810025004
 20
79.71332827553855
 10
44.36353511760865
 20
79.657703570461
 10
44.37442666286268
 20
79.59899672638288
 10
44.38100861332139
 20
79.53741048600256
 10
44.38321684634275
 20
79.47314759172854
 10
44.38589699982054
 20
79.40851766929316
 10
44.39373846741989
 20
79.34589417459875
 10
44.40644275989078
 20
79.28557559689568
 10
44.42371138798279
 20
79.22786042543416
 10
44.44524586244563
 20
79.17304714946445
 10
44.47074769402903
 20
79.12143425823683
 10
44.49991839348272
 20
79.0733202410017
 10
44.53245947155642
 20
79.02900358700918
 10
44.56807243899983
 20
78.98878278550959
 10
44.60645880656278
 20
78.95295632575329
 10
44.64732008499479
 20
78.92182269699055
 10
44.69035778504578
 20
78.89568038847158
 10
44.73527341746524
 20
78.87482788944669
 10
44.78176849300314
 20
78.85956368916613
 10
44.82954452240909
 20
78.85018627688026
 10
44.87830301653172
 20
78.846994142124
 10
44.9949234832489
 20
78.85253827579163
 10
45.05017582673422
 20
78.86033278674699
 10
45.10302825664996
 20
78.87224389944744
 10
45.15320978275577
 20
78.88884784313995
 10
45.20044941481097
 20
78.91072084707253
 10
45.24447616257497
 20
78.93843914049284
 10
45.28501903580713
 20
78.97257895264861
 10
45.32180704426735
 20
79.01371651278714
 10
45.35456919771445
 20
79.06242805015631
 10
45.38303450590843
 20
79.11928979400352
 10
45.40693197860843
 20
79.18487797357705
 10
45.42599062557406
 20
79.2597688181238
 10
45.43993945656484
 20
79.34453855689162
 10
45.44850748134003
 20
79.43976341912878
 10
45.4514237096592
 20
79.54601963408186
  0
LINE
  5
3D2
330
6E2
100
AcDbEntity
  8
GAIKEI
  6
AI9-LTYPE1
 62
     1
100
AcDbLine
 10
45.45142370941903
 20
79.54601963408276
 30
0.0
 11
45.45142370940038
 21
80.06661955197069
 31
0.0
  0
LINE
  5
3D4
330
6E2
100
AcDbEntity
  8
WAKU
 62
     4
100
AcDbLine
 10
125.0
 20
35.0
 30
0.0
 11
125.0
 21
0.0
 31
0.0
  0
LINE
  5
3D7
330
6E2
100
AcDbEntity
  8
WAKU
 62
     4
100
AcDbLine
 10
40.0
 20
35.0
 30
0.0
 11
40.0
 21
0.0
 31
0.0
  0
TEXT
  5
3D8
330
6E2
100
AcDbEntity
  8
MOJI1
100
AcDbText
 10
2.5
 20
31.0
 30
0.0
 40
3.0
  1
外観色調
100
AcDbText
  0
LINE
  5
3D9
330
6E2
100
AcDbEntity
  8
WAKU
 62
     4
100
AcDbLine
 10
0.0
 20
35.0
 30
0.0
 11
0.0
 21
0.0
 31
0.0
  0
LINE
  5
3DA
330
6E2
100
AcDbEntity
  8
WAKU
 62
     1
100
AcDbLine
 10
0.0
 20
30.0
 30
0.0
 11
125.0
 21
30.0
 31
0.0
  0
LINE
  5
3DB
330
6E2
100
AcDbEntity
  8
WAKU
 62
     1
100
AcDbLine
 10
0.0
 20
15.0
 30
0.0
 11
125.0
 21
15.0
 31
0.0
  0
LINE
  5
3DC
330
6E2
100
AcDbEntity
  8
WAKU
 62
     1
100
AcDbLine
 10
0.0
 20
20.0
 30
0.0
 11
125.0
 21
20.0
 31
0.0
  0
LINE
  5
3DD
330
6E2
100
AcDbEntity
  8
WAKU
 62
     4
100
AcDbLine
 10
125.0
 20
0.0
 30
0.0
 11
0.0
 21
0.0
 31
0.0
  0
LINE
  5
3DE
330
6E2
100
AcDbEntity
  8
WAKU
 62
     1
100
AcDbLine
 10
0.0
 20
10.0
 30
0.0
 11
125.0
 21
10.0
 31
0.0
  0
LINE
  5
3DF
330
6E2
100
AcDbEntity
  8
WAKU
 62
     1
100
AcDbLine
 10
0.0
 20
25.0
 30
0.0
 11
125.0
 21
25.0
 31
0.0
  0
LINE
  5
3E0
330
6E2
100
AcDbEntity
  8
WAKU
 62
     1
100
AcDbLine
 10
0.0
 20
5.0
 30
0.0
 11
125.0
 21
5.0
 31
0.0
  0
LINE
  5
3E1
330
6E2
100
AcDbEntity
  8
WAKU
 62
     4
100
AcDbLine
 10
0.0
 20
35.0
 30
0.0
 11
125.0
 21
35.0
 31
0.0
  0
TEXT
  5
723
330
6E2
100
AcDbEntity
  8
MOJI1
100
AcDbText
 10
42.5
 20
31.0
 30
0.0
 40
3.0
  1
アッシュグレー、ＡＢＳ樹脂
100
AcDbText
  0
ENDSEC
  0
SECTION
  2
OBJECTS
  0
DICTIONARY
  5
6CE
330
0
100
AcDbDictionary
281
     1
  3
ACAD_COLOR
350
6DD
  3
ACAD_GROUP
350
6CF
  3
ACAD_LAYOUT
350
6DB
  3
ACAD_MATERIAL
350
6DC
  3
ACAD_MLINESTYLE
350
6D8
  3
ACAD_PLOTSETTINGS
350
6DA
  3
ACAD_PLOTSTYLENAME
350
6D0
  3
ACDBHEADERROUNDTRIPXREC
350
729
  3
AcDbVariableDictionary
350
724
  3
DWGPROPS
350
728
  0
DICTIONARY
  5
6DD
102
{ACAD_REACTORS
330
6CE
102
}
330
6CE
100
AcDbDictionary
281
     1
  0
DICTIONARY
  5
6CF
102
{ACAD_REACTORS
330
6CE
102
}
330
6CE
100
AcDbDictionary
281
     1
  0
DICTIONARY
  5
6DB
102
{ACAD_REACTORS
330
6CE
102
}
330
6CE
100
AcDbDictionary
281
     1
  3
Model
350
6E5
  3
レイアウト1
350
6E1
  0
DICTIONARY
  5
6DC
102
{ACAD_REACTORS
330
6CE
102
}
330
6CE
100
AcDbDictionary
281
     1
  0
DICTIONARY
  5
6D8
102
{ACAD_REACTORS
330
6CE
102
}
330
6CE
100
AcDbDictionary
281
     1
  3
Standard
350
6D9
  0
DICTIONARY
  5
6DA
102
{ACAD_REACTORS
330
6CE
102
}
330
6CE
100
AcDbDictionary
281
     1
  0
ACDBDICTIONARYWDFLT
  5
6D0
102
{ACAD_REACTORS
330
6CE
102
}
330
6CE
100
AcDbDictionary
281
     1
  3
Normal
350
6D1
100
AcDbDictionaryWithDefault
340
6D1
  0
DICTIONARY
  5
729
102
{ACAD_REACTORS
330
6CE
102
}
330
6CE
100
AcDbDictionary
281
     1
  3
COLORDICT
350
72B
  3
MATERIALDICT
350
72A
  0
DICTIONARY
  5
724
102
{ACAD_REACTORS
330
6CE
102
}
330
6CE
100
AcDbDictionary
281
     1
  3
DIMASSOC
350
725
  3
PROJECTNAME
350
726
  0
XRECORD
  5
728
102
{ACAD_REACTORS
330
6CE
102
}
330
6CE
100
AcDbXrecord
280
     1
  1
DWGPROPS COOKIE
  2

  3

  4

  6

  7

  8

  9

300
=
301
=
302
=
303
=
304
=
305
=
306
=
307
=
308
=
309
=
 40
1.516588506944444
 41
2448884.266931713
 42
2453731.673373114
  1

 90
        0
  0
LAYOUT
  5
6E5
102
{ACAD_XDICTIONARY
360
72E
102
}
102
{ACAD_REACTORS
330
6DB
102
}
330
6DB
100
AcDbPlotSettings
  1

  2
\\Uranus\BFACN02M
  4

  6

 40
0.0
 41
0.0
 42
0.0
 43
0.0
 44
0.0
 45
0.0
 46
0.0
 47
0.0
 48
0.0
 49
0.0
140
0.0
141
0.0
142
1.0
143
1.0
 70
  1712
 72
     0
 73
     0
 74
     0
  7
SSC.ctb
 75
     0
147
1.0
148
0.0
149
0.0
100
AcDbLayout
  1
Model
 70
     1
 71
     0
 10
0.0
 20
0.0
 11
12.0
 21
9.0
 12
0.0
 22
0.0
 32
0.0
 14
0.0
 24
0.0
 34
0.0
 15
0.0
 25
0.0
 35
0.0
146
0.0
 13
0.0
 23
0.0
 33
0.0
 16
1.0
 26
0.0
 36
0.0
 17
0.0
 27
1.0
 37
0.0
 76
     0
330
6E2
  0
LAYOUT
  5
6E1
102
{ACAD_XDICTIONARY
360
72C
102
}
102
{ACAD_REACTORS
330
6DB
102
}
330
6DB
100
AcDbPlotSettings
  1

  2
\\Uranus\BFACN02M
  4

  6

 40
0.0
 41
0.0
 42
0.0
 43
0.0
 44
0.0
 45
0.0
 46
0.0
 47
0.0
 48
0.0
 49
0.0
140
0.0
141
0.0
142
1.0
143
1.0
 70
   688
 72
     0
 73
     0
 74
     5
  7
SSC.ctb
 75
    16
147
1.0
148
0.0
149
0.0
100
AcDbLayout
  1
レイアウト1
 70
     0
 71
     1
 10
0.0
 20
0.0
 11
12.0
 21
9.0
 12
0.0
 22
0.0
 32
0.0
 14
1.000000000000000E+20
 24
1.000000000000000E+20
 34
1.000000000000000E+20
 15
-1.000000000000000E+20
 25
-1.000000000000000E+20
 35
-1.000000000000000E+20
146
0.0
 13
0.0
 23
0.0
 33
0.0
 16
1.0
 26
0.0
 36
0.0
 17
0.0
 27
1.0
 37
0.0
 76
     0
330
6DE
  0
MLINESTYLE
  5
6D9
102
{ACAD_REACTORS
330
6D8
102
}
330
6D8
100
AcDbMlineStyle
  2
STANDARD
 70
     0
  3

 62
   256
 51
90.0
 52
90.0
 71
     2
 49
0.5
 62
   256
  6
BYLAYER
 49
-0.5
 62
   256
  6
BYLAYER
  0
ACDBPLACEHOLDER
  5
6D1
102
{ACAD_REACTORS
330
6D0
102
}
330
6D0
  0
XRECORD
  5
72B
102
{ACAD_REACTORS
330
729
102
}
330
729
100
AcDbXrecord
280
     1
340
6DD
  0
XRECORD
  5
72A
102
{ACAD_REACTORS
330
729
102
}
330
729
100
AcDbXrecord
280
     1
340
6DC
  0
DICTIONARYVAR
  5
725
102
{ACAD_REACTORS
330
724
102
}
330
724
100
DictionaryVariables
280
     0
  1
1
  0
DICTIONARYVAR
  5
726
102
{ACAD_REACTORS
330
724
102
}
330
724
100
DictionaryVariables
280
     0
  1

  0
DICTIONARY
  5
72E
330
6E5
100
AcDbDictionary
280
     1
281
     1
  3
ACAD_XREC_ROUNDTRIP
360
72F
  0
DICTIONARY
  5
72C
330
6E1
100
AcDbDictionary
280
     1
281
     1
  3
ACAD_XREC_ROUNDTRIP
360
72D
  0
XRECORD
  5
72F
102
{ACAD_REACTORS
330
72E
102
}
330
72E
100
AcDbXrecord
280
     1
102
SHADEPLOT
 70
     0
102
SHADEPLOTRESLEVEL
 70
     2
102
SHADEPLOTCUSTOMDPI
 70
   300
  0
XRECORD
  5
72D
102
{ACAD_REACTORS
330
72C
102
}
330
72C
100
AcDbXrecord
280
     1
102
SHADEPLOT
 70
     0
102
SHADEPLOTRESLEVEL
 70
     2
102
SHADEPLOTCUSTOMDPI
 70
   300
  0
ENDSEC
  0
EOF
