  0
SECTION
  2
HEADER
  9
$ACADVER
  1
AC1015
  9
$ACADMAINTVER
 70
    20
  9
$DWGCODEPAGE
  3
ANSI_932
  9
$INSBASE
 10
0.0
 20
372.4992141396417
 30
0.0
  9
$EXTMIN
 10
-62.42256800259202
 20
-161.7569625872256
 30
-0.0015258207003583
  9
$EXTMAX
 10
62.65794096737272
 20
71.3725851633244
 30
0.0000000349246037
  9
$LIMMIN
 10
-1101.784450318844
 20
-1579.160531687244
  9
$LIMMAX
 10
-508.2420711400536
 20
-1161.440814074914
  9
$ORTHOMODE
 70
     1
  9
$REGENMODE
 70
     1
  9
$FILLMODE
 70
     1
  9
$QTEXTMODE
 70
     0
  9
$MIRRTEXT
 70
     1
  9
$LTSCALE
 40
1.0
  9
$ATTMODE
 70
     1
  9
$TEXTSIZE
 40
3.0
  9
$TRACEWID
 40
0.5
  9
$TEXTSTYLE
  7
STANDARD
  9
$CLAYER
  8
SUNPO
  9
$CELTYPE
  6
BYLAYER
  9
$CECOLOR
 62
   256
  9
$CELTSCALE
 40
1.0
  9
$DISPSILH
 70
     0
  9
$DIMSCALE
 40
1.0
  9
$DIMASZ
 40
2.0
  9
$DIMEXO
 40
2.0
  9
$DIMDLI
 40
8.0
  9
$DIMRND
 40
0.0
  9
$DIMDLE
 40
0.0
  9
$DIMEXE
 40
2.0
  9
$DIMTP
 40
0.0
  9
$DIMTM
 40
0.0
  9
$DIMTXT
 40
2.5
  9
$DIMCEN
 40
0.0
  9
$DIMTSZ
 40
0.0
  9
$DIMTOL
 70
     0
  9
$DIMLIM
 70
     0
  9
$DIMTIH
 70
     0
  9
$DIMTOH
 70
     0
  9
$DIMSE1
 70
     0
  9
$DIMSE2
 70
     0
  9
$DIMTAD
 70
     3
  9
$DIMZIN
 70
     0
  9
$DIMBLK
  1

  9
$DIMASO
 70
     1
  9
$DIMSHO
 70
     1
  9
$DIMPOST
  1

  9
$DIMAPOST
  1

  9
$DIMALT
 70
     0
  9
$DIMALTD
 70
     2
  9
$DIMALTF
 40
25.4
  9
$DIMLFAC
 40
1.0
  9
$DIMTOFL
 70
     1
  9
$DIMTVP
 40
0.0
  9
$DIMTIX
 70
     0
  9
$DIMSOXD
 70
     0
  9
$DIMSAH
 70
     1
  9
$DIMBLK1
  1
OPEN30
  9
$DIMBLK2
  1
OPEN30
  9
$DIMSTYLE
  2
STANDARD
  9
$DIMCLRD
 70
     0
  9
$DIMCLRE
 70
     0
  9
$DIMCLRT
 70
     0
  9
$DIMTFAC
 40
1.0
  9
$DIMGAP
 40
0.5
  9
$DIMJUST
 70
     0
  9
$DIMSD1
 70
     0
  9
$DIMSD2
 70
     0
  9
$DIMTOLJ
 70
     1
  9
$DIMTZIN
 70
     0
  9
$DIMALTZ
 70
     0
  9
$DIMALTTZ
 70
     0
  9
$DIMUPT
 70
     0
  9
$DIMDEC
 70
     4
  9
$DIMTDEC
 70
     4
  9
$DIMALTU
 70
     2
  9
$DIMALTTD
 70
     2
  9
$DIMTXSTY
  7
STANDARD
  9
$DIMAUNIT
 70
     0
  9
$DIMADEC
 70
     0
  9
$DIMALTRND
 40
0.0
  9
$DIMAZIN
 70
     0
  9
$DIMDSEP
 70
    46
  9
$DIMATFIT
 70
     3
  9
$DIMFRAC
 70
     0
  9
$DIMLDRBLK
  1
OPEN30
  9
$DIMLUNIT
 70
     2
  9
$DIMLWD
 70
    -2
  9
$DIMLWE
 70
    -2
  9
$DIMTMOVE
 70
     0
  9
$LUNITS
 70
     2
  9
$LUPREC
 70
     4
  9
$SKETCHINC
 40
0.1
  9
$FILLETRAD
 40
0.0
  9
$AUNITS
 70
     0
  9
$AUPREC
 70
     0
  9
$MENU
  1
ACAD
  9
$ELEVATION
 40
0.0
  9
$PELEVATION
 40
0.0
  9
$THICKNESS
 40
0.0
  9
$LIMCHECK
 70
     0
  9
$CHAMFERA
 40
0.0
  9
$CHAMFERB
 40
0.0
  9
$CHAMFERC
 40
0.0
  9
$CHAMFERD
 40
0.0
  9
$SKPOLY
 70
     0
  9
$TDCREATE
 40
2451815.565532581
  9
$TDUCREATE
 40
2451815.190532581
  9
$TDUPDATE
 40
2454838.561510845
  9
$TDUUPDATE
 40
2454838.186510845
  9
$TDINDWG
 40
1.3466265394
  9
$TDUSRTIMER
 40
1.3466265394
  9
$USRTIMER
 70
     1
  9
$ANGBASE
 50
0.0
  9
$ANGDIR
 70
     0
  9
$PDMODE
 70
     0
  9
$PDSIZE
 40
0.0
  9
$PLINEWID
 40
0.0
  9
$SPLFRAME
 70
     0
  9
$SPLINETYPE
 70
     6
  9
$SPLINESEGS
 70
     8
  9
$HANDSEED
  5
64D
  9
$SURFTAB1
 70
     6
  9
$SURFTAB2
 70
     6
  9
$SURFTYPE
 70
     6
  9
$SURFU
 70
     6
  9
$SURFV
 70
     6
  9
$UCSBASE
  2

  9
$UCSNAME
  2

  9
$UCSORG
 10
0.0
 20
0.0
 30
0.0
  9
$UCSXDIR
 10
1.0
 20
0.0
 30
0.0
  9
$UCSYDIR
 10
0.0
 20
1.0
 30
0.0
  9
$UCSORTHOREF
  2

  9
$UCSORTHOVIEW
 70
     0
  9
$UCSORGTOP
 10
0.0
 20
0.0
 30
0.0
  9
$UCSORGBOTTOM
 10
0.0
 20
0.0
 30
0.0
  9
$UCSORGLEFT
 10
0.0
 20
0.0
 30
0.0
  9
$UCSORGRIGHT
 10
0.0
 20
0.0
 30
0.0
  9
$UCSORGFRONT
 10
0.0
 20
0.0
 30
0.0
  9
$UCSORGBACK
 10
0.0
 20
0.0
 30
0.0
  9
$PUCSBASE
  2

  9
$PUCSNAME
  2

  9
$PUCSORG
 10
0.0
 20
0.0
 30
0.0
  9
$PUCSXDIR
 10
1.0
 20
0.0
 30
0.0
  9
$PUCSYDIR
 10
0.0
 20
1.0
 30
0.0
  9
$PUCSORTHOREF
  2

  9
$PUCSORTHOVIEW
 70
     0
  9
$PUCSORGTOP
 10
0.0
 20
0.0
 30
0.0
  9
$PUCSORGBOTTOM
 10
0.0
 20
0.0
 30
0.0
  9
$PUCSORGLEFT
 10
0.0
 20
0.0
 30
0.0
  9
$PUCSORGRIGHT
 10
0.0
 20
0.0
 30
0.0
  9
$PUCSORGFRONT
 10
0.0
 20
0.0
 30
0.0
  9
$PUCSORGBACK
 10
0.0
 20
0.0
 30
0.0
  9
$USERI1
 70
     0
  9
$USERI2
 70
     0
  9
$USERI3
 70
     0
  9
$USERI4
 70
     0
  9
$USERI5
 70
     0
  9
$USERR1
 40
0.0
  9
$USERR2
 40
0.0
  9
$USERR3
 40
0.0
  9
$USERR4
 40
0.0
  9
$USERR5
 40
0.0
  9
$WORLDVIEW
 70
     1
  9
$SHADEDGE
 70
     3
  9
$SHADEDIF
 70
    70
  9
$TILEMODE
 70
     1
  9
$MAXACTVP
 70
    48
  9
$PINSBASE
 10
0.0
 20
0.0
 30
0.0
  9
$PLIMCHECK
 70
     0
  9
$PEXTMIN
 10
1.000000000000000E+20
 20
1.000000000000000E+20
 30
1.000000000000000E+20
  9
$PEXTMAX
 10
-1.000000000000000E+20
 20
-1.000000000000000E+20
 30
-1.000000000000000E+20
  9
$PLIMMIN
 10
-0.1379166250153789
 20
-0.1712500016520342
  9
$PLIMMAX
 10
16.39708271176796
 20
11.52208270050409
  9
$UNITMODE
 70
     0
  9
$VISRETAIN
 70
     1
  9
$PLINEGEN
 70
     0
  9
$PSLTSCALE
 70
     1
  9
$TREEDEPTH
 70
  3020
  9
$CMLSTYLE
  2
STANDARD
  9
$CMLJUST
 70
     0
  9
$CMLSCALE
 40
1.0
  9
$PROXYGRAPHICS
 70
     1
  9
$MEASUREMENT
 70
     0
  9
$CELWEIGHT
370
    -1
  9
$ENDCAPS
280
     0
  9
$JOINSTYLE
280
     0
  9
$LWDISPLAY
290
     0
  9
$INSUNITS
 70
     0
  9
$HYPERLINKBASE
  1

  9
$STYLESHEET
  1

  9
$XEDIT
290
     1
  9
$CEPSNTYPE
380
     0
  9
$PSTYLEMODE
290
     1
  9
$FINGERPRINTGUID
  2
{1754B7AB-9B3C-11D4-AD9E-00104B1004F2}
  9
$VERSIONGUID
  2
{C4EED2DC-7F34-4AFA-9CCA-A0E0849A86DE}
  9
$EXTNAMES
290
     1
  9
$PSVPSCALE
 40
0.0
  9
$OLESTARTUP
290
     0
  0
ENDSEC
  0
SECTION
  2
CLASSES
  0
CLASS
  1
ACDBDICTIONARYWDFLT
  2
AcDbDictionaryWithDefault
  3
ObjectDBX Classes
 90
        0
280
     0
281
     0
  0
CLASS
  1
ACDBPLACEHOLDER
  2
AcDbPlaceHolder
  3
ObjectDBX Classes
 90
        0
280
     0
281
     0
  0
CLASS
  1
LAYOUT
  2
AcDbLayout
  3
ObjectDBX Classes
 90
        0
280
     0
281
     0
  0
CLASS
  1
DICTIONARYVAR
  2
AcDbDictionaryVar
  3
ObjectDBX Classes
 90
        0
280
     0
281
     0
  0
CLASS
  1
SORTENTSTABLE
  2
AcDbSortentsTable
  3
ObjectDBX Classes
 90
        0
280
     0
281
     0
  0
ENDSEC
  0
SECTION
  2
TABLES
  0
TABLE
  2
VPORT
  5
22
330
0
100
AcDbSymbolTable
 70
     3
  0
VPORT
  5
645
330
22
100
AcDbSymbolTableRecord
100
AcDbViewportTableRecord
  2
*Active
 70
     0
 10
0.0
 20
0.0
 11
1.0
 21
1.0
 12
0.1176864823903827
 22
-45.19218871195062
 13
0.0
 23
0.0
 14
1.0
 24
1.0
 15
0.0
 25
0.0
 16
0.0
 26
0.0
 36
1.0
 17
0.0
 27
0.0
 37
0.0
 40
234.9320958001677
 41
1.411612903225806
 42
50.0
 43
0.0
 44
0.0
 50
0.0
 51
0.0
 71
     0
 72
 10000
 73
     1
 74
     0
 75
     0
 76
     0
 77
     0
 78
     0
281
     0
 65
     1
110
0.0
120
0.0
130
0.0
111
1.0
121
0.0
131
0.0
112
0.0
122
1.0
132
0.0
 79
     0
146
0.0
  0
ENDTAB
  0
TABLE
  2
LTYPE
  5
1D
330
0
100
AcDbSymbolTable
 70
     2
  0
LTYPE
  5
1E
330
1D
100
AcDbSymbolTableRecord
100
AcDbLinetypeTableRecord
  2
BYBLOCK
 70
     0
  3

 72
    65
 73
     0
 40
0.0
  0
LTYPE
  5
1F
330
1D
100
AcDbSymbolTableRecord
100
AcDbLinetypeTableRecord
  2
BYLAYER
 70
     0
  3

 72
    65
 73
     0
 40
0.0
  0
LTYPE
  5
B
330
1D
100
AcDbSymbolTableRecord
100
AcDbLinetypeTableRecord
  2
CONTINUOUS
 70
     0
  3
Solid line
 72
    65
 73
     0
 40
0.0
  0
LTYPE
  5
3B9
330
1D
100
AcDbSymbolTableRecord
100
AcDbLinetypeTableRecord
  2
JWW_DASHEDX2
 70
     0
  3
---------------  ---------------
 72
    65
 73
     2
 40
27.09333333333333
 49
25.4
 74
     0
 49
-1.693333333333333
 74
     0
  0
ENDTAB
  0
TABLE
  2
LAYER
  5
15
102
{ACAD_XDICTIONARY
360
16
102
}
330
0
100
AcDbSymbolTable
 70
     7
  0
LAYER
  5
7
330
15
100
AcDbSymbolTableRecord
100
AcDbLayerTableRecord
  2
0
 70
     0
 62
     7
  6
CONTINUOUS
370
    -3
390
8
  0
LAYER
  5
570
330
15
100
AcDbSymbolTableRecord
100
AcDbLayerTableRecord
  2
DEFPOINTS
 70
     0
 62
     7
  6
CONTINUOUS
290
     0
370
    -3
390
8
  0
LAYER
  5
3C
330
15
100
AcDbSymbolTableRecord
100
AcDbLayerTableRecord
  2
WAKU
 70
     0
 62
     4
  6
CONTINUOUS
370
    -3
390
8
  0
LAYER
  5
37
330
15
100
AcDbSymbolTableRecord
100
AcDbLayerTableRecord
  2
MOJI1
 70
     0
 62
     2
  6
CONTINUOUS
370
    -3
390
8
  0
LAYER
  5
47
330
15
100
AcDbSymbolTableRecord
100
AcDbLayerTableRecord
  2
GAIKEI
 70
     0
 62
     7
  6
CONTINUOUS
370
    -3
390
8
  0
LAYER
  5
3A
330
15
100
AcDbSymbolTableRecord
100
AcDbLayerTableRecord
  2
TOUROKU
 70
     0
 62
     1
  6
CONTINUOUS
370
    -3
390
8
  0
LAYER
  5
34
330
15
100
AcDbSymbolTableRecord
100
AcDbLayerTableRecord
  2
SUNPO
 70
     0
 62
     3
  6
CONTINUOUS
370
    -3
390
8
  0
ENDTAB
  0
TABLE
  2
STYLE
  5
1A
330
0
100
AcDbSymbolTable
 70
     2
  0
STYLE
  5
1B
330
1A
100
AcDbSymbolTableRecord
100
AcDbTextStyleTableRecord
  2
STANDARD
 70
     0
 40
0.0
 41
1.0
 50
0.0
 71
     0
 42
3.0
  3
MONOTXT.shx
  4
BIGFONT.shx
  0
STYLE
  5
38
330
1A
100
AcDbSymbolTableRecord
100
AcDbTextStyleTableRecord
  2
KANJI
 70
     0
 40
0.0
 41
1.0
 50
0.0
 71
     0
 42
3.5
  3
MONOTXT
  4
BIGFONT
  0
ENDTAB
  0
TABLE
  2
VIEW
  5
20
330
0
100
AcDbSymbolTable
 70
     0
  0
ENDTAB
  0
TABLE
  2
UCS
  5
21
330
0
100
AcDbSymbolTable
 70
     0
  0
ENDTAB
  0
TABLE
  2
APPID
  5
24
330
0
100
AcDbSymbolTable
 70
     1
  0
APPID
  5
25
330
24
100
AcDbSymbolTableRecord
100
AcDbRegAppTableRecord
  2
ACAD
 70
     0
  0
ENDTAB
  0
TABLE
  2
DIMSTYLE
  5
26
330
0
100
AcDbSymbolTable
 70
     1
100
AcDbDimStyleTable
 71
     1
340
27
  0
DIMSTYLE
105
27
102
{ACAD_REACTORS
330
566
330
574
330
581
330
58E
330
59B
330
5A8
330
5B5
102
}
330
26
100
AcDbSymbolTableRecord
100
AcDbDimStyleTableRecord
  2
STANDARD
 70
     0
 40
0.0
 41
2.0
 42
2.0
 43
8.0
 44
2.0
 73
     0
 74
     0
 77
     3
140
3.0
141
0.0
173
     1
279
     2
288
     1
340
1B
341
28
343
28
344
28
  0
ENDTAB
  0
TABLE
  2
BLOCK_RECORD
  5
1
330
0
100
AcDbSymbolTable
 70
    15
  0
BLOCK_RECORD
  5
2
102
{ACAD_XDICTIONARY
360
3
102
}
330
1
100
AcDbSymbolTableRecord
100
AcDbBlockTableRecord
  2
*MODEL_SPACE
340
D
  0
BLOCK_RECORD
  5
F
102
{ACAD_XDICTIONARY
360
10
102
}
330
1
100
AcDbSymbolTableRecord
100
AcDbBlockTableRecord
  2
*PAPER_SPACE
340
14
  0
BLOCK_RECORD
  5
28
330
1
100
AcDbSymbolTableRecord
100
AcDbBlockTableRecord
  2
_OPEN30
340
0
102
{BLKREFS
331
5BC
331
5BD
331
5AE
331
5AF
331
5A1
331
5A2
331
594
331
595
331
587
331
588
331
57A
331
57B
331
56C
331
56D
331
5F1
331
5F2
331
5FD
331
5FE
331
609
331
60A
331
615
331
616
331
621
331
622
331
62D
331
62E
331
639
331
63A
102
}
  0
BLOCK_RECORD
  5
567
330
1
100
AcDbSymbolTableRecord
100
AcDbBlockTableRecord
  2
*D1
340
0
  0
BLOCK_RECORD
  5
575
330
1
100
AcDbSymbolTableRecord
100
AcDbBlockTableRecord
  2
*D2
340
0
  0
BLOCK_RECORD
  5
582
330
1
100
AcDbSymbolTableRecord
100
AcDbBlockTableRecord
  2
*D3
340
0
  0
BLOCK_RECORD
  5
58F
330
1
100
AcDbSymbolTableRecord
100
AcDbBlockTableRecord
  2
*D4
340
0
  0
BLOCK_RECORD
  5
59C
330
1
100
AcDbSymbolTableRecord
100
AcDbBlockTableRecord
  2
*D5
340
0
  0
BLOCK_RECORD
  5
5A9
330
1
100
AcDbSymbolTableRecord
100
AcDbBlockTableRecord
  2
*D6
340
0
  0
BLOCK_RECORD
  5
5B6
330
1
100
AcDbSymbolTableRecord
100
AcDbBlockTableRecord
  2
*D7
340
0
  0
BLOCK_RECORD
  5
5EC
330
1
100
AcDbSymbolTableRecord
100
AcDbBlockTableRecord
  2
*D8
340
0
  0
BLOCK_RECORD
  5
5F9
330
1
100
AcDbSymbolTableRecord
100
AcDbBlockTableRecord
  2
*D9
340
0
  0
BLOCK_RECORD
  5
605
330
1
100
AcDbSymbolTableRecord
100
AcDbBlockTableRecord
  2
*D10
340
0
  0
BLOCK_RECORD
  5
611
330
1
100
AcDbSymbolTableRecord
100
AcDbBlockTableRecord
  2
*D11
340
0
  0
BLOCK_RECORD
  5
61D
330
1
100
AcDbSymbolTableRecord
100
AcDbBlockTableRecord
  2
*D12
340
0
  0
BLOCK_RECORD
  5
629
330
1
100
AcDbSymbolTableRecord
100
AcDbBlockTableRecord
  2
*D13
340
0
  0
BLOCK_RECORD
  5
635
330
1
100
AcDbSymbolTableRecord
100
AcDbBlockTableRecord
  2
*D14
340
0
  0
ENDTAB
  0
ENDSEC
  0
SECTION
  2
BLOCKS
  0
BLOCK
  5
6
330
2
100
AcDbEntity
  8
0
100
AcDbBlockBegin
  2
*MODEL_SPACE
 70
     0
 10
0.0
 20
0.0
 30
0.0
  3
*MODEL_SPACE
  1

  0
ENDBLK
  5
C
330
2
100
AcDbEntity
  8
0
100
AcDbBlockEnd
  0
BLOCK
  5
12
330
F
100
AcDbEntity
 67
     1
  8
0
100
AcDbBlockBegin
  2
*PAPER_SPACE
 70
     0
 10
0.0
 20
0.0
 30
0.0
  3
*PAPER_SPACE
  1

  0
ENDBLK
  5
13
330
F
100
AcDbEntity
 67
     1
  8
0
100
AcDbBlockEnd
  0
BLOCK
  5
29
330
28
100
AcDbEntity
  8
0
100
AcDbBlockBegin
  2
_OPEN30
 70
     0
 10
0.0
 20
0.0
 30
0.0
  3
_OPEN30
  1

  0
LINE
  5
2A
330
28
100
AcDbEntity
  8
0
  6
ByBlock
 62
     0
100
AcDbLine
 10
-1.0
 20
0.26794919
 30
0.0
 11
0.0
 21
0.0
 31
0.0
  0
LINE
  5
2B
330
28
100
AcDbEntity
  8
0
  6
ByBlock
 62
     0
100
AcDbLine
 10
0.0
 20
0.0
 30
0.0
 11
-1.0
 21
-0.26794919
 31
0.0
  0
LINE
  5
2C
330
28
100
AcDbEntity
  8
0
  6
ByBlock
 62
     0
100
AcDbLine
 10
0.0
 20
0.0
 30
0.0
 11
-1.0
 21
0.0
 31
0.0
  0
ENDBLK
  5
2D
330
28
100
AcDbEntity
  8
0
100
AcDbBlockEnd
  0
BLOCK
  5
568
330
567
100
AcDbEntity
  8
0
100
AcDbBlockBegin
  2
*D1
 70
     1
 10
0.0
 20
0.0
 30
0.0
  3
*D1
  1

  0
LINE
  5
569
330
567
100
AcDbEntity
  8
SUNPO
 62
     0
370
    -2
100
AcDbLine
 10
22.70790634162176
 20
278.9065578131141
 30
0.0
 11
22.70790634162176
 21
270.9065578131141
 31
0.0
  0
LINE
  5
56A
330
567
100
AcDbEntity
  8
SUNPO
 62
     0
370
    -2
100
AcDbLine
 10
61.7078981384025
 20
278.9065578131141
 30
0.0
 11
61.7078981384025
 21
270.9065578131141
 31
0.0
  0
LINE
  5
56B
330
567
100
AcDbEntity
  8
SUNPO
 62
     0
370
    -2
100
AcDbLine
 10
24.70790634162177
 20
272.9065578131141
 30
0.0
 11
59.7078981384025
 21
272.9065578131141
 31
0.0
  0
INSERT
  5
56C
330
567
100
AcDbEntity
  8
SUNPO
 62
     0
370
    -2
100
AcDbBlockReference
  2
_OPEN30
 10
22.70790634162176
 20
272.9065578131141
 30
0.0
 41
2.0
 42
2.0
 43
2.0
 50
180.0
  0
INSERT
  5
56D
330
567
100
AcDbEntity
  8
SUNPO
 62
     0
370
    -2
100
AcDbBlockReference
  2
_OPEN30
 10
61.7078981384025
 20
272.9065578131141
 30
0.0
 41
2.0
 42
2.0
 43
2.0
  0
MTEXT
  5
56E
330
567
100
AcDbEntity
  8
SUNPO
 62
     0
100
AcDbMText
 10
42.20790224001213
 20
274.6565578131141
 30
0.0
 40
2.5
 41
0.0
 71
     5
 72
     1
  1
\A1;約390
 73
     1
 44
1.0
1001
ACAD
1000
MTEXTBEGIN
1070
    73
1070
     1
1070
    44
1040
1.0
1070
    74
1070
     0
1000
MTEXTEND
  0
POINT
  5
56F
330
567
100
AcDbEntity
  8
DEFPOINTS
 62
     0
100
AcDbPoint
 10
22.70790634162176
 20
280.9065578131141
 30
0.0
  0
POINT
  5
571
330
567
100
AcDbEntity
  8
DEFPOINTS
 62
     0
100
AcDbPoint
 10
61.7078981384025
 20
280.9065578131141
 30
0.0
  0
POINT
  5
572
330
567
100
AcDbEntity
  8
DEFPOINTS
 62
     0
100
AcDbPoint
 10
61.7078981384025
 20
272.9065578131141
 30
0.0
  0
ENDBLK
  5
573
330
567
100
AcDbEntity
  8
0
100
AcDbBlockEnd
  0
BLOCK
  5
576
330
575
100
AcDbEntity
  8
0
100
AcDbBlockBegin
  2
*D2
 70
     1
 10
0.0
 20
0.0
 30
0.0
  3
*D2
  1

  0
LINE
  5
577
330
575
100
AcDbEntity
  8
SUNPO
 62
     0
370
    -2
100
AcDbLine
 10
63.75039813840249
 20
280.9065578131141
 30
0.0
 11
71.75039813840247
 21
280.9065578131141
 31
0.0
  0
LINE
  5
578
330
575
100
AcDbEntity
  8
SUNPO
 62
     0
370
    -2
100
AcDbLine
 10
63.75039813840249
 20
333.0065570531204
 30
0.0
 11
71.75039813840249
 21
333.0065570531204
 31
0.0
  0
LINE
  5
579
330
575
100
AcDbEntity
  8
SUNPO
 62
     0
370
    -2
100
AcDbLine
 10
69.75039813840247
 20
282.9065578131142
 30
0.0
 11
69.75039813840249
 21
331.0065570531204
 31
0.0
  0
INSERT
  5
57A
330
575
100
AcDbEntity
  8
SUNPO
 62
     0
370
    -2
100
AcDbBlockReference
  2
_OPEN30
 10
69.75039813840247
 20
280.9065578131141
 30
0.0
 41
2.0
 42
2.0
 43
2.0
 50
270.0
  0
INSERT
  5
57B
330
575
100
AcDbEntity
  8
SUNPO
 62
     0
370
    -2
100
AcDbBlockReference
  2
_OPEN30
 10
69.75039813840249
 20
333.0065570531204
 30
0.0
 41
2.0
 42
2.0
 43
2.0
 50
90.0
  0
MTEXT
  5
57C
330
575
100
AcDbEntity
  8
SUNPO
 62
     0
100
AcDbMText
 10
68.00039813840243
 20
306.9565574331173
 30
0.0
 40
2.5
 41
0.0
 71
     5
 72
     1
  1
\A1;約520
 11
0.0000000000000001
 21
1.0
 31
0.0
 73
     1
 44
1.0
1001
ACAD
1000
MTEXTBEGIN
1070
    73
1070
     1
1070
    44
1040
1.0
1070
    74
1070
     0
1000
MTEXTEND
  0
POINT
  5
57D
330
575
100
AcDbEntity
  8
DEFPOINTS
 62
     0
100
AcDbPoint
 10
61.75039813840249
 20
280.9065578131141
 30
0.0
  0
POINT
  5
57E
330
575
100
AcDbEntity
  8
DEFPOINTS
 62
     0
100
AcDbPoint
 10
61.75039813840249
 20
333.0065570531204
 30
0.0
  0
POINT
  5
57F
330
575
100
AcDbEntity
  8
DEFPOINTS
 62
     0
100
AcDbPoint
 10
69.75039813840249
 20
333.0065570531204
 30
0.0
  0
ENDBLK
  5
580
330
575
100
AcDbEntity
  8
0
100
AcDbBlockEnd
  0
BLOCK
  5
583
330
582
100
AcDbEntity
  8
0
100
AcDbBlockBegin
  2
*D3
 70
     1
 10
0.0
 20
0.0
 30
0.0
  3
*D3
  1

  0
LINE
  5
584
330
582
100
AcDbEntity
  8
SUNPO
 62
     0
370
    -2
100
AcDbLine
 10
85.7106128213786
 20
278.9065578131142
 30
0.0
 11
85.7106128213786
 21
270.9065578131142
 31
0.0
  0
LINE
  5
585
330
582
100
AcDbEntity
  8
SUNPO
 62
     0
370
    -2
100
AcDbLine
 10
111.6106128213786
 20
278.9065578131142
 30
0.0
 11
111.6106128213786
 21
270.9065578131142
 31
0.0
  0
LINE
  5
586
330
582
100
AcDbEntity
  8
SUNPO
 62
     0
370
    -2
100
AcDbLine
 10
87.71061282137859
 20
272.9065578131142
 30
0.0
 11
109.6106128213786
 21
272.9065578131142
 31
0.0
  0
INSERT
  5
587
330
582
100
AcDbEntity
  8
SUNPO
 62
     0
370
    -2
100
AcDbBlockReference
  2
_OPEN30
 10
85.7106128213786
 20
272.9065578131142
 30
0.0
 41
2.0
 42
2.0
 43
2.0
 50
180.0
  0
INSERT
  5
588
330
582
100
AcDbEntity
  8
SUNPO
 62
     0
370
    -2
100
AcDbBlockReference
  2
_OPEN30
 10
111.6106128213786
 20
272.9065578131142
 30
0.0
 41
2.0
 42
2.0
 43
2.0
  0
MTEXT
  5
589
330
582
100
AcDbEntity
  8
SUNPO
 62
     0
100
AcDbMText
 10
98.66061282137859
 20
274.6565578131142
 30
0.0
 40
2.5
 41
0.0
 71
     5
 72
     1
  1
\A1;約259
 73
     1
 44
1.0
1001
ACAD
1000
MTEXTBEGIN
1070
    73
1070
     1
1070
    44
1040
1.0
1070
    74
1070
     0
1000
MTEXTEND
  0
POINT
  5
58A
330
582
100
AcDbEntity
  8
DEFPOINTS
 62
     0
100
AcDbPoint
 10
85.7106128213786
 20
280.9065578131142
 30
0.0
  0
POINT
  5
58B
330
582
100
AcDbEntity
  8
DEFPOINTS
 62
     0
100
AcDbPoint
 10
111.6106128213786
 20
280.9065578131142
 30
0.0
  0
POINT
  5
58C
330
582
100
AcDbEntity
  8
DEFPOINTS
 62
     0
100
AcDbPoint
 10
111.6106128213786
 20
272.9065578131142
 30
0.0
  0
ENDBLK
  5
58D
330
582
100
AcDbEntity
  8
0
100
AcDbBlockEnd
  0
BLOCK
  5
590
330
58F
100
AcDbEntity
  8
0
100
AcDbBlockBegin
  2
*D4
 70
     1
 10
0.0
 20
0.0
 30
0.0
  3
*D4
  1

  0
LINE
  5
591
330
58F
100
AcDbEntity
  8
SUNPO
 62
     0
370
    -2
100
AcDbLine
 10
24.15789706145015
 20
333.4992141396416
 30
0.0
 11
24.15789706145015
 21
341.4992141396417
 31
0.0
  0
LINE
  5
592
330
58F
100
AcDbEntity
  8
SUNPO
 62
     0
370
    -2
100
AcDbLine
 10
60.25789750919838
 20
333.4992141396417
 30
0.0
 11
60.25789750919838
 21
341.4992141396417
 31
0.0
  0
LINE
  5
593
330
58F
100
AcDbEntity
  8
SUNPO
 62
     0
370
    -2
100
AcDbLine
 10
26.15789706145014
 20
339.4992141396417
 30
0.0
 11
58.25789750919838
 21
339.4992141396417
 31
0.0
  0
INSERT
  5
594
330
58F
100
AcDbEntity
  8
SUNPO
 62
     0
370
    -2
100
AcDbBlockReference
  2
_OPEN30
 10
24.15789706145015
 20
339.4992141396417
 30
0.0
 41
2.0
 42
2.0
 43
2.0
 50
180.0
  0
INSERT
  5
595
330
58F
100
AcDbEntity
  8
SUNPO
 62
     0
370
    -2
100
AcDbBlockReference
  2
_OPEN30
 10
60.25789750919838
 20
339.4992141396417
 30
0.0
 41
2.0
 42
2.0
 43
2.0
  0
MTEXT
  5
596
330
58F
100
AcDbEntity
  8
SUNPO
 62
     0
100
AcDbMText
 10
42.20789728532426
 20
341.2492141396417
 30
0.0
 40
2.5
 41
0.0
 71
     5
 72
     1
  1
\A1;約361
 73
     1
 44
1.0
1001
ACAD
1000
MTEXTBEGIN
1070
    73
1070
     1
1070
    44
1040
1.0
1070
    74
1070
     0
1000
MTEXTEND
  0
POINT
  5
597
330
58F
100
AcDbEntity
  8
DEFPOINTS
 62
     0
100
AcDbPoint
 10
24.15789706145015
 20
331.4992141396416
 30
0.0
  0
POINT
  5
598
330
58F
100
AcDbEntity
  8
DEFPOINTS
 62
     0
100
AcDbPoint
 10
60.25789750919838
 20
331.4992141396417
 30
0.0
  0
POINT
  5
599
330
58F
100
AcDbEntity
  8
DEFPOINTS
 62
     0
100
AcDbPoint
 10
60.25789750919838
 20
339.4992141396417
 30
0.0
  0
ENDBLK
  5
59A
330
58F
100
AcDbEntity
  8
0
100
AcDbBlockEnd
  0
BLOCK
  5
59D
330
59C
100
AcDbEntity
  8
0
100
AcDbBlockBegin
  2
*D5
 70
     1
 10
0.0
 20
0.0
 30
0.0
  3
*D5
  1

  0
LINE
  5
59E
330
59C
100
AcDbEntity
  8
SUNPO
 62
     0
370
    -2
100
AcDbLine
 10
85.71062064957335
 20
333.4992141396416
 30
0.0
 11
85.71062064957335
 21
341.4992141396417
 31
0.0
  0
LINE
  5
59F
330
59C
100
AcDbEntity
  8
SUNPO
 62
     0
370
    -2
100
AcDbLine
 10
108.4106155019767
 20
333.4992141396417
 30
0.0
 11
108.4106155019767
 21
341.4992141396417
 31
0.0
  0
LINE
  5
5A0
330
59C
100
AcDbEntity
  8
SUNPO
 62
     0
370
    -2
100
AcDbLine
 10
87.71062064957334
 20
339.4992141396417
 30
0.0
 11
106.4106155019767
 21
339.4992141396417
 31
0.0
  0
INSERT
  5
5A1
330
59C
100
AcDbEntity
  8
SUNPO
 62
     0
370
    -2
100
AcDbBlockReference
  2
_OPEN30
 10
85.71062064957335
 20
339.4992141396417
 30
0.0
 41
2.0
 42
2.0
 43
2.0
 50
180.0
  0
INSERT
  5
5A2
330
59C
100
AcDbEntity
  8
SUNPO
 62
     0
370
    -2
100
AcDbBlockReference
  2
_OPEN30
 10
108.4106155019767
 20
339.4992141396417
 30
0.0
 41
2.0
 42
2.0
 43
2.0
  0
MTEXT
  5
5A3
330
59C
100
AcDbEntity
  8
SUNPO
 62
     0
100
AcDbMText
 10
97.06061807577501
 20
341.2492141396417
 30
0.0
 40
2.5
 41
0.0
 71
     5
 72
     1
  1
\A1;約227
 73
     1
 44
1.0
1001
ACAD
1000
MTEXTBEGIN
1070
    73
1070
     1
1070
    44
1040
1.0
1070
    74
1070
     0
1000
MTEXTEND
  0
POINT
  5
5A4
330
59C
100
AcDbEntity
  8
DEFPOINTS
 62
     0
100
AcDbPoint
 10
85.71062064957335
 20
331.4992141396416
 30
0.0
  0
POINT
  5
5A5
330
59C
100
AcDbEntity
  8
DEFPOINTS
 62
     0
100
AcDbPoint
 10
108.4106155019767
 20
331.4992141396417
 30
0.0
  0
POINT
  5
5A6
330
59C
100
AcDbEntity
  8
DEFPOINTS
 62
     0
100
AcDbPoint
 10
108.4106155019767
 20
339.4992141396417
 30
0.0
  0
ENDBLK
  5
5A7
330
59C
100
AcDbEntity
  8
0
100
AcDbBlockEnd
  0
BLOCK
  5
5AA
330
5A9
100
AcDbEntity
  8
0
100
AcDbBlockBegin
  2
*D6
 70
     1
 10
0.0
 20
0.0
 30
0.0
  3
*D6
  1

  0
LINE
  5
5AB
330
5A9
100
AcDbEntity
  8
SUNPO
 62
     0
370
    -2
100
AcDbLine
 10
22.17806765420491
 20
333.0065570531204
 30
0.0
 11
14.17806765420492
 21
333.0065570531204
 31
0.0
  0
LINE
  5
5AC
330
5A9
100
AcDbEntity
  8
SUNPO
 62
     0
370
    -2
100
AcDbLine
 10
22.17806765420491
 20
287.9065570531204
 30
0.0
 11
14.17806765420491
 21
287.9065570531204
 31
0.0
  0
LINE
  5
5AD
330
5A9
100
AcDbEntity
  8
SUNPO
 62
     0
370
    -2
100
AcDbLine
 10
16.17806765420492
 20
331.0065570531204
 30
0.0
 11
16.17806765420491
 21
289.9065570531204
 31
0.0
  0
INSERT
  5
5AE
330
5A9
100
AcDbEntity
  8
SUNPO
 62
     0
370
    -2
100
AcDbBlockReference
  2
_OPEN30
 10
16.17806765420492
 20
333.0065570531204
 30
0.0
 41
2.0
 42
2.0
 43
2.0
 50
90.0
  0
INSERT
  5
5AF
330
5A9
100
AcDbEntity
  8
SUNPO
 62
     0
370
    -2
100
AcDbBlockReference
  2
_OPEN30
 10
16.17806765420491
 20
287.9065570531204
 30
0.0
 41
2.0
 42
2.0
 43
2.0
 50
270.0
  0
MTEXT
  5
5B0
330
5A9
100
AcDbEntity
  8
SUNPO
 62
     0
100
AcDbMText
 10
14.42806765420486
 20
310.4565570531204
 30
0.0
 40
2.5
 41
0.0
 71
     5
 72
     1
  1
\A1;約451
 11
0.0000000000000001
 21
1.0
 31
0.0
 73
     1
 44
1.0
1001
ACAD
1000
MTEXTBEGIN
1070
    73
1070
     1
1070
    44
1040
1.0
1070
    74
1070
     0
1000
MTEXTEND
  0
POINT
  5
5B1
330
5A9
100
AcDbEntity
  8
DEFPOINTS
 62
     0
100
AcDbPoint
 10
24.17806765420491
 20
333.0065570531204
 30
0.0
  0
POINT
  5
5B2
330
5A9
100
AcDbEntity
  8
DEFPOINTS
 62
     0
100
AcDbPoint
 10
24.17806765420491
 20
287.9065570531204
 30
0.0
  0
POINT
  5
5B3
330
5A9
100
AcDbEntity
  8
DEFPOINTS
 62
     0
100
AcDbPoint
 10
16.17806765420491
 20
287.9065570531204
 30
0.0
  0
ENDBLK
  5
5B4
330
5A9
100
AcDbEntity
  8
0
100
AcDbBlockEnd
  0
BLOCK
  5
5B7
330
5B6
100
AcDbEntity
  8
0
100
AcDbBlockBegin
  2
*D7
 70
     1
 10
0.0
 20
0.0
 30
0.0
  3
*D7
  1

  0
LINE
  5
5B8
330
5B6
100
AcDbEntity
  8
SUNPO
 62
     0
370
    -2
100
AcDbLine
 10
22.17806765420491
 20
287.9065570531204
 30
0.0
 11
14.17806765420491
 21
287.9065570531204
 31
0.0
  0
LINE
  5
5B9
330
5B6
100
AcDbEntity
  8
SUNPO
 62
     0
370
    -2
100
AcDbLine
 10
22.17806765420491
 20
280.9065578131141
 30
0.0
 11
14.17806765420491
 21
280.9065578131141
 31
0.0
  0
LINE
  5
5BA
330
5B6
100
AcDbEntity
  8
SUNPO
 62
     0
370
    -2
100
AcDbLine
 10
16.17806765420491
 20
285.9065570531204
 30
0.0
 11
16.17806765420491
 21
282.9065578131142
 31
0.0
  0
LINE
  5
5BB
330
5B6
100
AcDbEntity
  8
SUNPO
 62
     0
370
    -2
100
AcDbLine
 10
16.17806765420491
 20
280.9065578131141
 30
0.0
 11
16.1780676542049
 21
270.7398911464474
 31
0.0
  0
INSERT
  5
5BC
330
5B6
100
AcDbEntity
  8
SUNPO
 62
     0
370
    -2
100
AcDbBlockReference
  2
_OPEN30
 10
16.17806765420491
 20
287.9065570531204
 30
0.0
 41
2.0
 42
2.0
 43
2.0
 50
90.0
  0
INSERT
  5
5BD
330
5B6
100
AcDbEntity
  8
SUNPO
 62
     0
370
    -2
100
AcDbBlockReference
  2
_OPEN30
 10
16.17806765420491
 20
280.9065578131141
 30
0.0
 41
2.0
 42
2.0
 43
2.0
 50
270.0
  0
MTEXT
  5
5BE
330
5B6
100
AcDbEntity
  8
SUNPO
 62
     0
100
AcDbMText
 10
14.42806765420486
 20
274.8232244797808
 30
0.0
 40
2.5
 41
0.0
 71
     5
 72
     1
  1
\A1;約69
 11
0.0000000000000001
 21
1.0
 31
0.0
 73
     1
 44
1.0
1001
ACAD
1000
MTEXTBEGIN
1070
    73
1070
     1
1070
    44
1040
1.0
1070
    74
1070
     0
1000
MTEXTEND
  0
POINT
  5
5BF
330
5B6
100
AcDbEntity
  8
DEFPOINTS
 62
     0
100
AcDbPoint
 10
24.17806765420491
 20
287.9065570531204
 30
0.0
  0
POINT
  5
5C0
330
5B6
100
AcDbEntity
  8
DEFPOINTS
 62
     0
100
AcDbPoint
 10
24.17806765420491
 20
280.9065578131141
 30
0.0
  0
POINT
  5
5C1
330
5B6
100
AcDbEntity
  8
DEFPOINTS
 62
     0
100
AcDbPoint
 10
16.17806765420491
 20
280.9065578131141
 30
0.0
  0
ENDBLK
  5
5C2
330
5B6
100
AcDbEntity
  8
0
100
AcDbBlockEnd
  0
BLOCK
  5
5F7
330
5EC
100
AcDbEntity
  8
0
100
AcDbBlockBegin
  2
*D8
 70
     1
 10
0.0
 20
0.0
 30
0.0
  3
*D8
  1

  0
LINE
  5
5ED
330
5EC
100
AcDbEntity
  8
SUNPO
 62
     0
370
    -2
100
AcDbLine
 10
-42.22288171609753
 20
-11.32947823554133
 30
0.0
 11
-50.22288171609752
 21
-11.32947823554133
 31
0.0
  0
LINE
  5
5EE
330
5EC
100
AcDbEntity
  8
SUNPO
 62
     0
370
    -2
100
AcDbLine
 10
-42.22288171609753
 20
-18.32947747554755
 30
0.0
 11
-50.22288171609753
 21
-18.32947747554755
 31
0.0
  0
LINE
  5
5EF
330
5EC
100
AcDbEntity
  8
SUNPO
 62
     0
370
    -2
100
AcDbLine
 10
-48.22288171609752
 20
-13.32947823554133
 30
0.0
 11
-48.22288171609753
 21
-16.32947747554755
 31
0.0
  0
LINE
  5
5F0
330
5EC
100
AcDbEntity
  8
SUNPO
 62
     0
370
    -2
100
AcDbLine
 10
-48.22288171609753
 20
-18.32947747554755
 30
0.0
 11
-48.22288171609753
 21
-28.49614414221422
 31
0.0
  0
INSERT
  5
5F1
330
5EC
100
AcDbEntity
  8
SUNPO
 62
     0
370
    -2
100
AcDbBlockReference
  2
_OPEN30
 10
-48.22288171609752
 20
-11.32947823554133
 30
0.0
 41
2.0
 42
2.0
 43
2.0
 50
90.0
  0
INSERT
  5
5F2
330
5EC
100
AcDbEntity
  8
SUNPO
 62
     0
370
    -2
100
AcDbBlockReference
  2
_OPEN30
 10
-48.22288171609753
 20
-18.32947747554755
 30
0.0
 41
2.0
 42
2.0
 43
2.0
 50
270.0
  0
MTEXT
  5
5F3
330
5EC
100
AcDbEntity
  8
SUNPO
 62
     0
100
AcDbMText
 10
-49.97288171609753
 20
-24.41281080888089
 30
0.0
 40
2.5
 41
0.0
 71
     5
 72
     1
  1
\A1;約69
 11
0.0000000000000001
 21
1.0
 31
0.0
 73
     1
 44
1.0
1001
ACAD
1000
MTEXTBEGIN
1070
    73
1070
     1
1070
    44
1040
1.0
1070
    74
1070
     0
1000
MTEXTEND
  0
POINT
  5
5F4
330
5EC
100
AcDbEntity
  8
DEFPOINTS
 62
     0
100
AcDbPoint
 10
-40.22288171609753
 20
-11.32947823554133
 30
0.0
  0
POINT
  5
5F5
330
5EC
100
AcDbEntity
  8
DEFPOINTS
 62
     0
100
AcDbPoint
 10
-40.22288171609753
 20
-18.32947747554755
 30
0.0
  0
POINT
  5
5F6
330
5EC
100
AcDbEntity
  8
DEFPOINTS
 62
     0
100
AcDbPoint
 10
-48.22288171609753
 20
-18.32947747554755
 30
0.0
  0
ENDBLK
  5
5F8
330
5EC
100
AcDbEntity
  8
0
100
AcDbBlockEnd
  0
BLOCK
  5
603
330
5F9
100
AcDbEntity
  8
0
100
AcDbBlockBegin
  2
*D9
 70
     1
 10
0.0
 20
0.0
 30
0.0
  3
*D9
  1

  0
LINE
  5
5FA
330
5F9
100
AcDbEntity
  8
SUNPO
 62
     0
370
    -2
100
AcDbLine
 10
-42.22288171609753
 20
33.77052176445869
 30
0.0
 11
-50.22288171609752
 21
33.7705217644587
 31
0.0
  0
LINE
  5
5FB
330
5F9
100
AcDbEntity
  8
SUNPO
 62
     0
370
    -2
100
AcDbLine
 10
-42.22288171609753
 20
-11.32947823554133
 30
0.0
 11
-50.22288171609753
 21
-11.32947823554133
 31
0.0
  0
LINE
  5
5FC
330
5F9
100
AcDbEntity
  8
SUNPO
 62
     0
370
    -2
100
AcDbLine
 10
-48.22288171609752
 20
31.7705217644587
 30
0.0
 11
-48.22288171609753
 21
-9.329478235541328
 31
0.0
  0
INSERT
  5
5FD
330
5F9
100
AcDbEntity
  8
SUNPO
 62
     0
370
    -2
100
AcDbBlockReference
  2
_OPEN30
 10
-48.22288171609752
 20
33.7705217644587
 30
0.0
 41
2.0
 42
2.0
 43
2.0
 50
90.0
  0
INSERT
  5
5FE
330
5F9
100
AcDbEntity
  8
SUNPO
 62
     0
370
    -2
100
AcDbBlockReference
  2
_OPEN30
 10
-48.22288171609753
 20
-11.32947823554133
 30
0.0
 41
2.0
 42
2.0
 43
2.0
 50
270.0
  0
MTEXT
  5
5FF
330
5F9
100
AcDbEntity
  8
SUNPO
 62
     0
100
AcDbMText
 10
-49.97288171609753
 20
11.22052176445867
 30
0.0
 40
2.5
 41
0.0
 71
     5
 72
     1
  1
\A1;約451
 11
0.0000000000000001
 21
1.0
 31
0.0
 73
     1
 44
1.0
1001
ACAD
1000
MTEXTBEGIN
1070
    73
1070
     1
1070
    44
1040
1.0
1070
    74
1070
     0
1000
MTEXTEND
  0
POINT
  5
600
330
5F9
100
AcDbEntity
  8
DEFPOINTS
 62
     0
100
AcDbPoint
 10
-40.22288171609753
 20
33.77052176445869
 30
0.0
  0
POINT
  5
601
330
5F9
100
AcDbEntity
  8
DEFPOINTS
 62
     0
100
AcDbPoint
 10
-40.22288171609753
 20
-11.32947823554133
 30
0.0
  0
POINT
  5
602
330
5F9
100
AcDbEntity
  8
DEFPOINTS
 62
     0
100
AcDbPoint
 10
-48.22288171609753
 20
-11.32947823554133
 30
0.0
  0
ENDBLK
  5
604
330
5F9
100
AcDbEntity
  8
0
100
AcDbBlockEnd
  0
BLOCK
  5
60F
330
605
100
AcDbEntity
  8
0
100
AcDbBlockBegin
  2
*D10
 70
     1
 10
0.0
 20
0.0
 30
0.0
  3
*D10
  1

  0
LINE
  5
606
330
605
100
AcDbEntity
  8
SUNPO
 62
     0
370
    -2
100
AcDbLine
 10
21.3096712792709
 20
34.26317885097996
 30
0.0
 11
21.3096712792709
 21
42.26317885098
 31
0.0
  0
LINE
  5
607
330
605
100
AcDbEntity
  8
SUNPO
 62
     0
370
    -2
100
AcDbLine
 10
44.00966613167423
 20
34.26317885098001
 30
0.0
 11
44.00966613167423
 21
42.26317885098
 31
0.0
  0
LINE
  5
608
330
605
100
AcDbEntity
  8
SUNPO
 62
     0
370
    -2
100
AcDbLine
 10
23.3096712792709
 20
40.26317885098001
 30
0.0
 11
42.00966613167423
 21
40.26317885098001
 31
0.0
  0
INSERT
  5
609
330
605
100
AcDbEntity
  8
SUNPO
 62
     0
370
    -2
100
AcDbBlockReference
  2
_OPEN30
 10
21.3096712792709
 20
40.26317885098001
 30
0.0
 41
2.0
 42
2.0
 43
2.0
 50
180.0
  0
INSERT
  5
60A
330
605
100
AcDbEntity
  8
SUNPO
 62
     0
370
    -2
100
AcDbBlockReference
  2
_OPEN30
 10
44.00966613167423
 20
40.26317885098001
 30
0.0
 41
2.0
 42
2.0
 43
2.0
  0
MTEXT
  5
60B
330
605
100
AcDbEntity
  8
SUNPO
 62
     0
100
AcDbMText
 10
32.65966870547257
 20
42.01317885098001
 30
0.0
 40
2.5
 41
0.0
 71
     5
 72
     1
  1
\A1;約227
 73
     1
 44
1.0
1001
ACAD
1000
MTEXTBEGIN
1070
    73
1070
     1
1070
    44
1040
1.0
1070
    74
1070
     0
1000
MTEXTEND
  0
POINT
  5
60C
330
605
100
AcDbEntity
  8
DEFPOINTS
 62
     0
100
AcDbPoint
 10
21.3096712792709
 20
32.26317885097996
 30
0.0
  0
POINT
  5
60D
330
605
100
AcDbEntity
  8
DEFPOINTS
 62
     0
100
AcDbPoint
 10
44.00966613167423
 20
32.26317885098001
 30
0.0
  0
POINT
  5
60E
330
605
100
AcDbEntity
  8
DEFPOINTS
 62
     0
100
AcDbPoint
 10
44.00966613167423
 20
40.26317885098001
 30
0.0
  0
ENDBLK
  5
610
330
605
100
AcDbEntity
  8
0
100
AcDbBlockEnd
  0
BLOCK
  5
61B
330
611
100
AcDbEntity
  8
0
100
AcDbBlockBegin
  2
*D11
 70
     1
 10
0.0
 20
0.0
 30
0.0
  3
*D11
  1

  0
LINE
  5
612
330
611
100
AcDbEntity
  8
SUNPO
 62
     0
370
    -2
100
AcDbLine
 10
-40.2430523088523
 20
34.26317885097996
 30
0.0
 11
-40.2430523088523
 21
42.26317885098
 31
0.0
  0
LINE
  5
613
330
611
100
AcDbEntity
  8
SUNPO
 62
     0
370
    -2
100
AcDbLine
 10
-4.143051861104055
 20
34.26317885098001
 30
0.0
 11
-4.143051861104054
 21
42.26317885098
 31
0.0
  0
LINE
  5
614
330
611
100
AcDbEntity
  8
SUNPO
 62
     0
370
    -2
100
AcDbLine
 10
-38.2430523088523
 20
40.26317885098001
 30
0.0
 11
-6.143051861104054
 21
40.26317885098001
 31
0.0
  0
INSERT
  5
615
330
611
100
AcDbEntity
  8
SUNPO
 62
     0
370
    -2
100
AcDbBlockReference
  2
_OPEN30
 10
-40.2430523088523
 20
40.26317885098001
 30
0.0
 41
2.0
 42
2.0
 43
2.0
 50
180.0
  0
INSERT
  5
616
330
611
100
AcDbEntity
  8
SUNPO
 62
     0
370
    -2
100
AcDbBlockReference
  2
_OPEN30
 10
-4.143051861104054
 20
40.26317885098001
 30
0.0
 41
2.0
 42
2.0
 43
2.0
  0
MTEXT
  5
617
330
611
100
AcDbEntity
  8
SUNPO
 62
     0
100
AcDbMText
 10
-22.19305208497818
 20
42.01317885098001
 30
0.0
 40
2.5
 41
0.0
 71
     5
 72
     1
  1
\A1;約361
 73
     1
 44
1.0
1001
ACAD
1000
MTEXTBEGIN
1070
    73
1070
     1
1070
    44
1040
1.0
1070
    74
1070
     0
1000
MTEXTEND
  0
POINT
  5
618
330
611
100
AcDbEntity
  8
DEFPOINTS
 62
     0
100
AcDbPoint
 10
-40.2430523088523
 20
32.26317885097996
 30
0.0
  0
POINT
  5
619
330
611
100
AcDbEntity
  8
DEFPOINTS
 62
     0
100
AcDbPoint
 10
-4.143051861104055
 20
32.26317885098001
 30
0.0
  0
POINT
  5
61A
330
611
100
AcDbEntity
  8
DEFPOINTS
 62
     0
100
AcDbPoint
 10
-4.143051861104054
 20
40.26317885098001
 30
0.0
  0
ENDBLK
  5
61C
330
611
100
AcDbEntity
  8
0
100
AcDbBlockEnd
  0
BLOCK
  5
627
330
61D
100
AcDbEntity
  8
0
100
AcDbBlockBegin
  2
*D12
 70
     1
 10
0.0
 20
0.0
 30
0.0
  3
*D12
  1

  0
LINE
  5
61E
330
61D
100
AcDbEntity
  8
SUNPO
 62
     0
370
    -2
100
AcDbLine
 10
21.30966345107615
 20
-20.32947747554749
 30
0.0
 11
21.30966345107615
 21
-28.32947747554749
 31
0.0
  0
LINE
  5
61F
330
61D
100
AcDbEntity
  8
SUNPO
 62
     0
370
    -2
100
AcDbLine
 10
47.20966345107615
 20
-20.32947747554749
 30
0.0
 11
47.20966345107615
 21
-28.32947747554749
 31
0.0
  0
LINE
  5
620
330
61D
100
AcDbEntity
  8
SUNPO
 62
     0
370
    -2
100
AcDbLine
 10
23.30966345107615
 20
-26.32947747554749
 30
0.0
 11
45.20966345107615
 21
-26.32947747554749
 31
0.0
  0
INSERT
  5
621
330
61D
100
AcDbEntity
  8
SUNPO
 62
     0
370
    -2
100
AcDbBlockReference
  2
_OPEN30
 10
21.30966345107615
 20
-26.32947747554749
 30
0.0
 41
2.0
 42
2.0
 43
2.0
 50
180.0
  0
INSERT
  5
622
330
61D
100
AcDbEntity
  8
SUNPO
 62
     0
370
    -2
100
AcDbBlockReference
  2
_OPEN30
 10
47.20966345107615
 20
-26.32947747554749
 30
0.0
 41
2.0
 42
2.0
 43
2.0
  0
MTEXT
  5
623
330
61D
100
AcDbEntity
  8
SUNPO
 62
     0
100
AcDbMText
 10
34.25966345107615
 20
-24.57947747554749
 30
0.0
 40
2.5
 41
0.0
 71
     5
 72
     1
  1
\A1;約259
 73
     1
 44
1.0
1001
ACAD
1000
MTEXTBEGIN
1070
    73
1070
     1
1070
    44
1040
1.0
1070
    74
1070
     0
1000
MTEXTEND
  0
POINT
  5
624
330
61D
100
AcDbEntity
  8
DEFPOINTS
 62
     0
100
AcDbPoint
 10
21.30966345107615
 20
-18.32947747554749
 30
0.0
  0
POINT
  5
625
330
61D
100
AcDbEntity
  8
DEFPOINTS
 62
     0
100
AcDbPoint
 10
47.20966345107615
 20
-18.32947747554749
 30
0.0
  0
POINT
  5
626
330
61D
100
AcDbEntity
  8
DEFPOINTS
 62
     0
100
AcDbPoint
 10
47.20966345107615
 20
-26.32947747554749
 30
0.0
  0
ENDBLK
  5
628
330
61D
100
AcDbEntity
  8
0
100
AcDbBlockEnd
  0
BLOCK
  5
633
330
629
100
AcDbEntity
  8
0
100
AcDbBlockBegin
  2
*D13
 70
     1
 10
0.0
 20
0.0
 30
0.0
  3
*D13
  1

  0
LINE
  5
62A
330
629
100
AcDbEntity
  8
SUNPO
 62
     0
370
    -2
100
AcDbLine
 10
-0.6505512318999537
 20
-18.32947747554755
 30
0.0
 11
7.349448768100034
 21
-18.32947747554755
 31
0.0
  0
LINE
  5
62B
330
629
100
AcDbEntity
  8
SUNPO
 62
     0
370
    -2
100
AcDbLine
 10
-0.6505512318999536
 20
33.77052176445869
 30
0.0
 11
7.349448768100046
 21
33.77052176445869
 31
0.0
  0
LINE
  5
62C
330
629
100
AcDbEntity
  8
SUNPO
 62
     0
370
    -2
100
AcDbLine
 10
5.349448768100035
 20
-16.32947747554755
 30
0.0
 11
5.349448768100046
 21
31.77052176445869
 31
0.0
  0
INSERT
  5
62D
330
629
100
AcDbEntity
  8
SUNPO
 62
     0
370
    -2
100
AcDbBlockReference
  2
_OPEN30
 10
5.349448768100034
 20
-18.32947747554755
 30
0.0
 41
2.0
 42
2.0
 43
2.0
 50
270.0
  0
INSERT
  5
62E
330
629
100
AcDbEntity
  8
SUNPO
 62
     0
370
    -2
100
AcDbBlockReference
  2
_OPEN30
 10
5.349448768100046
 20
33.77052176445869
 30
0.0
 41
2.0
 42
2.0
 43
2.0
 50
90.0
  0
MTEXT
  5
62F
330
629
100
AcDbEntity
  8
SUNPO
 62
     0
100
AcDbMText
 10
3.599448768100039
 20
7.720522144455571
 30
0.0
 40
2.5
 41
0.0
 71
     5
 72
     1
  1
\A1;約520
 11
0.0000000000000001
 21
1.0
 31
0.0
 73
     1
 44
1.0
1001
ACAD
1000
MTEXTBEGIN
1070
    73
1070
     1
1070
    44
1040
1.0
1070
    74
1070
     0
1000
MTEXTEND
  0
POINT
  5
630
330
629
100
AcDbEntity
  8
DEFPOINTS
 62
     0
100
AcDbPoint
 10
-2.650551231899953
 20
-18.32947747554755
 30
0.0
  0
POINT
  5
631
330
629
100
AcDbEntity
  8
DEFPOINTS
 62
     0
100
AcDbPoint
 10
-2.650551231899953
 20
33.77052176445869
 30
0.0
  0
POINT
  5
632
330
629
100
AcDbEntity
  8
DEFPOINTS
 62
     0
100
AcDbPoint
 10
5.349448768100046
 20
33.77052176445869
 30
0.0
  0
ENDBLK
  5
634
330
629
100
AcDbEntity
  8
0
100
AcDbBlockEnd
  0
BLOCK
  5
63F
330
635
100
AcDbEntity
  8
0
100
AcDbBlockBegin
  2
*D14
 70
     1
 10
0.0
 20
0.0
 30
0.0
  3
*D14
  1

  0
LINE
  5
636
330
635
100
AcDbEntity
  8
SUNPO
 62
     0
370
    -2
100
AcDbLine
 10
-41.69304302868067
 20
-20.32947747554755
 30
0.0
 11
-41.69304302868067
 21
-28.32947747554755
 31
0.0
  0
LINE
  5
637
330
635
100
AcDbEntity
  8
SUNPO
 62
     0
370
    -2
100
AcDbLine
 10
-2.693051231899943
 20
-20.32947747554755
 30
0.0
 11
-2.693051231899943
 21
-28.32947747554755
 31
0.0
  0
LINE
  5
638
330
635
100
AcDbEntity
  8
SUNPO
 62
     0
370
    -2
100
AcDbLine
 10
-39.69304302868068
 20
-26.32947747554755
 30
0.0
 11
-4.693051231899943
 21
-26.32947747554755
 31
0.0
  0
INSERT
  5
639
330
635
100
AcDbEntity
  8
SUNPO
 62
     0
370
    -2
100
AcDbBlockReference
  2
_OPEN30
 10
-41.69304302868067
 20
-26.32947747554755
 30
0.0
 41
2.0
 42
2.0
 43
2.0
 50
180.0
  0
INSERT
  5
63A
330
635
100
AcDbEntity
  8
SUNPO
 62
     0
370
    -2
100
AcDbBlockReference
  2
_OPEN30
 10
-2.693051231899943
 20
-26.32947747554755
 30
0.0
 41
2.0
 42
2.0
 43
2.0
  0
MTEXT
  5
63B
330
635
100
AcDbEntity
  8
SUNPO
 62
     0
100
AcDbMText
 10
-22.19304713029031
 20
-24.57947747554755
 30
0.0
 40
2.5
 41
0.0
 71
     5
 72
     1
  1
\A1;約390
 73
     1
 44
1.0
1001
ACAD
1000
MTEXTBEGIN
1070
    73
1070
     1
1070
    44
1040
1.0
1070
    74
1070
     0
1000
MTEXTEND
  0
POINT
  5
63C
330
635
100
AcDbEntity
  8
DEFPOINTS
 62
     0
100
AcDbPoint
 10
-41.69304302868067
 20
-18.32947747554755
 30
0.0
  0
POINT
  5
63D
330
635
100
AcDbEntity
  8
DEFPOINTS
 62
     0
100
AcDbPoint
 10
-2.693051231899943
 20
-18.32947747554755
 30
0.0
  0
POINT
  5
63E
330
635
100
AcDbEntity
  8
DEFPOINTS
 62
     0
100
AcDbPoint
 10
-2.693051231899943
 20
-26.32947747554755
 30
0.0
  0
ENDBLK
  5
640
330
635
100
AcDbEntity
  8
0
100
AcDbBlockEnd
  0
ENDSEC
  0
SECTION
  2
ENTITIES
  0
TEXT
  5
36
330
2
100
AcDbEntity
  8
MOJI1
100
AcDbText
 10
-35.40094937030244
 20
67.26317885098024
 30
0.0
 40
4.0
  1
小型機種基本キャビネット
  7
KANJI
100
AcDbText
  0
TEXT
  5
39
330
2
100
AcDbEntity
  8
TOUROKU
100
AcDbText
 10
48.99900066262485
 20
61.26317885098001
 30
0.0
 40
2.0
  1
ＶＢＤ５５２
 72
     2
 11
62.59900066262486
 21
61.26317885098001
 31
0.0
100
AcDbText
  0
LINE
  5
3B
330
2
100
AcDbEntity
  8
WAKU
 62
     4
100
AcDbLine
 10
62.59905062969747
 20
-161.73682114902
 30
0.0
 11
62.59905062969747
 21
-111.73682114902
 31
0.0
  0
LINE
  5
3D
330
2
100
AcDbEntity
  8
WAKU
 62
     4
100
AcDbLine
 10
-22.40094937030253
 20
-161.73682114902
 30
0.0
 11
-22.40094937030253
 21
-111.73682114902
 31
0.0
  0
LINE
  5
3E
330
2
100
AcDbEntity
  8
WAKU
 62
     4
100
AcDbLine
 10
-62.40094937030253
 20
-111.73682114902
 30
0.0
 11
-62.40094937030253
 21
-161.73682114902
 31
0.0
  0
LINE
  5
3F
330
2
100
AcDbEntity
  8
WAKU
 62
     4
100
AcDbLine
 10
-62.40094937030253
 20
-161.73682114902
 30
0.0
 11
62.59905062969747
 21
-161.73682114902
 31
0.0
  0
LINE
  5
40
330
2
100
AcDbEntity
  8
WAKU
 62
     1
100
AcDbLine
 10
-62.40094937030253
 20
-156.73682114902
 30
0.0
 11
62.59905062969747
 21
-156.73682114902
 31
0.0
  0
LINE
  5
41
330
2
100
AcDbEntity
  8
WAKU
 62
     1
100
AcDbLine
 10
-62.40094937030253
 20
-151.73682114902
 30
0.0
 11
62.59905062969747
 21
-151.73682114902
 31
0.0
  0
LINE
  5
42
330
2
100
AcDbEntity
  8
WAKU
 62
     1
100
AcDbLine
 10
-62.40094937030253
 20
-146.73682114902
 30
0.0
 11
62.59905062969747
 21
-146.73682114902
 31
0.0
  0
LINE
  5
43
330
2
100
AcDbEntity
  8
WAKU
 62
     1
100
AcDbLine
 10
-62.40094937030253
 20
-141.73682114902
 30
0.0
 11
62.59905062969747
 21
-141.73682114902
 31
0.0
  0
LINE
  5
44
330
2
100
AcDbEntity
  8
WAKU
 62
     1
100
AcDbLine
 10
62.59905062969747
 20
-131.73682114902
 30
0.0
 11
-62.40094937030253
 21
-131.73682114902
 31
0.0
  0
LINE
  5
45
330
2
100
AcDbEntity
  8
WAKU
 62
     1
100
AcDbLine
 10
-62.40094937030253
 20
-136.73682114902
 30
0.0
 11
62.59905062969747
 21
-136.73682114902
 31
0.0
  0
ARC
  5
46
330
2
100
AcDbEntity
  8
GAIKEI
  6
Continuous
370
    25
100
AcDbCircle
 10
21.50967221011598
 20
32.28034983855679
 30
0.0
 40
0.2000000018410701
100
AcDbArc
 50
92.99998474120938
 51
180.0
  0
ARC
  5
48
330
2
100
AcDbEntity
  8
GAIKEI
  6
Continuous
370
    25
100
AcDbCircle
 10
21.50967221011598
 20
-10.26458833212297
 30
0.0
 40
0.2000000018410701
100
AcDbArc
 50
180.0
 51
268.5000152587893
  0
ARC
  5
49
330
2
100
AcDbEntity
  8
GAIKEI
  6
Continuous
 62
     1
370
    25
100
AcDbCircle
 10
43.95966342161904
 20
18.99551369320733
 30
0.0
 40
0.0500000004602675
100
AcDbArc
 50
270.0
 51
0.000000000000007
  0
ARC
  5
4A
330
2
100
AcDbEntity
  8
GAIKEI
  6
Continuous
 62
     1
370
    25
100
AcDbCircle
 10
-35.00940559494742
 20
-12.08415286277909
 30
0.0
 40
0.4799999811934688
100
AcDbArc
 50
92.58374023437488
 51
179.9999847412094
  0
ARC
  5
4B
330
2
100
AcDbEntity
  8
GAIKEI
  6
Continuous
 62
     1
370
    25
100
AcDbCircle
 10
-37.03104707066908
 20
-14.5979434853283
 30
0.0
 40
2.800000025774981
100
AcDbArc
 50
348.9529113769537
 51
0.0
  0
ARC
  5
4C
330
2
100
AcDbEntity
  8
GAIKEI
  6
Continuous
 62
     1
370
    25
100
AcDbCircle
 10
-37.03104707066908
 20
-14.5979434853283
 30
0.0
 40
2.000000018410701
100
AcDbArc
 50
348.1273956298833
 51
0.0
  0
ARC
  5
4D
330
2
100
AcDbEntity
  8
GAIKEI
  6
Continuous
 62
     1
370
    25
100
AcDbCircle
 10
43.95966342161904
 20
28.0205668456378
 30
0.0
 40
0.0500000004602675
100
AcDbArc
 50
270.0
 51
0.000000000000007
  0
ARC
  5
4E
330
2
100
AcDbEntity
  8
GAIKEI
  6
Continuous
 62
     1
370
    25
100
AcDbCircle
 10
43.95966342161904
 20
30.67056183792715
 30
0.0
 40
0.0500000004602675
100
AcDbArc
 50
0.000000000000007
 51
90.0
  0
ARC
  5
4F
330
2
100
AcDbEntity
  8
GAIKEI
  6
Continuous
 62
     1
370
    25
100
AcDbCircle
 10
43.85966295619653
 20
31.17057902910341
 30
0.0
 40
0.0500000004602675
100
AcDbArc
 50
0.000000000000007
 51
90.0
  0
ARC
  5
50
330
2
100
AcDbEntity
  8
GAIKEI
  6
Continuous
370
    25
100
AcDbCircle
 10
43.35966558377177
 20
33.38658300086604
 30
0.0
 40
0.2500000023013377
100
AcDbArc
 50
0.000000000000007
 51
87.00000000000093
  0
ARC
  5
51
330
2
100
AcDbEntity
  8
GAIKEI
  6
Continuous
370
    25
100
AcDbCircle
 10
43.35966558377177
 20
-11.01252324060323
 30
0.0
 40
0.2500000023013377
100
AcDbArc
 50
271.5000152587883
 51
0.000000000000007
  0
ARC
  5
52
330
2
100
AcDbEntity
  8
GAIKEI
  6
Continuous
 62
     1
370
    25
100
AcDbCircle
 10
43.85966295619653
 20
-5.029435858525971
 30
0.0
 40
0.0500000004602675
100
AcDbArc
 50
270.0
 51
0.000000000000007
  0
ARC
  5
53
330
2
100
AcDbEntity
  8
GAIKEI
  6
Continuous
 62
     1
370
    25
100
AcDbCircle
 10
43.95966342161904
 20
19.14551191399721
 30
0.0
 40
0.0500000004602675
100
AcDbArc
 50
0.000000000000007
 51
90.0
  0
ARC
  5
54
330
2
100
AcDbEntity
  8
GAIKEI
  6
Continuous
 62
     1
370
    25
100
AcDbCircle
 10
43.95966342161904
 20
30.99552990640717
 30
0.0
 40
0.0500000004602675
100
AcDbArc
 50
270.0
 51
0.000000000000007
  0
ARC
  5
55
330
2
100
AcDbEntity
  8
GAIKEI
  6
Continuous
 62
     1
370
    25
100
AcDbCircle
 10
43.95966342161904
 20
31.145528127197
 30
0.0
 40
0.0500000004602675
100
AcDbArc
 50
0.000000000000007
 51
90.0
  0
ARC
  5
56
330
2
100
AcDbEntity
  8
GAIKEI
  6
Continuous
 62
     1
370
    25
100
AcDbCircle
 10
43.95966342161904
 20
30.99552990640717
 30
0.0
 40
0.0500000004602675
100
AcDbArc
 50
270.0
 51
0.000000000000007
  0
ARC
  5
57
330
2
100
AcDbEntity
  8
GAIKEI
  6
Continuous
 62
     1
370
    25
100
AcDbCircle
 10
-33.70051578909104
 20
6.280521155285441
 30
0.0
 40
0.2000000018410701
100
AcDbArc
 50
180.0
 51
270.0
  0
ARC
  5
58
330
2
100
AcDbEntity
  8
GAIKEI
  6
Continuous
 62
     1
370
    25
100
AcDbCircle
 10
-33.60052027835641
 20
6.380521620707952
 30
0.0
 40
0.2000000018410701
100
AcDbArc
 50
180.0
 51
270.0
  0
ARC
  5
59
330
2
100
AcDbEntity
  8
GAIKEI
  6
Continuous
 62
     1
370
    25
100
AcDbCircle
 10
-30.10057830888627
 20
6.280521155285441
 30
0.0
 40
0.2000000018410701
100
AcDbArc
 50
270.0
 51
0.0
  0
ARC
  5
5A
330
2
100
AcDbEntity
  8
GAIKEI
  6
Continuous
 62
     1
370
    25
100
AcDbCircle
 10
-30.20058372899666
 20
6.380521620707952
 30
0.0
 40
0.2000000018410701
100
AcDbArc
 50
270.0
 51
0.0
  0
ARC
  5
5B
330
2
100
AcDbEntity
  8
GAIKEI
  6
Continuous
 62
     1
370
    25
100
AcDbCircle
 10
-30.10057830888627
 20
12.38051981793211
 30
0.0
 40
0.2000000018410701
100
AcDbArc
 50
0.0
 51
90.0
  0
ARC
  5
5C
330
2
100
AcDbEntity
  8
GAIKEI
  6
Continuous
 62
     1
370
    25
100
AcDbCircle
 10
-30.20058372899666
 20
12.28052430719748
 30
0.0
 40
0.2000000018410701
100
AcDbArc
 50
0.0
 51
90.0
  0
ARC
  5
5D
330
2
100
AcDbEntity
  8
GAIKEI
  6
Continuous
 62
     1
370
    25
100
AcDbCircle
 10
-33.70051578909104
 20
12.38051981793211
 30
0.0
 40
0.2000000018410701
100
AcDbArc
 50
90.0
 51
180.0
  0
ARC
  5
5E
330
2
100
AcDbEntity
  8
GAIKEI
  6
Continuous
 62
     1
370
    25
100
AcDbCircle
 10
-33.60052027835641
 20
12.28052430719748
 30
0.0
 40
0.2000000018410701
100
AcDbArc
 50
90.0
 51
180.0
  0
ARC
  5
5F
330
2
100
AcDbEntity
  8
GAIKEI
  6
Continuous
 62
     1
370
    25
100
AcDbCircle
 10
-31.90052723023715
 20
9.880518091744761
 30
0.0
 40
0.100000000920535
100
AcDbArc
 50
90.0
 51
180.0
  0
ARC
  5
60
330
2
100
AcDbEntity
  8
GAIKEI
  6
Continuous
 62
     1
370
    25
100
AcDbCircle
 10
-30.50052071432185
 20
9.880518091744761
 30
0.0
 40
0.100000000920535
100
AcDbArc
 50
0.0
 51
90.0
  0
ARC
  5
61
330
2
100
AcDbEntity
  8
GAIKEI
  6
Continuous
 62
     1
370
    25
100
AcDbCircle
 10
-30.50052071432185
 20
7.880518692670023
 30
0.0
 40
0.100000000920535
100
AcDbArc
 50
270.0
 51
0.0
  0
ARC
  5
62
330
2
100
AcDbEntity
  8
GAIKEI
  6
Continuous
 62
     1
370
    25
100
AcDbCircle
 10
-31.90052723023715
 20
7.880518692670023
 30
0.0
 40
0.100000000920535
100
AcDbArc
 50
180.0
 51
270.0
  0
ARC
  5
63
330
2
100
AcDbEntity
  8
GAIKEI
  6
Continuous
 62
     1
370
    25
100
AcDbCircle
 10
-30.50052071432185
 20
7.880518692670023
 30
0.0
 40
0.0500000004602675
100
AcDbArc
 50
270.0
 51
0.0
  0
ARC
  5
64
330
2
100
AcDbEntity
  8
GAIKEI
  6
Continuous
 62
     1
370
    25
100
AcDbCircle
 10
-31.90052723023715
 20
7.880518692670023
 30
0.0
 40
0.0500000004602675
100
AcDbArc
 50
180.0
 51
270.0
  0
ARC
  5
65
330
2
100
AcDbEntity
  8
GAIKEI
  6
Continuous
 62
     1
370
    25
100
AcDbCircle
 10
-31.90052723023715
 20
9.880518091744761
 30
0.0
 40
0.0500000004602675
100
AcDbArc
 50
90.0
 51
180.0
  0
ARC
  5
66
330
2
100
AcDbEntity
  8
GAIKEI
  6
Continuous
 62
     1
370
    25
100
AcDbCircle
 10
-30.50052071432185
 20
9.880518091744761
 30
0.0
 40
0.0500000004602675
100
AcDbArc
 50
0.0
 51
90.0
  0
ARC
  5
67
330
2
100
AcDbEntity
  8
GAIKEI
  6
Continuous
 62
     1
370
    25
100
AcDbCircle
 10
-22.15603764439013
 20
-8.943158676672283
 30
0.0
 40
0.0658730156345717
100
AcDbArc
 50
224.9999847412093
 51
314.9999847412116
  0
ARC
  5
68
330
2
100
AcDbEntity
  8
GAIKEI
  6
Continuous
 62
     1
370
    25
100
AcDbCircle
 10
-22.34236363669453
 20
-9.129479714288777
 30
0.0
 40
0.0658730156345717
100
AcDbArc
 50
315.0
 51
45.0
  0
ARC
  5
69
330
2
100
AcDbEntity
  8
GAIKEI
  6
Continuous
 62
     1
370
    25
100
AcDbCircle
 10
-22.15603764439013
 20
-9.315795797217447
 30
0.0
 40
0.0658730156345717
100
AcDbArc
 50
45.0
 51
135.0
  0
ARC
  5
6A
330
2
100
AcDbEntity
  8
GAIKEI
  6
Continuous
 62
     1
370
    25
100
AcDbCircle
 10
-21.96972156146151
 20
-9.129479714288777
 30
0.0
 40
0.0658730156345717
100
AcDbArc
 50
134.9999847412115
 51
224.9999847412093
  0
CIRCLE
  5
6B
330
2
100
AcDbEntity
  8
GAIKEI
  6
Continuous
 62
     1
370
    25
100
AcDbCircle
 10
-31.06052926631338
 20
11.6805215146623
 30
0.0
 40
0.2000000018410701
  0
CIRCLE
  5
6C
330
2
100
AcDbEntity
  8
GAIKEI
  6
Continuous
 62
     1
370
    25
100
AcDbCircle
 10
-32.75055348242404
 20
8.030516913459905
 30
0.0
 40
0.2000000018410701
  0
CIRCLE
  5
6D
330
2
100
AcDbEntity
  8
GAIKEI
  6
Continuous
 62
     1
370
    25
100
AcDbCircle
 10
-31.20187660206992
 20
9.055141411746205
 30
0.0
 40
0.0827675674527769
  0
CIRCLE
  5
6E
330
2
100
AcDbEntity
  8
GAIKEI
  6
Continuous
 62
     1
370
    25
100
AcDbCircle
 10
-22.15603764439013
 20
-9.129479714288777
 30
0.0
 40
0.3500000032218727
  0
CIRCLE
  5
6F
330
2
100
AcDbEntity
  8
GAIKEI
  6
Continuous
 62
     1
370
    25
100
AcDbCircle
 10
-22.15555208497818
 20
-9.129479714288777
 30
0.0
 40
0.4849999967228952
  0
CIRCLE
  5
70
330
2
100
AcDbEntity
  8
GAIKEI
  6
Continuous
 62
     1
370
    25
100
AcDbCircle
 10
-22.15603764439013
 20
-9.129479714288777
 30
0.0
 40
0.6439636091007691
  0
ARC
  5
71
330
2
100
AcDbEntity
  8
GAIKEI
  6
Continuous
 62
     1
370
    25
100
AcDbCircle
 10
-5.255151373859717
 20
32.65092085425721
 30
0.0
 40
0.1995934077671596
100
AcDbArc
 50
359.9645233154292
 51
90.03547668456755
  0
ARC
  5
72
330
2
100
AcDbEntity
  8
GAIKEI
  6
Continuous
370
    25
100
AcDbCircle
 10
-4.392550123840862
 20
33.52102350172192
 30
0.0
 40
0.2494917984174485
100
AcDbArc
 50
359.9645080566389
 51
90.03547668456755
  0
ARC
  5
73
330
2
100
AcDbEntity
  8
GAIKEI
  6
Continuous
370
    25
100
AcDbCircle
 10
28.85966250844825
 20
32.90438286729563
 30
0.0
 40
0.2500000023013377
100
AcDbArc
 50
93.00001525878894
 51
180.0
  0
ARC
  5
74
330
2
100
AcDbEntity
  8
GAIKEI
  6
Continuous
370
    25
100
AcDbCircle
 10
44.15966435246409
 20
-14.90438597583602
 30
0.0
 40
0.2000000018410701
100
AcDbArc
 50
0.000000000000007
 51
90.00001525878731
  0
ARC
  5
75
330
2
100
AcDbEntity
  8
GAIKEI
  6
Continuous
370
    25
100
AcDbCircle
 10
30.35966453509826
 20
-15.35183888332466
 30
0.0
 40
0.100000000920535
100
AcDbArc
 50
273.0802001953138
 51
0.0000152587905798
  0
ARC
  5
76
330
2
100
AcDbEntity
  8
GAIKEI
  6
Continuous
370
    25
100
AcDbCircle
 10
30.95966732763339
 20
-11.99997271574801
 30
0.0
 40
0.5000000046026754
100
AcDbArc
 50
91.50001525878836
 51
180.0000152587906
  0
ARC
  5
77
330
2
100
AcDbEntity
  8
GAIKEI
  6
Continuous
 62
     1
370
    25
100
AcDbCircle
 10
43.95966342161904
 20
5.154796250867889
 30
0.0
 40
0.0500000004602675
100
AcDbArc
 50
95.00001525878786
 51
180.0000152587906
  0
ARC
  5
78
330
2
100
AcDbEntity
  8
GAIKEI
  6
Continuous
 62
     1
370
    25
100
AcDbCircle
 10
43.6896676151349
 20
-8.796554417078255
 30
0.0
 40
0.100000000920535
100
AcDbArc
 50
274.0000152587859
 51
0.000000000000007
  0
ARC
  5
79
330
2
100
AcDbEntity
  8
GAIKEI
  6
Continuous
 62
     1
370
    25
100
AcDbCircle
 10
43.85966295619653
 20
-6.622878343849265
 30
0.0
 40
0.100000000920535
100
AcDbArc
 50
278.6269378662111
 51
0.000000000000007
  0
ARC
  5
7A
330
2
100
AcDbEntity
  8
GAIKEI
  6
Continuous
 62
     1
370
    25
100
AcDbCircle
 10
43.88966854597993
 20
-6.820614982334461
 30
0.0
 40
0.100000000920535
100
AcDbArc
 50
98.62693786621111
 51
180.0000152587906
  0
ARC
  5
7B
330
2
100
AcDbEntity
  8
GAIKEI
  6
Continuous
370
    25
100
AcDbCircle
 10
47.00966252023113
 20
6.366826863415781
 30
0.0
 40
0.2000000018410701
100
AcDbArc
 50
0.000000000000007
 51
63.51139831542669
  0
ARC
  5
7C
330
2
100
AcDbEntity
  8
GAIKEI
  6
Continuous
370
    25
100
AcDbCircle
 10
44.15966435246409
 20
7.790615881140979
 30
0.0
 40
0.2000000018410701
100
AcDbArc
 50
90.00001525878731
 51
180.0000152587906
  0
ARC
  5
7D
330
2
100
AcDbEntity
  8
GAIKEI
  6
Continuous
 62
     1
370
    25
100
AcDbCircle
 10
43.78966808055742
 20
-7.825202722845972
 30
0.0
 40
0.0500000004602675
100
AcDbArc
 50
95.00001525878786
 51
180.0000152587906
  0
ARC
  5
7E
330
2
100
AcDbEntity
  8
GAIKEI
  6
Continuous
 62
     1
370
    25
100
AcDbCircle
 10
43.95966342161904
 20
4.036265553247858
 30
0.0
 40
0.0500000004602675
100
AcDbArc
 50
180.0
 51
265.0000000000003
  0
ARC
  5
7F
330
2
100
AcDbEntity
  8
GAIKEI
  6
Continuous
370
    25
100
AcDbCircle
 10
21.50966438192122
 20
-16.09890672142643
 30
0.0
 40
0.2000000018410701
100
AcDbArc
 50
93.08021545410307
 51
180.0000152587906
  0
ARC
  5
80
330
2
100
AcDbEntity
  8
GAIKEI
  6
Continuous
370
    25
100
AcDbCircle
 10
-41.49304209783565
 20
-14.90438597583602
 30
0.0
 40
0.2000000018410701
100
AcDbArc
 50
90.0
 51
179.9999847412094
  0
ARC
  5
81
330
2
100
AcDbEntity
  8
GAIKEI
  6
Continuous
 62
     1
370
    25
100
AcDbCircle
 10
-35.6805775241485
 20
-14.62019994327198
 30
0.0
 40
0.0999571989977222
100
AcDbArc
 50
179.9449615478497
 51
269.9706878662097
  0
ARC
  5
82
330
2
100
AcDbEntity
  8
GAIKEI
  6
Continuous
 62
     1
370
    25
100
AcDbCircle
 10
-35.98048478134641
 20
-11.35931670918165
 30
0.0
 40
0.1999377972831137
100
AcDbArc
 50
359.9893035888667
 51
30.52981567382845
  0
ARC
  5
83
330
2
100
AcDbEntity
  8
GAIKEI
  6
Continuous
 62
     1
370
    25
100
AcDbCircle
 10
-27.07155960337832
 20
-14.5206949466372
 30
0.0
 40
0.1994120003864112
100
AcDbArc
 50
269.8791961669928
 51
354.9517059326175
  0
ARC
  5
84
330
2
100
AcDbEntity
  8
GAIKEI
  6
Continuous
 62
     1
370
    25
100
AcDbCircle
 10
-17.31453465720233
 20
-14.5206949466372
 30
0.0
 40
0.1994120003864112
100
AcDbArc
 50
185.0482788085921
 51
270.1207885742186
  0
ARC
  5
85
330
2
100
AcDbEntity
  8
GAIKEI
  6
Continuous
 62
     1
370
    25
100
AcDbCircle
 10
-8.405609479234215
 20
-11.35931670918165
 30
0.0
 40
0.1999377972831137
100
AcDbArc
 50
149.4701690673838
 51
180.0106811523424
  0
ARC
  5
86
330
2
100
AcDbEntity
  8
GAIKEI
  6
Continuous
 62
     1
370
    25
100
AcDbCircle
 10
-8.705516736432116
 20
-14.62019994327198
 30
0.0
 40
0.0999571989977222
100
AcDbArc
 50
270.029296875001
 51
0.0550231933591356
  0
ARC
  5
87
330
2
100
AcDbEntity
  8
GAIKEI
  6
Continuous
 62
     7
370
    25
100
AcDbCircle
 10
-22.12353489191668
 20
2378.806343604015
 30
0.0
 40
2394.705452536801
100
AcDbArc
 50
269.9992218017557
 51
270.400863647462
  0
ARC
  5
88
330
2
100
AcDbEntity
  8
GAIKEI
  6
Continuous
 62
     7
370
    25
100
AcDbCircle
 10
-22.18770206166892
 20
2400.252078821516
 30
0.0
 40
2416.151187754304
100
AcDbArc
 50
269.6009041650981
 51
270.00075955138
  0
ARC
  5
89
330
2
100
AcDbEntity
  8
GAIKEI
  6
Continuous
370
    25
100
AcDbCircle
 10
-5.255448655132312
 20
-14.60933926744548
 30
0.0
 40
0.1000922045652471
100
AcDbArc
 50
179.9434509277331
 51
251.7437133789032
  0
ARC
  5
8A
330
2
100
AcDbEntity
  8
GAIKEI
  6
Continuous
370
    25
100
AcDbCircle
 10
-5.258471014737324
 20
-14.70768486711711
 30
0.0
 40
0.0033587999677854
100
AcDbArc
 50
288.1554260253913
 51
329.3835601806671
  0
ARC
  5
8B
330
2
100
AcDbEntity
  8
GAIKEI
  6
Continuous
370
    25
100
AcDbCircle
 10
-5.255597295768637
 20
-14.60952754558485
 30
0.0
 40
0.099852995718308
100
AcDbArc
 50
251.7916870117173
 51
270.0010223388675
  0
ARC
  5
8C
330
2
100
AcDbEntity
  8
GAIKEI
  6
Continuous
370
    25
100
AcDbCircle
 10
-2.893052162744993
 20
-14.90438597583602
 30
0.0
 40
0.2000000018410701
100
AcDbArc
 50
0.0
 51
89.99998474121268
  0
ARC
  5
8D
330
2
100
AcDbEntity
  8
GAIKEI
  6
Continuous
370
    25
100
AcDbCircle
 10
30.65415631844655
 20
-11.38516036114839
 30
0.0
 40
0.0500000004602675
100
AcDbArc
 50
186.5001220703111
 51
271.5000152587883
  0
ARC
  5
8E
330
2
100
AcDbEntity
  8
GAIKEI
  6
Continuous
370
    25
100
AcDbCircle
 10
36.23668242452612
 20
-10.79917933530527
 30
0.0
 40
0.6601954375454819
100
AcDbArc
 50
223.7614440917962
 51
227.9802398681618
  0
ARC
  5
8F
330
2
100
AcDbEntity
  8
GAIKEI
  6
Continuous
370
    25
100
AcDbCircle
 10
35.76255347750745
 20
-11.25139369784375
 30
0.0
 40
0.0500000004602675
100
AcDbArc
 50
271.4999542236335
 51
356.5000000000003
  0
ARC
  5
90
330
2
100
AcDbEntity
  8
GAIKEI
  6
Continuous
370
    25
100
AcDbCircle
 10
28.85966250844825
 20
-10.79670694605465
 30
0.0
 40
0.2500000023013377
100
AcDbArc
 50
180.0
 51
268.5000152587893
  0
ARC
  5
91
330
2
100
AcDbEntity
  8
GAIKEI
  6
Continuous
370
    25
100
AcDbCircle
 10
-6.710630575246511
 20
-11.24600795212137
 30
0.0
 40
0.0552822009476916
100
AcDbArc
 50
294.7917938232389
 51
307.8890228271482
  0
ARC
  5
92
330
2
100
AcDbEntity
  8
GAIKEI
  6
Continuous
370
    25
100
AcDbCircle
 10
-6.997596187709547
 20
-11.39083843345548
 30
0.0
 40
0.0443238006768079
100
AcDbArc
 50
269.9839019775415
 51
294.7468566894509
  0
ARC
  5
93
330
2
100
AcDbEntity
  8
GAIKEI
  6
Continuous
370
    25
100
AcDbCircle
 10
-6.998042109618467
 20
-11.38993668026182
 30
0.0
 40
0.0453328006055825
100
AcDbArc
 50
294.7889251708999
 51
312.6467437744141
  0
ARC
  5
94
330
2
100
AcDbEntity
  8
GAIKEI
  6
Continuous
370
    25
100
AcDbCircle
 10
-8.011176686717902
 20
-11.38635444092676
 30
0.0
 40
0.048802199827428
100
AcDbArc
 50
230.8084716796856
 51
270.1644744873022
  0
ARC
  5
95
330
2
100
AcDbEntity
  8
GAIKEI
  6
Continuous
370
    25
100
AcDbCircle
 10
-37.67547359470987
 20
-11.24600795212137
 30
0.0
 40
0.0552822009476916
100
AcDbArc
 50
232.1109619140603
 51
245.2082061767611
  0
ARC
  5
96
330
2
100
AcDbEntity
  8
GAIKEI
  6
Continuous
370
    25
100
AcDbCircle
 10
-36.37491757386272
 20
-11.38635444092676
 30
0.0
 40
0.048802199827428
100
AcDbArc
 50
269.8355102539062
 51
309.1915130615212
  0
ARC
  5
97
330
2
100
AcDbEntity
  8
GAIKEI
  6
Continuous
370
    25
100
AcDbCircle
 10
-37.38849807287105
 20
-11.39083843345548
 30
0.0
 40
0.0443238006768079
100
AcDbArc
 50
245.2531280517566
 51
270.0160827636706
  0
ARC
  5
98
330
2
100
AcDbEntity
  8
GAIKEI
  6
Continuous
370
    25
100
AcDbCircle
 10
-37.38805215096212
 20
-11.38993668026182
 30
0.0
 40
0.0453328006055825
100
AcDbArc
 50
227.3532409668005
 51
245.2110748291001
  0
ARC
  5
99
330
2
100
AcDbEntity
  8
GAIKEI
  6
Continuous
370
    25
100
AcDbCircle
 10
-8.008005686476593
 20
-11.38523963615438
 30
0.0
 40
0.0517031986108158
100
AcDbArc
 50
184.7457733154312
 51
228.8635101318348
  0
ARC
  5
9A
330
2
100
AcDbEntity
  8
GAIKEI
  6
Continuous
370
    25
100
AcDbCircle
 10
-6.70536869672108
 20
-11.25444083088814
 30
0.0
 40
0.0454153997039703
100
AcDbArc
 50
309.1959533691396
 51
354.9412078857415
  0
ARC
  5
9B
330
2
100
AcDbEntity
  8
GAIKEI
  6
Continuous
370
    25
100
AcDbCircle
 10
-7.003333716271157
 20
-11.38202404372219
 30
0.0
 40
0.0547493978126629
100
AcDbArc
 50
311.1050720214824
 51
352.0546264648433
  0
ARC
  5
9C
330
2
100
AcDbEntity
  8
GAIKEI
  6
Continuous
370
    25
100
AcDbCircle
 10
-37.38276054430944
 20
-11.38202404372219
 30
0.0
 40
0.0547493978126629
100
AcDbArc
 50
187.9453582763686
 51
228.8949127197281
  0
ARC
  5
9D
330
2
100
AcDbEntity
  8
GAIKEI
  6
Continuous
370
    25
100
AcDbCircle
 10
-37.68072556385954
 20
-11.25444083088814
 30
0.0
 40
0.0454153997039703
100
AcDbArc
 50
185.0587768554695
 51
230.8040313720693
  0
ARC
  5
9E
330
2
100
AcDbEntity
  8
GAIKEI
  6
Continuous
370
    25
100
AcDbCircle
 10
-36.37808857410405
 20
-11.38523963615438
 30
0.0
 40
0.0517031986108158
100
AcDbArc
 50
311.1364593505825
 51
355.2541961669916
  0
ARC
  5
9F
330
2
100
AcDbEntity
  8
GAIKEI
  6
Continuous
370
    25
100
AcDbCircle
 10
-39.99327658359439
 20
-11.10466557105275
 30
0.0
 40
0.2497885958338336
100
AcDbArc
 50
180.0162963867178
 51
270.0517730712879
  0
ARC
  5
A0
330
2
100
AcDbEntity
  8
GAIKEI
  6
Continuous
370
    25
100
AcDbCircle
 10
-39.99354413673976
 20
33.52102350172192
 30
0.0
 40
0.2494917984174485
100
AcDbArc
 50
89.9645080566422
 51
180.0354766845708
  0
ARC
  5
A1
330
2
100
AcDbEntity
  8
GAIKEI
  6
Continuous
 62
     1
370
    25
100
AcDbCircle
 10
-39.57301995786293
 20
-7.195739356193882
 30
0.0
 40
1.265785569665974
100
AcDbArc
 50
267.5751647949241
 51
270.1915130615244
  0
ARC
  5
A2
330
2
100
AcDbEntity
  8
GAIKEI
  6
Continuous
 62
     1
370
    25
100
AcDbCircle
 10
-39.57301995786293
 20
2.486781058769736
 30
0.0
 40
1.265785569665974
100
AcDbArc
 50
89.80847167968761
 51
92.4248199462915
  0
ARC
  5
A3
330
2
100
AcDbEntity
  8
GAIKEI
  6
Continuous
 62
     1
370
    25
100
AcDbCircle
 10
-39.57301995786293
 20
5.393091964314692
 30
0.0
 40
1.265778834387142
100
AcDbArc
 50
267.5751495361333
 51
270.1915283203124
  0
ARC
  5
A4
330
2
100
AcDbEntity
  8
GAIKEI
  6
Continuous
 62
     1
370
    25
100
AcDbCircle
 10
-39.57301995786293
 20
9.239227885130162
 30
0.0
 40
1.265778834387142
100
AcDbArc
 50
89.8084564208997
 51
92.42483520507587
  0
ARC
  5
A5
330
2
100
AcDbEntity
  8
GAIKEI
  6
Continuous
 62
     1
370
    25
100
AcDbCircle
 10
-39.13072488045433
 20
-10.44962610557934
 30
0.0
 40
0.1998310005342638
100
AcDbArc
 50
180.0162963867178
 51
270.0517578125009
  0
ARC
  5
A6
330
2
100
AcDbEntity
  8
GAIKEI
  6
Continuous
 62
     1
370
    25
100
AcDbCircle
 10
-5.255369380126296
 20
-10.44962610557934
 30
0.0
 40
0.1998310005342638
100
AcDbArc
 50
269.9482269287121
 51
359.983688354491
  0
ARC
  5
A7
330
2
100
AcDbEntity
  8
GAIKEI
  6
Continuous
 62
     1
370
    25
100
AcDbCircle
 10
-39.13094288672093
 20
32.65092085425721
 30
0.0
 40
0.1995934077671596
100
AcDbArc
 50
89.9645080566422
 51
180.0354766845708
  0
ARC
  5
A8
330
2
100
AcDbEntity
  8
GAIKEI
  6
Continuous
 62
     1
370
    25
100
AcDbCircle
 10
-25.40561800887608
 20
-3059.489557242895
 30
0.0
 40
3049.024749973662
100
AcDbArc
 50
89.78490893214042
 51
90.25058208254984
  0
ARC
  5
A9
330
2
100
AcDbEntity
  8
GAIKEI
  6
Continuous
 62
     1
370
    25
100
AcDbCircle
 10
-25.40562740604713
 20
1555.964484836029
 30
0.0
 40
1523.484480894807
100
AcDbArc
 50
269.4984859282905
 51
270.430471191225
  0
ARC
  5
AA
330
2
100
AcDbEntity
  8
GAIKEI
  6
Continuous
 62
     1
370
    25
100
AcDbCircle
 10
-25.40561826402254
 20
-3074.545282452222
 30
0.0
 40
3064.280565298218
100
AcDbArc
 50
89.78543973881713
 51
90.24996026992244
  0
ARC
  5
AB
330
2
100
AcDbEntity
  8
GAIKEI
  6
Continuous
 62
     1
370
    25
100
AcDbCircle
 10
-25.40561709009259
 20
1563.387507233055
 30
0.0
 40
1531.107276307037
100
AcDbArc
 50
269.4997295731997
 51
270.4293943481738
  0
ARC
  5
AC
330
2
100
AcDbEntity
  8
GAIKEI
  6
Continuous
 62
     1
370
    25
100
AcDbCircle
 10
-29.70817693839956
 20
12.7733770197035
 30
0.0
 40
0.40043241632491
100
AcDbArc
 50
358.549728393555
 51
93.08729553222653
  0
ARC
  5
AD
330
2
100
AcDbEntity
  8
GAIKEI
  6
Continuous
 62
     1
370
    25
100
AcDbCircle
 10
-25.48942867047833
 20
-1498.421358910161
 30
0.0
 40
1511.600435682613
100
AcDbArc
 50
90.16072082519535
 51
90.32589721679867
  0
ARC
  5
AE
330
2
100
AcDbEntity
  8
GAIKEI
  6
Continuous
 62
     1
370
    25
100
AcDbCircle
 10
-25.4894385798541
 20
1517.10347217092
 30
0.0
 40
1511.62168138423
100
AcDbArc
 50
269.6740875244147
 51
269.8392639160159
  0
ARC
  5
AF
330
2
100
AcDbEntity
  8
GAIKEI
  6
Continuous
 62
     1
370
    25
100
AcDbCircle
 10
-29.70817693839956
 20
5.887673862889812
 30
0.0
 40
0.40043241632491
100
AcDbArc
 50
266.9127044677735
 51
1.45024108886544
  0
ARC
  5
B0
330
2
100
AcDbEntity
  8
GAIKEI
  6
Continuous
 62
     1
370
    25
100
AcDbCircle
 10
-29.71743229535389
 20
12.76321990955551
 30
0.0
 40
0.0994848004754446
100
AcDbArc
 50
0.0093383789078251
 51
90.43185424804482
  0
ARC
  5
B1
330
2
100
AcDbEntity
  8
GAIKEI
  6
Continuous
 62
     1
370
    25
100
AcDbCircle
 10
-25.48935930484805
 20
-1494.67561487511
 30
0.0
 40
1507.54440927395
100
AcDbArc
 50
90.16072082519535
 51
90.32589721679867
  0
ARC
  5
B2
330
2
100
AcDbEntity
  8
GAIKEI
  6
Continuous
 62
     1
370
    25
100
AcDbCircle
 10
-34.06347640421231
 20
12.74406508622286
 30
0.0
 40
0.1002778021410165
100
AcDbArc
 50
90.56193542480409
 51
180.0976104736319
  0
ARC
  5
B3
330
2
100
AcDbEntity
  8
GAIKEI
  6
Continuous
 62
     1
370
    25
100
AcDbCircle
 10
-34.06347640421231
 20
5.916980841682573
 30
0.0
 40
0.1002775989213966
100
AcDbArc
 50
179.9023590087882
 51
269.4380645751959
  0
ARC
  5
B4
330
2
100
AcDbEntity
  8
GAIKEI
  6
Continuous
 62
     1
370
    25
100
AcDbCircle
 10
-25.4893097579693
 20
1513.34551978494
 30
0.0
 40
1507.553129524614
100
AcDbArc
 50
269.6740875244147
 51
269.8392639160159
  0
ARC
  5
B5
330
2
100
AcDbEntity
  8
GAIKEI
  6
Continuous
 62
     1
370
    25
100
AcDbCircle
 10
-29.71743229535389
 20
5.897821063661979
 30
0.0
 40
0.0994848004754446
100
AcDbArc
 50
269.5681152343734
 51
359.9906463623047
  0
ARC
  5
B6
330
2
100
AcDbEntity
  8
GAIKEI
  6
Continuous
 62
     1
370
    25
100
AcDbCircle
 10
-29.80034404228846
 20
12.68072435640266
 30
0.0
 40
0.0997968006548274
100
AcDbArc
 50
359.9645080566389
 51
90.03547668456755
  0
ARC
  5
B7
330
2
100
AcDbEntity
  8
GAIKEI
  6
Continuous
 62
     1
370
    25
100
AcDbCircle
 10
-34.00075005568885
 20
12.68072435640266
 30
0.0
 40
0.0997968006548274
100
AcDbArc
 50
89.9645080566422
 51
180.0354766845708
  0
ARC
  5
B8
330
2
100
AcDbEntity
  8
GAIKEI
  6
Continuous
 62
     1
370
    25
100
AcDbCircle
 10
-34.00075005568885
 20
5.980326526190651
 30
0.0
 40
0.0997968006548274
100
AcDbArc
 50
179.9645080566389
 51
270.0354614257838
  0
ARC
  5
B9
330
2
100
AcDbEntity
  8
GAIKEI
  6
Continuous
 62
     1
370
    25
100
AcDbCircle
 10
-29.80034404228846
 20
5.980326526190651
 30
0.0
 40
0.0997968006548274
100
AcDbArc
 50
269.9645080566422
 51
0.035461425780572
  0
ARC
  5
BA
330
2
100
AcDbEntity
  8
GAIKEI
  6
Continuous
370
    25
100
AcDbCircle
 10
-4.392817676986226
 20
-11.10466557105275
 30
0.0
 40
0.2497885958338336
100
AcDbArc
 50
269.9482116699251
 51
359.983688354491
  0
LINE
  5
BB
330
2
100
AcDbEntity
  8
GAIKEI
  6
Continuous
370
    25
100
AcDbLine
 10
-13.87669474558314
 20
-11.27584508251698
 30
0.0
 11
-13.90044751926569
 21
-11.27591940283514
 31
0.0
  0
LINE
  5
BC
330
2
100
AcDbEntity
  8
GAIKEI
  6
Continuous
370
    25
100
AcDbLine
 10
-13.81425576895654
 20
-11.27463118398714
 30
0.0
 11
-13.87669474558314
 21
-11.27584508251698
 31
0.0
  0
LINE
  5
BD
330
2
100
AcDbEntity
  8
GAIKEI
  6
Continuous
370
    25
100
AcDbLine
 10
-13.80131412422167
 20
-11.27365015578743
 30
0.0
 11
-13.81425576895654
 21
-11.27463118398714
 31
0.0
  0
LINE
  5
BE
330
2
100
AcDbEntity
  8
GAIKEI
  6
Continuous
370
    25
100
AcDbLine
 10
-13.80058083041587
 20
-11.27343710420876
 30
0.0
 11
-13.80131412422167
 21
-11.27365015578743
 31
0.0
  0
LINE
  5
BF
330
2
100
AcDbEntity
  8
GAIKEI
  6
Continuous
370
    25
100
AcDbLine
 10
-8.434406125175598
 20
-11.27584508251698
 30
0.0
 11
-8.410653351493039
 21
-11.27591940283514
 31
0.0
  0
LINE
  5
C0
330
2
100
AcDbEntity
  8
GAIKEI
  6
Continuous
370
    25
100
AcDbLine
 10
-8.496845101802193
 20
-11.27463118398714
 30
0.0
 11
-8.434406125175598
 21
-11.27584508251698
 31
0.0
  0
LINE
  5
C1
330
2
100
AcDbEntity
  8
GAIKEI
  6
Continuous
370
    25
100
AcDbLine
 10
-8.509776837161325
 20
-11.27365015578743
 30
0.0
 11
-8.496845101802193
 21
-11.27463118398714
 31
0.0
  0
LINE
  5
C2
330
2
100
AcDbEntity
  8
GAIKEI
  6
Continuous
370
    25
100
AcDbLine
 10
-8.510520040342896
 20
-11.27343710420876
 30
0.0
 11
-8.509776837161325
 21
-11.27365015578743
 31
0.0
  0
LINE
  5
C3
330
2
100
AcDbEntity
  8
GAIKEI
  6
Continuous
 62
     7
370
    25
100
AcDbLine
 10
-8.536799704842735
 20
-11.26109993139488
 30
0.0
 11
-8.533123326437987
 21
-11.26214537053693
 31
0.0
  0
LINE
  5
C4
330
2
100
AcDbEntity
  8
GAIKEI
  6
Continuous
 62
     7
370
    25
100
AcDbLine
 10
-8.553615915497459
 20
-11.25905364530166
 30
0.0
 11
-8.536799704842735
 21
-11.26109993139488
 31
0.0
  0
LINE
  5
C5
330
2
100
AcDbEntity
  8
GAIKEI
  6
Continuous
 62
     7
370
    25
100
AcDbLine
 10
-8.623110367660984
 20
-11.25530790126663
 30
0.0
 11
-8.553615915497459
 21
-11.25905364530166
 31
0.0
  0
LINE
  5
C6
330
2
100
AcDbEntity
  8
GAIKEI
  6
Continuous
 62
     7
370
    25
100
AcDbLine
 10
-8.767063869240843
 20
-11.25173061661939
 30
0.0
 11
-8.623110367660984
 21
-11.25530790126663
 31
0.0
  0
LINE
  5
C7
330
2
100
AcDbEntity
  8
GAIKEI
  6
Continuous
370
    25
100
AcDbLine
 10
-9.032436951935693
 20
-11.24973387740493
 30
0.0
 11
-8.767063869240843
 21
-11.25173061661939
 31
0.0
  0
LINE
  5
C8
330
2
100
AcDbEntity
  8
GAIKEI
  6
Continuous
370
    25
100
AcDbLine
 10
-13.77429125654024
 20
-11.26109993139488
 30
0.0
 11
-13.77796763494501
 21
-11.26214537053693
 31
0.0
  0
LINE
  5
C9
330
2
100
AcDbEntity
  8
GAIKEI
  6
Continuous
370
    25
100
AcDbLine
 10
-13.75748495526127
 20
-11.25905364530166
 30
0.0
 11
-13.77429125654024
 21
-11.26109993139488
 31
0.0
  0
LINE
  5
CA
330
2
100
AcDbEntity
  8
GAIKEI
  6
Continuous
370
    25
100
AcDbLine
 10
-13.68799050309775
 20
-11.25530790126663
 30
0.0
 11
-13.75748495526127
 21
-11.25905364530166
 31
0.0
  0
LINE
  5
CB
330
2
100
AcDbEntity
  8
GAIKEI
  6
Continuous
370
    25
100
AcDbLine
 10
-13.54403700151792
 20
-11.25173061661939
 30
0.0
 11
-13.68799050309775
 21
-11.25530790126663
 31
0.0
  0
LINE
  5
CC
330
2
100
AcDbEntity
  8
GAIKEI
  6
Continuous
370
    25
100
AcDbLine
 10
-13.27865400944728
 20
-11.24973387740493
 30
0.0
 11
-13.54403700151792
 21
-11.25173061661939
 31
0.0
  0
LINE
  5
CD
330
2
100
AcDbEntity
  8
GAIKEI
  6
Continuous
370
    25
100
AcDbLine
 10
-8.085378092364607
 20
-11.0927842295236
 30
0.0
 11
-8.085556461128192
 21
-11.09289818734476
 31
0.0
  0
LINE
  5
CE
330
2
100
AcDbEntity
  8
GAIKEI
  6
Continuous
370
    25
100
AcDbLine
 10
-8.084813257946649
 20
-11.0926653170145
 30
0.0
 11
-8.085378092364607
 21
-11.0927842295236
 31
0.0
  0
LINE
  5
CF
330
2
100
AcDbEntity
  8
GAIKEI
  6
Continuous
370
    25
100
AcDbLine
 10
-8.078689263730609
 20
-11.09222930448135
 30
0.0
 11
-8.084813257946649
 21
-11.0926653170145
 31
0.0
  0
LINE
  5
D0
330
2
100
AcDbEntity
  8
GAIKEI
  6
Continuous
370
    25
100
AcDbLine
 10
-8.035979854230419
 20
-11.09159014974523
 30
0.0
 11
-8.078689263730609
 21
-11.09222930448135
 31
0.0
  0
LINE
  5
D1
330
2
100
AcDbEntity
  8
GAIKEI
  6
Continuous
370
    25
100
AcDbLine
 10
-6.924792004044149
 20
-11.09273963733267
 30
0.0
 11
-6.924514541523024
 21
-11.09282882171447
 31
0.0
  0
LINE
  5
D2
330
2
100
AcDbEntity
  8
GAIKEI
  6
Continuous
370
    25
100
AcDbLine
 10
-6.92527756345612
 20
-11.0926554076388
 30
0.0
 11
-6.924792004044149
 21
-11.09273963733267
 31
0.0
  0
LINE
  5
D3
330
2
100
AcDbEntity
  8
GAIKEI
  6
Continuous
370
    25
100
AcDbLine
 10
-6.932511407756607
 20
-11.09217975760259
 30
0.0
 11
-6.92527756345612
 21
-11.0926554076388
 31
0.0
  0
LINE
  5
D4
330
2
100
AcDbEntity
  8
GAIKEI
  6
Continuous
370
    25
100
AcDbLine
 10
-6.974041601542069
 20
-11.09159014974523
 30
0.0
 11
-6.932511407756607
 21
-11.09217975760259
 31
0.0
  0
LINE
  5
D5
330
2
100
AcDbEntity
  8
GAIKEI
  6
Continuous
370
    25
100
AcDbLine
 10
-37.46130225653647
 20
-11.09273963733267
 30
0.0
 11
-37.4615797190576
 21
-11.09282882171447
 31
0.0
  0
LINE
  5
D6
330
2
100
AcDbEntity
  8
GAIKEI
  6
Continuous
370
    25
100
AcDbLine
 10
-37.46081669712453
 20
-11.0926554076388
 30
0.0
 11
-37.46130225653647
 21
-11.09273963733267
 31
0.0
  0
LINE
  5
D7
330
2
100
AcDbEntity
  8
GAIKEI
  6
Continuous
370
    25
100
AcDbLine
 10
-37.45359276219978
 20
-11.09217975760259
 30
0.0
 11
-37.46081669712453
 21
-11.0926554076388
 31
0.0
  0
LINE
  5
D8
330
2
100
AcDbEntity
  8
GAIKEI
  6
Continuous
370
    25
100
AcDbLine
 10
-37.41205265903858
 20
-11.09159014974523
 30
0.0
 11
-37.45359276219978
 21
-11.09217975760259
 31
0.0
  0
LINE
  5
D9
330
2
100
AcDbEntity
  8
GAIKEI
  6
Continuous
370
    25
100
AcDbLine
 10
-36.30071616821601
 20
-11.0927842295236
 30
0.0
 11
-36.30053779945243
 21
-11.09289818734476
 31
0.0
  0
LINE
  5
DA
330
2
100
AcDbEntity
  8
GAIKEI
  6
Continuous
370
    25
100
AcDbLine
 10
-36.30128100263397
 20
-11.0926653170145
 30
0.0
 11
-36.30071616821601
 21
-11.0927842295236
 31
0.0
  0
LINE
  5
DB
330
2
100
AcDbEntity
  8
GAIKEI
  6
Continuous
370
    25
100
AcDbLine
 10
-36.30740499685001
 20
-11.09222930448135
 30
0.0
 11
-36.30128100263397
 21
-11.0926653170145
 31
0.0
  0
LINE
  5
DC
330
2
100
AcDbEntity
  8
GAIKEI
  6
Continuous
370
    25
100
AcDbLine
 10
-36.3501144063502
 20
-11.09159014974523
 30
0.0
 11
-36.30740499685001
 21
-11.09222930448135
 31
0.0
  0
LINE
  5
DD
330
2
100
AcDbEntity
  8
GAIKEI
  6
Continuous
370
    25
100
AcDbLine
 10
-4.878030260785834
 20
-11.35440661349548
 30
0.0
 11
-4.854495493369824
 21
-11.35447597912576
 31
0.0
  0
LINE
  5
DE
330
2
100
AcDbEntity
  8
GAIKEI
  6
Continuous
370
    25
100
AcDbLine
 10
-4.940181865515569
 20
-11.35320757902928
 30
0.0
 11
-4.878030260785834
 21
-11.35440661349548
 31
0.0
  0
LINE
  5
DF
330
2
100
AcDbEntity
  8
GAIKEI
  6
Continuous
370
    25
100
AcDbLine
 10
-4.953430700898792
 20
-11.35223646020534
 30
0.0
 11
-4.940181865515569
 21
-11.35320757902928
 31
0.0
  0
LINE
  5
E0
330
2
100
AcDbEntity
  8
GAIKEI
  6
Continuous
370
    25
100
AcDbLine
 10
-4.954272997837904
 20
-11.35203331800238
 30
0.0
 11
-4.953430700898792
 21
-11.35223646020534
 31
0.0
  0
LINE
  5
E1
330
2
100
AcDbEntity
  8
GAIKEI
  6
Continuous
370
    25
100
AcDbLine
 10
-5.139974699469775
 20
-11.27927868121577
 30
0.0
 11
-5.138716208749002
 21
-11.27958587186418
 31
0.0
  0
LINE
  5
E2
330
2
100
AcDbEntity
  8
GAIKEI
  6
Continuous
370
    25
100
AcDbLine
 10
-5.145266306122465
 20
-11.27867420929476
 30
0.0
 11
-5.139974699469775
 21
-11.27927868121577
 31
0.0
  0
LINE
  5
E3
330
2
100
AcDbEntity
  8
GAIKEI
  6
Continuous
370
    25
100
AcDbLine
 10
-5.181643624515771
 20
-11.27708870917411
 30
0.0
 11
-5.145266306122465
 21
-11.27867420929476
 31
0.0
  0
LINE
  5
E4
330
2
100
AcDbEntity
  8
GAIKEI
  6
Continuous
370
    25
100
AcDbLine
 10
-5.288377510763211
 20
-11.27591940283514
 30
0.0
 11
-5.181643624515771
 21
-11.27708870917411
 31
0.0
  0
LINE
  5
E5
330
2
100
AcDbEntity
  8
GAIKEI
  6
Continuous
370
    25
100
AcDbLine
 10
-39.24611956111085
 20
-11.27927868121577
 30
0.0
 11
-39.24737805183162
 21
-11.27958587186418
 31
0.0
  0
LINE
  5
E6
330
2
100
AcDbEntity
  8
GAIKEI
  6
Continuous
370
    25
100
AcDbLine
 10
-39.24082795445816
 20
-11.27867420929476
 30
0.0
 11
-39.24611956111085
 21
-11.27927868121577
 31
0.0
  0
LINE
  5
E7
330
2
100
AcDbEntity
  8
GAIKEI
  6
Continuous
370
    25
100
AcDbLine
 10
-39.20445063606485
 20
-11.27708870917411
 30
0.0
 11
-39.24082795445816
 21
-11.27867420929476
 31
0.0
  0
LINE
  5
E8
330
2
100
AcDbEntity
  8
GAIKEI
  6
Continuous
370
    25
100
AcDbLine
 10
-39.09771674981741
 20
-11.27591940283514
 30
0.0
 11
-39.20445063606485
 21
-11.27708870917411
 31
0.0
  0
LINE
  5
E9
330
2
100
AcDbEntity
  8
GAIKEI
  6
Continuous
370
    25
100
AcDbLine
 10
-39.50806399979479
 20
-11.35440661349548
 30
0.0
 11
-39.53160867658653
 21
-11.35447597912576
 31
0.0
  0
LINE
  5
EA
330
2
100
AcDbEntity
  8
GAIKEI
  6
Continuous
370
    25
100
AcDbLine
 10
-39.44591239506505
 20
-11.35320757902928
 30
0.0
 11
-39.50806399979479
 21
-11.35440661349548
 31
0.0
  0
LINE
  5
EB
330
2
100
AcDbEntity
  8
GAIKEI
  6
Continuous
370
    25
100
AcDbLine
 10
-39.43266355968183
 20
-11.35223646020534
 30
0.0
 11
-39.44591239506505
 21
-11.35320757902928
 31
0.0
  0
LINE
  5
EC
330
2
100
AcDbEntity
  8
GAIKEI
  6
Continuous
370
    25
100
AcDbLine
 10
-39.43182126274272
 20
-11.35203331800238
 30
0.0
 11
-39.43266355968183
 21
-11.35223646020534
 31
0.0
  0
LINE
  5
ED
330
2
100
AcDbEntity
  8
GAIKEI
  6
Continuous
 62
     1
370
    25
100
AcDbLine
 10
-39.82788910225844
 20
4.17070109941585
 30
0.0
 11
-39.82771073349486
 21
4.170349316576619
 31
0.0
  0
LINE
  5
EE
330
2
100
AcDbEntity
  8
GAIKEI
  6
Continuous
 62
     1
370
    25
100
AcDbLine
 10
-39.82819629290683
 20
4.172791977700001
 30
0.0
 11
-39.82788910225844
 21
4.17070109941585
 31
0.0
  0
LINE
  5
EF
330
2
100
AcDbEntity
  8
GAIKEI
  6
Continuous
 62
     1
370
    25
100
AcDbLine
 10
-39.82875121794905
 20
4.190346436848358
 30
0.0
 11
-39.82819629290683
 21
4.172791977700001
 31
0.0
  0
LINE
  5
F0
330
2
100
AcDbEntity
  8
GAIKEI
  6
Continuous
 62
     1
370
    25
100
AcDbLine
 10
-39.82788910225844
 20
7.370344391345838
 30
0.0
 11
-39.82771073349486
 21
7.370691219497246
 31
0.0
  0
LINE
  5
F1
330
2
100
AcDbEntity
  8
GAIKEI
  6
Continuous
 62
     1
370
    25
100
AcDbLine
 10
-39.82819629290683
 20
7.368253513061745
 30
0.0
 11
-39.82788910225844
 21
7.370344391345838
 31
0.0
  0
LINE
  5
F2
330
2
100
AcDbEntity
  8
GAIKEI
  6
Continuous
 62
     1
370
    25
100
AcDbLine
 10
-39.82875121794905
 20
7.350699053913331
 30
0.0
 11
-39.82819629290683
 21
7.368253513061745
 31
0.0
  0
LINE
  5
F3
330
2
100
AcDbEntity
  8
GAIKEI
  6
Continuous
 62
     1
370
    25
100
AcDbLine
 10
-39.77666753898549
 20
7.443406218780864
 30
0.0
 11
-39.77634052958561
 21
7.478376405817073
 31
0.0
  0
LINE
  5
F4
330
2
100
AcDbEntity
  8
GAIKEI
  6
Continuous
 62
     1
370
    25
100
AcDbLine
 10
-39.77866923288781
 20
7.395207015112873
 30
0.0
 11
-39.77666753898549
 21
7.443406218780864
 31
0.0
  0
LINE
  5
F5
330
2
100
AcDbEntity
  8
GAIKEI
  6
Continuous
 62
     1
370
    25
100
AcDbLine
 10
-39.78037364551753
 20
7.381051471848138
 30
0.0
 11
-39.77866923288781
 21
7.395207015112873
 31
0.0
  0
LINE
  5
F6
330
2
100
AcDbEntity
  8
GAIKEI
  6
Continuous
 62
     1
370
    25
100
AcDbLine
 10
-39.78106730182032
 20
7.378861499806475
 30
0.0
 11
-39.78037364551753
 21
7.381051471848138
 31
0.0
  0
LINE
  5
F7
330
2
100
AcDbEntity
  8
GAIKEI
  6
Continuous
 62
     1
370
    25
100
AcDbLine
 10
-39.78129521746266
 20
7.378524581030831
 30
0.0
 11
-39.78106730182032
 21
7.378861499806475
 31
0.0
  0
LINE
  5
F8
330
2
100
AcDbEntity
  8
GAIKEI
  6
Continuous
 62
     1
370
    25
100
AcDbLine
 10
-39.78144385809896
 20
7.378415577897555
 30
0.0
 11
-39.78129521746266
 21
7.378524581030831
 31
0.0
  0
LINE
  5
F9
330
2
100
AcDbEntity
  8
GAIKEI
  6
Continuous
 62
     1
370
    25
100
AcDbLine
 10
-39.78153304248073
 20
7.378380895082443
 30
0.0
 11
-39.78144385809896
 21
7.378415577897555
 31
0.0
  0
LINE
  5
FA
330
2
100
AcDbEntity
  8
GAIKEI
  6
Continuous
 62
     1
370
    25
100
AcDbLine
 10
-39.77122729169648
 20
10.47135966639524
 30
0.0
 11
-39.7711381073147
 21
10.47138939452247
 31
0.0
  0
LINE
  5
FB
330
2
100
AcDbEntity
  8
GAIKEI
  6
Continuous
 62
     1
370
    25
100
AcDbLine
 10
-39.7713759323328
 20
10.47125066326197
 30
0.0
 11
-39.77122729169648
 21
10.47135966639524
 31
0.0
  0
LINE
  5
FC
330
2
100
AcDbEntity
  8
GAIKEI
  6
Continuous
 62
     1
370
    25
100
AcDbLine
 10
-39.77161375735088
 20
10.47091374448632
 30
0.0
 11
-39.7713759323328
 21
10.47125066326197
 31
0.0
  0
LINE
  5
FD
330
2
100
AcDbEntity
  8
GAIKEI
  6
Continuous
 62
     1
370
    25
100
AcDbLine
 10
-39.77206958863559
 20
10.46964534438979
 30
0.0
 11
-39.77161375735088
 21
10.47091374448632
 31
0.0
  0
LINE
  5
FE
330
2
100
AcDbEntity
  8
GAIKEI
  6
Continuous
 62
     1
370
    25
100
AcDbLine
 10
-39.77297134182922
 20
10.46478479558237
 30
0.0
 11
-39.77206958863559
 21
10.46964534438979
 31
0.0
  0
LINE
  5
FF
330
2
100
AcDbEntity
  8
GAIKEI
  6
Continuous
 62
     1
370
    25
100
AcDbLine
 10
-39.77490367010125
 20
10.44020954371223
 30
0.0
 11
-39.77297134182922
 21
10.46478479558237
 31
0.0
  0
LINE
  5
100
330
2
100
AcDbEntity
  8
GAIKEI
  6
Continuous
 62
     1
370
    25
100
AcDbLine
 10
-39.77634052958561
 20
10.37138892909996
 30
0.0
 11
-39.77490367010125
 21
10.44020954371223
 31
0.0
  0
LINE
  5
101
330
2
100
AcDbEntity
  8
GAIKEI
  6
Continuous
 62
     1
370
    25
100
AcDbLine
 10
-39.82129936738195
 20
10.47135966639524
 30
0.0
 11
-39.82121018300018
 21
10.47138939452247
 31
0.0
  0
LINE
  5
102
330
2
100
AcDbEntity
  8
GAIKEI
  6
Continuous
 62
     1
370
    25
100
AcDbLine
 10
-39.82144800801828
 20
10.47125066326197
 30
0.0
 11
-39.82129936738195
 21
10.47135966639524
 31
0.0
  0
LINE
  5
103
330
2
100
AcDbEntity
  8
GAIKEI
  6
Continuous
 62
     1
370
    25
100
AcDbLine
 10
-39.82167592366062
 20
10.47091374448632
 30
0.0
 11
-39.82144800801828
 21
10.47125066326197
 31
0.0
  0
LINE
  5
104
330
2
100
AcDbEntity
  8
GAIKEI
  6
Continuous
 62
     1
370
    25
100
AcDbLine
 10
-39.82214166432107
 20
10.46964534438979
 30
0.0
 11
-39.82167592366062
 21
10.47091374448632
 31
0.0
  0
LINE
  5
105
330
2
100
AcDbEntity
  8
GAIKEI
  6
Continuous
 62
     1
370
    25
100
AcDbLine
 10
-39.8230434175147
 20
10.46478479558237
 30
0.0
 11
-39.82214166432107
 21
10.46964534438979
 31
0.0
  0
LINE
  5
106
330
2
100
AcDbEntity
  8
GAIKEI
  6
Continuous
 62
     1
370
    25
100
AcDbLine
 10
-39.82496583641097
 20
10.44020954371223
 30
0.0
 11
-39.8230434175147
 21
10.46478479558237
 31
0.0
  0
LINE
  5
107
330
2
100
AcDbEntity
  8
GAIKEI
  6
Continuous
 62
     1
370
    25
100
AcDbLine
 10
-39.82640269589533
 20
10.37138892909996
 30
0.0
 11
-39.82496583641097
 21
10.44020954371223
 31
0.0
  0
LINE
  5
108
330
2
100
AcDbEntity
  8
GAIKEI
  6
Continuous
 62
     1
370
    25
100
AcDbLine
 10
-39.83151593378443
 20
7.378415577897555
 30
0.0
 11
-39.83160511816624
 21
7.378380895082443
 31
0.0
  0
LINE
  5
109
330
2
100
AcDbEntity
  8
GAIKEI
  6
Continuous
 62
     1
370
    25
100
AcDbLine
 10
-39.83136729314813
 20
7.378524581030831
 30
0.0
 11
-39.83151593378443
 21
7.378415577897555
 31
0.0
  0
LINE
  5
10A
330
2
100
AcDbEntity
  8
GAIKEI
  6
Continuous
 62
     1
370
    25
100
AcDbLine
 10
-39.83112946813003
 20
7.378861499806475
 30
0.0
 11
-39.83136729314813
 21
7.378524581030831
 31
0.0
  0
LINE
  5
10B
330
2
100
AcDbEntity
  8
GAIKEI
  6
Continuous
 62
     1
370
    25
100
AcDbLine
 10
-39.83067363684535
 20
7.38012989990301
 30
0.0
 11
-39.83112946813003
 21
7.378861499806475
 31
0.0
  0
LINE
  5
10C
330
2
100
AcDbEntity
  8
GAIKEI
  6
Continuous
 62
     1
370
    25
100
AcDbLine
 10
-39.82977188365172
 20
7.384985494022544
 30
0.0
 11
-39.83067363684535
 21
7.38012989990301
 31
0.0
  0
LINE
  5
10D
330
2
100
AcDbEntity
  8
GAIKEI
  6
Continuous
 62
     1
370
    25
100
AcDbLine
 10
-39.82783955537966
 20
7.40956074589269
 30
0.0
 11
-39.82977188365172
 21
7.384985494022544
 31
0.0
  0
LINE
  5
10E
330
2
100
AcDbEntity
  8
GAIKEI
  6
Continuous
 62
     1
370
    25
100
AcDbLine
 10
-39.82640269589533
 20
7.478376405817073
 30
0.0
 11
-39.82783955537966
 21
7.40956074589269
 31
0.0
  0
LINE
  5
10F
330
2
100
AcDbEntity
  8
GAIKEI
  6
Continuous
 62
     1
370
    25
100
AcDbLine
 10
-39.87796117794392
 20
7.370344391345838
 30
0.0
 11
-39.8777728998046
 21
7.370691219497246
 31
0.0
  0
LINE
  5
110
330
2
100
AcDbEntity
  8
GAIKEI
  6
Continuous
 62
     1
370
    25
100
AcDbLine
 10
-39.8782683685923
 20
7.368253513061745
 30
0.0
 11
-39.87796117794392
 21
7.370344391345838
 31
0.0
  0
LINE
  5
111
330
2
100
AcDbEntity
  8
GAIKEI
  6
Continuous
 62
     1
370
    25
100
AcDbLine
 10
-39.87881338425876
 20
7.350699053913331
 30
0.0
 11
-39.8782683685923
 21
7.368253513061745
 31
0.0
  0
LINE
  5
112
330
2
100
AcDbEntity
  8
GAIKEI
  6
Continuous
 62
     1
370
    25
100
AcDbLine
 10
-39.87796117794392
 20
4.17070109941585
 30
0.0
 11
-39.8777728998046
 21
4.170349316576619
 31
0.0
  0
LINE
  5
113
330
2
100
AcDbEntity
  8
GAIKEI
  6
Continuous
 62
     1
370
    25
100
AcDbLine
 10
-39.8782683685923
 20
4.172791977700001
 30
0.0
 11
-39.87796117794392
 21
4.17070109941585
 31
0.0
  0
LINE
  5
114
330
2
100
AcDbEntity
  8
GAIKEI
  6
Continuous
 62
     1
370
    25
100
AcDbLine
 10
-39.87881338425876
 20
4.190346436848358
 30
0.0
 11
-39.8782683685923
 21
4.172791977700001
 31
0.0
  0
LINE
  5
115
330
2
100
AcDbEntity
  8
GAIKEI
  6
Continuous
 62
     1
370
    25
100
AcDbLine
 10
-40.10691730474244
 20
3.671357745790885
 30
0.0
 11
-40.10682812036066
 21
3.671387473918173
 31
0.0
  0
LINE
  5
116
330
2
100
AcDbEntity
  8
GAIKEI
  6
Continuous
 62
     1
370
    25
100
AcDbLine
 10
-40.10706594537876
 20
3.67124874265761
 30
0.0
 11
-40.10691730474244
 21
3.671357745790885
 31
0.0
  0
LINE
  5
117
330
2
100
AcDbEntity
  8
GAIKEI
  6
Continuous
 62
     1
370
    25
100
AcDbLine
 10
-40.10730377039687
 20
3.670911823881965
 30
0.0
 11
-40.10706594537876
 21
3.67124874265761
 31
0.0
  0
LINE
  5
118
330
2
100
AcDbEntity
  8
GAIKEI
  6
Continuous
 62
     1
370
    25
100
AcDbLine
 10
-40.10775960168155
 20
3.66964342378543
 30
0.0
 11
-40.10730377039687
 21
3.670911823881965
 31
0.0
  0
LINE
  5
119
330
2
100
AcDbEntity
  8
GAIKEI
  6
Continuous
 62
     1
370
    25
100
AcDbLine
 10
-40.10866135487518
 20
3.664782874978072
 30
0.0
 11
-40.10775960168155
 21
3.66964342378543
 31
0.0
  0
LINE
  5
11A
330
2
100
AcDbEntity
  8
GAIKEI
  6
Continuous
 62
     1
370
    25
100
AcDbLine
 10
-40.11059368314721
 20
3.64021257779575
 30
0.0
 11
-40.10866135487518
 21
3.664782874978072
 31
0.0
  0
LINE
  5
11B
330
2
100
AcDbEntity
  8
GAIKEI
  6
Continuous
 62
     1
370
    25
100
AcDbLine
 10
-40.11203054263157
 20
3.571387008495662
 30
0.0
 11
-40.11059368314721
 21
3.64021257779575
 31
0.0
  0
LINE
  5
11C
330
2
100
AcDbEntity
  8
GAIKEI
  6
Continuous
 62
     1
370
    25
100
AcDbLine
 10
-13.6720066800064
 20
32.37050533916767
 30
0.0
 11
-13.66893477352261
 21
32.34360138399523
 31
0.0
  0
LINE
  5
11D
330
2
100
AcDbEntity
  8
GAIKEI
  6
Continuous
 62
     1
370
    25
100
AcDbLine
 10
-13.68258989331178
 20
32.40880507645722
 30
0.0
 11
-13.6720066800064
 21
32.37050533916767
 31
0.0
  0
LINE
  5
11E
330
2
100
AcDbEntity
  8
GAIKEI
  6
Continuous
 62
     1
370
    25
100
AcDbLine
 10
-13.6990790945666
 20
32.44299242280892
 30
0.0
 11
-13.68258989331178
 21
32.40880507645722
 31
0.0
  0
LINE
  5
11F
330
2
100
AcDbEntity
  8
GAIKEI
  6
Continuous
 62
     1
370
    25
100
AcDbLine
 10
-13.71992842115324
 20
32.47215571565323
 30
0.0
 11
-13.6990790945666
 21
32.44299242280892
 31
0.0
  0
LINE
  5
120
330
2
100
AcDbEntity
  8
GAIKEI
  6
Continuous
 62
     1
370
    25
100
AcDbLine
 10
-13.74389920110241
 20
32.4961066768509
 30
0.0
 11
-13.71992842115324
 21
32.47215571565323
 31
0.0
  0
LINE
  5
121
330
2
100
AcDbEntity
  8
GAIKEI
  6
Continuous
 62
     1
370
    25
100
AcDbLine
 10
-13.77002031559021
 20
32.51496421891096
 30
0.0
 11
-13.74389920110241
 21
32.4961066768509
 31
0.0
  0
LINE
  5
122
330
2
100
AcDbEntity
  8
GAIKEI
  6
Continuous
 62
     1
370
    25
100
AcDbLine
 10
-13.79753865205936
 20
32.52886707309392
 30
0.0
 11
-13.77002031559021
 21
32.51496421891096
 31
0.0
  0
LINE
  5
123
330
2
100
AcDbEntity
  8
GAIKEI
  6
Continuous
 62
     1
370
    25
100
AcDbLine
 10
-13.82589928546761
 20
32.53800351753921
 30
0.0
 11
-13.79753865205936
 21
32.52886707309392
 31
0.0
  0
LINE
  5
124
330
2
100
AcDbEntity
  8
GAIKEI
  6
Continuous
 62
     1
370
    25
100
AcDbLine
 10
-13.85905605674082
 20
32.5427798366527
 30
0.0
 11
-13.82589928546761
 21
32.53800351753921
 31
0.0
  0
LINE
  5
125
330
2
100
AcDbEntity
  8
GAIKEI
  6
Continuous
 62
     1
370
    25
100
AcDbLine
 10
-13.67122383932184
 20
-10.32354416317201
 30
0.0
 11
-13.66875640475905
 21
-10.29618933140278
 31
0.0
  0
LINE
  5
126
330
2
100
AcDbEntity
  8
GAIKEI
  6
Continuous
 62
     1
370
    25
100
AcDbLine
 10
-13.68119267133045
 20
-10.36254251145226
 30
0.0
 11
-13.67122383932184
 21
-10.32354416317201
 31
0.0
  0
LINE
  5
127
330
2
100
AcDbEntity
  8
GAIKEI
  6
Continuous
 62
     1
370
    25
100
AcDbLine
 10
-13.69740441006416
 20
-10.39730460159768
 30
0.0
 11
-13.68119267133045
 21
-10.36254251145226
 31
0.0
  0
LINE
  5
128
330
2
100
AcDbEntity
  8
GAIKEI
  6
Continuous
 62
     1
370
    25
100
AcDbLine
 10
-13.71825373665078
 20
-10.42679985852976
 30
0.0
 11
-13.69740441006416
 21
-10.39730460159768
 31
0.0
  0
LINE
  5
129
330
2
100
AcDbEntity
  8
GAIKEI
  6
Continuous
 62
     1
370
    25
100
AcDbLine
 10
-13.7423929759878
 20
-10.45086973223647
 30
0.0
 11
-13.71825373665078
 21
-10.42679985852976
 31
0.0
  0
LINE
  5
12A
330
2
100
AcDbEntity
  8
GAIKEI
  6
Continuous
 62
     1
370
    25
100
AcDbLine
 10
-13.76880146237246
 20
-10.46960340709961
 30
0.0
 11
-13.7423929759878
 21
-10.45086973223647
 31
0.0
  0
LINE
  5
12B
330
2
100
AcDbEntity
  8
GAIKEI
  6
Continuous
 62
     1
370
    25
100
AcDbLine
 10
-13.79667653636875
 20
-10.48318916125845
 30
0.0
 11
-13.76880146237246
 21
-10.46960340709961
 31
0.0
  0
LINE
  5
12C
330
2
100
AcDbEntity
  8
GAIKEI
  6
Continuous
 62
     1
370
    25
100
AcDbLine
 10
-13.8254434541829
 20
-10.49183509160394
 30
0.0
 11
-13.79667653636875
 21
-10.48318916125845
 31
0.0
  0
LINE
  5
12D
330
2
100
AcDbEntity
  8
GAIKEI
  6
Continuous
 62
     1
370
    25
100
AcDbLine
 10
-13.85905605674082
 20
-10.49584838878434
 30
0.0
 11
-13.8254434541829
 21
-10.49183509160394
 31
0.0
  0
LINE
  5
12E
330
2
100
AcDbEntity
  8
GAIKEI
  6
Continuous
 62
     1
370
    25
100
AcDbLine
 10
-38.76098625231725
 20
-10.49386155894564
 30
0.0
 11
-38.74049366325778
 21
-10.49371291830931
 31
0.0
  0
LINE
  5
12F
330
2
100
AcDbEntity
  8
GAIKEI
  6
Continuous
 62
     1
370
    25
100
AcDbLine
 10
-38.81257446249313
 20
-10.49508536685124
 30
0.0
 11
-38.76098625231725
 21
-10.49386155894564
 31
0.0
  0
LINE
  5
130
330
2
100
AcDbEntity
  8
GAIKEI
  6
Continuous
 62
     1
370
    25
100
AcDbLine
 10
-38.8230684914167
 20
-10.49597225598126
 30
0.0
 11
-38.81257446249313
 21
-10.49508536685124
 31
0.0
  0
LINE
  5
131
330
2
100
AcDbEntity
  8
GAIKEI
  6
Continuous
 62
     1
370
    25
100
AcDbLine
 10
-38.82369278208921
 20
-10.49616053412057
 30
0.0
 11
-38.8230684914167
 21
-10.49597225598126
 31
0.0
  0
LINE
  5
132
330
2
100
AcDbEntity
  8
GAIKEI
  6
Continuous
 62
     1
370
    25
100
AcDbLine
 10
-13.87448495478998
 20
-10.48826771633247
 30
0.0
 11
-13.87385075474168
 21
-10.48845599447179
 31
0.0
  0
LINE
  5
133
330
2
100
AcDbEntity
  8
GAIKEI
  6
Continuous
 62
     1
370
    25
100
AcDbLine
 10
-13.87731903625564
 20
-10.48789611474166
 30
0.0
 11
-13.87448495478998
 21
-10.48826771633247
 31
0.0
  0
LINE
  5
134
330
2
100
AcDbEntity
  8
GAIKEI
  6
Continuous
 62
     1
370
    25
100
AcDbLine
 10
-13.89299566869863
 20
-10.48704390842681
 30
0.0
 11
-13.87731903625564
 21
-10.48789611474166
 31
0.0
  0
LINE
  5
135
330
2
100
AcDbEntity
  8
GAIKEI
  6
Continuous
 62
     1
370
    25
100
AcDbLine
 10
-13.95940830500262
 20
-10.48600342397264
 30
0.0
 11
-13.89299566869863
 21
-10.48704390842681
 31
0.0
  0
LINE
  5
136
330
2
100
AcDbEntity
  8
GAIKEI
  6
Continuous
 62
     1
370
    25
100
AcDbLine
 10
-38.89758699708756
 20
32.33967727119665
 30
0.0
 11
-38.77379907516732
 21
32.33877551800299
 31
0.0
  0
LINE
  5
137
330
2
100
AcDbEntity
  8
GAIKEI
  6
Continuous
 62
     1
370
    25
100
AcDbLine
 10
-38.99682939526488
 20
32.3417780588565
 30
0.0
 11
-38.89758699708756
 21
32.33967727119665
 31
0.0
  0
LINE
  5
138
330
2
100
AcDbEntity
  8
GAIKEI
  6
Continuous
 62
     1
370
    25
100
AcDbLine
 10
-39.02140464713506
 20
32.34327437459536
 30
0.0
 11
-38.99682939526488
 21
32.3417780588565
 31
0.0
  0
LINE
  5
139
330
2
100
AcDbEntity
  8
GAIKEI
  6
Continuous
 62
     1
370
    25
100
AcDbLine
 10
-39.0234261597889
 20
32.34367074962552
 30
0.0
 11
-39.02140464713506
 21
32.34327437459536
 31
0.0
  0
LINE
  5
13A
330
2
100
AcDbEntity
  8
GAIKEI
  6
Continuous
 62
     1
370
    25
100
AcDbLine
 10
-38.97514768111492
 20
-10.29493084068201
 30
0.0
 11
-38.77379907516732
 21
-10.29378135309457
 31
0.0
  0
LINE
  5
13B
330
2
100
AcDbEntity
  8
GAIKEI
  6
Continuous
 62
     1
370
    25
100
AcDbLine
 10
-39.01770844997879
 20
-10.29583754856355
 30
0.0
 11
-38.97514768111492
 21
-10.29493084068201
 31
0.0
  0
LINE
  5
13C
330
2
100
AcDbEntity
  8
GAIKEI
  6
Continuous
 62
     1
370
    25
100
AcDbLine
 10
-39.0234261597889
 20
-10.29622401421795
 30
0.0
 11
-39.01770844997879
 21
-10.29583754856355
 31
0.0
  0
LINE
  5
13D
330
2
100
AcDbEntity
  8
GAIKEI
  6
Continuous
 62
     1
370
    25
100
AcDbLine
 10
-13.67682263662288
 20
-10.28828660423892
 30
0.0
 11
-13.67411737704202
 21
-10.28852442925699
 31
0.0
  0
LINE
  5
13E
330
2
100
AcDbEntity
  8
GAIKEI
  6
Continuous
 62
     1
370
    25
100
AcDbLine
 10
-13.72652806540546
 20
-10.28717675415447
 30
0.0
 11
-13.67682263662288
 21
-10.28828660423892
 31
0.0
  0
LINE
  5
13F
330
2
100
AcDbEntity
  8
GAIKEI
  6
Continuous
 62
     1
370
    25
100
AcDbLine
 10
-13.93079993720053
 20
-10.28607185875785
 30
0.0
 11
-13.72652806540546
 21
-10.28717675415447
 31
0.0
  0
LINE
  5
140
330
2
100
AcDbEntity
  8
GAIKEI
  6
Continuous
 62
     1
370
    25
100
AcDbLine
 10
-13.67681272724712
 20
32.32777611091598
 30
0.0
 11
-13.67411737704202
 21
32.32826167032789
 31
0.0
  0
LINE
  5
141
330
2
100
AcDbEntity
  8
GAIKEI
  6
Continuous
 62
     1
370
    25
100
AcDbLine
 10
-13.68962555009719
 20
32.32684462959509
 30
0.0
 11
-13.67681272724712
 21
32.32777611091598
 31
0.0
  0
LINE
  5
142
330
2
100
AcDbEntity
  8
GAIKEI
  6
Continuous
 62
     1
370
    25
100
AcDbLine
 10
-13.74308663229058
 20
32.32517985446839
 30
0.0
 11
-13.68962555009719
 21
32.32684462959509
 31
0.0
  0
LINE
  5
143
330
2
100
AcDbEntity
  8
GAIKEI
  6
Continuous
 62
     1
370
    25
100
AcDbLine
 10
-13.93079993720053
 20
32.32334661995384
 30
0.0
 11
-13.74308663229058
 21
32.32517985446839
 31
0.0
  0
LINE
  5
144
330
2
100
AcDbEntity
  8
GAIKEI
  6
Continuous
 62
     1
370
    25
100
AcDbLine
 10
-34.10608671995496
 20
13.15365922364293
 30
0.0
 11
-34.08777419356139
 21
13.1546997080971
 31
0.0
  0
LINE
  5
145
330
2
100
AcDbEntity
  8
GAIKEI
  6
Continuous
 62
     1
370
    25
100
AcDbLine
 10
-34.16046937409345
 20
13.14549389802152
 30
0.0
 11
-34.10608671995496
 21
13.15365922364293
 31
0.0
  0
LINE
  5
146
330
2
100
AcDbEntity
  8
GAIKEI
  6
Continuous
 62
     1
370
    25
100
AcDbLine
 10
-34.21318725310531
 20
13.12988663120882
 30
0.0
 11
-34.16046937409345
 21
13.14549389802152
 31
0.0
  0
LINE
  5
147
330
2
100
AcDbEntity
  8
GAIKEI
  6
Continuous
 62
     1
370
    25
100
AcDbLine
 10
-34.26324941941502
 20
13.10711488572593
 30
0.0
 11
-34.21318725310531
 21
13.12988663120882
 31
0.0
  0
LINE
  5
148
330
2
100
AcDbEntity
  8
GAIKEI
  6
Continuous
 62
     1
370
    25
100
AcDbLine
 10
-34.30969466357451
 20
13.07763449285744
 30
0.0
 11
-34.26324941941502
 21
13.10711488572593
 31
0.0
  0
LINE
  5
149
330
2
100
AcDbEntity
  8
GAIKEI
  6
Continuous
 62
     1
370
    25
100
AcDbLine
 10
-34.35164105114163
 20
13.04201028702147
 30
0.0
 11
-34.30969466357451
 21
13.07763449285744
 31
0.0
  0
LINE
  5
14A
330
2
100
AcDbEntity
  8
GAIKEI
  6
Continuous
 62
     1
370
    25
100
AcDbLine
 10
-34.38830574143179
 20
13.00093592452072
 30
0.0
 11
-34.35164105114163
 21
13.04201028702147
 31
0.0
  0
LINE
  5
14B
330
2
100
AcDbEntity
  8
GAIKEI
  6
Continuous
 62
     1
370
    25
100
AcDbLine
 10
-34.41899507814225
 20
12.95518433666399
 30
0.0
 11
-34.38830574143179
 21
13.00093592452072
 31
0.0
  0
LINE
  5
14C
330
2
100
AcDbEntity
  8
GAIKEI
  6
Continuous
 62
     1
370
    25
100
AcDbLine
 10
-34.44311449872774
 20
12.90563745789347
 30
0.0
 11
-34.41899507814225
 21
12.95518433666399
 31
0.0
  0
LINE
  5
14D
330
2
100
AcDbEntity
  8
GAIKEI
  6
Continuous
 62
     1
370
    25
100
AcDbLine
 10
-34.46023790003082
 20
12.85323667890583
 30
0.0
 11
-34.44311449872774
 21
12.90563745789347
 31
0.0
  0
LINE
  5
14E
330
2
100
AcDbEntity
  8
GAIKEI
  6
Continuous
 62
     1
370
    25
100
AcDbLine
 10
-34.47003827265161
 20
12.79897293727634
 30
0.0
 11
-34.46023790003082
 21
12.85323667890583
 31
0.0
  0
LINE
  5
14F
330
2
100
AcDbEntity
  8
GAIKEI
  6
Continuous
 62
     1
370
    25
100
AcDbLine
 10
-34.47233724782658
 20
12.74389662683501
 30
0.0
 11
-34.47003827265161
 21
12.79897293727634
 31
0.0
  0
LINE
  5
150
330
2
100
AcDbEntity
  8
GAIKEI
  6
Continuous
 62
     1
370
    25
100
AcDbLine
 10
-34.47236697595386
 20
5.896978766722895
 30
0.0
 11
-34.47233724782658
 21
5.917154255758248
 31
0.0
  0
LINE
  5
151
330
2
100
AcDbEntity
  8
GAIKEI
  6
Continuous
 62
     1
370
    25
100
AcDbLine
 10
-34.46941398197913
 20
5.856766519912753
 30
0.0
 11
-34.47236697595386
 21
5.896978766722895
 31
0.0
  0
LINE
  5
152
330
2
100
AcDbEntity
  8
GAIKEI
  6
Continuous
 62
     1
370
    25
100
AcDbLine
 10
-34.46245760019974
 20
5.817034877826699
 30
0.0
 11
-34.46941398197913
 21
5.856766519912753
 31
0.0
  0
LINE
  5
153
330
2
100
AcDbEntity
  8
GAIKEI
  6
Continuous
 62
     1
370
    25
100
AcDbLine
 10
-34.45154737749448
 20
5.778219852997835
 30
0.0
 11
-34.46245760019974
 21
5.817034877826699
 31
0.0
  0
LINE
  5
154
330
2
100
AcDbEntity
  8
GAIKEI
  6
Continuous
 62
     1
370
    25
100
AcDbLine
 10
-34.43681213574814
 20
5.740688092329207
 30
0.0
 11
-34.45154737749448
 21
5.778219852997835
 31
0.0
  0
LINE
  5
155
330
2
100
AcDbEntity
  8
GAIKEI
  6
Continuous
 62
     1
370
    25
100
AcDbLine
 10
-34.41840051559703
 20
5.704831016162984
 30
0.0
 11
-34.43681213574814
 21
5.740688092329207
 31
0.0
  0
LINE
  5
156
330
2
100
AcDbEntity
  8
GAIKEI
  6
Continuous
 62
     1
370
    25
100
AcDbLine
 10
-34.39648097642893
 20
5.671020226089979
 30
0.0
 11
-34.41840051559703
 21
5.704831016162984
 31
0.0
  0
LINE
  5
157
330
2
100
AcDbEntity
  8
GAIKEI
  6
Continuous
 62
     1
370
    25
100
AcDbLine
 10
-34.37127152451049
 20
5.639602550261599
 30
0.0
 11
-34.39648097642893
 21
5.671020226089979
 31
0.0
  0
LINE
  5
158
330
2
100
AcDbEntity
  8
GAIKEI
  6
Continuous
 62
     1
370
    25
100
AcDbLine
 10
-34.34303971298704
 20
5.610885179326203
 30
0.0
 11
-34.37127152451049
 21
5.639602550261599
 31
0.0
  0
LINE
  5
159
330
2
100
AcDbEntity
  8
GAIKEI
  6
Continuous
 62
     1
370
    25
100
AcDbLine
 10
-34.31206300437973
 20
5.585170349244322
 30
0.0
 11
-34.34303971298704
 21
5.610885179326203
 31
0.0
  0
LINE
  5
15A
330
2
100
AcDbEntity
  8
GAIKEI
  6
Continuous
 62
     1
370
    25
100
AcDbLine
 10
-34.27866840808841
 20
5.562725613161262
 30
0.0
 11
-34.31206300437973
 21
5.585170349244322
 31
0.0
  0
LINE
  5
15B
330
2
100
AcDbEntity
  8
GAIKEI
  6
Continuous
 62
     1
370
    25
100
AcDbLine
 10
-34.24317302413721
 20
5.543788796095157
 30
0.0
 11
-34.27866840808841
 21
5.562725613161262
 31
0.0
  0
LINE
  5
15C
330
2
100
AcDbEntity
  8
GAIKEI
  6
Continuous
 62
     1
370
    25
100
AcDbLine
 10
-34.20595340880482
 20
5.5285432214975
 30
0.0
 11
-34.24317302413721
 21
5.543788796095157
 31
0.0
  0
LINE
  5
15D
330
2
100
AcDbEntity
  8
GAIKEI
  6
Continuous
 62
     1
370
    25
100
AcDbLine
 10
-34.16738611836982
 20
5.517147439380266
 30
0.0
 11
-34.20595340880482
 21
5.5285432214975
 31
0.0
  0
LINE
  5
15E
330
2
100
AcDbEntity
  8
GAIKEI
  6
Continuous
 62
     1
370
    25
100
AcDbLine
 10
-34.12784770911097
 20
5.509725316940432
 30
0.0
 11
-34.16738611836982
 21
5.517147439380266
 31
0.0
  0
LINE
  5
15F
330
2
100
AcDbEntity
  8
GAIKEI
  6
Continuous
 62
     1
370
    25
100
AcDbLine
 10
-34.08777419356139
 20
5.50635117449616
 30
0.0
 11
-34.12784770911097
 21
5.509725316940432
 31
0.0
  0
LINE
  5
160
330
2
100
AcDbEntity
  8
GAIKEI
  6
Continuous
 62
     1
370
    25
100
AcDbLine
 10
-8.159411038623517
 20
-11.86910454485144
 30
0.0
 11
-8.159212851108435
 21
-11.99997271574801
 31
0.0
  0
LINE
  5
161
330
2
100
AcDbEntity
  8
GAIKEI
  6
Continuous
 62
     1
370
    25
100
AcDbLine
 10
-8.16144246065312
 20
-11.60010958531848
 30
0.0
 11
-8.159411038623517
 21
-11.86910454485144
 31
0.0
  0
LINE
  5
162
330
2
100
AcDbEntity
  8
GAIKEI
  6
Continuous
 62
     1
370
    25
100
AcDbLine
 10
-8.163176601410071
 20
-11.52098321992196
 30
0.0
 11
-8.16144246065312
 21
-11.60010958531848
 31
0.0
  0
LINE
  5
163
330
2
100
AcDbEntity
  8
GAIKEI
  6
Continuous
 62
     1
370
    25
100
AcDbLine
 10
-8.164385545252059
 20
-11.50120906060465
 30
0.0
 11
-8.163176601410071
 21
-11.52098321992196
 31
0.0
  0
LINE
  5
164
330
2
100
AcDbEntity
  8
GAIKEI
  6
Continuous
 62
     1
370
    25
100
AcDbLine
 10
-8.164633279645926
 20
-11.50014380271108
 30
0.0
 11
-8.164385545252059
 21
-11.50120906060465
 31
0.0
  0
LINE
  5
165
330
2
100
AcDbEntity
  8
GAIKEI
  6
Continuous
 62
     1
370
    25
100
AcDbLine
 10
-18.09860410436994
 20
-11.38381268604581
 30
0.0
 11
-18.08694076910734
 21
-11.38125111241339
 31
0.0
  0
LINE
  5
166
330
2
100
AcDbEntity
  8
GAIKEI
  6
Continuous
 62
     1
370
    25
100
AcDbLine
 10
-18.13601199784165
 20
-11.3888862864319
 30
0.0
 11
-18.09860410436994
 21
-11.38381268604581
 31
0.0
  0
LINE
  5
167
330
2
100
AcDbEntity
  8
GAIKEI
  6
Continuous
 62
     1
370
    25
100
AcDbLine
 10
-18.22676206099771
 20
-11.39630345418385
 30
0.0
 11
-18.13601199784165
 21
-11.3888862864319
 31
0.0
  0
LINE
  5
168
330
2
100
AcDbEntity
  8
GAIKEI
  6
Continuous
 62
     1
370
    25
100
AcDbLine
 10
-18.38314191977321
 20
-11.40450841730825
 30
0.0
 11
-18.22676206099771
 21
-11.39630345418385
 31
0.0
  0
LINE
  5
169
330
2
100
AcDbEntity
  8
GAIKEI
  6
Continuous
 62
     1
370
    25
100
AcDbLine
 10
-18.65821628133136
 20
-11.41402141803218
 30
0.0
 11
-18.38314191977321
 21
-11.40450841730825
 31
0.0
  0
LINE
  5
16A
330
2
100
AcDbEntity
  8
GAIKEI
  6
Continuous
 62
     1
370
    25
100
AcDbLine
 10
-19.09228657686407
 20
-11.42359387501068
 30
0.0
 11
-18.65821628133136
 21
-11.41402141803218
 31
0.0
  0
LINE
  5
16B
330
2
100
AcDbEntity
  8
GAIKEI
  6
Continuous
 62
     1
370
    25
100
AcDbLine
 10
-19.71040370827768
 20
-11.43126373184435
 30
0.0
 11
-19.09228657686407
 21
-11.42359387501068
 31
0.0
  0
LINE
  5
16C
330
2
100
AcDbEntity
  8
GAIKEI
  6
Continuous
 62
     1
370
    25
100
AcDbLine
 10
-20.50116198407929
 20
-11.43444959614925
 30
0.0
 11
-19.71040370827768
 21
-11.43126373184435
 31
0.0
  0
LINE
  5
16D
330
2
100
AcDbEntity
  8
GAIKEI
  6
Continuous
 62
     1
370
    25
100
AcDbLine
 10
-8.897193791643701
 20
-12.0801395655987
 30
0.0
 11
-8.896688413480262
 21
-12.10252980011512
 31
0.0
  0
LINE
  5
16E
330
2
100
AcDbEntity
  8
GAIKEI
  6
Continuous
 62
     1
370
    25
100
AcDbLine
 10
-8.901216998199856
 20
-12.03550773720224
 30
0.0
 11
-8.897193791643701
 21
-12.0801395655987
 31
0.0
  0
LINE
  5
16F
330
2
100
AcDbEntity
  8
GAIKEI
  6
Continuous
 62
     1
370
    25
100
AcDbLine
 10
-8.909233683184936
 20
-11.99139615103286
 30
0.0
 11
-8.901216998199856
 21
-12.03550773720224
 31
0.0
  0
LINE
  5
170
330
2
100
AcDbEntity
  8
GAIKEI
  6
Continuous
 62
     1
370
    25
100
AcDbLine
 10
-8.921194299720127
 20
-11.94817145399344
 30
0.0
 11
-8.909233683184936
 21
-11.99139615103286
 31
0.0
  0
LINE
  5
171
330
2
100
AcDbEntity
  8
GAIKEI
  6
Continuous
 62
     1
370
    25
100
AcDbLine
 10
-8.936999754047917
 20
-11.90618047423544
 30
0.0
 11
-8.921194299720127
 21
-11.94817145399344
 31
0.0
  0
LINE
  5
172
330
2
100
AcDbEntity
  8
GAIKEI
  6
Continuous
 62
     1
370
    25
100
AcDbLine
 10
-8.956521224283505
 20
-11.8657749945981
 30
0.0
 11
-8.936999754047917
 21
-11.90618047423544
 31
0.0
  0
LINE
  5
173
330
2
100
AcDbEntity
  8
GAIKEI
  6
Continuous
 62
     1
370
    25
100
AcDbLine
 10
-8.979610069790567
 20
-11.82729688854488
 30
0.0
 11
-8.956521224283505
 21
-11.8657749945981
 31
0.0
  0
LINE
  5
174
330
2
100
AcDbEntity
  8
GAIKEI
  6
Continuous
 62
     1
370
    25
100
AcDbLine
 10
-9.006068103054019
 20
-11.79105334672425
 30
0.0
 11
-8.979610069790567
 21
-11.82729688854488
 31
0.0
  0
LINE
  5
175
330
2
100
AcDbEntity
  8
GAIKEI
  6
Continuous
 62
     1
370
    25
100
AcDbLine
 10
-9.035687227183018
 20
-11.75735155978458
 30
0.0
 11
-9.006068103054019
 21
-11.79105334672425
 31
0.0
  0
LINE
  5
176
330
2
100
AcDbEntity
  8
GAIKEI
  6
Continuous
 62
     1
370
    25
100
AcDbLine
 10
-9.068199889032229
 20
-11.72645908087116
 30
0.0
 11
-9.035687227183018
 21
-11.75735155978458
 31
0.0
  0
LINE
  5
177
330
2
100
AcDbEntity
  8
GAIKEI
  6
Continuous
 62
     1
370
    25
100
AcDbLine
 10
-9.10334844483205
 20
-11.69862859906578
 30
0.0
 11
-9.068199889032229
 21
-11.72645908087116
 31
0.0
  0
LINE
  5
178
330
2
100
AcDbEntity
  8
GAIKEI
  6
Continuous
 62
     1
370
    25
100
AcDbLine
 10
-9.140815794558307
 20
-11.67407812063498
 30
0.0
 11
-9.10334844483205
 21
-11.69862859906578
 31
0.0
  0
LINE
  5
179
330
2
100
AcDbEntity
  8
GAIKEI
  6
Continuous
 62
     1
370
    25
100
AcDbLine
 10
-9.180324475689928
 20
-11.65300583309385
 30
0.0
 11
-9.140815794558307
 21
-11.67407812063498
 31
0.0
  0
LINE
  5
17A
330
2
100
AcDbEntity
  8
GAIKEI
  6
Continuous
 62
     1
370
    25
100
AcDbLine
 10
-9.221517750699717
 20
-11.63556037707877
 30
0.0
 11
-9.180324475689928
 21
-11.65300583309385
 31
0.0
  0
LINE
  5
17B
330
2
100
AcDbEntity
  8
GAIKEI
  6
Continuous
 62
     1
370
    25
100
AcDbLine
 10
-9.264058700812086
 20
-11.62187057447448
 30
0.0
 11
-9.221517750699717
 21
-11.63556037707877
 31
0.0
  0
LINE
  5
17C
330
2
100
AcDbEntity
  8
GAIKEI
  6
Continuous
 62
     1
370
    25
100
AcDbLine
 10
-9.307620316627122
 20
-11.61204542841432
 30
0.0
 11
-9.264058700812086
 21
-11.62187057447448
 31
0.0
  0
LINE
  5
17D
330
2
100
AcDbEntity
  8
GAIKEI
  6
Continuous
 62
     1
370
    25
100
AcDbLine
 10
-9.351816132490398
 20
-11.60612457640121
 30
0.0
 11
-9.307620316627122
 21
-11.61204542841432
 31
0.0
  0
LINE
  5
17E
330
2
100
AcDbEntity
  8
GAIKEI
  6
Continuous
 62
     1
370
    25
100
AcDbLine
 10
-9.396319139002059
 20
-11.60415261062616
 30
0.0
 11
-9.351816132490398
 21
-11.60612457640121
 31
0.0
  0
LINE
  5
17F
330
2
100
AcDbEntity
  8
GAIKEI
  6
Continuous
 62
     1
370
    25
100
AcDbLine
 10
-8.359530881977605
 20
-11.8962314609783
 30
0.0
 11
-8.359184053826226
 21
-11.99997271574801
 31
0.0
  0
LINE
  5
180
330
2
100
AcDbEntity
  8
GAIKEI
  6
Continuous
 62
     1
370
    25
100
AcDbLine
 10
-8.36160194151023
 20
-11.75234732502878
 30
0.0
 11
-8.359530881977605
 21
-11.8962314609783
 31
0.0
  0
LINE
  5
181
330
2
100
AcDbEntity
  8
GAIKEI
  6
Continuous
 62
     1
370
    25
100
AcDbLine
 10
-8.363385629145966
 20
-11.70906317173484
 30
0.0
 11
-8.36160194151023
 21
-11.75234732502878
 31
0.0
  0
LINE
  5
182
330
2
100
AcDbEntity
  8
GAIKEI
  6
Continuous
 62
     1
370
    25
100
AcDbLine
 10
-8.364346838594116
 20
-11.70071452266199
 30
0.0
 11
-8.363385629145966
 21
-11.70906317173484
 31
0.0
  0
LINE
  5
183
330
2
100
AcDbEntity
  8
GAIKEI
  6
Continuous
 62
     1
370
    25
100
AcDbLine
 10
-8.364594572987982
 20
-11.70007536792587
 30
0.0
 11
-8.364346838594116
 21
-11.70071452266199
 31
0.0
  0
LINE
  5
184
330
2
100
AcDbEntity
  8
GAIKEI
  6
Continuous
 62
     1
370
    25
100
AcDbLine
 10
-16.68695407194352
 20
-11.60464807941383
 30
0.0
 11
-16.66468770462407
 21
-11.60415261062616
 31
0.0
  0
LINE
  5
185
330
2
100
AcDbEntity
  8
GAIKEI
  6
Continuous
 62
     1
370
    25
100
AcDbLine
 10
-16.73134807532193
 20
-11.60859696565188
 30
0.0
 11
-16.68695407194352
 21
-11.60464807941383
 31
0.0
  0
LINE
  5
186
330
2
100
AcDbEntity
  8
GAIKEI
  6
Continuous
 62
     1
370
    25
100
AcDbLine
 10
-16.77527633803984
 20
-11.6164749193764
 30
0.0
 11
-16.73134807532193
 21
-11.60859696565188
 31
0.0
  0
LINE
  5
187
330
2
100
AcDbEntity
  8
GAIKEI
  6
Continuous
 62
     1
370
    25
100
AcDbLine
 10
-16.81837221319443
 20
-11.62824725777227
 30
0.0
 11
-16.77527633803984
 21
-11.6164749193764
 31
0.0
  0
LINE
  5
188
330
2
100
AcDbEntity
  8
GAIKEI
  6
Continuous
 62
     1
370
    25
100
AcDbLine
 10
-16.86028887263427
 20
-11.64382975114557
 30
0.0
 11
-16.81837221319443
 21
-11.62824725777227
 31
0.0
  0
LINE
  5
189
330
2
100
AcDbEntity
  8
GAIKEI
  6
Continuous
 62
     1
370
    25
100
AcDbLine
 10
-16.90067948820803
 20
-11.66311339636308
 30
0.0
 11
-16.86028887263427
 21
-11.64382975114557
 31
0.0
  0
LINE
  5
18A
330
2
100
AcDbEntity
  8
GAIKEI
  6
Continuous
 62
     1
370
    25
100
AcDbLine
 10
-16.93920714113997
 20
-11.68594955278837
 30
0.0
 11
-16.90067948820803
 21
-11.66311339636308
 31
0.0
  0
LINE
  5
18B
330
2
100
AcDbEntity
  8
GAIKEI
  6
Continuous
 62
     1
370
    25
100
AcDbLine
 10
-16.97554482203026
 20
-11.71216976103375
 30
0.0
 11
-16.93920714113997
 21
-11.68594955278837
 31
0.0
  0
LINE
  5
18C
330
2
100
AcDbEntity
  8
GAIKEI
  6
Continuous
 62
     1
370
    25
100
AcDbLine
 10
-17.00941506835778
 20
-11.74156592420831
 30
0.0
 11
-16.97554482203026
 21
-11.71216976103375
 31
0.0
  0
LINE
  5
18D
330
2
100
AcDbEntity
  8
GAIKEI
  6
Continuous
 62
     1
370
    25
100
AcDbLine
 10
-17.0405007800984
 20
-11.77390517198182
 30
0.0
 11
-17.00941506835778
 21
-11.74156592420831
 31
0.0
  0
LINE
  5
18E
330
2
100
AcDbEntity
  8
GAIKEI
  6
Continuous
 62
     1
370
    25
100
AcDbLine
 10
-17.06856413223403
 20
-11.80891499652102
 30
0.0
 11
-17.0405007800984
 21
-11.77390517198182
 31
0.0
  0
LINE
  5
18F
330
2
100
AcDbEntity
  8
GAIKEI
  6
Continuous
 62
     1
370
    25
100
AcDbLine
 10
-17.09335739037078
 20
-11.84631298061703
 30
0.0
 11
-17.06856413223403
 21
-11.80891499652102
 31
0.0
  0
LINE
  5
190
330
2
100
AcDbEntity
  8
GAIKEI
  6
Continuous
 62
     1
370
    25
100
AcDbLine
 10
-17.1146823669936
 20
-11.88579688830924
 30
0.0
 11
-17.09335739037078
 21
-11.84631298061703
 31
0.0
  0
LINE
  5
191
330
2
100
AcDbEntity
  8
GAIKEI
  6
Continuous
 62
     1
370
    25
100
AcDbLine
 10
-17.13237060271467
 20
-11.92703475550996
 30
0.0
 11
-17.1146823669936
 21
-11.88579688830924
 31
0.0
  0
LINE
  5
192
330
2
100
AcDbEntity
  8
GAIKEI
  6
Continuous
 62
     1
370
    25
100
AcDbLine
 10
-17.14625363814616
 20
-11.96968966344349
 30
0.0
 11
-17.13237060271467
 21
-11.92703475550996
 31
0.0
  0
LINE
  5
193
330
2
100
AcDbEntity
  8
GAIKEI
  6
Continuous
 62
     1
370
    25
100
AcDbLine
 10
-17.15625219828206
 20
-12.01339991989482
 30
0.0
 11
-17.14625363814616
 21
-11.96968966344349
 31
0.0
  0
LINE
  5
194
330
2
100
AcDbEntity
  8
GAIKEI
  6
Continuous
 62
     1
370
    25
100
AcDbLine
 10
-17.16227709874056
 20
-12.05781374202473
 30
0.0
 11
-17.15625219828206
 21
-12.01339991989482
 31
0.0
  0
LINE
  5
195
330
2
100
AcDbEntity
  8
GAIKEI
  6
Continuous
 62
     1
370
    25
100
AcDbLine
 10
-17.16428870201864
 20
-12.10255952824235
 30
0.0
 11
-17.16227709874056
 21
-12.05781374202473
 31
0.0
  0
LINE
  5
196
330
2
100
AcDbEntity
  8
GAIKEI
  6
Continuous
 62
     1
370
    25
100
AcDbLine
 10
-8.238180666492866
 20
-15.45112587369288
 30
0.0
 11
-8.159212851108435
 21
-15.45169566279873
 31
0.0
  0
LINE
  5
197
330
2
100
AcDbEntity
  8
GAIKEI
  6
Continuous
 62
     1
370
    25
100
AcDbLine
 10
-8.364683757369732
 20
-15.4473157187154
 30
0.0
 11
-8.238180666492866
 21
-15.45112587369288
 31
0.0
  0
LINE
  5
198
330
2
100
AcDbEntity
  8
GAIKEI
  6
Continuous
 62
     1
370
    25
100
AcDbLine
 10
-8.427816390299142
 20
-15.44274254180487
 30
0.0
 11
-8.364683757369732
 21
-15.4473157187154
 31
0.0
  0
LINE
  5
199
330
2
100
AcDbEntity
  8
GAIKEI
  6
Continuous
 62
     1
370
    25
100
AcDbLine
 10
-8.450617863909315
 20
-15.43938821811213
 30
0.0
 11
-8.427816390299142
 21
-15.44274254180487
 31
0.0
  0
LINE
  5
19A
330
2
100
AcDbEntity
  8
GAIKEI
  6
Continuous
 62
     1
370
    25
100
AcDbLine
 10
-8.457504880058422
 20
-15.43727752107651
 30
0.0
 11
-8.450617863909315
 21
-15.43938821811213
 31
0.0
  0
LINE
  5
19B
330
2
100
AcDbEntity
  8
GAIKEI
  6
Continuous
 62
     1
370
    25
100
AcDbLine
 10
-8.458624639518632
 20
-15.43656404602223
 30
0.0
 11
-8.457504880058422
 21
-15.43727752107651
 31
0.0
  0
LINE
  5
19C
330
2
100
AcDbEntity
  8
GAIKEI
  6
Continuous
 62
     1
370
    25
100
AcDbLine
 10
-8.459030923924558
 20
-15.43611812411325
 30
0.0
 11
-8.458624639518632
 21
-15.43656404602223
 31
0.0
  0
LINE
  5
19D
330
2
100
AcDbEntity
  8
GAIKEI
  6
Continuous
 62
     1
370
    25
100
AcDbLine
 10
-8.459169655185121
 20
-15.43585057096789
 30
0.0
 11
-8.459030923924558
 21
-15.43611812411325
 31
0.0
  0
LINE
  5
19E
330
2
100
AcDbEntity
  8
GAIKEI
  6
Continuous
 62
     1
370
    25
100
AcDbLine
 10
-6.776280189617438
 20
-15.43889770401228
 30
0.0
 11
-6.771632692388749
 21
-15.43735184139467
 31
0.0
  0
LINE
  5
19F
330
2
100
AcDbEntity
  8
GAIKEI
  6
Continuous
 62
     1
370
    25
100
AcDbLine
 10
-6.793819784702179
 20
-15.44188538080215
 30
0.0
 11
-6.776280189617438
 21
-15.43889770401228
 31
0.0
  0
LINE
  5
1A0
330
2
100
AcDbEntity
  8
GAIKEI
  6
Continuous
 62
     1
370
    25
100
AcDbLine
 10
-6.839323638165012
 20
-15.44588876860683
 30
0.0
 11
-6.793819784702179
 21
-15.44188538080215
 31
0.0
  0
LINE
  5
1A1
330
2
100
AcDbEntity
  8
GAIKEI
  6
Continuous
 62
     1
370
    25
100
AcDbLine
 10
-6.929439501272838
 20
-15.44982279078118
 30
0.0
 11
-6.839323638165012
 21
-15.44588876860683
 31
0.0
  0
LINE
  5
1A2
330
2
100
AcDbEntity
  8
GAIKEI
  6
Continuous
 62
     1
370
    25
100
AcDbLine
 10
-7.069756261950914
 20
-15.45169566279873
 30
0.0
 11
-6.929439501272838
 21
-15.44982279078118
 31
0.0
  0
LINE
  5
1A3
330
2
100
AcDbEntity
  8
GAIKEI
  6
Continuous
 62
     7
370
    25
100
AcDbLine
 10
-5.189769312634155
 20
-15.83812663439357
 30
0.0
 11
-5.369257835668179
 21
-15.84054452207755
 31
0.0
  0
LINE
  5
1A4
330
2
100
AcDbEntity
  8
GAIKEI
  6
Continuous
 62
     7
370
    25
100
AcDbLine
 10
-5.018078155709218
 20
-15.83158644639587
 30
0.0
 11
-5.189769312634155
 21
-15.83812663439357
 31
0.0
  0
LINE
  5
1A5
330
2
100
AcDbEntity
  8
GAIKEI
  6
Continuous
 62
     7
370
    25
100
AcDbLine
 10
-4.868753772470654
 20
-15.8232179785715
 30
0.0
 11
-5.018078155709218
 21
-15.83158644639587
 31
0.0
  0
LINE
  5
1A6
330
2
100
AcDbEntity
  8
GAIKEI
  6
Continuous
 62
     7
370
    25
100
AcDbLine
 10
-4.790350791504181
 20
-15.8160733186528
 30
0.0
 11
-4.868753772470654
 21
-15.8232179785715
 31
0.0
  0
LINE
  5
1A7
330
2
100
AcDbEntity
  8
GAIKEI
  6
Continuous
 62
     7
370
    25
100
AcDbLine
 10
-4.746917997573945
 20
-15.8098551853671
 30
0.0
 11
-4.790350791504181
 21
-15.8160733186528
 31
0.0
  0
LINE
  5
1A8
330
2
100
AcDbEntity
  8
GAIKEI
  6
Continuous
 62
     1
370
    25
100
AcDbLine
 10
-4.726296586629672
 20
-15.80499959124762
 30
0.0
 11
-4.746917997573945
 21
-15.8098551853671
 31
0.0
  0
LINE
  5
1A9
330
2
100
AcDbEntity
  8
GAIKEI
  6
Continuous
 62
     1
370
    25
100
AcDbLine
 10
-4.718418632905155
 20
-15.80169976912151
 30
0.0
 11
-4.726296586629672
 21
-15.80499959124762
 31
0.0
  0
LINE
  5
1AA
330
2
100
AcDbEntity
  8
GAIKEI
  6
Continuous
 62
     7
370
    25
100
AcDbLine
 10
-39.65979767395095
 20
-15.80499959124762
 30
0.0
 11
-39.66768553705123
 21
-15.80169976912151
 31
0.0
  0
LINE
  5
1AB
330
2
100
AcDbEntity
  8
GAIKEI
  6
Continuous
 62
     7
370
    25
100
AcDbLine
 10
-39.63917626300668
 20
-15.8098551853671
 30
0.0
 11
-39.65979767395095
 21
-15.80499959124762
 31
0.0
  0
LINE
  5
1AC
330
2
100
AcDbEntity
  8
GAIKEI
  6
Continuous
 62
     7
370
    25
100
AcDbLine
 10
-39.59574346907644
 20
-15.8160733186528
 30
0.0
 11
-39.63917626300668
 21
-15.8098551853671
 31
0.0
  0
LINE
  5
1AD
330
2
100
AcDbEntity
  8
GAIKEI
  6
Continuous
 62
     7
370
    25
100
AcDbLine
 10
-39.51734048811
 20
-15.8232179785715
 30
0.0
 11
-39.59574346907644
 21
-15.8160733186528
 31
0.0
  0
LINE
  5
1AE
330
2
100
AcDbEntity
  8
GAIKEI
  6
Continuous
 62
     7
370
    25
100
AcDbLine
 10
-39.3680161048714
 20
-15.83158644639587
 30
0.0
 11
-39.51734048811
 21
-15.8232179785715
 31
0.0
  0
LINE
  5
1AF
330
2
100
AcDbEntity
  8
GAIKEI
  6
Continuous
 62
     7
370
    25
100
AcDbLine
 10
-39.19633485732223
 20
-15.83812663439357
 30
0.0
 11
-39.3680161048714
 21
-15.83158644639587
 31
0.0
  0
LINE
  5
1B0
330
2
100
AcDbEntity
  8
GAIKEI
  6
Continuous
 62
     7
370
    25
100
AcDbLine
 10
-39.01683642491244
 20
-15.84054452207755
 30
0.0
 11
-39.19633485732223
 21
-15.83812663439357
 31
0.0
  0
LINE
  5
1B1
330
2
100
AcDbEntity
  8
GAIKEI
  6
Continuous
 62
     1
370
    25
100
AcDbLine
 10
-37.45665475930778
 20
-15.44982279078118
 30
0.0
 11
-37.31633799862971
 21
-15.45169566279873
 31
0.0
  0
LINE
  5
1B2
330
2
100
AcDbEntity
  8
GAIKEI
  6
Continuous
 62
     1
370
    25
100
AcDbLine
 10
-37.54677062241561
 20
-15.44588876860683
 30
0.0
 11
-37.45665475930778
 21
-15.44982279078118
 31
0.0
  0
LINE
  5
1B3
330
2
100
AcDbEntity
  8
GAIKEI
  6
Continuous
 62
     1
370
    25
100
AcDbLine
 10
-37.59227447587844
 20
-15.44188538080215
 30
0.0
 11
-37.54677062241561
 21
-15.44588876860683
 31
0.0
  0
LINE
  5
1B4
330
2
100
AcDbEntity
  8
GAIKEI
  6
Continuous
 62
     1
370
    25
100
AcDbLine
 10
-37.60981407096319
 20
-15.43889770401228
 30
0.0
 11
-37.59227447587844
 21
-15.44188538080215
 31
0.0
  0
LINE
  5
1B5
330
2
100
AcDbEntity
  8
GAIKEI
  6
Continuous
 62
     1
370
    25
100
AcDbLine
 10
-37.61446156819187
 20
-15.43735184139467
 30
0.0
 11
-37.60981407096319
 21
-15.43889770401228
 31
0.0
  0
LINE
  5
1B6
330
2
100
AcDbEntity
  8
GAIKEI
  6
Continuous
 62
     1
370
    25
100
AcDbLine
 10
-35.92706333665606
 20
-15.43611812411325
 30
0.0
 11
-35.9269246053955
 21
-15.43585057096789
 31
0.0
  0
LINE
  5
1B7
330
2
100
AcDbEntity
  8
GAIKEI
  6
Continuous
 62
     1
370
    25
100
AcDbLine
 10
-35.92746962106199
 20
-15.43656404602223
 30
0.0
 11
-35.92706333665606
 21
-15.43611812411325
 31
0.0
  0
LINE
  5
1B8
330
2
100
AcDbEntity
  8
GAIKEI
  6
Continuous
 62
     1
370
    25
100
AcDbLine
 10
-35.92859928989796
 20
-15.43727752107651
 30
0.0
 11
-35.92746962106199
 21
-15.43656404602223
 31
0.0
  0
LINE
  5
1B9
330
2
100
AcDbEntity
  8
GAIKEI
  6
Continuous
 62
     1
370
    25
100
AcDbLine
 10
-35.93547639667131
 20
-15.43938821811213
 30
0.0
 11
-35.92859928989796
 21
-15.43727752107651
 31
0.0
  0
LINE
  5
1BA
330
2
100
AcDbEntity
  8
GAIKEI
  6
Continuous
 62
     1
370
    25
100
AcDbLine
 10
-35.95827787028148
 20
-15.44274254180487
 30
0.0
 11
-35.93547639667131
 21
-15.43938821811213
 31
0.0
  0
LINE
  5
1BB
330
2
100
AcDbEntity
  8
GAIKEI
  6
Continuous
 62
     1
370
    25
100
AcDbLine
 10
-36.02141050321089
 20
-15.4473157187154
 30
0.0
 11
-35.95827787028148
 21
-15.44274254180487
 31
0.0
  0
LINE
  5
1BC
330
2
100
AcDbEntity
  8
GAIKEI
  6
Continuous
 62
     1
370
    25
100
AcDbLine
 10
-36.14791359408773
 20
-15.45112587369288
 30
0.0
 11
-36.02141050321089
 21
-15.4473157187154
 31
0.0
  0
LINE
  5
1BD
330
2
100
AcDbEntity
  8
GAIKEI
  6
Continuous
 62
     1
370
    25
100
AcDbLine
 10
-36.22688140947218
 20
-15.45169566279873
 30
0.0
 11
-36.14791359408773
 21
-15.45112587369288
 31
0.0
  0
LINE
  5
1BE
330
2
100
AcDbEntity
  8
GAIKEI
  6
Continuous
 62
     1
370
    25
100
AcDbLine
 10
-27.22381716184009
 20
-12.05781374202473
 30
0.0
 11
-27.22180555856198
 21
-12.10255952824235
 31
0.0
  0
LINE
  5
1BF
330
2
100
AcDbEntity
  8
GAIKEI
  6
Continuous
 62
     1
370
    25
100
AcDbLine
 10
-27.22984206229856
 20
-12.01339991989482
 30
0.0
 11
-27.22381716184009
 21
-12.05781374202473
 31
0.0
  0
LINE
  5
1C0
330
2
100
AcDbEntity
  8
GAIKEI
  6
Continuous
 62
     1
370
    25
100
AcDbLine
 10
-27.23984062243449
 20
-11.96968966344349
 30
0.0
 11
-27.22984206229856
 21
-12.01339991989482
 31
0.0
  0
LINE
  5
1C1
330
2
100
AcDbEntity
  8
GAIKEI
  6
Continuous
 62
     1
370
    25
100
AcDbLine
 10
-27.25373356724168
 20
-11.92703475550996
 30
0.0
 11
-27.23984062243449
 21
-11.96968966344349
 31
0.0
  0
LINE
  5
1C2
330
2
100
AcDbEntity
  8
GAIKEI
  6
Continuous
 62
     1
370
    25
100
AcDbLine
 10
-27.27141189358702
 20
-11.88579688830924
 30
0.0
 11
-27.25373356724168
 21
-11.92703475550996
 31
0.0
  0
LINE
  5
1C3
330
2
100
AcDbEntity
  8
GAIKEI
  6
Continuous
 62
     1
370
    25
100
AcDbLine
 10
-27.29273687020987
 20
-11.84631298061703
 30
0.0
 11
-27.27141189358702
 21
-11.88579688830924
 31
0.0
  0
LINE
  5
1C4
330
2
100
AcDbEntity
  8
GAIKEI
  6
Continuous
 62
     1
370
    25
100
AcDbLine
 10
-27.31753012834662
 20
-11.80891499652102
 30
0.0
 11
-27.29273687020987
 21
-11.84631298061703
 31
0.0
  0
LINE
  5
1C5
330
2
100
AcDbEntity
  8
GAIKEI
  6
Continuous
 62
     1
370
    25
100
AcDbLine
 10
-27.34559348048225
 20
-11.77390517198182
 30
0.0
 11
-27.31753012834662
 21
-11.80891499652102
 31
0.0
  0
LINE
  5
1C6
330
2
100
AcDbEntity
  8
GAIKEI
  6
Continuous
 62
     1
370
    25
100
AcDbLine
 10
-27.3766891015986
 20
-11.74156592420831
 30
0.0
 11
-27.34559348048225
 21
-11.77390517198182
 31
0.0
  0
LINE
  5
1C7
330
2
100
AcDbEntity
  8
GAIKEI
  6
Continuous
 62
     1
370
    25
100
AcDbLine
 10
-27.41054943855039
 20
-11.71216976103375
 30
0.0
 11
-27.3766891015986
 21
-11.74156592420831
 31
0.0
  0
LINE
  5
1C8
330
2
100
AcDbEntity
  8
GAIKEI
  6
Continuous
 62
     1
370
    25
100
AcDbLine
 10
-27.44689702881641
 20
-11.68594955278837
 30
0.0
 11
-27.41054943855039
 21
-11.71216976103375
 31
0.0
  0
LINE
  5
1C9
330
2
100
AcDbEntity
  8
GAIKEI
  6
Continuous
 62
     1
370
    25
100
AcDbLine
 10
-27.48541477237262
 20
-11.66311339636308
 30
0.0
 11
-27.44689702881641
 21
-11.68594955278837
 31
0.0
  0
LINE
  5
1CA
330
2
100
AcDbEntity
  8
GAIKEI
  6
Continuous
 62
     1
370
    25
100
AcDbLine
 10
-27.52581529732208
 20
-11.64382975114557
 30
0.0
 11
-27.48541477237262
 21
-11.66311339636308
 31
0.0
  0
LINE
  5
1CB
330
2
100
AcDbEntity
  8
GAIKEI
  6
Continuous
 62
     1
370
    25
100
AcDbLine
 10
-27.56772204738621
 20
-11.62824725777227
 30
0.0
 11
-27.52581529732208
 21
-11.64382975114557
 31
0.0
  0
LINE
  5
1CC
330
2
100
AcDbEntity
  8
GAIKEI
  6
Continuous
 62
     1
370
    25
100
AcDbLine
 10
-27.61081792254078
 20
-11.6164749193764
 30
0.0
 11
-27.56772204738621
 21
-11.62824725777227
 31
0.0
  0
LINE
  5
1CD
330
2
100
AcDbEntity
  8
GAIKEI
  6
Continuous
 62
     1
370
    25
100
AcDbLine
 10
-27.65474618525872
 20
-11.60859696565188
 30
0.0
 11
-27.61081792254078
 21
-11.6164749193764
 31
0.0
  0
LINE
  5
1CE
330
2
100
AcDbEntity
  8
GAIKEI
  6
Continuous
 62
     1
370
    25
100
AcDbLine
 10
-27.69915009801287
 20
-11.60464807941383
 30
0.0
 11
-27.65474618525872
 21
-11.60859696565188
 31
0.0
  0
LINE
  5
1CF
330
2
100
AcDbEntity
  8
GAIKEI
  6
Continuous
 62
     1
370
    25
100
AcDbLine
 10
-27.72140655595655
 20
-11.60415261062616
 30
0.0
 11
-27.69915009801287
 21
-11.60464807941383
 31
0.0
  0
LINE
  5
1D0
330
2
100
AcDbEntity
  8
GAIKEI
  6
Continuous
 62
     1
370
    25
100
AcDbLine
 10
-36.02174742198651
 20
-11.70071452266199
 30
0.0
 11
-36.02149968759267
 21
-11.70007536792587
 31
0.0
  0
LINE
  5
1D1
330
2
100
AcDbEntity
  8
GAIKEI
  6
Continuous
 62
     1
370
    25
100
AcDbLine
 10
-36.02270863143465
 20
-11.70906317173484
 30
0.0
 11
-36.02174742198651
 21
-11.70071452266199
 31
0.0
  0
LINE
  5
1D2
330
2
100
AcDbEntity
  8
GAIKEI
  6
Continuous
 62
     1
370
    25
100
AcDbLine
 10
-36.02449231907039
 20
-11.75234732502878
 30
0.0
 11
-36.02270863143465
 21
-11.70906317173484
 31
0.0
  0
LINE
  5
1D3
330
2
100
AcDbEntity
  8
GAIKEI
  6
Continuous
 62
     1
370
    25
100
AcDbLine
 10
-36.02657328797878
 20
-11.8962314609783
 30
0.0
 11
-36.02449231907039
 21
-11.75234732502878
 31
0.0
  0
LINE
  5
1D4
330
2
100
AcDbEntity
  8
GAIKEI
  6
Continuous
 62
     1
370
    25
100
AcDbLine
 10
-36.0269102067544
 20
-11.99997271574801
 30
0.0
 11
-36.02657328797878
 21
-11.8962314609783
 31
0.0
  0
LINE
  5
1D5
330
2
100
AcDbEntity
  8
GAIKEI
  6
Continuous
 62
     1
370
    25
100
AcDbLine
 10
-24.60069055230295
 20
-11.43126373184435
 30
0.0
 11
-23.80993227650134
 21
-11.43444959614925
 31
0.0
  0
LINE
  5
1D6
330
2
100
AcDbEntity
  8
GAIKEI
  6
Continuous
 62
     1
370
    25
100
AcDbLine
 10
-25.21880768371656
 20
-11.42359387501068
 30
0.0
 11
-24.60069055230295
 21
-11.43126373184435
 31
0.0
  0
LINE
  5
1D7
330
2
100
AcDbEntity
  8
GAIKEI
  6
Continuous
 62
     1
370
    25
100
AcDbLine
 10
-25.72787797924929
 20
-11.41402141803218
 30
0.0
 11
-25.21880768371656
 21
-11.42359387501068
 31
0.0
  0
LINE
  5
1D8
330
2
100
AcDbEntity
  8
GAIKEI
  6
Continuous
 62
     1
370
    25
100
AcDbLine
 10
-26.00295234080741
 20
-11.40450841730825
 30
0.0
 11
-25.72787797924929
 21
-11.41402141803218
 31
0.0
  0
LINE
  5
1D9
330
2
100
AcDbEntity
  8
GAIKEI
  6
Continuous
 62
     1
370
    25
100
AcDbLine
 10
-26.15934210895864
 20
-11.39630345418385
 30
0.0
 11
-26.00295234080741
 21
-11.40450841730825
 31
0.0
  0
LINE
  5
1DA
330
2
100
AcDbEntity
  8
GAIKEI
  6
Continuous
 62
     1
370
    25
100
AcDbLine
 10
-26.25008226273897
 20
-11.3888862864319
 30
0.0
 11
-26.15934210895864
 21
-11.39630345418385
 31
0.0
  0
LINE
  5
1DB
330
2
100
AcDbEntity
  8
GAIKEI
  6
Continuous
 62
     1
370
    25
100
AcDbLine
 10
-26.28749015621071
 20
-11.38381268604581
 30
0.0
 11
-26.25008226273897
 21
-11.3888862864319
 31
0.0
  0
LINE
  5
1DC
330
2
100
AcDbEntity
  8
GAIKEI
  6
Continuous
 62
     1
370
    25
100
AcDbLine
 10
-26.29915349147328
 20
-11.38125111241339
 30
0.0
 11
-26.28749015621071
 21
-11.38381268604581
 31
0.0
  0
LINE
  5
1DD
330
2
100
AcDbEntity
  8
GAIKEI
  6
Continuous
 62
     1
370
    25
100
AcDbLine
 10
-36.22170871532853
 20
-11.50120906060465
 30
0.0
 11
-36.22147089031046
 21
-11.50014380271108
 31
0.0
  0
LINE
  5
1DE
330
2
100
AcDbEntity
  8
GAIKEI
  6
Continuous
 62
     1
370
    25
100
AcDbLine
 10
-36.22291765917055
 20
-11.52098321992196
 30
0.0
 11
-36.22170871532853
 21
-11.50120906060465
 31
0.0
  0
LINE
  5
1DF
330
2
100
AcDbEntity
  8
GAIKEI
  6
Continuous
 62
     1
370
    25
100
AcDbLine
 10
-36.22466170930326
 20
-11.60010958531848
 30
0.0
 11
-36.22291765917055
 21
-11.52098321992196
 31
0.0
  0
LINE
  5
1E0
330
2
100
AcDbEntity
  8
GAIKEI
  6
Continuous
 62
     1
370
    25
100
AcDbLine
 10
-36.22668322195707
 20
-11.86910454485144
 30
0.0
 11
-36.22466170930326
 21
-11.60010958531848
 31
0.0
  0
LINE
  5
1E1
330
2
100
AcDbEntity
  8
GAIKEI
  6
Continuous
 62
     1
370
    25
100
AcDbLine
 10
-36.22688140947218
 20
-11.99997271574801
 30
0.0
 11
-36.22668322195707
 21
-11.86910454485144
 31
0.0
  0
LINE
  5
1E2
330
2
100
AcDbEntity
  8
GAIKEI
  6
Continuous
370
    25
100
AcDbLine
 10
43.96025302947641
 20
-11.1627939692263
 30
0.0
 11
43.95966342161904
 21
-11.16056435968164
 31
0.0
  0
LINE
  5
1E3
330
2
100
AcDbEntity
  8
GAIKEI
  6
Continuous
370
    25
100
AcDbLine
 10
43.96478161419605
 20
-11.17039941511757
 30
0.0
 11
43.96025302947641
 21
-11.1627939692263
 31
0.0
  0
LINE
  5
1E4
330
2
100
AcDbEntity
  8
GAIKEI
  6
Continuous
370
    25
100
AcDbLine
 10
43.97876869807293
 20
-11.18833043054462
 30
0.0
 11
43.96478161419605
 21
-11.17039941511757
 31
0.0
  0
LINE
  5
1E5
330
2
100
AcDbEntity
  8
GAIKEI
  6
Continuous
370
    25
100
AcDbLine
 10
44.01569598682061
 20
-11.22989530714523
 30
0.0
 11
43.97876869807293
 21
-11.18833043054462
 31
0.0
  0
LINE
  5
1E6
330
2
100
AcDbEntity
  8
GAIKEI
  6
Continuous
370
    25
100
AcDbLine
 10
44.09402960215681
 20
-11.31117696176824
 30
0.0
 11
44.01569598682061
 21
-11.22989530714523
 31
0.0
  0
LINE
  5
1E7
330
2
100
AcDbEntity
  8
GAIKEI
  6
Continuous
370
    25
100
AcDbLine
 10
44.13737321170524
 20
-11.35421338066828
 30
0.0
 11
44.09402960215681
 21
-11.31117696176824
 31
0.0
  0
LINE
  5
1E8
330
2
100
AcDbEntity
  8
GAIKEI
  6
Continuous
 62
     1
370
    25
100
AcDbLine
 10
-35.78153424433131
 20
-11.3593563466847
 30
0.0
 11
-35.78153424433131
 21
-14.62010084951447
 31
0.0
  0
LINE
  5
1E9
330
2
100
AcDbEntity
  8
GAIKEI
  6
Continuous
370
    25
100
AcDbLine
 10
-39.03153202915575
 20
-14.704385044991
 30
0.0
 11
-39.03153202915575
 21
-11.35938112012405
 31
0.0
  0
LINE
  5
1EA
330
2
100
AcDbEntity
  8
GAIKEI
  6
Continuous
 62
     1
370
    25
100
AcDbLine
 10
-36.22787234704759
 20
-15.35183888332466
 30
0.0
 11
-36.22787234704759
 21
-11.99997271574801
 31
0.0
  0
LINE
  5
1EB
330
2
100
AcDbEntity
  8
GAIKEI
  6
Continuous
 62
     1
370
    25
100
AcDbLine
 10
-36.02790114432983
 20
-15.33599379149382
 30
0.0
 11
-36.02790114432983
 21
-11.99997271574801
 31
0.0
  0
LINE
  5
1EC
330
2
100
AcDbEntity
  8
GAIKEI
  6
Continuous
 62
     1
370
    25
100
AcDbLine
 10
-36.02790114432983
 20
-15.33599379149382
 30
0.0
 11
-36.02790114432983
 21
-11.99997271574801
 31
0.0
  0
LINE
  5
1ED
330
2
100
AcDbEntity
  8
GAIKEI
  6
Continuous
 62
     1
370
    25
100
AcDbLine
 10
-35.49039678467579
 20
-12.10252980011512
 30
0.0
 11
-35.49039678467579
 21
-14.71478493484488
 31
0.0
  0
LINE
  5
1EE
330
2
100
AcDbEntity
  8
GAIKEI
  6
Continuous
 62
     1
370
    25
100
AcDbLine
 10
-4.759524036142522
 20
-10.79670694605465
 30
0.0
 11
-4.143051861104083
 21
-11.10473493668303
 31
0.0
  0
LINE
  5
1EF
330
2
100
AcDbEntity
  8
GAIKEI
  6
Continuous
 62
     1
370
    25
100
AcDbLine
 10
-7.044943185062663
 20
33.61709489965796
 30
0.0
 11
-7.026145099257121
 21
33.61709489965796
 31
0.0
  0
LINE
  5
1F0
330
2
100
AcDbEntity
  8
GAIKEI
  6
Continuous
 62
     1
370
    25
100
AcDbLine
 10
-7.266150180021497
 20
33.61709489965796
 30
0.0
 11
-7.044943185062663
 21
33.61709489965796
 31
0.0
  0
LINE
  5
1F1
330
2
100
AcDbEntity
  8
GAIKEI
  6
Continuous
 62
     1
370
    25
100
AcDbLine
 10
-7.266150180021497
 20
33.61709489965796
 30
0.0
 11
-7.278655812223149
 21
33.76003764491088
 31
0.0
  0
LINE
  5
1F2
330
2
100
AcDbEntity
  8
GAIKEI
  6
Continuous
 62
     1
370
    25
100
AcDbLine
 10
-4.759524036142522
 20
32.90438286729563
 30
0.0
 11
-4.143051861104083
 21
33.52086495170989
 31
0.0
  0
LINE
  5
1F3
330
2
100
AcDbEntity
  8
GAIKEI
  6
Continuous
 62
     1
370
    25
100
AcDbLine
 10
-5.009180848891389
 20
33.15403968004449
 30
0.0
 11
-4.392708673852922
 21
33.77052176445869
 31
0.0
  0
LINE
  5
1F4
330
2
100
AcDbEntity
  8
GAIKEI
  6
Continuous
 62
     1
370
    25
100
AcDbLine
 10
-5.009180848891389
 20
32.90438286729563
 30
0.0
 11
-5.009180848891389
 21
33.15403968004449
 31
0.0
  0
LINE
  5
1F5
330
2
100
AcDbEntity
  8
GAIKEI
  6
Continuous
 62
     1
370
    25
100
AcDbLine
 10
-5.009180848891389
 20
32.90438286729563
 30
0.0
 11
-4.759524036142522
 21
32.90438286729563
 31
0.0
  0
LINE
  5
1F6
330
2
100
AcDbEntity
  8
GAIKEI
  6
Continuous
 62
     1
370
    25
100
AcDbLine
 10
-5.535031782658563
 20
32.57076391378229
 30
0.0
 11
-5.255270286368755
 21
32.85052541007213
 31
0.0
  0
LINE
  5
1F7
330
2
100
AcDbEntity
  8
GAIKEI
  6
Continuous
 62
     1
370
    25
100
AcDbLine
 10
43.95966342161904
 20
18.94551098315213
 30
0.0
 11
43.90966566625173
 21
18.94551098315213
 31
0.0
  0
LINE
  5
1F8
330
2
100
AcDbEntity
  8
GAIKEI
  6
Continuous
 62
     1
370
    25
100
AcDbLine
 10
-34.23104394821419
 20
-11.27591940283514
 30
0.0
 11
-34.23104394821419
 21
-14.5979434853283
 31
0.0
  0
LINE
  5
1F9
330
2
100
AcDbEntity
  8
GAIKEI
  6
Continuous
 62
     1
370
    25
100
AcDbLine
 10
-35.03103776221863
 20
-11.27591940283514
 30
0.0
 11
-35.03103776221863
 21
-14.5979434853283
 31
0.0
  0
LINE
  5
1FA
330
2
100
AcDbEntity
  8
GAIKEI
  6
Continuous
370
    25
100
AcDbLine
 10
38.5594648747271
 20
-11.30079193597794
 30
0.0
 11
30.94657704226222
 21
-11.50014380271108
 31
0.0
  0
LINE
  5
1FB
330
2
100
AcDbEntity
  8
GAIKEI
  6
Continuous
370
    25
100
AcDbLine
 10
40.6596629267394
 20
33.37061899652616
 30
0.0
 11
40.60966517137205
 21
33.37061899652616
 31
0.0
  0
LINE
  5
1FC
330
2
100
AcDbEntity
  8
GAIKEI
  6
Continuous
370
    25
100
AcDbLine
 10
40.80969583034437
 20
33.55056335084493
 30
0.0
 11
40.60966517137205
 21
33.55056335084493
 31
0.0
  0
LINE
  5
1FD
330
2
100
AcDbEntity
  8
GAIKEI
  6
Continuous
370
    25
100
AcDbLine
 10
40.60966517137205
 20
32.15816723550876
 30
0.0
 11
40.6596629267394
 21
32.15832578552079
 31
0.0
  0
LINE
  5
1FE
330
2
100
AcDbEntity
  8
GAIKEI
  6
Continuous
370
    25
100
AcDbLine
 10
40.6596629267394
 20
33.55056335084493
 30
0.0
 11
40.6596629267394
 21
32.15832578552079
 31
0.0
  0
LINE
  5
1FF
330
2
100
AcDbEntity
  8
GAIKEI
  6
Continuous
370
    25
100
AcDbLine
 10
28.84658213245285
 20
33.15403968004449
 30
0.0
 11
40.60966517137205
 21
33.77052176445869
 31
0.0
  0
LINE
  5
200
330
2
100
AcDbEntity
  8
GAIKEI
  6
Continuous
370
    25
100
AcDbLine
 10
40.60966517137205
 20
33.52086495170989
 30
0.0
 11
40.60966517137205
 21
33.77052176445869
 31
0.0
  0
LINE
  5
201
330
2
100
AcDbEntity
  8
GAIKEI
  6
Continuous
370
    25
100
AcDbLine
 10
21.49920295463175
 20
32.48007330688074
 30
0.0
 11
28.60966382223592
 21
32.85052541007213
 31
0.0
  0
LINE
  5
202
330
2
100
AcDbEntity
  8
GAIKEI
  6
Continuous
370
    25
100
AcDbLine
 10
21.30966345107615
 20
-18.32947747554755
 30
0.0
 11
47.20966345107615
 21
-18.32947747554755
 31
0.0
  0
LINE
  5
203
330
2
100
AcDbEntity
  8
GAIKEI
  6
Continuous
 62
     1
370
    25
100
AcDbLine
 10
42.90966596671435
 20
-8.004384055231639
 30
0.0
 11
43.60966426998413
 21
-8.004384055231639
 31
0.0
  0
LINE
  5
204
330
2
100
AcDbEntity
  8
GAIKEI
  6
Continuous
 62
     1
370
    25
100
AcDbLine
 10
42.90966596671435
 20
-8.004384055231639
 30
0.0
 11
42.90966596671435
 21
-8.154382276021522
 31
0.0
  0
LINE
  5
205
330
2
100
AcDbEntity
  8
GAIKEI
  6
Continuous
 62
     1
370
    25
100
AcDbLine
 10
42.90966596671435
 20
-8.154382276021522
 30
0.0
 11
43.60966426998413
 21
-8.154382276021522
 31
0.0
  0
LINE
  5
206
330
2
100
AcDbEntity
  8
GAIKEI
  6
Continuous
 62
     1
370
    25
100
AcDbLine
 10
42.90966596671435
 20
-8.004384055231639
 30
0.0
 11
42.90966596671435
 21
-8.154382276021522
 31
0.0
  0
LINE
  5
207
330
2
100
AcDbEntity
  8
GAIKEI
  6
Continuous
 62
     1
370
    25
100
AcDbLine
 10
43.32966494867622
 20
-8.154382276021522
 30
0.0
 11
43.32966494867622
 21
-8.004384055231639
 31
0.0
  0
LINE
  5
208
330
2
100
AcDbEntity
  8
GAIKEI
  6
Continuous
 62
     1
370
    25
100
AcDbLine
 10
43.32966494867622
 20
-7.704382658964107
 30
0.0
 11
43.32966494867622
 21
-7.554384438174224
 31
0.0
  0
LINE
  5
209
330
2
100
AcDbEntity
  8
GAIKEI
  6
Continuous
 62
     1
370
    25
100
AcDbLine
 10
42.90966596671435
 20
-7.554384438174224
 30
0.0
 11
42.90966596671435
 21
-7.704382658964107
 31
0.0
  0
LINE
  5
20A
330
2
100
AcDbEntity
  8
GAIKEI
  6
Continuous
 62
     1
370
    25
100
AcDbLine
 10
42.90966596671435
 20
-7.704382658964107
 30
0.0
 11
43.60966426998413
 21
-7.704382658964107
 31
0.0
  0
LINE
  5
20B
330
2
100
AcDbEntity
  8
GAIKEI
  6
Continuous
 62
     1
370
    25
100
AcDbLine
 10
42.90966596671435
 20
-7.554384438174224
 30
0.0
 11
42.90966596671435
 21
-7.704382658964107
 31
0.0
  0
LINE
  5
20C
330
2
100
AcDbEntity
  8
GAIKEI
  6
Continuous
 62
     1
370
    25
100
AcDbLine
 10
42.90966596671435
 20
-7.554384438174224
 30
0.0
 11
43.60966426998413
 21
-7.554384438174224
 31
0.0
  0
LINE
  5
20D
330
2
100
AcDbEntity
  8
GAIKEI
  6
Continuous
 62
     1
370
    25
100
AcDbLine
 10
43.32966494867622
 20
-7.254383041906692
 30
0.0
 11
43.32966494867622
 21
-7.104384821116809
 31
0.0
  0
LINE
  5
20E
330
2
100
AcDbEntity
  8
GAIKEI
  6
Continuous
 62
     1
370
    25
100
AcDbLine
 10
42.90966596671435
 20
-7.104384821116809
 30
0.0
 11
42.90966596671435
 21
-7.254383041906692
 31
0.0
  0
LINE
  5
20F
330
2
100
AcDbEntity
  8
GAIKEI
  6
Continuous
 62
     1
370
    25
100
AcDbLine
 10
42.90966596671435
 20
-7.254383041906692
 30
0.0
 11
43.60966426998413
 21
-7.254383041906692
 31
0.0
  0
LINE
  5
210
330
2
100
AcDbEntity
  8
GAIKEI
  6
Continuous
 62
     1
370
    25
100
AcDbLine
 10
42.90966596671435
 20
-7.104384821116809
 30
0.0
 11
42.90966596671435
 21
-7.254383041906692
 31
0.0
  0
LINE
  5
211
330
2
100
AcDbEntity
  8
GAIKEI
  6
Continuous
 62
     1
370
    25
100
AcDbLine
 10
42.90966596671435
 20
-7.104384821116809
 30
0.0
 11
43.60966426998413
 21
-7.104384821116809
 31
0.0
  0
LINE
  5
212
330
2
100
AcDbEntity
  8
GAIKEI
  6
Continuous
 62
     1
370
    25
100
AcDbLine
 10
43.32966494867622
 20
-6.804383424849277
 30
0.0
 11
43.32966494867622
 21
-6.654385204059394
 31
0.0
  0
LINE
  5
213
330
2
100
AcDbEntity
  8
GAIKEI
  6
Continuous
 62
     1
370
    25
100
AcDbLine
 10
42.90966596671435
 20
-6.654385204059394
 30
0.0
 11
42.90966596671435
 21
-6.804383424849277
 31
0.0
  0
LINE
  5
214
330
2
100
AcDbEntity
  8
GAIKEI
  6
Continuous
 62
     1
370
    25
100
AcDbLine
 10
42.90966596671435
 20
-6.804383424849277
 30
0.0
 11
43.60966426998413
 21
-6.804383424849277
 31
0.0
  0
LINE
  5
215
330
2
100
AcDbEntity
  8
GAIKEI
  6
Continuous
 62
     1
370
    25
100
AcDbLine
 10
42.90966596671435
 20
-6.654385204059394
 30
0.0
 11
42.90966596671435
 21
-6.804383424849277
 31
0.0
  0
LINE
  5
216
330
2
100
AcDbEntity
  8
GAIKEI
  6
Continuous
 62
     1
370
    25
100
AcDbLine
 10
42.90966596671435
 20
-6.654385204059394
 30
0.0
 11
43.60966426998413
 21
-6.654385204059394
 31
0.0
  0
LINE
  5
217
330
2
100
AcDbEntity
  8
GAIKEI
  6
Continuous
 62
     1
370
    25
100
AcDbLine
 10
43.32966494867622
 20
-6.354383807791862
 30
0.0
 11
43.32966494867622
 21
-6.204385587001979
 31
0.0
  0
LINE
  5
218
330
2
100
AcDbEntity
  8
GAIKEI
  6
Continuous
 62
     1
370
    25
100
AcDbLine
 10
42.90966596671435
 20
-6.204385587001979
 30
0.0
 11
42.90966596671435
 21
-6.354383807791862
 31
0.0
  0
LINE
  5
219
330
2
100
AcDbEntity
  8
GAIKEI
  6
Continuous
 62
     1
370
    25
100
AcDbLine
 10
42.90966596671435
 20
-6.354383807791862
 30
0.0
 11
43.60966426998413
 21
-6.354383807791862
 31
0.0
  0
LINE
  5
21A
330
2
100
AcDbEntity
  8
GAIKEI
  6
Continuous
 62
     1
370
    25
100
AcDbLine
 10
42.90966596671435
 20
-6.204385587001979
 30
0.0
 11
42.90966596671435
 21
-6.354383807791862
 31
0.0
  0
LINE
  5
21B
330
2
100
AcDbEntity
  8
GAIKEI
  6
Continuous
 62
     1
370
    25
100
AcDbLine
 10
42.90966596671435
 20
-6.204385587001979
 30
0.0
 11
43.60966426998413
 21
-6.204385587001979
 31
0.0
  0
LINE
  5
21C
330
2
100
AcDbEntity
  8
GAIKEI
  6
Continuous
 62
     1
370
    25
100
AcDbLine
 10
43.32966494867622
 20
-5.904384190734447
 30
0.0
 11
43.32966494867622
 21
-5.754385969944564
 31
0.0
  0
LINE
  5
21D
330
2
100
AcDbEntity
  8
GAIKEI
  6
Continuous
 62
     1
370
    25
100
AcDbLine
 10
42.90966596671435
 20
-5.754385969944564
 30
0.0
 11
42.90966596671435
 21
-5.904384190734447
 31
0.0
  0
LINE
  5
21E
330
2
100
AcDbEntity
  8
GAIKEI
  6
Continuous
 62
     1
370
    25
100
AcDbLine
 10
42.90966596671435
 20
-5.904384190734447
 30
0.0
 11
43.60966426998413
 21
-5.904384190734447
 31
0.0
  0
LINE
  5
21F
330
2
100
AcDbEntity
  8
GAIKEI
  6
Continuous
 62
     1
370
    25
100
AcDbLine
 10
42.90966596671435
 20
-5.754385969944564
 30
0.0
 11
42.90966596671435
 21
-5.904384190734447
 31
0.0
  0
LINE
  5
220
330
2
100
AcDbEntity
  8
GAIKEI
  6
Continuous
 62
     1
370
    25
100
AcDbLine
 10
42.90966596671435
 20
-5.754385969944564
 30
0.0
 11
43.60966426998413
 21
-5.754385969944564
 31
0.0
  0
LINE
  5
221
330
2
100
AcDbEntity
  8
GAIKEI
  6
Continuous
 62
     1
370
    25
100
AcDbLine
 10
43.32966494867622
 20
-5.454384573676975
 30
0.0
 11
43.32966494867622
 21
-5.304386352887149
 31
0.0
  0
LINE
  5
222
330
2
100
AcDbEntity
  8
GAIKEI
  6
Continuous
 62
     1
370
    25
100
AcDbLine
 10
42.90966596671435
 20
-5.304386352887149
 30
0.0
 11
42.90966596671435
 21
-5.454384573676975
 31
0.0
  0
LINE
  5
223
330
2
100
AcDbEntity
  8
GAIKEI
  6
Continuous
 62
     1
370
    25
100
AcDbLine
 10
42.90966596671435
 20
-5.454384573676975
 30
0.0
 11
43.60966426998413
 21
-5.454384573676975
 31
0.0
  0
LINE
  5
224
330
2
100
AcDbEntity
  8
GAIKEI
  6
Continuous
 62
     1
370
    25
100
AcDbLine
 10
42.90966596671435
 20
-5.304386352887149
 30
0.0
 11
42.90966596671435
 21
-5.454384573676975
 31
0.0
  0
LINE
  5
225
330
2
100
AcDbEntity
  8
GAIKEI
  6
Continuous
 62
     1
370
    25
100
AcDbLine
 10
42.90966596671435
 20
-5.304386352887149
 30
0.0
 11
43.60966426998413
 21
-5.304386352887149
 31
0.0
  0
LINE
  5
226
330
2
100
AcDbEntity
  8
GAIKEI
  6
Continuous
 62
     1
370
    25
100
AcDbLine
 10
43.32966494867622
 20
-5.00438495661956
 30
0.0
 11
43.32966494867622
 21
-4.854381781141853
 31
0.0
  0
LINE
  5
227
330
2
100
AcDbEntity
  8
GAIKEI
  6
Continuous
 62
     1
370
    25
100
AcDbLine
 10
42.90966596671435
 20
-4.854381781141853
 30
0.0
 11
42.90966596671435
 21
-5.00438495661956
 31
0.0
  0
LINE
  5
228
330
2
100
AcDbEntity
  8
GAIKEI
  6
Continuous
 62
     1
370
    25
100
AcDbLine
 10
42.90966596671435
 20
-5.00438495661956
 30
0.0
 11
43.60966426998413
 21
-5.00438495661956
 31
0.0
  0
LINE
  5
229
330
2
100
AcDbEntity
  8
GAIKEI
  6
Continuous
 62
     1
370
    25
100
AcDbLine
 10
42.90966596671435
 20
-4.854381781141853
 30
0.0
 11
42.90966596671435
 21
-5.00438495661956
 31
0.0
  0
LINE
  5
22A
330
2
100
AcDbEntity
  8
GAIKEI
  6
Continuous
 62
     1
370
    25
100
AcDbLine
 10
42.90966596671435
 20
-4.854381781141853
 30
0.0
 11
43.60966426998413
 21
-4.854381781141853
 31
0.0
  0
LINE
  5
22B
330
2
100
AcDbEntity
  8
GAIKEI
  6
Continuous
 62
     1
370
    25
100
AcDbLine
 10
43.32966494867622
 20
-4.554385339562145
 30
0.0
 11
43.32966494867622
 21
-4.404382164084438
 31
0.0
  0
LINE
  5
22C
330
2
100
AcDbEntity
  8
GAIKEI
  6
Continuous
 62
     1
370
    25
100
AcDbLine
 10
42.90966596671435
 20
-4.404382164084438
 30
0.0
 11
42.90966596671435
 21
-4.554385339562145
 31
0.0
  0
LINE
  5
22D
330
2
100
AcDbEntity
  8
GAIKEI
  6
Continuous
 62
     1
370
    25
100
AcDbLine
 10
42.90966596671435
 20
-4.554385339562145
 30
0.0
 11
43.60966426998413
 21
-4.554385339562145
 31
0.0
  0
LINE
  5
22E
330
2
100
AcDbEntity
  8
GAIKEI
  6
Continuous
 62
     1
370
    25
100
AcDbLine
 10
42.90966596671435
 20
-4.404382164084438
 30
0.0
 11
42.90966596671435
 21
-4.554385339562145
 31
0.0
  0
LINE
  5
22F
330
2
100
AcDbEntity
  8
GAIKEI
  6
Continuous
 62
     1
370
    25
100
AcDbLine
 10
42.90966596671435
 20
-4.404382164084438
 30
0.0
 11
43.60966426998413
 21
-4.404382164084438
 31
0.0
  0
LINE
  5
230
330
2
100
AcDbEntity
  8
GAIKEI
  6
Continuous
 62
     1
370
    25
100
AcDbLine
 10
43.32966494867622
 20
-4.10438572250473
 30
0.0
 11
43.32966494867622
 21
-3.954382547027023
 31
0.0
  0
LINE
  5
231
330
2
100
AcDbEntity
  8
GAIKEI
  6
Continuous
 62
     1
370
    25
100
AcDbLine
 10
42.90966596671435
 20
-3.954382547027023
 30
0.0
 11
42.90966596671435
 21
-4.10438572250473
 31
0.0
  0
LINE
  5
232
330
2
100
AcDbEntity
  8
GAIKEI
  6
Continuous
 62
     1
370
    25
100
AcDbLine
 10
42.90966596671435
 20
-4.10438572250473
 30
0.0
 11
43.60966426998413
 21
-4.10438572250473
 31
0.0
  0
LINE
  5
233
330
2
100
AcDbEntity
  8
GAIKEI
  6
Continuous
 62
     1
370
    25
100
AcDbLine
 10
42.90966596671435
 20
-3.954382547027023
 30
0.0
 11
42.90966596671435
 21
-4.10438572250473
 31
0.0
  0
LINE
  5
234
330
2
100
AcDbEntity
  8
GAIKEI
  6
Continuous
 62
     1
370
    25
100
AcDbLine
 10
42.90966596671435
 20
-3.954382547027023
 30
0.0
 11
43.60966426998413
 21
-3.954382547027023
 31
0.0
  0
LINE
  5
235
330
2
100
AcDbEntity
  8
GAIKEI
  6
Continuous
 62
     1
370
    25
100
AcDbLine
 10
43.32966494867622
 20
-3.654386105447315
 30
0.0
 11
43.32966494867622
 21
-3.504382929969608
 31
0.0
  0
LINE
  5
236
330
2
100
AcDbEntity
  8
GAIKEI
  6
Continuous
 62
     1
370
    25
100
AcDbLine
 10
42.90966596671435
 20
-3.504382929969608
 30
0.0
 11
42.90966596671435
 21
-3.654386105447315
 31
0.0
  0
LINE
  5
237
330
2
100
AcDbEntity
  8
GAIKEI
  6
Continuous
 62
     1
370
    25
100
AcDbLine
 10
42.90966596671435
 20
-3.654386105447315
 30
0.0
 11
43.60966426998413
 21
-3.654386105447315
 31
0.0
  0
LINE
  5
238
330
2
100
AcDbEntity
  8
GAIKEI
  6
Continuous
 62
     1
370
    25
100
AcDbLine
 10
42.90966596671435
 20
-3.504382929969608
 30
0.0
 11
42.90966596671435
 21
-3.654386105447315
 31
0.0
  0
LINE
  5
239
330
2
100
AcDbEntity
  8
GAIKEI
  6
Continuous
 62
     1
370
    25
100
AcDbLine
 10
42.90966596671435
 20
-3.504382929969608
 30
0.0
 11
43.60966426998413
 21
-3.504382929969608
 31
0.0
  0
LINE
  5
23A
330
2
100
AcDbEntity
  8
GAIKEI
  6
Continuous
 62
     1
370
    25
100
AcDbLine
 10
43.32966494867622
 20
-3.204381533702019
 30
0.0
 11
43.32966494867622
 21
-3.054383312912193
 31
0.0
  0
LINE
  5
23B
330
2
100
AcDbEntity
  8
GAIKEI
  6
Continuous
 62
     1
370
    25
100
AcDbLine
 10
42.90966596671435
 20
-3.054383312912193
 30
0.0
 11
42.90966596671435
 21
-3.204381533702019
 31
0.0
  0
LINE
  5
23C
330
2
100
AcDbEntity
  8
GAIKEI
  6
Continuous
 62
     1
370
    25
100
AcDbLine
 10
42.90966596671435
 20
-3.204381533702019
 30
0.0
 11
43.60966426998413
 21
-3.204381533702019
 31
0.0
  0
LINE
  5
23D
330
2
100
AcDbEntity
  8
GAIKEI
  6
Continuous
 62
     1
370
    25
100
AcDbLine
 10
42.90966596671435
 20
-3.054383312912193
 30
0.0
 11
42.90966596671435
 21
-3.204381533702019
 31
0.0
  0
LINE
  5
23E
330
2
100
AcDbEntity
  8
GAIKEI
  6
Continuous
 62
     1
370
    25
100
AcDbLine
 10
42.90966596671435
 20
-3.054383312912193
 30
0.0
 11
43.60966426998413
 21
-3.054383312912193
 31
0.0
  0
LINE
  5
23F
330
2
100
AcDbEntity
  8
GAIKEI
  6
Continuous
 62
     1
370
    25
100
AcDbLine
 10
43.32966494867622
 20
-2.754381916644604
 30
0.0
 11
43.32966494867622
 21
-2.604383695854778
 31
0.0
  0
LINE
  5
240
330
2
100
AcDbEntity
  8
GAIKEI
  6
Continuous
 62
     1
370
    25
100
AcDbLine
 10
42.90966596671435
 20
-2.604383695854778
 30
0.0
 11
42.90966596671435
 21
-2.754381916644604
 31
0.0
  0
LINE
  5
241
330
2
100
AcDbEntity
  8
GAIKEI
  6
Continuous
 62
     1
370
    25
100
AcDbLine
 10
42.90966596671435
 20
-2.754381916644604
 30
0.0
 11
43.60966426998413
 21
-2.754381916644604
 31
0.0
  0
LINE
  5
242
330
2
100
AcDbEntity
  8
GAIKEI
  6
Continuous
 62
     1
370
    25
100
AcDbLine
 10
42.90966596671435
 20
-2.604383695854778
 30
0.0
 11
42.90966596671435
 21
-2.754381916644604
 31
0.0
  0
LINE
  5
243
330
2
100
AcDbEntity
  8
GAIKEI
  6
Continuous
 62
     1
370
    25
100
AcDbLine
 10
42.90966596671435
 20
-2.604383695854778
 30
0.0
 11
43.60966426998413
 21
-2.604383695854778
 31
0.0
  0
LINE
  5
244
330
2
100
AcDbEntity
  8
GAIKEI
  6
Continuous
 62
     1
370
    25
100
AcDbLine
 10
43.32966494867622
 20
-2.304382299587189
 30
0.0
 11
43.32966494867622
 21
-2.154384078797363
 31
0.0
  0
LINE
  5
245
330
2
100
AcDbEntity
  8
GAIKEI
  6
Continuous
 62
     1
370
    25
100
AcDbLine
 10
42.90966596671435
 20
-2.154384078797363
 30
0.0
 11
42.90966596671435
 21
-2.304382299587189
 31
0.0
  0
LINE
  5
246
330
2
100
AcDbEntity
  8
GAIKEI
  6
Continuous
 62
     1
370
    25
100
AcDbLine
 10
42.90966596671435
 20
-2.304382299587189
 30
0.0
 11
43.60966426998413
 21
-2.304382299587189
 31
0.0
  0
LINE
  5
247
330
2
100
AcDbEntity
  8
GAIKEI
  6
Continuous
 62
     1
370
    25
100
AcDbLine
 10
42.90966596671435
 20
-2.154384078797363
 30
0.0
 11
42.90966596671435
 21
-2.304382299587189
 31
0.0
  0
LINE
  5
248
330
2
100
AcDbEntity
  8
GAIKEI
  6
Continuous
 62
     1
370
    25
100
AcDbLine
 10
42.90966596671435
 20
-2.154384078797363
 30
0.0
 11
43.60966426998413
 21
-2.154384078797363
 31
0.0
  0
LINE
  5
249
330
2
100
AcDbEntity
  8
GAIKEI
  6
Continuous
 62
     1
370
    25
100
AcDbLine
 10
43.32966494867622
 20
-1.854382682529774
 30
0.0
 11
43.32966494867622
 21
-1.704384461739948
 31
0.0
  0
LINE
  5
24A
330
2
100
AcDbEntity
  8
GAIKEI
  6
Continuous
 62
     1
370
    25
100
AcDbLine
 10
42.90966596671435
 20
-1.704384461739948
 30
0.0
 11
42.90966596671435
 21
-1.854382682529774
 31
0.0
  0
LINE
  5
24B
330
2
100
AcDbEntity
  8
GAIKEI
  6
Continuous
 62
     1
370
    25
100
AcDbLine
 10
42.90966596671435
 20
-1.854382682529774
 30
0.0
 11
43.60966426998413
 21
-1.854382682529774
 31
0.0
  0
LINE
  5
24C
330
2
100
AcDbEntity
  8
GAIKEI
  6
Continuous
 62
     1
370
    25
100
AcDbLine
 10
42.90966596671435
 20
-1.704384461739948
 30
0.0
 11
42.90966596671435
 21
-1.854382682529774
 31
0.0
  0
LINE
  5
24D
330
2
100
AcDbEntity
  8
GAIKEI
  6
Continuous
 62
     1
370
    25
100
AcDbLine
 10
42.90966596671435
 20
-1.704384461739948
 30
0.0
 11
43.60966426998413
 21
-1.704384461739948
 31
0.0
  0
LINE
  5
24E
330
2
100
AcDbEntity
  8
GAIKEI
  6
Continuous
 62
     1
370
    25
100
AcDbLine
 10
43.32966494867622
 20
-1.404383065472359
 30
0.0
 11
43.32966494867622
 21
-1.254384844682533
 31
0.0
  0
LINE
  5
24F
330
2
100
AcDbEntity
  8
GAIKEI
  6
Continuous
 62
     1
370
    25
100
AcDbLine
 10
42.90966596671435
 20
-1.254384844682533
 30
0.0
 11
42.90966596671435
 21
-1.404383065472359
 31
0.0
  0
LINE
  5
250
330
2
100
AcDbEntity
  8
GAIKEI
  6
Continuous
 62
     1
370
    25
100
AcDbLine
 10
42.90966596671435
 20
-1.404383065472359
 30
0.0
 11
43.60966426998413
 21
-1.404383065472359
 31
0.0
  0
LINE
  5
251
330
2
100
AcDbEntity
  8
GAIKEI
  6
Continuous
 62
     1
370
    25
100
AcDbLine
 10
42.90966596671435
 20
-1.254384844682533
 30
0.0
 11
42.90966596671435
 21
-1.404383065472359
 31
0.0
  0
LINE
  5
252
330
2
100
AcDbEntity
  8
GAIKEI
  6
Continuous
 62
     1
370
    25
100
AcDbLine
 10
42.90966596671435
 20
-1.254384844682533
 30
0.0
 11
43.60966426998413
 21
-1.254384844682533
 31
0.0
  0
LINE
  5
253
330
2
100
AcDbEntity
  8
GAIKEI
  6
Continuous
 62
     1
370
    25
100
AcDbLine
 10
43.32966494867622
 20
-0.9543834484149442
 30
0.0
 11
43.32966494867622
 21
-0.8043852276251186
 31
0.0
  0
LINE
  5
254
330
2
100
AcDbEntity
  8
GAIKEI
  6
Continuous
 62
     1
370
    25
100
AcDbLine
 10
42.90966596671435
 20
-0.8043852276251186
 30
0.0
 11
42.90966596671435
 21
-0.9543834484149442
 31
0.0
  0
LINE
  5
255
330
2
100
AcDbEntity
  8
GAIKEI
  6
Continuous
 62
     1
370
    25
100
AcDbLine
 10
42.90966596671435
 20
-0.9543834484149442
 30
0.0
 11
43.60966426998413
 21
-0.9543834484149442
 31
0.0
  0
LINE
  5
256
330
2
100
AcDbEntity
  8
GAIKEI
  6
Continuous
 62
     1
370
    25
100
AcDbLine
 10
42.90966596671435
 20
-0.8043852276251186
 30
0.0
 11
42.90966596671435
 21
-0.9543834484149442
 31
0.0
  0
LINE
  5
257
330
2
100
AcDbEntity
  8
GAIKEI
  6
Continuous
 62
     1
370
    25
100
AcDbLine
 10
42.90966596671435
 20
-0.8043852276251186
 30
0.0
 11
43.60966426998413
 21
-0.8043852276251186
 31
0.0
  0
LINE
  5
258
330
2
100
AcDbEntity
  8
GAIKEI
  6
Continuous
 62
     1
370
    25
100
AcDbLine
 10
43.32966494867622
 20
-0.5043838313575293
 30
0.0
 11
43.32966494867622
 21
-0.3543856105677037
 31
0.0
  0
LINE
  5
259
330
2
100
AcDbEntity
  8
GAIKEI
  6
Continuous
 62
     1
370
    25
100
AcDbLine
 10
42.90966596671435
 20
-0.3543856105677037
 30
0.0
 11
42.90966596671435
 21
-0.5043838313575293
 31
0.0
  0
LINE
  5
25A
330
2
100
AcDbEntity
  8
GAIKEI
  6
Continuous
 62
     1
370
    25
100
AcDbLine
 10
42.90966596671435
 20
-0.5043838313575293
 30
0.0
 11
43.60966426998413
 21
-0.5043838313575293
 31
0.0
  0
LINE
  5
25B
330
2
100
AcDbEntity
  8
GAIKEI
  6
Continuous
 62
     1
370
    25
100
AcDbLine
 10
42.90966596671435
 20
-0.3543856105677037
 30
0.0
 11
42.90966596671435
 21
-0.5043838313575293
 31
0.0
  0
LINE
  5
25C
330
2
100
AcDbEntity
  8
GAIKEI
  6
Continuous
 62
     1
370
    25
100
AcDbLine
 10
42.90966596671435
 20
-0.3543856105677037
 30
0.0
 11
43.60966426998413
 21
-0.3543856105677037
 31
0.0
  0
LINE
  5
25D
330
2
100
AcDbEntity
  8
GAIKEI
  6
Continuous
 62
     1
370
    25
100
AcDbLine
 10
43.32966494867622
 20
-0.0543842143001143
 30
0.0
 11
43.32966494867622
 21
0.0956140064897113
 31
0.0
  0
LINE
  5
25E
330
2
100
AcDbEntity
  8
GAIKEI
  6
Continuous
 62
     1
370
    25
100
AcDbLine
 10
42.90966596671435
 20
0.0956140064897113
 30
0.0
 11
42.90966596671435
 21
-0.0543842143001143
 31
0.0
  0
LINE
  5
25F
330
2
100
AcDbEntity
  8
GAIKEI
  6
Continuous
 62
     1
370
    25
100
AcDbLine
 10
42.90966596671435
 20
-0.0543842143001143
 30
0.0
 11
43.60966426998413
 21
-0.0543842143001143
 31
0.0
  0
LINE
  5
260
330
2
100
AcDbEntity
  8
GAIKEI
  6
Continuous
 62
     1
370
    25
100
AcDbLine
 10
42.90966596671435
 20
0.0956140064897113
 30
0.0
 11
42.90966596671435
 21
-0.0543842143001143
 31
0.0
  0
LINE
  5
261
330
2
100
AcDbEntity
  8
GAIKEI
  6
Continuous
 62
     1
370
    25
100
AcDbLine
 10
42.90966596671435
 20
0.0956140064897113
 30
0.0
 11
43.60966426998413
 21
0.0956140064897113
 31
0.0
  0
LINE
  5
262
330
2
100
AcDbEntity
  8
GAIKEI
  6
Continuous
 62
     1
370
    25
100
AcDbLine
 10
43.32966494867622
 20
0.3956154027573007
 30
0.0
 11
43.32966494867622
 21
0.5456136235471263
 31
0.0
  0
LINE
  5
263
330
2
100
AcDbEntity
  8
GAIKEI
  6
Continuous
 62
     1
370
    25
100
AcDbLine
 10
42.90966596671435
 20
0.5456136235471263
 30
0.0
 11
42.90966596671435
 21
0.3956154027573007
 31
0.0
  0
LINE
  5
264
330
2
100
AcDbEntity
  8
GAIKEI
  6
Continuous
 62
     1
370
    25
100
AcDbLine
 10
42.90966596671435
 20
0.3956154027573007
 30
0.0
 11
43.60966426998413
 21
0.3956154027573007
 31
0.0
  0
LINE
  5
265
330
2
100
AcDbEntity
  8
GAIKEI
  6
Continuous
 62
     1
370
    25
100
AcDbLine
 10
42.90966596671435
 20
0.5456136235471263
 30
0.0
 11
42.90966596671435
 21
0.3956154027573007
 31
0.0
  0
LINE
  5
266
330
2
100
AcDbEntity
  8
GAIKEI
  6
Continuous
 62
     1
370
    25
100
AcDbLine
 10
42.90966596671435
 20
0.5456136235471263
 30
0.0
 11
43.60966426998413
 21
0.5456136235471263
 31
0.0
  0
LINE
  5
267
330
2
100
AcDbEntity
  8
GAIKEI
  6
Continuous
 62
     1
370
    25
100
AcDbLine
 10
43.32966494867622
 20
0.8456150198147156
 30
0.0
 11
43.32966494867622
 21
0.9956181952924225
 31
0.0
  0
LINE
  5
268
330
2
100
AcDbEntity
  8
GAIKEI
  6
Continuous
 62
     1
370
    25
100
AcDbLine
 10
42.90966596671435
 20
0.9956181952924225
 30
0.0
 11
42.90966596671435
 21
0.8456150198147156
 31
0.0
  0
LINE
  5
269
330
2
100
AcDbEntity
  8
GAIKEI
  6
Continuous
 62
     1
370
    25
100
AcDbLine
 10
42.90966596671435
 20
0.8456150198147156
 30
0.0
 11
43.60966426998413
 21
0.8456150198147156
 31
0.0
  0
LINE
  5
26A
330
2
100
AcDbEntity
  8
GAIKEI
  6
Continuous
 62
     1
370
    25
100
AcDbLine
 10
42.90966596671435
 20
0.9956181952924225
 30
0.0
 11
42.90966596671435
 21
0.8456150198147156
 31
0.0
  0
LINE
  5
26B
330
2
100
AcDbEntity
  8
GAIKEI
  6
Continuous
 62
     1
370
    25
100
AcDbLine
 10
42.90966596671435
 20
0.9956181952924225
 30
0.0
 11
43.60966426998413
 21
0.9956181952924225
 31
0.0
  0
LINE
  5
26C
330
2
100
AcDbEntity
  8
GAIKEI
  6
Continuous
 62
     1
370
    25
100
AcDbLine
 10
43.32966494867622
 20
1.29561463687213
 30
0.0
 11
43.32966494867622
 21
1.445617812349837
 31
0.0
  0
LINE
  5
26D
330
2
100
AcDbEntity
  8
GAIKEI
  6
Continuous
 62
     1
370
    25
100
AcDbLine
 10
42.90966596671435
 20
1.445617812349837
 30
0.0
 11
42.90966596671435
 21
1.29561463687213
 31
0.0
  0
LINE
  5
26E
330
2
100
AcDbEntity
  8
GAIKEI
  6
Continuous
 62
     1
370
    25
100
AcDbLine
 10
42.90966596671435
 20
1.29561463687213
 30
0.0
 11
43.60966426998413
 21
1.29561463687213
 31
0.0
  0
LINE
  5
26F
330
2
100
AcDbEntity
  8
GAIKEI
  6
Continuous
 62
     1
370
    25
100
AcDbLine
 10
42.90966596671435
 20
1.445617812349837
 30
0.0
 11
42.90966596671435
 21
1.29561463687213
 31
0.0
  0
LINE
  5
270
330
2
100
AcDbEntity
  8
GAIKEI
  6
Continuous
 62
     1
370
    25
100
AcDbLine
 10
42.90966596671435
 20
1.445617812349837
 30
0.0
 11
43.60966426998413
 21
1.445617812349837
 31
0.0
  0
LINE
  5
271
330
2
100
AcDbEntity
  8
GAIKEI
  6
Continuous
 62
     1
370
    25
100
AcDbLine
 10
43.32966494867622
 20
1.745614253929545
 30
0.0
 11
43.32966494867622
 21
1.895617429407252
 31
0.0
  0
LINE
  5
272
330
2
100
AcDbEntity
  8
GAIKEI
  6
Continuous
 62
     1
370
    25
100
AcDbLine
 10
42.90966596671435
 20
1.895617429407252
 30
0.0
 11
42.90966596671435
 21
1.745614253929545
 31
0.0
  0
LINE
  5
273
330
2
100
AcDbEntity
  8
GAIKEI
  6
Continuous
 62
     1
370
    25
100
AcDbLine
 10
42.90966596671435
 20
1.745614253929545
 30
0.0
 11
43.60966426998413
 21
1.745614253929545
 31
0.0
  0
LINE
  5
274
330
2
100
AcDbEntity
  8
GAIKEI
  6
Continuous
 62
     1
370
    25
100
AcDbLine
 10
42.90966596671435
 20
1.895617429407252
 30
0.0
 11
42.90966596671435
 21
1.745614253929545
 31
0.0
  0
LINE
  5
275
330
2
100
AcDbEntity
  8
GAIKEI
  6
Continuous
 62
     1
370
    25
100
AcDbLine
 10
42.90966596671435
 20
1.895617429407252
 30
0.0
 11
43.60966426998413
 21
1.895617429407252
 31
0.0
  0
LINE
  5
276
330
2
100
AcDbEntity
  8
GAIKEI
  6
Continuous
 62
     1
370
    25
100
AcDbLine
 10
43.32966494867622
 20
2.19561387098696
 30
0.0
 11
43.32966494867622
 21
2.345617046464667
 31
0.0
  0
LINE
  5
277
330
2
100
AcDbEntity
  8
GAIKEI
  6
Continuous
 62
     1
370
    25
100
AcDbLine
 10
42.90966596671435
 20
2.345617046464667
 30
0.0
 11
42.90966596671435
 21
2.19561387098696
 31
0.0
  0
LINE
  5
278
330
2
100
AcDbEntity
  8
GAIKEI
  6
Continuous
 62
     1
370
    25
100
AcDbLine
 10
42.90966596671435
 20
2.19561387098696
 30
0.0
 11
43.60966426998413
 21
2.19561387098696
 31
0.0
  0
LINE
  5
279
330
2
100
AcDbEntity
  8
GAIKEI
  6
Continuous
 62
     1
370
    25
100
AcDbLine
 10
42.90966596671435
 20
2.345617046464667
 30
0.0
 11
42.90966596671435
 21
2.19561387098696
 31
0.0
  0
LINE
  5
27A
330
2
100
AcDbEntity
  8
GAIKEI
  6
Continuous
 62
     1
370
    25
100
AcDbLine
 10
42.90966596671435
 20
2.345617046464667
 30
0.0
 11
43.60966426998413
 21
2.345617046464667
 31
0.0
  0
LINE
  5
27B
330
2
100
AcDbEntity
  8
GAIKEI
  6
Continuous
 62
     1
370
    25
100
AcDbLine
 10
43.32966494867622
 20
2.645618442732256
 30
0.0
 11
43.32966494867622
 21
2.795616663522082
 31
0.0
  0
LINE
  5
27C
330
2
100
AcDbEntity
  8
GAIKEI
  6
Continuous
 62
     1
370
    25
100
AcDbLine
 10
42.90966596671435
 20
2.795616663522082
 30
0.0
 11
42.90966596671435
 21
2.645618442732256
 31
0.0
  0
LINE
  5
27D
330
2
100
AcDbEntity
  8
GAIKEI
  6
Continuous
 62
     1
370
    25
100
AcDbLine
 10
42.90966596671435
 20
2.645618442732256
 30
0.0
 11
43.60966426998413
 21
2.645618442732256
 31
0.0
  0
LINE
  5
27E
330
2
100
AcDbEntity
  8
GAIKEI
  6
Continuous
 62
     1
370
    25
100
AcDbLine
 10
42.90966596671435
 20
2.795616663522082
 30
0.0
 11
42.90966596671435
 21
2.645618442732256
 31
0.0
  0
LINE
  5
27F
330
2
100
AcDbEntity
  8
GAIKEI
  6
Continuous
 62
     1
370
    25
100
AcDbLine
 10
42.90966596671435
 20
2.795616663522082
 30
0.0
 11
43.60966426998413
 21
2.795616663522082
 31
0.0
  0
LINE
  5
280
330
2
100
AcDbEntity
  8
GAIKEI
  6
Continuous
 62
     1
370
    25
100
AcDbLine
 10
43.32966494867622
 20
3.095618059789671
 30
0.0
 11
43.32966494867622
 21
3.245616280579554
 31
0.0
  0
LINE
  5
281
330
2
100
AcDbEntity
  8
GAIKEI
  6
Continuous
 62
     1
370
    25
100
AcDbLine
 10
42.90966596671435
 20
3.245616280579554
 30
0.0
 11
42.90966596671435
 21
3.095618059789671
 31
0.0
  0
LINE
  5
282
330
2
100
AcDbEntity
  8
GAIKEI
  6
Continuous
 62
     1
370
    25
100
AcDbLine
 10
42.90966596671435
 20
3.095618059789671
 30
0.0
 11
43.60966426998413
 21
3.095618059789671
 31
0.0
  0
LINE
  5
283
330
2
100
AcDbEntity
  8
GAIKEI
  6
Continuous
 62
     1
370
    25
100
AcDbLine
 10
42.90966596671435
 20
3.245616280579554
 30
0.0
 11
42.90966596671435
 21
3.095618059789671
 31
0.0
  0
LINE
  5
284
330
2
100
AcDbEntity
  8
GAIKEI
  6
Continuous
 62
     1
370
    25
100
AcDbLine
 10
42.90966596671435
 20
3.245616280579554
 30
0.0
 11
43.60966426998413
 21
3.245616280579554
 31
0.0
  0
LINE
  5
285
330
2
100
AcDbEntity
  8
GAIKEI
  6
Continuous
 62
     1
370
    25
100
AcDbLine
 10
43.32966494867622
 20
3.545617676847086
 30
0.0
 11
43.32966494867622
 21
3.695615897636969
 31
0.0
  0
LINE
  5
286
330
2
100
AcDbEntity
  8
GAIKEI
  6
Continuous
 62
     1
370
    25
100
AcDbLine
 10
42.90966596671435
 20
3.695615897636969
 30
0.0
 11
42.90966596671435
 21
3.545617676847086
 31
0.0
  0
LINE
  5
287
330
2
100
AcDbEntity
  8
GAIKEI
  6
Continuous
 62
     1
370
    25
100
AcDbLine
 10
42.90966596671435
 20
3.545617676847086
 30
0.0
 11
43.60966426998413
 21
3.545617676847086
 31
0.0
  0
LINE
  5
288
330
2
100
AcDbEntity
  8
GAIKEI
  6
Continuous
 62
     1
370
    25
100
AcDbLine
 10
42.90966596671435
 20
3.695615897636969
 30
0.0
 11
42.90966596671435
 21
3.545617676847086
 31
0.0
  0
LINE
  5
289
330
2
100
AcDbEntity
  8
GAIKEI
  6
Continuous
 62
     1
370
    25
100
AcDbLine
 10
42.90966596671435
 20
3.695615897636969
 30
0.0
 11
43.60966426998413
 21
3.695615897636969
 31
0.0
  0
LINE
  5
28A
330
2
100
AcDbEntity
  8
GAIKEI
  6
Continuous
 62
     1
370
    25
100
AcDbLine
 10
43.32966494867622
 20
3.995617293904501
 30
0.0
 11
43.32966494867622
 21
4.145615514694384
 31
0.0
  0
LINE
  5
28B
330
2
100
AcDbEntity
  8
GAIKEI
  6
Continuous
 62
     1
370
    25
100
AcDbLine
 10
42.90966596671435
 20
4.145615514694384
 30
0.0
 11
42.90966596671435
 21
3.995617293904501
 31
0.0
  0
LINE
  5
28C
330
2
100
AcDbEntity
  8
GAIKEI
  6
Continuous
 62
     1
370
    25
100
AcDbLine
 10
42.90966596671435
 20
3.995617293904501
 30
0.0
 11
43.60966426998413
 21
3.995617293904501
 31
0.0
  0
LINE
  5
28D
330
2
100
AcDbEntity
  8
GAIKEI
  6
Continuous
 62
     1
370
    25
100
AcDbLine
 10
42.90966596671435
 20
4.145615514694384
 30
0.0
 11
42.90966596671435
 21
3.995617293904501
 31
0.0
  0
LINE
  5
28E
330
2
100
AcDbEntity
  8
GAIKEI
  6
Continuous
 62
     1
370
    25
100
AcDbLine
 10
42.90966596671435
 20
4.145615514694384
 30
0.0
 11
43.60966426998413
 21
4.145615514694384
 31
0.0
  0
LINE
  5
28F
330
2
100
AcDbEntity
  8
GAIKEI
  6
Continuous
 62
     1
370
    25
100
AcDbLine
 10
43.32966494867622
 20
4.445616910961916
 30
0.0
 11
43.32966494867622
 21
4.595615131751799
 31
0.0
  0
LINE
  5
290
330
2
100
AcDbEntity
  8
GAIKEI
  6
Continuous
 62
     1
370
    25
100
AcDbLine
 10
42.90966596671435
 20
4.595615131751799
 30
0.0
 11
42.90966596671435
 21
4.445616910961916
 31
0.0
  0
LINE
  5
291
330
2
100
AcDbEntity
  8
GAIKEI
  6
Continuous
 62
     1
370
    25
100
AcDbLine
 10
42.90966596671435
 20
4.445616910961916
 30
0.0
 11
43.60966426998413
 21
4.445616910961916
 31
0.0
  0
LINE
  5
292
330
2
100
AcDbEntity
  8
GAIKEI
  6
Continuous
 62
     1
370
    25
100
AcDbLine
 10
42.90966596671435
 20
4.595615131751799
 30
0.0
 11
42.90966596671435
 21
4.445616910961916
 31
0.0
  0
LINE
  5
293
330
2
100
AcDbEntity
  8
GAIKEI
  6
Continuous
 62
     1
370
    25
100
AcDbLine
 10
42.90966596671435
 20
4.595615131751799
 30
0.0
 11
43.60966426998413
 21
4.595615131751799
 31
0.0
  0
LINE
  5
294
330
2
100
AcDbEntity
  8
GAIKEI
  6
Continuous
 62
     1
370
    25
100
AcDbLine
 10
43.32966494867622
 20
4.895616528019331
 30
0.0
 11
43.32966494867622
 21
5.045614748809214
 31
0.0
  0
LINE
  5
295
330
2
100
AcDbEntity
  8
GAIKEI
  6
Continuous
 62
     1
370
    25
100
AcDbLine
 10
42.90966596671435
 20
5.045614748809214
 30
0.0
 11
42.90966596671435
 21
4.895616528019331
 31
0.0
  0
LINE
  5
296
330
2
100
AcDbEntity
  8
GAIKEI
  6
Continuous
 62
     1
370
    25
100
AcDbLine
 10
42.90966596671435
 20
4.895616528019331
 30
0.0
 11
43.60966426998413
 21
4.895616528019331
 31
0.0
  0
LINE
  5
297
330
2
100
AcDbEntity
  8
GAIKEI
  6
Continuous
 62
     1
370
    25
100
AcDbLine
 10
42.90966596671435
 20
5.045614748809214
 30
0.0
 11
42.90966596671435
 21
4.895616528019331
 31
0.0
  0
LINE
  5
298
330
2
100
AcDbEntity
  8
GAIKEI
  6
Continuous
 62
     1
370
    25
100
AcDbLine
 10
42.90966596671435
 20
5.045614748809214
 30
0.0
 11
43.60966426998413
 21
5.045614748809214
 31
0.0
  0
LINE
  5
299
330
2
100
AcDbEntity
  8
GAIKEI
  6
Continuous
 62
     1
370
    25
100
AcDbLine
 10
43.32966494867622
 20
5.345616145076746
 30
0.0
 11
43.32966494867622
 21
5.495614365866629
 31
0.0
  0
LINE
  5
29A
330
2
100
AcDbEntity
  8
GAIKEI
  6
Continuous
 62
     1
370
    25
100
AcDbLine
 10
42.90966596671435
 20
5.495614365866629
 30
0.0
 11
42.90966596671435
 21
5.345616145076746
 31
0.0
  0
LINE
  5
29B
330
2
100
AcDbEntity
  8
GAIKEI
  6
Continuous
 62
     1
370
    25
100
AcDbLine
 10
42.90966596671435
 20
5.345616145076746
 30
0.0
 11
43.60966426998413
 21
5.345616145076746
 31
0.0
  0
LINE
  5
29C
330
2
100
AcDbEntity
  8
GAIKEI
  6
Continuous
 62
     1
370
    25
100
AcDbLine
 10
42.90966596671435
 20
5.495614365866629
 30
0.0
 11
42.90966596671435
 21
5.345616145076746
 31
0.0
  0
LINE
  5
29D
330
2
100
AcDbEntity
  8
GAIKEI
  6
Continuous
 62
     1
370
    25
100
AcDbLine
 10
42.90966596671435
 20
5.495614365866629
 30
0.0
 11
43.60966426998413
 21
5.495614365866629
 31
0.0
  0
LINE
  5
29E
330
2
100
AcDbEntity
  8
GAIKEI
  6
Continuous
 62
     1
370
    25
100
AcDbLine
 10
43.32966494867622
 20
5.795615762134161
 30
0.0
 11
43.32966494867622
 21
5.945613982924044
 31
0.0
  0
LINE
  5
29F
330
2
100
AcDbEntity
  8
GAIKEI
  6
Continuous
 62
     1
370
    25
100
AcDbLine
 10
42.90966596671435
 20
5.945613982924044
 30
0.0
 11
42.90966596671435
 21
5.795615762134161
 31
0.0
  0
LINE
  5
2A0
330
2
100
AcDbEntity
  8
GAIKEI
  6
Continuous
 62
     1
370
    25
100
AcDbLine
 10
42.90966596671435
 20
5.795615762134161
 30
0.0
 11
43.60966426998413
 21
5.795615762134161
 31
0.0
  0
LINE
  5
2A1
330
2
100
AcDbEntity
  8
GAIKEI
  6
Continuous
 62
     1
370
    25
100
AcDbLine
 10
42.90966596671435
 20
5.945613982924044
 30
0.0
 11
42.90966596671435
 21
5.795615762134161
 31
0.0
  0
LINE
  5
2A2
330
2
100
AcDbEntity
  8
GAIKEI
  6
Continuous
 62
     1
370
    25
100
AcDbLine
 10
42.90966596671435
 20
5.945613982924044
 30
0.0
 11
43.60966426998413
 21
5.945613982924044
 31
0.0
  0
LINE
  5
2A3
330
2
100
AcDbEntity
  8
GAIKEI
  6
Continuous
 62
     1
370
    25
100
AcDbLine
 10
43.32966494867622
 20
6.245615379191576
 30
0.0
 11
43.32966494867622
 21
6.395613599981459
 31
0.0
  0
LINE
  5
2A4
330
2
100
AcDbEntity
  8
GAIKEI
  6
Continuous
 62
     1
370
    25
100
AcDbLine
 10
42.90966596671435
 20
6.395613599981459
 30
0.0
 11
42.90966596671435
 21
6.245615379191576
 31
0.0
  0
LINE
  5
2A5
330
2
100
AcDbEntity
  8
GAIKEI
  6
Continuous
 62
     1
370
    25
100
AcDbLine
 10
42.90966596671435
 20
6.245615379191576
 30
0.0
 11
43.60966426998413
 21
6.245615379191576
 31
0.0
  0
LINE
  5
2A6
330
2
100
AcDbEntity
  8
GAIKEI
  6
Continuous
 62
     1
370
    25
100
AcDbLine
 10
42.90966596671435
 20
6.395613599981459
 30
0.0
 11
42.90966596671435
 21
6.245615379191576
 31
0.0
  0
LINE
  5
2A7
330
2
100
AcDbEntity
  8
GAIKEI
  6
Continuous
 62
     1
370
    25
100
AcDbLine
 10
42.90966596671435
 20
6.395613599981459
 30
0.0
 11
43.60966426998413
 21
6.395613599981459
 31
0.0
  0
LINE
  5
2A8
330
2
100
AcDbEntity
  8
GAIKEI
  6
Continuous
 62
     1
370
    25
100
AcDbLine
 10
43.32966494867622
 20
6.695614996248991
 30
0.0
 11
43.32966494867622
 21
6.845618171726755
 31
0.0
  0
LINE
  5
2A9
330
2
100
AcDbEntity
  8
GAIKEI
  6
Continuous
 62
     1
370
    25
100
AcDbLine
 10
42.90966596671435
 20
6.845618171726755
 30
0.0
 11
42.90966596671435
 21
6.695614996248991
 31
0.0
  0
LINE
  5
2AA
330
2
100
AcDbEntity
  8
GAIKEI
  6
Continuous
 62
     1
370
    25
100
AcDbLine
 10
42.90966596671435
 20
6.695614996248991
 30
0.0
 11
43.60966426998413
 21
6.695614996248991
 31
0.0
  0
LINE
  5
2AB
330
2
100
AcDbEntity
  8
GAIKEI
  6
Continuous
 62
     1
370
    25
100
AcDbLine
 10
42.90966596671435
 20
6.845618171726755
 30
0.0
 11
42.90966596671435
 21
6.695614996248991
 31
0.0
  0
LINE
  5
2AC
330
2
100
AcDbEntity
  8
GAIKEI
  6
Continuous
 62
     1
370
    25
100
AcDbLine
 10
42.90966596671435
 20
6.845618171726755
 30
0.0
 11
43.60966426998413
 21
6.845618171726755
 31
0.0
  0
LINE
  5
2AD
330
2
100
AcDbEntity
  8
GAIKEI
  6
Continuous
 62
     1
370
    25
100
AcDbLine
 10
43.32966494867622
 20
7.145614613306463
 30
0.0
 11
43.32966494867622
 21
7.29561778878417
 31
0.0
  0
LINE
  5
2AE
330
2
100
AcDbEntity
  8
GAIKEI
  6
Continuous
 62
     1
370
    25
100
AcDbLine
 10
42.90966596671435
 20
7.29561778878417
 30
0.0
 11
42.90966596671435
 21
7.145614613306463
 31
0.0
  0
LINE
  5
2AF
330
2
100
AcDbEntity
  8
GAIKEI
  6
Continuous
 62
     1
370
    25
100
AcDbLine
 10
42.90966596671435
 20
7.145614613306463
 30
0.0
 11
43.60966426998413
 21
7.145614613306463
 31
0.0
  0
LINE
  5
2B0
330
2
100
AcDbEntity
  8
GAIKEI
  6
Continuous
 62
     1
370
    25
100
AcDbLine
 10
42.90966596671435
 20
7.29561778878417
 30
0.0
 11
42.90966596671435
 21
7.145614613306463
 31
0.0
  0
LINE
  5
2B1
330
2
100
AcDbEntity
  8
GAIKEI
  6
Continuous
 62
     1
370
    25
100
AcDbLine
 10
42.90966596671435
 20
7.29561778878417
 30
0.0
 11
43.60966426998413
 21
7.29561778878417
 31
0.0
  0
LINE
  5
2B2
330
2
100
AcDbEntity
  8
GAIKEI
  6
Continuous
 62
     1
370
    25
100
AcDbLine
 10
43.32966494867622
 20
7.595614230363878
 30
0.0
 11
43.32966494867622
 21
7.745617405841585
 31
0.0
  0
LINE
  5
2B3
330
2
100
AcDbEntity
  8
GAIKEI
  6
Continuous
 62
     1
370
    25
100
AcDbLine
 10
42.90966596671435
 20
7.745617405841585
 30
0.0
 11
42.90966596671435
 21
7.595614230363878
 31
0.0
  0
LINE
  5
2B4
330
2
100
AcDbEntity
  8
GAIKEI
  6
Continuous
 62
     1
370
    25
100
AcDbLine
 10
42.90966596671435
 20
7.595614230363878
 30
0.0
 11
43.60966426998413
 21
7.595614230363878
 31
0.0
  0
LINE
  5
2B5
330
2
100
AcDbEntity
  8
GAIKEI
  6
Continuous
 62
     1
370
    25
100
AcDbLine
 10
42.90966596671435
 20
7.745617405841585
 30
0.0
 11
42.90966596671435
 21
7.595614230363878
 31
0.0
  0
LINE
  5
2B6
330
2
100
AcDbEntity
  8
GAIKEI
  6
Continuous
 62
     1
370
    25
100
AcDbLine
 10
42.90966596671435
 20
7.745617405841585
 30
0.0
 11
43.60966426998413
 21
7.745617405841585
 31
0.0
  0
LINE
  5
2B7
330
2
100
AcDbEntity
  8
GAIKEI
  6
Continuous
 62
     1
370
    25
100
AcDbLine
 10
43.32966494867622
 20
8.045613847421293
 30
0.0
 11
43.32966494867622
 21
8.195617022899
 31
0.0
  0
LINE
  5
2B8
330
2
100
AcDbEntity
  8
GAIKEI
  6
Continuous
 62
     1
370
    25
100
AcDbLine
 10
42.90966596671435
 20
8.195617022899
 30
0.0
 11
42.90966596671435
 21
8.045613847421293
 31
0.0
  0
LINE
  5
2B9
330
2
100
AcDbEntity
  8
GAIKEI
  6
Continuous
 62
     1
370
    25
100
AcDbLine
 10
42.90966596671435
 20
8.045613847421293
 30
0.0
 11
43.60966426998413
 21
8.045613847421293
 31
0.0
  0
LINE
  5
2BA
330
2
100
AcDbEntity
  8
GAIKEI
  6
Continuous
 62
     1
370
    25
100
AcDbLine
 10
42.90966596671435
 20
8.195617022899
 30
0.0
 11
42.90966596671435
 21
8.045613847421293
 31
0.0
  0
LINE
  5
2BB
330
2
100
AcDbEntity
  8
GAIKEI
  6
Continuous
 62
     1
370
    25
100
AcDbLine
 10
42.90966596671435
 20
8.195617022899
 30
0.0
 11
43.60966426998413
 21
8.195617022899
 31
0.0
  0
LINE
  5
2BC
330
2
100
AcDbEntity
  8
GAIKEI
  6
Continuous
 62
     1
370
    25
100
AcDbLine
 10
43.32966494867622
 20
8.495618419166589
 30
0.0
 11
43.32966494867622
 21
8.645616639956415
 31
0.0
  0
LINE
  5
2BD
330
2
100
AcDbEntity
  8
GAIKEI
  6
Continuous
 62
     1
370
    25
100
AcDbLine
 10
42.90966596671435
 20
8.645616639956415
 30
0.0
 11
42.90966596671435
 21
8.495618419166589
 31
0.0
  0
LINE
  5
2BE
330
2
100
AcDbEntity
  8
GAIKEI
  6
Continuous
 62
     1
370
    25
100
AcDbLine
 10
42.90966596671435
 20
8.495618419166589
 30
0.0
 11
43.60966426998413
 21
8.495618419166589
 31
0.0
  0
LINE
  5
2BF
330
2
100
AcDbEntity
  8
GAIKEI
  6
Continuous
 62
     1
370
    25
100
AcDbLine
 10
42.90966596671435
 20
8.645616639956415
 30
0.0
 11
42.90966596671435
 21
8.495618419166589
 31
0.0
  0
LINE
  5
2C0
330
2
100
AcDbEntity
  8
GAIKEI
  6
Continuous
 62
     1
370
    25
100
AcDbLine
 10
42.90966596671435
 20
8.645616639956415
 30
0.0
 11
43.60966426998413
 21
8.645616639956415
 31
0.0
  0
LINE
  5
2C1
330
2
100
AcDbEntity
  8
GAIKEI
  6
Continuous
 62
     1
370
    25
100
AcDbLine
 10
43.32966494867622
 20
8.945618036224004
 30
0.0
 11
43.32966494867622
 21
9.09561625701383
 31
0.0
  0
LINE
  5
2C2
330
2
100
AcDbEntity
  8
GAIKEI
  6
Continuous
 62
     1
370
    25
100
AcDbLine
 10
42.90966596671435
 20
9.09561625701383
 30
0.0
 11
42.90966596671435
 21
8.945618036224004
 31
0.0
  0
LINE
  5
2C3
330
2
100
AcDbEntity
  8
GAIKEI
  6
Continuous
 62
     1
370
    25
100
AcDbLine
 10
42.90966596671435
 20
8.945618036224004
 30
0.0
 11
43.60966426998413
 21
8.945618036224004
 31
0.0
  0
LINE
  5
2C4
330
2
100
AcDbEntity
  8
GAIKEI
  6
Continuous
 62
     1
370
    25
100
AcDbLine
 10
42.90966596671435
 20
9.09561625701383
 30
0.0
 11
42.90966596671435
 21
8.945618036224004
 31
0.0
  0
LINE
  5
2C5
330
2
100
AcDbEntity
  8
GAIKEI
  6
Continuous
 62
     1
370
    25
100
AcDbLine
 10
42.90966596671435
 20
9.09561625701383
 30
0.0
 11
43.60966426998413
 21
9.09561625701383
 31
0.0
  0
LINE
  5
2C6
330
2
100
AcDbEntity
  8
GAIKEI
  6
Continuous
 62
     1
370
    25
100
AcDbLine
 10
43.32966494867622
 20
9.395617653281419
 30
0.0
 11
43.32966494867622
 21
9.545615874071245
 31
0.0
  0
LINE
  5
2C7
330
2
100
AcDbEntity
  8
GAIKEI
  6
Continuous
 62
     1
370
    25
100
AcDbLine
 10
42.90966596671435
 20
9.545615874071245
 30
0.0
 11
42.90966596671435
 21
9.395617653281419
 31
0.0
  0
LINE
  5
2C8
330
2
100
AcDbEntity
  8
GAIKEI
  6
Continuous
 62
     1
370
    25
100
AcDbLine
 10
42.90966596671435
 20
9.395617653281419
 30
0.0
 11
43.60966426998413
 21
9.395617653281419
 31
0.0
  0
LINE
  5
2C9
330
2
100
AcDbEntity
  8
GAIKEI
  6
Continuous
 62
     1
370
    25
100
AcDbLine
 10
42.90966596671435
 20
9.545615874071245
 30
0.0
 11
42.90966596671435
 21
9.395617653281419
 31
0.0
  0
LINE
  5
2CA
330
2
100
AcDbEntity
  8
GAIKEI
  6
Continuous
 62
     1
370
    25
100
AcDbLine
 10
42.90966596671435
 20
9.545615874071245
 30
0.0
 11
43.60966426998413
 21
9.545615874071245
 31
0.0
  0
LINE
  5
2CB
330
2
100
AcDbEntity
  8
GAIKEI
  6
Continuous
 62
     1
370
    25
100
AcDbLine
 10
43.32966494867622
 20
9.845617270338834
 30
0.0
 11
43.32966494867622
 21
9.99561549112866
 31
0.0
  0
LINE
  5
2CC
330
2
100
AcDbEntity
  8
GAIKEI
  6
Continuous
 62
     1
370
    25
100
AcDbLine
 10
42.90966596671435
 20
9.99561549112866
 30
0.0
 11
42.90966596671435
 21
9.845617270338834
 31
0.0
  0
LINE
  5
2CD
330
2
100
AcDbEntity
  8
GAIKEI
  6
Continuous
 62
     1
370
    25
100
AcDbLine
 10
42.90966596671435
 20
9.845617270338834
 30
0.0
 11
43.60966426998413
 21
9.845617270338834
 31
0.0
  0
LINE
  5
2CE
330
2
100
AcDbEntity
  8
GAIKEI
  6
Continuous
 62
     1
370
    25
100
AcDbLine
 10
42.90966596671435
 20
9.99561549112866
 30
0.0
 11
42.90966596671435
 21
9.845617270338834
 31
0.0
  0
LINE
  5
2CF
330
2
100
AcDbEntity
  8
GAIKEI
  6
Continuous
 62
     1
370
    25
100
AcDbLine
 10
42.90966596671435
 20
9.99561549112866
 30
0.0
 11
43.60966426998413
 21
9.99561549112866
 31
0.0
  0
LINE
  5
2D0
330
2
100
AcDbEntity
  8
GAIKEI
  6
Continuous
 62
     1
370
    25
100
AcDbLine
 10
43.32966494867622
 20
10.29561688739625
 30
0.0
 11
43.32966494867622
 21
10.44561510818607
 31
0.0
  0
LINE
  5
2D1
330
2
100
AcDbEntity
  8
GAIKEI
  6
Continuous
 62
     1
370
    25
100
AcDbLine
 10
42.90966596671435
 20
10.44561510818607
 30
0.0
 11
42.90966596671435
 21
10.29561688739625
 31
0.0
  0
LINE
  5
2D2
330
2
100
AcDbEntity
  8
GAIKEI
  6
Continuous
 62
     1
370
    25
100
AcDbLine
 10
42.90966596671435
 20
10.29561688739625
 30
0.0
 11
43.60966426998413
 21
10.29561688739625
 31
0.0
  0
LINE
  5
2D3
330
2
100
AcDbEntity
  8
GAIKEI
  6
Continuous
 62
     1
370
    25
100
AcDbLine
 10
42.90966596671435
 20
10.44561510818607
 30
0.0
 11
42.90966596671435
 21
10.29561688739625
 31
0.0
  0
LINE
  5
2D4
330
2
100
AcDbEntity
  8
GAIKEI
  6
Continuous
 62
     1
370
    25
100
AcDbLine
 10
42.90966596671435
 20
10.44561510818607
 30
0.0
 11
43.60966426998413
 21
10.44561510818607
 31
0.0
  0
LINE
  5
2D5
330
2
100
AcDbEntity
  8
GAIKEI
  6
Continuous
 62
     1
370
    25
100
AcDbLine
 10
43.32966494867622
 20
10.74561650445366
 30
0.0
 11
43.32966494867622
 21
10.89561472524349
 31
0.0
  0
LINE
  5
2D6
330
2
100
AcDbEntity
  8
GAIKEI
  6
Continuous
 62
     1
370
    25
100
AcDbLine
 10
42.90966596671435
 20
10.89561472524349
 30
0.0
 11
42.90966596671435
 21
10.74561650445366
 31
0.0
  0
LINE
  5
2D7
330
2
100
AcDbEntity
  8
GAIKEI
  6
Continuous
 62
     1
370
    25
100
AcDbLine
 10
42.90966596671435
 20
10.74561650445366
 30
0.0
 11
43.60966426998413
 21
10.74561650445366
 31
0.0
  0
LINE
  5
2D8
330
2
100
AcDbEntity
  8
GAIKEI
  6
Continuous
 62
     1
370
    25
100
AcDbLine
 10
42.90966596671435
 20
10.89561472524349
 30
0.0
 11
42.90966596671435
 21
10.74561650445366
 31
0.0
  0
LINE
  5
2D9
330
2
100
AcDbEntity
  8
GAIKEI
  6
Continuous
 62
     1
370
    25
100
AcDbLine
 10
42.90966596671435
 20
10.89561472524349
 30
0.0
 11
43.60966426998413
 21
10.89561472524349
 31
0.0
  0
LINE
  5
2DA
330
2
100
AcDbEntity
  8
GAIKEI
  6
Continuous
 62
     1
370
    25
100
AcDbLine
 10
43.32966494867622
 20
11.19561612151108
 30
0.0
 11
43.32966494867622
 21
11.3456143423009
 31
0.0
  0
LINE
  5
2DB
330
2
100
AcDbEntity
  8
GAIKEI
  6
Continuous
 62
     1
370
    25
100
AcDbLine
 10
42.90966596671435
 20
11.3456143423009
 30
0.0
 11
42.90966596671435
 21
11.19561612151108
 31
0.0
  0
LINE
  5
2DC
330
2
100
AcDbEntity
  8
GAIKEI
  6
Continuous
 62
     1
370
    25
100
AcDbLine
 10
42.90966596671435
 20
11.19561612151108
 30
0.0
 11
43.60966426998413
 21
11.19561612151108
 31
0.0
  0
LINE
  5
2DD
330
2
100
AcDbEntity
  8
GAIKEI
  6
Continuous
 62
     1
370
    25
100
AcDbLine
 10
42.90966596671435
 20
11.3456143423009
 30
0.0
 11
42.90966596671435
 21
11.19561612151108
 31
0.0
  0
LINE
  5
2DE
330
2
100
AcDbEntity
  8
GAIKEI
  6
Continuous
 62
     1
370
    25
100
AcDbLine
 10
42.90966596671435
 20
11.3456143423009
 30
0.0
 11
43.60966426998413
 21
11.3456143423009
 31
0.0
  0
LINE
  5
2DF
330
2
100
AcDbEntity
  8
GAIKEI
  6
Continuous
 62
     1
370
    25
100
AcDbLine
 10
43.32966494867622
 20
11.64562069325637
 30
0.0
 11
43.32966494867622
 21
11.7956189140462
 31
0.0
  0
LINE
  5
2E0
330
2
100
AcDbEntity
  8
GAIKEI
  6
Continuous
 62
     1
370
    25
100
AcDbLine
 10
42.90966596671435
 20
11.7956189140462
 30
0.0
 11
42.90966596671435
 21
11.64562069325637
 31
0.0
  0
LINE
  5
2E1
330
2
100
AcDbEntity
  8
GAIKEI
  6
Continuous
 62
     1
370
    25
100
AcDbLine
 10
42.90966596671435
 20
11.64562069325637
 30
0.0
 11
43.60966426998413
 21
11.64562069325637
 31
0.0
  0
LINE
  5
2E2
330
2
100
AcDbEntity
  8
GAIKEI
  6
Continuous
 62
     1
370
    25
100
AcDbLine
 10
42.90966596671435
 20
11.7956189140462
 30
0.0
 11
42.90966596671435
 21
11.64562069325637
 31
0.0
  0
LINE
  5
2E3
330
2
100
AcDbEntity
  8
GAIKEI
  6
Continuous
 62
     1
370
    25
100
AcDbLine
 10
42.90966596671435
 20
11.7956189140462
 30
0.0
 11
43.60966426998413
 21
11.7956189140462
 31
0.0
  0
LINE
  5
2E4
330
2
100
AcDbEntity
  8
GAIKEI
  6
Continuous
 62
     1
370
    25
100
AcDbLine
 10
43.32966494867622
 20
12.09561535562591
 30
0.0
 11
43.32966494867622
 21
12.24561357641573
 31
0.0
  0
LINE
  5
2E5
330
2
100
AcDbEntity
  8
GAIKEI
  6
Continuous
 62
     1
370
    25
100
AcDbLine
 10
42.90966596671435
 20
12.24561357641573
 30
0.0
 11
42.90966596671435
 21
12.09561535562591
 31
0.0
  0
LINE
  5
2E6
330
2
100
AcDbEntity
  8
GAIKEI
  6
Continuous
 62
     1
370
    25
100
AcDbLine
 10
42.90966596671435
 20
12.09561535562591
 30
0.0
 11
43.60966426998413
 21
12.09561535562591
 31
0.0
  0
LINE
  5
2E7
330
2
100
AcDbEntity
  8
GAIKEI
  6
Continuous
 62
     1
370
    25
100
AcDbLine
 10
42.90966596671435
 20
12.24561357641573
 30
0.0
 11
42.90966596671435
 21
12.09561535562591
 31
0.0
  0
LINE
  5
2E8
330
2
100
AcDbEntity
  8
GAIKEI
  6
Continuous
 62
     1
370
    25
100
AcDbLine
 10
42.90966596671435
 20
12.24561357641573
 30
0.0
 11
43.60966426998413
 21
12.24561357641573
 31
0.0
  0
LINE
  5
2E9
330
2
100
AcDbEntity
  8
GAIKEI
  6
Continuous
 62
     1
370
    25
100
AcDbLine
 10
43.32966494867622
 20
12.5456199273712
 30
0.0
 11
43.32966494867622
 21
12.69561814816103
 31
0.0
  0
LINE
  5
2EA
330
2
100
AcDbEntity
  8
GAIKEI
  6
Continuous
 62
     1
370
    25
100
AcDbLine
 10
42.90966596671435
 20
12.69561814816103
 30
0.0
 11
42.90966596671435
 21
12.5456199273712
 31
0.0
  0
LINE
  5
2EB
330
2
100
AcDbEntity
  8
GAIKEI
  6
Continuous
 62
     1
370
    25
100
AcDbLine
 10
42.90966596671435
 20
12.5456199273712
 30
0.0
 11
43.60966426998413
 21
12.5456199273712
 31
0.0
  0
LINE
  5
2EC
330
2
100
AcDbEntity
  8
GAIKEI
  6
Continuous
 62
     1
370
    25
100
AcDbLine
 10
42.90966596671435
 20
12.69561814816103
 30
0.0
 11
42.90966596671435
 21
12.5456199273712
 31
0.0
  0
LINE
  5
2ED
330
2
100
AcDbEntity
  8
GAIKEI
  6
Continuous
 62
     1
370
    25
100
AcDbLine
 10
42.90966596671435
 20
12.69561814816103
 30
0.0
 11
43.60966426998413
 21
12.69561814816103
 31
0.0
  0
LINE
  5
2EE
330
2
100
AcDbEntity
  8
GAIKEI
  6
Continuous
 62
     1
370
    25
100
AcDbLine
 10
43.32966494867622
 20
12.99561458974074
 30
0.0
 11
43.32966494867622
 21
13.14561281053062
 31
0.0
  0
LINE
  5
2EF
330
2
100
AcDbEntity
  8
GAIKEI
  6
Continuous
 62
     1
370
    25
100
AcDbLine
 10
42.90966596671435
 20
13.14561281053062
 30
0.0
 11
42.90966596671435
 21
12.99561458974074
 31
0.0
  0
LINE
  5
2F0
330
2
100
AcDbEntity
  8
GAIKEI
  6
Continuous
 62
     1
370
    25
100
AcDbLine
 10
42.90966596671435
 20
12.99561458974074
 30
0.0
 11
43.60966426998413
 21
12.99561458974074
 31
0.0
  0
LINE
  5
2F1
330
2
100
AcDbEntity
  8
GAIKEI
  6
Continuous
 62
     1
370
    25
100
AcDbLine
 10
42.90966596671435
 20
13.14561281053062
 30
0.0
 11
42.90966596671435
 21
12.99561458974074
 31
0.0
  0
LINE
  5
2F2
330
2
100
AcDbEntity
  8
GAIKEI
  6
Continuous
 62
     1
370
    25
100
AcDbLine
 10
42.90966596671435
 20
13.14561281053062
 30
0.0
 11
43.60966426998413
 21
13.14561281053062
 31
0.0
  0
LINE
  5
2F3
330
2
100
AcDbEntity
  8
GAIKEI
  6
Continuous
 62
     1
370
    25
100
AcDbLine
 10
43.32966494867622
 20
13.44561916148603
 30
0.0
 11
43.32966494867622
 21
13.59561738227586
 31
0.0
  0
LINE
  5
2F4
330
2
100
AcDbEntity
  8
GAIKEI
  6
Continuous
 62
     1
370
    25
100
AcDbLine
 10
42.90966596671435
 20
13.59561738227586
 30
0.0
 11
42.90966596671435
 21
13.44561916148603
 31
0.0
  0
LINE
  5
2F5
330
2
100
AcDbEntity
  8
GAIKEI
  6
Continuous
 62
     1
370
    25
100
AcDbLine
 10
42.90966596671435
 20
13.44561916148603
 30
0.0
 11
43.60966426998413
 21
13.44561916148603
 31
0.0
  0
LINE
  5
2F6
330
2
100
AcDbEntity
  8
GAIKEI
  6
Continuous
 62
     1
370
    25
100
AcDbLine
 10
42.90966596671435
 20
13.59561738227586
 30
0.0
 11
42.90966596671435
 21
13.44561916148603
 31
0.0
  0
LINE
  5
2F7
330
2
100
AcDbEntity
  8
GAIKEI
  6
Continuous
 62
     1
370
    25
100
AcDbLine
 10
42.90966596671435
 20
13.59561738227586
 30
0.0
 11
43.60966426998413
 21
13.59561738227586
 31
0.0
  0
LINE
  5
2F8
330
2
100
AcDbEntity
  8
GAIKEI
  6
Continuous
 62
     1
370
    25
100
AcDbLine
 10
43.32966494867622
 20
13.89561382385557
 30
0.0
 11
43.32966494867622
 21
14.04561204464545
 31
0.0
  0
LINE
  5
2F9
330
2
100
AcDbEntity
  8
GAIKEI
  6
Continuous
 62
     1
370
    25
100
AcDbLine
 10
42.90966596671435
 20
14.04561204464545
 30
0.0
 11
42.90966596671435
 21
13.89561382385557
 31
0.0
  0
LINE
  5
2FA
330
2
100
AcDbEntity
  8
GAIKEI
  6
Continuous
 62
     1
370
    25
100
AcDbLine
 10
42.90966596671435
 20
13.89561382385557
 30
0.0
 11
43.60966426998413
 21
13.89561382385557
 31
0.0
  0
LINE
  5
2FB
330
2
100
AcDbEntity
  8
GAIKEI
  6
Continuous
 62
     1
370
    25
100
AcDbLine
 10
42.90966596671435
 20
14.04561204464545
 30
0.0
 11
42.90966596671435
 21
13.89561382385557
 31
0.0
  0
LINE
  5
2FC
330
2
100
AcDbEntity
  8
GAIKEI
  6
Continuous
 62
     1
370
    25
100
AcDbLine
 10
42.90966596671435
 20
14.04561204464545
 30
0.0
 11
43.60966426998413
 21
14.04561204464545
 31
0.0
  0
LINE
  5
2FD
330
2
100
AcDbEntity
  8
GAIKEI
  6
Continuous
 62
     1
370
    25
100
AcDbLine
 10
43.32966494867622
 20
14.34561839560086
 30
0.0
 11
43.32966494867622
 21
14.49561661639069
 31
0.0
  0
LINE
  5
2FE
330
2
100
AcDbEntity
  8
GAIKEI
  6
Continuous
 62
     1
370
    25
100
AcDbLine
 10
42.90966596671435
 20
14.49561661639069
 30
0.0
 11
42.90966596671435
 21
14.34561839560086
 31
0.0
  0
LINE
  5
2FF
330
2
100
AcDbEntity
  8
GAIKEI
  6
Continuous
 62
     1
370
    25
100
AcDbLine
 10
42.90966596671435
 20
14.34561839560086
 30
0.0
 11
43.60966426998413
 21
14.34561839560086
 31
0.0
  0
LINE
  5
300
330
2
100
AcDbEntity
  8
GAIKEI
  6
Continuous
 62
     1
370
    25
100
AcDbLine
 10
42.90966596671435
 20
14.49561661639069
 30
0.0
 11
42.90966596671435
 21
14.34561839560086
 31
0.0
  0
LINE
  5
301
330
2
100
AcDbEntity
  8
GAIKEI
  6
Continuous
 62
     1
370
    25
100
AcDbLine
 10
42.90966596671435
 20
14.49561661639069
 30
0.0
 11
43.60966426998413
 21
14.49561661639069
 31
0.0
  0
LINE
  5
302
330
2
100
AcDbEntity
  8
GAIKEI
  6
Continuous
 62
     1
370
    25
100
AcDbLine
 10
43.32966494867622
 20
14.7956130579704
 30
0.0
 11
43.32966494867622
 21
14.94561127876028
 31
0.0
  0
LINE
  5
303
330
2
100
AcDbEntity
  8
GAIKEI
  6
Continuous
 62
     1
370
    25
100
AcDbLine
 10
42.90966596671435
 20
14.94561127876028
 30
0.0
 11
42.90966596671435
 21
14.7956130579704
 31
0.0
  0
LINE
  5
304
330
2
100
AcDbEntity
  8
GAIKEI
  6
Continuous
 62
     1
370
    25
100
AcDbLine
 10
42.90966596671435
 20
14.7956130579704
 30
0.0
 11
43.60966426998413
 21
14.7956130579704
 31
0.0
  0
LINE
  5
305
330
2
100
AcDbEntity
  8
GAIKEI
  6
Continuous
 62
     1
370
    25
100
AcDbLine
 10
42.90966596671435
 20
14.94561127876028
 30
0.0
 11
42.90966596671435
 21
14.7956130579704
 31
0.0
  0
LINE
  5
306
330
2
100
AcDbEntity
  8
GAIKEI
  6
Continuous
 62
     1
370
    25
100
AcDbLine
 10
42.90966596671435
 20
14.94561127876028
 30
0.0
 11
43.60966426998413
 21
14.94561127876028
 31
0.0
  0
LINE
  5
307
330
2
100
AcDbEntity
  8
GAIKEI
  6
Continuous
 62
     1
370
    25
100
AcDbLine
 10
43.32966494867622
 20
15.24561762971569
 30
0.0
 11
43.32966494867622
 21
15.39561585050558
 31
0.0
  0
LINE
  5
308
330
2
100
AcDbEntity
  8
GAIKEI
  6
Continuous
 62
     1
370
    25
100
AcDbLine
 10
42.90966596671435
 20
15.39561585050558
 30
0.0
 11
42.90966596671435
 21
15.24561762971569
 31
0.0
  0
LINE
  5
309
330
2
100
AcDbEntity
  8
GAIKEI
  6
Continuous
 62
     1
370
    25
100
AcDbLine
 10
42.90966596671435
 20
15.24561762971569
 30
0.0
 11
43.60966426998413
 21
15.24561762971569
 31
0.0
  0
LINE
  5
30A
330
2
100
AcDbEntity
  8
GAIKEI
  6
Continuous
 62
     1
370
    25
100
AcDbLine
 10
42.90966596671435
 20
15.39561585050558
 30
0.0
 11
42.90966596671435
 21
15.24561762971569
 31
0.0
  0
LINE
  5
30B
330
2
100
AcDbEntity
  8
GAIKEI
  6
Continuous
 62
     1
370
    25
100
AcDbLine
 10
42.90966596671435
 20
15.39561585050558
 30
0.0
 11
43.60966426998413
 21
15.39561585050558
 31
0.0
  0
LINE
  5
30C
330
2
100
AcDbEntity
  8
GAIKEI
  6
Continuous
 62
     1
370
    25
100
AcDbLine
 10
43.32966494867622
 20
15.69561229208523
 30
0.0
 11
43.32966494867622
 21
15.84562042225087
 31
0.0
  0
LINE
  5
30D
330
2
100
AcDbEntity
  8
GAIKEI
  6
Continuous
 62
     1
370
    25
100
AcDbLine
 10
42.90966596671435
 20
15.84562042225087
 30
0.0
 11
42.90966596671435
 21
15.69561229208523
 31
0.0
  0
LINE
  5
30E
330
2
100
AcDbEntity
  8
GAIKEI
  6
Continuous
 62
     1
370
    25
100
AcDbLine
 10
42.90966596671435
 20
15.69561229208523
 30
0.0
 11
43.60966426998413
 21
15.69561229208523
 31
0.0
  0
LINE
  5
30F
330
2
100
AcDbEntity
  8
GAIKEI
  6
Continuous
 62
     1
370
    25
100
AcDbLine
 10
42.90966596671435
 20
15.84562042225087
 30
0.0
 11
42.90966596671435
 21
15.69561229208523
 31
0.0
  0
LINE
  5
310
330
2
100
AcDbEntity
  8
GAIKEI
  6
Continuous
 62
     1
370
    25
100
AcDbLine
 10
42.90966596671435
 20
15.84562042225087
 30
0.0
 11
43.60966426998413
 21
15.84562042225087
 31
0.0
  0
LINE
  5
311
330
2
100
AcDbEntity
  8
GAIKEI
  6
Continuous
 62
     1
370
    25
100
AcDbLine
 10
43.32966494867622
 20
16.14561686383052
 30
0.0
 11
43.32966494867622
 21
16.29561508462041
 31
0.0
  0
LINE
  5
312
330
2
100
AcDbEntity
  8
GAIKEI
  6
Continuous
 62
     1
370
    25
100
AcDbLine
 10
42.90966596671435
 20
16.29561508462041
 30
0.0
 11
42.90966596671435
 21
16.14561686383052
 31
0.0
  0
LINE
  5
313
330
2
100
AcDbEntity
  8
GAIKEI
  6
Continuous
 62
     1
370
    25
100
AcDbLine
 10
42.90966596671435
 20
16.14561686383052
 30
0.0
 11
43.60966426998413
 21
16.14561686383052
 31
0.0
  0
LINE
  5
314
330
2
100
AcDbEntity
  8
GAIKEI
  6
Continuous
 62
     1
370
    25
100
AcDbLine
 10
42.90966596671435
 20
16.29561508462041
 30
0.0
 11
42.90966596671435
 21
16.14561686383052
 31
0.0
  0
LINE
  5
315
330
2
100
AcDbEntity
  8
GAIKEI
  6
Continuous
 62
     1
370
    25
100
AcDbLine
 10
42.90966596671435
 20
16.29561508462041
 30
0.0
 11
43.60966426998413
 21
16.29561508462041
 31
0.0
  0
LINE
  5
316
330
2
100
AcDbEntity
  8
GAIKEI
  6
Continuous
 62
     1
370
    25
100
AcDbLine
 10
43.32966494867622
 20
16.59561152620011
 30
0.0
 11
43.32966494867622
 21
16.7456196563657
 31
0.0
  0
LINE
  5
317
330
2
100
AcDbEntity
  8
GAIKEI
  6
Continuous
 62
     1
370
    25
100
AcDbLine
 10
42.90966596671435
 20
16.7456196563657
 30
0.0
 11
42.90966596671435
 21
16.59561152620011
 31
0.0
  0
LINE
  5
318
330
2
100
AcDbEntity
  8
GAIKEI
  6
Continuous
 62
     1
370
    25
100
AcDbLine
 10
42.90966596671435
 20
16.59561152620011
 30
0.0
 11
43.60966426998413
 21
16.59561152620011
 31
0.0
  0
LINE
  5
319
330
2
100
AcDbEntity
  8
GAIKEI
  6
Continuous
 62
     1
370
    25
100
AcDbLine
 10
42.90966596671435
 20
16.7456196563657
 30
0.0
 11
42.90966596671435
 21
16.59561152620011
 31
0.0
  0
LINE
  5
31A
330
2
100
AcDbEntity
  8
GAIKEI
  6
Continuous
 62
     1
370
    25
100
AcDbLine
 10
42.90966596671435
 20
16.7456196563657
 30
0.0
 11
43.60966426998413
 21
16.7456196563657
 31
0.0
  0
LINE
  5
31B
330
2
100
AcDbEntity
  8
GAIKEI
  6
Continuous
 62
     1
370
    25
100
AcDbLine
 10
43.32966494867622
 20
17.04561609794535
 30
0.0
 11
43.32966494867622
 21
17.19561431873524
 31
0.0
  0
LINE
  5
31C
330
2
100
AcDbEntity
  8
GAIKEI
  6
Continuous
 62
     1
370
    25
100
AcDbLine
 10
42.90966596671435
 20
17.19561431873524
 30
0.0
 11
42.90966596671435
 21
17.04561609794535
 31
0.0
  0
LINE
  5
31D
330
2
100
AcDbEntity
  8
GAIKEI
  6
Continuous
 62
     1
370
    25
100
AcDbLine
 10
42.90966596671435
 20
17.04561609794535
 30
0.0
 11
43.60966426998413
 21
17.04561609794535
 31
0.0
  0
LINE
  5
31E
330
2
100
AcDbEntity
  8
GAIKEI
  6
Continuous
 62
     1
370
    25
100
AcDbLine
 10
42.90966596671435
 20
17.19561431873524
 30
0.0
 11
42.90966596671435
 21
17.04561609794535
 31
0.0
  0
LINE
  5
31F
330
2
100
AcDbEntity
  8
GAIKEI
  6
Continuous
 62
     1
370
    25
100
AcDbLine
 10
42.90966596671435
 20
17.19561431873524
 30
0.0
 11
43.60966426998413
 21
17.19561431873524
 31
0.0
  0
LINE
  5
320
330
2
100
AcDbEntity
  8
GAIKEI
  6
Continuous
 62
     1
370
    25
100
AcDbLine
 10
43.32966494867622
 20
17.49562066969065
 30
0.0
 11
43.32966494867622
 21
17.64561889048053
 31
0.0
  0
LINE
  5
321
330
2
100
AcDbEntity
  8
GAIKEI
  6
Continuous
 62
     1
370
    25
100
AcDbLine
 10
42.90966596671435
 20
17.64561889048053
 30
0.0
 11
42.90966596671435
 21
17.49562066969065
 31
0.0
  0
LINE
  5
322
330
2
100
AcDbEntity
  8
GAIKEI
  6
Continuous
 62
     1
370
    25
100
AcDbLine
 10
42.90966596671435
 20
17.49562066969065
 30
0.0
 11
43.60966426998413
 21
17.49562066969065
 31
0.0
  0
LINE
  5
323
330
2
100
AcDbEntity
  8
GAIKEI
  6
Continuous
 62
     1
370
    25
100
AcDbLine
 10
42.90966596671435
 20
17.64561889048053
 30
0.0
 11
42.90966596671435
 21
17.49562066969065
 31
0.0
  0
LINE
  5
324
330
2
100
AcDbEntity
  8
GAIKEI
  6
Continuous
 62
     1
370
    25
100
AcDbLine
 10
42.90966596671435
 20
17.64561889048053
 30
0.0
 11
43.60966426998413
 21
17.64561889048053
 31
0.0
  0
LINE
  5
325
330
2
100
AcDbEntity
  8
GAIKEI
  6
Continuous
 62
     1
370
    25
100
AcDbLine
 10
43.32966494867622
 20
17.94561533206018
 30
0.0
 11
43.32966494867622
 21
18.09561355285007
 31
0.0
  0
LINE
  5
326
330
2
100
AcDbEntity
  8
GAIKEI
  6
Continuous
 62
     1
370
    25
100
AcDbLine
 10
42.90966596671435
 20
18.09561355285007
 30
0.0
 11
42.90966596671435
 21
17.94561533206018
 31
0.0
  0
LINE
  5
327
330
2
100
AcDbEntity
  8
GAIKEI
  6
Continuous
 62
     1
370
    25
100
AcDbLine
 10
42.90966596671435
 20
17.94561533206018
 30
0.0
 11
43.60966426998413
 21
17.94561533206018
 31
0.0
  0
LINE
  5
328
330
2
100
AcDbEntity
  8
GAIKEI
  6
Continuous
 62
     1
370
    25
100
AcDbLine
 10
42.90966596671435
 20
18.09561355285007
 30
0.0
 11
42.90966596671435
 21
17.94561533206018
 31
0.0
  0
LINE
  5
329
330
2
100
AcDbEntity
  8
GAIKEI
  6
Continuous
 62
     1
370
    25
100
AcDbLine
 10
42.90966596671435
 20
18.09561355285007
 30
0.0
 11
43.60966426998413
 21
18.09561355285007
 31
0.0
  0
LINE
  5
32A
330
2
100
AcDbEntity
  8
GAIKEI
  6
Continuous
 62
     1
370
    25
100
AcDbLine
 10
43.32966494867622
 20
18.39561990380554
 30
0.0
 11
43.32966494867622
 21
18.54561812459536
 31
0.0
  0
LINE
  5
32B
330
2
100
AcDbEntity
  8
GAIKEI
  6
Continuous
 62
     1
370
    25
100
AcDbLine
 10
42.90966596671435
 20
18.54561812459536
 30
0.0
 11
42.90966596671435
 21
18.39561990380554
 31
0.0
  0
LINE
  5
32C
330
2
100
AcDbEntity
  8
GAIKEI
  6
Continuous
 62
     1
370
    25
100
AcDbLine
 10
42.90966596671435
 20
18.39561990380554
 30
0.0
 11
43.60966426998413
 21
18.39561990380554
 31
0.0
  0
LINE
  5
32D
330
2
100
AcDbEntity
  8
GAIKEI
  6
Continuous
 62
     1
370
    25
100
AcDbLine
 10
42.90966596671435
 20
18.54561812459536
 30
0.0
 11
42.90966596671435
 21
18.39561990380554
 31
0.0
  0
LINE
  5
32E
330
2
100
AcDbEntity
  8
GAIKEI
  6
Continuous
 62
     1
370
    25
100
AcDbLine
 10
42.90966596671435
 20
18.54561812459536
 30
0.0
 11
43.60966426998413
 21
18.54561812459536
 31
0.0
  0
LINE
  5
32F
330
2
100
AcDbEntity
  8
GAIKEI
  6
Continuous
 62
     1
370
    25
100
AcDbLine
 10
43.32966494867622
 20
18.84561456617501
 30
0.0
 11
43.32966494867622
 21
18.9956127869649
 31
0.0
  0
LINE
  5
330
330
2
100
AcDbEntity
  8
GAIKEI
  6
Continuous
 62
     1
370
    25
100
AcDbLine
 10
42.90966596671435
 20
18.9956127869649
 30
0.0
 11
42.90966596671435
 21
18.84561456617501
 31
0.0
  0
LINE
  5
331
330
2
100
AcDbEntity
  8
GAIKEI
  6
Continuous
 62
     1
370
    25
100
AcDbLine
 10
42.90966596671435
 20
18.84561456617501
 30
0.0
 11
43.60966426998413
 21
18.84561456617501
 31
0.0
  0
LINE
  5
332
330
2
100
AcDbEntity
  8
GAIKEI
  6
Continuous
 62
     1
370
    25
100
AcDbLine
 10
42.90966596671435
 20
18.9956127869649
 30
0.0
 11
42.90966596671435
 21
18.84561456617501
 31
0.0
  0
LINE
  5
333
330
2
100
AcDbEntity
  8
GAIKEI
  6
Continuous
 62
     1
370
    25
100
AcDbLine
 10
42.90966596671435
 20
18.9956127869649
 30
0.0
 11
43.60966426998413
 21
18.9956127869649
 31
0.0
  0
LINE
  5
334
330
2
100
AcDbEntity
  8
GAIKEI
  6
Continuous
 62
     1
370
    25
100
AcDbLine
 10
43.32966494867622
 20
19.29561913792037
 30
0.0
 11
43.32966494867622
 21
19.44561735871019
 31
0.0
  0
LINE
  5
335
330
2
100
AcDbEntity
  8
GAIKEI
  6
Continuous
 62
     1
370
    25
100
AcDbLine
 10
42.90966596671435
 20
19.44561735871019
 30
0.0
 11
42.90966596671435
 21
19.29561913792037
 31
0.0
  0
LINE
  5
336
330
2
100
AcDbEntity
  8
GAIKEI
  6
Continuous
 62
     1
370
    25
100
AcDbLine
 10
42.90966596671435
 20
19.29561913792037
 30
0.0
 11
43.60966426998413
 21
19.29561913792037
 31
0.0
  0
LINE
  5
337
330
2
100
AcDbEntity
  8
GAIKEI
  6
Continuous
 62
     1
370
    25
100
AcDbLine
 10
42.90966596671435
 20
19.44561735871019
 30
0.0
 11
42.90966596671435
 21
19.29561913792037
 31
0.0
  0
LINE
  5
338
330
2
100
AcDbEntity
  8
GAIKEI
  6
Continuous
 62
     1
370
    25
100
AcDbLine
 10
42.90966596671435
 20
19.44561735871019
 30
0.0
 11
43.60966426998413
 21
19.44561735871019
 31
0.0
  0
LINE
  5
339
330
2
100
AcDbEntity
  8
GAIKEI
  6
Continuous
 62
     1
370
    25
100
AcDbLine
 10
43.32966494867622
 20
19.7456138002899
 30
0.0
 11
43.32966494867622
 21
19.89561202107973
 31
0.0
  0
LINE
  5
33A
330
2
100
AcDbEntity
  8
GAIKEI
  6
Continuous
 62
     1
370
    25
100
AcDbLine
 10
42.90966596671435
 20
19.89561202107973
 30
0.0
 11
42.90966596671435
 21
19.7456138002899
 31
0.0
  0
LINE
  5
33B
330
2
100
AcDbEntity
  8
GAIKEI
  6
Continuous
 62
     1
370
    25
100
AcDbLine
 10
42.90966596671435
 20
19.7456138002899
 30
0.0
 11
43.60966426998413
 21
19.7456138002899
 31
0.0
  0
LINE
  5
33C
330
2
100
AcDbEntity
  8
GAIKEI
  6
Continuous
 62
     1
370
    25
100
AcDbLine
 10
42.90966596671435
 20
19.89561202107973
 30
0.0
 11
42.90966596671435
 21
19.7456138002899
 31
0.0
  0
LINE
  5
33D
330
2
100
AcDbEntity
  8
GAIKEI
  6
Continuous
 62
     1
370
    25
100
AcDbLine
 10
42.90966596671435
 20
19.89561202107973
 30
0.0
 11
43.60966426998413
 21
19.89561202107973
 31
0.0
  0
LINE
  5
33E
330
2
100
AcDbEntity
  8
GAIKEI
  6
Continuous
 62
     1
370
    25
100
AcDbLine
 10
43.32966494867622
 20
20.1956183720352
 30
0.0
 11
43.32966494867622
 21
20.34561659282502
 31
0.0
  0
LINE
  5
33F
330
2
100
AcDbEntity
  8
GAIKEI
  6
Continuous
 62
     1
370
    25
100
AcDbLine
 10
42.90966596671435
 20
20.34561659282502
 30
0.0
 11
42.90966596671435
 21
20.1956183720352
 31
0.0
  0
LINE
  5
340
330
2
100
AcDbEntity
  8
GAIKEI
  6
Continuous
 62
     1
370
    25
100
AcDbLine
 10
42.90966596671435
 20
20.1956183720352
 30
0.0
 11
43.60966426998413
 21
20.1956183720352
 31
0.0
  0
LINE
  5
341
330
2
100
AcDbEntity
  8
GAIKEI
  6
Continuous
 62
     1
370
    25
100
AcDbLine
 10
42.90966596671435
 20
20.34561659282502
 30
0.0
 11
42.90966596671435
 21
20.1956183720352
 31
0.0
  0
LINE
  5
342
330
2
100
AcDbEntity
  8
GAIKEI
  6
Continuous
 62
     1
370
    25
100
AcDbLine
 10
42.90966596671435
 20
20.34561659282502
 30
0.0
 11
43.60966426998413
 21
20.34561659282502
 31
0.0
  0
LINE
  5
343
330
2
100
AcDbEntity
  8
GAIKEI
  6
Continuous
 62
     1
370
    25
100
AcDbLine
 10
43.32966494867622
 20
20.64561303440473
 30
0.0
 11
43.32966494867622
 21
20.79561125519456
 31
0.0
  0
LINE
  5
344
330
2
100
AcDbEntity
  8
GAIKEI
  6
Continuous
 62
     1
370
    25
100
AcDbLine
 10
42.90966596671435
 20
20.79561125519456
 30
0.0
 11
42.90966596671435
 21
20.64561303440473
 31
0.0
  0
LINE
  5
345
330
2
100
AcDbEntity
  8
GAIKEI
  6
Continuous
 62
     1
370
    25
100
AcDbLine
 10
42.90966596671435
 20
20.64561303440473
 30
0.0
 11
43.60966426998413
 21
20.64561303440473
 31
0.0
  0
LINE
  5
346
330
2
100
AcDbEntity
  8
GAIKEI
  6
Continuous
 62
     1
370
    25
100
AcDbLine
 10
42.90966596671435
 20
20.79561125519456
 30
0.0
 11
42.90966596671435
 21
20.64561303440473
 31
0.0
  0
LINE
  5
347
330
2
100
AcDbEntity
  8
GAIKEI
  6
Continuous
 62
     1
370
    25
100
AcDbLine
 10
42.90966596671435
 20
20.79561125519456
 30
0.0
 11
43.60966426998413
 21
20.79561125519456
 31
0.0
  0
LINE
  5
348
330
2
100
AcDbEntity
  8
GAIKEI
  6
Continuous
 62
     1
370
    25
100
AcDbLine
 10
43.32966494867622
 20
21.09561760615003
 30
0.0
 11
43.32966494867622
 21
21.24561582693985
 31
0.0
  0
LINE
  5
349
330
2
100
AcDbEntity
  8
GAIKEI
  6
Continuous
 62
     1
370
    25
100
AcDbLine
 10
42.90966596671435
 20
21.24561582693985
 30
0.0
 11
42.90966596671435
 21
21.09561760615003
 31
0.0
  0
LINE
  5
34A
330
2
100
AcDbEntity
  8
GAIKEI
  6
Continuous
 62
     1
370
    25
100
AcDbLine
 10
42.90966596671435
 20
21.09561760615003
 30
0.0
 11
43.60966426998413
 21
21.09561760615003
 31
0.0
  0
LINE
  5
34B
330
2
100
AcDbEntity
  8
GAIKEI
  6
Continuous
 62
     1
370
    25
100
AcDbLine
 10
42.90966596671435
 20
21.24561582693985
 30
0.0
 11
42.90966596671435
 21
21.09561760615003
 31
0.0
  0
LINE
  5
34C
330
2
100
AcDbEntity
  8
GAIKEI
  6
Continuous
 62
     1
370
    25
100
AcDbLine
 10
42.90966596671435
 20
21.24561582693985
 30
0.0
 11
43.60966426998413
 21
21.24561582693985
 31
0.0
  0
LINE
  5
34D
330
2
100
AcDbEntity
  8
GAIKEI
  6
Continuous
 62
     1
370
    25
100
AcDbLine
 10
43.32966494867622
 20
21.54561226851956
 30
0.0
 11
43.32966494867622
 21
21.69562039868515
 31
0.0
  0
LINE
  5
34E
330
2
100
AcDbEntity
  8
GAIKEI
  6
Continuous
 62
     1
370
    25
100
AcDbLine
 10
42.90966596671435
 20
21.69562039868515
 30
0.0
 11
42.90966596671435
 21
21.54561226851956
 31
0.0
  0
LINE
  5
34F
330
2
100
AcDbEntity
  8
GAIKEI
  6
Continuous
 62
     1
370
    25
100
AcDbLine
 10
42.90966596671435
 20
21.54561226851956
 30
0.0
 11
43.60966426998413
 21
21.54561226851956
 31
0.0
  0
LINE
  5
350
330
2
100
AcDbEntity
  8
GAIKEI
  6
Continuous
 62
     1
370
    25
100
AcDbLine
 10
42.90966596671435
 20
21.69562039868515
 30
0.0
 11
42.90966596671435
 21
21.54561226851956
 31
0.0
  0
LINE
  5
351
330
2
100
AcDbEntity
  8
GAIKEI
  6
Continuous
 62
     1
370
    25
100
AcDbLine
 10
42.90966596671435
 20
21.69562039868515
 30
0.0
 11
43.60966426998413
 21
21.69562039868515
 31
0.0
  0
LINE
  5
352
330
2
100
AcDbEntity
  8
GAIKEI
  6
Continuous
 62
     1
370
    25
100
AcDbLine
 10
43.32966494867622
 20
21.99561684026486
 30
0.0
 11
43.32966494867622
 21
22.14561506105468
 31
0.0
  0
LINE
  5
353
330
2
100
AcDbEntity
  8
GAIKEI
  6
Continuous
 62
     1
370
    25
100
AcDbLine
 10
42.90966596671435
 20
22.14561506105468
 30
0.0
 11
42.90966596671435
 21
21.99561684026486
 31
0.0
  0
LINE
  5
354
330
2
100
AcDbEntity
  8
GAIKEI
  6
Continuous
 62
     1
370
    25
100
AcDbLine
 10
42.90966596671435
 20
21.99561684026486
 30
0.0
 11
43.60966426998413
 21
21.99561684026486
 31
0.0
  0
LINE
  5
355
330
2
100
AcDbEntity
  8
GAIKEI
  6
Continuous
 62
     1
370
    25
100
AcDbLine
 10
42.90966596671435
 20
22.14561506105468
 30
0.0
 11
42.90966596671435
 21
21.99561684026486
 31
0.0
  0
LINE
  5
356
330
2
100
AcDbEntity
  8
GAIKEI
  6
Continuous
 62
     1
370
    25
100
AcDbLine
 10
42.90966596671435
 20
22.14561506105468
 30
0.0
 11
43.60966426998413
 21
22.14561506105468
 31
0.0
  0
LINE
  5
357
330
2
100
AcDbEntity
  8
GAIKEI
  6
Continuous
 62
     1
370
    25
100
AcDbLine
 10
43.32966494867622
 20
22.44561150263439
 30
0.0
 11
43.32966494867622
 21
22.59561963279998
 31
0.0
  0
LINE
  5
358
330
2
100
AcDbEntity
  8
GAIKEI
  6
Continuous
 62
     1
370
    25
100
AcDbLine
 10
42.90966596671435
 20
22.59561963279998
 30
0.0
 11
42.90966596671435
 21
22.44561150263439
 31
0.0
  0
LINE
  5
359
330
2
100
AcDbEntity
  8
GAIKEI
  6
Continuous
 62
     1
370
    25
100
AcDbLine
 10
42.90966596671435
 20
22.44561150263439
 30
0.0
 11
43.60966426998413
 21
22.44561150263439
 31
0.0
  0
LINE
  5
35A
330
2
100
AcDbEntity
  8
GAIKEI
  6
Continuous
 62
     1
370
    25
100
AcDbLine
 10
42.90966596671435
 20
22.59561963279998
 30
0.0
 11
42.90966596671435
 21
22.44561150263439
 31
0.0
  0
LINE
  5
35B
330
2
100
AcDbEntity
  8
GAIKEI
  6
Continuous
 62
     1
370
    25
100
AcDbLine
 10
42.90966596671435
 20
22.59561963279998
 30
0.0
 11
43.60966426998413
 21
22.59561963279998
 31
0.0
  0
LINE
  5
35C
330
2
100
AcDbEntity
  8
GAIKEI
  6
Continuous
 62
     1
370
    25
100
AcDbLine
 10
43.32966494867622
 20
22.89561607437969
 30
0.0
 11
43.32966494867622
 21
23.04561429516951
 31
0.0
  0
LINE
  5
35D
330
2
100
AcDbEntity
  8
GAIKEI
  6
Continuous
 62
     1
370
    25
100
AcDbLine
 10
42.90966596671435
 20
23.04561429516951
 30
0.0
 11
42.90966596671435
 21
22.89561607437969
 31
0.0
  0
LINE
  5
35E
330
2
100
AcDbEntity
  8
GAIKEI
  6
Continuous
 62
     1
370
    25
100
AcDbLine
 10
42.90966596671435
 20
22.89561607437969
 30
0.0
 11
43.60966426998413
 21
22.89561607437969
 31
0.0
  0
LINE
  5
35F
330
2
100
AcDbEntity
  8
GAIKEI
  6
Continuous
 62
     1
370
    25
100
AcDbLine
 10
42.90966596671435
 20
23.04561429516951
 30
0.0
 11
42.90966596671435
 21
22.89561607437969
 31
0.0
  0
LINE
  5
360
330
2
100
AcDbEntity
  8
GAIKEI
  6
Continuous
 62
     1
370
    25
100
AcDbLine
 10
42.90966596671435
 20
23.04561429516951
 30
0.0
 11
43.60966426998413
 21
23.04561429516951
 31
0.0
  0
LINE
  5
361
330
2
100
AcDbEntity
  8
GAIKEI
  6
Continuous
 62
     1
370
    25
100
AcDbLine
 10
43.32966494867622
 20
23.34562064612498
 30
0.0
 11
43.32966494867622
 21
23.49561886691481
 31
0.0
  0
LINE
  5
362
330
2
100
AcDbEntity
  8
GAIKEI
  6
Continuous
 62
     1
370
    25
100
AcDbLine
 10
42.90966596671435
 20
23.49561886691481
 30
0.0
 11
42.90966596671435
 21
23.34562064612498
 31
0.0
  0
LINE
  5
363
330
2
100
AcDbEntity
  8
GAIKEI
  6
Continuous
 62
     1
370
    25
100
AcDbLine
 10
42.90966596671435
 20
23.34562064612498
 30
0.0
 11
43.60966426998413
 21
23.34562064612498
 31
0.0
  0
LINE
  5
364
330
2
100
AcDbEntity
  8
GAIKEI
  6
Continuous
 62
     1
370
    25
100
AcDbLine
 10
42.90966596671435
 20
23.49561886691481
 30
0.0
 11
42.90966596671435
 21
23.34562064612498
 31
0.0
  0
LINE
  5
365
330
2
100
AcDbEntity
  8
GAIKEI
  6
Continuous
 62
     1
370
    25
100
AcDbLine
 10
42.90966596671435
 20
23.49561886691481
 30
0.0
 11
43.60966426998413
 21
23.49561886691481
 31
0.0
  0
LINE
  5
366
330
2
100
AcDbEntity
  8
GAIKEI
  6
Continuous
 62
     1
370
    25
100
AcDbLine
 10
43.32966494867622
 20
23.79561530849452
 30
0.0
 11
43.32966494867622
 21
23.94561352928434
 31
0.0
  0
LINE
  5
367
330
2
100
AcDbEntity
  8
GAIKEI
  6
Continuous
 62
     1
370
    25
100
AcDbLine
 10
42.90966596671435
 20
23.94561352928434
 30
0.0
 11
42.90966596671435
 21
23.79561530849452
 31
0.0
  0
LINE
  5
368
330
2
100
AcDbEntity
  8
GAIKEI
  6
Continuous
 62
     1
370
    25
100
AcDbLine
 10
42.90966596671435
 20
23.79561530849452
 30
0.0
 11
43.60966426998413
 21
23.79561530849452
 31
0.0
  0
LINE
  5
369
330
2
100
AcDbEntity
  8
GAIKEI
  6
Continuous
 62
     1
370
    25
100
AcDbLine
 10
42.90966596671435
 20
23.94561352928434
 30
0.0
 11
42.90966596671435
 21
23.79561530849452
 31
0.0
  0
LINE
  5
36A
330
2
100
AcDbEntity
  8
GAIKEI
  6
Continuous
 62
     1
370
    25
100
AcDbLine
 10
42.90966596671435
 20
23.94561352928434
 30
0.0
 11
43.60966426998413
 21
23.94561352928434
 31
0.0
  0
LINE
  5
36B
330
2
100
AcDbEntity
  8
GAIKEI
  6
Continuous
 62
     1
370
    25
100
AcDbLine
 10
43.32966494867622
 20
24.24561988023981
 30
0.0
 11
43.32966494867622
 21
24.39561810102964
 31
0.0
  0
LINE
  5
36C
330
2
100
AcDbEntity
  8
GAIKEI
  6
Continuous
 62
     1
370
    25
100
AcDbLine
 10
42.90966596671435
 20
24.39561810102964
 30
0.0
 11
42.90966596671435
 21
24.24561988023981
 31
0.0
  0
LINE
  5
36D
330
2
100
AcDbEntity
  8
GAIKEI
  6
Continuous
 62
     1
370
    25
100
AcDbLine
 10
42.90966596671435
 20
24.24561988023981
 30
0.0
 11
43.60966426998413
 21
24.24561988023981
 31
0.0
  0
LINE
  5
36E
330
2
100
AcDbEntity
  8
GAIKEI
  6
Continuous
 62
     1
370
    25
100
AcDbLine
 10
42.90966596671435
 20
24.39561810102964
 30
0.0
 11
42.90966596671435
 21
24.24561988023981
 31
0.0
  0
LINE
  5
36F
330
2
100
AcDbEntity
  8
GAIKEI
  6
Continuous
 62
     1
370
    25
100
AcDbLine
 10
42.90966596671435
 20
24.39561810102964
 30
0.0
 11
43.60966426998413
 21
24.39561810102964
 31
0.0
  0
LINE
  5
370
330
2
100
AcDbEntity
  8
GAIKEI
  6
Continuous
 62
     1
370
    25
100
AcDbLine
 10
43.32966494867622
 20
24.69561454260935
 30
0.0
 11
43.32966494867622
 21
24.84561276339917
 31
0.0
  0
LINE
  5
371
330
2
100
AcDbEntity
  8
GAIKEI
  6
Continuous
 62
     1
370
    25
100
AcDbLine
 10
42.90966596671435
 20
24.84561276339917
 30
0.0
 11
42.90966596671435
 21
24.69561454260935
 31
0.0
  0
LINE
  5
372
330
2
100
AcDbEntity
  8
GAIKEI
  6
Continuous
 62
     1
370
    25
100
AcDbLine
 10
42.90966596671435
 20
24.69561454260935
 30
0.0
 11
43.60966426998413
 21
24.69561454260935
 31
0.0
  0
LINE
  5
373
330
2
100
AcDbEntity
  8
GAIKEI
  6
Continuous
 62
     1
370
    25
100
AcDbLine
 10
42.90966596671435
 20
24.84561276339917
 30
0.0
 11
42.90966596671435
 21
24.69561454260935
 31
0.0
  0
LINE
  5
374
330
2
100
AcDbEntity
  8
GAIKEI
  6
Continuous
 62
     1
370
    25
100
AcDbLine
 10
42.90966596671435
 20
24.84561276339917
 30
0.0
 11
43.60966426998413
 21
24.84561276339917
 31
0.0
  0
LINE
  5
375
330
2
100
AcDbEntity
  8
GAIKEI
  6
Continuous
 62
     1
370
    25
100
AcDbLine
 10
43.32966494867622
 20
25.14561911435464
 30
0.0
 11
43.32966494867622
 21
25.29561733514447
 31
0.0
  0
LINE
  5
376
330
2
100
AcDbEntity
  8
GAIKEI
  6
Continuous
 62
     1
370
    25
100
AcDbLine
 10
42.90966596671435
 20
25.29561733514447
 30
0.0
 11
42.90966596671435
 21
25.14561911435464
 31
0.0
  0
LINE
  5
377
330
2
100
AcDbEntity
  8
GAIKEI
  6
Continuous
 62
     1
370
    25
100
AcDbLine
 10
42.90966596671435
 20
25.14561911435464
 30
0.0
 11
43.60966426998413
 21
25.14561911435464
 31
0.0
  0
LINE
  5
378
330
2
100
AcDbEntity
  8
GAIKEI
  6
Continuous
 62
     1
370
    25
100
AcDbLine
 10
42.90966596671435
 20
25.29561733514447
 30
0.0
 11
42.90966596671435
 21
25.14561911435464
 31
0.0
  0
LINE
  5
379
330
2
100
AcDbEntity
  8
GAIKEI
  6
Continuous
 62
     1
370
    25
100
AcDbLine
 10
42.90966596671435
 20
25.29561733514447
 30
0.0
 11
43.60966426998413
 21
25.29561733514447
 31
0.0
  0
LINE
  5
37A
330
2
100
AcDbEntity
  8
GAIKEI
  6
Continuous
 62
     1
370
    25
100
AcDbLine
 10
43.32966494867622
 20
25.59561377672418
 30
0.0
 11
43.32966494867622
 21
25.745611997514
 31
0.0
  0
LINE
  5
37B
330
2
100
AcDbEntity
  8
GAIKEI
  6
Continuous
 62
     1
370
    25
100
AcDbLine
 10
42.90966596671435
 20
25.745611997514
 30
0.0
 11
42.90966596671435
 21
25.59561377672418
 31
0.0
  0
LINE
  5
37C
330
2
100
AcDbEntity
  8
GAIKEI
  6
Continuous
 62
     1
370
    25
100
AcDbLine
 10
42.90966596671435
 20
25.59561377672418
 30
0.0
 11
43.60966426998413
 21
25.59561377672418
 31
0.0
  0
LINE
  5
37D
330
2
100
AcDbEntity
  8
GAIKEI
  6
Continuous
 62
     1
370
    25
100
AcDbLine
 10
42.90966596671435
 20
25.745611997514
 30
0.0
 11
42.90966596671435
 21
25.59561377672418
 31
0.0
  0
LINE
  5
37E
330
2
100
AcDbEntity
  8
GAIKEI
  6
Continuous
 62
     1
370
    25
100
AcDbLine
 10
42.90966596671435
 20
25.745611997514
 30
0.0
 11
43.60966426998413
 21
25.745611997514
 31
0.0
  0
LINE
  5
37F
330
2
100
AcDbEntity
  8
GAIKEI
  6
Continuous
 62
     1
370
    25
100
AcDbLine
 10
43.32966494867622
 20
26.04561834846947
 30
0.0
 11
43.32966494867622
 21
26.19561656925936
 31
0.0
  0
LINE
  5
380
330
2
100
AcDbEntity
  8
GAIKEI
  6
Continuous
 62
     1
370
    25
100
AcDbLine
 10
42.90966596671435
 20
26.19561656925936
 30
0.0
 11
42.90966596671435
 21
26.04561834846947
 31
0.0
  0
LINE
  5
381
330
2
100
AcDbEntity
  8
GAIKEI
  6
Continuous
 62
     1
370
    25
100
AcDbLine
 10
42.90966596671435
 20
26.04561834846947
 30
0.0
 11
43.60966426998413
 21
26.04561834846947
 31
0.0
  0
LINE
  5
382
330
2
100
AcDbEntity
  8
GAIKEI
  6
Continuous
 62
     1
370
    25
100
AcDbLine
 10
42.90966596671435
 20
26.19561656925936
 30
0.0
 11
42.90966596671435
 21
26.04561834846947
 31
0.0
  0
LINE
  5
383
330
2
100
AcDbEntity
  8
GAIKEI
  6
Continuous
 62
     1
370
    25
100
AcDbLine
 10
42.90966596671435
 20
26.19561656925936
 30
0.0
 11
43.60966426998413
 21
26.19561656925936
 31
0.0
  0
LINE
  5
384
330
2
100
AcDbEntity
  8
GAIKEI
  6
Continuous
 62
     1
370
    25
100
AcDbLine
 10
43.32966494867622
 20
26.49561301083901
 30
0.0
 11
43.32966494867622
 21
26.64561123162883
 31
0.0
  0
LINE
  5
385
330
2
100
AcDbEntity
  8
GAIKEI
  6
Continuous
 62
     1
370
    25
100
AcDbLine
 10
42.90966596671435
 20
26.64561123162883
 30
0.0
 11
42.90966596671435
 21
26.49561301083901
 31
0.0
  0
LINE
  5
386
330
2
100
AcDbEntity
  8
GAIKEI
  6
Continuous
 62
     1
370
    25
100
AcDbLine
 10
42.90966596671435
 20
26.49561301083901
 30
0.0
 11
43.60966426998413
 21
26.49561301083901
 31
0.0
  0
LINE
  5
387
330
2
100
AcDbEntity
  8
GAIKEI
  6
Continuous
 62
     1
370
    25
100
AcDbLine
 10
42.90966596671435
 20
26.64561123162883
 30
0.0
 11
42.90966596671435
 21
26.49561301083901
 31
0.0
  0
LINE
  5
388
330
2
100
AcDbEntity
  8
GAIKEI
  6
Continuous
 62
     1
370
    25
100
AcDbLine
 10
42.90966596671435
 20
26.64561123162883
 30
0.0
 11
43.60966426998413
 21
26.64561123162883
 31
0.0
  0
LINE
  5
389
330
2
100
AcDbEntity
  8
GAIKEI
  6
Continuous
 62
     1
370
    25
100
AcDbLine
 10
43.32966494867622
 20
26.9456175825843
 30
0.0
 11
43.32966494867622
 21
27.09561580337419
 31
0.0
  0
LINE
  5
38A
330
2
100
AcDbEntity
  8
GAIKEI
  6
Continuous
 62
     1
370
    25
100
AcDbLine
 10
42.90966596671435
 20
27.09561580337419
 30
0.0
 11
42.90966596671435
 21
26.9456175825843
 31
0.0
  0
LINE
  5
38B
330
2
100
AcDbEntity
  8
GAIKEI
  6
Continuous
 62
     1
370
    25
100
AcDbLine
 10
42.90966596671435
 20
26.9456175825843
 30
0.0
 11
43.60966426998413
 21
26.9456175825843
 31
0.0
  0
LINE
  5
38C
330
2
100
AcDbEntity
  8
GAIKEI
  6
Continuous
 62
     1
370
    25
100
AcDbLine
 10
42.90966596671435
 20
27.09561580337419
 30
0.0
 11
42.90966596671435
 21
26.9456175825843
 31
0.0
  0
LINE
  5
38D
330
2
100
AcDbEntity
  8
GAIKEI
  6
Continuous
 62
     1
370
    25
100
AcDbLine
 10
42.90966596671435
 20
27.09561580337419
 30
0.0
 11
43.60966426998413
 21
27.09561580337419
 31
0.0
  0
LINE
  5
38E
330
2
100
AcDbEntity
  8
GAIKEI
  6
Continuous
 62
     1
370
    25
100
AcDbLine
 10
43.32966494867622
 20
27.39561224495384
 30
0.0
 11
43.32966494867622
 21
27.54562037511943
 31
0.0
  0
LINE
  5
38F
330
2
100
AcDbEntity
  8
GAIKEI
  6
Continuous
 62
     1
370
    25
100
AcDbLine
 10
42.90966596671435
 20
27.54562037511943
 30
0.0
 11
42.90966596671435
 21
27.39561224495384
 31
0.0
  0
LINE
  5
390
330
2
100
AcDbEntity
  8
GAIKEI
  6
Continuous
 62
     1
370
    25
100
AcDbLine
 10
42.90966596671435
 20
27.39561224495384
 30
0.0
 11
43.60966426998413
 21
27.39561224495384
 31
0.0
  0
LINE
  5
391
330
2
100
AcDbEntity
  8
GAIKEI
  6
Continuous
 62
     1
370
    25
100
AcDbLine
 10
42.90966596671435
 20
27.54562037511943
 30
0.0
 11
42.90966596671435
 21
27.39561224495384
 31
0.0
  0
LINE
  5
392
330
2
100
AcDbEntity
  8
GAIKEI
  6
Continuous
 62
     1
370
    25
100
AcDbLine
 10
42.90966596671435
 20
27.54562037511943
 30
0.0
 11
43.60966426998413
 21
27.54562037511943
 31
0.0
  0
LINE
  5
393
330
2
100
AcDbEntity
  8
GAIKEI
  6
Continuous
 62
     1
370
    25
100
AcDbLine
 10
43.32966494867622
 20
27.84561681669913
 30
0.0
 11
43.32966494867622
 21
27.99561503748902
 31
0.0
  0
LINE
  5
394
330
2
100
AcDbEntity
  8
GAIKEI
  6
Continuous
 62
     1
370
    25
100
AcDbLine
 10
42.90966596671435
 20
27.99561503748902
 30
0.0
 11
42.90966596671435
 21
27.84561681669913
 31
0.0
  0
LINE
  5
395
330
2
100
AcDbEntity
  8
GAIKEI
  6
Continuous
 62
     1
370
    25
100
AcDbLine
 10
42.90966596671435
 20
27.84561681669913
 30
0.0
 11
43.60966426998413
 21
27.84561681669913
 31
0.0
  0
LINE
  5
396
330
2
100
AcDbEntity
  8
GAIKEI
  6
Continuous
 62
     1
370
    25
100
AcDbLine
 10
42.90966596671435
 20
27.99561503748902
 30
0.0
 11
42.90966596671435
 21
27.84561681669913
 31
0.0
  0
LINE
  5
397
330
2
100
AcDbEntity
  8
GAIKEI
  6
Continuous
 62
     1
370
    25
100
AcDbLine
 10
42.90966596671435
 20
27.99561503748902
 30
0.0
 11
43.60966426998413
 21
27.99561503748902
 31
0.0
  0
LINE
  5
398
330
2
100
AcDbEntity
  8
GAIKEI
  6
Continuous
 62
     1
370
    25
100
AcDbLine
 10
43.32966494867622
 20
28.29561147906867
 30
0.0
 11
43.32966494867622
 21
28.44561960923426
 31
0.0
  0
LINE
  5
399
330
2
100
AcDbEntity
  8
GAIKEI
  6
Continuous
 62
     1
370
    25
100
AcDbLine
 10
42.90966596671435
 20
28.44561960923426
 30
0.0
 11
42.90966596671435
 21
28.29561147906867
 31
0.0
  0
LINE
  5
39A
330
2
100
AcDbEntity
  8
GAIKEI
  6
Continuous
 62
     1
370
    25
100
AcDbLine
 10
42.90966596671435
 20
28.29561147906867
 30
0.0
 11
43.60966426998413
 21
28.29561147906867
 31
0.0
  0
LINE
  5
39B
330
2
100
AcDbEntity
  8
GAIKEI
  6
Continuous
 62
     1
370
    25
100
AcDbLine
 10
42.90966596671435
 20
28.44561960923426
 30
0.0
 11
42.90966596671435
 21
28.29561147906867
 31
0.0
  0
LINE
  5
39C
330
2
100
AcDbEntity
  8
GAIKEI
  6
Continuous
 62
     1
370
    25
100
AcDbLine
 10
42.90966596671435
 20
28.44561960923426
 30
0.0
 11
43.60966426998413
 21
28.44561960923426
 31
0.0
  0
LINE
  5
39D
330
2
100
AcDbEntity
  8
GAIKEI
  6
Continuous
 62
     1
370
    25
100
AcDbLine
 10
43.32966494867622
 20
28.74561605081396
 30
0.0
 11
43.32966494867622
 21
28.89561427160385
 31
0.0
  0
LINE
  5
39E
330
2
100
AcDbEntity
  8
GAIKEI
  6
Continuous
 62
     1
370
    25
100
AcDbLine
 10
42.90966596671435
 20
28.89561427160385
 30
0.0
 11
42.90966596671435
 21
28.74561605081396
 31
0.0
  0
LINE
  5
39F
330
2
100
AcDbEntity
  8
GAIKEI
  6
Continuous
 62
     1
370
    25
100
AcDbLine
 10
42.90966596671435
 20
28.74561605081396
 30
0.0
 11
43.60966426998413
 21
28.74561605081396
 31
0.0
  0
LINE
  5
3A0
330
2
100
AcDbEntity
  8
GAIKEI
  6
Continuous
 62
     1
370
    25
100
AcDbLine
 10
42.90966596671435
 20
28.89561427160385
 30
0.0
 11
42.90966596671435
 21
28.74561605081396
 31
0.0
  0
LINE
  5
3A1
330
2
100
AcDbEntity
  8
GAIKEI
  6
Continuous
 62
     1
370
    25
100
AcDbLine
 10
42.90966596671435
 20
28.89561427160385
 30
0.0
 11
43.60966426998413
 21
28.89561427160385
 31
0.0
  0
LINE
  5
3A2
330
2
100
AcDbEntity
  8
GAIKEI
  6
Continuous
 62
     1
370
    25
100
AcDbLine
 10
43.32966494867622
 20
29.19562062255926
 30
0.0
 11
43.32966494867622
 21
29.34561884334915
 31
0.0
  0
LINE
  5
3A3
330
2
100
AcDbEntity
  8
GAIKEI
  6
Continuous
 62
     1
370
    25
100
AcDbLine
 10
42.90966596671435
 20
29.34561884334915
 30
0.0
 11
42.90966596671435
 21
29.19562062255926
 31
0.0
  0
LINE
  5
3A4
330
2
100
AcDbEntity
  8
GAIKEI
  6
Continuous
 62
     1
370
    25
100
AcDbLine
 10
42.90966596671435
 20
29.19562062255926
 30
0.0
 11
43.60966426998413
 21
29.19562062255926
 31
0.0
  0
LINE
  5
3A5
330
2
100
AcDbEntity
  8
GAIKEI
  6
Continuous
 62
     1
370
    25
100
AcDbLine
 10
42.90966596671435
 20
29.34561884334915
 30
0.0
 11
42.90966596671435
 21
29.19562062255926
 31
0.0
  0
LINE
  5
3A6
330
2
100
AcDbEntity
  8
GAIKEI
  6
Continuous
 62
     1
370
    25
100
AcDbLine
 10
42.90966596671435
 20
29.34561884334915
 30
0.0
 11
43.60966426998413
 21
29.34561884334915
 31
0.0
  0
LINE
  5
3A7
330
2
100
AcDbEntity
  8
GAIKEI
  6
Continuous
 62
     1
370
    25
100
AcDbLine
 10
43.32966494867622
 20
29.64561528492885
 30
0.0
 11
43.32966494867622
 21
29.79561350571868
 31
0.0
  0
LINE
  5
3A8
330
2
100
AcDbEntity
  8
GAIKEI
  6
Continuous
 62
     1
370
    25
100
AcDbLine
 10
42.90966596671435
 20
29.79561350571868
 30
0.0
 11
42.90966596671435
 21
29.64561528492885
 31
0.0
  0
LINE
  5
3A9
330
2
100
AcDbEntity
  8
GAIKEI
  6
Continuous
 62
     1
370
    25
100
AcDbLine
 10
42.90966596671435
 20
29.64561528492885
 30
0.0
 11
43.60966426998413
 21
29.64561528492885
 31
0.0
  0
LINE
  5
3AA
330
2
100
AcDbEntity
  8
GAIKEI
  6
Continuous
 62
     1
370
    25
100
AcDbLine
 10
42.90966596671435
 20
29.79561350571868
 30
0.0
 11
42.90966596671435
 21
29.64561528492885
 31
0.0
  0
LINE
  5
3AB
330
2
100
AcDbEntity
  8
GAIKEI
  6
Continuous
 62
     1
370
    25
100
AcDbLine
 10
42.90966596671435
 20
29.79561350571868
 30
0.0
 11
43.60966426998413
 21
29.79561350571868
 31
0.0
  0
LINE
  5
3AC
330
2
100
AcDbEntity
  8
GAIKEI
  6
Continuous
 62
     1
370
    25
100
AcDbLine
 10
43.32966494867622
 20
30.09561985667409
 30
0.0
 11
43.32966494867622
 21
30.24561807746398
 31
0.0
  0
LINE
  5
3AD
330
2
100
AcDbEntity
  8
GAIKEI
  6
Continuous
 62
     1
370
    25
100
AcDbLine
 10
42.90966596671435
 20
30.24561807746398
 30
0.0
 11
42.90966596671435
 21
30.09561985667409
 31
0.0
  0
LINE
  5
3AE
330
2
100
AcDbEntity
  8
GAIKEI
  6
Continuous
 62
     1
370
    25
100
AcDbLine
 10
42.90966596671435
 20
30.09561985667409
 30
0.0
 11
43.60966426998413
 21
30.09561985667409
 31
0.0
  0
LINE
  5
3AF
330
2
100
AcDbEntity
  8
GAIKEI
  6
Continuous
 62
     1
370
    25
100
AcDbLine
 10
42.90966596671435
 20
30.24561807746398
 30
0.0
 11
42.90966596671435
 21
30.09561985667409
 31
0.0
  0
LINE
  5
3B0
330
2
100
AcDbEntity
  8
GAIKEI
  6
Continuous
 62
     1
370
    25
100
AcDbLine
 10
42.90966596671435
 20
30.24561807746398
 30
0.0
 11
43.60966426998413
 21
30.24561807746398
 31
0.0
  0
LINE
  5
3B1
330
2
100
AcDbEntity
  8
GAIKEI
  6
Continuous
 62
     1
370
    25
100
AcDbLine
 10
43.32966494867622
 20
30.54561451904368
 30
0.0
 11
43.32966494867622
 21
30.69561273983351
 31
0.0
  0
LINE
  5
3B2
330
2
100
AcDbEntity
  8
GAIKEI
  6
Continuous
 62
     1
370
    25
100
AcDbLine
 10
42.90966596671435
 20
30.69561273983351
 30
0.0
 11
42.90966596671435
 21
30.54561451904368
 31
0.0
  0
LINE
  5
3B3
330
2
100
AcDbEntity
  8
GAIKEI
  6
Continuous
 62
     1
370
    25
100
AcDbLine
 10
42.90966596671435
 20
30.54561451904368
 30
0.0
 11
43.60966426998413
 21
30.54561451904368
 31
0.0
  0
LINE
  5
3B4
330
2
100
AcDbEntity
  8
GAIKEI
  6
Continuous
 62
     1
370
    25
100
AcDbLine
 10
42.90966596671435
 20
30.69561273983351
 30
0.0
 11
42.90966596671435
 21
30.54561451904368
 31
0.0
  0
LINE
  5
3B5
330
2
100
AcDbEntity
  8
GAIKEI
  6
Continuous
 62
     1
370
    25
100
AcDbLine
 10
42.90966596671435
 20
30.69561273983351
 30
0.0
 11
43.60966426998413
 21
30.69561273983351
 31
0.0
  0
LINE
  5
3B6
330
2
100
AcDbEntity
  8
GAIKEI
  6
Continuous
370
    25
100
AcDbLine
 10
40.80966610221714
 20
-11.32943994128305
 30
0.0
 11
40.80966610221714
 21
33.77056140196174
 31
0.0
  0
LINE
  5
3B7
330
2
100
AcDbEntity
  8
GAIKEI
  6
Continuous
370
    25
100
AcDbLine
 10
43.37275091445508
 20
33.63623981361485
 30
0.0
 11
40.80966610221714
 21
33.77056140196174
 31
0.0
  0
LINE
  5
3B8
330
2
100
AcDbEntity
  8
GAIKEI
  6
JWW_DASHEDX2
370
    25
100
AcDbLine
 10
40.80966610221714
 20
-11.32938543971642
 30
0.0
 11
40.80966610221714
 21
-11.17750443753328
 31
0.0
  0
LINE
  5
3BA
330
2
100
AcDbEntity
  8
GAIKEI
  6
Continuous
370
    25
100
AcDbLine
 10
40.80966610221714
 20
-11.32938543971642
 30
0.0
 11
43.36621072645738
 21
-11.2624376971217
 31
0.0
  0
LINE
  5
3BB
330
2
100
AcDbEntity
  8
GAIKEI
  6
Continuous
370
    25
100
AcDbLine
 10
40.60966517137205
 20
-11.10938243391172
 30
0.0
 11
40.60966517137205
 21
-8.467607734232899
 31
0.0
  0
LINE
  5
3BC
330
2
100
AcDbEntity
  8
GAIKEI
  6
Continuous
370
    25
100
AcDbLine
 10
40.80966610221714
 20
-11.32938543971642
 30
0.0
 11
40.60966517137205
 21
-11.32449516278177
 31
0.0
  0
LINE
  5
3BD
330
2
100
AcDbEntity
  8
GAIKEI
  6
Continuous
 62
     1
370
    25
100
AcDbLine
 10
43.90966566625173
 20
-5.029435858525971
 30
0.0
 11
43.90966566625173
 21
27.97056413558261
 31
0.0
  0
LINE
  5
3BE
330
2
100
AcDbEntity
  8
GAIKEI
  6
Continuous
 62
     1
370
    25
100
AcDbLine
 10
43.85966295619653
 20
31.2205817391586
 30
0.0
 11
43.60966426998413
 21
31.2205817391586
 31
0.0
  0
LINE
  5
3BF
330
2
100
AcDbEntity
  8
GAIKEI
  6
Continuous
 62
     1
370
    25
100
AcDbLine
 10
43.90966566625173
 20
30.72056454798235
 30
0.0
 11
43.90966566625173
 21
31.17057902910341
 31
0.0
  0
LINE
  5
3C0
330
2
100
AcDbEntity
  8
GAIKEI
  6
Continuous
370
    25
100
AcDbLine
 10
43.60966426998413
 20
33.38658300086604
 30
0.0
 11
43.60966426998413
 21
-11.01252324060323
 31
0.0
  0
LINE
  5
3C1
330
2
100
AcDbEntity
  8
GAIKEI
  6
Continuous
 62
     1
370
    25
100
AcDbLine
 10
43.95966342161904
 20
-5.579435941005897
 30
0.0
 11
43.60966426998413
 21
-5.579435941005897
 31
0.0
  0
LINE
  5
3C2
330
2
100
AcDbEntity
  8
GAIKEI
  6
Continuous
 62
     1
370
    25
100
AcDbLine
 10
43.7396703251901
 20
-7.879436736348168
 30
0.0
 11
43.60966426998413
 21
-7.879436736348168
 31
0.0
  0
LINE
  5
3C3
330
2
100
AcDbEntity
  8
GAIKEI
  6
Continuous
 62
     1
370
    25
100
AcDbLine
 10
43.90966566625173
 20
24.02055813811262
 30
0.0
 11
43.60966426998413
 21
24.02055813811262
 31
0.0
  0
LINE
  5
3C4
330
2
100
AcDbEntity
  8
GAIKEI
  6
Continuous
 62
     1
370
    25
100
AcDbLine
 10
44.00966613167423
 20
30.67056183792715
 30
0.0
 11
44.00966613167423
 21
28.0205668456378
 31
0.0
  0
LINE
  5
3C5
330
2
100
AcDbEntity
  8
GAIKEI
  6
Continuous
 62
     1
370
    25
100
AcDbLine
 10
43.95966342161904
 20
30.72056454798235
 30
0.0
 11
43.60966426998413
 21
30.72056454798235
 31
0.0
  0
LINE
  5
3C6
330
2
100
AcDbEntity
  8
GAIKEI
  6
Continuous
 62
     1
370
    25
100
AcDbLine
 10
43.95966342161904
 20
27.97056413558261
 30
0.0
 11
43.60966426998413
 21
27.97056413558261
 31
0.0
  0
LINE
  5
3C7
330
2
100
AcDbEntity
  8
GAIKEI
  6
Continuous
 62
     1
370
    25
100
AcDbLine
 10
43.85966295619653
 20
-5.079438568581167
 30
0.0
 11
43.60966426998413
 21
-5.079438568581167
 31
0.0
  0
LINE
  5
3C8
330
2
100
AcDbEntity
  8
GAIKEI
  6
Continuous
 62
     1
370
    25
100
AcDbLine
 10
43.95966342161904
 20
-5.054437213553569
 30
0.0
 11
43.90296692824193
 21
-5.054437213553569
 31
0.0
  0
LINE
  5
3C9
330
2
100
AcDbEntity
  8
GAIKEI
  6
Continuous
 62
     1
370
    25
100
AcDbLine
 10
43.90966566625173
 20
-4.804438527341176
 30
0.0
 11
43.95966342161904
 21
-4.804438527341176
 31
0.0
  0
LINE
  5
3CA
330
2
100
AcDbEntity
  8
GAIKEI
  6
Continuous
 62
     1
370
    25
100
AcDbLine
 10
43.90966566625173
 20
7.195508320228327
 30
0.0
 11
43.95966342161904
 21
7.195508320228327
 31
0.0
  0
LINE
  5
3CB
330
2
100
AcDbEntity
  8
GAIKEI
  6
Continuous
 62
     1
370
    25
100
AcDbLine
 10
43.95966342161904
 20
6.945509634015991
 30
0.0
 11
43.90966566625173
 21
6.945509634015991
 31
0.0
  0
LINE
  5
3CC
330
2
100
AcDbEntity
  8
GAIKEI
  6
Continuous
 62
     1
370
    25
100
AcDbLine
 10
44.00966613167423
 20
19.14551191399721
 30
0.0
 11
44.00966613167423
 21
18.99551369320733
 31
0.0
  0
LINE
  5
3CD
330
2
100
AcDbEntity
  8
GAIKEI
  6
Continuous
 62
     1
370
    25
100
AcDbLine
 10
43.90966566625173
 20
19.19550471467664
 30
0.0
 11
43.95966342161904
 21
19.19550471467664
 31
0.0
  0
LINE
  5
3CE
330
2
100
AcDbEntity
  8
GAIKEI
  6
Continuous
 62
     1
370
    25
100
AcDbLine
 10
44.00966613167423
 20
31.145528127197
 30
0.0
 11
44.00966613167423
 21
30.99552990640717
 31
0.0
  0
LINE
  5
3CF
330
2
100
AcDbEntity
  8
GAIKEI
  6
Continuous
 62
     1
370
    25
100
AcDbLine
 10
43.90299665636923
 20
31.19553083725219
 30
0.0
 11
43.95966342161904
 21
31.19553083725219
 31
0.0
  0
LINE
  5
3D0
330
2
100
AcDbEntity
  8
GAIKEI
  6
Continuous
 62
     1
370
    25
100
AcDbLine
 10
43.95966342161904
 20
30.94552719635198
 30
0.0
 11
43.90966566625173
 21
30.94552719635198
 31
0.0
  0
LINE
  5
3D1
330
2
100
AcDbEntity
  8
GAIKEI
  6
Continuous
 62
     1
370
    25
100
AcDbLine
 10
43.95966342161904
 20
-4.193763337118866
 30
0.0
 11
43.95966342161904
 21
-8.379384561894141
 31
0.0
  0
LINE
  5
3D2
330
2
100
AcDbEntity
  8
GAIKEI
  6
Continuous
 62
     1
370
    25
100
AcDbLine
 10
43.95966342161904
 20
-5.200387454347833
 30
0.0
 11
43.95966342161904
 21
-6.820614982334461
 31
0.0
  0
LINE
  5
3D3
330
2
100
AcDbEntity
  8
GAIKEI
  6
Continuous
370
    25
100
AcDbLine
 10
44.35966528330914
 20
-14.90438597583602
 30
0.0
 11
44.35966528330914
 21
-18.32947747554755
 31
0.0
  0
LINE
  5
3D4
330
2
100
AcDbEntity
  8
GAIKEI
  6
Continuous
370
    25
100
AcDbLine
 10
22.58892917811565
 20
-15.84054452207755
 30
0.0
 11
21.49892261860376
 21
-15.89919811716612
 31
0.0
  0
LINE
  5
3D5
330
2
100
AcDbEntity
  8
GAIKEI
  6
Continuous
370
    25
100
AcDbLine
 10
23.31074792679593
 20
-15.80169976912151
 30
0.0
 11
22.58892917811565
 21
-15.84054452207755
 31
0.0
  0
LINE
  5
3D6
330
2
100
AcDbEntity
  8
GAIKEI
  6
Continuous
370
    25
100
AcDbLine
 10
23.31074792679593
 20
-15.80169976912151
 30
0.0
 11
44.15966435246409
 21
-14.70938432505892
 31
0.0
  0
LINE
  5
3D7
330
2
100
AcDbEntity
  8
GAIKEI
  6
Continuous
370
    25
100
AcDbLine
 10
44.13737321170524
 20
-11.35421338066828
 30
0.0
 11
44.13737321170524
 21
-14.61103872538734
 31
0.0
  0
LINE
  5
3D8
330
2
100
AcDbEntity
  8
GAIKEI
  6
Continuous
370
    25
100
AcDbLine
 10
30.45966500052077
 20
-15.35183888332466
 30
0.0
 11
30.45966500052077
 21
-11.99997271574801
 31
0.0
  0
LINE
  5
3D9
330
2
100
AcDbEntity
  8
GAIKEI
  6
Continuous
370
    25
100
AcDbLine
 10
43.95966342161904
 20
-11.15923650333059
 30
0.0
 11
43.55394385011883
 21
-11.16985935413896
 31
0.0
  0
LINE
  5
3DA
330
2
100
AcDbEntity
  8
GAIKEI
  6
Continuous
 62
     1
370
    25
100
AcDbLine
 10
43.90966566625173
 20
4.036265553247858
 30
0.0
 11
43.90966566625173
 21
5.154796250867889
 31
0.0
  0
LINE
  5
3DB
330
2
100
AcDbEntity
  8
GAIKEI
  6
Continuous
 62
     1
370
    25
100
AcDbLine
 10
43.7396703251901
 20
-8.883157406481188
 30
0.0
 11
43.7396703251901
 21
-8.379384561894141
 31
0.0
  0
LINE
  5
3DC
330
2
100
AcDbEntity
  8
GAIKEI
  6
Continuous
 62
     1
370
    25
100
AcDbLine
 10
43.7396703251901
 20
-8.379384561894141
 30
0.0
 11
43.7396703251901
 21
-7.825202722845972
 31
0.0
  0
LINE
  5
3DD
330
2
100
AcDbEntity
  8
GAIKEI
  6
Continuous
 62
     1
370
    25
100
AcDbLine
 10
43.95966342161904
 20
5.204992193750285
 30
0.0
 11
43.95530825097512
 21
5.204610682783766
 31
0.0
  0
LINE
  5
3DE
330
2
100
AcDbEntity
  8
GAIKEI
  6
Continuous
370
    25
100
AcDbLine
 10
47.20966345107615
 20
1.526656687266893
 30
0.0
 11
47.20966345107615
 21
1.526413907560936
 31
0.0
  0
LINE
  5
3DF
330
2
100
AcDbEntity
  8
GAIKEI
  6
Continuous
370
    25
100
AcDbLine
 10
47.20966345107615
 20
-2.08518195321858
 30
0.0
 11
47.20966345107615
 21
-2.085424732924536
 31
0.0
  0
LINE
  5
3E0
330
2
100
AcDbEntity
  8
GAIKEI
  6
Continuous
 62
     1
370
    25
100
AcDbLine
 10
43.78966808055742
 20
-8.796554417078255
 30
0.0
 11
43.78966808055742
 21
-6.820614982334461
 31
0.0
  0
LINE
  5
3E1
330
2
100
AcDbEntity
  8
GAIKEI
  6
Continuous
 62
     1
370
    25
100
AcDbLine
 10
43.69663886097788
 20
-8.896307148106927
 30
0.0
 11
43.60269302414113
 21
-8.902877064231859
 31
0.0
  0
LINE
  5
3E2
330
2
100
AcDbEntity
  8
GAIKEI
  6
Continuous
370
    25
100
AcDbLine
 10
44.15966435246409
 20
7.98561753191808
 30
0.0
 11
47.09887167545741
 21
6.545829827037891
 31
0.0
  0
LINE
  5
3E3
330
2
100
AcDbEntity
  8
GAIKEI
  6
Continuous
370
    25
100
AcDbLine
 10
43.95966342161904
 20
-11.16056435968164
 30
0.0
 11
43.95966342161904
 21
7.790615881140979
 31
0.0
  0
LINE
  5
3E4
330
2
100
AcDbEntity
  8
GAIKEI
  6
Continuous
370
    25
100
AcDbLine
 10
47.20966345107615
 20
6.366826863415781
 30
0.0
 11
47.20966345107615
 21
-18.32947747554755
 31
0.0
  0
LINE
  5
3E5
330
2
100
AcDbEntity
  8
GAIKEI
  6
Continuous
370
    25
100
AcDbLine
 10
47.2096386776368
 20
-11.26121884390392
 30
0.0
 11
47.20966345107615
 21
-11.26569292705693
 31
0.0
  0
LINE
  5
3E6
330
2
100
AcDbEntity
  8
GAIKEI
  6
Continuous
370
    25
100
AcDbLine
 10
47.20943058074595
 20
-11.25202294320411
 30
0.0
 11
47.20966345107615
 21
-11.26569292705693
 31
0.0
  0
LINE
  5
3E7
330
2
100
AcDbEntity
  8
GAIKEI
  6
Continuous
370
    25
100
AcDbLine
 10
43.60966426998413
 20
-11.01865218950712
 30
0.0
 11
43.95966342161904
 21
-11.0094860169346
 31
0.0
  0
LINE
  5
3E8
330
2
100
AcDbEntity
  8
GAIKEI
  6
Continuous
 62
     1
370
    25
100
AcDbLine
 10
43.78966808055742
 20
-7.775006779963575
 30
0.0
 11
43.78531290991349
 21
-7.775393245617976
 31
0.0
  0
LINE
  5
3E9
330
2
100
AcDbEntity
  8
GAIKEI
  6
Continuous
 62
     1
370
    25
100
AcDbLine
 10
43.78966808055742
 20
-7.775006779963575
 30
0.0
 11
43.78531290991349
 21
-7.775393245617976
 31
0.0
  0
LINE
  5
3EA
330
2
100
AcDbEntity
  8
GAIKEI
  6
Continuous
 62
     1
370
    25
100
AcDbLine
 10
43.95530825097512
 20
3.986451121331981
 30
0.0
 11
43.95966342161904
 21
3.986069610365461
 31
0.0
  0
LINE
  5
3EB
330
2
100
AcDbEntity
  8
GAIKEI
  6
Continuous
370
    25
100
AcDbLine
 10
-41.69304302868067
 20
-18.32947747554755
 30
0.0
 11
-2.693051231899943
 21
-18.32947747554755
 31
0.0
  0
LINE
  5
3EC
330
2
100
AcDbEntity
  8
GAIKEI
  6
Continuous
370
    25
100
AcDbLine
 10
21.30966345107615
 20
-16.09890672142643
 30
0.0
 11
21.30966345107615
 21
-18.32947747554755
 31
0.0
  0
LINE
  5
3ED
330
2
100
AcDbEntity
  8
GAIKEI
  6
Continuous
370
    25
100
AcDbLine
 10
-41.69304302868067
 20
-14.90438597583602
 30
0.0
 11
-41.69304302868067
 21
-18.32947747554755
 31
0.0
  0
LINE
  5
3EE
330
2
100
AcDbEntity
  8
GAIKEI
  6
Continuous
370
    25
100
AcDbLine
 10
-41.49304209783565
 20
-14.704385044991
 30
0.0
 11
-39.03153202915575
 21
-14.704385044991
 31
0.0
  0
LINE
  5
3EF
330
2
100
AcDbEntity
  8
GAIKEI
  6
Continuous
 62
     1
370
    25
100
AcDbLine
 10
-39.86688380846019
 20
-16.00141332806964
 30
0.0
 11
-39.86688380846019
 21
-18.32947747554755
 31
0.0
  0
LINE
  5
3F0
330
2
100
AcDbEntity
  8
GAIKEI
  6
Continuous
 62
     1
370
    25
100
AcDbLine
 10
-39.86688380846019
 20
-16.00141332806964
 30
0.0
 11
-41.68804870330061
 21
-14.90871141835271
 31
0.0
  0
LINE
  5
3F1
330
2
100
AcDbEntity
  8
GAIKEI
  6
Continuous
 62
     1
370
    25
100
AcDbLine
 10
-34.89743955830181
 20
-15.13446681678266
 30
0.0
 11
-35.48940584710039
 21
-14.71478493484488
 31
0.0
  0
LINE
  5
3F2
330
2
100
AcDbEntity
  8
GAIKEI
  6
Continuous
 62
     1
370
    25
100
AcDbLine
 10
-27.80465522166679
 20
-15.13446681678266
 30
0.0
 11
-34.89743955830181
 21
-15.13446681678266
 31
0.0
  0
LINE
  5
3F3
330
2
100
AcDbEntity
  8
GAIKEI
  6
Continuous
 62
     1
370
    25
100
AcDbLine
 10
-27.80465522166679
 20
-15.13446681678266
 30
0.0
 11
-27.22180555856198
 21
-14.71478493484488
 31
0.0
  0
LINE
  5
3F4
330
2
100
AcDbEntity
  8
GAIKEI
  6
Continuous
 62
     1
370
    25
100
AcDbLine
 10
-27.22180555856198
 20
-14.71478493484488
 30
0.0
 11
-27.13825961157914
 21
-14.72014590712786
 31
0.0
  0
LINE
  5
3F5
330
2
100
AcDbEntity
  8
GAIKEI
  6
Continuous
 62
     1
370
    25
100
AcDbLine
 10
-27.13825961157914
 20
-14.72014590712786
 30
0.0
 11
-27.07197579715995
 21
-14.72014590712786
 31
0.0
  0
LINE
  5
3F6
330
2
100
AcDbEntity
  8
GAIKEI
  6
Continuous
 62
     1
370
    25
100
AcDbLine
 10
-26.78018431870467
 20
-14.90618948222328
 30
0.0
 11
-27.07197579715995
 21
-14.72014590712786
 31
0.0
  0
LINE
  5
3F7
330
2
100
AcDbEntity
  8
GAIKEI
  6
Continuous
 62
     7
370
    25
100
AcDbLine
 10
-39.66768553705123
 20
-15.80169976912151
 30
0.0
 11
-41.48820632246764
 21
-14.70938432505892
 31
0.0
  0
LINE
  5
3F8
330
2
100
AcDbEntity
  8
GAIKEI
  6
Continuous
 62
     1
370
    25
100
AcDbLine
 10
-39.12868354904899
 20
-14.71089550486141
 30
0.0
 11
-37.61446156819187
 21
-15.43735184139467
 31
0.0
  0
LINE
  5
3F9
330
2
100
AcDbEntity
  8
GAIKEI
  6
Continuous
 62
     1
370
    25
100
AcDbLine
 10
-37.31633799862971
 20
-15.45169566279873
 30
0.0
 11
-36.22688140947218
 21
-15.45169566279873
 31
0.0
  0
LINE
  5
3FA
330
2
100
AcDbEntity
  8
GAIKEI
  6
Continuous
 62
     1
370
    25
100
AcDbLine
 10
-35.68063698040305
 20
-14.72014590712786
 30
0.0
 11
-35.9269246053955
 21
-15.43585057096789
 31
0.0
  0
LINE
  5
3FB
330
2
100
AcDbEntity
  8
GAIKEI
  6
Continuous
 62
     1
370
    25
100
AcDbLine
 10
-35.68063698040305
 20
-14.72014590712786
 30
0.0
 11
-35.57274369719238
 21
-14.72014590712786
 31
0.0
  0
LINE
  5
3FC
330
2
100
AcDbEntity
  8
GAIKEI
  6
Continuous
 62
     1
370
    25
100
AcDbLine
 10
-35.48940584710039
 20
-14.71478493484488
 30
0.0
 11
-35.57274369719238
 21
-14.72014590712786
 31
0.0
  0
LINE
  5
3FD
330
2
100
AcDbEntity
  8
GAIKEI
  6
Continuous
 62
     1
370
    25
100
AcDbLine
 10
-27.22180555856198
 20
-14.71478493484488
 30
0.0
 11
-27.22180555856198
 21
-12.10255952824235
 31
0.0
  0
LINE
  5
3FE
330
2
100
AcDbEntity
  8
GAIKEI
  6
Continuous
 62
     1
370
    25
100
AcDbLine
 10
-26.5965536766054
 20
-11.29156135246302
 30
0.0
 11
-26.87293607576305
 21
-14.5382394964098
 31
0.0
  0
LINE
  5
3FF
330
2
100
AcDbEntity
  8
GAIKEI
  6
Continuous
 62
     1
370
    25
100
AcDbLine
 10
-23.80993227650134
 20
-14.86711185893694
 30
0.0
 11
-23.80993227650134
 21
-15.04938987124581
 31
0.0
  0
LINE
  5
400
330
2
100
AcDbEntity
  8
GAIKEI
  6
Continuous
 62
     1
370
    25
100
AcDbLine
 10
-36.22688140947218
 20
-15.45169566279873
 30
0.0
 11
-36.22688140947218
 21
-15.35183888332466
 31
0.0
  0
LINE
  5
401
330
2
100
AcDbEntity
  8
GAIKEI
  6
Continuous
 62
     1
370
    25
100
AcDbLine
 10
-35.7805433067559
 20
-11.3593563466847
 30
0.0
 11
-36.02149968759267
 21
-11.70007536792587
 31
0.0
  0
LINE
  5
402
330
2
100
AcDbEntity
  8
GAIKEI
  6
Continuous
 62
     1
370
    25
100
AcDbLine
 10
-36.06290105949327
 20
-11.27591940283514
 30
0.0
 11
-36.22147089031046
 21
-11.50014380271108
 31
0.0
  0
LINE
  5
403
330
2
100
AcDbEntity
  8
GAIKEI
  6
Continuous
 62
     1
370
    25
100
AcDbLine
 10
-26.29915349147328
 20
-11.38125111241339
 30
0.0
 11
-26.5965536766054
 21
-11.29156135246302
 31
0.0
  0
LINE
  5
404
330
2
100
AcDbEntity
  8
GAIKEI
  6
Continuous
 62
     1
370
    25
100
AcDbLine
 10
-26.58172925047725
 20
-14.72390651522653
 30
0.0
 11
-26.29915349147328
 21
-11.38125111241339
 31
0.0
  0
LINE
  5
405
330
2
100
AcDbEntity
  8
GAIKEI
  6
Continuous
 62
     1
370
    25
100
AcDbLine
 10
-34.23104394821419
 20
-11.60415261062616
 30
0.0
 11
-27.72140655595655
 21
-11.60415261062616
 31
0.0
  0
LINE
  5
406
330
2
100
AcDbEntity
  8
GAIKEI
  6
Continuous
 62
     1
370
    25
100
AcDbLine
 10
-23.80993227650134
 20
-14.86711185893694
 30
0.0
 11
-23.80993227650134
 21
-11.27591940283514
 31
0.0
  0
LINE
  5
407
330
2
100
AcDbEntity
  8
GAIKEI
  6
Continuous
 62
     1
370
    25
100
AcDbLine
 10
-38.30953491171186
 20
-11.27591940283514
 30
0.0
 11
-37.34909839487276
 21
-11.50014380271108
 31
0.0
  0
LINE
  5
408
330
2
100
AcDbEntity
  8
GAIKEI
  6
Continuous
 62
     1
370
    25
100
AcDbLine
 10
-37.34909839487276
 20
-11.50014380271108
 30
0.0
 11
-36.22147089031046
 21
-11.50014380271108
 31
0.0
  0
LINE
  5
409
330
2
100
AcDbEntity
  8
GAIKEI
  6
Continuous
 62
     1
370
    25
100
AcDbLine
 10
-23.65554420225243
 20
-11.57938412592875
 30
0.0
 11
-23.66432390917055
 21
-11.57060937369851
 31
0.0
  0
LINE
  5
40A
330
2
100
AcDbEntity
  8
GAIKEI
  6
Continuous
 62
     1
370
    25
100
AcDbLine
 10
-23.67868259463825
 20
-14.70252208234922
 30
0.0
 11
-23.68760103281693
 21
-14.7114405205279
 31
0.0
  0
LINE
  5
40B
330
2
100
AcDbEntity
  8
GAIKEI
  6
Continuous
 62
     1
370
    25
100
AcDbLine
 10
-23.67868259463825
 20
-14.70252208234922
 30
0.0
 11
-23.65554420225243
 21
-11.57938412592875
 31
0.0
  0
LINE
  5
40C
330
2
100
AcDbEntity
  8
GAIKEI
  6
Continuous
370
    25
100
AcDbLine
 10
-39.03055100095611
 20
-11.35938112012405
 30
0.0
 11
-39.03055100095611
 21
-11.27591940283514
 31
0.0
  0
LINE
  5
40D
330
2
100
AcDbEntity
  8
GAIKEI
  6
Continuous
 62
     1
370
    25
100
AcDbLine
 10
-23.66432390917055
 20
-11.57060937369851
 30
0.0
 11
-23.68760103281693
 21
-14.7114405205279
 31
0.0
  0
LINE
  5
40E
330
2
100
AcDbEntity
  8
GAIKEI
  6
Continuous
 62
     1
370
    25
100
AcDbLine
 10
-20.6234932277637
 20
-14.7114405205279
 30
0.0
 11
-20.64677035141008
 21
-11.57060937369851
 31
0.0
  0
LINE
  5
40F
330
2
100
AcDbEntity
  8
GAIKEI
  6
Continuous
370
    25
100
AcDbLine
 10
-5.355543259624511
 20
-11.27591940283514
 30
0.0
 11
-5.355543259624511
 21
-11.35938112012405
 31
0.0
  0
LINE
  5
410
330
2
100
AcDbEntity
  8
GAIKEI
  6
Continuous
370
    25
100
AcDbLine
 10
-5.355543259624511
 20
-11.35938112012405
 30
0.0
 11
-5.355543259624511
 21
-14.60924017368796
 31
0.0
  0
LINE
  5
411
330
2
100
AcDbEntity
  8
GAIKEI
  6
Continuous
 62
     1
370
    25
100
AcDbLine
 10
-20.6555500583282
 20
-11.57938412592875
 30
0.0
 11
-20.63241166594238
 21
-14.70252208234922
 31
0.0
  0
LINE
  5
412
330
2
100
AcDbEntity
  8
GAIKEI
  6
Continuous
 62
     1
370
    25
100
AcDbLine
 10
-20.63241166594238
 20
-14.70252208234922
 30
0.0
 11
-23.67868259463825
 21
-14.70252208234922
 31
0.0
  0
LINE
  5
413
330
2
100
AcDbEntity
  8
GAIKEI
  6
Continuous
 62
     1
370
    25
100
AcDbLine
 10
-20.6234932277637
 20
-14.7114405205279
 30
0.0
 11
-20.63241166594238
 21
-14.70252208234922
 31
0.0
  0
LINE
  5
414
330
2
100
AcDbEntity
  8
GAIKEI
  6
Continuous
 62
     1
370
    25
100
AcDbLine
 10
-20.64677035141008
 20
-11.57060937369851
 30
0.0
 11
-20.6555500583282
 21
-11.57938412592875
 31
0.0
  0
LINE
  5
415
330
2
100
AcDbEntity
  8
GAIKEI
  6
Continuous
 62
     1
370
    25
100
AcDbLine
 10
-23.65554420225243
 20
-11.57938412592875
 30
0.0
 11
-20.6555500583282
 21
-11.57938412592875
 31
0.0
  0
LINE
  5
416
330
2
100
AcDbEntity
  8
GAIKEI
  6
Continuous
 62
     1
370
    25
100
AcDbLine
 10
-8.164633279645926
 20
-11.50014380271108
 30
0.0
 11
-7.036995865707865
 21
-11.50014380271108
 31
0.0
  0
LINE
  5
417
330
2
100
AcDbEntity
  8
GAIKEI
  6
Continuous
 62
     1
370
    25
100
AcDbLine
 10
-7.036995865707865
 20
-11.50014380271108
 30
0.0
 11
-6.076569258244518
 21
-11.27591940283514
 31
0.0
  0
LINE
  5
418
330
2
100
AcDbEntity
  8
GAIKEI
  6
Continuous
 62
     1
370
    25
100
AcDbLine
 10
-8.159212851108435
 20
-11.99997271574801
 30
0.0
 11
-8.159212851108435
 21
-15.35183888332466
 31
0.0
  0
LINE
  5
419
330
2
100
AcDbEntity
  8
GAIKEI
  6
Continuous
 62
     1
370
    25
100
AcDbLine
 10
-23.68760103281693
 20
-14.7114405205279
 30
0.0
 11
-20.6234932277637
 21
-14.7114405205279
 31
0.0
  0
LINE
  5
41A
330
2
100
AcDbEntity
  8
GAIKEI
  6
Continuous
 62
     1
370
    25
100
AcDbLine
 10
-23.66432390917055
 20
-11.57060937369851
 30
0.0
 11
-20.64677035141008
 21
-11.57060937369851
 31
0.0
  0
LINE
  5
41B
330
2
100
AcDbEntity
  8
GAIKEI
  6
Continuous
 62
     1
370
    25
100
AcDbLine
 10
-23.80993227650134
 20
-11.43444959614925
 30
0.0
 11
-20.50116198407929
 21
-11.43444959614925
 31
0.0
  0
LINE
  5
41C
330
2
100
AcDbEntity
  8
GAIKEI
  6
Continuous
 62
     1
370
    25
100
AcDbLine
 10
-20.50116198407929
 20
-11.43444959614925
 30
0.0
 11
-20.50116198407929
 21
-14.86711185893694
 31
0.0
  0
LINE
  5
41D
330
2
100
AcDbEntity
  8
GAIKEI
  6
Continuous
 62
     1
370
    25
100
AcDbLine
 10
-16.66468770462407
 20
-11.60415261062616
 30
0.0
 11
-9.396319139002059
 21
-11.60415261062616
 31
0.0
  0
LINE
  5
41E
330
2
100
AcDbEntity
  8
GAIKEI
  6
Continuous
 62
     1
370
    25
100
AcDbLine
 10
-18.08694076910734
 20
-11.38125111241339
 30
0.0
 11
-17.80436501010337
 21
-14.72390651522653
 31
0.0
  0
LINE
  5
41F
330
2
100
AcDbEntity
  8
GAIKEI
  6
Continuous
 62
     1
370
    25
100
AcDbLine
 10
-17.78954058397522
 20
-11.29156135246302
 30
0.0
 11
-18.08694076910734
 21
-11.38125111241339
 31
0.0
  0
LINE
  5
420
330
2
100
AcDbEntity
  8
GAIKEI
  6
Continuous
 62
     1
370
    25
100
AcDbLine
 10
-8.164633279645926
 20
-11.50014380271108
 30
0.0
 11
-8.323203110463083
 21
-11.27591940283514
 31
0.0
  0
LINE
  5
421
330
2
100
AcDbEntity
  8
GAIKEI
  6
Continuous
 62
     1
370
    25
100
AcDbLine
 10
-8.364594572987982
 20
-11.70007536792587
 30
0.0
 11
-8.605550953824717
 21
-11.3593563466847
 31
0.0
  0
LINE
  5
422
330
2
100
AcDbEntity
  8
GAIKEI
  6
Continuous
 62
     1
370
    25
100
AcDbLine
 10
-8.359184053826226
 20
-11.99997271574801
 30
0.0
 11
-8.359184053826226
 21
-15.33599379149382
 31
0.0
  0
LINE
  5
423
330
2
100
AcDbEntity
  8
GAIKEI
  6
Continuous
 62
     1
370
    25
100
AcDbLine
 10
-8.896688413480262
 20
-14.71478493484488
 30
0.0
 11
-8.896688413480262
 21
-12.10252980011512
 31
0.0
  0
LINE
  5
424
330
2
100
AcDbEntity
  8
GAIKEI
  6
Continuous
 62
     1
370
    25
100
AcDbLine
 10
-8.159212851108435
 20
-15.35183888332466
 30
0.0
 11
-8.159212851108435
 21
-15.45169566279873
 31
0.0
  0
LINE
  5
425
330
2
100
AcDbEntity
  8
GAIKEI
  6
Continuous
 62
     1
370
    25
100
AcDbLine
 10
-20.50116198407929
 20
-15.04938987124581
 30
0.0
 11
-20.50116198407929
 21
-14.86711185893694
 31
0.0
  0
LINE
  5
426
330
2
100
AcDbEntity
  8
GAIKEI
  6
Continuous
 62
     1
370
    25
100
AcDbLine
 10
-17.51315818481757
 20
-14.5382394964098
 30
0.0
 11
-17.78954058397522
 21
-11.29156135246302
 31
0.0
  0
LINE
  5
427
330
2
100
AcDbEntity
  8
GAIKEI
  6
Continuous
 62
     1
370
    25
100
AcDbLine
 10
-8.605550953824717
 20
-14.62010084951447
 30
0.0
 11
-8.605550953824717
 21
-11.3593563466847
 31
0.0
  0
LINE
  5
428
330
2
100
AcDbEntity
  8
GAIKEI
  6
Continuous
 62
     1
370
    25
100
AcDbLine
 10
-17.16428870201864
 20
-12.10255952824235
 30
0.0
 11
-17.16428870201864
 21
-14.71478493484488
 31
0.0
  0
LINE
  5
429
330
2
100
AcDbEntity
  8
GAIKEI
  6
Continuous
 62
     1
370
    25
100
AcDbLine
 10
-8.81335056338824
 20
-14.72014590712786
 30
0.0
 11
-8.896688413480262
 21
-14.71478493484488
 31
0.0
  0
LINE
  5
42A
330
2
100
AcDbEntity
  8
GAIKEI
  6
Continuous
 62
     1
370
    25
100
AcDbLine
 10
-8.81335056338824
 20
-14.72014590712786
 30
0.0
 11
-8.705467189553331
 21
-14.72014590712786
 31
0.0
  0
LINE
  5
42B
330
2
100
AcDbEntity
  8
GAIKEI
  6
Continuous
 62
     1
370
    25
100
AcDbLine
 10
-8.459169655185121
 20
-15.43585057096789
 30
0.0
 11
-8.705467189553331
 21
-14.72014590712786
 31
0.0
  0
LINE
  5
42C
330
2
100
AcDbEntity
  8
GAIKEI
  6
Continuous
 62
     1
370
    25
100
AcDbLine
 10
-8.159212851108435
 20
-15.45169566279873
 30
0.0
 11
-7.069756261950914
 21
-15.45169566279873
 31
0.0
  0
LINE
  5
42D
330
2
100
AcDbEntity
  8
GAIKEI
  6
Continuous
 62
     1
370
    25
100
AcDbLine
 10
-6.771632692388749
 20
-15.43735184139467
 30
0.0
 11
-5.257420620907396
 21
-14.71089550486141
 31
0.0
  0
LINE
  5
42E
330
2
100
AcDbEntity
  8
GAIKEI
  6
Continuous
 62
     7
370
    25
100
AcDbLine
 10
-2.897887938113001
 20
-14.70938432505892
 30
0.0
 11
-4.718418632905155
 21
-15.80169976912151
 31
0.0
  0
LINE
  5
42F
330
2
100
AcDbEntity
  8
GAIKEI
  6
Continuous
 62
     1
370
    25
100
AcDbLine
 10
-23.80993227650134
 20
-15.04938987124581
 30
0.0
 11
-20.50116198407929
 21
-15.04938987124581
 31
0.0
  0
LINE
  5
430
330
2
100
AcDbEntity
  8
GAIKEI
  6
Continuous
 62
     1
370
    25
100
AcDbLine
 10
-17.31411846342067
 20
-14.72014590712786
 30
0.0
 11
-17.60590994187595
 21
-14.90618948222328
 31
0.0
  0
LINE
  5
431
330
2
100
AcDbEntity
  8
GAIKEI
  6
Continuous
 62
     1
370
    25
100
AcDbLine
 10
-17.31411846342067
 20
-14.72014590712786
 30
0.0
 11
-17.24783464900147
 21
-14.72014590712786
 31
0.0
  0
LINE
  5
432
330
2
100
AcDbEntity
  8
GAIKEI
  6
Continuous
 62
     1
370
    25
100
AcDbLine
 10
-17.24783464900147
 20
-14.72014590712786
 30
0.0
 11
-17.16428870201864
 21
-14.71478493484488
 31
0.0
  0
LINE
  5
433
330
2
100
AcDbEntity
  8
GAIKEI
  6
Continuous
 62
     1
370
    25
100
AcDbLine
 10
-17.16428870201864
 20
-14.71478493484488
 30
0.0
 11
-16.58144894828962
 21
-15.13446681678266
 31
0.0
  0
LINE
  5
434
330
2
100
AcDbEntity
  8
GAIKEI
  6
Continuous
 62
     1
370
    25
100
AcDbLine
 10
-9.488654702278807
 20
-15.13446681678266
 30
0.0
 11
-16.58144894828962
 21
-15.13446681678266
 31
0.0
  0
LINE
  5
435
330
2
100
AcDbEntity
  8
GAIKEI
  6
Continuous
 62
     1
370
    25
100
AcDbLine
 10
-8.896688413480262
 20
-14.71478493484488
 30
0.0
 11
-9.488654702278807
 21
-15.13446681678266
 31
0.0
  0
LINE
  5
436
330
2
100
AcDbEntity
  8
GAIKEI
  6
Continuous
 62
     1
370
    25
100
AcDbLine
 10
-2.698045557280011
 20
-14.90871141835271
 30
0.0
 11
-4.519210452120432
 21
-16.00141332806964
 31
0.0
  0
LINE
  5
437
330
2
100
AcDbEntity
  8
GAIKEI
  6
Continuous
 62
     1
370
    25
100
AcDbLine
 10
-4.519210452120432
 20
-18.32947747554755
 30
0.0
 11
-4.519210452120432
 21
-16.00141332806964
 31
0.0
  0
LINE
  5
438
330
2
100
AcDbEntity
  8
GAIKEI
  6
Continuous
370
    25
100
AcDbLine
 10
-5.286801920018319
 20
-14.704385044991
 30
0.0
 11
-2.893052162744993
 21
-14.704385044991
 31
0.0
  0
LINE
  5
439
330
2
100
AcDbEntity
  8
GAIKEI
  6
Continuous
370
    25
100
AcDbLine
 10
-2.693051231899943
 20
-18.32947747554755
 30
0.0
 11
-2.693051231899943
 21
-14.90438597583602
 31
0.0
  0
LINE
  5
43A
330
2
100
AcDbEntity
  8
GAIKEI
  6
Continuous
370
    25
100
AcDbLine
 10
35.76386646979489
 20
-11.30137658914742
 30
0.0
 11
30.65546435604608
 21
-11.43514325245206
 31
0.0
  0
LINE
  5
43B
330
2
100
AcDbEntity
  8
GAIKEI
  6
Continuous
370
    25
100
AcDbLine
 10
30.60448061779124
 20
-11.39082356939184
 30
0.0
 11
30.57038245582134
 21
-11.09159014974523
 31
0.0
  0
LINE
  5
43C
330
2
100
AcDbEntity
  8
GAIKEI
  6
Continuous
370
    25
100
AcDbLine
 10
30.6218022066094
 20
-11.42328172967438
 30
0.0
 11
30.65145601355354
 21
-11.38958985211047
 31
0.0
  0
LINE
  5
43D
330
2
100
AcDbEntity
  8
GAIKEI
  6
Continuous
370
    25
100
AcDbLine
 10
35.81246204849299
 20
-11.25444578557602
 30
0.0
 11
35.81402277517427
 21
-11.22889941488193
 31
0.0
  0
LINE
  5
43E
330
2
100
AcDbEntity
  8
GAIKEI
  6
Continuous
370
    25
100
AcDbLine
 10
28.85312232045055
 20
-11.04662140257306
 30
0.0
 11
40.60966517137205
 21
-11.35447597912576
 31
0.0
  0
LINE
  5
43F
330
2
100
AcDbEntity
  8
GAIKEI
  6
Continuous
370
    25
100
AcDbLine
 10
40.60966517137205
 20
-11.35447597912576
 30
0.0
 11
40.60966517137205
 21
-11.10473493668303
 31
0.0
  0
LINE
  5
440
330
2
100
AcDbEntity
  8
GAIKEI
  6
Continuous
370
    25
100
AcDbLine
 10
40.60966517137205
 20
33.52086495170989
 30
0.0
 11
40.60966517137205
 21
-11.10473493668303
 31
0.0
  0
LINE
  5
441
330
2
100
AcDbEntity
  8
GAIKEI
  6
Continuous
370
    25
100
AcDbLine
 10
28.60966382223592
 20
-10.79670694605465
 30
0.0
 11
28.60966382223592
 21
32.90438286729563
 31
0.0
  0
LINE
  5
442
330
2
100
AcDbEntity
  8
GAIKEI
  6
Continuous
370
    25
100
AcDbLine
 10
21.50443510502993
 20
-10.46451989733776
 30
0.0
 11
28.60966382223592
 21
-10.64947839578803
 31
0.0
  0
LINE
  5
443
330
2
100
AcDbEntity
  8
GAIKEI
  6
Continuous
370
    25
100
AcDbLine
 10
21.3096712792709
 20
-10.26458833212297
 30
0.0
 11
21.3096712792709
 21
32.28034983855679
 31
0.0
  0
LINE
  5
444
330
2
100
AcDbEntity
  8
GAIKEI
  6
Continuous
370
    25
100
AcDbLine
 10
-6.979035926922108
 20
-11.43109031776862
 30
0.0
 11
-6.687442635981881
 21
-11.29619398562806
 31
0.0
  0
LINE
  5
445
330
2
100
AcDbEntity
  8
GAIKEI
  6
Continuous
370
    25
100
AcDbLine
 10
-6.997606097085309
 20
-11.43515811651571
 30
0.0
 11
-8.011037955457339
 21
-11.43515811651571
 31
0.0
  0
LINE
  5
446
330
2
100
AcDbEntity
  8
GAIKEI
  6
Continuous
370
    25
100
AcDbLine
 10
-37.69865162459874
 20
-11.29619398562806
 30
0.0
 11
-37.40705833365851
 21
-11.43109031776862
 31
0.0
  0
LINE
  5
447
330
2
100
AcDbEntity
  8
GAIKEI
  6
Continuous
370
    25
100
AcDbLine
 10
-36.37505630512328
 20
-11.43515811651571
 30
0.0
 11
-37.38848816349531
 21
-11.43515811651571
 31
0.0
  0
LINE
  5
448
330
2
100
AcDbEntity
  8
GAIKEI
  6
Continuous
370
    25
100
AcDbLine
 10
-8.085556461128192
 20
-11.09289818734476
 30
0.0
 11
-8.059534440397925
 21
-11.38963939898923
 31
0.0
  0
LINE
  5
449
330
2
100
AcDbEntity
  8
GAIKEI
  6
Continuous
370
    25
100
AcDbLine
 10
-6.657278496186393
 20
-11.22759633197029
 30
0.0
 11
-6.660132396403611
 21
-11.25844421869277
 31
0.0
  0
LINE
  5
44A
330
2
100
AcDbEntity
  8
GAIKEI
  6
Continuous
370
    25
100
AcDbLine
 10
-37.72597177355277
 20
-11.25844421869277
 30
0.0
 11
-37.72881576439423
 21
-11.22759633197029
 31
0.0
  0
LINE
  5
44B
330
2
100
AcDbEntity
  8
GAIKEI
  6
Continuous
370
    25
100
AcDbLine
 10
-36.32656972955846
 20
-11.38963939898923
 30
0.0
 11
-36.30053779945243
 21
-11.09289818734476
 31
0.0
  0
LINE
  5
44C
330
2
100
AcDbEntity
  8
GAIKEI
  6
Continuous
370
    25
100
AcDbLine
 10
-36.31659098817408
 20
-11.27591940283514
 30
0.0
 11
-13.90044751926569
 21
-11.27591940283514
 31
0.0
  0
LINE
  5
44D
330
2
100
AcDbEntity
  8
GAIKEI
  6
Continuous
370
    25
100
AcDbLine
 10
-39.09771674981741
 20
-11.27591940283514
 30
0.0
 11
-37.72073962315463
 21
-11.27591940283514
 31
0.0
  0
LINE
  5
44E
330
2
100
AcDbEntity
  8
GAIKEI
  6
Continuous
370
    25
100
AcDbLine
 10
-6.665354637425991
 20
-11.27591940283514
 30
0.0
 11
-5.288377510763211
 21
-11.27591940283514
 31
0.0
  0
LINE
  5
44F
330
2
100
AcDbEntity
  8
GAIKEI
  6
Continuous
370
    25
100
AcDbLine
 10
-8.410653351493039
 20
-11.27591940283514
 30
0.0
 11
-8.069513181782298
 21
-11.27591940283514
 31
0.0
  0
LINE
  5
450
330
2
100
AcDbEntity
  8
GAIKEI
  6
Continuous
370
    25
100
AcDbLine
 10
-8.510520040342896
 20
-11.27343710420876
 30
0.0
 11
-8.533123326437987
 21
-11.26214537053693
 31
0.0
  0
LINE
  5
451
330
2
100
AcDbEntity
  8
GAIKEI
  6
Continuous
370
    25
100
AcDbLine
 10
-13.27865400944728
 20
-11.24973387740493
 30
0.0
 11
-9.032436951935693
 21
-11.24973387740493
 31
0.0
  0
LINE
  5
452
330
2
100
AcDbEntity
  8
GAIKEI
  6
Continuous
370
    25
100
AcDbLine
 10
-13.80058083041587
 20
-11.27343710420876
 30
0.0
 11
-13.77796763494501
 21
-11.26214537053693
 31
0.0
  0
LINE
  5
453
330
2
100
AcDbEntity
  8
GAIKEI
  6
Continuous
 62
     1
370
    25
100
AcDbLine
 10
-7.032437552860983
 20
33.7285951956431
 30
0.0
 11
-7.01738521109047
 21
33.7285951956431
 31
0.0
  0
LINE
  5
454
330
2
100
AcDbEntity
  8
GAIKEI
  6
Continuous
 62
     1
370
    25
100
AcDbLine
 10
-7.01738521109047
 20
33.7285951956431
 30
0.0
 11
-7.01738521109047
 21
33.27827352387368
 31
0.0
  0
LINE
  5
455
330
2
100
AcDbEntity
  8
GAIKEI
  6
Continuous
 62
     1
370
    25
100
AcDbLine
 10
-7.293718063369396
 20
33.7285951956431
 30
0.0
 11
-7.293718063369396
 21
33.27827352387368
 31
0.0
  0
LINE
  5
456
330
2
100
AcDbEntity
  8
GAIKEI
  6
Continuous
 62
     1
370
    25
100
AcDbLine
 10
-7.293718063369396
 20
33.7285951956431
 30
0.0
 11
-7.278655812223149
 21
33.7285951956431
 31
0.0
  0
LINE
  5
457
330
2
100
AcDbEntity
  8
GAIKEI
  6
Continuous
370
    25
100
AcDbLine
 10
-6.831673600082865
 20
33.77052176445869
 30
0.0
 11
-7.032437552860983
 21
33.76003764491088
 31
0.0
  0
LINE
  5
458
330
2
100
AcDbEntity
  8
GAIKEI
  6
Continuous
 62
     1
370
    25
100
AcDbLine
 10
-7.044943185062663
 20
33.61709489965796
 30
0.0
 11
-7.032437552860983
 21
33.76003764491088
 31
0.0
  0
LINE
  5
459
330
2
100
AcDbEntity
  8
GAIKEI
  6
Continuous
370
    25
100
AcDbLine
 10
-7.479419765001267
 20
33.77052176445869
 30
0.0
 11
-7.278655812223149
 21
33.76003764491088
 31
0.0
  0
LINE
  5
45A
330
2
100
AcDbEntity
  8
GAIKEI
  6
Continuous
 62
     1
370
    25
100
AcDbLine
 10
-7.284948265827011
 20
33.61709489965796
 30
0.0
 11
-7.266150180021497
 21
33.61709489965796
 31
0.0
  0
LINE
  5
45B
330
2
100
AcDbEntity
  8
GAIKEI
  6
Continuous
 62
     1
370
    25
100
AcDbLine
 10
-7.517382583515228
 20
33.27827352387368
 30
0.0
 11
-7.793715435794126
 21
33.27827352387368
 31
0.0
  0
LINE
  5
45C
330
2
100
AcDbEntity
  8
GAIKEI
  6
Continuous
 62
     1
370
    25
100
AcDbLine
 10
-7.793715435794126
 20
33.74068463406314
 30
0.0
 11
-7.793715435794126
 21
33.27827352387368
 31
0.0
  0
LINE
  5
45D
330
2
100
AcDbEntity
  8
GAIKEI
  6
Continuous
 62
     1
370
    25
100
AcDbLine
 10
-7.517382583515228
 20
33.74068463406314
 30
0.0
 11
-7.793715435794126
 21
33.74068463406314
 31
0.0
  0
LINE
  5
45E
330
2
100
AcDbEntity
  8
GAIKEI
  6
Continuous
 62
     1
370
    25
100
AcDbLine
 10
-7.517382583515228
 20
33.74068463406314
 30
0.0
 11
-7.517382583515228
 21
33.27827352387368
 31
0.0
  0
LINE
  5
45F
330
2
100
AcDbEntity
  8
GAIKEI
  6
Continuous
 62
     1
370
    25
100
AcDbLine
 10
-30.09238325513763
 20
33.74068463406314
 30
0.0
 11
-30.36871610741651
 21
33.74068463406314
 31
0.0
  0
LINE
  5
460
330
2
100
AcDbEntity
  8
GAIKEI
  6
Continuous
 62
     1
370
    25
100
AcDbLine
 10
-30.59238062756236
 20
33.74068463406314
 30
0.0
 11
-30.86871347984124
 21
33.74068463406314
 31
0.0
  0
LINE
  5
461
330
2
100
AcDbEntity
  8
GAIKEI
  6
Continuous
 62
     1
370
    25
100
AcDbLine
 10
-31.09237799998709
 20
33.74068463406314
 30
0.0
 11
-31.36871085226599
 21
33.74068463406314
 31
0.0
  0
LINE
  5
462
330
2
100
AcDbEntity
  8
GAIKEI
  6
Continuous
 62
     1
370
    25
100
AcDbLine
 10
-31.59238528178759
 20
33.74068463406314
 30
0.0
 11
-31.86871813406651
 21
33.74068463406314
 31
0.0
  0
LINE
  5
463
330
2
100
AcDbEntity
  8
GAIKEI
  6
Continuous
 62
     1
370
    25
100
AcDbLine
 10
-34.09238205328703
 20
33.74068463406314
 30
0.0
 11
-34.36871490556593
 21
33.74068463406314
 31
0.0
  0
LINE
  5
464
330
2
100
AcDbEntity
  8
GAIKEI
  6
Continuous
 62
     1
370
    25
100
AcDbLine
 10
-34.59237942571178
 20
33.74068463406314
 30
0.0
 11
-34.86871227799068
 21
33.74068463406314
 31
0.0
  0
LINE
  5
465
330
2
100
AcDbEntity
  8
GAIKEI
  6
Continuous
 62
     1
370
    25
100
AcDbLine
 10
-35.09238670751228
 20
33.74068463406314
 30
0.0
 11
-35.36870965041541
 21
33.74068463406314
 31
0.0
  0
LINE
  5
466
330
2
100
AcDbEntity
  8
GAIKEI
  6
Continuous
 62
     1
370
    25
100
AcDbLine
 10
-35.59238407993703
 20
33.74068463406314
 30
0.0
 11
-35.86871693221591
 21
33.74068463406314
 31
0.0
  0
LINE
  5
467
330
2
100
AcDbEntity
  8
GAIKEI
  6
Continuous
 62
     1
370
    25
100
AcDbLine
 10
-36.09238145236176
 20
33.74068463406314
 30
0.0
 11
-36.36871430464066
 21
33.74068463406314
 31
0.0
  0
LINE
  5
468
330
2
100
AcDbEntity
  8
GAIKEI
  6
Continuous
 62
     1
370
    25
100
AcDbLine
 10
-36.59237882478649
 20
33.74068463406314
 30
0.0
 11
-36.86871167706539
 21
33.74068463406314
 31
0.0
  0
LINE
  5
469
330
2
100
AcDbEntity
  8
GAIKEI
  6
Continuous
 62
     1
370
    25
100
AcDbLine
 10
-36.59237882478649
 20
33.74068463406314
 30
0.0
 11
-36.59237882478649
 21
33.27827352387368
 31
0.0
  0
LINE
  5
46A
330
2
100
AcDbEntity
  8
GAIKEI
  6
Continuous
 62
     1
370
    25
100
AcDbLine
 10
-36.59237882478649
 20
33.27827352387368
 30
0.0
 11
-36.86871167706539
 21
33.27827352387368
 31
0.0
  0
LINE
  5
46B
330
2
100
AcDbEntity
  8
GAIKEI
  6
Continuous
 62
     1
370
    25
100
AcDbLine
 10
-36.86871167706539
 20
33.74068463406314
 30
0.0
 11
-36.86871167706539
 21
33.27827352387368
 31
0.0
  0
LINE
  5
46C
330
2
100
AcDbEntity
  8
GAIKEI
  6
Continuous
 62
     1
370
    25
100
AcDbLine
 10
-37.09238610658699
 20
33.74068463406314
 30
0.0
 11
-37.36870904949015
 21
33.74068463406314
 31
0.0
  0
LINE
  5
46D
330
2
100
AcDbEntity
  8
GAIKEI
  6
Continuous
 62
     1
370
    25
100
AcDbLine
 10
-37.09238610658699
 20
33.74068463406314
 30
0.0
 11
-37.09238610658699
 21
33.27827352387368
 31
0.0
  0
LINE
  5
46E
330
2
100
AcDbEntity
  8
GAIKEI
  6
Continuous
 62
     1
370
    25
100
AcDbLine
 10
-37.09238610658699
 20
33.27827352387368
 30
0.0
 11
-37.36870904949015
 21
33.27827352387368
 31
0.0
  0
LINE
  5
46F
330
2
100
AcDbEntity
  8
GAIKEI
  6
Continuous
 62
     1
370
    25
100
AcDbLine
 10
-37.36870904949015
 20
33.74068463406314
 30
0.0
 11
-37.36870904949015
 21
33.27827352387368
 31
0.0
  0
LINE
  5
470
330
2
100
AcDbEntity
  8
GAIKEI
  6
Continuous
 62
     1
370
    25
100
AcDbLine
 10
-32.09238265421232
 20
33.74068463406314
 30
0.0
 11
-33.8687175331412
 21
33.74068463406314
 31
0.0
  0
LINE
  5
471
330
2
100
AcDbEntity
  8
GAIKEI
  6
Continuous
 62
     1
370
    25
100
AcDbLine
 10
-7.01738521109047
 20
33.27827352387368
 30
0.0
 11
-7.293718063369396
 21
33.27827352387368
 31
0.0
  0
LINE
  5
472
330
2
100
AcDbEntity
  8
GAIKEI
  6
Continuous
370
    25
100
AcDbLine
 10
-6.660132396403611
 20
-11.25844421869277
 30
0.0
 11
-6.659963937015788
 21
-11.25582318880583
 31
0.0
  0
LINE
  5
473
330
2
100
AcDbEntity
  8
GAIKEI
  6
Continuous
370
    25
100
AcDbLine
 10
-6.659963937015788
 20
-11.25582318880583
 30
0.0
 11
-6.657347861816703
 21
-11.22752696634001
 31
0.0
  0
LINE
  5
474
330
2
100
AcDbEntity
  8
GAIKEI
  6
Continuous
370
    25
100
AcDbLine
 10
-6.924514541523024
 20
-11.09282882171447
 30
0.0
 11
-6.657347861816703
 21
-11.22752696634001
 31
0.0
  0
LINE
  5
475
330
2
100
AcDbEntity
  8
GAIKEI
  6
Continuous
370
    25
100
AcDbLine
 10
-6.949119521520458
 20
-11.38958985211047
 30
0.0
 11
-6.924514541523024
 21
-11.09282882171447
 31
0.0
  0
LINE
  5
476
330
2
100
AcDbEntity
  8
GAIKEI
  6
Continuous
370
    25
100
AcDbLine
 10
-8.035979854230419
 20
-11.09159014974523
 30
0.0
 11
-6.974041601542069
 21
-11.09159014974523
 31
0.0
  0
LINE
  5
477
330
2
100
AcDbEntity
  8
GAIKEI
  6
Continuous
370
    25
100
AcDbLine
 10
-37.41205265903858
 20
-11.09159014974523
 30
0.0
 11
-36.3501144063502
 21
-11.09159014974523
 31
0.0
  0
LINE
  5
478
330
2
100
AcDbEntity
  8
GAIKEI
  6
Continuous
370
    25
100
AcDbLine
 10
-37.4615797190576
 20
-11.09282882171447
 30
0.0
 11
-37.72874639876395
 21
-11.22752696634001
 31
0.0
  0
LINE
  5
479
330
2
100
AcDbEntity
  8
GAIKEI
  6
Continuous
370
    25
100
AcDbLine
 10
-37.4369846484359
 20
-11.38958985211047
 30
0.0
 11
-37.4615797190576
 21
-11.09282882171447
 31
0.0
  0
LINE
  5
47A
330
2
100
AcDbEntity
  8
GAIKEI
  6
Continuous
370
    25
100
AcDbLine
 10
-37.72613032356483
 20
-11.25582318880583
 30
0.0
 11
-37.72874639876395
 21
-11.22752696634001
 31
0.0
  0
LINE
  5
47B
330
2
100
AcDbEntity
  8
GAIKEI
  6
Continuous
370
    25
100
AcDbLine
 10
-37.72597177355277
 20
-11.25844421869277
 30
0.0
 11
-37.72613032356483
 21
-11.25582318880583
 31
0.0
  0
LINE
  5
47C
330
2
100
AcDbEntity
  8
GAIKEI
  6
Continuous
370
    25
100
AcDbLine
 10
-39.24737805183162
 20
-11.27958587186418
 30
0.0
 11
-39.43182126274272
 21
-11.35203331800238
 31
0.0
  0
LINE
  5
47D
330
2
100
AcDbEntity
  8
GAIKEI
  6
Continuous
 62
     1
370
    25
100
AcDbLine
 10
-4.393045592628538
 20
-11.35447597912576
 30
0.0
 11
-5.009180848891389
 21
-11.04662140257306
 31
0.0
  0
LINE
  5
47E
330
2
100
AcDbEntity
  8
GAIKEI
  6
Continuous
370
    25
100
AcDbLine
 10
-4.392708673852922
 20
33.77052176445869
 30
0.0
 11
-6.831673600082865
 21
33.77052176445869
 31
0.0
  0
LINE
  5
47F
330
2
100
AcDbEntity
  8
GAIKEI
  6
Continuous
370
    25
100
AcDbLine
 10
-4.393045592628538
 20
-11.35447597912576
 30
0.0
 11
-4.854495493369824
 21
-11.35447597912576
 31
0.0
  0
LINE
  5
480
330
2
100
AcDbEntity
  8
GAIKEI
  6
Continuous
370
    25
100
AcDbLine
 10
-5.138716208749002
 20
-11.27958587186418
 30
0.0
 11
-4.954272997837904
 21
-11.35203331800238
 31
0.0
  0
LINE
  5
481
330
2
100
AcDbEntity
  8
GAIKEI
  6
Continuous
 62
     1
370
    25
100
AcDbLine
 10
-39.77634052958561
 20
10.37138892909996
 30
0.0
 11
-39.82640269589533
 21
10.37138892909996
 31
0.0
  0
LINE
  5
482
330
2
100
AcDbEntity
  8
GAIKEI
  6
Continuous
 62
     1
370
    25
100
AcDbLine
 10
-39.77634052958561
 20
7.478376405817073
 30
0.0
 11
-39.82640269589533
 21
7.478376405817073
 31
0.0
  0
LINE
  5
483
330
2
100
AcDbEntity
  8
GAIKEI
  6
Continuous
 62
     1
370
    25
100
AcDbLine
 10
-39.78153304248073
 20
7.378380895082443
 30
0.0
 11
-39.83160511816624
 21
7.378380895082443
 31
0.0
  0
LINE
  5
484
330
2
100
AcDbEntity
  8
GAIKEI
  6
Continuous
 62
     1
370
    25
100
AcDbLine
 10
-39.82771073349486
 20
7.370691219497246
 30
0.0
 11
-39.8777728998046
 21
7.370691219497246
 31
0.0
  0
LINE
  5
485
330
2
100
AcDbEntity
  8
GAIKEI
  6
Continuous
 62
     1
370
    25
100
AcDbLine
 10
-39.82875121794905
 20
7.350699053913331
 30
0.0
 11
-39.87881338425876
 21
7.350699053913331
 31
0.0
  0
LINE
  5
486
330
2
100
AcDbEntity
  8
GAIKEI
  6
Continuous
 62
     1
370
    25
100
AcDbLine
 10
-39.82875121794905
 20
4.190346436848358
 30
0.0
 11
-39.87881338425876
 21
4.190346436848358
 31
0.0
  0
LINE
  5
487
330
2
100
AcDbEntity
  8
GAIKEI
  6
Continuous
 62
     1
370
    25
100
AcDbLine
 10
-39.37691341168923
 20
-11.04662140257306
 30
0.0
 11
-39.99304866795205
 21
-11.35447597912576
 31
0.0
  0
LINE
  5
488
330
2
100
AcDbEntity
  8
GAIKEI
  6
Continuous
 62
     1
370
    25
100
AcDbLine
 10
-39.37691341168923
 20
33.15403968004449
 30
0.0
 11
-39.9933855867277
 21
33.77052176445869
 31
0.0
  0
LINE
  5
489
330
2
100
AcDbEntity
  8
GAIKEI
  6
Continuous
 62
     1
370
    25
100
AcDbLine
 10
-14.01737815316411
 20
33.74068463406314
 30
0.0
 11
-14.29371100544301
 21
33.74068463406314
 31
0.0
  0
LINE
  5
48A
330
2
100
AcDbEntity
  8
GAIKEI
  6
Continuous
 62
     1
370
    25
100
AcDbLine
 10
-13.51738078073938
 20
33.74068463406314
 30
0.0
 11
-13.79371363301828
 21
33.74068463406314
 31
0.0
  0
LINE
  5
48B
330
2
100
AcDbEntity
  8
GAIKEI
  6
Continuous
 62
     1
370
    25
100
AcDbLine
 10
-13.01738340831463
 20
33.74068463406314
 30
0.0
 11
-13.29371626059353
 21
33.74068463406314
 31
0.0
  0
LINE
  5
48C
330
2
100
AcDbEntity
  8
GAIKEI
  6
Continuous
 62
     1
370
    25
100
AcDbLine
 10
-12.5173860358899
 20
33.74068463406314
 30
0.0
 11
-12.79370897879306
 21
33.74068463406314
 31
0.0
  0
LINE
  5
48D
330
2
100
AcDbEntity
  8
GAIKEI
  6
Continuous
 62
     1
370
    25
100
AcDbLine
 10
-10.01737935501469
 20
33.74068463406314
 30
0.0
 11
-10.29371220729359
 21
33.74068463406314
 31
0.0
  0
LINE
  5
48E
330
2
100
AcDbEntity
  8
GAIKEI
  6
Continuous
 62
     1
370
    25
100
AcDbLine
 10
-9.517381982589938
 20
33.74068463406314
 30
0.0
 11
-9.793714834868836
 21
33.74068463406314
 31
0.0
  0
LINE
  5
48F
330
2
100
AcDbEntity
  8
GAIKEI
  6
Continuous
 62
     1
370
    25
100
AcDbLine
 10
-9.017384610165208
 20
33.74068463406314
 30
0.0
 11
-9.293717462444107
 21
33.74068463406314
 31
0.0
  0
LINE
  5
490
330
2
100
AcDbEntity
  8
GAIKEI
  6
Continuous
 62
     1
370
    25
100
AcDbLine
 10
-8.517387237740479
 20
33.74068463406314
 30
0.0
 11
-8.793710180643614
 21
33.74068463406314
 31
0.0
  0
LINE
  5
491
330
2
100
AcDbEntity
  8
GAIKEI
  6
Continuous
 62
     1
370
    25
100
AcDbLine
 10
-8.017379955939958
 20
33.74068463406314
 30
0.0
 11
-8.293712808218884
 21
33.74068463406314
 31
0.0
  0
LINE
  5
492
330
2
100
AcDbEntity
  8
GAIKEI
  6
Continuous
 62
     1
370
    25
100
AcDbLine
 10
-11.01738400923992
 20
33.70878635351068
 30
0.0
 11
-10.79370957971832
 21
33.70878635351068
 31
0.0
  0
LINE
  5
493
330
2
100
AcDbEntity
  8
GAIKEI
  6
Continuous
 62
     1
370
    25
100
AcDbLine
 10
-12.0173787540894
 20
33.70878635351068
 30
0.0
 11
-11.79371423394357
 21
33.70878635351068
 31
0.0
  0
LINE
  5
494
330
2
100
AcDbEntity
  8
GAIKEI
  6
Continuous
 62
     1
370
    25
100
AcDbLine
 10
-10.51738663681519
 20
33.74068463406314
 30
0.0
 11
-12.2937116063683
 21
33.74068463406314
 31
0.0
  0
LINE
  5
495
330
2
100
AcDbEntity
  8
GAIKEI
  6
Continuous
 62
     1
370
    25
100
AcDbLine
 10
-11.51738138166465
 20
33.70878635351068
 30
0.0
 11
-11.29371686151881
 21
33.70878635351068
 31
0.0
  0
LINE
  5
496
330
2
100
AcDbEntity
  8
GAIKEI
  6
Continuous
 62
     1
370
    25
100
AcDbLine
 10
-30.09238325513763
 20
33.27827352387368
 30
0.0
 11
-30.36871610741651
 21
33.27827352387368
 31
0.0
  0
LINE
  5
497
330
2
100
AcDbEntity
  8
GAIKEI
  6
Continuous
 62
     1
370
    25
100
AcDbLine
 10
-30.36871610741651
 20
33.74068463406314
 30
0.0
 11
-30.36871610741651
 21
33.27827352387368
 31
0.0
  0
LINE
  5
498
330
2
100
AcDbEntity
  8
GAIKEI
  6
Continuous
 62
     1
370
    25
100
AcDbLine
 10
-30.09238325513763
 20
33.74068463406314
 30
0.0
 11
-30.09238325513763
 21
33.27827352387368
 31
0.0
  0
LINE
  5
499
330
2
100
AcDbEntity
  8
GAIKEI
  6
Continuous
 62
     1
370
    25
100
AcDbLine
 10
-30.59238062756236
 20
33.27827352387368
 30
0.0
 11
-30.86871347984124
 21
33.27827352387368
 31
0.0
  0
LINE
  5
49A
330
2
100
AcDbEntity
  8
GAIKEI
  6
Continuous
 62
     1
370
    25
100
AcDbLine
 10
-30.86871347984124
 20
33.74068463406314
 30
0.0
 11
-30.86871347984124
 21
33.27827352387368
 31
0.0
  0
LINE
  5
49B
330
2
100
AcDbEntity
  8
GAIKEI
  6
Continuous
 62
     1
370
    25
100
AcDbLine
 10
-30.59238062756236
 20
33.74068463406314
 30
0.0
 11
-30.59238062756236
 21
33.27827352387368
 31
0.0
  0
LINE
  5
49C
330
2
100
AcDbEntity
  8
GAIKEI
  6
Continuous
 62
     1
370
    25
100
AcDbLine
 10
-31.09237799998709
 20
33.27827352387368
 30
0.0
 11
-31.36871085226599
 21
33.27827352387368
 31
0.0
  0
LINE
  5
49D
330
2
100
AcDbEntity
  8
GAIKEI
  6
Continuous
 62
     1
370
    25
100
AcDbLine
 10
-31.36871085226599
 20
33.74068463406314
 30
0.0
 11
-31.36871085226599
 21
33.27827352387368
 31
0.0
  0
LINE
  5
49E
330
2
100
AcDbEntity
  8
GAIKEI
  6
Continuous
 62
     1
370
    25
100
AcDbLine
 10
-31.09237799998709
 20
33.74068463406314
 30
0.0
 11
-31.09237799998709
 21
33.27827352387368
 31
0.0
  0
LINE
  5
49F
330
2
100
AcDbEntity
  8
GAIKEI
  6
Continuous
 62
     1
370
    25
100
AcDbLine
 10
-31.59238528178759
 20
33.27827352387368
 30
0.0
 11
-31.86871813406651
 21
33.27827352387368
 31
0.0
  0
LINE
  5
4A0
330
2
100
AcDbEntity
  8
GAIKEI
  6
Continuous
 62
     1
370
    25
100
AcDbLine
 10
-31.86871813406651
 20
33.74068463406314
 30
0.0
 11
-31.86871813406651
 21
33.27827352387368
 31
0.0
  0
LINE
  5
4A1
330
2
100
AcDbEntity
  8
GAIKEI
  6
Continuous
 62
     1
370
    25
100
AcDbLine
 10
-31.59238528178759
 20
33.74068463406314
 30
0.0
 11
-31.59238528178759
 21
33.27827352387368
 31
0.0
  0
LINE
  5
4A2
330
2
100
AcDbEntity
  8
GAIKEI
  6
Continuous
 62
     1
370
    25
100
AcDbLine
 10
-34.09238205328703
 20
33.27827352387368
 30
0.0
 11
-34.36871490556593
 21
33.27827352387368
 31
0.0
  0
LINE
  5
4A3
330
2
100
AcDbEntity
  8
GAIKEI
  6
Continuous
 62
     1
370
    25
100
AcDbLine
 10
-34.36871490556593
 20
33.74068463406314
 30
0.0
 11
-34.36871490556593
 21
33.27827352387368
 31
0.0
  0
LINE
  5
4A4
330
2
100
AcDbEntity
  8
GAIKEI
  6
Continuous
 62
     1
370
    25
100
AcDbLine
 10
-34.09238205328703
 20
33.74068463406314
 30
0.0
 11
-34.09238205328703
 21
33.27827352387368
 31
0.0
  0
LINE
  5
4A5
330
2
100
AcDbEntity
  8
GAIKEI
  6
Continuous
 62
     1
370
    25
100
AcDbLine
 10
-34.59237942571178
 20
33.27827352387368
 30
0.0
 11
-34.86871227799068
 21
33.27827352387368
 31
0.0
  0
LINE
  5
4A6
330
2
100
AcDbEntity
  8
GAIKEI
  6
Continuous
 62
     1
370
    25
100
AcDbLine
 10
-34.86871227799068
 20
33.74068463406314
 30
0.0
 11
-34.86871227799068
 21
33.27827352387368
 31
0.0
  0
LINE
  5
4A7
330
2
100
AcDbEntity
  8
GAIKEI
  6
Continuous
 62
     1
370
    25
100
AcDbLine
 10
-34.59237942571178
 20
33.74068463406314
 30
0.0
 11
-34.59237942571178
 21
33.27827352387368
 31
0.0
  0
LINE
  5
4A8
330
2
100
AcDbEntity
  8
GAIKEI
  6
Continuous
 62
     1
370
    25
100
AcDbLine
 10
-35.09238670751228
 20
33.27827352387368
 30
0.0
 11
-35.36870965041541
 21
33.27827352387368
 31
0.0
  0
LINE
  5
4A9
330
2
100
AcDbEntity
  8
GAIKEI
  6
Continuous
 62
     1
370
    25
100
AcDbLine
 10
-35.36870965041541
 20
33.74068463406314
 30
0.0
 11
-35.36870965041541
 21
33.27827352387368
 31
0.0
  0
LINE
  5
4AA
330
2
100
AcDbEntity
  8
GAIKEI
  6
Continuous
 62
     1
370
    25
100
AcDbLine
 10
-35.09238670751228
 20
33.74068463406314
 30
0.0
 11
-35.09238670751228
 21
33.27827352387368
 31
0.0
  0
LINE
  5
4AB
330
2
100
AcDbEntity
  8
GAIKEI
  6
Continuous
 62
     1
370
    25
100
AcDbLine
 10
-35.59238407993703
 20
33.27827352387368
 30
0.0
 11
-35.86871693221591
 21
33.27827352387368
 31
0.0
  0
LINE
  5
4AC
330
2
100
AcDbEntity
  8
GAIKEI
  6
Continuous
 62
     1
370
    25
100
AcDbLine
 10
-35.86871693221591
 20
33.74068463406314
 30
0.0
 11
-35.86871693221591
 21
33.27827352387368
 31
0.0
  0
LINE
  5
4AD
330
2
100
AcDbEntity
  8
GAIKEI
  6
Continuous
 62
     1
370
    25
100
AcDbLine
 10
-35.59238407993703
 20
33.74068463406314
 30
0.0
 11
-35.59238407993703
 21
33.27827352387368
 31
0.0
  0
LINE
  5
4AE
330
2
100
AcDbEntity
  8
GAIKEI
  6
Continuous
 62
     1
370
    25
100
AcDbLine
 10
-36.09238145236176
 20
33.27827352387368
 30
0.0
 11
-36.36871430464066
 21
33.27827352387368
 31
0.0
  0
LINE
  5
4AF
330
2
100
AcDbEntity
  8
GAIKEI
  6
Continuous
 62
     1
370
    25
100
AcDbLine
 10
-36.36871430464066
 20
33.74068463406314
 30
0.0
 11
-36.36871430464066
 21
33.27827352387368
 31
0.0
  0
LINE
  5
4B0
330
2
100
AcDbEntity
  8
GAIKEI
  6
Continuous
 62
     1
370
    25
100
AcDbLine
 10
-36.09238145236176
 20
33.74068463406314
 30
0.0
 11
-36.09238145236176
 21
33.27827352387368
 31
0.0
  0
LINE
  5
4B1
330
2
100
AcDbEntity
  8
GAIKEI
  6
Continuous
 62
     1
370
    25
100
AcDbLine
 10
-33.5923846808623
 20
33.27827352387368
 30
0.0
 11
-33.8687175331412
 21
33.27827352387368
 31
0.0
  0
LINE
  5
4B2
330
2
100
AcDbEntity
  8
GAIKEI
  6
Continuous
 62
     1
370
    25
100
AcDbLine
 10
-33.8687175331412
 20
33.74068463406314
 30
0.0
 11
-33.8687175331412
 21
33.27827352387368
 31
0.0
  0
LINE
  5
4B3
330
2
100
AcDbEntity
  8
GAIKEI
  6
Continuous
 62
     1
370
    25
100
AcDbLine
 10
-33.5923846808623
 20
33.70878635351068
 30
0.0
 11
-33.5923846808623
 21
33.27827352387368
 31
0.0
  0
LINE
  5
4B4
330
2
100
AcDbEntity
  8
GAIKEI
  6
Continuous
 62
     1
370
    25
100
AcDbLine
 10
-32.09238265421232
 20
33.27827352387368
 30
0.0
 11
-32.36871550649124
 21
33.27827352387368
 31
0.0
  0
LINE
  5
4B5
330
2
100
AcDbEntity
  8
GAIKEI
  6
Continuous
 62
     1
370
    25
100
AcDbLine
 10
-32.36871550649124
 20
33.70878635351068
 30
0.0
 11
-32.36871550649124
 21
33.27827352387368
 31
0.0
  0
LINE
  5
4B6
330
2
100
AcDbEntity
  8
GAIKEI
  6
Continuous
 62
     1
370
    25
100
AcDbLine
 10
-32.09238265421232
 20
33.74068463406314
 30
0.0
 11
-32.09238265421232
 21
33.27827352387368
 31
0.0
  0
LINE
  5
4B7
330
2
100
AcDbEntity
  8
GAIKEI
  6
Continuous
 62
     1
370
    25
100
AcDbLine
 10
-33.09238730843757
 20
33.27827352387368
 30
0.0
 11
-33.36871025134068
 21
33.27827352387368
 31
0.0
  0
LINE
  5
4B8
330
2
100
AcDbEntity
  8
GAIKEI
  6
Continuous
 62
     1
370
    25
100
AcDbLine
 10
-33.36871025134068
 20
33.70878635351068
 30
0.0
 11
-33.36871025134068
 21
33.27827352387368
 31
0.0
  0
LINE
  5
4B9
330
2
100
AcDbEntity
  8
GAIKEI
  6
Continuous
 62
     1
370
    25
100
AcDbLine
 10
-33.09238730843757
 20
33.70878635351068
 30
0.0
 11
-33.09238730843757
 21
33.27827352387368
 31
0.0
  0
LINE
  5
4BA
330
2
100
AcDbEntity
  8
GAIKEI
  6
Continuous
 62
     1
370
    25
100
AcDbLine
 10
-32.59238002663705
 20
33.27827352387368
 30
0.0
 11
-32.86871287891597
 21
33.27827352387368
 31
0.0
  0
LINE
  5
4BB
330
2
100
AcDbEntity
  8
GAIKEI
  6
Continuous
 62
     1
370
    25
100
AcDbLine
 10
-32.86871287891597
 20
33.70878635351068
 30
0.0
 11
-32.86871287891597
 21
33.27827352387368
 31
0.0
  0
LINE
  5
4BC
330
2
100
AcDbEntity
  8
GAIKEI
  6
Continuous
 62
     1
370
    25
100
AcDbLine
 10
-32.59238002663705
 20
33.70878635351068
 30
0.0
 11
-32.59238002663705
 21
33.27827352387368
 31
0.0
  0
LINE
  5
4BD
330
2
100
AcDbEntity
  8
GAIKEI
  6
Continuous
 62
     1
370
    25
100
AcDbLine
 10
-39.56878865441593
 20
3.752644355101779
 30
0.0
 11
-40.05676595405094
 21
3.671387473918173
 31
0.0
  0
LINE
  5
4BE
330
2
100
AcDbEntity
  8
GAIKEI
  6
Continuous
 62
     1
370
    25
100
AcDbLine
 10
-40.05676595405094
 20
3.671387473918173
 30
0.0
 11
-40.10682812036066
 21
3.671387473918173
 31
0.0
  0
LINE
  5
4BF
330
2
100
AcDbEntity
  8
GAIKEI
  6
Continuous
 62
     1
370
    25
100
AcDbLine
 10
-39.82771073349486
 20
4.170349316576619
 30
0.0
 11
-39.8777728998046
 21
4.170349316576619
 31
0.0
  0
LINE
  5
4C0
330
2
100
AcDbEntity
  8
GAIKEI
  6
Continuous
 62
     1
370
    25
100
AcDbLine
 10
-39.56878865441593
 20
4.12723362267053
 30
0.0
 11
-39.82771073349486
 21
4.170349316576619
 31
0.0
  0
LINE
  5
4C1
330
2
100
AcDbEntity
  8
GAIKEI
  6
Continuous
 62
     1
370
    25
100
AcDbLine
 10
-39.78153304248073
 20
7.378380895082443
 30
0.0
 11
-39.82771073349486
 21
7.370691219497246
 31
0.0
  0
LINE
  5
4C2
330
2
100
AcDbEntity
  8
GAIKEI
  6
Continuous
 62
     1
370
    25
100
AcDbLine
 10
-39.77634052958561
 20
7.478376405817073
 30
0.0
 11
-39.77634052958561
 21
10.37138892909996
 31
0.0
  0
LINE
  5
4C3
330
2
100
AcDbEntity
  8
GAIKEI
  6
Continuous
 62
     1
370
    25
100
AcDbLine
 10
-39.56878865441593
 20
10.50508127208644
 30
0.0
 11
-39.7711381073147
 21
10.47138939452247
 31
0.0
  0
LINE
  5
4C4
330
2
100
AcDbEntity
  8
GAIKEI
  6
Continuous
 62
     1
370
    25
100
AcDbLine
 10
-39.7711381073147
 20
10.47138939452247
 30
0.0
 11
-39.82121018300018
 21
10.47138939452247
 31
0.0
  0
LINE
  5
4C5
330
2
100
AcDbEntity
  8
GAIKEI
  6
Continuous
 62
     1
370
    25
100
AcDbLine
 10
-39.82121018300018
 20
10.47138939452247
 30
0.0
 11
-39.6265702244381
 21
10.50379800792632
 31
0.0
  0
LINE
  5
4C6
330
2
100
AcDbEntity
  8
GAIKEI
  6
Continuous
 62
     1
370
    25
100
AcDbLine
 10
-39.82640269589533
 20
10.37138892909996
 30
0.0
 11
-39.82640269589533
 21
7.478376405817073
 31
0.0
  0
LINE
  5
4C7
330
2
100
AcDbEntity
  8
GAIKEI
  6
Continuous
 62
     1
370
    25
100
AcDbLine
 10
-39.83160511816624
 20
7.378380895082443
 30
0.0
 11
-39.8777728998046
 21
7.370691219497246
 31
0.0
  0
LINE
  5
4C8
330
2
100
AcDbEntity
  8
GAIKEI
  6
Continuous
 62
     1
370
    25
100
AcDbLine
 10
-39.87881338425876
 20
7.350699053913331
 30
0.0
 11
-39.87881338425876
 21
4.190346436848358
 31
0.0
  0
LINE
  5
4C9
330
2
100
AcDbEntity
  8
GAIKEI
  6
Continuous
 62
     1
370
    25
100
AcDbLine
 10
-39.8777728998046
 20
4.170349316576619
 30
0.0
 11
-39.6265702244381
 21
4.128516886830652
 31
0.0
  0
LINE
  5
4CA
330
2
100
AcDbEntity
  8
GAIKEI
  6
Continuous
 62
     1
370
    25
100
AcDbLine
 10
-40.10682812036066
 20
3.671387473918173
 30
0.0
 11
-39.6265702244381
 21
3.751356136253775
 31
0.0
  0
LINE
  5
4CB
330
2
100
AcDbEntity
  8
GAIKEI
  6
Continuous
 62
     1
370
    25
100
AcDbLine
 10
-40.11203054263157
 20
3.571387008495662
 30
0.0
 11
-40.11203054263157
 21
-8.379479506043139
 31
0.0
  0
LINE
  5
4CC
330
2
100
AcDbEntity
  8
GAIKEI
  6
Continuous
 62
     1
370
    25
100
AcDbLine
 10
-40.11203054263157
 20
-8.379479506043139
 30
0.0
 11
-39.6265702244381
 21
-8.460314433677922
 31
0.0
  0
LINE
  5
4CD
330
2
100
AcDbEntity
  8
GAIKEI
  6
Continuous
 62
     1
370
    25
100
AcDbLine
 10
-39.6265702244381
 20
-10.79670694605465
 30
0.0
 11
-40.2430523088523
 21
-11.10473493668303
 31
0.0
  0
LINE
  5
4CE
330
2
100
AcDbEntity
  8
GAIKEI
  6
Continuous
 62
     1
370
    25
100
AcDbLine
 10
-39.6265702244381
 20
32.90438286729563
 30
0.0
 11
-40.2430523088523
 21
33.52086495170989
 31
0.0
  0
LINE
  5
4CF
330
2
100
AcDbEntity
  8
GAIKEI
  6
Continuous
370
    25
100
AcDbLine
 10
-39.53160867658653
 20
-11.35447597912576
 30
0.0
 11
-39.99304866795205
 21
-11.35447597912576
 31
0.0
  0
LINE
  5
4D0
330
2
100
AcDbEntity
  8
GAIKEI
  6
Continuous
 62
     7
370
    25
100
AcDbLine
 10
-40.2430523088523
 20
33.52086495170989
 30
0.0
 11
-40.2430523088523
 21
-11.10473493668303
 31
0.0
  0
LINE
  5
4D1
330
2
100
AcDbEntity
  8
GAIKEI
  6
Continuous
370
    25
100
AcDbLine
 10
-7.479419765001267
 20
33.77052176445869
 30
0.0
 11
-39.9933855867277
 21
33.77052176445869
 31
0.0
  0
LINE
  5
4D2
330
2
100
AcDbEntity
  8
GAIKEI
  6
Continuous
 62
     1
370
    25
100
AcDbLine
 10
-14.29371100544301
 20
33.74068463406314
 30
0.0
 11
-14.29371100544301
 21
33.27827352387368
 31
0.0
  0
LINE
  5
4D3
330
2
100
AcDbEntity
  8
GAIKEI
  6
Continuous
 62
     1
370
    25
100
AcDbLine
 10
-14.01737815316411
 20
33.74068463406314
 30
0.0
 11
-14.01737815316411
 21
33.27827352387368
 31
0.0
  0
LINE
  5
4D4
330
2
100
AcDbEntity
  8
GAIKEI
  6
Continuous
 62
     1
370
    25
100
AcDbLine
 10
-14.01737815316411
 20
33.27827352387368
 30
0.0
 11
-14.29371100544301
 21
33.27827352387368
 31
0.0
  0
LINE
  5
4D5
330
2
100
AcDbEntity
  8
GAIKEI
  6
Continuous
 62
     1
370
    25
100
AcDbLine
 10
-13.79371363301828
 20
33.74068463406314
 30
0.0
 11
-13.79371363301828
 21
33.27827352387368
 31
0.0
  0
LINE
  5
4D6
330
2
100
AcDbEntity
  8
GAIKEI
  6
Continuous
 62
     1
370
    25
100
AcDbLine
 10
-13.51738078073938
 20
33.74068463406314
 30
0.0
 11
-13.51738078073938
 21
33.27827352387368
 31
0.0
  0
LINE
  5
4D7
330
2
100
AcDbEntity
  8
GAIKEI
  6
Continuous
 62
     1
370
    25
100
AcDbLine
 10
-13.51738078073938
 20
33.27827352387368
 30
0.0
 11
-13.79371363301828
 21
33.27827352387368
 31
0.0
  0
LINE
  5
4D8
330
2
100
AcDbEntity
  8
GAIKEI
  6
Continuous
 62
     1
370
    25
100
AcDbLine
 10
-13.29371626059353
 20
33.74068463406314
 30
0.0
 11
-13.29371626059353
 21
33.27827352387368
 31
0.0
  0
LINE
  5
4D9
330
2
100
AcDbEntity
  8
GAIKEI
  6
Continuous
 62
     1
370
    25
100
AcDbLine
 10
-13.01738340831463
 20
33.74068463406314
 30
0.0
 11
-13.01738340831463
 21
33.27827352387368
 31
0.0
  0
LINE
  5
4DA
330
2
100
AcDbEntity
  8
GAIKEI
  6
Continuous
 62
     1
370
    25
100
AcDbLine
 10
-13.01738340831463
 20
33.27827352387368
 30
0.0
 11
-13.29371626059353
 21
33.27827352387368
 31
0.0
  0
LINE
  5
4DB
330
2
100
AcDbEntity
  8
GAIKEI
  6
Continuous
 62
     1
370
    25
100
AcDbLine
 10
-12.79370897879306
 20
33.74068463406314
 30
0.0
 11
-12.79370897879306
 21
33.27827352387368
 31
0.0
  0
LINE
  5
4DC
330
2
100
AcDbEntity
  8
GAIKEI
  6
Continuous
 62
     1
370
    25
100
AcDbLine
 10
-12.5173860358899
 20
33.74068463406314
 30
0.0
 11
-12.5173860358899
 21
33.27827352387368
 31
0.0
  0
LINE
  5
4DD
330
2
100
AcDbEntity
  8
GAIKEI
  6
Continuous
 62
     1
370
    25
100
AcDbLine
 10
-12.5173860358899
 20
33.27827352387368
 30
0.0
 11
-12.79370897879306
 21
33.27827352387368
 31
0.0
  0
LINE
  5
4DE
330
2
100
AcDbEntity
  8
GAIKEI
  6
Continuous
 62
     1
370
    25
100
AcDbLine
 10
-10.29371220729359
 20
33.74068463406314
 30
0.0
 11
-10.29371220729359
 21
33.27827352387368
 31
0.0
  0
LINE
  5
4DF
330
2
100
AcDbEntity
  8
GAIKEI
  6
Continuous
 62
     1
370
    25
100
AcDbLine
 10
-10.01737935501469
 20
33.74068463406314
 30
0.0
 11
-10.01737935501469
 21
33.27827352387368
 31
0.0
  0
LINE
  5
4E0
330
2
100
AcDbEntity
  8
GAIKEI
  6
Continuous
 62
     1
370
    25
100
AcDbLine
 10
-10.01737935501469
 20
33.27827352387368
 30
0.0
 11
-10.29371220729359
 21
33.27827352387368
 31
0.0
  0
LINE
  5
4E1
330
2
100
AcDbEntity
  8
GAIKEI
  6
Continuous
 62
     1
370
    25
100
AcDbLine
 10
-9.793714834868836
 20
33.74068463406314
 30
0.0
 11
-9.793714834868836
 21
33.27827352387368
 31
0.0
  0
LINE
  5
4E2
330
2
100
AcDbEntity
  8
GAIKEI
  6
Continuous
 62
     1
370
    25
100
AcDbLine
 10
-9.517381982589938
 20
33.74068463406314
 30
0.0
 11
-9.517381982589938
 21
33.27827352387368
 31
0.0
  0
LINE
  5
4E3
330
2
100
AcDbEntity
  8
GAIKEI
  6
Continuous
 62
     1
370
    25
100
AcDbLine
 10
-9.517381982589938
 20
33.27827352387368
 30
0.0
 11
-9.793714834868836
 21
33.27827352387368
 31
0.0
  0
LINE
  5
4E4
330
2
100
AcDbEntity
  8
GAIKEI
  6
Continuous
 62
     1
370
    25
100
AcDbLine
 10
-9.293717462444107
 20
33.74068463406314
 30
0.0
 11
-9.293717462444107
 21
33.27827352387368
 31
0.0
  0
LINE
  5
4E5
330
2
100
AcDbEntity
  8
GAIKEI
  6
Continuous
 62
     1
370
    25
100
AcDbLine
 10
-9.017384610165208
 20
33.74068463406314
 30
0.0
 11
-9.017384610165208
 21
33.27827352387368
 31
0.0
  0
LINE
  5
4E6
330
2
100
AcDbEntity
  8
GAIKEI
  6
Continuous
 62
     1
370
    25
100
AcDbLine
 10
-9.017384610165208
 20
33.27827352387368
 30
0.0
 11
-9.293717462444107
 21
33.27827352387368
 31
0.0
  0
LINE
  5
4E7
330
2
100
AcDbEntity
  8
GAIKEI
  6
Continuous
 62
     1
370
    25
100
AcDbLine
 10
-8.793710180643614
 20
33.74068463406314
 30
0.0
 11
-8.793710180643614
 21
33.27827352387368
 31
0.0
  0
LINE
  5
4E8
330
2
100
AcDbEntity
  8
GAIKEI
  6
Continuous
 62
     1
370
    25
100
AcDbLine
 10
-8.517387237740479
 20
33.74068463406314
 30
0.0
 11
-8.517387237740479
 21
33.27827352387368
 31
0.0
  0
LINE
  5
4E9
330
2
100
AcDbEntity
  8
GAIKEI
  6
Continuous
 62
     1
370
    25
100
AcDbLine
 10
-8.517387237740479
 20
33.27827352387368
 30
0.0
 11
-8.793710180643614
 21
33.27827352387368
 31
0.0
  0
LINE
  5
4EA
330
2
100
AcDbEntity
  8
GAIKEI
  6
Continuous
 62
     1
370
    25
100
AcDbLine
 10
-8.293712808218884
 20
33.74068463406314
 30
0.0
 11
-8.293712808218884
 21
33.27827352387368
 31
0.0
  0
LINE
  5
4EB
330
2
100
AcDbEntity
  8
GAIKEI
  6
Continuous
 62
     1
370
    25
100
AcDbLine
 10
-8.017379955939958
 20
33.74068463406314
 30
0.0
 11
-8.017379955939958
 21
33.27827352387368
 31
0.0
  0
LINE
  5
4EC
330
2
100
AcDbEntity
  8
GAIKEI
  6
Continuous
 62
     1
370
    25
100
AcDbLine
 10
-8.017379955939958
 20
33.27827352387368
 30
0.0
 11
-8.293712808218884
 21
33.27827352387368
 31
0.0
  0
LINE
  5
4ED
330
2
100
AcDbEntity
  8
GAIKEI
  6
Continuous
 62
     1
370
    25
100
AcDbLine
 10
-10.51738663681519
 20
33.27827352387368
 30
0.0
 11
-10.79370957971832
 21
33.27827352387368
 31
0.0
  0
LINE
  5
4EE
330
2
100
AcDbEntity
  8
GAIKEI
  6
Continuous
 62
     1
370
    25
100
AcDbLine
 10
-10.79370957971832
 20
33.70878635351068
 30
0.0
 11
-10.79370957971832
 21
33.27827352387368
 31
0.0
  0
LINE
  5
4EF
330
2
100
AcDbEntity
  8
GAIKEI
  6
Continuous
 62
     1
370
    25
100
AcDbLine
 10
-10.51738663681519
 20
33.74068463406314
 30
0.0
 11
-10.51738663681519
 21
33.27827352387368
 31
0.0
  0
LINE
  5
4F0
330
2
100
AcDbEntity
  8
GAIKEI
  6
Continuous
 62
     1
370
    25
100
AcDbLine
 10
-12.0173787540894
 20
33.27827352387368
 30
0.0
 11
-12.2937116063683
 21
33.27827352387368
 31
0.0
  0
LINE
  5
4F1
330
2
100
AcDbEntity
  8
GAIKEI
  6
Continuous
 62
     1
370
    25
100
AcDbLine
 10
-12.2937116063683
 20
33.74068463406314
 30
0.0
 11
-12.2937116063683
 21
33.27827352387368
 31
0.0
  0
LINE
  5
4F2
330
2
100
AcDbEntity
  8
GAIKEI
  6
Continuous
 62
     1
370
    25
100
AcDbLine
 10
-12.0173787540894
 20
33.70878635351068
 30
0.0
 11
-12.0173787540894
 21
33.27827352387368
 31
0.0
  0
LINE
  5
4F3
330
2
100
AcDbEntity
  8
GAIKEI
  6
Continuous
 62
     1
370
    25
100
AcDbLine
 10
-11.29371686151881
 20
33.70878635351068
 30
0.0
 11
-11.29371686151881
 21
33.27827352387368
 31
0.0
  0
LINE
  5
4F4
330
2
100
AcDbEntity
  8
GAIKEI
  6
Continuous
 62
     1
370
    25
100
AcDbLine
 10
-11.01738400923992
 20
33.70878635351068
 30
0.0
 11
-11.01738400923992
 21
33.27827352387368
 31
0.0
  0
LINE
  5
4F5
330
2
100
AcDbEntity
  8
GAIKEI
  6
Continuous
 62
     1
370
    25
100
AcDbLine
 10
-11.01738400923992
 20
33.27827352387368
 30
0.0
 11
-11.29371686151881
 21
33.27827352387368
 31
0.0
  0
LINE
  5
4F6
330
2
100
AcDbEntity
  8
GAIKEI
  6
Continuous
 62
     1
370
    25
100
AcDbLine
 10
-11.79371423394357
 20
33.70878635351068
 30
0.0
 11
-11.79371423394357
 21
33.27827352387368
 31
0.0
  0
LINE
  5
4F7
330
2
100
AcDbEntity
  8
GAIKEI
  6
Continuous
 62
     1
370
    25
100
AcDbLine
 10
-11.51738138166465
 20
33.70878635351068
 30
0.0
 11
-11.51738138166465
 21
33.27827352387368
 31
0.0
  0
LINE
  5
4F8
330
2
100
AcDbEntity
  8
GAIKEI
  6
Continuous
 62
     1
370
    25
100
AcDbLine
 10
-11.51738138166465
 20
33.27827352387368
 30
0.0
 11
-11.79371423394357
 21
33.27827352387368
 31
0.0
  0
LINE
  5
4F9
330
2
100
AcDbEntity
  8
GAIKEI
  6
Continuous
 62
     1
370
    25
100
AcDbLine
 10
-5.389354049697516
 20
-10.30639103374165
 30
0.0
 11
-5.342324152368547
 21
-10.30639103374165
 31
0.0
  0
LINE
  5
4FA
330
2
100
AcDbEntity
  8
GAIKEI
  6
Continuous
 62
     1
370
    25
100
AcDbLine
 10
-5.3894035965763
 20
-10.31010704964944
 30
0.0
 11
-5.3423935179988
 21
-10.31134572161869
 31
0.0
  0
LINE
  5
4FB
330
2
100
AcDbEntity
  8
GAIKEI
  6
Continuous
 62
     1
370
    25
100
AcDbLine
 10
-5.3894035965763
 20
-10.31010704964944
 30
0.0
 11
-5.389354049697516
 21
-10.30639103374165
 31
0.0
  0
LINE
  5
4FC
330
2
100
AcDbEntity
  8
GAIKEI
  6
Continuous
 62
     1
370
    25
100
AcDbLine
 10
-5.389354049697516
 20
32.36401469804872
 30
0.0
 11
-5.389542327836863
 21
32.37144672986426
 31
0.0
  0
LINE
  5
4FD
330
2
100
AcDbEntity
  8
GAIKEI
  6
Continuous
 62
     1
370
    25
100
AcDbLine
 10
-5.389354049697516
 20
32.36401469804872
 30
0.0
 11
-5.342324152368547
 21
32.36401469804872
 31
0.0
  0
LINE
  5
4FE
330
2
100
AcDbEntity
  8
GAIKEI
  6
Continuous
 62
     1
370
    25
100
AcDbLine
 10
-5.389542327836863
 20
32.37144672986426
 30
0.0
 11
-5.342581796138148
 21
32.37392407380281
 31
0.0
  0
LINE
  5
4FF
330
2
100
AcDbEntity
  8
GAIKEI
  6
Continuous
 62
     1
370
    25
100
AcDbLine
 10
-39.37691341168923
 20
32.90438286729563
 30
0.0
 11
-39.37691341168923
 21
33.15403968004449
 31
0.0
  0
LINE
  5
500
330
2
100
AcDbEntity
  8
GAIKEI
  6
Continuous
 62
     1
370
    25
100
AcDbLine
 10
-5.009180848891389
 20
33.15403968004449
 30
0.0
 11
-39.37691341168923
 21
33.15403968004449
 31
0.0
  0
LINE
  5
501
330
2
100
AcDbEntity
  8
GAIKEI
  6
Continuous
 62
     1
370
    25
100
AcDbLine
 10
-4.759524036142522
 20
32.90438286729563
 30
0.0
 11
-4.759524036142522
 21
-10.79670694605465
 31
0.0
  0
LINE
  5
502
330
2
100
AcDbEntity
  8
GAIKEI
  6
Continuous
 62
     1
370
    25
100
AcDbLine
 10
-5.009180848891389
 20
-10.79670694605465
 30
0.0
 11
-4.759524036142522
 21
-10.79670694605465
 31
0.0
  0
LINE
  5
503
330
2
100
AcDbEntity
  8
GAIKEI
  6
Continuous
 62
     1
370
    25
100
AcDbLine
 10
-5.009180848891389
 20
-10.79670694605465
 30
0.0
 11
-5.009180848891389
 21
-11.04662140257306
 31
0.0
  0
LINE
  5
504
330
2
100
AcDbEntity
  8
GAIKEI
  6
Continuous
 62
     1
370
    25
100
AcDbLine
 10
-39.37691341168923
 20
-11.04662140257306
 30
0.0
 11
-5.009180848891389
 21
-11.04662140257306
 31
0.0
  0
LINE
  5
505
330
2
100
AcDbEntity
  8
GAIKEI
  6
Continuous
 62
     1
370
    25
100
AcDbLine
 10
-39.37691341168923
 20
-10.79670694605465
 30
0.0
 11
-39.37691341168923
 21
-11.04662140257306
 31
0.0
  0
LINE
  5
506
330
2
100
AcDbEntity
  8
GAIKEI
  6
Continuous
 62
     1
370
    25
100
AcDbLine
 10
-39.37691341168923
 20
32.90438286729563
 30
0.0
 11
-39.6265702244381
 21
32.90438286729563
 31
0.0
  0
LINE
  5
507
330
2
100
AcDbEntity
  8
GAIKEI
  6
Continuous
 62
     1
370
    25
100
AcDbLine
 10
-39.37691341168923
 20
-10.79670694605465
 30
0.0
 11
-39.6265702244381
 21
-10.79670694605465
 31
0.0
  0
LINE
  5
508
330
2
100
AcDbEntity
  8
GAIKEI
  6
Continuous
 62
     1
370
    25
100
AcDbLine
 10
-39.6265702244381
 20
-10.79670694605465
 30
0.0
 11
-39.6265702244381
 21
-8.460314433677922
 31
0.0
  0
LINE
  5
509
330
2
100
AcDbEntity
  8
GAIKEI
  6
Continuous
 62
     1
370
    25
100
AcDbLine
 10
-39.56878865441593
 20
-8.461602652525925
 30
0.0
 11
-39.56878865441593
 21
3.752644355101779
 31
0.0
  0
LINE
  5
50A
330
2
100
AcDbEntity
  8
GAIKEI
  6
Continuous
 62
     1
370
    25
100
AcDbLine
 10
-39.6265702244381
 20
3.751356136253775
 30
0.0
 11
-39.6265702244381
 21
4.128516886830652
 31
0.0
  0
LINE
  5
50B
330
2
100
AcDbEntity
  8
GAIKEI
  6
Continuous
 62
     1
370
    25
100
AcDbLine
 10
-39.56878865441593
 20
4.12723362267053
 30
0.0
 11
-39.56878865441593
 21
10.50508127208644
 31
0.0
  0
LINE
  5
50C
330
2
100
AcDbEntity
  8
GAIKEI
  6
Continuous
 62
     1
370
    25
100
AcDbLine
 10
-39.6265702244381
 20
10.50379800792632
 30
0.0
 11
-39.6265702244381
 21
32.90438286729563
 31
0.0
  0
LINE
  5
50D
330
2
100
AcDbEntity
  8
GAIKEI
  6
Continuous
 62
     1
370
    25
100
AcDbLine
 10
-5.3423935179988
 20
-10.31134572161869
 30
0.0
 11
-5.342324152368547
 21
-10.30639103374165
 31
0.0
  0
LINE
  5
50E
330
2
100
AcDbEntity
  8
GAIKEI
  6
Continuous
 62
     1
370
    25
100
AcDbLine
 10
-5.342324152368547
 20
-10.30639103374165
 30
0.0
 11
-5.055546818044831
 21
-10.44968556183386
 31
0.0
  0
LINE
  5
50F
330
2
100
AcDbEntity
  8
GAIKEI
  6
Continuous
 62
     1
370
    25
100
AcDbLine
 10
-5.389354049697516
 20
-10.31010704964944
 30
0.0
 11
-12.46254755046669
 21
-10.29934051289262
 31
0.0
  0
LINE
  5
510
330
2
100
AcDbEntity
  8
GAIKEI
  6
Continuous
 62
     1
370
    25
100
AcDbLine
 10
-5.389542327836863
 20
32.37144672986426
 30
0.0
 11
-12.46254755046669
 21
32.3498938375991
 31
0.0
  0
LINE
  5
511
330
2
100
AcDbEntity
  8
GAIKEI
  6
Continuous
 62
     1
370
    25
100
AcDbLine
 10
-5.342324152368547
 20
32.36401469804872
 30
0.0
 11
-5.055546818044831
 21
32.65079203237241
 31
0.0
  0
LINE
  5
512
330
2
100
AcDbEntity
  8
GAIKEI
  6
Continuous
 62
     1
370
    25
100
AcDbLine
 10
-5.342324152368547
 20
32.36401469804872
 30
0.0
 11
-5.342581796138148
 21
32.37392407380281
 31
0.0
  0
LINE
  5
513
330
2
100
AcDbEntity
  8
GAIKEI
  6
Continuous
 62
     1
370
    25
100
AcDbLine
 10
-5.055546818044831
 20
-10.44968556183386
 30
0.0
 11
-5.055546818044831
 21
32.65079203237241
 31
0.0
  0
LINE
  5
514
330
2
100
AcDbEntity
  8
GAIKEI
  6
Continuous
 62
     1
370
    25
100
AcDbLine
 10
-5.009180848891389
 20
32.90438286729563
 30
0.0
 11
-39.37691341168923
 21
32.90438286729563
 31
0.0
  0
LINE
  5
515
330
2
100
AcDbEntity
  8
GAIKEI
  6
Continuous
 62
     1
370
    25
100
AcDbLine
 10
-5.009180848891389
 20
32.90438286729563
 30
0.0
 11
-5.009180848891389
 21
-10.79670694605465
 31
0.0
  0
LINE
  5
516
330
2
100
AcDbEntity
  8
GAIKEI
  6
Continuous
 62
     1
370
    25
100
AcDbLine
 10
-39.37691341168923
 20
-10.79670694605465
 30
0.0
 11
-5.009180848891389
 21
-10.79670694605465
 31
0.0
  0
LINE
  5
517
330
2
100
AcDbEntity
  8
GAIKEI
  6
Continuous
 62
     1
370
    25
100
AcDbLine
 10
-39.37691341168923
 20
-10.79670694605465
 30
0.0
 11
-39.37691341168923
 21
32.90438286729563
 31
0.0
  0
LINE
  5
518
330
2
100
AcDbEntity
  8
GAIKEI
  6
Continuous
 62
     1
370
    25
100
AcDbLine
 10
-13.66869694850453
 20
-10.29618933140278
 30
0.0
 11
-12.46518344441728
 21
-10.29802256591733
 31
0.0
  0
LINE
  5
519
330
2
100
AcDbEntity
  8
GAIKEI
  6
Continuous
 62
     1
370
    25
100
AcDbLine
 10
-13.66869694850453
 20
32.33368209886538
 30
0.0
 11
-13.66893477352261
 21
32.34360138399523
 31
0.0
  0
LINE
  5
51A
330
2
100
AcDbEntity
  8
GAIKEI
  6
Continuous
 62
     1
370
    25
100
AcDbLine
 10
-13.66893477352261
 20
32.34360138399523
 30
0.0
 11
-12.46518344441728
 21
32.34726785302428
 31
0.0
  0
LINE
  5
51B
330
2
100
AcDbEntity
  8
GAIKEI
  6
Continuous
 62
     1
370
    25
100
AcDbLine
 10
-13.66869694850453
 20
-10.29618933140278
 30
0.0
 11
-13.66869694850453
 21
-10.29123464352574
 31
0.0
  0
LINE
  5
51C
330
2
100
AcDbEntity
  8
GAIKEI
  6
Continuous
 62
     1
370
    25
100
AcDbLine
 10
-13.85905605674082
 20
-10.49584838878434
 30
0.0
 11
-12.45492724051181
 21
-10.49798881394724
 31
0.0
  0
LINE
  5
51D
330
2
100
AcDbEntity
  8
GAIKEI
  6
Continuous
 62
     1
370
    25
100
AcDbLine
 10
-13.85905605674082
 20
-10.49584838878434
 30
0.0
 11
-13.87385075474168
 21
-10.48845599447179
 31
0.0
  0
LINE
  5
51E
330
2
100
AcDbEntity
  8
GAIKEI
  6
Continuous
 62
     1
370
    25
100
AcDbLine
 10
-38.82369278208921
 20
-10.49616053412057
 30
0.0
 11
-39.13054651169077
 21
-10.64947839578803
 31
0.0
  0
LINE
  5
51F
330
2
100
AcDbEntity
  8
GAIKEI
  6
Continuous
 62
     1
370
    25
100
AcDbLine
 10
-39.13054651169077
 20
-10.64947839578803
 30
0.0
 11
-5.255547748889881
 21
-10.64947839578803
 31
0.0
  0
LINE
  5
520
330
2
100
AcDbEntity
  8
GAIKEI
  6
Continuous
 62
     1
370
    25
100
AcDbLine
 10
-5.535031782658563
 20
-10.50983547266122
 30
0.0
 11
-5.255547748889881
 21
-10.64947839578803
 31
0.0
  0
LINE
  5
521
330
2
100
AcDbEntity
  8
GAIKEI
  6
Continuous
 62
     1
370
    25
100
AcDbLine
 10
-5.535031782658563
 20
-10.50983547266122
 30
0.0
 11
-12.45229134656119
 21
-10.49930180623465
 31
0.0
  0
LINE
  5
522
330
2
100
AcDbEntity
  8
GAIKEI
  6
Continuous
 62
     1
370
    25
100
AcDbLine
 10
-39.0234261597889
 20
32.34367074962552
 30
0.0
 11
-39.33054744253579
 21
32.65079203237241
 31
0.0
  0
LINE
  5
523
330
2
100
AcDbEntity
  8
GAIKEI
  6
Continuous
 62
     1
370
    25
100
AcDbLine
 10
-39.0234261597889
 20
-10.29622401421795
 30
0.0
 11
-39.33054744253579
 21
-10.44968556183386
 31
0.0
  0
LINE
  5
524
330
2
100
AcDbEntity
  8
GAIKEI
  6
Continuous
 62
     1
370
    25
100
AcDbLine
 10
-39.33054744253579
 20
-10.44968556183386
 30
0.0
 11
-39.33054744253579
 21
32.65079203237241
 31
0.0
  0
LINE
  5
525
330
2
100
AcDbEntity
  8
GAIKEI
  6
Continuous
 62
     1
370
    25
100
AcDbLine
 10
-5.535031782658563
 20
32.57076391378229
 30
0.0
 11
-12.45256880908232
 21
32.54968667155333
 31
0.0
  0
LINE
  5
526
330
2
100
AcDbEntity
  8
GAIKEI
  6
Continuous
 62
     1
370
    25
100
AcDbLine
 10
-39.13082397421187
 20
32.85052541007213
 30
0.0
 11
-5.255270286368755
 21
32.85052541007213
 31
0.0
  0
LINE
  5
527
330
2
100
AcDbEntity
  8
GAIKEI
  6
Continuous
 62
     1
370
    25
100
AcDbLine
 10
-38.82369278208921
 20
32.54339421794947
 30
0.0
 11
-39.13082397421187
 21
32.85052541007213
 31
0.0
  0
LINE
  5
528
330
2
100
AcDbEntity
  8
GAIKEI
  6
Continuous
 62
     1
370
    25
100
AcDbLine
 10
-13.85905605674082
 20
32.5427798366527
 30
0.0
 11
-13.87385075474168
 21
32.52798513865184
 31
0.0
  0
LINE
  5
529
330
2
100
AcDbEntity
  8
GAIKEI
  6
Continuous
 62
     1
370
    25
100
AcDbLine
 10
-13.85905605674082
 20
32.5427798366527
 30
0.0
 11
-12.4552047030329
 21
32.54706068697846
 31
0.0
  0
LINE
  5
52A
330
2
100
AcDbEntity
  8
GAIKEI
  6
Continuous
 62
     1
370
    25
100
AcDbLine
 10
-13.66869694850453
 20
32.33368209886538
 30
0.0
 11
-13.67411737704202
 21
32.32826167032789
 31
0.0
  0
LINE
  5
52B
330
2
100
AcDbEntity
  8
GAIKEI
  6
Continuous
 62
     1
370
    25
100
AcDbLine
 10
-13.66869694850453
 20
-10.29123464352574
 30
0.0
 11
-13.67411737704202
 21
-10.28852442925699
 31
0.0
  0
LINE
  5
52C
330
2
100
AcDbEntity
  8
GAIKEI
  6
Continuous
 62
     1
370
    25
100
AcDbLine
 10
-39.0234261597889
 20
-10.29622401421795
 30
0.0
 11
-39.0234261597889
 21
32.34367074962552
 31
0.0
  0
LINE
  5
52D
330
2
100
AcDbEntity
  8
GAIKEI
  6
Continuous
 62
     1
370
    25
100
AcDbLine
 10
-13.67411737704202
 20
-10.28852442925699
 30
0.0
 11
-13.67411737704202
 21
32.32826167032789
 31
0.0
  0
LINE
  5
52E
330
2
100
AcDbEntity
  8
GAIKEI
  6
Continuous
 62
     1
370
    25
100
AcDbLine
 10
-38.77379907516732
 20
-10.29378135309457
 30
0.0
 11
-38.77379907516732
 21
32.33877551800299
 31
0.0
  0
LINE
  5
52F
330
2
100
AcDbEntity
  8
GAIKEI
  6
Continuous
 62
     1
370
    25
100
AcDbLine
 10
-13.93079993720053
 20
-10.28607185875785
 30
0.0
 11
-13.93079993720053
 21
32.32334661995384
 31
0.0
  0
LINE
  5
530
330
2
100
AcDbEntity
  8
GAIKEI
  6
Continuous
 62
     1
370
    25
100
AcDbLine
 10
-34.47233724782658
 20
12.74389662683501
 30
0.0
 11
-34.47233724782658
 21
5.917154255758248
 31
0.0
  0
LINE
  5
531
330
2
100
AcDbEntity
  8
GAIKEI
  6
Continuous
 62
     1
370
    25
100
AcDbLine
 10
-29.30784806730958
 20
5.897806199598392
 30
0.0
 11
-29.30784806730958
 21
12.76323972830704
 31
0.0
  0
LINE
  5
532
330
2
100
AcDbEntity
  8
GAIKEI
  6
Continuous
 62
     1
370
    25
100
AcDbLine
 10
-29.80041340791877
 20
12.78052167962221
 30
0.0
 11
-29.71818540791119
 21
12.86274967962976
 31
0.0
  0
LINE
  5
533
330
2
100
AcDbEntity
  8
GAIKEI
  6
Continuous
 62
     1
370
    25
100
AcDbLine
 10
-34.00068069005854
 20
12.78052167962221
 30
0.0
 11
-34.06445743241196
 21
12.84429842197562
 31
0.0
  0
LINE
  5
534
330
2
100
AcDbEntity
  8
GAIKEI
  6
Continuous
 62
     1
370
    25
100
AcDbLine
 10
-34.16377910559535
 20
12.74389662683501
 30
0.0
 11
-34.16377910559535
 21
5.917154255758248
 31
0.0
  0
LINE
  5
535
330
2
100
AcDbEntity
  8
GAIKEI
  6
Continuous
 62
     1
370
    25
100
AcDbLine
 10
-34.10054737890841
 20
12.68065499077232
 30
0.0
 11
-34.16377910559535
 21
12.74389662683501
 31
0.0
  0
LINE
  5
536
330
2
100
AcDbEntity
  8
GAIKEI
  6
Continuous
 62
     1
370
    25
100
AcDbLine
 10
-34.10054737890841
 20
5.98038598244517
 30
0.0
 11
-34.16377910559535
 21
5.917154255758248
 31
0.0
  0
LINE
  5
537
330
2
100
AcDbEntity
  8
GAIKEI
  6
Continuous
 62
     1
370
    25
100
AcDbLine
 10
-34.00068069005854
 20
5.880519293595341
 30
0.0
 11
-34.06445743241196
 21
5.816752460617692
 31
0.0
  0
LINE
  5
538
330
2
100
AcDbEntity
  8
GAIKEI
  6
Continuous
 62
     1
370
    25
100
AcDbLine
 10
-29.80041340791877
 20
5.880519293595341
 30
0.0
 11
-29.71818540791119
 21
5.798291293587794
 31
0.0
  0
LINE
  5
539
330
2
100
AcDbEntity
  8
GAIKEI
  6
Continuous
 62
     1
370
    25
100
AcDbLine
 10
-29.61797189090999
 20
5.897806199598392
 30
0.0
 11
-29.61797189090999
 21
12.76323972830704
 31
0.0
  0
LINE
  5
53A
330
2
100
AcDbEntity
  8
GAIKEI
  6
Continuous
 62
     1
370
    25
100
AcDbLine
 10
-29.70054671906888
 20
5.98038598244517
 30
0.0
 11
-29.61797189090999
 21
5.897806199598392
 31
0.0
  0
LINE
  5
53B
330
2
100
AcDbEntity
  8
GAIKEI
  6
Continuous
 62
     1
370
    25
100
AcDbLine
 10
-29.70054671906888
 20
12.68065499077232
 30
0.0
 11
-29.61797189090999
 21
12.76323972830704
 31
0.0
  0
LINE
  5
53C
330
2
100
AcDbEntity
  8
GAIKEI
  6
Continuous
 62
     1
370
    25
100
AcDbLine
 10
-34.00068069005854
 20
12.78052167962221
 30
0.0
 11
-29.80041340791877
 21
12.78052167962221
 31
0.0
  0
LINE
  5
53D
330
2
100
AcDbEntity
  8
GAIKEI
  6
Continuous
 62
     1
370
    25
100
AcDbLine
 10
-34.10054737890841
 20
5.98038598244517
 30
0.0
 11
-34.10054737890841
 21
12.68065499077232
 31
0.0
  0
LINE
  5
53E
330
2
100
AcDbEntity
  8
GAIKEI
  6
Continuous
 62
     1
370
    25
100
AcDbLine
 10
-29.80041340791877
 20
5.880519293595341
 30
0.0
 11
-34.00068069005854
 21
5.880519293595341
 31
0.0
  0
LINE
  5
53F
330
2
100
AcDbEntity
  8
GAIKEI
  6
Continuous
 62
     1
370
    25
100
AcDbLine
 10
-29.70054671906888
 20
12.68065499077232
 30
0.0
 11
-29.70054671906888
 21
5.98038598244517
 31
0.0
  0
LINE
  5
540
330
2
100
AcDbEntity
  8
GAIKEI
  6
Continuous
370
    25
100
AcDbLine
 10
-4.143051861104083
 20
-11.10473493668303
 30
0.0
 11
-4.143051861104083
 21
33.52086495170989
 31
0.0
  0
LINE
  5
541
330
2
100
AcDbEntity
  8
GAIKEI
  6
Continuous
 62
     1
370
    25
100
AcDbLine
 10
-30.10057830888627
 20
6.080520224440363
 30
0.0
 11
-33.70051578909104
 21
6.080520224440363
 31
0.0
  0
LINE
  5
542
330
2
100
AcDbEntity
  8
GAIKEI
  6
Continuous
 62
     1
370
    25
100
AcDbLine
 10
-33.90051671993609
 20
6.280521155285441
 30
0.0
 11
-33.90051671993609
 21
12.38051981793211
 31
0.0
  0
LINE
  5
543
330
2
100
AcDbEntity
  8
GAIKEI
  6
Continuous
 62
     1
370
    25
100
AcDbLine
 10
-33.70051578909104
 20
12.58052074877713
 30
0.0
 11
-30.10057830888627
 21
12.58052074877713
 31
0.0
  0
LINE
  5
544
330
2
100
AcDbEntity
  8
GAIKEI
  6
Continuous
 62
     1
370
    25
100
AcDbLine
 10
-29.90058728741696
 20
12.38051981793211
 30
0.0
 11
-29.90058728741696
 21
6.280521155285441
 31
0.0
  0
LINE
  5
545
330
2
100
AcDbEntity
  8
GAIKEI
  6
Continuous
 62
     1
370
    25
100
AcDbLine
 10
-33.60052027835641
 20
12.48051532866674
 30
0.0
 11
-30.20058372899666
 21
12.48051532866674
 31
0.0
  0
LINE
  5
546
330
2
100
AcDbEntity
  8
GAIKEI
  6
Continuous
 62
     1
370
    25
100
AcDbLine
 10
-33.8005112998257
 20
6.380521620707952
 30
0.0
 11
-33.8005112998257
 21
12.28052430719748
 31
0.0
  0
LINE
  5
547
330
2
100
AcDbEntity
  8
GAIKEI
  6
Continuous
 62
     1
370
    25
100
AcDbLine
 10
-30.00058279815159
 20
12.28052430719748
 30
0.0
 11
-30.00058279815159
 21
6.380521620707952
 31
0.0
  0
LINE
  5
548
330
2
100
AcDbEntity
  8
GAIKEI
  6
Continuous
 62
     1
370
    25
100
AcDbLine
 10
-30.20058372899666
 20
6.18052068986293
 30
0.0
 11
-33.60052027835641
 21
6.18052068986293
 31
0.0
  0
LINE
  5
549
330
2
100
AcDbEntity
  8
GAIKEI
  6
Continuous
 62
     1
370
    25
100
AcDbLine
 10
-30.40052520358717
 20
7.880518692670023
 30
0.0
 11
-30.40052520358717
 21
9.880518091744761
 31
0.0
  0
LINE
  5
54A
330
2
100
AcDbEntity
  8
GAIKEI
  6
Continuous
 62
     1
370
    25
100
AcDbLine
 10
-31.90052723023715
 20
7.780518227247512
 30
0.0
 11
-30.50052071432185
 21
7.780518227247512
 31
0.0
  0
LINE
  5
54B
330
2
100
AcDbEntity
  8
GAIKEI
  6
Continuous
 62
     1
370
    25
100
AcDbLine
 10
-32.0005227409718
 20
9.880518091744761
 30
0.0
 11
-32.0005227409718
 21
7.880518692670023
 31
0.0
  0
LINE
  5
54C
330
2
100
AcDbEntity
  8
GAIKEI
  6
Continuous
 62
     1
370
    25
100
AcDbLine
 10
-30.50052071432185
 20
9.980518557167272
 30
0.0
 11
-31.90052723023715
 21
9.980518557167272
 31
0.0
  0
LINE
  5
54D
330
2
100
AcDbEntity
  8
GAIKEI
  6
Continuous
 62
     1
370
    25
100
AcDbLine
 10
-32.75055348242404
 20
9.980518557167272
 30
0.0
 11
-32.75055348242404
 21
9.480521184742542
 31
0.0
  0
LINE
  5
54E
330
2
100
AcDbEntity
  8
GAIKEI
  6
Continuous
 62
     1
370
    25
100
AcDbLine
 10
-30.45052791364236
 20
7.880518692670023
 30
0.0
 11
-30.45052791364236
 21
9.880518091744761
 31
0.0
  0
LINE
  5
54F
330
2
100
AcDbEntity
  8
GAIKEI
  6
Continuous
 62
     1
370
    25
100
AcDbLine
 10
-31.95052003091661
 20
9.880518091744761
 30
0.0
 11
-31.95052003091661
 21
7.880518692670023
 31
0.0
  0
LINE
  5
550
330
2
100
AcDbEntity
  8
GAIKEI
  6
Continuous
 62
     1
370
    25
100
AcDbLine
 10
-30.50052071432185
 20
9.930520801799957
 30
0.0
 11
-31.90052723023715
 21
9.930520801799957
 31
0.0
  0
LINE
  5
551
330
2
100
AcDbEntity
  8
GAIKEI
  6
Continuous
 62
     1
370
    25
100
AcDbLine
 10
-31.90052723023715
 20
7.830520937302708
 30
0.0
 11
-30.50052071432185
 21
7.830520937302708
 31
0.0
  0
LINE
  5
552
330
2
100
AcDbEntity
  8
GAIKEI
  6
Continuous
 62
     1
370
    25
100
AcDbLine
 10
-30.65052884448744
 20
8.030516913459905
 30
0.0
 11
-30.65052884448744
 21
9.730519870954935
 31
0.0
  0
LINE
  5
553
330
2
100
AcDbEntity
  8
GAIKEI
  6
Continuous
 62
     1
370
    25
100
AcDbLine
 10
-31.75052900944729
 20
9.730519870954935
 30
0.0
 11
-31.75052900944729
 21
8.030516913459905
 31
0.0
  0
LINE
  5
554
330
2
100
AcDbEntity
  8
GAIKEI
  6
Continuous
 62
     1
370
    25
100
AcDbLine
 10
-30.65052884448744
 20
9.730519870954935
 30
0.0
 11
-31.75052900944729
 21
9.730519870954935
 31
0.0
  0
LINE
  5
555
330
2
100
AcDbEntity
  8
GAIKEI
  6
Continuous
 62
     1
370
    25
100
AcDbLine
 10
-31.75052900944729
 20
8.030516913459905
 30
0.0
 11
-30.65052884448744
 21
8.030516913459905
 31
0.0
  0
LINE
  5
556
330
2
100
AcDbEntity
  8
GAIKEI
  6
Continuous
 62
     1
370
    25
100
AcDbLine
 10
-31.75052900944729
 20
9.442295767771099
 30
0.0
 11
-30.65052884448744
 21
9.442295767771099
 31
0.0
  0
LINE
  5
557
330
2
100
AcDbEntity
  8
GAIKEI
  6
Continuous
 62
     1
370
    25
100
AcDbLine
 10
-22.29577966127448
 20
-9.082900693556666
 30
0.0
 11
-22.37030807632109
 21
-9.008372278510023
 31
0.0
  0
LINE
  5
558
330
2
100
AcDbEntity
  8
GAIKEI
  6
Continuous
 62
     1
370
    25
100
AcDbLine
 10
-22.37030807632109
 20
-9.008372278510023
 30
0.0
 11
-22.27715003485679
 21
-8.915214237045745
 31
0.0
  0
LINE
  5
559
330
2
100
AcDbEntity
  8
GAIKEI
  6
Continuous
 62
     1
370
    25
100
AcDbLine
 10
-22.27715003485679
 20
-8.915214237045745
 30
0.0
 11
-22.20262161981017
 21
-8.989742652092331
 31
0.0
  0
LINE
  5
55A
330
2
100
AcDbEntity
  8
GAIKEI
  6
Continuous
 62
     1
370
    25
100
AcDbLine
 10
-22.20262161981017
 20
-9.269216776485279
 30
0.0
 11
-22.27715003485679
 21
-9.343740236843984
 31
0.0
  0
LINE
  5
55B
330
2
100
AcDbEntity
  8
GAIKEI
  6
Continuous
 62
     1
370
    25
100
AcDbLine
 10
-22.27715003485679
 20
-9.343740236843984
 30
0.0
 11
-22.37030807632109
 21
-9.250582195379706
 31
0.0
  0
LINE
  5
55C
330
2
100
AcDbEntity
  8
GAIKEI
  6
Continuous
 62
     1
370
    25
100
AcDbLine
 10
-22.37030807632109
 20
-9.250582195379706
 30
0.0
 11
-22.29577966127448
 21
-9.176058735020944
 31
0.0
  0
LINE
  5
55D
330
2
100
AcDbEntity
  8
GAIKEI
  6
Continuous
 62
     1
370
    25
100
AcDbLine
 10
-21.94177712183495
 20
-9.250582195379706
 30
0.0
 11
-22.03493516329925
 21
-9.343740236843984
 31
0.0
  0
LINE
  5
55E
330
2
100
AcDbEntity
  8
GAIKEI
  6
Continuous
 62
     1
370
    25
100
AcDbLine
 10
-22.03493516329925
 20
-9.343740236843984
 30
0.0
 11
-22.10946357834587
 21
-9.269216776485279
 31
0.0
  0
LINE
  5
55F
330
2
100
AcDbEntity
  8
GAIKEI
  6
Continuous
 62
     1
370
    25
100
AcDbLine
 10
-22.01630553688156
 20
-9.176058735020944
 30
0.0
 11
-21.94177712183495
 21
-9.250582195379706
 31
0.0
  0
LINE
  5
560
330
2
100
AcDbEntity
  8
GAIKEI
  6
Continuous
 62
     1
370
    25
100
AcDbLine
 10
-22.10946357834587
 20
-8.989742652092331
 30
0.0
 11
-22.03493516329925
 21
-8.915214237045745
 31
0.0
  0
LINE
  5
561
330
2
100
AcDbEntity
  8
GAIKEI
  6
Continuous
 62
     1
370
    25
100
AcDbLine
 10
-22.03493516329925
 20
-8.915214237045745
 30
0.0
 11
-21.94177712183495
 21
-9.008372278510023
 31
0.0
  0
LINE
  5
562
330
2
100
AcDbEntity
  8
GAIKEI
  6
Continuous
 62
     1
370
    25
100
AcDbLine
 10
-21.94177712183495
 20
-9.008372278510023
 30
0.0
 11
-22.01630553688156
 21
-9.082900693556666
 31
0.0
  0
LINE
  5
563
330
2
100
AcDbEntity
  8
GAIKEI
 62
     1
100
AcDbLine
 10
-32.59238002663705
 20
33.70878635351068
 30
0.0
 11
-32.36871550649124
 21
33.70878635351068
 31
0.0
  0
LINE
  5
564
330
2
100
AcDbEntity
  8
GAIKEI
 62
     1
100
AcDbLine
 10
-32.86871287891597
 20
33.70878635351068
 30
0.0
 11
-33.09238730843757
 21
33.70878635351068
 31
0.0
  0
LINE
  5
565
330
2
100
AcDbEntity
  8
GAIKEI
 62
     1
100
AcDbLine
 10
-33.36871025134068
 20
33.70878635351068
 30
0.0
 11
-33.5923846808623
 21
33.70878635351068
 31
0.0
  0
DIMENSION
  5
566
330
2
100
AcDbEntity
  8
SUNPO
100
AcDbDimension
  2
*D14
 10
-2.693051231899943
 20
-26.32947747554755
 30
0.0
 11
-22.19304713029031
 21
-24.57947747554755
 31
0.0
 70
    33
  1
約390
 71
     5
 42
38.99999179678074
  3
STANDARD
100
AcDbAlignedDimension
 13
-41.69304302868067
 23
-18.32947747554755
 33
0.0
 14
-2.693051231899943
 24
-18.32947747554755
 34
0.0
1001
ACAD
1000
DSTYLE
1002
{
1070
    40
1040
1.0
1070
   140
1040
2.5
1070
   147
1040
0.5
1070
   172
1070
     1
1070
   279
1070
     0
1070
   288
1070
     0
1002
}
  0
DIMENSION
  5
574
330
2
100
AcDbEntity
  8
SUNPO
100
AcDbDimension
  2
*D13
 10
5.349448768100046
 20
33.77052176445869
 30
0.0
 11
3.599448768100039
 21
7.720522144455571
 31
0.0
 70
    33
  1
約520
 71
     5
 42
52.09999924000624
  3
STANDARD
100
AcDbAlignedDimension
 13
-2.650551231899953
 23
-18.32947747554755
 33
0.0
 14
-2.650551231899953
 24
33.77052176445869
 34
0.0
1001
ACAD
1000
DSTYLE
1002
{
1070
    40
1040
1.0
1070
   140
1040
2.5
1070
   147
1040
0.5
1070
   172
1070
     1
1070
   279
1070
     0
1070
   288
1070
     0
1002
}
  0
DIMENSION
  5
581
330
2
100
AcDbEntity
  8
SUNPO
100
AcDbDimension
  2
*D12
 10
47.20966345107615
 20
-26.32947747554749
 30
0.0
 11
34.25966345107615
 21
-24.57947747554749
 31
0.0
 70
    33
  1
約259
 71
     5
 42
25.90000000000001
  3
STANDARD
100
AcDbAlignedDimension
 13
21.30966345107615
 23
-18.32947747554749
 33
0.0
 14
47.20966345107615
 24
-18.32947747554749
 34
0.0
1001
ACAD
1000
DSTYLE
1002
{
1070
    40
1040
1.0
1070
   140
1040
2.5
1070
   147
1040
0.5
1070
   172
1070
     1
1070
   279
1070
     0
1070
   288
1070
     0
1002
}
  0
DIMENSION
  5
58E
330
2
100
AcDbEntity
  8
SUNPO
100
AcDbDimension
  2
*D11
 10
-4.143051861104054
 20
40.26317885098001
 30
0.0
 11
-22.19305208497818
 21
42.01317885098001
 31
0.0
 70
    33
  1
約361
 71
     5
 42
36.10000044774825
  3
STANDARD
100
AcDbAlignedDimension
 13
-40.2430523088523
 23
32.26317885097996
 33
0.0
 14
-4.143051861104055
 24
32.26317885098001
 34
0.0
1001
ACAD
1000
DSTYLE
1002
{
1070
    40
1040
1.0
1070
   140
1040
2.5
1070
   147
1040
0.5
1070
   172
1070
     1
1070
   279
1070
     0
1070
   288
1070
     0
1002
}
  0
DIMENSION
  5
59B
330
2
100
AcDbEntity
  8
SUNPO
100
AcDbDimension
  2
*D10
 10
44.00966613167423
 20
40.26317885098001
 30
0.0
 11
32.65966870547257
 21
42.01317885098001
 31
0.0
 70
    33
  1
約227
 71
     5
 42
22.69999485240334
  3
STANDARD
100
AcDbAlignedDimension
 13
21.3096712792709
 23
32.26317885097996
 33
0.0
 14
44.00966613167423
 24
32.26317885098001
 34
0.0
1001
ACAD
1000
DSTYLE
1002
{
1070
    40
1040
1.0
1070
   140
1040
2.5
1070
   147
1040
0.5
1070
   172
1070
     1
1070
   279
1070
     0
1070
   288
1070
     0
1002
}
  0
DIMENSION
  5
5A8
330
2
100
AcDbEntity
  8
SUNPO
100
AcDbDimension
  2
*D9
 10
-48.22288171609753
 20
-11.32947823554133
 30
0.0
 11
-49.97288171609753
 21
11.22052176445867
 31
0.0
 70
    33
  1
約451
 71
     5
 42
45.10000000000002
  3
STANDARD
100
AcDbAlignedDimension
 13
-40.22288171609753
 23
33.77052176445869
 33
0.0
 14
-40.22288171609753
 24
-11.32947823554133
 34
0.0
1001
ACAD
1000
DSTYLE
1002
{
1070
    40
1040
1.0
1070
   140
1040
2.5
1070
   147
1040
0.5
1070
   172
1070
     1
1070
   279
1070
     0
1070
   288
1070
     0
1002
}
  0
DIMENSION
  5
5B5
330
2
100
AcDbEntity
  8
SUNPO
100
AcDbDimension
  2
*D8
 10
-48.22288171609753
 20
-18.32947747554755
 30
0.0
 11
-49.97288171609753
 21
-24.41281080888089
 31
0.0
 70
    33
  1
約69
 71
     5
 42
6.99999924000622
  3
STANDARD
100
AcDbAlignedDimension
 13
-40.22288171609753
 23
-11.32947823554133
 33
0.0
 14
-40.22288171609753
 24
-18.32947747554755
 34
0.0
1001
ACAD
1000
DSTYLE
1002
{
1070
    40
1040
1.0
1070
   140
1040
2.5
1070
   147
1040
0.5
1070
   172
1070
     1
1070
   279
1070
     0
1070
   288
1070
     0
1002
}
  0
LINE
  5
5C3
330
2
100
AcDbEntity
  8
WAKU
 62
     1
100
AcDbLine
 10
62.59905062969747
 20
-126.73682114902
 30
0.0
 11
-62.40094937030253
 21
-126.73682114902
 31
0.0
  0
LINE
  5
5C4
330
2
100
AcDbEntity
  8
WAKU
 62
     1
100
AcDbLine
 10
62.59905062969747
 20
-121.73682114902
 30
0.0
 11
-62.40094937030253
 21
-121.73682114902
 31
0.0
  0
LINE
  5
5C5
330
2
100
AcDbEntity
  8
WAKU
 62
     1
100
AcDbLine
 10
62.59905062969747
 20
-116.73682114902
 30
0.0
 11
-62.40094937030253
 21
-116.73682114902
 31
0.0
  0
LINE
  5
5C6
330
2
100
AcDbEntity
  8
WAKU
 62
     4
100
AcDbLine
 10
62.59905062969747
 20
-111.73682114902
 30
0.0
 11
-62.40094937030253
 21
-111.73682114902
 31
0.0
  0
TEXT
  5
5C7
330
2
100
AcDbEntity
  8
MOJI1
100
AcDbText
 10
-59.90094937030253
 20
-115.9868211490198
 30
0.0
 40
3.0
  1
ポート数
100
AcDbText
  0
TEXT
  5
5C8
330
2
100
AcDbEntity
  8
MOJI1
100
AcDbText
 10
-19.90094937030253
 20
-115.9868211490198
 30
0.0
 40
3.0
  1
１５２
100
AcDbText
  0
TEXT
  5
5C9
330
2
100
AcDbEntity
  8
MOJI1
100
AcDbText
 10
-59.90094937030253
 20
-120.9868211490198
 30
0.0
 40
3.0
  1
入力電源
100
AcDbText
  0
TEXT
  5
5CA
330
2
100
AcDbEntity
  8
MOJI1
100
AcDbText
 10
-19.90094937030253
 20
-120.9868211490198
 30
0.0
 40
3.0
  1
ＡＣ１００Ｖ、５０／６０Ｈｚ
100
AcDbText
  0
TEXT
  5
5CB
330
2
100
AcDbEntity
  8
MOJI1
100
AcDbText
 10
-59.90094937030253
 20
-125.9868211490198
 30
0.0
 40
3.0
  1
制御方式
100
AcDbText
  0
TEXT
  5
5CC
330
2
100
AcDbEntity
  8
MOJI1
100
AcDbText
 10
-19.90094937030253
 20
-125.9868211490198
 30
0.0
 40
3.0
  1
蓄積プログラム方式
100
AcDbText
  0
TEXT
  5
5CD
330
2
100
AcDbEntity
  8
MOJI1
100
AcDbText
 10
-59.90094937030253
 20
-130.9868211490198
 30
0.0
 40
3.0
  1
制御ＣＰＵ
100
AcDbText
  0
TEXT
  5
5CE
330
2
100
AcDbEntity
  8
MOJI1
100
AcDbText
 10
-19.90094937030253
 20
-130.9868211490198
 30
0.0
 40
3.0
  1
１６ｂｉｔ
100
AcDbText
  0
TEXT
  5
5CF
330
2
100
AcDbEntity
  8
MOJI1
100
AcDbText
 10
-59.90094937030253
 20
-135.9868211490198
 30
0.0
 40
3.0
  1
通話方式
100
AcDbText
  0
TEXT
  5
5D0
330
2
100
AcDbEntity
  8
MOJI1
100
AcDbText
 10
-19.90094937030253
 20
-135.9868211490198
 30
0.0
 40
3.0
  1
時分割ＰＣＭ方式
100
AcDbText
  0
TEXT
  5
5D1
330
2
100
AcDbEntity
  8
MOJI1
100
AcDbText
 10
-59.90094937030253
 20
-140.9868211490199
 30
0.0
 40
3.0
  1
消費電力
100
AcDbText
  0
TEXT
  5
5D2
330
2
100
AcDbEntity
  8
MOJI1
100
AcDbText
 10
-19.90094937030253
 20
-140.9868211490199
 30
0.0
 40
3.0
  1
約２５４Ｗ
100
AcDbText
  0
TEXT
  5
5D3
330
2
100
AcDbEntity
  8
MOJI1
100
AcDbText
 10
-59.90094937030253
 20
-145.9868211490199
 30
0.0
 40
3.0
  1
寸　法
100
AcDbText
  0
TEXT
  5
5D4
330
2
100
AcDbEntity
  8
MOJI1
100
AcDbText
 10
-19.90094937030253
 20
-145.9868211490199
 30
0.0
 40
3.0
  1
幅約３９０ｍｍ×奥行き約２５９ｍｍ×高さ約５２０ｍｍ（スタンド含む）
 41
0.6700000000000001
100
AcDbText
  0
TEXT
  5
5D5
330
2
100
AcDbEntity
  8
MOJI1
100
AcDbText
 10
-19.90094937030253
 20
-150.9868211490198
 30
0.0
 40
3.0
  1
幅約３６１ｍｍ×奥行き約２２７ｍｍ×高さ約４５１ｍｍ（スタンドなし）
 41
0.6700000000000001
100
AcDbText
  0
TEXT
  5
5D6
330
2
100
AcDbEntity
  8
MOJI1
100
AcDbText
 10
-59.90094937030253
 20
-155.9868211490198
 30
0.0
 40
3.0
  1
質　量
100
AcDbText
  0
TEXT
  5
5D7
330
2
100
AcDbEntity
  8
MOJI1
100
AcDbText
 10
-19.90094937030253
 20
-155.9868211490198
 30
0.0
 40
3.0
  1
約１３．８Ｋｇ（スタンド含む）
100
AcDbText
  0
TEXT
  5
5D8
330
2
100
AcDbEntity
  8
MOJI1
100
AcDbText
 10
-19.90094937030253
 20
-160.9868211490199
 30
0.0
 40
3.0
  1
約１２．５Ｋｇ（スタンドなし）
100
AcDbText
  0
ENDSEC
  0
SECTION
  2
OBJECTS
  0
DICTIONARY
  5
A
330
0
100
AcDbDictionary
281
     1
  3
ACAD_COLOR
350
33
  3
ACAD_GROUP
350
2F
  3
ACAD_LAYOUT
350
E
  3
ACAD_MATERIAL
350
32
  3
ACAD_MLINESTYLE
350
30
  3
ACAD_PLOTSETTINGS
350
31
  3
ACAD_PLOTSTYLENAME
350
9
  3
ACDBHEADERROUNDTRIPXREC
350
646
  3
AcDbVariableDictionary
350
641
  0
DICTIONARY
  5
16
330
15
100
AcDbDictionary
280
     1
281
     1
  3
ACAD_LAYERFILTERS
360
17
  3
ACAD_LAYERSTATES
360
19
  0
DICTIONARY
  5
3
330
2
100
AcDbDictionary
280
     1
281
     1
  3
ACAD_LAYOUTSELFREF
360
4
  3
ACAD_SORTENTS
360
5
  0
DICTIONARY
  5
10
330
F
100
AcDbDictionary
280
     1
281
     1
  3
ACAD_LAYOUTSELFREF
360
11
  0
DICTIONARY
  5
33
102
{ACAD_REACTORS
330
A
102
}
330
A
100
AcDbDictionary
281
     1
  0
DICTIONARY
  5
2F
102
{ACAD_REACTORS
330
A
102
}
330
A
100
AcDbDictionary
281
     1
  0
DICTIONARY
  5
E
102
{ACAD_REACTORS
330
A
102
}
330
A
100
AcDbDictionary
281
     1
  3
Model
350
D
  3
ﾚｲｱｳﾄ1
350
14
  0
DICTIONARY
  5
32
102
{ACAD_REACTORS
330
A
102
}
330
A
100
AcDbDictionary
281
     1
  0
DICTIONARY
  5
30
102
{ACAD_REACTORS
330
A
102
}
330
A
100
AcDbDictionary
281
     1
  3
STANDARD
350
35
  0
DICTIONARY
  5
31
102
{ACAD_REACTORS
330
A
102
}
330
A
100
AcDbDictionary
281
     1
  0
ACDBDICTIONARYWDFLT
  5
9
102
{ACAD_REACTORS
330
A
102
}
330
A
100
AcDbDictionary
281
     1
  3
Normal
350
8
100
AcDbDictionaryWithDefault
340
8
  0
DICTIONARY
  5
646
102
{ACAD_REACTORS
330
A
102
}
330
A
100
AcDbDictionary
281
     1
  3
COLORDICT
350
648
  3
MATERIALDICT
350
647
  0
DICTIONARY
  5
641
102
{ACAD_REACTORS
330
A
102
}
330
A
100
AcDbDictionary
281
     1
  3
DIMASSOC
350
643
  3
HIDETEXT
350
642
  3
PROJECTNAME
350
644
  0
DICTIONARY
  5
17
102
{ACAD_REACTORS
330
16
102
}
330
16
100
AcDbDictionary
280
     1
281
     1
  3
ロック画層
360
18
  0
DICTIONARY
  5
19
102
{ACAD_REACTORS
330
16
102
}
330
16
100
AcDbDictionary
281
     1
  0
XRECORD
  5
4
102
{ACAD_REACTORS
330
3
102
}
330
3
100
AcDbXrecord
280
     1
340
2
  0
SORTENTSTABLE
  5
5
102
{ACAD_REACTORS
330
3
102
}
330
3
100
AcDbSortentsTable
330
2
  0
XRECORD
  5
11
102
{ACAD_REACTORS
330
10
102
}
330
10
100
AcDbXrecord
280
     1
340
F
  0
LAYOUT
  5
D
102
{ACAD_XDICTIONARY
360
649
102
}
102
{ACAD_REACTORS
330
E
102
}
330
E
100
AcDbPlotSettings
  1

  2
Ａ４－縦3FRIM01.pc3
  4
A4
  6

 40
5.873749732971191
 41
5.873747825622558
 42
5.873748779296875
 43
5.873748779296875
 44
209.9733276367187
 45
296.9259948730469
 46
5.4
 47
0.0
 48
-2.479811286862059
 49
-0.2823090592564767
140
260.680882607181
141
392.9895398311683
142
1.0
143
1.382690326277245
 70
 11956
 72
     1
 73
     0
 74
     1
  7
tmsacad.ctb
 75
     0
147
0.7232277401494517
148
0.5839898734307099
149
0.009273483718971
100
AcDbLayout
  1
Model
 70
     1
 71
     0
 10
0.0
 20
0.0
 11
12.0
 21
9.0
 12
0.0
 22
0.0
 32
0.0
 14
0.0
 24
0.0
 34
0.0
 15
0.0
 25
0.0
 35
0.0
146
0.0
 13
0.0
 23
0.0
 33
0.0
 16
1.0
 26
0.0
 36
0.0
 17
0.0
 27
1.0
 37
0.0
 76
     0
330
2
  0
LAYOUT
  5
14
102
{ACAD_XDICTIONARY
360
64B
102
}
102
{ACAD_REACTORS
330
E
102
}
330
E
100
AcDbPlotSettings
  1

  2
C:\Documents and Settings\10773\Application Data\Autodesk\AutoCAD 2004\R16.0\jpn\plotters\8FPAM09.pc3
  4
A3
  6

 40
4.349750041961669
 41
3.545409202575683
 42
4.3497314453125
 43
3.503082275390625
 44
297.0106506347656
 45
419.9889831542968
 46
0.0
 47
0.0
 48
0.0
 49
0.0
140
0.0
141
0.0
142
1.0
143
1.0
 70
   688
 72
     0
 73
     1
 74
     5
  7
tmsacad.ctb
 75
    16
147
1.0
148
0.0
149
0.0
100
AcDbLayout
  1
ﾚｲｱｳﾄ1
 70
     1
 71
     1
 10
-0.1379166250153789
 20
-0.1712500016520342
 11
16.39708271176796
 21
11.52208270050409
 12
0.0
 22
0.0
 32
0.0
 14
1.000000000000000E+20
 24
1.000000000000000E+20
 34
1.000000000000000E+20
 15
-1.000000000000000E+20
 25
-1.000000000000000E+20
 35
-1.000000000000000E+20
146
0.0
 13
0.0
 23
0.0
 33
0.0
 16
1.0
 26
0.0
 36
0.0
 17
0.0
 27
1.0
 37
0.0
 76
     0
330
F
  0
MLINESTYLE
  5
35
102
{ACAD_REACTORS
330
30
102
}
330
30
100
AcDbMlineStyle
  2
STANDARD
 70
     0
  3

 62
   256
 51
90.0
 52
90.0
 71
     2
 49
0.5
 62
   256
  6
BYLAYER
 49
-0.5
 62
   256
  6
BYLAYER
  0
ACDBPLACEHOLDER
  5
8
102
{ACAD_REACTORS
330
9
102
}
330
9
  0
XRECORD
  5
648
102
{ACAD_REACTORS
330
646
102
}
330
646
100
AcDbXrecord
280
     1
340
33
  0
XRECORD
  5
647
102
{ACAD_REACTORS
330
646
102
}
330
646
100
AcDbXrecord
280
     1
340
32
  0
DICTIONARYVAR
  5
643
102
{ACAD_REACTORS
330
641
102
}
330
641
100
DictionaryVariables
280
     0
  1
1
  0
DICTIONARYVAR
  5
642
102
{ACAD_REACTORS
330
641
102
}
330
641
100
DictionaryVariables
280
     0
  1
1
  0
DICTIONARYVAR
  5
644
102
{ACAD_REACTORS
330
641
102
}
330
641
100
DictionaryVariables
280
     0
  1

  0
XRECORD
  5
18
102
{ACAD_REACTORS
330
17
102
}
330
17
100
AcDbXrecord
280
     1
  1
ロック画層
  1
*
  1
*
  1
*
 70
   256
  1
*
  1
*
  0
DICTIONARY
  5
649
330
D
100
AcDbDictionary
280
     1
281
     1
  3
ACAD_XREC_ROUNDTRIP
360
64A
  0
DICTIONARY
  5
64B
330
14
100
AcDbDictionary
280
     1
281
     1
  3
ACAD_XREC_ROUNDTRIP
360
64C
  0
XRECORD
  5
64A
102
{ACAD_REACTORS
330
649
102
}
330
649
100
AcDbXrecord
280
     1
102
SHADEPLOT
 70
     0
102
SHADEPLOTRESLEVEL
 70
     2
102
SHADEPLOTCUSTOMDPI
 70
   300
  0
XRECORD
  5
64C
102
{ACAD_REACTORS
330
64B
102
}
330
64B
100
AcDbXrecord
280
     1
102
SHADEPLOT
 70
     0
102
SHADEPLOTRESLEVEL
 70
     2
102
SHADEPLOTCUSTOMDPI
 70
   300
  0
ENDSEC
  0
EOF
